  0
SECTION
  2
HEADER
  9
$ACADVER
  1
AC1015
  9
$ACADMAINTVER
 70
    20
  9
$DWGCODEPAGE
  3
ANSI_1250
  9
$INSBASE
 10
215187.233673673
 20
127657.5168525552
 30
0.0
  9
$EXTMIN
 10
215186.4132133543
 20
127655.4764006053
 30
-0.0138543462220469
  9
$EXTMAX
 10
225400.957857064
 20
141686.1638067778
 30
227.0138564603887
  9
$LIMMIN
 10
0.0
 20
0.0
  9
$LIMMAX
 10
420.0
 20
297.0
  9
$ORTHOMODE
 70
     0
  9
$REGENMODE
 70
     1
  9
$FILLMODE
 70
     1
  9
$QTEXTMODE
 70
     0
  9
$MIRRTEXT
 70
     0
  9
$LTSCALE
 40
75.0
  9
$ATTMODE
 70
     1
  9
$TEXTSIZE
 40
20.0
  9
$TRACEWID
 40
1.0
  9
$TEXTSTYLE
  7
ROMANS
  9
$CLAYER
  8
0Wymiary-PL
  9
$CELTYPE
  6
ByLayer
  9
$CECOLOR
 62
   256
  9
$CELTSCALE
 40
1.0
  9
$DISPSILH
 70
     0
  9
$DIMSCALE
 40
1.0
  9
$DIMASZ
 40
30.0
  9
$DIMEXO
 40
43.0
  9
$DIMDLI
 40
0.0
  9
$DIMRND
 40
0.5
  9
$DIMDLE
 40
12.0
  9
$DIMEXE
 40
13.0
  9
$DIMTP
 40
0.0
  9
$DIMTM
 40
0.0
  9
$DIMTXT
 40
80.0
  9
$DIMCEN
 40
0.0
  9
$DIMTSZ
 40
0.0
  9
$DIMTOL
 70
     0
  9
$DIMLIM
 70
     0
  9
$DIMTIH
 70
     0
  9
$DIMTOH
 70
     0
  9
$DIMSE1
 70
     1
  9
$DIMSE2
 70
     1
  9
$DIMTAD
 70
     0
  9
$DIMZIN
 70
    12
  9
$DIMBLK
  1
B-DIM
  9
$DIMASO
 70
     1
  9
$DIMSHO
 70
     1
  9
$DIMPOST
  1

  9
$DIMAPOST
  1

  9
$DIMALT
 70
     0
  9
$DIMALTD
 70
     2
  9
$DIMALTF
 40
25.4
  9
$DIMLFAC
 40
1.0
  9
$DIMTOFL
 70
     1
  9
$DIMTVP
 40
1.0
  9
$DIMTIX
 70
     1
  9
$DIMSOXD
 70
     0
  9
$DIMSAH
 70
     0
  9
$DIMBLK1
  1

  9
$DIMBLK2
  1

  9
$DIMSTYLE
  2
500
  9
$DIMCLRD
 70
     1
  9
$DIMCLRE
 70
     1
  9
$DIMCLRT
 70
    10
  9
$DIMTFAC
 40
1.0
  9
$DIMGAP
 40
0.0
  9
$DIMJUST
 70
     0
  9
$DIMSD1
 70
     0
  9
$DIMSD2
 70
     0
  9
$DIMTOLJ
 70
     1
  9
$DIMTZIN
 70
     0
  9
$DIMALTZ
 70
     0
  9
$DIMALTTZ
 70
     0
  9
$DIMUPT
 70
     0
  9
$DIMDEC
 70
     1
  9
$DIMTDEC
 70
     1
  9
$DIMALTU
 70
     2
  9
$DIMALTTD
 70
     2
  9
$DIMTXSTY
  7
ROMANS
  9
$DIMAUNIT
 70
     0
  9
$DIMADEC
 70
     0
  9
$DIMALTRND
 40
0.0
  9
$DIMAZIN
 70
     0
  9
$DIMDSEP
 70
    46
  9
$DIMATFIT
 70
     3
  9
$DIMFRAC
 70
     0
  9
$DIMLDRBLK
  1
B-DIM
  9
$DIMLUNIT
 70
     2
  9
$DIMLWD
 70
    -2
  9
$DIMLWE
 70
    -2
  9
$DIMTMOVE
 70
     2
  9
$LUNITS
 70
     2
  9
$LUPREC
 70
     1
  9
$SKETCHINC
 40
1.0
  9
$FILLETRAD
 40
0.0
  9
$AUNITS
 70
     0
  9
$AUPREC
 70
     0
  9
$MENU
  1
.
  9
$ELEVATION
 40
0.0
  9
$PELEVATION
 40
0.0
  9
$THICKNESS
 40
0.0
  9
$LIMCHECK
 70
     0
  9
$CHAMFERA
 40
0.0
  9
$CHAMFERB
 40
0.0
  9
$CHAMFERC
 40
20.0
  9
$CHAMFERD
 40
0.0
  9
$SKPOLY
 70
     0
  9
$TDCREATE
 40
2452027.670547454
  9
$TDUCREATE
 40
2452027.587214121
  9
$TDUPDATE
 40
2454959.383534063
  9
$TDUUPDATE
 40
2454959.300200729
  9
$TDINDWG
 40
8.8844308449
  9
$TDUSRTIMER
 40
8.8844308449
  9
$USRTIMER
 70
     1
  9
$ANGBASE
 50
0.0
  9
$ANGDIR
 70
     0
  9
$PDMODE
 70
     0
  9
$PDSIZE
 40
0.0
  9
$PLINEWID
 40
60.0
  9
$SPLFRAME
 70
     0
  9
$SPLINETYPE
 70
     6
  9
$SPLINESEGS
 70
     8
  9
$HANDSEED
  5
13A36
  9
$SURFTAB1
 70
     6
  9
$SURFTAB2
 70
     6
  9
$SURFTYPE
 70
     6
  9
$SURFU
 70
     6
  9
$SURFV
 70
     6
  9
$UCSBASE
  2

  9
$UCSNAME
  2

  9
$UCSORG
 10
0.0
 20
0.0
 30
0.0
  9
$UCSXDIR
 10
1.0
 20
0.0
 30
0.0
  9
$UCSYDIR
 10
0.0
 20
1.0
 30
0.0
  9
$UCSORTHOREF
  2

  9
$UCSORTHOVIEW
 70
     0
  9
$UCSORGTOP
 10
0.0
 20
0.0
 30
0.0
  9
$UCSORGBOTTOM
 10
0.0
 20
0.0
 30
0.0
  9
$UCSORGLEFT
 10
0.0
 20
0.0
 30
0.0
  9
$UCSORGRIGHT
 10
0.0
 20
0.0
 30
0.0
  9
$UCSORGFRONT
 10
0.0
 20
0.0
 30
0.0
  9
$UCSORGBACK
 10
0.0
 20
0.0
 30
0.0
  9
$PUCSBASE
  2

  9
$PUCSNAME
  2

  9
$PUCSORG
 10
0.0
 20
0.0
 30
0.0
  9
$PUCSXDIR
 10
1.0
 20
0.0
 30
0.0
  9
$PUCSYDIR
 10
0.0
 20
1.0
 30
0.0
  9
$PUCSORTHOREF
  2

  9
$PUCSORTHOVIEW
 70
     0
  9
$PUCSORGTOP
 10
0.0
 20
0.0
 30
0.0
  9
$PUCSORGBOTTOM
 10
0.0
 20
0.0
 30
0.0
  9
$PUCSORGLEFT
 10
0.0
 20
0.0
 30
0.0
  9
$PUCSORGRIGHT
 10
0.0
 20
0.0
 30
0.0
  9
$PUCSORGFRONT
 10
0.0
 20
0.0
 30
0.0
  9
$PUCSORGBACK
 10
0.0
 20
0.0
 30
0.0
  9
$USERI1
 70
     0
  9
$USERI2
 70
     0
  9
$USERI3
 70
     0
  9
$USERI4
 70
     0
  9
$USERI5
 70
     0
  9
$USERR1
 40
0.0
  9
$USERR2
 40
0.0
  9
$USERR3
 40
0.0
  9
$USERR4
 40
0.0
  9
$USERR5
 40
0.0
  9
$WORLDVIEW
 70
     1
  9
$SHADEDGE
 70
     3
  9
$SHADEDIF
 70
    70
  9
$TILEMODE
 70
     1
  9
$MAXACTVP
 70
    64
  9
$PINSBASE
 10
0.0
 20
0.0
 30
0.0
  9
$PLIMCHECK
 70
     0
  9
$PEXTMIN
 10
1.000000000000000E+20
 20
1.000000000000000E+20
 30
1.000000000000000E+20
  9
$PEXTMAX
 10
-1.000000000000000E+20
 20
-1.000000000000000E+20
 30
-1.000000000000000E+20
  9
$PLIMMIN
 10
0.0
 20
0.0
  9
$PLIMMAX
 10
420.0
 20
297.0
  9
$UNITMODE
 70
     0
  9
$VISRETAIN
 70
     1
  9
$PLINEGEN
 70
     0
  9
$PSLTSCALE
 70
     1
  9
$TREEDEPTH
 70
  3020
  9
$CMLSTYLE
  2
Standard
  9
$CMLJUST
 70
     0
  9
$CMLSCALE
 40
20.0
  9
$PROXYGRAPHICS
 70
     1
  9
$MEASUREMENT
 70
     0
  9
$CELWEIGHT
370
    -1
  9
$ENDCAPS
280
     0
  9
$JOINSTYLE
280
     0
  9
$LWDISPLAY
290
     1
  9
$INSUNITS
 70
     1
  9
$HYPERLINKBASE
  1

  9
$STYLESHEET
  1
monochrome_140.ctb
  9
$XEDIT
290
     1
  9
$CEPSNTYPE
380
     0
  9
$PSTYLEMODE
290
     1
  9
$FINGERPRINTGUID
  2
{938A2469-3AF5-11D5-BC95-0050BABCE9EC}
  9
$VERSIONGUID
  2
{84A06D02-CAE1-41E5-A342-37B6767CD69B}
  9
$EXTNAMES
290
     1
  9
$PSVPSCALE
 40
0.0
  9
$OLESTARTUP
290
     0
  0
ENDSEC
  0
SECTION
  2
CLASSES
  0
CLASS
  1
ACDBDICTIONARYWDFLT
  2
AcDbDictionaryWithDefault
  3
ObjectDBX Classes
 90
        0
280
     0
281
     0
  0
CLASS
  1
ACDBPLACEHOLDER
  2
AcDbPlaceHolder
  3
ObjectDBX Classes
 90
        0
280
     0
281
     0
  0
CLASS
  1
LAYOUT
  2
AcDbLayout
  3
ObjectDBX Classes
 90
        0
280
     0
281
     0
  0
CLASS
  1
DICTIONARYVAR
  2
AcDbDictionaryVar
  3
ObjectDBX Classes
 90
        0
280
     0
281
     0
  0
CLASS
  1
SORTENTSTABLE
  2
AcDbSortentsTable
  3
ObjectDBX Classes
 90
        0
280
     0
281
     0
  0
CLASS
  1
AEC_VARS_DWG_SETUP
  2
AecDbVarsDwgSetup
  3
AecBase50|Product Desc: Autodesk Architectural Desktop 2007 |Company: Autodesk,Inc. |WEB Address: www.autodesk.com
 90
      129
280
     0
281
     0
  0
CLASS
  1
AEC_DISP_REP_CONFIG
  2
AecDbDispRepConfig
  3
AecBase50|Product Desc: Autodesk Architectural Desktop 2007 |Company: Autodesk,Inc. |WEB Address: www.autodesk.com
 90
      129
280
     0
281
     0
  0
CLASS
  1
AEC_DISP_REP_SET
  2
AecDbDispRepSet
  3
AecBase50|Product Desc: Autodesk Architectural Desktop 2007 |Company: Autodesk,Inc. |WEB Address: www.autodesk.com
 90
      129
280
     0
281
     0
  0
CLASS
  1
AEC_DISP_REP_2D_SECTION
  2
AecDbDispRep2dSection
  3
AecBase50|Product Desc: Autodesk Architectural Desktop 2007 |Company: Autodesk,Inc. |WEB Address: www.autodesk.com
 90
      129
280
     0
281
     0
  0
CLASS
  1
AEC_DISP_REP_ANCHOR_BUB_TO_GRID
  2
AecDbDispRepAnchorBubToGrid
  3
AecStructureBase50|Product Desc: Autodesk Architectural Desktop 2007 |Company: Autodesk,Inc. |WEB Address: www.autodesk.com
 90
      129
280
     0
281
     0
  0
CLASS
  1
AEC_DISP_REP_ANCHOR_BUB_TO_GRID_MODEL
  2
AecDbDispRepAnchorBubToGridMdl
  3
AecStructureBase50|Product Desc: Autodesk Architectural Desktop 2007 |Company: Autodesk,Inc. |WEB Address: www.autodesk.com
 90
      129
280
     0
281
     0
  0
CLASS
  1
AEC_DISP_REP_ANCHOR_ENT_TO_NODE
  2
AecDbDispRepAnchorEntToNode
  3
AecBase50|Product Desc: Autodesk Architectural Desktop 2007 |Company: Autodesk,Inc. |WEB Address: www.autodesk.com
 90
      129
280
     0
281
     0
  0
CLASS
  1
AEC_DISP_REP_ANCHOR_TAG_TO_ENT
  2
AecDbDispRepAnchorTagToEnt
  3
AecScheduleData50|Product Desc: Autodesk Architectural Desktop 2007 |Company: Autodesk,Inc. |WEB Address: www.autodesk.com
 90
      129
280
     0
281
     0
  0
CLASS
  1
AEC_DISP_REP_AREA
  2
AecDbDispRepArea
  3
AecAreaCalculationBase50|Product Desc: Autodesk Architectural Desktop 2007 |Company: Autodesk,Inc. |WEB Address: www.autodesk.com
 90
    32897
280
     0
281
     0
  0
CLASS
  1
AEC_DISP_REP_AREA_DECOMPOSED
  2
AecDbDispRepAreaDecomposed
  3
AecAreaCalculationBase50|Product Desc: Autodesk Architectural Desktop 2007 |Company: Autodesk,Inc. |WEB Address: www.autodesk.com
 90
    32897
280
     0
281
     0
  0
CLASS
  1
AEC_DISP_REP_AREAGROUP
  2
AecDbDispRepAreaGroup
  3
AecAreaCalculationBase50|Product Desc: Autodesk Architectural Desktop 2007 |Company: Autodesk,Inc. |WEB Address: www.autodesk.com
 90
    32897
280
     0
281
     0
  0
CLASS
  1
AEC_DISP_REP_BDG_ELEVLINE_MODEL
  2
AecDbDispRepBdgElevLineModel
  3
AecArchBase50|Product Desc: Autodesk Architectural Desktop 2007 |Company: Autodesk,Inc. |WEB Address: www.autodesk.com
 90
      129
280
     0
281
     0
  0
CLASS
  1
AEC_DISP_REP_BDG_SECTIONLINE_PLAN
  2
AecDbDispRepBdgElevLinePlan
  3
AecArchBase50|Product Desc: Autodesk Architectural Desktop 2007 |Company: Autodesk,Inc. |WEB Address: www.autodesk.com
 90
      129
280
     0
281
     0
  0
CLASS
  1
AEC_DISP_REP_BDG_SECTIONLINE_MODEL
  2
AecDbDispRepBdgSectionLineModel
  3
AecArchBase50|Product Desc: Autodesk Architectural Desktop 2007 |Company: Autodesk,Inc. |WEB Address: www.autodesk.com
 90
      129
280
     0
281
     0
  0
CLASS
  1
AEC_DISP_REP_BDG_SECTIONLINE_PLAN
  2
AecDbDispRepBdgSectionLinePlan
  3
AecArchBase50|Product Desc: Autodesk Architectural Desktop 2007 |Company: Autodesk,Inc. |WEB Address: www.autodesk.com
 90
      129
280
     0
281
     0
  0
CLASS
  1
AEC_DISP_REP_BDG_SECTION_SUBDIV
  2
AecDbDispRepBdgSectionSubDiv
  3
AecArchBase50|Product Desc: Autodesk Architectural Desktop 2007 |Company: Autodesk,Inc. |WEB Address: www.autodesk.com
 90
      129
280
     0
281
     0
  0
CLASS
  1
AEC_DISP_REP_CAMERA
  2
AecDbDispRepCamera
  3
AecBase50|Product Desc: Autodesk Architectural Desktop 2007 |Company: Autodesk,Inc. |WEB Address: www.autodesk.com
 90
    32897
280
     0
281
     0
  0
CLASS
  1
AEC_DISP_REP_CEILING_GRID
  2
AecDbDispRepCeilingGrid
  3
AecArchBase50|Product Desc: Autodesk Architectural Desktop 2007 |Company: Autodesk,Inc. |WEB Address: www.autodesk.com
 90
      893
280
     0
281
     0
  0
CLASS
  1
AEC_DISP_REP_CEILING_GRID_MODEL
  2
AecDbDispRepCeilingGridModel
  3
AecArchBase50|Product Desc: Autodesk Architectural Desktop 2007 |Company: Autodesk,Inc. |WEB Address: www.autodesk.com
 90
      129
280
     0
281
     0
  0
CLASS
  1
AEC_DISP_REP_CEILING_GRID_RCP
  2
AecDbDispRepCeilingGridRcp
  3
AecArchBase50|Product Desc: Autodesk Architectural Desktop 2007 |Company: Autodesk,Inc. |WEB Address: www.autodesk.com
 90
      129
280
     0
281
     0
  0
CLASS
  1
AEC_DISP_REP_CLIP_VOLUME_MODEL
  2
AecDbDispRepClipVolModel
  3
AecBase50|Product Desc: Autodesk Architectural Desktop 2007 |Company: Autodesk,Inc. |WEB Address: www.autodesk.com
 90
      129
280
     0
281
     0
  0
CLASS
  1
AEC_DISP_REP_CLIP_VOLUME_PLAN
  2
AecDbDispRepClipVolPlan
  3
AecBase50|Product Desc: Autodesk Architectural Desktop 2007 |Company: Autodesk,Inc. |WEB Address: www.autodesk.com
 90
      129
280
     0
281
     0
  0
CLASS
  1
AEC_DISP_REP_CLIP_VOLUME_RESULT_SUBDIV
  2
AecDbDispRepClipVolResSubDiv
  3
AecBase50|Product Desc: Autodesk Architectural Desktop 2007 |Company: Autodesk,Inc. |WEB Address: www.autodesk.com
 90
      129
280
     0
281
     0
  0
CLASS
  1
AEC_DISP_REP_CLIP_VOLUME_RESULT
  2
AecDbDispRepClipVolResult
  3
AecBase50|Product Desc: Autodesk Architectural Desktop 2007 |Company: Autodesk,Inc. |WEB Address: www.autodesk.com
 90
      129
280
     0
281
     0
  0
CLASS
  1
AEC_DISP_REP_COLUMN_GRID
  2
AecDbDispRepColumnGrid
  3
AecStructureBase50|Product Desc: Autodesk Architectural Desktop 2007 |Company: Autodesk,Inc. |WEB Address: www.autodesk.com
 90
      129
280
     0
281
     0
  0
CLASS
  1
AEC_DISP_REP_COLUMN_GRID_MODEL
  2
AecDbDispRepColumnGridModel
  3
AecStructureBase50|Product Desc: Autodesk Architectural Desktop 2007 |Company: Autodesk,Inc. |WEB Address: www.autodesk.com
 90
      129
280
     0
281
     0
  0
CLASS
  1
AEC_DISP_REP_CURTAIN_WALL_LAYOUT_MODEL
  2
AecDbDispRepCurtainWallLayoutModel
  3
AecArchBase50|Product Desc: Autodesk Architectural Desktop 2007 |Company: Autodesk,Inc. |WEB Address: www.autodesk.com
 90
      129
280
     0
281
     0
  0
CLASS
  1
AEC_DISP_REP_CURTAIN_WALL_LAYOUT_PLAN
  2
AecDbDispRepCurtainWallLayoutPlan
  3
AecArchBase50|Product Desc: Autodesk Architectural Desktop 2007 |Company: Autodesk,Inc. |WEB Address: www.autodesk.com
 90
      129
280
     0
281
     0
  0
CLASS
  1
AEC_DISP_REP_CURTAIN_WALL_UNIT_MODEL
  2
AecDbDispRepCurtainWallUnitModel
  3
AecArchBase50|Product Desc: Autodesk Architectural Desktop 2007 |Company: Autodesk,Inc. |WEB Address: www.autodesk.com
 90
      129
280
     0
281
     0
  0
CLASS
  1
AEC_DISP_REP_CURTAIN_WALL_UNIT_PLAN
  2
AecDbDispRepCurtainWallUnitPlan
  3
AecArchBase50|Product Desc: Autodesk Architectural Desktop 2007 |Company: Autodesk,Inc. |WEB Address: www.autodesk.com
 90
      129
280
     0
281
     0
  0
CLASS
  1
AEC_DB_DISP_REP_DIM_GROUP_PLAN
  2
AecDbDispRepDimGroupPlan
  3
AecArchDACHBase50|Product Desc: Autodesk Architectural Desktop 2007 |Company: Autodesk,Inc. |WEB Address: www.autodesk.com
 90
      129
280
     0
281
     0
  0
CLASS
  1
AEC_DISP_REP_DOOR_MODEL
  2
AecDbDispRepDoorModel
  3
AecArchBase50|Product Desc: Autodesk Architectural Desktop 2007 |Company: Autodesk,Inc. |WEB Address: www.autodesk.com
 90
      129
280
     0
281
     0
  0
CLASS
  1
AEC_DISP_REP_DOOR_NOMINAL
  2
AecDbDispRepDoorNominal
  3
AecArchBase50|Product Desc: Autodesk Architectural Desktop 2007 |Company: Autodesk,Inc. |WEB Address: www.autodesk.com
 90
      129
280
     0
281
     0
  0
CLASS
  1
AEC_DISP_REP_DOOR_PLAN
  2
AecDbDispRepDoorPlan
  3
AecArchBase50|Product Desc: Autodesk Architectural Desktop 2007 |Company: Autodesk,Inc. |WEB Address: www.autodesk.com
 90
      129
280
     0
281
     0
  0
CLASS
  1
AEC_DISP_REP_EDITINPLACEPROFILE
  2
AecDbDispRepEditInPlaceProfile
  3
AecBase50|Product Desc: Autodesk Architectural Desktop 2007 |Company: Autodesk,Inc. |WEB Address: www.autodesk.com
 90
      129
280
     0
281
     0
  0
CLASS
  1
AEC_DISP_REP_ENT_REF
  2
AecDbDispRepEntRef
  3
AecBase50|Product Desc: Autodesk Architectural Desktop 2007 |Company: Autodesk,Inc. |WEB Address: www.autodesk.com
 90
      129
280
     0
281
     0
  0
CLASS
  1
AEC_DISP_REP_LAYOUT_CURVE
  2
AecDbDispRepLayoutCurve
  3
AecBase50|Product Desc: Autodesk Architectural Desktop 2007 |Company: Autodesk,Inc. |WEB Address: www.autodesk.com
 90
      129
280
     0
281
     0
  0
CLASS
  1
AEC_DISP_REP_LAYOUT_GRID2D
  2
AecDbDispRepLayoutGrid2d
  3
AecBase50|Product Desc: Autodesk Architectural Desktop 2007 |Company: Autodesk,Inc. |WEB Address: www.autodesk.com
 90
      129
280
     0
281
     0
  0
CLASS
  1
AEC_DISP_REP_LAYOUT_GRID3D
  2
AecDbDispRepLayoutGrid3d
  3
AecBase50|Product Desc: Autodesk Architectural Desktop 2007 |Company: Autodesk,Inc. |WEB Address: www.autodesk.com
 90
      129
280
     0
281
     0
  0
CLASS
  1
AEC_DISP_REP_MASKBLOCK_REF
  2
AecDbDispRepMaskBlockRef
  3
AecBase50|Product Desc: Autodesk Architectural Desktop 2007 |Company: Autodesk,Inc. |WEB Address: www.autodesk.com
 90
      129
280
     0
281
     0
  0
CLASS
  1
AEC_DISP_REP_MASKBLOCK_REF_RCP
  2
AecDbDispRepMaskBlockRefRcp
  3
AecArchBase50|Product Desc: Autodesk Architectural Desktop 2007 |Company: Autodesk,Inc. |WEB Address: www.autodesk.com
 90
      129
280
     0
281
     0
  0
CLASS
  1
AEC_DISP_REP_MASS_ELEM_MODEL
  2
AecDbDispRepMassElemModel
  3
AecBaseEx50|Product Desc: Autodesk Architectural Desktop 2007 |Company: Autodesk,Inc. |WEB Address: www.autodesk.com
 90
      129
280
     0
281
     0
  0
CLASS
  1
AEC_DISP_REP_MASS_ELEM_SCHEM
  2
AecDbDispRepMassElemSchem
  3
AecBaseEx50|Product Desc: Autodesk Architectural Desktop 2007 |Company: Autodesk,Inc. |WEB Address: www.autodesk.com
 90
      129
280
     0
281
     0
  0
CLASS
  1
AEC_DISP_REP_MASS_GROUP_MODEL
  2
AecDbDispRepMassGroupModel
  3
AecBaseEx50|Product Desc: Autodesk Architectural Desktop 2007 |Company: Autodesk,Inc. |WEB Address: www.autodesk.com
 90
      129
280
     0
281
     0
  0
CLASS
  1
AEC_DISP_REP_MASS_GROUP_PLAN
  2
AecDbDispRepMassGroupPlan
  3
AecBaseEx50|Product Desc: Autodesk Architectural Desktop 2007 |Company: Autodesk,Inc. |WEB Address: www.autodesk.com
 90
      129
280
     0
281
     0
  0
CLASS
  1
AEC_DISP_REP_MATERIAL
  2
AecDbDispRepMaterial
  3
AecBase50|Product Desc: Autodesk Architectural Desktop 2007 |Company: Autodesk,Inc. |WEB Address: www.autodesk.com
 90
      129
280
     0
281
     0
  0
CLASS
  1
AEC_DISP_REP_MVBLOCK_REF
  2
AecDbDispRepMvBlockRef
  3
AecBase50|Product Desc: Autodesk Architectural Desktop 2007 |Company: Autodesk,Inc. |WEB Address: www.autodesk.com
 90
      129
280
     0
281
     0
  0
CLASS
  1
AEC_DISP_REP_MVBLOCK_REF_MODEL
  2
AecDbDispRepMvBlockRefModel
  3
AecBase50|Product Desc: Autodesk Architectural Desktop 2007 |Company: Autodesk,Inc. |WEB Address: www.autodesk.com
 90
      129
280
     0
281
     0
  0
CLASS
  1
AEC_DISP_REP_OPENING
  2
AecDbDispRepOpening
  3
AecArchBase50|Product Desc: Autodesk Architectural Desktop 2007 |Company: Autodesk,Inc. |WEB Address: www.autodesk.com
 90
      129
280
     0
281
     0
  0
CLASS
  1
AEC_DISP_REP_OPENING_MODEL
  2
AecDbDispRepOpeningModel
  3
AecArchBase50|Product Desc: Autodesk Architectural Desktop 2007 |Company: Autodesk,Inc. |WEB Address: www.autodesk.com
 90
      129
280
     0
281
     0
  0
CLASS
  1
AEC_DISP_REP_POLYGON_MODEL
  2
AecDbDispRepPolygonModel
  3
AecBase50|Product Desc: Autodesk Architectural Desktop 2007 |Company: Autodesk,Inc. |WEB Address: www.autodesk.com
 90
      129
280
     0
281
     0
  0
CLASS
  1
AEC_DISP_REP_RAILING_MODEL
  2
AecDbDispRepRailingModel
  3
AecArchBase50|Product Desc: Autodesk Architectural Desktop 2007 |Company: Autodesk,Inc. |WEB Address: www.autodesk.com
 90
      129
280
     0
281
     0
  0
CLASS
  1
AEC_DISP_REP_RAILING_PLAN
  2
AecDbDispRepRailingPlan
  3
AecArchBase50|Product Desc: Autodesk Architectural Desktop 2007 |Company: Autodesk,Inc. |WEB Address: www.autodesk.com
 90
      129
280
     0
281
     0
  0
CLASS
  1
AEC_DISP_REP_ROOF_MODEL
  2
AecDbDispRepRoofModel
  3
AecArchBase50|Product Desc: Autodesk Architectural Desktop 2007 |Company: Autodesk,Inc. |WEB Address: www.autodesk.com
 90
      129
280
     0
281
     0
  0
CLASS
  1
AEC_DISP_REP_ROOF_PLAN
  2
AecDbDispRepRoofPlan
  3
AecArchBase50|Product Desc: Autodesk Architectural Desktop 2007 |Company: Autodesk,Inc. |WEB Address: www.autodesk.com
 90
      129
280
     0
281
     0
  0
CLASS
  1
AEC_DISP_REP_ROOFSLAB_MODEL
  2
AecDbDispRepRoofSlabModel
  3
AecArchBase50|Product Desc: Autodesk Architectural Desktop 2007 |Company: Autodesk,Inc. |WEB Address: www.autodesk.com
 90
      129
280
     0
281
     0
  0
CLASS
  1
AEC_DISP_REP_ROOFSLAB_PLAN
  2
AecDbDispRepRoofSlabPlan
  3
AecArchBase50|Product Desc: Autodesk Architectural Desktop 2007 |Company: Autodesk,Inc. |WEB Address: www.autodesk.com
 90
      129
280
     0
281
     0
  0
CLASS
  1
AEC_DISP_REP_SCHEDULE_TABLE
  2
AecDbDispRepScheduleTable
  3
AecSchedule50|Product Desc: Autodesk Architectural Desktop 2007 |Company: Autodesk,Inc. |WEB Address: www.autodesk.com
 90
      129
280
     0
281
     0
  0
CLASS
  1
AEC_DISP_REP_SLAB_MODEL
  2
AecDbDispRepSlabModel
  3
AecArchBase50|Product Desc: Autodesk Architectural Desktop 2007 |Company: Autodesk,Inc. |WEB Address: www.autodesk.com
 90
      129
280
     0
281
     0
  0
CLASS
  1
AEC_DISP_REP_SLAB_PLAN
  2
AecDbDispRepSlabPlan
  3
AecArchBase50|Product Desc: Autodesk Architectural Desktop 2007 |Company: Autodesk,Inc. |WEB Address: www.autodesk.com
 90
      129
280
     0
281
     0
  0
CLASS
  1
AEC_DISP_REP_SLICE
  2
AecDbDispRepSlice
  3
AecBase50|Product Desc: Autodesk Architectural Desktop 2007 |Company: Autodesk,Inc. |WEB Address: www.autodesk.com
 90
      129
280
     0
281
     0
  0
CLASS
  1
AEC_DISP_REP_SPACE_BOUNDARY_MODEL
  2
AecDbDispRepSpaceBoundaryModel
  3
AecArchBase50|Product Desc: Autodesk Architectural Desktop 2007 |Company: Autodesk,Inc. |WEB Address: www.autodesk.com
 90
    32897
280
     0
281
     0
  0
CLASS
  1
AEC_DISP_REP_SPACE_BOUNDARY_PLAN
  2
AecDbDispRepSpaceBoundaryPlan
  3
AecArchBase50|Product Desc: Autodesk Architectural Desktop 2007 |Company: Autodesk,Inc. |WEB Address: www.autodesk.com
 90
    32897
280
     0
281
     0
  0
CLASS
  1
AEC_DISP_REP_SPACE_BOUNDARY_SCHEM
  2
AecDbDispRepSpaceBoundarySketch
  3
AecArchBase50|Product Desc: Autodesk Architectural Desktop 2007 |Company: Autodesk,Inc. |WEB Address: www.autodesk.com
 90
    32897
280
     0
281
     0
  0
CLASS
  1
AEC_DISP_REP_SPACE_MODEL
  2
AecDbDispRepSpaceModel
  3
AecArchBase50|Product Desc: Autodesk Architectural Desktop 2007 |Company: Autodesk,Inc. |WEB Address: www.autodesk.com
 90
      129
280
     0
281
     0
  0
CLASS
  1
AEC_DISP_REP_SPACE_PLAN
  2
AecDbDispRepSpacePlan
  3
AecArchBase50|Product Desc: Autodesk Architectural Desktop 2007 |Company: Autodesk,Inc. |WEB Address: www.autodesk.com
 90
      129
280
     0
281
     0
  0
CLASS
  1
AEC_DISP_REP_STAIR_MODEL
  2
AecDbDispRepStairModel
  3
AecArchBase50|Product Desc: Autodesk Architectural Desktop 2007 |Company: Autodesk,Inc. |WEB Address: www.autodesk.com
 90
      129
280
     0
281
     0
  0
CLASS
  1
AEC_DISP_REP_STAIR_PLAN
  2
AecDbDispRepStairPlan
  3
AecArchBase50|Product Desc: Autodesk Architectural Desktop 2007 |Company: Autodesk,Inc. |WEB Address: www.autodesk.com
 90
      129
280
     0
281
     0
  0
CLASS
  1
AEC_DISP_REP_WALL_GRAPH
  2
AecDbDispRepWallGraph
  3
AecArchBase50|Product Desc: Autodesk Architectural Desktop 2007 |Company: Autodesk,Inc. |WEB Address: www.autodesk.com
 90
      129
280
     0
281
     0
  0
CLASS
  1
AEC_DISP_REP_WALL_MODEL
  2
AecDbDispRepWallModel
  3
AecArchBase50|Product Desc: Autodesk Architectural Desktop 2007 |Company: Autodesk,Inc. |WEB Address: www.autodesk.com
 90
      129
280
     0
281
     0
  0
CLASS
  1
AEC_DISP_REP_WALL_PLAN
  2
AecDbDispRepWallPlan
  3
AecArchBase50|Product Desc: Autodesk Architectural Desktop 2007 |Company: Autodesk,Inc. |WEB Address: www.autodesk.com
 90
      129
280
     0
281
     0
  0
CLASS
  1
AEC_DISP_REP_WALL_SCHEM
  2
AecDbDispRepWallSchem
  3
AecArchBase50|Product Desc: Autodesk Architectural Desktop 2007 |Company: Autodesk,Inc. |WEB Address: www.autodesk.com
 90
      129
280
     0
281
     0
  0
CLASS
  1
AEC_DISP_REP_WINDOW_ASSEMBLY_MODEL
  2
AecDbDispRepWindowAssemblyModel
  3
AecArchBase50|Product Desc: Autodesk Architectural Desktop 2007 |Company: Autodesk,Inc. |WEB Address: www.autodesk.com
 90
      129
280
     0
281
     0
  0
CLASS
  1
AEC_DISP_REP_WINDOW_ASSEMBLY_PLAN
  2
AecDbDispRepWindowAssemblyPlan
  3
AecArchBase50|Product Desc: Autodesk Architectural Desktop 2007 |Company: Autodesk,Inc. |WEB Address: www.autodesk.com
 90
      129
280
     0
281
     0
  0
CLASS
  1
AEC_AECDBDISPREPWINDOWASSEMBLYPLAN100
  2
AecDbDispRepWindowAssemblyPlan100
  3
AecArchDACHBase50|Product Desc: Autodesk Architectural Desktop 2007 |Company: Autodesk,Inc. |WEB Address: www.autodesk.com
 90
      129
280
     0
281
     0
  0
CLASS
  1
AEC_DISP_REP_WINDOW_MODEL
  2
AecDbDispRepWindowModel
  3
AecArchBase50|Product Desc: Autodesk Architectural Desktop 2007 |Company: Autodesk,Inc. |WEB Address: www.autodesk.com
 90
      129
280
     0
281
     0
  0
CLASS
  1
AEC_DISP_REP_WINDOW_NOMINAL
  2
AecDbDispRepWindowNominal
  3
AecArchBase50|Product Desc: Autodesk Architectural Desktop 2007 |Company: Autodesk,Inc. |WEB Address: www.autodesk.com
 90
      129
280
     0
281
     0
  0
CLASS
  1
AEC_DISP_REP_WINDOW_PLAN
  2
AecDbDispRepWindowPlan
  3
AecArchBase50|Product Desc: Autodesk Architectural Desktop 2007 |Company: Autodesk,Inc. |WEB Address: www.autodesk.com
 90
      129
280
     0
281
     0
  0
CLASS
  1
AECS_DISP_REP_MEMBER_LOGICAL
  2
AecsDbDispRepMemberLogical
  3
AecStructureBase50|Product Desc: Autodesk Architectural Desktop 2007 |Company: Autodesk,Inc. |WEB Address: www.autodesk.com
 90
      129
280
     0
281
     0
  0
CLASS
  1
AECS_DISP_REP_MEMBER_MODEL_DESIGN
  2
AecsDbDispRepMemberModelDesign
  3
AecStructureBase50|Product Desc: Autodesk Architectural Desktop 2007 |Company: Autodesk,Inc. |WEB Address: www.autodesk.com
 90
      129
280
     0
281
     0
  0
CLASS
  1
AECS_DISP_REP_MEMBER_PLAN_DESIGN
  2
AecsDbDispRepMemberPlanDesign
  3
AecStructureBase50|Product Desc: Autodesk Architectural Desktop 2007 |Company: Autodesk,Inc. |WEB Address: www.autodesk.com
 90
      129
280
     0
281
     0
  0
CLASS
  1
AEC_DISP_PROPS_ENT
  2
AecDbDispPropsEnt
  3
AecBase50|Product Desc: Autodesk Architectural Desktop 2007 |Company: Autodesk,Inc. |WEB Address: www.autodesk.com
 90
      129
280
     0
281
     0
  0
CLASS
  1
AEC_DISP_PROPS_CLIP_VOLUME
  2
AecDbDispPropsClipVol
  3
AecBase50|Product Desc: Autodesk Architectural Desktop 2007 |Company: Autodesk,Inc. |WEB Address: www.autodesk.com
 90
      129
280
     0
281
     0
  0
CLASS
  1
AEC_DISP_PROPS_SLICE
  2
AecDbDispPropsSlice
  3
AecBase50|Product Desc: Autodesk Architectural Desktop 2007 |Company: Autodesk,Inc. |WEB Address: www.autodesk.com
 90
      129
280
     0
281
     0
  0
CLASS
  1
AEC_DISP_PROPS_ROOFSLAB_PLAN
  2
AecDbDispPropsRoofSlabPlan
  3
AecArchBase50|Product Desc: Autodesk Architectural Desktop 2007 |Company: Autodesk,Inc. |WEB Address: www.autodesk.com
 90
      129
280
     0
281
     0
  0
CLASS
  1
AEC_DISP_PROPS_GRID_ASSEMBLY_MODEL
  2
AecDbDispPropsGridAssemblyModel
  3
AecArchBase50|Product Desc: Autodesk Architectural Desktop 2007 |Company: Autodesk,Inc. |WEB Address: www.autodesk.com
 90
      129
280
     0
281
     0
  0
CLASS
  1
AEC_DISP_PROPS_ROOF
  2
AecDbDispPropsRoof
  3
AecArchBase50|Product Desc: Autodesk Architectural Desktop 2007 |Company: Autodesk,Inc. |WEB Address: www.autodesk.com
 90
      129
280
     0
281
     0
  0
CLASS
  1
AEC_DISP_PROPS_SPACE_MODEL
  2
AecDbDispPropsSpaceModel
  3
AecArchBase50|Product Desc: Autodesk Architectural Desktop 2007 |Company: Autodesk,Inc. |WEB Address: www.autodesk.com
 90
      129
280
     0
281
     0
  0
CLASS
  1
AEC_DISP_PROPS_EDITINPLACEPROFILE_MODEL
  2
AecDbDispPropsEditInPlaceProfile
  3
AecBase50|Product Desc: Autodesk Architectural Desktop 2007 |Company: Autodesk,Inc. |WEB Address: www.autodesk.com
 90
      129
280
     0
281
     0
  0
CLASS
  1
AEC_DISP_PROPS_DOOR
  2
AecDbDispPropsDoor
  3
AecArchBase50|Product Desc: Autodesk Architectural Desktop 2007 |Company: Autodesk,Inc. |WEB Address: www.autodesk.com
 90
      129
280
     0
281
     0
  0
CLASS
  1
AEC_DISP_PROPS_MASKBLOCK
  2
AecDbDispPropsMaskBlock
  3
AecBase50|Product Desc: Autodesk Architectural Desktop 2007 |Company: Autodesk,Inc. |WEB Address: www.autodesk.com
 90
      129
280
     0
281
     0
  0
CLASS
  1
AEC_DISP_PROPS_SPACE_PLAN
  2
AecDbDispPropsSpacePlan
  3
AecArchBase50|Product Desc: Autodesk Architectural Desktop 2007 |Company: Autodesk,Inc. |WEB Address: www.autodesk.com
 90
      129
280
     0
281
     0
  0
CLASS
  1
AEC_DISP_PROPS_RAILING_PLAN
  2
AecDbDispPropsRailingPlan
  3
AecArchBase50|Product Desc: Autodesk Architectural Desktop 2007 |Company: Autodesk,Inc. |WEB Address: www.autodesk.com
 90
      129
280
     0
281
     0
  0
CLASS
  1
AEC_DISP_PROPS_LAYOUT_GRID2D
  2
AecDbDispPropsLayoutGrid2d
  3
AecBase50|Product Desc: Autodesk Architectural Desktop 2007 |Company: Autodesk,Inc. |WEB Address: www.autodesk.com
 90
      129
280
     0
281
     0
  0
CLASS
  1
AEC_DISP_PROPS_CLIP_VOLUME_RESULT
  2
AecDbDispPropsClipVolResSubDiv
  3
AecBase50|Product Desc: Autodesk Architectural Desktop 2007 |Company: Autodesk,Inc. |WEB Address: www.autodesk.com
 90
      129
280
     0
281
     0
  0
CLASS
  1
AEC_DISP_PROPS_STAIR_MODEL
  2
AecDbDispPropsStairModel
  3
AecArchBase50|Product Desc: Autodesk Architectural Desktop 2007 |Company: Autodesk,Inc. |WEB Address: www.autodesk.com
 90
      129
280
     0
281
     0
  0
CLASS
  1
AEC_DISP_PROPS_LAYOUT_CURVE
  2
AecDbDispPropsLayoutCurve
  3
AecBase50|Product Desc: Autodesk Architectural Desktop 2007 |Company: Autodesk,Inc. |WEB Address: www.autodesk.com
 90
      129
280
     0
281
     0
  0
CLASS
  1
AEC_DISP_PROPS_POLYGON_MODEL
  2
AecDbDispPropsPolygonModel
  3
AecBase50|Product Desc: Autodesk Architectural Desktop 2007 |Company: Autodesk,Inc. |WEB Address: www.autodesk.com
 90
      129
280
     0
281
     0
  0
CLASS
  1
AEC_DISP_PROPS_MASS_GROUP
  2
AecDbDispPropsMassGroup
  3
AecBaseEx50|Product Desc: Autodesk Architectural Desktop 2007 |Company: Autodesk,Inc. |WEB Address: www.autodesk.com
 90
      129
280
     0
281
     0
  0
CLASS
  1
AEC_DISP_PROPS_STAIR_PLAN
  2
AecDbDispPropsStairPlan
  3
AecArchBase50|Product Desc: Autodesk Architectural Desktop 2007 |Company: Autodesk,Inc. |WEB Address: www.autodesk.com
 90
      129
280
     0
281
     0
  0
CLASS
  1
AEC_DISP_PROPS_OPENING
  2
AecDbDispPropsOpening
  3
AecArchBase50|Product Desc: Autodesk Architectural Desktop 2007 |Company: Autodesk,Inc. |WEB Address: www.autodesk.com
 90
      129
280
     0
281
     0
  0
CLASS
  1
AEC_DISP_PROPS_WALL_GRAPH
  2
AecDbDispPropsWallGraph
  3
AecArchBase50|Product Desc: Autodesk Architectural Desktop 2007 |Company: Autodesk,Inc. |WEB Address: www.autodesk.com
 90
      129
280
     0
281
     0
  0
CLASS
  1
AEC_DISP_PROPS_DOOR_NOMINAL
  2
AecDbDispPropsDoorNominal
  3
AecArchBase50|Product Desc: Autodesk Architectural Desktop 2007 |Company: Autodesk,Inc. |WEB Address: www.autodesk.com
 90
      129
280
     0
281
     0
  0
CLASS
  1
AEC_DISP_PROPS_SLAB
  2
AecDbDispPropsSlab
  3
AecArchBase50|Product Desc: Autodesk Architectural Desktop 2007 |Company: Autodesk,Inc. |WEB Address: www.autodesk.com
 90
      129
280
     0
281
     0
  0
CLASS
  1
AEC_DISP_PROPS_WALL_MODEL
  2
AecDbDispPropsWallModel
  3
AecArchBase50|Product Desc: Autodesk Architectural Desktop 2007 |Company: Autodesk,Inc. |WEB Address: www.autodesk.com
 90
      129
280
     0
281
     0
  0
CLASS
  1
AEC_DISP_PROPS_MATERIAL
  2
AecDbDispPropsMaterial
  3
AecBase50|Product Desc: Autodesk Architectural Desktop 2007 |Company: Autodesk,Inc. |WEB Address: www.autodesk.com
 90
      129
280
     0
281
     0
  0
CLASS
  1
AEC_DISP_PROPS_WINDOW
  2
AecDbDispPropsWindow
  3
AecArchBase50|Product Desc: Autodesk Architectural Desktop 2007 |Company: Autodesk,Inc. |WEB Address: www.autodesk.com
 90
      129
280
     0
281
     0
  0
CLASS
  1
AEC_DISP_PROPS_LAYOUT_GRID3D
  2
AecDbDispPropsLayoutGrid3d
  3
AecBase50|Product Desc: Autodesk Architectural Desktop 2007 |Company: Autodesk,Inc. |WEB Address: www.autodesk.com
 90
      129
280
     0
281
     0
  0
CLASS
  1
AEC_DISP_PROPS_GRID_ASSEMBLY_PLAN
  2
AecDbDispPropsGridAssemblyPlan
  3
AecArchBase50|Product Desc: Autodesk Architectural Desktop 2007 |Company: Autodesk,Inc. |WEB Address: www.autodesk.com
 90
      129
280
     0
281
     0
  0
CLASS
  1
AEC_DISP_PROPS_WALL_SCHEM
  2
AecDbDispPropsWallSchem
  3
AecArchBase50|Product Desc: Autodesk Architectural Desktop 2007 |Company: Autodesk,Inc. |WEB Address: www.autodesk.com
 90
      129
280
     0
281
     0
  0
CLASS
  1
AEC_DISP_PROPS_WALL_PLAN
  2
AecDbDispPropsWallPlan
  3
AecArchBase50|Product Desc: Autodesk Architectural Desktop 2007 |Company: Autodesk,Inc. |WEB Address: www.autodesk.com
 90
      129
280
     0
281
     0
  0
CLASS
  1
AEC_DISP_PROPS_SPACE_BOUNDARY
  2
AecDbDispPropsSpaceBoundary
  3
AecArchBase50|Product Desc: Autodesk Architectural Desktop 2007 |Company: Autodesk,Inc. |WEB Address: www.autodesk.com
 90
    32897
280
     0
281
     0
  0
CLASS
  1
AEC_DISP_PROPS_SLAB_PLAN
  2
AecDbDispPropsSlabPlan
  3
AecArchBase50|Product Desc: Autodesk Architectural Desktop 2007 |Company: Autodesk,Inc. |WEB Address: www.autodesk.com
 90
      129
280
     0
281
     0
  0
CLASS
  1
AEC_DISP_PROPS_RAILING_MODEL
  2
AecDbDispPropsRailingModel
  3
AecArchBase50|Product Desc: Autodesk Architectural Desktop 2007 |Company: Autodesk,Inc. |WEB Address: www.autodesk.com
 90
      129
280
     0
281
     0
  0
CLASS
  1
AEC_DISP_PROPS_MASS_ELEM_MODEL
  2
AecDbDispPropsMassElem
  3
AecBaseEx50|Product Desc: Autodesk Architectural Desktop 2007 |Company: Autodesk,Inc. |WEB Address: www.autodesk.com
 90
      129
280
     0
281
     0
  0
CLASS
  1
AEC_DISP_PROPS_DIM
  2
AecDbDispPropsDimGroup
  3
AecArchDACHBase50|Product Desc: Autodesk Architectural Desktop 2007 |Company: Autodesk,Inc. |WEB Address: www.autodesk.com
 90
      129
280
     0
281
     0
  0
CLASS
  1
AEC_DISP_PROPS_ROOFSLAB
  2
AecDbDispPropsRoofSlab
  3
AecArchBase50|Product Desc: Autodesk Architectural Desktop 2007 |Company: Autodesk,Inc. |WEB Address: www.autodesk.com
 90
      129
280
     0
281
     0
  0
CLASS
  1
AEC_DISP_PROPS_ENT_REF
  2
AecDbDispPropsEntRef
  3
AecBase50|Product Desc: Autodesk Architectural Desktop 2007 |Company: Autodesk,Inc. |WEB Address: www.autodesk.com
 90
      129
280
     0
281
     0
  0
CLASS
  1
AEC_DISP_PROPS_2D_SECTION
  2
AecDbDispProps2dSection
  3
AecBase50|Product Desc: Autodesk Architectural Desktop 2007 |Company: Autodesk,Inc. |WEB Address: www.autodesk.com
 90
      129
280
     0
281
     0
  0
CLASS
  1
AECS_DISP_PROPS_MEMBER_LOGICAL
  2
AecsDbDispPropsMemberLogical
  3
AecStructureBase50|Product Desc: Autodesk Architectural Desktop 2007 |Company: Autodesk,Inc. |WEB Address: www.autodesk.com
 90
      129
280
     0
281
     0
  0
CLASS
  1
AEC_DISP_PROPS_AREA_DECOMPOSED
  2
AecDbDispPropsAreaDecomposed
  3
AecAreaCalculationBase50|Product Desc: Autodesk Architectural Desktop 2007 |Company: Autodesk,Inc. |WEB Address: www.autodesk.com
 90
    32897
280
     0
281
     0
  0
CLASS
  1
AEC_DISP_PROPS_CAMERA
  2
AecDbDispPropsCamera
  3
AecBase50|Product Desc: Autodesk Architectural Desktop 2007 |Company: Autodesk,Inc. |WEB Address: www.autodesk.com
 90
    32897
280
     0
281
     0
  0
CLASS
  1
AECS_DISP_PROPS_MEMBER
  2
AecsDbDispPropsMember
  3
AecStructureBase50|Product Desc: Autodesk Architectural Desktop 2007 |Company: Autodesk,Inc. |WEB Address: www.autodesk.com
 90
      129
280
     0
281
     0
  0
CLASS
  1
AECS_DISP_PROPS_MEMBER_PLAN
  2
AecsDbDispPropsMemberPlan
  3
AecStructureBase50|Product Desc: Autodesk Architectural Desktop 2007 |Company: Autodesk,Inc. |WEB Address: www.autodesk.com
 90
      129
280
     0
281
     0
  0
CLASS
  1
AEC_DISP_PROPS_AREAGROUP
  2
AecDbDispPropsAreaGroup
  3
AecAreaCalculationBase50|Product Desc: Autodesk Architectural Desktop 2007 |Company: Autodesk,Inc. |WEB Address: www.autodesk.com
 90
    32897
280
     0
281
     0
  0
CLASS
  1
AEC_DISP_PROPS_WINDOW_NOMINAL
  2
AecDbDispPropsWindowNominal
  3
AecArchBase50|Product Desc: Autodesk Architectural Desktop 2007 |Company: Autodesk,Inc. |WEB Address: www.autodesk.com
 90
      129
280
     0
281
     0
  0
CLASS
  1
AEC_DISP_PROPS_AREA
  2
AecDbDispPropsArea
  3
AecAreaCalculationBase50|Product Desc: Autodesk Architectural Desktop 2007 |Company: Autodesk,Inc. |WEB Address: www.autodesk.com
 90
    32897
280
     0
281
     0
  0
CLASS
  1
AEC_DISP_PROPS_SCHEDULE_TABLE
  2
AecDbDispPropsScheduleTable
  3
AecSchedule50|Product Desc: Autodesk Architectural Desktop 2007 |Company: Autodesk,Inc. |WEB Address: www.autodesk.com
 90
      129
280
     0
281
     0
  0
CLASS
  1
AEC_LAYERKEY_STYLE
  2
AecDbLayerKeyStyle
  3
AecBase50|Product Desc: Autodesk Architectural Desktop 2007 |Company: Autodesk,Inc. |WEB Address: www.autodesk.com
 90
      129
280
     0
281
     0
  0
CLASS
  1
AEC_VARS_ARCHBASE
  2
AecDbVarsArchBase
  3
AecArchBase50|Product Desc: Autodesk Architectural Desktop 2007 |Company: Autodesk,Inc. |WEB Address: www.autodesk.com
 90
      129
280
     0
281
     0
  0
CLASS
  1
AEC_VARS_MUNICH
  2
AecDbVarsMunich
  3
AecArchDACHBase50|Product Desc: Autodesk Architectural Desktop 2007 |Company: Autodesk,Inc. |WEB Address: www.autodesk.com
 90
      129
280
     0
281
     0
  0
CLASS
  1
AEC_NOTIFICATION_TRACKER
  2
AecDbNotificationTracker
  3
AecBase50|Product Desc: Autodesk Architectural Desktop 2007 |Company: Autodesk,Inc. |WEB Address: www.autodesk.com
 90
      129
280
     0
281
     0
  0
CLASS
  1
AEC_DISP_REP_ANCHOR
  2
AecDbDispRepAnchor
  3
AecBase50|Product Desc: Autodesk Architectural Desktop 2007 |Company: Autodesk,Inc. |WEB Address: www.autodesk.com
 90
      129
280
     0
281
     0
  0
CLASS
  1
AEC_DISP_REP_POLYGON_TRUECOLOUR
  2
AecDbDispRepPolygonTrueColour
  3
AecBase50|Product Desc: Autodesk Architectural Desktop 2007 |Company: Autodesk,Inc. |WEB Address: www.autodesk.com
 90
      129
280
     0
281
     0
  0
CLASS
  1
AEC_DISP_PROPS_POLYGON_TRUECOLOUR
  2
AecDbDispPropsPolygonTrueColour
  3
AecBase50|Product Desc: Autodesk Architectural Desktop 2007 |Company: Autodesk,Inc. |WEB Address: www.autodesk.com
 90
      129
280
     0
281
     0
  0
CLASS
  1
AEC_DISP_REP_BDG_ELEVLINE_RCP
  2
AecDbDispRepBdgElevLineRcp
  3
AecArchBase50|Product Desc: Autodesk Architectural Desktop 2007 |Company: Autodesk,Inc. |WEB Address: www.autodesk.com
 90
      129
280
     0
281
     0
  0
CLASS
  1
AEC_DISP_REP_BDG_SECTIONLINE_RCP
  2
AecDbDispRepBdgSectionLineRcp
  3
AecArchBase50|Product Desc: Autodesk Architectural Desktop 2007 |Company: Autodesk,Inc. |WEB Address: www.autodesk.com
 90
      129
280
     0
281
     0
  0
CLASS
  1
AEC_DISP_REP_BDG_SECTION_MODEL
  2
AecDbDispRepBdgSectionModel
  3
AecArchBase50|Product Desc: Autodesk Architectural Desktop 2007 |Company: Autodesk,Inc. |WEB Address: www.autodesk.com
 90
      129
280
     0
281
     0
  0
CLASS
  1
AEC_DISP_REP_DOOR_ELEV
  2
AecDbDispRepDoorElev
  3
AecArchBase50|Product Desc: Autodesk Architectural Desktop 2007 |Company: Autodesk,Inc. |WEB Address: www.autodesk.com
 90
      129
280
     0
281
     0
  0
CLASS
  1
AEC_DISP_REP_DOOR_RCP
  2
AecDbDispRepDoorRcp
  3
AecArchBase50|Product Desc: Autodesk Architectural Desktop 2007 |Company: Autodesk,Inc. |WEB Address: www.autodesk.com
 90
      129
280
     0
281
     0
  0
CLASS
  1
AEC_DISP_REP_DOOR_THRESHOLD_PLAN
  2
AecDbDispRepDoorThresholdPlan
  3
AecArchBase50|Product Desc: Autodesk Architectural Desktop 2007 |Company: Autodesk,Inc. |WEB Address: www.autodesk.com
 90
      129
280
     0
281
     0
  0
CLASS
  1
AEC_DISP_PROPS_DOOR_THRESHOLD_PLAN
  2
AecDbDispPropsDoorThresholdPlan
  3
AecArchBase50|Product Desc: Autodesk Architectural Desktop 2007 |Company: Autodesk,Inc. |WEB Address: www.autodesk.com
 90
      129
280
     0
281
     0
  0
CLASS
  1
AEC_DISP_REP_MASS_ELEM_RCP
  2
AecDbDispRepMassElemRcp
  3
AecArchBase50|Product Desc: Autodesk Architectural Desktop 2007 |Company: Autodesk,Inc. |WEB Address: www.autodesk.com
 90
      129
280
     0
281
     0
  0
CLASS
  1
AEC_DISP_REP_MASS_GROUP_RCP
  2
AecDbDispRepMassGroupRcp
  3
AecArchBase50|Product Desc: Autodesk Architectural Desktop 2007 |Company: Autodesk,Inc. |WEB Address: www.autodesk.com
 90
      129
280
     0
281
     0
  0
CLASS
  1
AEC_DISP_REP_MVBLOCK_REF_RCP
  2
AecDbDispRepMvBlockRefRcp
  3
AecArchBase50|Product Desc: Autodesk Architectural Desktop 2007 |Company: Autodesk,Inc. |WEB Address: www.autodesk.com
 90
      129
280
     0
281
     0
  0
CLASS
  1
AEC_DISP_REP_ROOF_RCP
  2
AecDbDispRepRoofRcp
  3
AecArchBase50|Product Desc: Autodesk Architectural Desktop 2007 |Company: Autodesk,Inc. |WEB Address: www.autodesk.com
 90
      129
280
     0
281
     0
  0
CLASS
  1
AEC_DISP_REP_SPACE_BOUNDARY_DIAGRAM
  2
AecDbDispRepSpaceBoundaryDgrm
  3
AecArchBase50|Product Desc: Autodesk Architectural Desktop 2007 |Company: Autodesk,Inc. |WEB Address: www.autodesk.com
 90
    32897
280
     0
281
     0
  0
CLASS
  1
AEC_DISP_REP_SPACE_RCP
  2
AecDbDispRepSpaceRcp
  3
AecArchBase50|Product Desc: Autodesk Architectural Desktop 2007 |Company: Autodesk,Inc. |WEB Address: www.autodesk.com
 90
      129
280
     0
281
     0
  0
CLASS
  1
AEC_DISP_REP_SPACE_VOLUME
  2
AecDbDispRepSpaceVolume
  3
AecArchBase50|Product Desc: Autodesk Architectural Desktop 2007 |Company: Autodesk,Inc. |WEB Address: www.autodesk.com
 90
      129
280
     0
281
     0
  0
CLASS
  1
AEC_DISP_REP_STAIR_PLAN_OVERLAPPING
  2
AecDbDispRepStairPlanOverlapping
  3
AecArchBase50|Product Desc: Autodesk Architectural Desktop 2007 |Company: Autodesk,Inc. |WEB Address: www.autodesk.com
 90
      129
280
     0
281
     0
  0
CLASS
  1
AEC_DISP_PROPS_STAIR_PLAN_OVERLAPPING
  2
AecDbDispPropsStairPlanOverlapping
  3
AecArchBase50|Product Desc: Autodesk Architectural Desktop 2007 |Company: Autodesk,Inc. |WEB Address: www.autodesk.com
 90
      129
280
     0
281
     0
  0
CLASS
  1
AEC_DISP_REP_STAIR_RCP
  2
AecDbDispRepStairRcp
  3
AecArchBase50|Product Desc: Autodesk Architectural Desktop 2007 |Company: Autodesk,Inc. |WEB Address: www.autodesk.com
 90
      129
280
     0
281
     0
  0
CLASS
  1
AEC_DISP_REP_WALL_RCP
  2
AecDbDispRepWallRcp
  3
AecArchBase50|Product Desc: Autodesk Architectural Desktop 2007 |Company: Autodesk,Inc. |WEB Address: www.autodesk.com
 90
      129
280
     0
281
     0
  0
CLASS
  1
AEC_DISP_REP_WINDOWASSEMBLY_SILL_PLAN
  2
AecDbDispRepWindowAssemblySillPlan
  3
AecArchBase50|Product Desc: Autodesk Architectural Desktop 2007 |Company: Autodesk,Inc. |WEB Address: www.autodesk.com
 90
      129
280
     0
281
     0
  0
CLASS
  1
AEC_DISP_PROPS_WINDOW_ASSEMBLY_SILL_PLAN
  2
AecDbDispPropsWindowAssemblySillPlan
  3
AecArchBase50|Product Desc: Autodesk Architectural Desktop 2007 |Company: Autodesk,Inc. |WEB Address: www.autodesk.com
 90
      129
280
     0
281
     0
  0
CLASS
  1
AEC_DISP_REP_WINDOW_ELEV
  2
AecDbDispRepWindowElev
  3
AecArchBase50|Product Desc: Autodesk Architectural Desktop 2007 |Company: Autodesk,Inc. |WEB Address: www.autodesk.com
 90
      129
280
     0
281
     0
  0
CLASS
  1
AEC_DISP_REP_WINDOW_RCP
  2
AecDbDispRepWindowRcp
  3
AecArchBase50|Product Desc: Autodesk Architectural Desktop 2007 |Company: Autodesk,Inc. |WEB Address: www.autodesk.com
 90
      129
280
     0
281
     0
  0
CLASS
  1
AEC_DISP_REP_WINDOW_SILL_PLAN
  2
AecDbDispRepWindowSillPlan
  3
AecArchBase50|Product Desc: Autodesk Architectural Desktop 2007 |Company: Autodesk,Inc. |WEB Address: www.autodesk.com
 90
      129
280
     0
281
     0
  0
CLASS
  1
AEC_DISP_PROPS_WINDOW_SILL_PLAN
  2
AecDbDispPropsWindowSillPlan
  3
AecArchBase50|Product Desc: Autodesk Architectural Desktop 2007 |Company: Autodesk,Inc. |WEB Address: www.autodesk.com
 90
      129
280
     0
281
     0
  0
CLASS
  1
AEC_DISP_REP_ANCHOR_BUB_TO_GRID_RCP
  2
AecDbDispRepAnchorBubToGridRcp
  3
AecStructureBase50|Product Desc: Autodesk Architectural Desktop 2007 |Company: Autodesk,Inc. |WEB Address: www.autodesk.com
 90
      129
280
     0
281
     0
  0
CLASS
  1
AEC_DISP_REP_COLUMN_GRID_RCP
  2
AecDbDispRepColumnGridRcp
  3
AecStructureBase50|Product Desc: Autodesk Architectural Desktop 2007 |Company: Autodesk,Inc. |WEB Address: www.autodesk.com
 90
      129
280
     0
281
     0
  0
CLASS
  1
AECS_DISP_REP_MEMBER_ELEVATION_DESIGN
  2
AecsDbDispRepMemberElevationDesign
  3
AecStructureBase50|Product Desc: Autodesk Architectural Desktop 2007 |Company: Autodesk,Inc. |WEB Address: www.autodesk.com
 90
      129
280
     0
281
     0
  0
CLASS
  1
AECS_DISP_PROPS_MEMBER_PROJECTED
  2
AecsDbDispPropsMemberProjected
  3
AecStructureBase50|Product Desc: Autodesk Architectural Desktop 2007 |Company: Autodesk,Inc. |WEB Address: www.autodesk.com
 90
      129
280
     0
281
     0
  0
CLASS
  1
AECS_DISP_REP_MEMBER_ELEVATION_DETAIL
  2
AecsDbDispRepMemberElevationDetail
  3
AecStructureBase50|Product Desc: Autodesk Architectural Desktop 2007 |Company: Autodesk,Inc. |WEB Address: www.autodesk.com
 90
      129
280
     0
281
     0
  0
CLASS
  1
AECS_DISP_REP_MEMBER_MODEL_DETAIL
  2
AecsDbDispRepMemberModelDetail
  3
AecStructureBase50|Product Desc: Autodesk Architectural Desktop 2007 |Company: Autodesk,Inc. |WEB Address: www.autodesk.com
 90
      129
280
     0
281
     0
  0
CLASS
  1
AECS_DISP_REP_MEMBER_PLAN_DETAIL
  2
AecsDbDispRepMemberPlanDetail
  3
AecStructureBase50|Product Desc: Autodesk Architectural Desktop 2007 |Company: Autodesk,Inc. |WEB Address: www.autodesk.com
 90
      129
280
     0
281
     0
  0
CLASS
  1
AECS_DISP_REP_MEMBER_PLAN_SKETCH
  2
AecsDbDispRepMemberPlanSketch
  3
AecStructureBase50|Product Desc: Autodesk Architectural Desktop 2007 |Company: Autodesk,Inc. |WEB Address: www.autodesk.com
 90
      129
280
     0
281
     0
  0
CLASS
  1
AECS_DISP_PROPS_MEMBER_PLAN_SKETCH
  2
AecsDbDispPropsMemberPlanSketch
  3
AecStructureBase50|Product Desc: Autodesk Architectural Desktop 2007 |Company: Autodesk,Inc. |WEB Address: www.autodesk.com
 90
      129
280
     0
281
     0
  0
CLASS
  1
AEC_AECDBDISPREPAREA100
  2
AecDbDispRepArea100
  3
AecArchDACHBase50|Product Desc: Autodesk Architectural Desktop 2007 |Company: Autodesk,Inc. |WEB Address: www.autodesk.com
 90
    32897
280
     0
281
     0
  0
CLASS
  1
AEC_AECDBDISPREPAREAGROUP100
  2
AecDbDispRepAreaGroup100
  3
AecArchDACHBase50|Product Desc: Autodesk Architectural Desktop 2007 |Company: Autodesk,Inc. |WEB Address: www.autodesk.com
 90
    32897
280
     0
281
     0
  0
CLASS
  1
AEC_AECDBDISPREPBDGELEVLINEPLAN100
  2
AecDbDispRepBdgElevLinePlan100
  3
AecArchDACHBase50|Product Desc: Autodesk Architectural Desktop 2007 |Company: Autodesk,Inc. |WEB Address: www.autodesk.com
 90
      129
280
     0
281
     0
  0
CLASS
  1
AEC_AECDBDISPREPBDGSECTIONLINEPLAN100
  2
AecDbDispRepBdgSectionLinePlan100
  3
AecArchDACHBase50|Product Desc: Autodesk Architectural Desktop 2007 |Company: Autodesk,Inc. |WEB Address: www.autodesk.com
 90
      129
280
     0
281
     0
  0
CLASS
  1
AEC_AECDBDISPREPCEILINGGRIDPLAN100
  2
AecDbDispRepCeilingGridPlan100
  3
AecArchDACHBase50|Product Desc: Autodesk Architectural Desktop 2007 |Company: Autodesk,Inc. |WEB Address: www.autodesk.com
 90
      129
280
     0
281
     0
  0
CLASS
  1
AEC_AECDBDISPREPCOLUMNGRIDPLAN100
  2
AecDbDispRepColumnGridPlan100
  3
AecArchDACHBase50|Product Desc: Autodesk Architectural Desktop 2007 |Company: Autodesk,Inc. |WEB Address: www.autodesk.com
 90
      129
280
     0
281
     0
  0
CLASS
  1
AEC_AECDBDISPREPCURTAINWALLLAYOUTPLAN100
  2
AecDbDispRepCurtainWallLayoutPlan100
  3
AecArchDACHBase50|Product Desc: Autodesk Architectural Desktop 2007 |Company: Autodesk,Inc. |WEB Address: www.autodesk.com
 90
      129
280
     0
281
     0
  0
CLASS
  1
AEC_AECDBDISPREPCURTAINWALLUNITPLAN100
  2
AecDbDispRepCurtainWallUnitPlan100
  3
AecArchDACHBase50|Product Desc: Autodesk Architectural Desktop 2007 |Company: Autodesk,Inc. |WEB Address: www.autodesk.com
 90
      129
280
     0
281
     0
  0
CLASS
  1
AEC_AECDBDISPREPMVBLOCKREFPLAN100
  2
AecDbDispRepMvBlockRefPlan100
  3
AecArchDACHBase50|Product Desc: Autodesk Architectural Desktop 2007 |Company: Autodesk,Inc. |WEB Address: www.autodesk.com
 90
      129
280
     0
281
     0
  0
CLASS
  1
AEC_AECDBDISPREPROOFPLAN100
  2
AecDbDispRepRoofPlan100
  3
AecArchDACHBase50|Product Desc: Autodesk Architectural Desktop 2007 |Company: Autodesk,Inc. |WEB Address: www.autodesk.com
 90
      129
280
     0
281
     0
  0
CLASS
  1
AEC_AECDBDISPREPROOFSLABPLAN100
  2
AecDbDispRepRoofSlabPlan100
  3
AecArchDACHBase50|Product Desc: Autodesk Architectural Desktop 2007 |Company: Autodesk,Inc. |WEB Address: www.autodesk.com
 90
      129
280
     0
281
     0
  0
CLASS
  1
AEC_AECDBDISPREPSLABPLAN100
  2
AecDbDispRepSlabPlan100
  3
AecArchDACHBase50|Product Desc: Autodesk Architectural Desktop 2007 |Company: Autodesk,Inc. |WEB Address: www.autodesk.com
 90
      129
280
     0
281
     0
  0
CLASS
  1
AEC_AECDBDISPREPSPACEBOUNDARYPLAN100
  2
AecDbDispRepSpaceBoundaryPlan100
  3
AecArchDACHBase50|Product Desc: Autodesk Architectural Desktop 2007 |Company: Autodesk,Inc. |WEB Address: www.autodesk.com
 90
    32897
280
     0
281
     0
  0
CLASS
  1
AEC_AECDBDISPREPSPACEPLAN100
  2
AecDbDispRepSpacePlan100
  3
AecArchDACHBase50|Product Desc: Autodesk Architectural Desktop 2007 |Company: Autodesk,Inc. |WEB Address: www.autodesk.com
 90
      129
280
     0
281
     0
  0
CLASS
  1
AEC_AECDBDISPREPWALLPLAN100
  2
AecDbDispRepWallPlan100
  3
AecArchDACHBase50|Product Desc: Autodesk Architectural Desktop 2007 |Company: Autodesk,Inc. |WEB Address: www.autodesk.com
 90
      129
280
     0
281
     0
  0
CLASS
  1
AEC_AECDBDISPREPAREA50
  2
AecDbDispRepArea50
  3
AecArchDACHBase50|Product Desc: Autodesk Architectural Desktop 2007 |Company: Autodesk,Inc. |WEB Address: www.autodesk.com
 90
    32897
280
     0
281
     0
  0
CLASS
  1
AEC_AECDBDISPREPAREAGROUP50
  2
AecDbDispRepAreaGroup50
  3
AecArchDACHBase50|Product Desc: Autodesk Architectural Desktop 2007 |Company: Autodesk,Inc. |WEB Address: www.autodesk.com
 90
    32897
280
     0
281
     0
  0
CLASS
  1
AEC_AECDBDISPREPBDGELEVLINEPLAN50
  2
AecDbDispRepBdgElevLinePlan50
  3
AecArchDACHBase50|Product Desc: Autodesk Architectural Desktop 2007 |Company: Autodesk,Inc. |WEB Address: www.autodesk.com
 90
      129
280
     0
281
     0
  0
CLASS
  1
AEC_AECDBDISPREPBDGSECTIONLINEPLAN50
  2
AecDbDispRepBdgSectionLinePlan50
  3
AecArchDACHBase50|Product Desc: Autodesk Architectural Desktop 2007 |Company: Autodesk,Inc. |WEB Address: www.autodesk.com
 90
      129
280
     0
281
     0
  0
CLASS
  1
AEC_AECDBDISPREPCEILINGGRIDPLAN50
  2
AecDbDispRepCeilingGridPlan50
  3
AecArchDACHBase50|Product Desc: Autodesk Architectural Desktop 2007 |Company: Autodesk,Inc. |WEB Address: www.autodesk.com
 90
      129
280
     0
281
     0
  0
CLASS
  1
AEC_AECDBDISPREPCOLUMNGRIDPLAN50
  2
AecDbDispRepColumnGridPlan50
  3
AecArchDACHBase50|Product Desc: Autodesk Architectural Desktop 2007 |Company: Autodesk,Inc. |WEB Address: www.autodesk.com
 90
      129
280
     0
281
     0
  0
CLASS
  1
AEC_AECDBDISPREPCURTAINWALLLAYOUTPLAN50
  2
AecDbDispRepCurtainWallLayoutPlan50
  3
AecArchDACHBase50|Product Desc: Autodesk Architectural Desktop 2007 |Company: Autodesk,Inc. |WEB Address: www.autodesk.com
 90
      129
280
     0
281
     0
  0
CLASS
  1
AEC_AECDBDISPREPCURTAINWALLUNITPLAN50
  2
AecDbDispRepCurtainWallUnitPlan50
  3
AecArchDACHBase50|Product Desc: Autodesk Architectural Desktop 2007 |Company: Autodesk,Inc. |WEB Address: www.autodesk.com
 90
      129
280
     0
281
     0
  0
CLASS
  1
AEC_AECDBDISPREPMVBLOCKREFPLAN50
  2
AecDbDispRepMvBlockRefPlan50
  3
AecArchDACHBase50|Product Desc: Autodesk Architectural Desktop 2007 |Company: Autodesk,Inc. |WEB Address: www.autodesk.com
 90
      129
280
     0
281
     0
  0
CLASS
  1
AEC_AECDBDISPREPROOFPLAN50
  2
AecDbDispRepRoofPlan50
  3
AecArchDACHBase50|Product Desc: Autodesk Architectural Desktop 2007 |Company: Autodesk,Inc. |WEB Address: www.autodesk.com
 90
      129
280
     0
281
     0
  0
CLASS
  1
AEC_AECDBDISPREPROOFSLABPLAN50
  2
AecDbDispRepRoofSlabPlan50
  3
AecArchDACHBase50|Product Desc: Autodesk Architectural Desktop 2007 |Company: Autodesk,Inc. |WEB Address: www.autodesk.com
 90
      129
280
     0
281
     0
  0
CLASS
  1
AEC_AECDBDISPREPSLABPLAN50
  2
AecDbDispRepSlabPlan50
  3
AecArchDACHBase50|Product Desc: Autodesk Architectural Desktop 2007 |Company: Autodesk,Inc. |WEB Address: www.autodesk.com
 90
      129
280
     0
281
     0
  0
CLASS
  1
AEC_AECDBDISPREPSPACEBOUNDARYPLAN50
  2
AecDbDispRepSpaceBoundaryPlan50
  3
AecArchDACHBase50|Product Desc: Autodesk Architectural Desktop 2007 |Company: Autodesk,Inc. |WEB Address: www.autodesk.com
 90
    32897
280
     0
281
     0
  0
CLASS
  1
AEC_AECDBDISPREPSPACEPLAN50
  2
AecDbDispRepSpacePlan50
  3
AecArchDACHBase50|Product Desc: Autodesk Architectural Desktop 2007 |Company: Autodesk,Inc. |WEB Address: www.autodesk.com
 90
      129
280
     0
281
     0
  0
CLASS
  1
AEC_AECDBDISPREPWALLPLAN50
  2
AecDbDispRepWallPlan50
  3
AecArchDACHBase50|Product Desc: Autodesk Architectural Desktop 2007 |Company: Autodesk,Inc. |WEB Address: www.autodesk.com
 90
      129
280
     0
281
     0
  0
CLASS
  1
AEC_AECDBDISPREPWINDOWASSEMBLYPLAN50
  2
AecDbDispRepWindowAssemblyPlan50
  3
AecArchDACHBase50|Product Desc: Autodesk Architectural Desktop 2007 |Company: Autodesk,Inc. |WEB Address: www.autodesk.com
 90
      129
280
     0
281
     0
  0
CLASS
  1
AEC_DB_DISP_REP_DIM_GROUP_PLAN100
  2
AecDbDispRepDimGroupPlan100
  3
AecArchDACHBase50|Product Desc: Autodesk Architectural Desktop 2007 |Company: Autodesk,Inc. |WEB Address: www.autodesk.com
 90
      129
280
     0
281
     0
  0
CLASS
  1
AEC_DB_DISP_REP_DIM_GROUP_PLAN50
  2
AecDbDispRepDimGroupPlan50
  3
AecArchDACHBase50|Product Desc: Autodesk Architectural Desktop 2007 |Company: Autodesk,Inc. |WEB Address: www.autodesk.com
 90
      129
280
     0
281
     0
  0
CLASS
  1
AEC_DISP_REP_DOOR_PLAN_50
  2
AecDbDispRepDoorPlan50
  3
AecArchDACHBase50|Product Desc: Autodesk Architectural Desktop 2007 |Company: Autodesk,Inc. |WEB Address: www.autodesk.com
 90
      129
280
     0
281
     0
  0
CLASS
  1
AEC_DISP_PROPS_DOOR_PLAN_50
  2
AecDbDispPropsDoorPlan50
  3
AecArchDACHBase50|Product Desc: Autodesk Architectural Desktop 2007 |Company: Autodesk,Inc. |WEB Address: www.autodesk.com
 90
      129
280
     0
281
     0
  0
CLASS
  1
AEC_DISP_REP_DOOR_PLAN_HEKTO
  2
AecDbDispRepDoorPlanHekto
  3
AecArchDACHBase50|Product Desc: Autodesk Architectural Desktop 2007 |Company: Autodesk,Inc. |WEB Address: www.autodesk.com
 90
      129
280
     0
281
     0
  0
CLASS
  1
AEC_DISP_PROPS_DOOR_PLAN_100
  2
AecDbDispPropsDoorPlan100
  3
AecArchDACHBase50|Product Desc: Autodesk Architectural Desktop 2007 |Company: Autodesk,Inc. |WEB Address: www.autodesk.com
 90
      129
280
     0
281
     0
  0
CLASS
  1
AEC_DISP_REP_DOOR_THRESHOLD_SYMBOL_PLAN
  2
AecDbDispRepDoorThresholdSymbolPlan
  3
AecArchDACHBase50|Product Desc: Autodesk Architectural Desktop 2007 |Company: Autodesk,Inc. |WEB Address: www.autodesk.com
 90
      129
280
     0
281
     0
  0
CLASS
  1
AEC_DISP_PROPS_DOOR_THRESHOLD_SYMBOL_PLAN
  2
AecDbDispPropsDoorThresholdSymbolPlan
  3
AecArchDACHBase50|Product Desc: Autodesk Architectural Desktop 2007 |Company: Autodesk,Inc. |WEB Address: www.autodesk.com
 90
      129
280
     0
281
     0
  0
CLASS
  1
AEC_DISPREPAECDBDISPREPMASSELEMPLAN100
  2
AecDbDispRepMassElemPlan100
  3
AecArchDACHBase50|Product Desc: Autodesk Architectural Desktop 2007 |Company: Autodesk,Inc. |WEB Address: www.autodesk.com
 90
      129
280
     0
281
     0
  0
CLASS
  1
AEC_DISPROPSMASSELEMPLANCOMMON
  2
AecDbDispPropsMassElemPlanCommon
  3
AecArchDACHBase50|Product Desc: Autodesk Architectural Desktop 2007 |Company: Autodesk,Inc. |WEB Address: www.autodesk.com
 90
      129
280
     0
281
     0
  0
CLASS
  1
AEC_DISPREPAECDBDISPREPMASSELEMPLAN50
  2
AecDbDispRepMassElemPlan50
  3
AecArchDACHBase50|Product Desc: Autodesk Architectural Desktop 2007 |Company: Autodesk,Inc. |WEB Address: www.autodesk.com
 90
      129
280
     0
281
     0
  0
CLASS
  1
AEC_DISPREPAECDBDISPREPMASSGROUPPLAN100
  2
AecDbDispRepMassGroupPlan100
  3
AecArchDACHBase50|Product Desc: Autodesk Architectural Desktop 2007 |Company: Autodesk,Inc. |WEB Address: www.autodesk.com
 90
      129
280
     0
281
     0
  0
CLASS
  1
AEC_DISPROPSMASSGROUPPLANCOMMON
  2
AecDbDispPropsMassGroupPlanCommon
  3
AecArchDACHBase50|Product Desc: Autodesk Architectural Desktop 2007 |Company: Autodesk,Inc. |WEB Address: www.autodesk.com
 90
      129
280
     0
281
     0
  0
CLASS
  1
AEC_DISPREPAECDBDISPREPMASSGROUPPLAN50
  2
AecDbDispRepMassGroupPlan50
  3
AecArchDACHBase50|Product Desc: Autodesk Architectural Desktop 2007 |Company: Autodesk,Inc. |WEB Address: www.autodesk.com
 90
      129
280
     0
281
     0
  0
CLASS
  1
AEC_DISPREPAECDBDISPREPOPENINGPLAN100
  2
AecDbDispRepOpeningPlan100
  3
AecArchDACHBase50|Product Desc: Autodesk Architectural Desktop 2007 |Company: Autodesk,Inc. |WEB Address: www.autodesk.com
 90
      129
280
     0
281
     0
  0
CLASS
  1
AEC_DISPROPSOPENINGPLANCOMMONHATCHED
  2
AecDbDispPropsOpeningPlanCommonHatched
  3
AecArchDACHBase50|Product Desc: Autodesk Architectural Desktop 2007 |Company: Autodesk,Inc. |WEB Address: www.autodesk.com
 90
      129
280
     0
281
     0
  0
CLASS
  1
AEC_DISPREPAECDBDISPREPOPENINGPLAN50
  2
AecDbDispRepOpeningPlan50
  3
AecArchDACHBase50|Product Desc: Autodesk Architectural Desktop 2007 |Company: Autodesk,Inc. |WEB Address: www.autodesk.com
 90
      129
280
     0
281
     0
  0
CLASS
  1
AEC_DISPREPAECDBDISPREPOPENINGPLANREFLECTED
  2
AecDbDispRepOpeningPlanReflected
  3
AecArchDACHBase50|Product Desc: Autodesk Architectural Desktop 2007 |Company: Autodesk,Inc. |WEB Address: www.autodesk.com
 90
      129
280
     0
281
     0
  0
CLASS
  1
AEC_DISPROPSOPENINGPLANCOMMON
  2
AecDbDispPropsOpeningPlanCommon
  3
AecArchDACHBase50|Product Desc: Autodesk Architectural Desktop 2007 |Company: Autodesk,Inc. |WEB Address: www.autodesk.com
 90
      129
280
     0
281
     0
  0
CLASS
  1
AEC_DISPREPAECDBDISPREPOPENINGSILLPLAN
  2
AecDbDispRepOpeningSillPlan
  3
AecArchDACHBase50|Product Desc: Autodesk Architectural Desktop 2007 |Company: Autodesk,Inc. |WEB Address: www.autodesk.com
 90
      129
280
     0
281
     0
  0
CLASS
  1
AEC_DISPROPSOPENINGSILLPLAN
  2
AecDbDispPropsOpeningSillPlan
  3
AecArchDACHBase50|Product Desc: Autodesk Architectural Desktop 2007 |Company: Autodesk,Inc. |WEB Address: www.autodesk.com
 90
      129
280
     0
281
     0
  0
CLASS
  1
AEC_DISP_REP_RAILING_PLAN_100
  2
AecDbDispRepRailingPlan100
  3
AecArchDACHBase50|Product Desc: Autodesk Architectural Desktop 2007 |Company: Autodesk,Inc. |WEB Address: www.autodesk.com
 90
      129
280
     0
281
     0
  0
CLASS
  1
AEC_DISP_ROPS_RAILING_PLAN_100
  2
AecDbDispPropsRailingPlan100
  3
AecArchDACHBase50|Product Desc: Autodesk Architectural Desktop 2007 |Company: Autodesk,Inc. |WEB Address: www.autodesk.com
 90
      129
280
     0
281
     0
  0
CLASS
  1
AEC_DISP_REP_RAILING_PLAN_50
  2
AecDbDispRepRailingPlan50
  3
AecArchDACHBase50|Product Desc: Autodesk Architectural Desktop 2007 |Company: Autodesk,Inc. |WEB Address: www.autodesk.com
 90
      129
280
     0
281
     0
  0
CLASS
  1
AEC_DISP_ROPS_RAILING_PLAN_50
  2
AecDbDispPropsRailingPlan50
  3
AecArchDACHBase50|Product Desc: Autodesk Architectural Desktop 2007 |Company: Autodesk,Inc. |WEB Address: www.autodesk.com
 90
      129
280
     0
281
     0
  0
CLASS
  1
AEC_DISP_REP_STAIR_PLAN_100
  2
AecDbDispRepStairPlan100
  3
AecArchDACHBase50|Product Desc: Autodesk Architectural Desktop 2007 |Company: Autodesk,Inc. |WEB Address: www.autodesk.com
 90
      129
280
     0
281
     0
  0
CLASS
  1
AEC_DISP_ROPS_STAIR_PLAN_100
  2
AecDbDispPropsStairPlan100
  3
AecArchDACHBase50|Product Desc: Autodesk Architectural Desktop 2007 |Company: Autodesk,Inc. |WEB Address: www.autodesk.com
 90
      129
280
     0
281
     0
  0
CLASS
  1
AEC_DISP_REP_STAIR_PLAN_50
  2
AecDbDispRepStairPlan50
  3
AecArchDACHBase50|Product Desc: Autodesk Architectural Desktop 2007 |Company: Autodesk,Inc. |WEB Address: www.autodesk.com
 90
      129
280
     0
281
     0
  0
CLASS
  1
AEC_DISP_ROPS_STAIR_PLAN_50
  2
AecDbDispPropsStairPlan50
  3
AecArchDACHBase50|Product Desc: Autodesk Architectural Desktop 2007 |Company: Autodesk,Inc. |WEB Address: www.autodesk.com
 90
      129
280
     0
281
     0
  0
CLASS
  1
AEC_DISP_REP_WINDOW_PLAN_100
  2
AecDbDispRepWindowPlan100
  3
AecArchDACHBase50|Product Desc: Autodesk Architectural Desktop 2007 |Company: Autodesk,Inc. |WEB Address: www.autodesk.com
 90
      129
280
     0
281
     0
  0
CLASS
  1
AEC_DISP_PROPS_WINDOW_PLAN_100
  2
AecDbDispPropsWindowPlan100
  3
AecArchDACHBase50|Product Desc: Autodesk Architectural Desktop 2007 |Company: Autodesk,Inc. |WEB Address: www.autodesk.com
 90
      129
280
     0
281
     0
  0
CLASS
  1
AEC_DISP_REP_WINDOW_PLAN_50
  2
AecDbDispRepWindowPlan50
  3
AecArchDACHBase50|Product Desc: Autodesk Architectural Desktop 2007 |Company: Autodesk,Inc. |WEB Address: www.autodesk.com
 90
      129
280
     0
281
     0
  0
CLASS
  1
AEC_DISP_PROPS_WINDOW_PLAN_50
  2
AecDbDispPropsWindowPlan50
  3
AecArchDACHBase50|Product Desc: Autodesk Architectural Desktop 2007 |Company: Autodesk,Inc. |WEB Address: www.autodesk.com
 90
      129
280
     0
281
     0
  0
CLASS
  1
BINRECORD
  2
AcAecBinRecord
  3
AecBase50|Product Desc: Autodesk Architectural Desktop 2007 |Company: Autodesk,Inc. |WEB Address: www.autodesk.com
 90
      129
280
     0
281
     0
  0
CLASS
  1
SPATIAL_FILTER
  2
AcDbSpatialFilter
  3
ObjectDBX Classes
 90
    32768
280
     0
281
     0
  0
CLASS
  1
AEC_VARS_STRUCTUREBASE
  2
AecsDbVarsStructureBase
  3
AecStructureBase50|Product Desc: Autodesk Architectural Desktop 2007 |Company: Autodesk,Inc. |WEB Address: www.autodesk.com
 90
    32897
280
     0
281
     0
  0
CLASS
  1
DIMASSOC
  2
AcDbDimAssoc
  3
"AcDbDimAssoc|Product Desc:     AcDim ARX App For Dimension|Company:          Autodesk, Inc.|WEB Address:      www.autodesk.com"
 90
        0
280
     0
281
     0
  0
CLASS
  1
TABLESTYLE
  2
AcDbTableStyle
  3
ObjectDBX Classes
 90
     4095
280
     0
281
     0
  0
CLASS
  1
MATERIAL
  2
AcDbMaterial
  3
ObjectDBX Classes
 90
     1153
280
     0
281
     0
  0
CLASS
  1
VISUALSTYLE
  2
AcDbVisualStyle
  3
ObjectDBX Classes
 90
     4095
280
     0
281
     0
  0
CLASS
  1
EXACXREFPANELOBJECT
  2
ExAcXREFPanelObject
  3
EXAC_ESW
 90
    33793
280
     0
281
     0
  0
CLASS
  1
NPOCOLLECTION
  2
AcDbImpNonPersistentObjectsCollection
  3
ObjectDBX Classes
 90
     1153
280
     0
281
     0
  0
CLASS
  1
AEC_AECDBDISPREPZONE100
  2
AecDbDispRepZonePlan100
  3
AecArchDACHBase50|Product Desc: Autodesk Architectural Desktop 2007 |Company: Autodesk,Inc. |WEB Address: www.autodesk.com
 90
      129
280
     0
281
     0
  0
CLASS
  1
AEC_DISP_PROPS_ZONE
  2
AecDbDispPropsZone
  3
AecArchBase50|Product Desc: Autodesk Architectural Desktop 2007 |Company: Autodesk,Inc. |WEB Address: www.autodesk.com
 90
      129
280
     0
281
     0
  0
CLASS
  1
AEC_AECDBDISPREPZONE50
  2
AecDbDispRepZonePlan50
  3
AecArchDACHBase50|Product Desc: Autodesk Architectural Desktop 2007 |Company: Autodesk,Inc. |WEB Address: www.autodesk.com
 90
      129
280
     0
281
     0
  0
CLASS
  1
AEC_DISP_REP_DISPLAYTHEME
  2
AecDbDispRepDisplayTheme
  3
AecBase50|Product Desc: Autodesk Architectural Desktop 2007 |Company: Autodesk,Inc. |WEB Address: www.autodesk.com
 90
      129
280
     0
281
     0
  0
CLASS
  1
AEC_DISP_PROPS_DISPLAYTHEME
  2
AecDbDispPropsDisplayTheme
  3
AecBase50|Product Desc: Autodesk Architectural Desktop 2007 |Company: Autodesk,Inc. |WEB Address: www.autodesk.com
 90
      129
280
     0
281
     0
  0
CLASS
  1
AEC_DISP_REP_ANCHOR_EXT_TAG_TO_ENT
  2
AecDbDispRepAnchorExtendedTagToEnt
  3
AecScheduleData50|Product Desc: Autodesk Architectural Desktop 2007 |Company: Autodesk,Inc. |WEB Address: www.autodesk.com
 90
      129
280
     0
281
     0
  0
CLASS
  1
AEC_DISP_REP_SPACE_DECOMPOSED
  2
AecDbDispRepSpaceDecomposed
  3
AecArchBase50|Product Desc: Autodesk Architectural Desktop 2007 |Company: Autodesk,Inc. |WEB Address: www.autodesk.com
 90
      129
280
     0
281
     0
  0
CLASS
  1
AEC_DISP_PROPS_SPACE_DECOMPOSED
  2
AecDbDispPropsSpaceDecomposed
  3
AecArchBase50|Product Desc: Autodesk Architectural Desktop 2007 |Company: Autodesk,Inc. |WEB Address: www.autodesk.com
 90
      129
280
     0
281
     0
  0
CLASS
  1
AEC_DISP_REP_ZONE
  2
AecDbDispRepZone
  3
AecArchBase50|Product Desc: Autodesk Architectural Desktop 2007 |Company: Autodesk,Inc. |WEB Address: www.autodesk.com
 90
      129
280
     0
281
     0
  0
CLASS
  1
ACAD_EVALUATION_GRAPH
  2
AcDbEvalGraph
  3
ObjectDBX Classes
 90
    33921
280
     0
281
     0
  0
CLASS
  1
BLOCKFLIPPARAMETER
  2
AcDbBlockFlipParameter
  3
ObjectDBX Classes
 90
    33921
280
     0
281
     0
  0
CLASS
  1
BLOCKFLIPGRIP
  2
AcDbBlockFlipGrip
  3
ObjectDBX Classes
 90
    33921
280
     0
281
     0
  0
CLASS
  1
BLOCKGRIPLOCATIONCOMPONENT
  2
AcDbBlockGripExpr
  3
ObjectDBX Classes
 90
    33921
280
     0
281
     0
  0
CLASS
  1
BLOCKFLIPACTION
  2
AcDbBlockFlipAction
  3
ObjectDBX Classes
 90
    33921
280
     0
281
     0
  0
CLASS
  1
BLOCKROTATIONPARAMETER
  2
AcDbBlockRotationParameter
  3
ObjectDBX Classes
 90
    33921
280
     0
281
     0
  0
CLASS
  1
BLOCKROTATIONGRIP
  2
AcDbBlockRotationGrip
  3
ObjectDBX Classes
 90
    33921
280
     0
281
     0
  0
CLASS
  1
BLOCKROTATEACTION
  2
AcDbBlockRotateAction
  3
ObjectDBX Classes
 90
    33921
280
     0
281
     0
  0
CLASS
  1
BLOCKBASEPOINTPARAMETER
  2
AcDbBlockBasepointParameter
  3
ObjectDBX Classes
 90
    33921
280
     0
281
     0
  0
CLASS
  1
ACDB_DYNAMICBLOCKPURGEPREVENTER_VERSION
  2
AcDbDynamicBlockPurgePreventer
  3
ObjectDBX Classes
 90
    33921
280
     0
281
     0
  0
CLASS
  1
ACDB_BLOCKREPRESENTATION_DATA
  2
AcDbBlockRepresentationData
  3
ObjectDBX Classes
 90
    33921
280
     0
281
     0
  0
CLASS
  1
SCALE
  2
AcDbScale
  3
ObjectDBX Classes
 90
     1153
280
     0
281
     0
  0
CLASS
  1
MLEADERSTYLE
  2
AcDbMLeaderStyle
  3
ACDB_MLEADERSTYLE_CLASS
 90
     4095
280
     0
281
     0
  0
CLASS
  1
CELLSTYLEMAP
  2
AcDbCellStyleMap
  3
ObjectDBX Classes
 90
     1152
280
     0
281
     0
  0
ENDSEC
  0
SECTION
  2
TABLES
  0
TABLE
  2
VPORT
  5
1C
330
0
100
AcDbSymbolTable
 70
     1
  0
VPORT
  5
1728
330
1C
100
AcDbSymbolTableRecord
100
AcDbViewportTableRecord
  2
*Active
 70
     0
 10
0.0
 20
0.0
 11
1.0
 21
1.0
 12
224340.3306257814
 22
133471.4563812996
 13
0.0
 23
0.0
 14
10.0
 24
10.0
 15
10.0
 25
10.0
 16
0.0
 26
0.0
 36
1.0
 17
0.0
 27
0.0
 37
0.0
 40
27084.30809884644
 41
1.561333333333333
 42
50.0
 43
0.0
 44
0.0
 50
0.0
 51
0.0
 71
     0
 72
  1000
 73
     1
 74
     1
 75
     0
 76
     0
 77
     0
 78
     0
281
     0
 65
     1
110
0.0
120
0.0
130
0.0
111
1.0
121
0.0
131
0.0
112
0.0
122
1.0
132
0.0
 79
     0
146
0.0
  0
ENDTAB
  0
TABLE
  2
LTYPE
  5
17
330
0
100
AcDbSymbolTable
 70
     3
  0
LTYPE
  5
18
330
17
100
AcDbSymbolTableRecord
100
AcDbLinetypeTableRecord
  2
ByBlock
 70
     0
  3

 72
    65
 73
     0
 40
0.0
  0
LTYPE
  5
19
330
17
100
AcDbSymbolTableRecord
100
AcDbLinetypeTableRecord
  2
ByLayer
 70
     0
  3

 72
    65
 73
     0
 40
0.0
  0
LTYPE
  5
8
330
17
100
AcDbSymbolTableRecord
100
AcDbLinetypeTableRecord
  2
Continuous
 70
     0
  3
Solid line
 72
    65
 73
     0
 40
0.0
  0
LTYPE
  5
158
330
17
100
AcDbSymbolTableRecord
100
AcDbLinetypeTableRecord
  2
HIDDEN
 70
     0
  3
Hidden __ __ __ __ __ __ __ __ __ __ __ __ __ _
 72
    65
 73
     2
 40
0.375
 49
0.25
 74
     0
 49
-0.125
 74
     0
  0
LTYPE
  5
1342D
330
17
100
AcDbSymbolTableRecord
100
AcDbLinetypeTableRecord
  2
DASHED
 70
     0
  3
Dashed __ __ __ __ __ __ __ __ __ __ __ __ __ _
 72
    65
 73
     2
 40
0.75
 49
0.5
 74
     0
 49
-0.25
 74
     0
  0
ENDTAB
  0
TABLE
  2
LAYER
  5
11
102
{ACAD_XDICTIONARY
360
12
102
}
330
0
100
AcDbSymbolTable
 70
    16
  0
LAYER
  5
4
102
{ACAD_XDICTIONARY
360
13602
102
}
330
11
100
AcDbSymbolTableRecord
100
AcDbLayerTableRecord
  2
0
 70
     0
 62
     7
  6
Continuous
370
    -3
390
5
1001
RAK
1000
{ACET-LAYISO
1070
     0
1070
     7
1000
Continuous
1071
       -3
1071
        1
1005
5
1000
ACET-LAYISO}
  0
LAYER
  5
65
330
11
100
AcDbSymbolTableRecord
100
AcDbLayerTableRecord
  2
DEFPOINTS
 70
     0
 62
     7
  6
Continuous
290
     0
370
    -3
390
5
1001
RAK
1000
{ACET-LAYISO
1070
     0
1070
     7
1000
Continuous
1071
       -3
1071
        0
1005
5
1000
ACET-LAYISO}
  0
LAYER
  5
15E
102
{ACAD_XDICTIONARY
360
13604
102
}
330
11
100
AcDbSymbolTableRecord
100
AcDbLayerTableRecord
  2
RAMKI-A4
 70
     0
 62
     2
  6
Continuous
290
     0
370
    -3
390
5
1001
RAK
1000
{ACET-LAYISO
1070
     0
1070
     2
1000
Continuous
1071
       -3
1071
        0
1005
5
1000
ACET-LAYISO}
  0
LAYER
  5
143
102
{ACAD_XDICTIONARY
360
13608
102
}
330
11
100
AcDbSymbolTableRecord
100
AcDbLayerTableRecord
  2
NAPISY
 70
     0
 62
   140
  6
Continuous
370
    -3
390
5
1001
RAK
1000
{ACET-LAYISO
1070
     0
1070
   140
1000
Continuous
1071
       -3
1071
        1
1005
5
1000
ACET-LAYISO}
  0
LAYER
  5
202C
102
{ACAD_XDICTIONARY
360
1360C
102
}
330
11
100
AcDbSymbolTableRecord
100
AcDbLayerTableRecord
  2
0Hatch
 70
     0
 62
   122
  6
Continuous
370
     5
390
5
  0
LAYER
  5
2081
102
{ACAD_XDICTIONARY
360
1360E
102
}
330
11
100
AcDbSymbolTableRecord
100
AcDbLayerTableRecord
  2
0Wymiary-PL
 70
     0
 62
     1
  6
Continuous
370
     5
390
5
  0
LAYER
  5
13431
102
{ACAD_XDICTIONARY
360
13432
102
}
330
11
100
AcDbSymbolTableRecord
100
AcDbLayerTableRecord
  2
A-WallAbove-G
 70
     0
 62
     1
  6
DASHED
370
     5
390
11978
1001
AcAecLayerStandard
1000

1000
Architects, Wall (above cut plane), Graphics
1001
RAK
1000
{KONDYGNACJA POWTARZALNA
1070
     0
1070
    32
1000
HIDDEN2
1071
       -3
1071
        1
1005
5
1000
KONDYGNACJA POWTARZALNA}
1000
{ACET-LAYISO
1070
     0
1070
     1
1000
DASHED
1071
        5
1071
        1
1005
11978
1000
ACET-LAYISO}
  0
LAYER
  5
13434
102
{ACAD_XDICTIONARY
360
13435
102
}
330
11
100
AcDbSymbolTableRecord
100
AcDbLayerTableRecord
  2
A-MassElement-G
 70
     0
 62
   210
  6
Continuous
370
     5
390
5
1001
AcAecLayerStandard
1000
1m1_ARCHON
1001
RAK
1000
{ACET-LAYISO
1070
     0
1070
   210
1000
Continuous
1071
        5
1071
        1
1005
5
1000
ACET-LAYISO}
  0
ENDTAB
  0
TABLE
  2
STYLE
  5
14
330
0
100
AcDbSymbolTable
 70
     7
  0
STYLE
  5
15
330
14
100
AcDbSymbolTableRecord
100
AcDbTextStyleTableRecord
  2
Standard
 70
     0
 40
0.0
 41
1.0
 50
0.0
 71
     0
 42
2.5
  3
txt
  4

  0
STYLE
  5
22
330
14
100
AcDbSymbolTableRecord
100
AcDbTextStyleTableRecord
  2
ROMANS
 70
     0
 40
0.0
 41
0.9
 50
0.0
 71
     0
 42
20.0
  3
romans.shx
  4

  0
STYLE
  5
144
330
14
100
AcDbSymbolTableRecord
100
AcDbTextStyleTableRecord
  2
AVA
 70
     0
 40
0.0
 41
1.0
 50
0.0
 71
     0
 42
158.5644099714409
  3
ARIAL.TTF
  4

1001
ACAD
1000
Arial CE
1071
    60962
  0
ENDTAB
  0
TABLE
  2
VIEW
  5
1A
330
0
100
AcDbSymbolTable
 70
     1
  0
VIEW
  5
C
330
1A
100
AcDbSymbolTableRecord
100
AcDbViewTableRecord
  2
RODODENDRON 5
 70
     0
 40
14020.0
 10
220287.1664355166
 20
148687.514558954
 41
10200.00000000003
 11
0.0
 21
0.0
 31
1.0
 12
0.0
 22
0.0
 32
0.0
 42
50.0
 43
0.0
 44
0.0
 50
0.0
 71
     0
281
     0
 72
     1
110
0.0
120
0.0
130
0.0
111
1.0
121
0.0
131
0.0
112
0.0
122
1.0
132
0.0
 79
     0
146
0.0
  0
ENDTAB
  0
TABLE
  2
UCS
  5
1B
330
0
100
AcDbSymbolTable
 70
     0
  0
ENDTAB
  0
TABLE
  2
APPID
  5
1E
330
0
100
AcDbSymbolTable
 70
    20
  0
APPID
  5
1F
330
1E
100
AcDbSymbolTableRecord
100
AcDbRegAppTableRecord
  2
ACAD
 70
     0
  0
APPID
  5
1E1
330
1E
100
AcDbSymbolTableRecord
100
AcDbRegAppTableRecord
  2
RAK
 70
     0
  0
APPID
  5
1E2
330
1E
100
AcDbSymbolTableRecord
100
AcDbRegAppTableRecord
  2
AcAecLayerStandard
 70
     0
  0
APPID
  5
A87
330
1E
100
AcDbSymbolTableRecord
100
AcDbRegAppTableRecord
  2
ACAD_PSEXT
 70
     0
  0
APPID
  5
C44
330
1E
100
AcDbSymbolTableRecord
100
AcDbRegAppTableRecord
  2
DCO15
 70
     0
  0
APPID
  5
1744
330
1E
100
AcDbSymbolTableRecord
100
AcDbRegAppTableRecord
  2
ACAD_EXEMPT_FROM_CAD_STANDARDS
 70
     0
  0
APPID
  5
1745
330
1E
100
AcDbSymbolTableRecord
100
AcDbRegAppTableRecord
  2
ACAD_DSTYLE_DIM_LINETYPE
 70
     0
  0
APPID
  5
1746
330
1E
100
AcDbSymbolTableRecord
100
AcDbRegAppTableRecord
  2
ACAD_DSTYLE_DIM_EXT1_LINETYPE
 70
     0
  0
APPID
  5
1747
330
1E
100
AcDbSymbolTableRecord
100
AcDbRegAppTableRecord
  2
ACAD_DSTYLE_DIM_EXT2_LINETYPE
 70
     0
  0
APPID
  5
1988
330
1E
100
AcDbSymbolTableRecord
100
AcDbRegAppTableRecord
  2
AcLayerTools
 70
     0
  0
APPID
  5
6A86
330
1E
100
AcDbSymbolTableRecord
100
AcDbRegAppTableRecord
  2
AcDbBlockRepETag
 70
     0
  0
APPID
  5
82FB
330
1E
100
AcDbSymbolTableRecord
100
AcDbRegAppTableRecord
  2
AECBASE
 70
     0
  0
APPID
  5
82FC
330
1E
100
AcDbSymbolTableRecord
100
AcDbRegAppTableRecord
  2
AEC_OBJVER_INFO
 70
     0
  0
APPID
  5
D8C8
330
1E
100
AcDbSymbolTableRecord
100
AcDbRegAppTableRecord
  2
AcDbDynamicBlockGUID
 70
     0
  0
APPID
  5
D8C9
330
1E
100
AcDbSymbolTableRecord
100
AcDbRegAppTableRecord
  2
CADZOOKSMATERIAL
 70
     0
  0
APPID
  5
EFA3
330
1E
100
AcDbSymbolTableRecord
100
AcDbRegAppTableRecord
  2
ACAUTHENVIRON
 70
     0
  0
APPID
  5
EFA4
330
1E
100
AcDbSymbolTableRecord
100
AcDbRegAppTableRecord
  2
AcDbDynamicBlockTrueName
 70
     0
  0
APPID
  5
EFA5
330
1E
100
AcDbSymbolTableRecord
100
AcDbRegAppTableRecord
  2
AcDbBlockRepBTag
 70
     0
  0
APPID
  5
EFA6
330
1E
100
AcDbSymbolTableRecord
100
AcDbRegAppTableRecord
  2
AEC_SCHEDULE_TAG
 70
     0
  0
APPID
  5
135F6
330
1E
100
AcDbSymbolTableRecord
100
AcDbRegAppTableRecord
  2
ACAD_MLEADERVER
 70
     0
  0
ENDTAB
  0
TABLE
  2
DIMSTYLE
  5
20
330
0
100
AcDbSymbolTable
 70
    13
100
AcDbDimStyleTable
 71
     2
340
21
340
2B
  0
DIMSTYLE
105
21
102
{ACAD_REACTORS
330
134D9
330
134F8
330
13503
330
1350E
330
13519
330
13526
330
139A9
330
139AA
330
139AB
330
139AC
330
139AD
330
139AE
102
}
330
20
100
AcDbSymbolTableRecord
100
AcDbDimStyleTableRecord
  2
500
 70
     0
 41
30.0
 42
43.0
 43
0.0
 44
13.0
 45
0.5
 46
12.0
 73
     0
 74
     0
 75
     1
 76
     1
 78
    12
140
80.0
141
0.0
145
1.0
147
0.0
172
     1
174
     1
176
     1
177
     1
178
    10
271
     1
272
     1
279
     2
340
22
341
23
342
23
  0
DIMSTYLE
105
2B
330
20
100
AcDbSymbolTableRecord
100
AcDbDimStyleTableRecord
  2
Standard
 70
     0
340
15
  0
ENDTAB
  0
TABLE
  2
BLOCK_RECORD
  5
1
330
0
100
AcDbSymbolTable
 70
    60
  0
BLOCK_RECORD
  5
2
102
{ACAD_XDICTIONARY
360
1FEF
102
}
330
1
100
AcDbSymbolTableRecord
100
AcDbBlockTableRecord
  2
*Model_Space
340
A
  0
BLOCK_RECORD
  5
D
330
1
100
AcDbSymbolTableRecord
100
AcDbBlockTableRecord
  2
*Paper_Space
340
10
  0
BLOCK_RECORD
  5
23
102
{ACAD_XDICTIONARY
360
24
102
}
330
1
100
AcDbSymbolTableRecord
100
AcDbBlockTableRecord
  2
B-DIM
340
0
102
{BLKREFS
331
134F2
331
134F3
331
134FB
331
134FC
331
13506
331
13507
331
13511
331
13512
331
1351E
331
1351F
331
13539
331
1353A
331
135B5
331
135B6
331
135BC
331
135BD
331
135C3
331
135C4
331
135CA
331
135CB
331
135D3
331
135D4
331
135DA
331
135DB
331
1363E
331
1363F
331
13648
331
13649
331
13652
331
13653
331
1365C
331
1365D
331
13668
331
13669
331
13672
331
13673
331
1367C
331
1367D
331
13686
331
13687
331
13690
331
13691
331
1369A
331
1369B
331
136A4
331
136A5
331
136AE
331
136AF
331
136BA
331
136BB
331
136C4
331
136C5
331
136CE
331
136CF
331
136D8
331
136D9
331
138A5
331
138A6
331
138AF
331
138B0
331
138BB
331
138BC
331
138C5
331
138C6
331
138D1
331
138D2
331
138DB
331
138DC
331
138E5
331
138E6
331
138EF
331
138F0
331
138FB
331
138FC
331
13905
331
13906
331
13911
331
13912
331
1391B
331
1391C
331
13927
331
13928
331
13931
331
13932
331
1393B
331
1393C
331
13945
331
13946
331
139F1
331
139F2
331
139F8
331
139F9
331
139FF
331
13A00
331
13A06
331
13A07
331
13A0F
331
13A10
331
13A16
331
13A17
102
}
  0
BLOCK_RECORD
  5
134DA
330
1
100
AcDbSymbolTableRecord
100
AcDbBlockTableRecord
  2
*D6
340
0
  0
BLOCK_RECORD
  5
134F9
330
1
100
AcDbSymbolTableRecord
100
AcDbBlockTableRecord
  2
*D7
340
0
  0
BLOCK_RECORD
  5
13504
330
1
100
AcDbSymbolTableRecord
100
AcDbBlockTableRecord
  2
*D8
340
0
  0
BLOCK_RECORD
  5
1350F
330
1
100
AcDbSymbolTableRecord
100
AcDbBlockTableRecord
  2
*D9
340
0
  0
BLOCK_RECORD
  5
1351A
330
1
100
AcDbSymbolTableRecord
100
AcDbBlockTableRecord
  2
*D10
340
0
  0
BLOCK_RECORD
  5
13527
330
1
100
AcDbSymbolTableRecord
100
AcDbBlockTableRecord
  2
*D11
340
0
  0
BLOCK_RECORD
  5
139B2
330
1
100
AcDbSymbolTableRecord
100
AcDbBlockTableRecord
  2
*D53
340
0
  0
BLOCK_RECORD
  5
139BC
330
1
100
AcDbSymbolTableRecord
100
AcDbBlockTableRecord
  2
*D54
340
0
  0
BLOCK_RECORD
  5
139C6
330
1
100
AcDbSymbolTableRecord
100
AcDbBlockTableRecord
  2
*D55
340
0
  0
BLOCK_RECORD
  5
139D0
330
1
100
AcDbSymbolTableRecord
100
AcDbBlockTableRecord
  2
*D56
340
0
  0
BLOCK_RECORD
  5
139DA
330
1
100
AcDbSymbolTableRecord
100
AcDbBlockTableRecord
  2
*D57
340
0
  0
BLOCK_RECORD
  5
139E6
330
1
100
AcDbSymbolTableRecord
100
AcDbBlockTableRecord
  2
*D58
340
0
  0
ENDTAB
  0
ENDSEC
  0
SECTION
  2
BLOCKS
  0
BLOCK
  5
3
330
2
100
AcDbEntity
  8
0
100
AcDbBlockBegin
  2
*Model_Space
 70
     0
 10
0.0
 20
0.0
 30
0.0
  3
*Model_Space
  1

  0
ENDBLK
  5
9
330
2
100
AcDbEntity
  8
0
100
AcDbBlockEnd
  0
BLOCK
  5
E
330
D
100
AcDbEntity
 67
     1
  8
0
100
AcDbBlockBegin
  2
*Paper_Space
 70
     0
 10
0.0
 20
0.0
 30
0.0
  3
*Paper_Space
  1

  0
ENDBLK
  5
F
330
D
100
AcDbEntity
 67
     1
  8
0
100
AcDbBlockEnd
  0
BLOCK
  5
26
330
23
100
AcDbEntity
  8
0
100
AcDbBlockBegin
  2
B-DIM
 70
     0
 10
0.0
 20
0.0
 30
0.0
  3
B-DIM
  1

  0
LINE
  5
27
330
23
100
AcDbEntity
  8
0
 62
     1
100
AcDbLine
 10
0.000000000000091
 20
-1.1
 30
0.0
 11
0.000000000000091
 21
1.1
 31
0.0
  0
LWPOLYLINE
  5
28
330
23
100
AcDbEntity
  8
0
 62
     1
100
AcDbPolyline
 90
        2
 70
     0
 43
0.3
 10
-0.7071067811864851
 20
-0.7071067811864851
 10
0.707106781186576
 20
0.707106781186576
  0
LINE
  5
29
330
23
100
AcDbEntity
  8
0
 62
     1
100
AcDbLine
 10
1.20000000000009
 20
0.0
 30
0.0
 11
-1.199999999999909
 21
0.0
 31
0.0
  0
ENDBLK
  5
2A
330
23
100
AcDbEntity
  8
0
100
AcDbBlockEnd
  0
BLOCK
  5
134E2
330
134DA
100
AcDbEntity
  8
0
100
AcDbBlockBegin
  2
*D6
 70
     1
 10
0.0
 20
0.0
 30
0.0
  3
*D6
  1

  0
LINE
  5
134F1
330
134DA
100
AcDbEntity
  8
0Wymiary-PL
 62
     1
370
    -2
100
AcDbLine
 10
218319.8281849376
 20
137794.6110631763
 30
0.0
 11
219179.8281849376
 21
137794.6110631763
 31
0.0
  0
INSERT
  5
134F2
330
134DA
100
AcDbEntity
  8
0Wymiary-PL
 62
     1
370
    -2
100
AcDbBlockReference
  2
B-DIM
 10
218289.8281849376
 20
137794.6110631763
 30
0.0
 41
30.0
 42
30.0
 43
30.0
 50
180.0
  0
INSERT
  5
134F3
330
134DA
100
AcDbEntity
  8
0Wymiary-PL
 62
     1
370
    -2
100
AcDbBlockReference
  2
B-DIM
 10
219209.8281849376
 20
137794.6110631763
 30
0.0
 41
30.0
 42
30.0
 43
30.0
  0
MTEXT
  5
134F4
330
134DA
100
AcDbEntity
  8
0Wymiary-PL
 62
    10
100
AcDbMText
 10
218749.8281849376
 20
137874.6110631763
 30
0.0
 40
80.0
 41
0.0
 71
     5
 72
     1
  1
\A1;920
  7
ROMANS
 73
     1
 44
1.0
1001
ACAD
1000
MTEXTBEGIN
1070
    73
1070
     1
1070
    44
1040
1.0
1070
    74
1070
     0
1000
MTEXTEND
  0
POINT
  5
134F5
330
134DA
100
AcDbEntity
  8
DEFPOINTS
 62
     0
100
AcDbPoint
 10
218289.8281849376
 20
137434.6270569191
 30
0.0
  0
POINT
  5
134F6
330
134DA
100
AcDbEntity
  8
DEFPOINTS
 62
     0
100
AcDbPoint
 10
219209.8281849376
 20
137439.4890401041
 30
0.0
  0
POINT
  5
134F7
330
134DA
100
AcDbEntity
  8
DEFPOINTS
 62
     0
100
AcDbPoint
 10
219209.8281849376
 20
137794.6110631763
 30
0.0
  0
ENDBLK
  5
134E3
330
134DA
100
AcDbEntity
  8
0
100
AcDbBlockEnd
  0
BLOCK
  5
13501
330
134F9
100
AcDbEntity
  8
0
100
AcDbBlockBegin
  2
*D7
 70
     1
 10
0.0
 20
0.0
 30
0.0
  3
*D7
  1

  0
LINE
  5
134FA
330
134F9
100
AcDbEntity
  8
0Wymiary-PL
 62
     1
370
    -2
100
AcDbLine
 10
219239.8281849376
 20
137794.6110631763
 30
0.0
 11
219809.8281849376
 21
137794.6110631763
 31
0.0
  0
INSERT
  5
134FB
330
134F9
100
AcDbEntity
  8
0Wymiary-PL
 62
     1
370
    -2
100
AcDbBlockReference
  2
B-DIM
 10
219209.8281849376
 20
137794.6110631763
 30
0.0
 41
30.0
 42
30.0
 43
30.0
 50
180.0
  0
INSERT
  5
134FC
330
134F9
100
AcDbEntity
  8
0Wymiary-PL
 62
     1
370
    -2
100
AcDbBlockReference
  2
B-DIM
 10
219839.8281849376
 20
137794.6110631763
 30
0.0
 41
30.0
 42
30.0
 43
30.0
  0
MTEXT
  5
134FD
330
134F9
100
AcDbEntity
  8
0Wymiary-PL
 62
    10
100
AcDbMText
 10
219524.8281849376
 20
137874.6110631763
 30
0.0
 40
80.0
 41
0.0
 71
     5
 72
     1
  1
\A1;630
  7
ROMANS
 73
     1
 44
1.0
1001
ACAD
1000
MTEXTBEGIN
1070
    73
1070
     1
1070
    44
1040
1.0
1070
    74
1070
     0
1000
MTEXTEND
  0
POINT
  5
134FE
330
134F9
100
AcDbEntity
  8
DEFPOINTS
 62
     0
100
AcDbPoint
 10
219209.8281849376
 20
137439.4890401041
 30
0.0
  0
POINT
  5
134FF
330
134F9
100
AcDbEntity
  8
DEFPOINTS
 62
     0
100
AcDbPoint
 10
219839.8281849376
 20
137406.4890401041
 30
0.0
  0
POINT
  5
13500
330
134F9
100
AcDbEntity
  8
DEFPOINTS
 62
     0
100
AcDbPoint
 10
219839.8281849376
 20
137794.6110631763
 30
0.0
  0
ENDBLK
  5
13502
330
134F9
100
AcDbEntity
  8
0
100
AcDbBlockEnd
  0
BLOCK
  5
1350C
330
13504
100
AcDbEntity
  8
0
100
AcDbBlockBegin
  2
*D8
 70
     1
 10
0.0
 20
0.0
 30
0.0
  3
*D8
  1

  0
LINE
  5
13505
330
13504
100
AcDbEntity
  8
0Wymiary-PL
 62
     1
370
    -2
100
AcDbLine
 10
219809.8281849376
 20
138020.7228767407
 30
0.0
 11
218319.8281849376
 21
138020.7228767407
 31
0.0
  0
INSERT
  5
13506
330
13504
100
AcDbEntity
  8
0Wymiary-PL
 62
     1
370
    -2
100
AcDbBlockReference
  2
B-DIM
 10
219839.8281849376
 20
138020.7228767407
 30
0.0
 41
30.0
 42
30.0
 43
30.0
  0
INSERT
  5
13507
330
13504
100
AcDbEntity
  8
0Wymiary-PL
 62
     1
370
    -2
100
AcDbBlockReference
  2
B-DIM
 10
218289.8281849376
 20
138020.7228767407
 30
0.0
 41
30.0
 42
30.0
 43
30.0
 50
180.0
  0
MTEXT
  5
13508
330
13504
100
AcDbEntity
  8
0Wymiary-PL
 62
    10
100
AcDbMText
 10
219064.8281849376
 20
138100.7228767407
 30
0.0
 40
80.0
 41
0.0
 71
     5
 72
     1
  1
\A1;1550
  7
ROMANS
 73
     1
 44
1.0
1001
ACAD
1000
MTEXTBEGIN
1070
    73
1070
     1
1070
    44
1040
1.0
1070
    74
1070
     0
1000
MTEXTEND
  0
POINT
  5
13509
330
13504
100
AcDbEntity
  8
DEFPOINTS
 62
     0
100
AcDbPoint
 10
219839.8281849376
 20
137406.4890401041
 30
0.0
  0
POINT
  5
1350A
330
13504
100
AcDbEntity
  8
DEFPOINTS
 62
     0
100
AcDbPoint
 10
218289.8281849376
 20
137472.4890401041
 30
0.0
  0
POINT
  5
1350B
330
13504
100
AcDbEntity
  8
DEFPOINTS
 62
     0
100
AcDbPoint
 10
218289.8281849376
 20
138020.7228767407
 30
0.0
  0
ENDBLK
  5
1350D
330
13504
100
AcDbEntity
  8
0
100
AcDbBlockEnd
  0
BLOCK
  5
13517
330
1350F
100
AcDbEntity
  8
0
100
AcDbBlockBegin
  2
*D9
 70
     1
 10
0.0
 20
0.0
 30
0.0
  3
*D9
  1

  0
LINE
  5
13510
330
1350F
100
AcDbEntity
  8
0Wymiary-PL
 62
     1
370
    -2
100
AcDbLine
 10
217758.9590687851
 20
137442.4890401041
 30
0.0
 11
217758.9590687851
 21
136702.4890401041
 31
0.0
  0
INSERT
  5
13511
330
1350F
100
AcDbEntity
  8
0Wymiary-PL
 62
     1
370
    -2
100
AcDbBlockReference
  2
B-DIM
 10
217758.9590687851
 20
137472.4890401041
 30
0.0
 41
30.0
 42
30.0
 43
30.0
 50
90.0
  0
INSERT
  5
13512
330
1350F
100
AcDbEntity
  8
0Wymiary-PL
 62
     1
370
    -2
100
AcDbBlockReference
  2
B-DIM
 10
217758.9590687851
 20
136672.4890401041
 30
0.0
 41
30.0
 42
30.0
 43
30.0
 50
270.0
  0
MTEXT
  5
13513
330
1350F
100
AcDbEntity
  8
0Wymiary-PL
 62
    10
100
AcDbMText
 10
217678.9590687851
 20
137072.4890401042
 30
0.0
 40
80.0
 41
0.0
 71
     5
 72
     1
  1
\A1;800
  7
ROMANS
 11
0.0000000000000001
 21
1.0
 31
0.0
 73
     1
 44
1.0
1001
ACAD
1000
MTEXTBEGIN
1070
    73
1070
     1
1070
    44
1040
1.0
1070
    74
1070
     0
1000
MTEXTEND
  0
POINT
  5
13514
330
1350F
100
AcDbEntity
  8
DEFPOINTS
 62
     0
100
AcDbPoint
 10
218289.8281849376
 20
137472.4890401041
 30
0.0
  0
POINT
  5
13515
330
1350F
100
AcDbEntity
  8
DEFPOINTS
 62
     0
100
AcDbPoint
 10
218289.8281849376
 20
136672.4890401041
 30
0.0
  0
POINT
  5
13516
330
1350F
100
AcDbEntity
  8
DEFPOINTS
 62
     0
100
AcDbPoint
 10
217758.9590687851
 20
136672.4890401041
 30
0.0
  0
ENDBLK
  5
13518
330
1350F
100
AcDbEntity
  8
0
100
AcDbBlockEnd
  0
BLOCK
  5
13524
330
1351A
100
AcDbEntity
  8
0
100
AcDbBlockBegin
  2
*D10
 70
     1
 10
0.0
 20
0.0
 30
0.0
  3
*D10
  1

  0
LINE
  5
1351B
330
1351A
100
AcDbEntity
  8
0Wymiary-PL
 62
     1
370
    -2
100
AcDbLine
 10
217758.9590687851
 20
136702.4890401041
 30
0.0
 11
217758.9590687851
 21
136732.4890401041
 31
0.0
  0
LINE
  5
1351C
330
1351A
100
AcDbEntity
  8
0Wymiary-PL
 62
     1
370
    -2
100
AcDbLine
 10
217758.9590687851
 20
136532.3930568429
 30
0.0
 11
217758.9590687851
 21
136502.3930568429
 31
0.0
  0
LINE
  5
1351D
330
1351A
100
AcDbEntity
  8
0Wymiary-PL
 62
     1
370
    -2
100
AcDbLine
 10
217758.9590687851
 20
136672.4890401041
 30
0.0
 11
217758.9590687851
 21
136562.3930568429
 31
0.0
  0
INSERT
  5
1351E
330
1351A
100
AcDbEntity
  8
0Wymiary-PL
 62
     1
370
    -2
100
AcDbBlockReference
  2
B-DIM
 10
217758.9590687851
 20
136672.4890401041
 30
0.0
 41
30.0
 42
30.0
 43
30.0
 50
270.0
  0
INSERT
  5
1351F
330
1351A
100
AcDbEntity
  8
0Wymiary-PL
 62
     1
370
    -2
100
AcDbBlockReference
  2
B-DIM
 10
217758.9590687851
 20
136562.3930568429
 30
0.0
 41
30.0
 42
30.0
 43
30.0
 50
90.0
  0
MTEXT
  5
13520
330
1351A
100
AcDbEntity
  8
0Wymiary-PL
 62
    10
100
AcDbMText
 10
217678.9590687851
 20
136617.4410484736
 30
0.0
 40
80.0
 41
0.0
 71
     5
 72
     1
  1
\A1;110
  7
ROMANS
 11
0.0000000000000001
 21
1.0
 31
0.0
 73
     1
 44
1.0
1001
ACAD
1000
MTEXTBEGIN
1070
    73
1070
     1
1070
    44
1040
1.0
1070
    74
1070
     0
1000
MTEXTEND
  0
POINT
  5
13521
330
1351A
100
AcDbEntity
  8
DEFPOINTS
 62
     0
100
AcDbPoint
 10
218289.8281849376
 20
136672.4890401041
 30
0.0
  0
POINT
  5
13522
330
1351A
100
AcDbEntity
  8
DEFPOINTS
 62
     0
100
AcDbPoint
 10
218698.50760812
 20
136562.3930568429
 30
0.0
  0
POINT
  5
13523
330
1351A
100
AcDbEntity
  8
DEFPOINTS
 62
     0
100
AcDbPoint
 10
217758.9590687851
 20
136562.3930568429
 30
0.0
  0
ENDBLK
  5
13525
330
1351A
100
AcDbEntity
  8
0
100
AcDbBlockEnd
  0
BLOCK
  5
1352F
330
13527
100
AcDbEntity
  8
0
100
AcDbBlockBegin
  2
*D11
 70
     1
 10
0.0
 20
0.0
 30
0.0
  3
*D11
  1

  0
LINE
  5
13538
330
13527
100
AcDbEntity
  8
0Wymiary-PL
 62
     1
370
    -2
100
AcDbLine
 10
217549.2237031725
 20
136592.3930568429
 30
0.0
 11
217549.2237031725
 21
137442.4890401041
 31
0.0
  0
INSERT
  5
13539
330
13527
100
AcDbEntity
  8
0Wymiary-PL
 62
     1
370
    -2
100
AcDbBlockReference
  2
B-DIM
 10
217549.2237031725
 20
136562.3930568429
 30
0.0
 41
30.0
 42
30.0
 43
30.0
 50
270.0
  0
INSERT
  5
1353A
330
13527
100
AcDbEntity
  8
0Wymiary-PL
 62
     1
370
    -2
100
AcDbBlockReference
  2
B-DIM
 10
217549.2237031725
 20
137472.4890401041
 30
0.0
 41
30.0
 42
30.0
 43
30.0
 50
90.0
  0
MTEXT
  5
1353B
330
13527
100
AcDbEntity
  8
0Wymiary-PL
 62
    10
100
AcDbMText
 10
217469.2237031724
 20
137017.4410484736
 30
0.0
 40
80.0
 41
0.0
 71
     5
 72
     1
  1
\A1;910
  7
ROMANS
 11
0.0000000000000001
 21
1.0
 31
0.0
 73
     1
 44
1.0
1001
ACAD
1000
MTEXTBEGIN
1070
    73
1070
     1
1070
    44
1040
1.0
1070
    74
1070
     0
1000
MTEXTEND
  0
POINT
  5
1353C
330
13527
100
AcDbEntity
  8
DEFPOINTS
 62
     0
100
AcDbPoint
 10
217758.9590687851
 20
136562.3930568429
 30
0.0
  0
POINT
  5
1353D
330
13527
100
AcDbEntity
  8
DEFPOINTS
 62
     0
100
AcDbPoint
 10
217758.9590687851
 20
137472.4890401041
 30
0.0
  0
POINT
  5
1353E
330
13527
100
AcDbEntity
  8
DEFPOINTS
 62
     0
100
AcDbPoint
 10
217549.2237031725
 20
137472.4890401041
 30
0.0
  0
ENDBLK
  5
13530
330
13527
100
AcDbEntity
  8
0
100
AcDbBlockEnd
  0
BLOCK
  5
139B3
330
139B2
100
AcDbEntity
  8
0
100
AcDbBlockBegin
  2
*D53
 70
     1
 10
0.0
 20
0.0
 30
0.0
  3
*D53
  1

  0
LINE
  5
139F0
330
139B2
100
AcDbEntity
  8
0Wymiary-PL
 62
     1
370
    -2
100
AcDbLine
 10
222479.9503048075
 20
137794.6110631763
 30
0.0
 11
221619.9503048075
 21
137794.6110631763
 31
0.0
  0
INSERT
  5
139F1
330
139B2
100
AcDbEntity
  8
0Wymiary-PL
 62
     1
370
    -2
100
AcDbBlockReference
  2
B-DIM
 10
222509.9503048075
 20
137794.6110631763
 30
0.0
 41
30.0
 42
30.0
 43
30.0
  0
INSERT
  5
139F2
330
139B2
100
AcDbEntity
  8
0Wymiary-PL
 62
     1
370
    -2
100
AcDbBlockReference
  2
B-DIM
 10
221589.9503048075
 20
137794.6110631763
 30
0.0
 41
30.0
 42
30.0
 43
30.0
 50
180.0
  0
MTEXT
  5
139F3
330
139B2
100
AcDbEntity
  8
0Wymiary-PL
 62
    10
100
AcDbMText
 10
222049.9503048075
 20
137874.6110631763
 30
0.0
 40
80.0
 41
0.0
 71
     5
 72
     1
  1
\A1;920
  7
ROMANS
 73
     1
 44
1.0
1001
ACAD
1000
MTEXTBEGIN
1070
    73
1070
     1
1070
    44
1040
1.0
1070
    74
1070
     0
1000
MTEXTEND
  0
POINT
  5
139F4
330
139B2
100
AcDbEntity
  8
DEFPOINTS
 62
     0
100
AcDbPoint
 10
222509.9503048075
 20
137434.6270569191
 30
0.0
  0
POINT
  5
139F5
330
139B2
100
AcDbEntity
  8
DEFPOINTS
 62
     0
100
AcDbPoint
 10
221589.9503048075
 20
137439.4890401041
 30
0.0
  0
POINT
  5
139F6
330
139B2
100
AcDbEntity
  8
DEFPOINTS
 62
     0
100
AcDbPoint
 10
221589.9503048075
 20
137794.6110631763
 30
0.0
  0
ENDBLK
  5
139B4
330
139B2
100
AcDbEntity
  8
0
100
AcDbBlockEnd
  0
BLOCK
  5
139BD
330
139BC
100
AcDbEntity
  8
0
100
AcDbBlockBegin
  2
*D54
 70
     1
 10
0.0
 20
0.0
 30
0.0
  3
*D54
  1

  0
LINE
  5
139F7
330
139BC
100
AcDbEntity
  8
0Wymiary-PL
 62
     1
370
    -2
100
AcDbLine
 10
221559.9503048075
 20
137794.6110631763
 30
0.0
 11
220989.9503048075
 21
137794.6110631763
 31
0.0
  0
INSERT
  5
139F8
330
139BC
100
AcDbEntity
  8
0Wymiary-PL
 62
     1
370
    -2
100
AcDbBlockReference
  2
B-DIM
 10
221589.9503048075
 20
137794.6110631763
 30
0.0
 41
30.0
 42
30.0
 43
30.0
  0
INSERT
  5
139F9
330
139BC
100
AcDbEntity
  8
0Wymiary-PL
 62
     1
370
    -2
100
AcDbBlockReference
  2
B-DIM
 10
220959.9503048075
 20
137794.6110631763
 30
0.0
 41
30.0
 42
30.0
 43
30.0
 50
180.0
  0
MTEXT
  5
139FA
330
139BC
100
AcDbEntity
  8
0Wymiary-PL
 62
    10
100
AcDbMText
 10
221274.9503048075
 20
137874.6110631763
 30
0.0
 40
80.0
 41
0.0
 71
     5
 72
     1
  1
\A1;630
  7
ROMANS
 73
     1
 44
1.0
1001
ACAD
1000
MTEXTBEGIN
1070
    73
1070
     1
1070
    44
1040
1.0
1070
    74
1070
     0
1000
MTEXTEND
  0
POINT
  5
139FB
330
139BC
100
AcDbEntity
  8
DEFPOINTS
 62
     0
100
AcDbPoint
 10
221589.9503048075
 20
137439.4890401041
 30
0.0
  0
POINT
  5
139FC
330
139BC
100
AcDbEntity
  8
DEFPOINTS
 62
     0
100
AcDbPoint
 10
220959.9503048075
 20
137406.4890401041
 30
0.0
  0
POINT
  5
139FD
330
139BC
100
AcDbEntity
  8
DEFPOINTS
 62
     0
100
AcDbPoint
 10
220959.9503048075
 20
137794.6110631763
 30
0.0
  0
ENDBLK
  5
139BE
330
139BC
100
AcDbEntity
  8
0
100
AcDbBlockEnd
  0
BLOCK
  5
139C7
330
139C6
100
AcDbEntity
  8
0
100
AcDbBlockBegin
  2
*D55
 70
     1
 10
0.0
 20
0.0
 30
0.0
  3
*D55
  1

  0
LINE
  5
139FE
330
139C6
100
AcDbEntity
  8
0Wymiary-PL
 62
     1
370
    -2
100
AcDbLine
 10
220989.9503048075
 20
138020.7228767407
 30
0.0
 11
222479.9503048075
 21
138020.7228767407
 31
0.0
  0
INSERT
  5
139FF
330
139C6
100
AcDbEntity
  8
0Wymiary-PL
 62
     1
370
    -2
100
AcDbBlockReference
  2
B-DIM
 10
220959.9503048075
 20
138020.7228767407
 30
0.0
 41
30.0
 42
30.0
 43
30.0
 50
180.0
  0
INSERT
  5
13A00
330
139C6
100
AcDbEntity
  8
0Wymiary-PL
 62
     1
370
    -2
100
AcDbBlockReference
  2
B-DIM
 10
222509.9503048075
 20
138020.7228767407
 30
0.0
 41
30.0
 42
30.0
 43
30.0
  0
MTEXT
  5
13A01
330
139C6
100
AcDbEntity
  8
0Wymiary-PL
 62
    10
100
AcDbMText
 10
221734.9503048075
 20
138100.7228767407
 30
0.0
 40
80.0
 41
0.0
 71
     5
 72
     1
  1
\A1;1550
  7
ROMANS
 73
     1
 44
1.0
1001
ACAD
1000
MTEXTBEGIN
1070
    73
1070
     1
1070
    44
1040
1.0
1070
    74
1070
     0
1000
MTEXTEND
  0
POINT
  5
13A02
330
139C6
100
AcDbEntity
  8
DEFPOINTS
 62
     0
100
AcDbPoint
 10
220959.9503048075
 20
137406.4890401041
 30
0.0
  0
POINT
  5
13A03
330
139C6
100
AcDbEntity
  8
DEFPOINTS
 62
     0
100
AcDbPoint
 10
222509.9503048075
 20
137472.4890401041
 30
0.0
  0
POINT
  5
13A04
330
139C6
100
AcDbEntity
  8
DEFPOINTS
 62
     0
100
AcDbPoint
 10
222509.9503048075
 20
138020.7228767407
 30
0.0
  0
ENDBLK
  5
139C8
330
139C6
100
AcDbEntity
  8
0
100
AcDbBlockEnd
  0
BLOCK
  5
139D1
330
139D0
100
AcDbEntity
  8
0
100
AcDbBlockBegin
  2
*D56
 70
     1
 10
0.0
 20
0.0
 30
0.0
  3
*D56
  1

  0
LINE
  5
13A05
330
139D0
100
AcDbEntity
  8
0Wymiary-PL
 62
     1
370
    -2
100
AcDbLine
 10
223040.81942096
 20
137442.4890401041
 30
0.0
 11
223040.81942096
 21
136702.4890401041
 31
0.0
  0
INSERT
  5
13A06
330
139D0
100
AcDbEntity
  8
0Wymiary-PL
 62
     1
370
    -2
100
AcDbBlockReference
  2
B-DIM
 10
223040.81942096
 20
137472.4890401041
 30
0.0
 41
30.0
 42
30.0
 43
30.0
 50
90.0
  0
INSERT
  5
13A07
330
139D0
100
AcDbEntity
  8
0Wymiary-PL
 62
     1
370
    -2
100
AcDbBlockReference
  2
B-DIM
 10
223040.81942096
 20
136672.4890401041
 30
0.0
 41
30.0
 42
30.0
 43
30.0
 50
270.0
  0
MTEXT
  5
13A08
330
139D0
100
AcDbEntity
  8
0Wymiary-PL
 62
    10
100
AcDbMText
 10
222960.8194209599
 20
137072.4890401042
 30
0.0
 40
80.0
 41
0.0
 71
     5
 72
     1
  1
\A1;800
  7
ROMANS
 11
0.0000000000000001
 21
1.0
 31
0.0
 73
     1
 44
1.0
1001
ACAD
1000
MTEXTBEGIN
1070
    73
1070
     1
1070
    44
1040
1.0
1070
    74
1070
     0
1000
MTEXTEND
  0
POINT
  5
13A09
330
139D0
100
AcDbEntity
  8
DEFPOINTS
 62
     0
100
AcDbPoint
 10
222509.9503048075
 20
137472.4890401041
 30
0.0
  0
POINT
  5
13A0A
330
139D0
100
AcDbEntity
  8
DEFPOINTS
 62
     0
100
AcDbPoint
 10
222509.9503048075
 20
136672.4890401041
 30
0.0
  0
POINT
  5
13A0B
330
139D0
100
AcDbEntity
  8
DEFPOINTS
 62
     0
100
AcDbPoint
 10
223040.81942096
 20
136672.4890401041
 30
0.0
  0
ENDBLK
  5
139D2
330
139D0
100
AcDbEntity
  8
0
100
AcDbBlockEnd
  0
BLOCK
  5
139DB
330
139DA
100
AcDbEntity
  8
0
100
AcDbBlockBegin
  2
*D57
 70
     1
 10
0.0
 20
0.0
 30
0.0
  3
*D57
  1

  0
LINE
  5
13A0C
330
139DA
100
AcDbEntity
  8
0Wymiary-PL
 62
     1
370
    -2
100
AcDbLine
 10
223040.81942096
 20
136702.4890401041
 30
0.0
 11
223040.81942096
 21
136732.4890401041
 31
0.0
  0
LINE
  5
13A0D
330
139DA
100
AcDbEntity
  8
0Wymiary-PL
 62
     1
370
    -2
100
AcDbLine
 10
223040.81942096
 20
136532.3930568429
 30
0.0
 11
223040.81942096
 21
136502.3930568429
 31
0.0
  0
LINE
  5
13A0E
330
139DA
100
AcDbEntity
  8
0Wymiary-PL
 62
     1
370
    -2
100
AcDbLine
 10
223040.81942096
 20
136672.4890401041
 30
0.0
 11
223040.81942096
 21
136562.3930568429
 31
0.0
  0
INSERT
  5
13A0F
330
139DA
100
AcDbEntity
  8
0Wymiary-PL
 62
     1
370
    -2
100
AcDbBlockReference
  2
B-DIM
 10
223040.81942096
 20
136672.4890401041
 30
0.0
 41
30.0
 42
30.0
 43
30.0
 50
270.0
  0
INSERT
  5
13A10
330
139DA
100
AcDbEntity
  8
0Wymiary-PL
 62
     1
370
    -2
100
AcDbBlockReference
  2
B-DIM
 10
223040.81942096
 20
136562.3930568429
 30
0.0
 41
30.0
 42
30.0
 43
30.0
 50
90.0
  0
MTEXT
  5
13A11
330
139DA
100
AcDbEntity
  8
0Wymiary-PL
 62
    10
100
AcDbMText
 10
222960.8194209599
 20
136617.4410484736
 30
0.0
 40
80.0
 41
0.0
 71
     5
 72
     1
  1
\A1;110
  7
ROMANS
 11
0.0000000000000001
 21
1.0
 31
0.0
 73
     1
 44
1.0
1001
ACAD
1000
MTEXTBEGIN
1070
    73
1070
     1
1070
    44
1040
1.0
1070
    74
1070
     0
1000
MTEXTEND
  0
POINT
  5
13A12
330
139DA
100
AcDbEntity
  8
DEFPOINTS
 62
     0
100
AcDbPoint
 10
222509.9503048075
 20
136672.4890401041
 30
0.0
  0
POINT
  5
13A13
330
139DA
100
AcDbEntity
  8
DEFPOINTS
 62
     0
100
AcDbPoint
 10
222101.2708816251
 20
136562.3930568429
 30
0.0
  0
POINT
  5
13A14
330
139DA
100
AcDbEntity
  8
DEFPOINTS
 62
     0
100
AcDbPoint
 10
223040.81942096
 20
136562.3930568429
 30
0.0
  0
ENDBLK
  5
139DC
330
139DA
100
AcDbEntity
  8
0
100
AcDbBlockEnd
  0
BLOCK
  5
139E7
330
139E6
100
AcDbEntity
  8
0
100
AcDbBlockBegin
  2
*D58
 70
     1
 10
0.0
 20
0.0
 30
0.0
  3
*D58
  1

  0
LINE
  5
13A15
330
139E6
100
AcDbEntity
  8
0Wymiary-PL
 62
     1
370
    -2
100
AcDbLine
 10
223250.5547865726
 20
136592.3930568429
 30
0.0
 11
223250.5547865726
 21
137442.4890401041
 31
0.0
  0
INSERT
  5
13A16
330
139E6
100
AcDbEntity
  8
0Wymiary-PL
 62
     1
370
    -2
100
AcDbBlockReference
  2
B-DIM
 10
223250.5547865726
 20
136562.3930568429
 30
0.0
 41
30.0
 42
30.0
 43
30.0
 50
270.0
  0
INSERT
  5
13A17
330
139E6
100
AcDbEntity
  8
0Wymiary-PL
 62
     1
370
    -2
100
AcDbBlockReference
  2
B-DIM
 10
223250.5547865726
 20
137472.4890401041
 30
0.0
 41
30.0
 42
30.0
 43
30.0
 50
90.0
  0
MTEXT
  5
13A18
330
139E6
100
AcDbEntity
  8
0Wymiary-PL
 62
    10
100
AcDbMText
 10
223170.5547865726
 20
137017.4410484736
 30
0.0
 40
80.0
 41
0.0
 71
     5
 72
     1
  1
\A1;910
  7
ROMANS
 11
0.0000000000000001
 21
1.0
 31
0.0
 73
     1
 44
1.0
1001
ACAD
1000
MTEXTBEGIN
1070
    73
1070
     1
1070
    44
1040
1.0
1070
    74
1070
     0
1000
MTEXTEND
  0
POINT
  5
13A19
330
139E6
100
AcDbEntity
  8
DEFPOINTS
 62
     0
100
AcDbPoint
 10
223040.81942096
 20
136562.3930568429
 30
0.0
  0
POINT
  5
13A1A
330
139E6
100
AcDbEntity
  8
DEFPOINTS
 62
     0
100
AcDbPoint
 10
223040.81942096
 20
137472.4890401041
 30
0.0
  0
POINT
  5
13A1B
330
139E6
100
AcDbEntity
  8
DEFPOINTS
 62
     0
100
AcDbPoint
 10
223250.5547865726
 20
137472.4890401041
 30
0.0
  0
ENDBLK
  5
139E8
330
139E6
100
AcDbEntity
  8
0
100
AcDbBlockEnd
  0
ENDSEC
  0
SECTION
  2
ENTITIES
  0
TEXT
  5
142
330
2
100
AcDbEntity
  8
NAPISY
370
     5
100
AcDbText
 10
216646.5520012698
 20
128323.0717886572
 30
0.0
 40
100.0
  1
   O B R Y S   B U D Y N K U           S K A L A   1 : 5 0 0 
  7
AVA
100
AcDbText
  0
LINE
  5
157
330
2
100
AcDbEntity
  8
NAPISY
  6
HIDDEN
 62
     1
 48
8.0
370
     5
100
AcDbLine
 10
220399.8892448725
 20
132297.6012553763
 30
0.0
 11
220399.8892448725
 21
138975.9872975476
 31
0.0
  0
TEXT
  5
159
330
2
100
AcDbEntity
  8
NAPISY
370
     5
100
AcDbText
 10
220340.3680678792
 20
132512.3704586351
 30
0.0
 40
100.0
  1
OŚ ODBICIA LUSTRZANEGO
 50
90.0
  7
AVA
100
AcDbText
  0
TEXT
  5
15B
330
2
100
AcDbEntity
  8
NAPISY
370
     5
100
AcDbText
 10
216742.7650523877
 20
140786.437049539
 30
0.0
 40
150.0
  1
MOŻNA WKLEIĆ DO PROJEKTU ZAGOSPODAROWANIA TERENU
  7
AVA
100
AcDbText
  0
TEXT
  5
15C
330
2
100
AcDbEntity
  8
NAPISY
370
     5
100
AcDbText
 10
216666.4297817526
 20
141116.3055269018
 30
0.0
 40
150.0
  1
"DOM  W  ANANASACH  (G2)"
  7
AVA
100
AcDbText
  0
LWPOLYLINE
  5
115C3
330
2
100
AcDbEntity
  8
RAMKI-A4
370
     5
100
AcDbPolyline
 90
        4
 70
     1
 43
0.0
 10
215187.2000545948
 20
127657.5157057546
 10
215187.2000545948
 20
141677.5157057546
 10
225387.2000545948
 20
141677.5157057546
 10
225387.2000545948
 20
127657.5157057546
  0
HATCH
  5
13473
330
2
100
AcDbEntity
  8
0Hatch
 48
4.0
370
     5
100
AcDbHatch
 10
0.0
 20
0.0
 30
0.0
210
0.0
220
0.0
230
1.0
  2
SOLID
 70
     1
 71
     0
 91
        1
 92
        7
 72
     1
 73
     1
 93
        2
 10
219163.3281849376
 20
136698.9890401041
 42
1.0
 10
219203.3281849376
 20
136698.9890401041
 42
1.0
 97
        0
 75
     0
 76
     1
 47
2.020177206247823
 98
        1
 10
219185.3604349549
 20
136700.5361508048
1001
ACAD
1010
0.0
1020
0.0
1030
0.0
  0
CIRCLE
  5
13474
330
2
100
AcDbEntity
  8
0Hatch
 48
4.0
370
     5
100
AcDbCircle
 10
219183.3281849376
 20
136698.9890401041
 30
0.0
 40
26.99999999999997
  0
CIRCLE
  5
13475
330
2
100
AcDbEntity
  8
0Hatch
 48
4.0
370
     5
100
AcDbCircle
 10
219183.3281849376
 20
136698.9890401041
 30
4.000000000000113
 40
19.99999999999995
  0
CIRCLE
  5
13476
330
2
100
AcDbEntity
  8
0Hatch
 48
4.0
370
     5
100
AcDbCircle
 10
219183.3281849376
 20
136698.9890401041
 30
227.0000000000001
 40
26.99999999999997
  0
LINE
  5
13477
330
2
100
AcDbEntity
  8
A-MassElement-G
  6
Continuous
 62
   210
370
     5
100
AcDbLine
 10
218797.5258023885
 20
137673.9890401041
 30
0.0
 11
218159.6030597976
 21
137673.9890401041
 31
0.0
  0
LINE
  5
13478
330
2
100
AcDbEntity
  8
A-MassElement-G
  6
Continuous
 62
   210
370
     5
100
AcDbLine
 10
217949.8281849376
 20
137259.7682607177
 30
0.0
 11
217949.8281849376
 21
136885.2098194905
 31
0.0
  0
LINE
  5
13479
330
2
100
AcDbEntity
  8
A-MassElement-G
  6
Continuous
 62
   210
370
     5
100
AcDbLine
 10
217979.8281849376
 20
137247.3418538465
 30
0.0
 11
217979.8281849376
 21
136897.6362263617
 31
0.0
  0
LINE
  5
1347A
330
2
100
AcDbEntity
  8
A-MassElement-G
  6
Continuous
 62
   210
370
     5
100
AcDbLine
 10
218009.8281849376
 20
137234.9154469753
 30
0.0
 11
218009.8281849376
 21
136910.0626332329
 31
0.0
  0
LINE
  5
1347B
330
2
100
AcDbEntity
  8
A-MassElement-G
  6
Continuous
 62
   210
370
     5
100
AcDbLine
 10
217949.8281849376
 20
136885.2098194905
 30
0.0
 11
218102.548964324
 21
136732.4890401041
 31
0.0
  0
LINE
  5
1347C
330
2
100
AcDbEntity
  8
A-MassElement-G
  6
Continuous
 62
   210
370
     5
100
AcDbLine
 10
217979.8281849376
 20
136897.6362263617
 30
0.0
 11
218114.9753711951
 21
136762.4890401041
 31
0.0
  0
LINE
  5
1347D
330
2
100
AcDbEntity
  8
A-MassElement-G
  6
Continuous
 62
   210
370
     5
100
AcDbLine
 10
218009.8281849376
 20
136910.0626332329
 30
0.0
 11
218127.4017780664
 21
136792.4890401041
 31
0.0
  0
LINE
  5
1347E
330
2
100
AcDbEntity
  8
A-MassElement-G
  6
Continuous
 62
   210
370
     5
100
AcDbLine
 10
218102.548964324
 20
136732.4890401041
 30
0.0
 11
218289.8281849376
 21
136732.4890401041
 31
0.0
  0
LINE
  5
1347F
330
2
100
AcDbEntity
  8
A-MassElement-G
  6
Continuous
 62
   210
370
     5
100
AcDbLine
 10
218114.9753711951
 20
136762.4890401041
 30
0.0
 11
218289.8281849376
 21
136762.4890401041
 31
0.0
  0
LINE
  5
13480
330
2
100
AcDbEntity
  8
A-MassElement-G
  6
Continuous
 62
   210
370
     5
100
AcDbLine
 10
218127.4017780664
 20
136792.4890401041
 30
0.0
 11
218289.8281849376
 21
136792.4890401041
 31
0.0
  0
LINE
  5
13481
330
2
100
AcDbEntity
  8
A-MassElement-G
  6
Continuous
 62
   210
370
     5
100
AcDbLine
 10
218102.548964324
 20
137412.4890401041
 30
0.0
 11
217949.8281849376
 21
137259.7682607177
 31
0.0
  0
LINE
  5
13482
330
2
100
AcDbEntity
  8
A-MassElement-G
  6
Continuous
 62
   210
370
     5
100
AcDbLine
 10
218114.9753711951
 20
137382.4890401041
 30
0.0
 11
217979.8281849376
 21
137247.3418538465
 31
0.0
  0
LINE
  5
13483
330
2
100
AcDbEntity
  8
A-MassElement-G
  6
Continuous
 62
   210
370
     5
100
AcDbLine
 10
218127.4017780664
 20
137352.4890401041
 30
0.0
 11
218009.8281849376
 21
137234.9154469753
 31
0.0
  0
LINE
  5
13484
330
2
100
AcDbEntity
  8
A-MassElement-G
  6
Continuous
 62
   210
370
     5
100
AcDbLine
 10
218189.8281849376
 20
137352.4890401041
 30
0.0
 11
218189.8281849376
 21
137412.4890401041
 31
0.0
  0
LINE
  5
13485
330
2
100
AcDbEntity
  8
A-MassElement-G
  6
Continuous
 62
   210
370
     5
100
AcDbLine
 10
218159.6030597976
 20
137382.4890401041
 30
0.0
 11
218114.9753711951
 21
137382.4890401041
 31
0.0
  0
LINE
  5
13486
330
2
100
AcDbEntity
  8
A-MassElement-G
  6
Continuous
 62
   210
370
     5
100
AcDbLine
 10
218289.8281849376
 20
137382.4890401041
 30
0.0
 11
218189.8281849376
 21
137382.4890401041
 31
0.0
  0
LINE
  5
13487
330
2
100
AcDbEntity
  8
A-MassElement-G
  6
Continuous
 62
   210
370
     5
100
AcDbLine
 10
218289.8281849376
 20
137352.4890401041
 30
0.0
 11
218127.4017780664
 21
137352.4890401041
 31
0.0
  0
LINE
  5
13488
330
2
100
AcDbEntity
  8
A-MassElement-G
  6
Continuous
 62
   210
370
     5
100
AcDbLine
 10
218102.548964324
 20
137412.4890401041
 30
0.0
 11
218289.8281849376
 21
137412.4890401041
 31
0.0
  0
LINE
  5
13489
330
2
100
AcDbEntity
  8
A-MassElement-G
  6
Continuous
 62
   210
370
     5
100
AcDbLine
 10
218159.6030597976
 20
137352.4890401041
 30
0.0
 11
218159.6030597976
 21
137673.9890401041
 31
0.0
  0
LINE
  5
1348A
330
2
100
AcDbEntity
  8
A-MassElement-G
  6
Continuous
 62
   210
370
     5
100
AcDbLine
 10
219209.8281849376
 20
136646.2387279104
 30
0.0
 11
218984.8281849375
 21
136646.2387279104
 31
0.0
  0
LINE
  5
1348B
330
2
100
AcDbEntity
  8
A-MassElement-G
  6
Continuous
 62
   210
370
     5
100
AcDbLine
 10
219209.8281849376
 20
136616.2387279104
 30
0.0
 11
218964.7276798742
 21
136616.2387279104
 31
0.0
  0
LINE
  5
1348C
330
2
100
AcDbEntity
  8
A-MassElement-G
  6
Continuous
 62
   210
370
     5
100
AcDbLine
 10
218934.7276798742
 20
136586.2387279104
 30
0.0
 11
219839.8281849376
 21
136586.2387279104
 31
0.0
  0
LINE
  5
1348D
330
2
100
AcDbEntity
  8
A-MassElement-G
  6
Continuous
 62
   210
370
     5
100
AcDbLine
 10
218984.8281849375
 20
136735.4890401041
 30
0.0
 11
218984.8281849375
 21
136646.2387279104
 31
0.0
  0
LINE
  5
1348E
330
2
100
AcDbEntity
  8
A-WallAbove-G
  6
DASHED
 62
     1
370
     5
390
11977
100
AcDbLine
 10
218984.8281849375
 20
136672.4890401041
 30
0.0
 11
218984.8281849375
 21
136711.4890401041
 31
0.0
  0
LINE
  5
1348F
330
2
100
AcDbEntity
  8
A-MassElement-G
  6
Continuous
 62
   210
370
     5
100
AcDbLine
 10
219839.8281849376
 20
136586.2387279104
 30
0.0
 11
219839.8281849376
 21
136738.4890401041
 31
0.0
  0
LINE
  5
13490
330
2
100
AcDbEntity
  8
A-WallAbove-G
  6
DASHED
 62
     1
370
     5
390
11977
100
AcDbLine
 10
219209.8281849376
 20
136672.4890401041
 30
0.0
 11
219209.8281849376
 21
136738.4890401041
 31
0.0
  0
LINE
  5
13491
330
2
100
AcDbEntity
  8
A-MassElement-G
  6
Continuous
 62
   210
370
     5
100
AcDbLine
 10
219209.8281849376
 20
136586.2387279104
 30
0.0
 11
219209.8281849376
 21
136738.4890401041
 31
0.0
  0
LINE
  5
13492
330
2
100
AcDbEntity
  8
A-MassElement-G
  6
Continuous
 62
   210
370
     5
100
AcDbLine
 10
219209.8281849376
 20
136694.2387279104
 30
0.0
 11
219839.8281849376
 21
136694.2387279104
 31
0.0
  0
LINE
  5
13493
330
2
100
AcDbEntity
  8
A-MassElement-G
  6
Continuous
 62
   210
370
     5
100
AcDbLine
 10
218797.5258023885
 20
137472.4890401041
 30
0.0
 11
218797.5258023885
 21
137673.9890401041
 31
0.0
  0
LINE
  5
13494
330
2
100
AcDbEntity
  8
A-MassElement-G
  6
Continuous
 62
   210
370
     5
100
AcDbLine
 10
219209.8281849376
 20
136586.2387279104
 30
0.0
 11
219528.3281849376
 21
136694.2387279104
 31
0.0
  0
LINE
  5
13495
330
2
100
AcDbEntity
  8
A-MassElement-G
  6
Continuous
 62
   210
370
     5
100
AcDbLine
 10
219528.3281849376
 20
136694.2387279104
 30
0.0
 11
219839.8281849375
 21
136586.2387279104
 31
0.0
  0
LWPOLYLINE
  5
13496
330
2
100
AcDbEntity
  8
A-MassElement-G
  6
Continuous
 62
   210
370
     5
100
AcDbPolyline
 90
        4
 70
     0
 43
0.0
 10
219463.5980358841
 20
137406.4890401041
 10
219463.5980358841
 20
137506.4890401041
 10
219263.5980358842
 20
137506.4890401041
 10
219263.5980358842
 20
137406.4890401041
  0
LWPOLYLINE
  5
13497
330
2
100
AcDbEntity
  8
A-MassElement-G
  6
Continuous
 62
   210
370
     5
100
AcDbPolyline
 90
        4
 70
     0
 43
0.0
 10
219493.5980358842
 20
137406.4890401041
 10
219493.5980358842
 20
137536.4890401041
 10
219233.5980358842
 20
137536.4890401041
 10
219233.5980358842
 20
137406.4890401041
  0
LWPOLYLINE
  5
1349A
330
2
100
AcDbEntity
  8
0Hatch
 48
4.0
370
     5
100
AcDbPolyline
 90
       12
 70
     1
 43
0.0
 10
218349.8281849375
 20
137412.4890401041
 10
218349.8281849375
 20
136732.4890401041
 10
218674.6619370525
 20
136732.4890401041
 10
218674.6619370525
 20
136671.0915416528
 10
218723.3604218624
 20
136622.3930568429
 10
218876.1297001278
 20
136622.3930568429
 10
218924.8281849375
 20
136671.0915416528
 10
218924.8281849375
 20
136798.4890401041
 10
219779.8281849376
 20
136798.4890401041
 10
219779.8281849376
 20
137346.4890401041
 10
219149.8281849376
 20
137346.4890401041
 10
219149.8281849376
 20
137412.4890401041
  0
LINE
  5
1349B
330
2
100
AcDbEntity
  8
0Hatch
 48
4.0
370
     5
100
AcDbLine
 10
219030.8281849376
 20
136738.4890401041
 30
0.0
 11
219030.8281849376
 21
136798.4890401041
 31
0.0
  0
LINE
  5
1349C
330
2
100
AcDbEntity
  8
0Hatch
 48
4.0
370
     5
100
AcDbLine
 10
219140.8281849376
 20
136738.4890401041
 30
0.0
 11
219140.8281849376
 21
136798.4890401041
 31
0.0
  0
LINE
  5
1349D
330
2
100
AcDbEntity
  8
0Hatch
 48
4.0
370
     5
100
AcDbLine
 10
219300.1536993762
 20
136738.4890401041
 30
0.0
 11
219300.1536993762
 21
136798.4890401041
 31
0.0
  0
LINE
  5
1349E
330
2
100
AcDbEntity
  8
0Hatch
 48
4.0
370
     5
100
AcDbLine
 10
219750.1536993762
 20
136738.4890401041
 30
0.0
 11
219750.1536993762
 21
136798.4890401041
 31
0.0
  0
LINE
  5
134A3
330
2
100
AcDbEntity
  8
0Hatch
 48
4.0
370
     5
100
AcDbLine
 10
218289.8281849376
 20
137252.4890401041
 30
0.0
 11
218289.8281849376
 21
136892.4890401041
 31
0.0
  0
DIMENSION
  5
134D9
330
2
100
AcDbEntity
  8
0Wymiary-PL
100
AcDbDimension
  2
*D6
 10
219209.8281849376
 20
137794.6110631763
 30
0.0
 11
218749.8281849376
 21
137874.6110631763
 31
0.0
 70
    32
 71
     5
 42
920.0
  3
500
100
AcDbAlignedDimension
 13
218289.8281849376
 23
137434.6270569191
 33
0.0
 14
219209.8281849376
 24
137439.4890401041
 34
0.0
100
AcDbRotatedDimension
  0
DIMENSION
  5
134F8
330
2
100
AcDbEntity
  8
0Wymiary-PL
100
AcDbDimension
  2
*D7
 10
219839.8281849376
 20
137794.6110631763
 30
0.0
 11
219524.8281849376
 21
137874.6110631763
 31
0.0
 70
    32
 71
     5
 42
630.0
  3
500
100
AcDbAlignedDimension
 13
219209.8281849376
 23
137439.4890401041
 33
0.0
 14
219839.8281849376
 24
137406.4890401041
 34
0.0
100
AcDbRotatedDimension
  0
DIMENSION
  5
13503
330
2
100
AcDbEntity
  8
0Wymiary-PL
100
AcDbDimension
  2
*D8
 10
218289.8281849376
 20
138020.7228767407
 30
0.0
 11
219064.8281849376
 21
138100.7228767407
 31
0.0
 70
    32
 71
     5
 42
1550.0
  3
500
100
AcDbAlignedDimension
 13
219839.8281849376
 23
137406.4890401041
 33
0.0
 14
218289.8281849376
 24
137472.4890401041
 34
0.0
100
AcDbRotatedDimension
  0
DIMENSION
  5
1350E
330
2
100
AcDbEntity
  8
0Wymiary-PL
100
AcDbDimension
  2
*D9
 10
217758.9590687851
 20
136672.4890401041
 30
0.0
 11
217678.9590687851
 21
137072.4890401042
 31
0.0
 70
    32
 71
     5
 42
800.0
  3
500
100
AcDbAlignedDimension
 13
218289.8281849376
 23
137472.4890401041
 33
0.0
 14
218289.8281849376
 24
136672.4890401041
 34
0.0
 50
90.0
100
AcDbRotatedDimension
  0
DIMENSION
  5
13519
330
2
100
AcDbEntity
  8
0Wymiary-PL
100
AcDbDimension
  2
*D10
 10
217758.9590687851
 20
136562.3930568429
 30
0.0
 11
217678.9590687851
 21
136617.4410484736
 31
0.0
 70
    32
 71
     5
 42
110.0959832611843
  3
500
100
AcDbAlignedDimension
 13
218289.8281849376
 23
136672.4890401041
 33
0.0
 14
218698.50760812
 24
136562.3930568429
 34
0.0
 50
90.0
100
AcDbRotatedDimension
  0
DIMENSION
  5
13526
330
2
100
AcDbEntity
  8
0Wymiary-PL
100
AcDbDimension
  2
*D11
 10
217549.2237031725
 20
137472.4890401041
 30
0.0
 11
217469.2237031724
 21
137017.4410484736
 31
0.0
 70
    32
 71
     5
 42
910.0959832611843
  3
500
100
AcDbAlignedDimension
 13
217758.9590687851
 23
136562.3930568429
 33
0.0
 14
217758.9590687851
 24
137472.4890401041
 34
0.0
 50
90.0
100
AcDbRotatedDimension
  0
LWPOLYLINE
  5
13975
330
2
100
AcDbEntity
  8
0Hatch
 48
4.0
370
     5
100
AcDbPolyline
 90
       13
 70
     0
 43
0.0
 10
218289.8281849376
 20
137472.4890401041
 10
219209.8281849376
 20
137472.4890401041
 10
219209.8281849376
 20
137406.4890401041
 10
219839.8281849376
 20
137406.4890401041
 10
219839.8281849376
 20
136738.4890401041
 10
218984.8281849376
 20
136738.4890401041
 10
218984.8281849376
 20
136646.2387279104
 10
218900.9825138701
 20
136562.3930568429
 10
218698.50760812
 20
136562.3930568429
 10
218614.6619370526
 20
136646.2387279104
 10
218614.6619370526
 20
136672.4890401041
 10
218289.8281849376
 20
136672.4890401041
 10
218289.8281849376
 20
137472.4890401041
  0
LWPOLYLINE
  5
1397C
330
2
100
AcDbEntity
  8
0Hatch
100
AcDbPolyline
 90
        2
 70
     0
 43
60.0
 10
219140.8281849376
 20
136768.4890401041
 10
219300.1536993762
 20
136768.4890401041
  0
LWPOLYLINE
  5
1397D
330
2
100
AcDbEntity
  8
0Hatch
100
AcDbPolyline
 90
       14
 70
     0
 43
60.0
 10
219750.1536993762
 20
136768.4890401041
 10
219809.8281849376
 20
136768.4890401041
 10
219809.8281849376
 20
137376.4890401041
 10
219179.8281849376
 20
137376.4890401041
 10
219179.8281849376
 20
137442.4890401041
 10
218319.8281849376
 20
137442.4890401041
 10
218319.8281849376
 20
136702.4890401041
 10
218644.6619370526
 20
136702.4890401041
 10
218644.6619370526
 20
136658.6651347815
 10
218710.9340149912
 20
136592.3930568429
 10
218888.5561069989
 20
136592.3930568429
 10
218954.8281849376
 20
136658.6651347816
 10
218954.8281849376
 20
136768.4890401041
 10
219030.8281849376
 20
136768.4890401041
  0
HATCH
  5
1397E
330
2
100
AcDbEntity
  8
0Hatch
 48
4.0
370
     5
100
AcDbHatch
 10
0.0
 20
0.0
 30
0.0
210
0.0
220
0.0
230
1.0
  2
SOLID
 70
     1
 71
     0
 91
        1
 92
        7
 72
     1
 73
     1
 93
        2
 10
221636.4503048075
 20
136698.9890401041
 42
-1.0
 10
221596.4503048075
 20
136698.9890401041
 42
-1.0
 97
        0
 75
     0
 76
     1
 47
2.020177206247823
 98
        1
 10
221614.4180547902
 20
136700.5361508048
1001
ACAD
1010
0.0
1020
0.0
1030
0.0
  0
CIRCLE
  5
1397F
330
2
100
AcDbEntity
  8
0Hatch
 48
4.0
370
     5
100
AcDbCircle
 10
221616.4503048075
 20
136698.9890401041
 30
0.0
 40
26.99999999999997
  0
CIRCLE
  5
13980
330
2
100
AcDbEntity
  8
0Hatch
 48
4.0
370
     5
100
AcDbCircle
 10
221616.4503048075
 20
136698.9890401041
 30
4.000000000000113
 40
19.99999999999995
  0
CIRCLE
  5
13981
330
2
100
AcDbEntity
  8
0Hatch
 48
4.0
370
     5
100
AcDbCircle
 10
221616.4503048075
 20
136698.9890401041
 30
227.0000000000001
 40
26.99999999999997
  0
LINE
  5
13982
330
2
100
AcDbEntity
  8
A-MassElement-G
  6
Continuous
 62
   210
370
     5
100
AcDbLine
 10
222002.2526873566
 20
137673.9890401041
 30
0.0
 11
222640.1754299475
 21
137673.9890401041
 31
0.0
  0
LINE
  5
13983
330
2
100
AcDbEntity
  8
A-MassElement-G
  6
Continuous
 62
   210
370
     5
100
AcDbLine
 10
222849.9503048075
 20
137259.7682607177
 30
0.0
 11
222849.9503048075
 21
136885.2098194905
 31
0.0
  0
LINE
  5
13984
330
2
100
AcDbEntity
  8
A-MassElement-G
  6
Continuous
 62
   210
370
     5
100
AcDbLine
 10
222819.9503048075
 20
137247.3418538465
 30
0.0
 11
222819.9503048075
 21
136897.6362263617
 31
0.0
  0
LINE
  5
13985
330
2
100
AcDbEntity
  8
A-MassElement-G
  6
Continuous
 62
   210
370
     5
100
AcDbLine
 10
222789.9503048075
 20
137234.9154469753
 30
0.0
 11
222789.9503048075
 21
136910.0626332329
 31
0.0
  0
LINE
  5
13986
330
2
100
AcDbEntity
  8
A-MassElement-G
  6
Continuous
 62
   210
370
     5
100
AcDbLine
 10
222849.9503048075
 20
136885.2098194905
 30
0.0
 11
222697.2295254211
 21
136732.4890401041
 31
0.0
  0
LINE
  5
13987
330
2
100
AcDbEntity
  8
A-MassElement-G
  6
Continuous
 62
   210
370
     5
100
AcDbLine
 10
222819.9503048075
 20
136897.6362263617
 30
0.0
 11
222684.8031185499
 21
136762.4890401041
 31
0.0
  0
LINE
  5
13988
330
2
100
AcDbEntity
  8
A-MassElement-G
  6
Continuous
 62
   210
370
     5
100
AcDbLine
 10
222789.9503048075
 20
136910.0626332329
 30
0.0
 11
222672.3767116787
 21
136792.4890401041
 31
0.0
  0
LINE
  5
13989
330
2
100
AcDbEntity
  8
A-MassElement-G
  6
Continuous
 62
   210
370
     5
100
AcDbLine
 10
222697.2295254211
 20
136732.4890401041
 30
0.0
 11
222509.9503048075
 21
136732.4890401041
 31
0.0
  0
LINE
  5
1398A
330
2
100
AcDbEntity
  8
A-MassElement-G
  6
Continuous
 62
   210
370
     5
100
AcDbLine
 10
222684.8031185499
 20
136762.4890401041
 30
0.0
 11
222509.9503048075
 21
136762.4890401041
 31
0.0
  0
LINE
  5
1398B
330
2
100
AcDbEntity
  8
A-MassElement-G
  6
Continuous
 62
   210
370
     5
100
AcDbLine
 10
222672.3767116787
 20
136792.4890401041
 30
0.0
 11
222509.9503048075
 21
136792.4890401041
 31
0.0
  0
LINE
  5
1398C
330
2
100
AcDbEntity
  8
A-MassElement-G
  6
Continuous
 62
   210
370
     5
100
AcDbLine
 10
222697.2295254211
 20
137412.4890401041
 30
0.0
 11
222849.9503048075
 21
137259.7682607177
 31
0.0
  0
LINE
  5
1398D
330
2
100
AcDbEntity
  8
A-MassElement-G
  6
Continuous
 62
   210
370
     5
100
AcDbLine
 10
222684.8031185499
 20
137382.4890401041
 30
0.0
 11
222819.9503048075
 21
137247.3418538465
 31
0.0
  0
LINE
  5
1398E
330
2
100
AcDbEntity
  8
A-MassElement-G
  6
Continuous
 62
   210
370
     5
100
AcDbLine
 10
222672.3767116787
 20
137352.4890401041
 30
0.0
 11
222789.9503048075
 21
137234.9154469753
 31
0.0
  0
LINE
  5
1398F
330
2
100
AcDbEntity
  8
A-MassElement-G
  6
Continuous
 62
   210
370
     5
100
AcDbLine
 10
222609.9503048075
 20
137352.4890401041
 30
0.0
 11
222609.9503048075
 21
137412.4890401041
 31
0.0
  0
LINE
  5
13990
330
2
100
AcDbEntity
  8
A-MassElement-G
  6
Continuous
 62
   210
370
     5
100
AcDbLine
 10
222640.1754299475
 20
137382.4890401041
 30
0.0
 11
222684.8031185499
 21
137382.4890401041
 31
0.0
  0
LINE
  5
13991
330
2
100
AcDbEntity
  8
A-MassElement-G
  6
Continuous
 62
   210
370
     5
100
AcDbLine
 10
222509.9503048075
 20
137382.4890401041
 30
0.0
 11
222609.9503048075
 21
137382.4890401041
 31
0.0
  0
LINE
  5
13992
330
2
100
AcDbEntity
  8
A-MassElement-G
  6
Continuous
 62
   210
370
     5
100
AcDbLine
 10
222509.9503048075
 20
137352.4890401041
 30
0.0
 11
222672.3767116787
 21
137352.4890401041
 31
0.0
  0
LINE
  5
13993
330
2
100
AcDbEntity
  8
A-MassElement-G
  6
Continuous
 62
   210
370
     5
100
AcDbLine
 10
222697.2295254211
 20
137412.4890401041
 30
0.0
 11
222509.9503048075
 21
137412.4890401041
 31
0.0
  0
LINE
  5
13994
330
2
100
AcDbEntity
  8
A-MassElement-G
  6
Continuous
 62
   210
370
     5
100
AcDbLine
 10
222640.1754299475
 20
137352.4890401041
 30
0.0
 11
222640.1754299475
 21
137673.9890401041
 31
0.0
  0
LINE
  5
13995
330
2
100
AcDbEntity
  8
A-MassElement-G
  6
Continuous
 62
   210
370
     5
100
AcDbLine
 10
221589.9503048075
 20
136646.2387279104
 30
0.0
 11
221814.9503048076
 21
136646.2387279104
 31
0.0
  0
LINE
  5
13996
330
2
100
AcDbEntity
  8
A-MassElement-G
  6
Continuous
 62
   210
370
     5
100
AcDbLine
 10
221589.9503048075
 20
136616.2387279104
 30
0.0
 11
221835.0508098709
 21
136616.2387279104
 31
0.0
  0
LINE
  5
13997
330
2
100
AcDbEntity
  8
A-MassElement-G
  6
Continuous
 62
   210
370
     5
100
AcDbLine
 10
221865.0508098709
 20
136586.2387279104
 30
0.0
 11
220959.9503048075
 21
136586.2387279104
 31
0.0
  0
LINE
  5
13998
330
2
100
AcDbEntity
  8
A-MassElement-G
  6
Continuous
 62
   210
370
     5
100
AcDbLine
 10
221814.9503048076
 20
136735.4890401041
 30
0.0
 11
221814.9503048076
 21
136646.2387279104
 31
0.0
  0
LINE
  5
13999
330
2
100
AcDbEntity
  8
A-WallAbove-G
  6
DASHED
 62
     1
370
     5
390
11977
100
AcDbLine
 10
221814.9503048076
 20
136672.4890401041
 30
0.0
 11
221814.9503048076
 21
136711.4890401041
 31
0.0
  0
LINE
  5
1399A
330
2
100
AcDbEntity
  8
A-MassElement-G
  6
Continuous
 62
   210
370
     5
100
AcDbLine
 10
220959.9503048075
 20
136586.2387279104
 30
0.0
 11
220959.9503048075
 21
136738.4890401041
 31
0.0
  0
LINE
  5
1399B
330
2
100
AcDbEntity
  8
A-WallAbove-G
  6
DASHED
 62
     1
370
     5
390
11977
100
AcDbLine
 10
221589.9503048075
 20
136672.4890401041
 30
0.0
 11
221589.9503048075
 21
136738.4890401041
 31
0.0
  0
LINE
  5
1399C
330
2
100
AcDbEntity
  8
A-MassElement-G
  6
Continuous
 62
   210
370
     5
100
AcDbLine
 10
221589.9503048075
 20
136586.2387279104
 30
0.0
 11
221589.9503048075
 21
136738.4890401041
 31
0.0
  0
LINE
  5
1399D
330
2
100
AcDbEntity
  8
A-MassElement-G
  6
Continuous
 62
   210
370
     5
100
AcDbLine
 10
221589.9503048075
 20
136694.2387279104
 30
0.0
 11
220959.9503048075
 21
136694.2387279104
 31
0.0
  0
LINE
  5
1399E
330
2
100
AcDbEntity
  8
A-MassElement-G
  6
Continuous
 62
   210
370
     5
100
AcDbLine
 10
222002.2526873566
 20
137472.4890401041
 30
0.0
 11
222002.2526873566
 21
137673.9890401041
 31
0.0
  0
LINE
  5
1399F
330
2
100
AcDbEntity
  8
A-MassElement-G
  6
Continuous
 62
   210
370
     5
100
AcDbLine
 10
221589.9503048075
 20
136586.2387279104
 30
0.0
 11
221271.4503048075
 21
136694.2387279104
 31
0.0
  0
LINE
  5
139A0
330
2
100
AcDbEntity
  8
A-MassElement-G
  6
Continuous
 62
   210
370
     5
100
AcDbLine
 10
221271.4503048075
 20
136694.2387279104
 30
0.0
 11
220959.9503048075
 21
136586.2387279104
 31
0.0
  0
LWPOLYLINE
  5
139A1
330
2
100
AcDbEntity
  8
A-MassElement-G
  6
Continuous
 62
   210
370
     5
100
AcDbPolyline
 90
        4
 70
     0
 43
0.0
 10
221336.1804538609
 20
137406.4890401041
 10
221336.1804538609
 20
137506.4890401041
 10
221536.1804538609
 20
137506.4890401041
 10
221536.1804538609
 20
137406.4890401041
  0
LWPOLYLINE
  5
139A2
330
2
100
AcDbEntity
  8
A-MassElement-G
  6
Continuous
 62
   210
370
     5
100
AcDbPolyline
 90
        4
 70
     0
 43
0.0
 10
221306.1804538609
 20
137406.4890401041
 10
221306.1804538609
 20
137536.4890401041
 10
221566.1804538609
 20
137536.4890401041
 10
221566.1804538609
 20
137406.4890401041
  0
LWPOLYLINE
  5
139A3
330
2
100
AcDbEntity
  8
0Hatch
 48
4.0
370
     5
100
AcDbPolyline
 90
       12
 70
     1
 43
0.0
 10
222449.9503048075
 20
137412.4890401041
 10
222449.9503048075
 20
136732.4890401041
 10
222125.1165526926
 20
136732.4890401041
 10
222125.1165526926
 20
136671.0915416528
 10
222076.4180678827
 20
136622.3930568429
 10
221923.6487896173
 20
136622.3930568429
 10
221874.9503048075
 20
136671.0915416528
 10
221874.9503048075
 20
136798.4890401041
 10
221019.9503048075
 20
136798.4890401041
 10
221019.9503048075
 20
137346.4890401041
 10
221649.9503048075
 20
137346.4890401041
 10
221649.9503048075
 20
137412.4890401041
  0
LINE
  5
139A4
330
2
100
AcDbEntity
  8
0Hatch
 48
4.0
370
     5
100
AcDbLine
 10
221768.9503048075
 20
136738.4890401041
 30
0.0
 11
221768.9503048075
 21
136798.4890401041
 31
0.0
  0
LINE
  5
139A5
330
2
100
AcDbEntity
  8
0Hatch
 48
4.0
370
     5
100
AcDbLine
 10
221658.9503048075
 20
136738.4890401041
 30
0.0
 11
221658.9503048075
 21
136798.4890401041
 31
0.0
  0
LINE
  5
139A6
330
2
100
AcDbEntity
  8
0Hatch
 48
4.0
370
     5
100
AcDbLine
 10
221499.6247903688
 20
136738.4890401041
 30
0.0
 11
221499.6247903688
 21
136798.4890401041
 31
0.0
  0
LINE
  5
139A7
330
2
100
AcDbEntity
  8
0Hatch
 48
4.0
370
     5
100
AcDbLine
 10
221049.6247903689
 20
136738.4890401041
 30
0.0
 11
221049.6247903689
 21
136798.4890401041
 31
0.0
  0
LINE
  5
139A8
330
2
100
AcDbEntity
  8
0Hatch
 48
4.0
370
     5
100
AcDbLine
 10
222509.9503048075
 20
137252.4890401041
 30
0.0
 11
222509.9503048075
 21
136892.4890401041
 31
0.0
  0
DIMENSION
  5
139A9
330
2
100
AcDbEntity
  8
0Wymiary-PL
100
AcDbDimension
  2
*D53
 10
221589.9503048075
 20
137794.6110631763
 30
0.0
 11
222049.9503048075
 21
137874.6110631763
 31
0.0
 70
    32
 71
     5
 42
920.0
  3
500
100
AcDbAlignedDimension
 13
222509.9503048075
 23
137434.6270569191
 33
0.0
 14
221589.9503048075
 24
137439.4890401041
 34
0.0
 50
180.0
100
AcDbRotatedDimension
  0
DIMENSION
  5
139AA
330
2
100
AcDbEntity
  8
0Wymiary-PL
100
AcDbDimension
  2
*D54
 10
220959.9503048075
 20
137794.6110631763
 30
0.0
 11
221274.9503048075
 21
137874.6110631763
 31
0.0
 70
    32
 71
     5
 42
630.0
  3
500
100
AcDbAlignedDimension
 13
221589.9503048075
 23
137439.4890401041
 33
0.0
 14
220959.9503048075
 24
137406.4890401041
 34
0.0
 50
180.0
100
AcDbRotatedDimension
  0
DIMENSION
  5
139AB
330
2
100
AcDbEntity
  8
0Wymiary-PL
100
AcDbDimension
  2
*D55
 10
222509.9503048075
 20
138020.7228767407
 30
0.0
 11
221734.9503048075
 21
138100.7228767407
 31
0.0
 70
    32
 71
     5
 42
1550.0
  3
500
100
AcDbAlignedDimension
 13
220959.9503048075
 23
137406.4890401041
 33
0.0
 14
222509.9503048075
 24
137472.4890401041
 34
0.0
 50
180.0
100
AcDbRotatedDimension
  0
DIMENSION
  5
139AC
330
2
100
AcDbEntity
  8
0Wymiary-PL
100
AcDbDimension
  2
*D56
 10
223040.81942096
 20
136672.4890401041
 30
0.0
 11
222960.8194209599
 21
137072.4890401042
 31
0.0
 70
    32
 71
     5
 42
800.0
  3
500
100
AcDbAlignedDimension
 13
222509.9503048075
 23
137472.4890401041
 33
0.0
 14
222509.9503048075
 24
136672.4890401041
 34
0.0
 50
90.0
100
AcDbRotatedDimension
  0
DIMENSION
  5
139AD
330
2
100
AcDbEntity
  8
0Wymiary-PL
100
AcDbDimension
  2
*D57
 10
223040.81942096
 20
136562.3930568429
 30
0.0
 11
222960.8194209599
 21
136617.4410484736
 31
0.0
 70
    32
 71
     5
 42
110.0959832611843
  3
500
100
AcDbAlignedDimension
 13
222509.9503048075
 23
136672.4890401041
 33
0.0
 14
222101.2708816251
 24
136562.3930568429
 34
0.0
 50
90.0
100
AcDbRotatedDimension
  0
DIMENSION
  5
139AE
330
2
100
AcDbEntity
  8
0Wymiary-PL
100
AcDbDimension
  2
*D58
 10
223250.5547865726
 20
137472.4890401041
 30
0.0
 11
223170.5547865726
 21
137017.4410484736
 31
0.0
 70
    32
 71
     5
 42
910.0959832611843
  3
500
100
AcDbAlignedDimension
 13
223040.81942096
 23
136562.3930568429
 33
0.0
 14
223040.81942096
 24
137472.4890401041
 34
0.0
 50
90.0
100
AcDbRotatedDimension
  0
LWPOLYLINE
  5
139AF
330
2
100
AcDbEntity
  8
0Hatch
 48
4.0
370
     5
100
AcDbPolyline
 90
       13
 70
     0
 43
0.0
 10
222509.9503048075
 20
137472.4890401041
 10
221589.9503048075
 20
137472.4890401041
 10
221589.9503048075
 20
137406.4890401041
 10
220959.9503048075
 20
137406.4890401041
 10
220959.9503048075
 20
136738.4890401041
 10
221814.9503048075
 20
136738.4890401041
 10
221814.9503048075
 20
136646.2387279104
 10
221898.795975875
 20
136562.3930568429
 10
222101.2708816251
 20
136562.3930568429
 10
222185.1165526925
 20
136646.2387279104
 10
222185.1165526925
 20
136672.4890401041
 10
222509.9503048075
 20
136672.4890401041
 10
222509.9503048075
 20
137472.4890401041
  0
LWPOLYLINE
  5
139B0
330
2
100
AcDbEntity
  8
0Hatch
100
AcDbPolyline
 90
        2
 70
     0
 43
60.0
 10
221658.9503048075
 20
136768.4890401041
 10
221499.6247903688
 20
136768.4890401041
  0
LWPOLYLINE
  5
139B1
330
2
100
AcDbEntity
  8
0Hatch
100
AcDbPolyline
 90
       14
 70
     0
 43
60.0
 10
221049.6247903689
 20
136768.4890401041
 10
220989.9503048075
 20
136768.4890401041
 10
220989.9503048075
 20
137376.4890401041
 10
221619.9503048075
 20
137376.4890401041
 10
221619.9503048075
 20
137442.4890401041
 10
222479.9503048075
 20
137442.4890401041
 10
222479.9503048075
 20
136702.4890401041
 10
222155.1165526925
 20
136702.4890401041
 10
222155.1165526925
 20
136658.6651347815
 10
222088.8444747539
 20
136592.3930568429
 10
221911.2223827461
 20
136592.3930568429
 10
221844.9503048075
 20
136658.6651347816
 10
221844.9503048075
 20
136768.4890401041
 10
221768.9503048075
 20
136768.4890401041
  0
ENDSEC
  0
SECTION
  2
OBJECTS
  0
DICTIONARY
  5
7
330
0
100
AcDbDictionary
281
     1
  3
ACAD_COLOR
350
31
  3
ACAD_GROUP
350
2D
  3
ACAD_LAYOUT
350
B
  3
ACAD_MATERIAL
350
30
  3
ACAD_MLEADERSTYLE
350
135F4
  3
ACAD_MLINESTYLE
350
2E
  3
ACAD_PLOTSETTINGS
350
2F
  3
ACAD_PLOTSTYLENAME
350
6
  3
ACAD_SCALELIST
350
135E4
  3
ACAD_TABLESTYLE
350
DF2
  3
ACAD_VISUALSTYLE
350
172D
  3
AcAec
350
8309
  3
ACDB_RECOMPOSE_DATA
350
1362C
  3
AcDbVariableDictionary
350
E04
  3
AEC_2D_SECTION_STYLES
350
6852
  3
AEC_CLASSIFICATION_SYSTEM_DEFS
350
3C3
  3
AEC_CLEANUP_GROUP_DEFS
350
6863
  3
AEC_CURTAIN_WALL_LAYOUT_STYLES
350
6864
  3
AEC_CURTAIN_WALL_UNIT_STYLES
350
6865
  3
AEC_DIM_STYLES
350
6871
  3
AEC_DISP_REP_CONFIGURATIONS
350
69A3
  3
AEC_DISP_REP_SETS
350
6999
  3
AEC_DISP_REPS
350
6873
  3
AEC_DISPLAY_PROPS_DEFAULTS
350
6875
  3
AEC_DISPLAYTHEME_STYLES
350
6870
  3
AEC_DOOR_STYLES
350
685B
  3
AEC_ENDCAP_STYLES
350
685C
  3
AEC_LAYERKEY_STYLES
350
685A
  3
AEC_LIST_DEFINITIONS
350
6855
  3
AEC_MASKBLOCK_DEFS
350
684E
  3
AEC_MASS_ELEM_STYLES
350
6854
  3
AEC_MATERIAL_DEFS
350
6853
  3
AEC_MVBLOCK_DEFS
350
684F
  3
AEC_OPENING_ENDCAP_STYLES
350
686C
  3
AEC_POLYGON_STYLES
350
6851
  3
AEC_PROFILE_DEFS
350
6850
  3
AEC_PROPERTY_FORMAT_DEFS
350
6856
  3
AEC_PROPERTY_SET_DEFS
350
3C4
  3
AEC_RAILING_STYLES
350
6867
  3
AEC_ROOFSLAB_STYLES
350
6868
  3
AEC_ROOFSLABEDGE_STYLES
350
6869
  3
AEC_SCHEDULE_TABLE_STYLES
350
6857
  3
AEC_SLAB_STYLES
350
686A
  3
AEC_SLABEDGE_STYLES
350
686B
  3
AEC_SPACE_MODIFIERS
350
686D
  3
AEC_SPACE_STYLES
350
685D
  3
AEC_STAIR_STYLES
350
685E
  3
AEC_STAIR_WINDER_STYLES
350
685F
  3
AEC_STRUCTURALMEMBER_STYLES
350
6858
  3
AEC_VARS
350
687A
  3
AEC_WALL_STYLES
350
6861
  3
AEC_WALLMOD_STYLES
350
6860
  3
AEC_WINDOW_ASSEMBLY_STYLES
350
6866
  3
AEC_WINDOW_STYLES
350
6862
  3
AEC_ZONE_DEFS
350
686F
  3
AEC_ZONE_STYLES
350
686E
  3
AECS_MEMBER_NODE_SHAPE
350
6859
  3
ASE_INDEX_DICTIONARY
350
1361F
  3
BNS_VARIABLES
350
41C3
  3
DWGPROPS
350
13A2A
  0
DICTIONARY
  5
12
330
11
100
AcDbDictionary
280
     1
281
     1
  3
ACAD_LAYERFILTERS
360
8311
  3
ACAD_LAYERSTATES
360
13
  3
ACLYDICTIONARY
360
8310
  0
DICTIONARY
  5
13602
330
4
100
AcDbDictionary
280
     1
281
     1
  3
ADSK_XREC_LAYER_RECONCILED
360
13603
  0
DICTIONARY
  5
13604
330
15E
100
AcDbDictionary
280
     1
281
     1
  3
ADSK_XREC_LAYER_RECONCILED
360
13605
  0
DICTIONARY
  5
13608
330
143
100
AcDbDictionary
280
     1
281
     1
  3
ADSK_XREC_LAYER_RECONCILED
360
13609
  0
DICTIONARY
  5
1360C
330
202C
100
AcDbDictionary
280
     1
281
     1
  3
ADSK_XREC_LAYER_RECONCILED
360
1360D
  0
DICTIONARY
  5
1360E
330
2081
100
AcDbDictionary
280
     1
281
     1
  3
ADSK_XREC_LAYER_RECONCILED
360
1360F
  0
DICTIONARY
  5
13432
330
13431
100
AcDbDictionary
280
     1
281
     1
  3
ADSK_XREC_LAYER_RECONCILED
360
13433
  0
DICTIONARY
  5
13435
330
13434
100
AcDbDictionary
280
     1
281
     1
  3
ADSK_XREC_LAYER_RECONCILED
360
13618
  0
DICTIONARY
  5
1FEF
330
2
100
AcDbDictionary
280
     1
281
     1
  3
ACAD_SORTENTS
360
1FF0
  0
DICTIONARY
  5
24
330
23
100
AcDbDictionary
280
     1
281
     1
  3
ACAD_SORTENTS
360
117C
  0
DICTIONARY
  5
31
102
{ACAD_REACTORS
330
7
102
}
330
7
100
AcDbDictionary
281
     1
  0
DICTIONARY
  5
2D
102
{ACAD_REACTORS
330
7
102
}
330
7
100
AcDbDictionary
281
     1
  0
DICTIONARY
  5
B
102
{ACAD_REACTORS
330
7
102
}
330
7
100
AcDbDictionary
281
     1
  3
Layout1
350
10
  3
Model
350
A
  0
DICTIONARY
  5
30
102
{ACAD_REACTORS
330
7
102
}
330
7
100
AcDbDictionary
281
     1
  3
ByBlock
350
172B
  3
ByLayer
350
172A
  3
Global
350
172C
  0
DICTIONARY
  5
135F4
102
{ACAD_REACTORS
330
7
102
}
330
7
100
AcDbDictionary
281
     1
  3
Standard
350
135F5
  0
DICTIONARY
  5
2E
102
{ACAD_REACTORS
330
7
102
}
330
7
100
AcDbDictionary
281
     1
  3
Standard
350
33
  0
DICTIONARY
  5
2F
102
{ACAD_REACTORS
330
7
102
}
330
7
100
AcDbDictionary
281
     1
  0
ACDBDICTIONARYWDFLT
  5
6
102
{ACAD_REACTORS
330
7
102
}
330
7
100
AcDbDictionary
281
     1
  3
Medium
350
11977
  3
Normal
350
5
  3
Style 1
350
11978
100
AcDbDictionaryWithDefault
340
5
  0
DICTIONARY
  5
135E4
102
{ACAD_REACTORS
330
7
102
}
330
7
100
AcDbDictionary
281
     1
  3
*A1
350
136E2
  3
*A10
350
136EB
  3
*A11
350
136EC
  3
*A12
350
136ED
  3
*A13
350
136EE
  3
*A14
350
136EF
  3
*A15
350
136F0
  3
*A16
350
136F1
  3
*A17
350
136F2
  3
*A18
350
136F3
  3
*A19
350
136F4
  3
*A2
350
136E3
  3
*A20
350
136F5
  3
*A21
350
136F6
  3
*A22
350
136F7
  3
*A23
350
136F8
  3
*A24
350
136F9
  3
*A25
350
136FA
  3
*A26
350
136FB
  3
*A27
350
136FC
  3
*A28
350
136FD
  3
*A29
350
136FE
  3
*A3
350
136E4
  3
*A30
350
136FF
  3
*A31
350
13700
  3
*A32
350
13701
  3
*A33
350
13702
  3
*A34
350
13951
  3
*A35
350
13952
  3
*A36
350
13953
  3
*A37
350
13954
  3
*A38
350
13955
  3
*A39
350
13956
  3
*A4
350
136E5
  3
*A40
350
13957
  3
*A41
350
13958
  3
*A42
350
13959
  3
*A43
350
1395A
  3
*A44
350
1395B
  3
*A45
350
1395C
  3
*A46
350
1395D
  3
*A47
350
1395E
  3
*A48
350
1395F
  3
*A49
350
13960
  3
*A5
350
136E6
  3
*A50
350
13961
  3
*A51
350
13962
  3
*A52
350
13963
  3
*A53
350
13964
  3
*A54
350
13965
  3
*A55
350
13966
  3
*A56
350
13967
  3
*A57
350
13968
  3
*A58
350
13969
  3
*A59
350
1396A
  3
*A6
350
136E7
  3
*A60
350
1396B
  3
*A61
350
1396C
  3
*A62
350
1396D
  3
*A7
350
136E8
  3
*A8
350
136E9
  3
*A9
350
136EA
  3
A0
350
135E5
  3
A1
350
135E6
  3
A2
350
135E7
  3
A3
350
135E8
  3
A4
350
135E9
  3
A5
350
135EA
  3
A6
350
135EB
  3
A7
350
135EC
  3
A8
350
135ED
  3
A9
350
135EE
  3
B0
350
135EF
  3
B1
350
135F0
  3
B2
350
135F1
  3
B3
350
135F2
  3
B4
350
135F3
  0
DICTIONARY
  5
DF2
102
{ACAD_REACTORS
330
7
102
}
330
7
100
AcDbDictionary
281
     1
  3
Standard
350
DF3
  0
DICTIONARY
  5
172D
102
{ACAD_REACTORS
330
7
102
}
330
7
100
AcDbDictionary
281
     1
  3
2dWireframe
350
1733
  3
3D Hidden
350
133DE
  3
3dWireframe
350
133DD
  3
Basic
350
1732
  3
Brighten
350
1739
  3
ColorChange
350
173D
  3
Conceptual
350
133DF
  3
Dim
350
1738
  3
Facepattern
350
173C
  3
Flat
350
172E
  3
FlatWithEdges
350
172F
  3
Gouraud
350
1730
  3
GouraudWithEdges
350
1731
  3
Linepattern
350
173B
  3
Phong
350
13412
  3
PhongWithEdges
350
13413
  3
Realistic
350
133E0
  3
Thicken
350
173A
  0
DICTIONARY
  5
8309
102
{ACAD_REACTORS
330
7
102
}
330
7
100
AcDbDictionary
281
     1
  3
AcAecLayerManager
350
830A
  0
XRECORD
  5
1362C
102
{ACAD_REACTORS
330
7
102
}
330
7
100
AcDbXrecord
280
     1
 90
        1
330
DF3
  0
DICTIONARY
  5
E04
102
{ACAD_REACTORS
330
7
102
}
330
7
100
AcDbDictionary
281
     1
  3
CANNOSCALE
350
1362F
  3
CMLEADERSTYLE
350
1362D
  3
CTABLESTYLE
350
E05
  3
DIMASSOC
350
13A28
  3
HIDETEXT
350
13A27
  3
INDEXCTL
350
13A26
  3
LAYEREVAL
350
13631
  3
LAYERNOTIFY
350
13632
  3
LIGHTINGUNITS
350
13630
  3
MSLTSCALE
350
1362E
  3
SORTENTS
350
13A25
  0
DICTIONARY
  5
6852
102
{ACAD_REACTORS
330
7
102
}
330
7
100
AcDbDictionary
281
     1
  0
DICTIONARY
  5
3C3
102
{ACAD_REACTORS
330
7
102
}
330
7
100
AcDbDictionary
281
     1
  0
DICTIONARY
  5
6863
102
{ACAD_REACTORS
330
7
102
}
330
7
100
AcDbDictionary
281
     1
  0
DICTIONARY
  5
6864
102
{ACAD_REACTORS
330
7
102
}
330
7
100
AcDbDictionary
281
     1
  0
DICTIONARY
  5
6865
102
{ACAD_REACTORS
330
7
102
}
330
7
100
AcDbDictionary
281
     1
  0
DICTIONARY
  5
6871
102
{ACAD_REACTORS
330
7
102
}
330
7
100
AcDbDictionary
281
     1
  0
DICTIONARY
  5
69A3
102
{ACAD_REACTORS
330
7
102
}
330
7
100
AcDbDictionary
281
     1
  3
Medium Detail
350
82FE
  3
Standard
350
69A4
  0
DICTIONARY
  5
6999
102
{ACAD_REACTORS
330
7
102
}
330
7
100
AcDbDictionary
281
     1
  3
Elevation
350
699D
  3
Model
350
699A
  3
Model High Detail
350
69A1
  3
Model Low Detail
350
69A0
  3
Plan
350
699B
  3
Plan Diagnostic
350
69A2
  3
Plan High Detail
350
699F
  3
Plan Low Detail
350
699E
  3
Reflected
350
699C
  0
DICTIONARY
  5
6873
102
{ACAD_REACTORS
330
7
102
}
330
7
100
AcDbDictionary
281
     1
  3
AecDbDispRep2dSection
350
68D5
  3
AecDbDispRepAnchor
350
68D7
  3
AecDbDispRepAnchorBubToGrid
350
697D
  3
AecDbDispRepAnchorBubToGridMdl
350
697F
  3
AecDbDispRepAnchorBubToGridRcp
350
6981
  3
AecDbDispRepAnchorEntToNode
350
68D8
  3
AecDbDispRepAnchorExtendedTagToEnt
350
6903
  3
AecDbDispRepAnchorTagToEnt
350
6901
  3
AecDbDispRepBdgElevLineModel
350
6907
  3
AecDbDispRepBdgElevLinePlan
350
6909
  3
AecDbDispRepBdgElevLinePlan100
350
6874
  3
AecDbDispRepBdgElevLinePlan50
350
6892
  3
AecDbDispRepBdgElevLineRcp
350
690B
  3
AecDbDispRepBdgSectionLineModel
350
690D
  3
AecDbDispRepBdgSectionLinePlan
350
690F
  3
AecDbDispRepBdgSectionLinePlan100
350
6877
  3
AecDbDispRepBdgSectionLinePlan50
350
6894
  3
AecDbDispRepBdgSectionLineRcp
350
6911
  3
AecDbDispRepBdgSectionModel
350
6913
  3
AecDbDispRepBdgSectionSubDiv
350
6914
  3
AecDbDispRepCeilingGrid
350
6916
  3
AecDbDispRepCeilingGridModel
350
6918
  3
AecDbDispRepCeilingGridPlan100
350
6879
  3
AecDbDispRepCeilingGridPlan50
350
6896
  3
AecDbDispRepCeilingGridRcp
350
691A
  3
AecDbDispRepClipVolModel
350
68DA
  3
AecDbDispRepClipVolPlan
350
68DC
  3
AecDbDispRepClipVolResSubDiv
350
68DF
  3
AecDbDispRepClipVolResult
350
68DE
  3
AecDbDispRepColumnGrid
350
6983
  3
AecDbDispRepColumnGridModel
350
6985
  3
AecDbDispRepColumnGridPlan100
350
687D
  3
AecDbDispRepColumnGridPlan50
350
6898
  3
AecDbDispRepColumnGridRcp
350
6987
  3
AecDbDispRepCurtainWallLayoutModel
350
691C
  3
AecDbDispRepCurtainWallLayoutPlan
350
691E
  3
AecDbDispRepCurtainWallLayoutPlan100
350
687F
  3
AecDbDispRepCurtainWallLayoutPlan50
350
689A
  3
AecDbDispRepCurtainWallUnitModel
350
6920
  3
AecDbDispRepCurtainWallUnitPlan
350
6922
  3
AecDbDispRepCurtainWallUnitPlan100
350
6881
  3
AecDbDispRepCurtainWallUnitPlan50
350
689C
  3
AecDbDispRepDimGroupPlan
350
68B1
  3
AecDbDispRepDimGroupPlan100
350
68AD
  3
AecDbDispRepDimGroupPlan50
350
68AF
  3
AecDbDispRepDisplayTheme
350
68E1
  3
AecDbDispRepDoorElev
350
6926
  3
AecDbDispRepDoorModel
350
6924
  3
AecDbDispRepDoorNominal
350
692A
  3
AecDbDispRepDoorPlan
350
6928
  3
AecDbDispRepDoorPlan50
350
68B3
  3
AecDbDispRepDoorPlanHekto
350
68B5
  3
AecDbDispRepDoorRcp
350
692C
  3
AecDbDispRepDoorThresholdPlan
350
692E
  3
AecDbDispRepDoorThresholdSymbolPlan
350
68B7
  3
AecDbDispRepEditInPlaceProfile
350
68E3
  3
AecDbDispRepEntRef
350
68E5
  3
AecDbDispRepLayoutCurve
350
68E7
  3
AecDbDispRepLayoutGrid2d
350
68E9
  3
AecDbDispRepLayoutGrid3d
350
68EB
  3
AecDbDispRepMaskBlockRef
350
68ED
  3
AecDbDispRepMaskBlockRefRcp
350
6930
  3
AecDbDispRepMassElemModel
350
68F9
  3
AecDbDispRepMassElemPlan100
350
68B9
  3
AecDbDispRepMassElemPlan50
350
68BB
  3
AecDbDispRepMassElemRcp
350
6932
  3
AecDbDispRepMassElemSchem
350
68FB
  3
AecDbDispRepMassGroupModel
350
68FD
  3
AecDbDispRepMassGroupPlan
350
68FF
  3
AecDbDispRepMassGroupPlan100
350
68BD
  3
AecDbDispRepMassGroupPlan50
350
68BF
  3
AecDbDispRepMassGroupRcp
350
6934
  3
AecDbDispRepMaterial
350
68EF
  3
AecDbDispRepMvBlockRef
350
68F1
  3
AecDbDispRepMvBlockRef$Plan
350
8301
  3
AecDbDispRepMvBlockRefModel
350
68F2
  3
AecDbDispRepMvBlockRefPlan100
350
6883
  3
AecDbDispRepMvBlockRefPlan50
350
689E
  3
AecDbDispRepMvBlockRefRcp
350
6936
  3
AecDbDispRepOpening
350
6937
  3
AecDbDispRepOpeningModel
350
6939
  3
AecDbDispRepOpeningPlan100
350
68C1
  3
AecDbDispRepOpeningPlan50
350
68C3
  3
AecDbDispRepOpeningPlanReflected
350
68C5
  3
AecDbDispRepOpeningSillPlan
350
68C7
  3
AecDbDispRepPolygonModel
350
68F3
  3
AecDbDispRepPolygonTrueColour
350
68F5
  3
AecDbDispRepRailingModel
350
693B
  3
AecDbDispRepRailingPlan
350
693D
  3
AecDbDispRepRailingPlan100
350
68C9
  3
AecDbDispRepRailingPlan50
350
68CB
  3
AecDbDispRepRoofModel
350
693F
  3
AecDbDispRepRoofPlan
350
6941
  3
AecDbDispRepRoofPlan100
350
6884
  3
AecDbDispRepRoofPlan50
350
689F
  3
AecDbDispRepRoofRcp
350
6943
  3
AecDbDispRepRoofSlabModel
350
6947
  3
AecDbDispRepRoofSlabPlan
350
694B
  3
AecDbDispRepRoofSlabPlan100
350
6886
  3
AecDbDispRepRoofSlabPlan50
350
68A1
  3
AecDbDispRepScheduleTable
350
6905
  3
AecDbDispRepSlabModel
350
6945
  3
AecDbDispRepSlabPlan
350
6949
  3
AecDbDispRepSlabPlan100
350
6888
  3
AecDbDispRepSlabPlan50
350
68A3
  3
AecDbDispRepSlice
350
68F7
  3
AecDbDispRepSpaceDecomposed
350
694D
  3
AecDbDispRepSpaceModel
350
694F
  3
AecDbDispRepSpacePlan
350
6951
  3
AecDbDispRepSpacePlan100
350
688A
  3
AecDbDispRepSpacePlan50
350
68A5
  3
AecDbDispRepSpaceRcp
350
6953
  3
AecDbDispRepSpaceVolume
350
6955
  3
AecDbDispRepStairModel
350
6957
  3
AecDbDispRepStairPlan
350
6959
  3
AecDbDispRepStairPlan100
350
68CD
  3
AecDbDispRepStairPlan50
350
68CF
  3
AecDbDispRepStairPlanOverlapping
350
695B
  3
AecDbDispRepStairRcp
350
695D
  3
AecDbDispRepWallGraph
350
695F
  3
AecDbDispRepWallModel
350
6961
  3
AecDbDispRepWallPlan
350
6963
  3
AecDbDispRepWallPlan100
350
688C
  3
AecDbDispRepWallPlan50
350
68A7
  3
AecDbDispRepWallRcp
350
6965
  3
AecDbDispRepWallSchem
350
6967
  3
AecDbDispRepWindowAssemblyModel
350
6969
  3
AecDbDispRepWindowAssemblyPlan
350
696B
  3
AecDbDispRepWindowAssemblyPlan100
350
688E
  3
AecDbDispRepWindowAssemblyPlan50
350
68A9
  3
AecDbDispRepWindowAssemblySillPlan
350
696D
  3
AecDbDispRepWindowElev
350
6971
  3
AecDbDispRepWindowModel
350
696F
  3
AecDbDispRepWindowNominal
350
6975
  3
AecDbDispRepWindowPlan
350
6973
  3
AecDbDispRepWindowPlan100
350
68D1
  3
AecDbDispRepWindowPlan50
350
68D3
  3
AecDbDispRepWindowRcp
350
6977
  3
AecDbDispRepWindowSillPlan
350
6979
  3
AecDbDispRepZone
350
697B
  3
AecDbDispRepZonePlan100
350
6890
  3
AecDbDispRepZonePlan50
350
68AB
  3
AecsDbDispRepMemberElevationDesign
350
6989
  3
AecsDbDispRepMemberElevationDetail
350
698B
  3
AecsDbDispRepMemberLogical
350
698D
  3
AecsDbDispRepMemberModelDesign
350
698F
  3
AecsDbDispRepMemberModelDetail
350
6991
  3
AecsDbDispRepMemberPlanDesign
350
6993
  3
AecsDbDispRepMemberPlanDetail
350
6995
  3
AecsDbDispRepMemberPlanSketch
350
6997
  0
DICTIONARY
  5
6875
102
{ACAD_REACTORS
330
7
102
}
330
7
100
AcDbDictionary
281
     1
  3
*A1
350
6876
  3
*A10
350
68B0
  3
*A100
350
68F8
  3
*A101
350
6935
  3
*A102
350
68CE
  3
*A103
350
6960
  3
*A104
350
6915
  3
*A105
350
68DD
  3
*A106
350
694C
  3
*A107
350
6974
  3
*A108
350
687C
  3
*A109
350
68A0
  3
*A11
350
68FE
  3
*A110
350
68B6
  3
*A111
350
688F
  3
*A112
350
68AA
  3
*A113
350
6925
  3
*A114
350
6962
  3
*A115
350
6964
  3
*A116
350
6917
  3
*A117
350
6906
  3
*A118
350
691B
  3
*A119
350
6895
  3
*A12
350
68E8
  3
*A120
350
6980
  3
*A121
350
691F
  3
*A122
350
688B
  3
*A123
350
68EC
  3
*A124
350
6984
  3
*A125
350
690C
  3
*A126
350
6976
  3
*A127
350
6994
  3
*A128
350
68AC
  3
*A129
350
68D9
  3
*A13
350
694E
  3
*A130
350
6950
  3
*A131
350
6942
  3
*A132
350
6986
  3
*A133
350
6988
  3
*A134
350
692B
  3
*A135
350
693A
  3
*A136
350
68BE
  3
*A137
350
693E
  3
*A138
350
68B8
  3
*A139
350
6919
  3
*A14
350
6902
  3
*A140
350
692F
  3
*A141
350
6893
  3
*A15
350
68A8
  3
*A16
350
68F4
  3
*A17
350
6978
  3
*A18
350
689B
  3
*A19
350
689D
  3
*A2
350
68FA
  3
*A20
350
6968
  3
*A21
350
6956
  3
*A22
350
696C
  3
*A23
350
68DB
  3
*A24
350
6938
  3
*A25
350
68BC
  3
*A26
350
6972
  3
*A27
350
6878
  3
*A28
350
693C
  3
*A29
350
68C2
  3
*A3
350
6948
  3
*A30
350
695E
  3
*A31
350
68B2
  3
*A32
350
68D2
  3
*A33
350
68F6
  3
*A34
350
6927
  3
*A35
350
6885
  3
*A36
350
6887
  3
*A37
350
6996
  3
*A38
350
68C4
  3
*A39
350
68C6
  3
*A4
350
698A
  3
*A40
350
697E
  3
*A41
350
698E
  3
*A42
350
690A
  3
*A43
350
6992
  3
*A44
350
6904
  3
*A45
350
696A
  3
*A46
350
6952
  3
*A47
350
6982
  3
*A48
350
68D4
  3
*A49
350
68F0
  3
*A5
350
691D
  3
*A50
350
6944
  3
*A51
350
68B4
  3
*A52
350
68E2
  3
*A53
350
68E4
  3
*A54
350
694A
  3
*A55
350
68A2
  3
*A56
350
688D
  3
*A57
350
68A6
  3
*A58
350
6929
  3
*A59
350
698C
  3
*A6
350
6899
  3
*A60
350
6908
  3
*A61
350
68AE
  3
*A62
350
68E6
  3
*A63
350
6990
  3
*A64
350
690E
  3
*A65
350
687E
  3
*A66
350
6897
  3
*A67
350
68FC
  3
*A68
350
6921
  3
*A69
350
6946
  3
*A7
350
6966
  3
*A70
350
697A
  3
*A71
350
6958
  3
*A72
350
696E
  3
*A73
350
68D6
  3
*A74
350
6910
  3
*A75
350
6912
  3
*A76
350
68C8
  3
*A77
350
68BA
  3
*A78
350
68CC
  3
*A79
350
695C
  3
*A8
350
692D
  3
*A80
350
68D0
  3
*A81
350
6954
  3
*A82
350
68A4
  3
*A83
350
6889
  3
*A84
350
68C0
  3
*A85
350
6923
  3
*A86
350
6940
  3
*A87
350
6970
  3
*A88
350
6998
  3
*A89
350
6900
  3
*A9
350
6882
  3
*A90
350
6931
  3
*A91
350
6933
  3
*A92
350
6880
  3
*A93
350
68EA
  3
*A94
350
6891
  3
*A95
350
68EE
  3
*A96
350
697C
  3
*A97
350
68CA
  3
*A98
350
68E0
  3
*A99
350
695A
  0
DICTIONARY
  5
6870
102
{ACAD_REACTORS
330
7
102
}
330
7
100
AcDbDictionary
281
     1
  0
DICTIONARY
  5
685B
102
{ACAD_REACTORS
330
7
102
}
330
7
100
AcDbDictionary
281
     1
  0
DICTIONARY
  5
685C
102
{ACAD_REACTORS
330
7
102
}
330
7
100
AcDbDictionary
281
     1
  0
DICTIONARY
  5
685A
102
{ACAD_REACTORS
330
7
102
}
330
7
100
AcDbDictionary
281
     1
  3
AIA (256 Color)
350
8304
  0
DICTIONARY
  5
6855
102
{ACAD_REACTORS
330
7
102
}
330
7
100
AcDbDictionary
281
     1
  0
DICTIONARY
  5
684E
102
{ACAD_REACTORS
330
7
102
}
330
7
100
AcDbDictionary
281
     1
  0
DICTIONARY
  5
6854
102
{ACAD_REACTORS
330
7
102
}
330
7
100
AcDbDictionary
281
     1
  0
DICTIONARY
  5
6853
102
{ACAD_REACTORS
330
7
102
}
330
7
100
AcDbDictionary
281
     1
  0
DICTIONARY
  5
684F
102
{ACAD_REACTORS
330
7
102
}
330
7
100
AcDbDictionary
281
     1
  0
DICTIONARY
  5
686C
102
{ACAD_REACTORS
330
7
102
}
330
7
100
AcDbDictionary
281
     1
  0
DICTIONARY
  5
6851
102
{ACAD_REACTORS
330
7
102
}
330
7
100
AcDbDictionary
281
     1
  0
DICTIONARY
  5
6850
102
{ACAD_REACTORS
330
7
102
}
330
7
100
AcDbDictionary
281
     1
  0
DICTIONARY
  5
6856
102
{ACAD_REACTORS
330
7
102
}
330
7
100
AcDbDictionary
281
     1
  0
DICTIONARY
  5
3C4
102
{ACAD_REACTORS
330
7
102
}
330
7
100
AcDbDictionary
281
     1
  0
DICTIONARY
  5
6867
102
{ACAD_REACTORS
330
7
102
}
330
7
100
AcDbDictionary
281
     1
  0
DICTIONARY
  5
6868
102
{ACAD_REACTORS
330
7
102
}
330
7
100
AcDbDictionary
281
     1
  0
DICTIONARY
  5
6869
102
{ACAD_REACTORS
330
7
102
}
330
7
100
AcDbDictionary
281
     1
  0
DICTIONARY
  5
6857
102
{ACAD_REACTORS
330
7
102
}
330
7
100
AcDbDictionary
281
     1
  0
DICTIONARY
  5
686A
102
{ACAD_REACTORS
330
7
102
}
330
7
100
AcDbDictionary
281
     1
  0
DICTIONARY
  5
686B
102
{ACAD_REACTORS
330
7
102
}
330
7
100
AcDbDictionary
281
     1
  0
DICTIONARY
  5
686D
102
{ACAD_REACTORS
330
7
102
}
330
7
100
AcDbDictionary
281
     1
  0
DICTIONARY
  5
685D
102
{ACAD_REACTORS
330
7
102
}
330
7
100
AcDbDictionary
281
     1
  0
DICTIONARY
  5
685E
102
{ACAD_REACTORS
330
7
102
}
330
7
100
AcDbDictionary
281
     1
  0
DICTIONARY
  5
685F
102
{ACAD_REACTORS
330
7
102
}
330
7
100
AcDbDictionary
281
     1
  0
DICTIONARY
  5
6858
102
{ACAD_REACTORS
330
7
102
}
330
7
100
AcDbDictionary
281
     1
  0
DICTIONARY
  5
687A
102
{ACAD_REACTORS
330
7
102
}
330
7
100
AcDbDictionary
281
     1
  3
AEC_VARS_ARCHBASE
350
8307
  3
AEC_VARS_DWG_SETUP
350
687B
  3
AECMX_VARS_MUNICH
350
8308
  0
DICTIONARY
  5
6861
102
{ACAD_REACTORS
330
7
102
}
330
7
100
AcDbDictionary
281
     1
  0
DICTIONARY
  5
6860
102
{ACAD_REACTORS
330
7
102
}
330
7
100
AcDbDictionary
281
     1
  0
DICTIONARY
  5
6866
102
{ACAD_REACTORS
330
7
102
}
330
7
100
AcDbDictionary
281
     1
  0
DICTIONARY
  5
6862
102
{ACAD_REACTORS
330
7
102
}
330
7
100
AcDbDictionary
281
     1
  0
DICTIONARY
  5
686F
102
{ACAD_REACTORS
330
7
102
}
330
7
100
AcDbDictionary
281
     1
  0
DICTIONARY
  5
686E
102
{ACAD_REACTORS
330
7
102
}
330
7
100
AcDbDictionary
281
     1
  0
DICTIONARY
  5
6859
102
{ACAD_REACTORS
330
7
102
}
330
7
100
AcDbDictionary
281
     1
  0
DICTIONARY
  5
1361F
102
{ACAD_REACTORS
330
7
102
}
330
7
100
AcDbDictionary
281
     1
  3
ASEBlockHierarchyIndexRecord
350
13620
1001
DCO15
1040
1644566157.187
  0
DICTIONARY
  5
41C3
102
{ACAD_REACTORS
330
7
102
}
330
7
100
AcDbDictionary
281
     1
  3
ACET-OVERKILL-FUZZ
350
131D9
  3
ACET-OVERKILL-NO-ENDTOEND
350
131DC
  3
ACET-OVERKILL-NO-PARTIAL
350
131DB
  3
ACET-OVERKILL-NO-PLINES
350
131DA
  0
XRECORD
  5
13A2A
102
{ACAD_REACTORS
330
7
102
}
330
7
100
AcDbXrecord
280
     1
  1
DWGPROPS COOKIE
  2

  3

  4

  6

  7

  8
beata.rzonca
  9

300
=
301
=
302
=
303
=
304
=
305
=
306
=
307
=
308
=
309
=
 40
8.884419444444445
 41
2452027.670547454
 42
2454959.383534063
  1

 90
        0
  0
DICTIONARY
  5
8311
102
{ACAD_REACTORS
330
12
102
}
330
12
100
AcDbDictionary
281
     1
  0
DICTIONARY
  5
13
102
{ACAD_REACTORS
330
12
102
}
330
12
100
AcDbDictionary
281
     1
  0
DICTIONARY
  5
8310
102
{ACAD_REACTORS
330
12
102
}
330
12
100
AcDbDictionary
281
     1
1001
ACAD
1000
<All
  0
XRECORD
  5
13603
102
{ACAD_REACTORS
330
13602
102
}
330
13602
100
AcDbXrecord
280
     1
290
     1
  0
XRECORD
  5
13605
102
{ACAD_REACTORS
330
13604
102
}
330
13604
100
AcDbXrecord
280
     1
290
     1
  0
XRECORD
  5
13609
102
{ACAD_REACTORS
330
13608
102
}
330
13608
100
AcDbXrecord
280
     1
290
     1
  0
XRECORD
  5
1360D
102
{ACAD_REACTORS
330
1360C
102
}
330
1360C
100
AcDbXrecord
280
     1
290
     1
  0
XRECORD
  5
1360F
102
{ACAD_REACTORS
330
1360E
102
}
330
1360E
100
AcDbXrecord
280
     1
290
     1
  0
XRECORD
  5
13433
102
{ACAD_REACTORS
330
13432
102
}
330
13432
100
AcDbXrecord
280
     1
290
     1
  0
XRECORD
  5
13618
102
{ACAD_REACTORS
330
13435
102
}
330
13435
100
AcDbXrecord
280
     1
290
     1
  0
SORTENTSTABLE
  5
1FF0
102
{ACAD_REACTORS
330
1FEF
102
}
330
1FEF
100
AcDbSortentsTable
330
2
331
13519
  5
13526
331
13494
  5
13494
331
13483
  5
13483
331
134A3
  5
134D9
331
13492
  5
13492
331
13481
  5
13481
331
15C
  5
15C
331
13526
  5
1353F
331
13490
  5
13490
331
1347F
  5
1347F
331
1348E
  5
1348E
331
1347D
  5
1347D
331
1349D
  5
1349E
331
1348C
  5
1348C
331
1347B
  5
1347B
331
1349B
  5
1349C
331
1348A
  5
1348A
331
13479
  5
13479
331
13488
  5
13488
331
13477
  5
13477
331
13486
  5
13486
331
13497
  5
13497
331
13475
  5
13475
331
134F8
  5
13503
331
13484
  5
13484
331
13495
  5
13495
331
13473
  5
13473
331
13493
  5
13493
331
13482
  5
13482
331
13480
  5
13480
331
13975
  5
1397B
331
13491
  5
13491
331
15B
  5
15B
331
142
  5
142
331
1348F
  5
1348F
331
1347E
  5
1347E
331
13503
  5
1350E
331
159
  5
159
331
1349E
  5
134A3
331
1348D
  5
1348D
331
1347C
  5
1347C
331
157
  5
157
331
1347A
  5
1347A
331
1349C
  5
1349D
331
1348B
  5
1348B
331
115C3
  5
E569
331
1350E
  5
13519
331
1349A
  5
1349A
331
13489
  5
13489
331
13478
  5
13478
331
134D9
  5
134F8
331
13487
  5
13487
331
13476
  5
13476
331
13485
  5
13485
331
13496
  5
13496
331
13474
  5
13474
  0
SORTENTSTABLE
  5
117C
102
{ACAD_REACTORS
330
24
102
}
330
24
100
AcDbSortentsTable
330
23
  0
LAYOUT
  5
10
102
{ACAD_XDICTIONARY
360
13A2D
102
}
102
{ACAD_REACTORS
330
B
102
}
330
B
100
AcDbPlotSettings
  1

  2
C:\PROGRAM FILES\AUTOCAD LT 2000\plotters\DWF ePlot.pc3
  4

  6

 40
0.0
 41
0.0
 42
0.0
 43
0.0
 44
0.0
 45
0.0
 46
0.0
 47
0.0
 48
0.0
 49
0.0
140
0.0
141
0.0
142
1.0
143
1.0
 70
   688
 72
     0
 73
     0
 74
     5
  7
monochrome_140.ctb
 75
    16
147
1.0
148
0.0
149
0.0
100
AcDbLayout
  1
Layout1
 70
     1
 71
     1
 10
0.0
 20
0.0
 11
420.0
 21
297.0
 12
0.0
 22
0.0
 32
0.0
 14
1.000000000000000E+20
 24
1.000000000000000E+20
 34
1.000000000000000E+20
 15
-1.000000000000000E+20
 25
-1.000000000000000E+20
 35
-1.000000000000000E+20
146
0.0
 13
0.0
 23
0.0
 33
0.0
 16
1.0
 26
0.0
 36
0.0
 17
0.0
 27
1.0
 37
0.0
 76
     0
330
D
  0
LAYOUT
  5
A
102
{ACAD_XDICTIONARY
360
13A2B
102
}
102
{ACAD_REACTORS
330
B
102
}
330
B
100
AcDbPlotSettings
  1

  2
PDFCreator
  4
A4
  6
RODODENDRON 5
 40
3.174999952316284
 41
3.174999952316284
 42
3.175003051757812
 43
3.17498779296875
 44
209.8886566162109
 45
297.0530090332031
 46
-0.230673193931878
 47
5.151510643959028
 48
215187.2000545948
 49
127657.5157057546
140
225387.2000545948
141
141677.5157057546
142
1.0
143
50.0
 70
 11956
 72
     1
 73
     0
 74
     4
  7
monochrome_140.ctb
 75
    25
147
0.02
148
-215187.2000545948
149
-127657.5157057546
100
AcDbLayout
  1
Model
 70
     1
 71
     0
 10
0.0
 20
0.0
 11
12.0
 21
9.0
 12
0.0
 22
0.0
 32
0.0
 14
0.0
 24
0.0
 34
0.0
 15
0.0
 25
0.0
 35
0.0
146
0.0
 13
0.0
 23
0.0
 33
0.0
 16
1.0
 26
0.0
 36
0.0
 17
0.0
 27
1.0
 37
0.0
 76
     0
330
2
331
1728
1001
ACAD_PSEXT
1000
PDFCreator
1000
PDFCreator
1000
PDFCreator:
1000
eDoc Printer
1070
     0
  0
MATERIAL
  5
172B
102
{ACAD_XDICTIONARY
360
13A32
102
}
102
{ACAD_REACTORS
330
30
102
}
330
30
100
AcDbMaterial
  1
ByBlock
 73
     1
 78
     1
172
     1
176
     1
270
     1
274
     1
  0
MATERIAL
  5
172A
102
{ACAD_XDICTIONARY
360
13A30
102
}
102
{ACAD_REACTORS
330
30
102
}
330
30
100
AcDbMaterial
  1
ByLayer
 73
     1
 78
     1
172
     1
176
     1
270
     1
274
     1
  0
MATERIAL
  5
172C
102
{ACAD_XDICTIONARY
360
13A34
102
}
102
{ACAD_REACTORS
330
30
102
}
330
30
100
AcDbMaterial
  1
Global
 73
     1
 78
     1
172
     1
176
     1
270
     1
274
     1
  0
MLEADERSTYLE
  5
135F5
102
{ACAD_REACTORS
330
135F4
102
}
330
135F4
100
AcDbMLeaderStyle
170
     2
171
     1
172
     0
 90
        2
 40
0.0
 41
0.0
173
     1
 91
-1056964608
340
18
 92
       -2
290
     1
 42
0.09
291
     1
 43
0.36
  3
Standard
 44
0.18
300

342
15
174
     1
178
     6
175
     1
176
     0
 93
-1056964608
 45
0.18
292
     0
297
     0
 46
0.18
 94
-1056964608
 47
1.0
 49
1.0
140
1.0
293
     1
141
0.0
294
     1
177
     0
142
1.0
295
     0
296
     0
143
0.125
1001
ACAD_MLEADERVER
1070
     2
  0
MLINESTYLE
  5
33
102
{ACAD_REACTORS
330
2E
102
}
330
2E
100
AcDbMlineStyle
  2
STANDARD
 70
     0
  3

 62
   256
 51
90.0
 52
90.0
 71
     2
 49
0.5
 62
   256
  6
BYLAYER
 49
-0.5
 62
   256
  6
BYLAYER
  0
ACDBPLACEHOLDER
  5
11977
102
{ACAD_REACTORS
330
6
102
}
330
6
  0
ACDBPLACEHOLDER
  5
5
102
{ACAD_REACTORS
330
6
102
}
330
6
  0
ACDBPLACEHOLDER
  5
11978
102
{ACAD_REACTORS
330
6
102
}
330
6
  0
SCALE
  5
136E2
102
{ACAD_REACTORS
330
135E4
102
}
330
135E4
100
AcDbScale
 70
     0
300
1:10
140
1.0
141
1.0
290
     0
  0
SCALE
  5
136EB
102
{ACAD_REACTORS
330
135E4
102
}
330
135E4
100
AcDbScale
 70
     0
300
1:10_2
140
1.0
141
10.0
290
     0
  0
SCALE
  5
136EC
102
{ACAD_REACTORS
330
135E4
102
}
330
135E4
100
AcDbScale
 70
     0
300
1:20_2
140
1.0
141
20.0
290
     0
  0
SCALE
  5
136ED
102
{ACAD_REACTORS
330
135E4
102
}
330
135E4
100
AcDbScale
 70
     0
300
1:50_2
140
1.0
141
50.0
290
     0
  0
SCALE
  5
136EE
102
{ACAD_REACTORS
330
135E4
102
}
330
135E4
100
AcDbScale
 70
     0
300
1:100_2
140
1.0
141
100.0
290
     0
  0
SCALE
  5
136EF
102
{ACAD_REACTORS
330
135E4
102
}
330
135E4
100
AcDbScale
 70
     0
300
1:1
140
1.0
141
0.1
290
     0
  0
SCALE
  5
136F0
102
{ACAD_REACTORS
330
135E4
102
}
330
135E4
100
AcDbScale
 70
     0
300
1:1_1
140
1.0
141
1.0
290
     0
  0
SCALE
  5
136F1
102
{ACAD_REACTORS
330
135E4
102
}
330
135E4
100
AcDbScale
 70
     0
300
1:2_1
140
1.0
141
2.0
290
     0
  0
SCALE
  5
136F2
102
{ACAD_REACTORS
330
135E4
102
}
330
135E4
100
AcDbScale
 70
     0
300
1:4
140
1.0
141
4.0
290
     0
  0
SCALE
  5
136F3
102
{ACAD_REACTORS
330
135E4
102
}
330
135E4
100
AcDbScale
 70
     0
300
1:5_1
140
1.0
141
5.0
290
     0
  0
SCALE
  5
136F4
102
{ACAD_REACTORS
330
135E4
102
}
330
135E4
100
AcDbScale
 70
     0
300
1:8
140
1.0
141
8.0
290
     0
  0
SCALE
  5
136E3
102
{ACAD_REACTORS
330
135E4
102
}
330
135E4
100
AcDbScale
 70
     0
300
1:2
140
1.0
141
0.2
290
     0
  0
SCALE
  5
136F5
102
{ACAD_REACTORS
330
135E4
102
}
330
135E4
100
AcDbScale
 70
     0
300
1:10_1
140
1.0
141
10.0
290
     0
  0
SCALE
  5
136F6
102
{ACAD_REACTORS
330
135E4
102
}
330
135E4
100
AcDbScale
 70
     0
300
1:16
140
1.0
141
16.0
290
     0
  0
SCALE
  5
136F7
102
{ACAD_REACTORS
330
135E4
102
}
330
135E4
100
AcDbScale
 70
     0
300
1:20_1
140
1.0
141
20.0
290
     0
  0
SCALE
  5
136F8
102
{ACAD_REACTORS
330
135E4
102
}
330
135E4
100
AcDbScale
 70
     0
300
1:30
140
1.0
141
30.0
290
     0
  0
SCALE
  5
136F9
102
{ACAD_REACTORS
330
135E4
102
}
330
135E4
100
AcDbScale
 70
     0
300
1:40
140
1.0
141
40.0
290
     0
  0
SCALE
  5
136FA
102
{ACAD_REACTORS
330
135E4
102
}
330
135E4
100
AcDbScale
 70
     0
300
1:50_1
140
1.0
141
50.0
290
     0
  0
SCALE
  5
136FB
102
{ACAD_REACTORS
330
135E4
102
}
330
135E4
100
AcDbScale
 70
     0
300
1:100_1
140
1.0
141
100.0
290
     0
  0
SCALE
  5
136FC
102
{ACAD_REACTORS
330
135E4
102
}
330
135E4
100
AcDbScale
 70
     0
300
2:1
140
2.0
141
1.0
290
     0
  0
SCALE
  5
136FD
102
{ACAD_REACTORS
330
135E4
102
}
330
135E4
100
AcDbScale
 70
     0
300
4:1
140
4.0
141
1.0
290
     0
  0
SCALE
  5
136FE
102
{ACAD_REACTORS
330
135E4
102
}
330
135E4
100
AcDbScale
 70
     0
300
8:1
140
8.0
141
1.0
290
     0
  0
SCALE
  5
136E4
102
{ACAD_REACTORS
330
135E4
102
}
330
135E4
100
AcDbScale
 70
     0
300
1:5
140
1.0
141
0.5
290
     0
  0
SCALE
  5
136FF
102
{ACAD_REACTORS
330
135E4
102
}
330
135E4
100
AcDbScale
 70
     0
300
10:1
140
10.0
141
1.0
290
     0
  0
SCALE
  5
13700
102
{ACAD_REACTORS
330
135E4
102
}
330
135E4
100
AcDbScale
 70
     0
300
100:1
140
100.0
141
1.0
290
     0
  0
SCALE
  5
13701
102
{ACAD_REACTORS
330
135E4
102
}
330
135E4
100
AcDbScale
 70
     0
300
1/128" = 1'-0"
140
0.0078125
141
12.0
290
     0
  0
SCALE
  5
13702
102
{ACAD_REACTORS
330
135E4
102
}
330
135E4
100
AcDbScale
 70
     0
300
1-1/2" = 1'-0"
140
1.5
141
12.0
290
     0
  0
SCALE
  5
13951
102
{ACAD_REACTORS
330
135E4
102
}
330
135E4
100
AcDbScale
 70
     0
300
1/64" = 1'-0"_XREF
140
0.015625
141
12.0
290
     0
  0
SCALE
  5
13952
102
{ACAD_REACTORS
330
135E4
102
}
330
135E4
100
AcDbScale
 70
     0
300
6" = 1'-0"_XREF
140
6.0
141
12.0
290
     0
  0
SCALE
  5
13953
102
{ACAD_REACTORS
330
135E4
102
}
330
135E4
100
AcDbScale
 70
     0
300
1'-0" = 1'-0"_XREF
140
12.0
141
12.0
290
     0
  0
SCALE
  5
13954
102
{ACAD_REACTORS
330
135E4
102
}
330
135E4
100
AcDbScale
 70
     0
300
1/32" = 1'-0"_XREF
140
0.03125
141
12.0
290
     0
  0
SCALE
  5
13955
102
{ACAD_REACTORS
330
135E4
102
}
330
135E4
100
AcDbScale
 70
     0
300
1/16" = 1'-0"_XREF
140
0.0625
141
12.0
290
     0
  0
SCALE
  5
13956
102
{ACAD_REACTORS
330
135E4
102
}
330
135E4
100
AcDbScale
 70
     0
300
3/32" = 1'-0"_XREF
140
0.09375
141
12.0
290
     0
  0
SCALE
  5
136E5
102
{ACAD_REACTORS
330
135E4
102
}
330
135E4
100
AcDbScale
 70
     0
300
1:20
140
1.0
141
2.0
290
     0
  0
SCALE
  5
13957
102
{ACAD_REACTORS
330
135E4
102
}
330
135E4
100
AcDbScale
 70
     0
300
1/8" = 1'-0"_XREF
140
0.125
141
12.0
290
     0
  0
SCALE
  5
13958
102
{ACAD_REACTORS
330
135E4
102
}
330
135E4
100
AcDbScale
 70
     0
300
3/16" = 1'-0"_XREF
140
0.1875
141
12.0
290
     0
  0
SCALE
  5
13959
102
{ACAD_REACTORS
330
135E4
102
}
330
135E4
100
AcDbScale
 70
     0
300
1/4" = 1'-0"_XREF
140
0.25
141
12.0
290
     0
  0
SCALE
  5
1395A
102
{ACAD_REACTORS
330
135E4
102
}
330
135E4
100
AcDbScale
 70
     0
300
3/8" = 1'-0"_XREF
140
0.375
141
12.0
290
     0
  0
SCALE
  5
1395B
102
{ACAD_REACTORS
330
135E4
102
}
330
135E4
100
AcDbScale
 70
     0
300
1/2" = 1'-0"_XREF
140
0.5
141
12.0
290
     0
  0
SCALE
  5
1395C
102
{ACAD_REACTORS
330
135E4
102
}
330
135E4
100
AcDbScale
 70
     0
300
3/4" = 1'-0"_XREF
140
0.75
141
12.0
290
     0
  0
SCALE
  5
1395D
102
{ACAD_REACTORS
330
135E4
102
}
330
135E4
100
AcDbScale
 70
     0
300
1" = 1'-0"_XREF
140
1.0
141
12.0
290
     0
  0
SCALE
  5
1395E
102
{ACAD_REACTORS
330
135E4
102
}
330
135E4
100
AcDbScale
 70
     0
300
1 1/2" = 1'-0"_XREF
140
1.5
141
12.0
290
     0
  0
SCALE
  5
1395F
102
{ACAD_REACTORS
330
135E4
102
}
330
135E4
100
AcDbScale
 70
     0
300
3" = 1'-0"_XREF
140
3.0
141
12.0
290
     0
  0
SCALE
  5
13960
102
{ACAD_REACTORS
330
135E4
102
}
330
135E4
100
AcDbScale
 70
     0
300
1:2.5
140
1.0
141
0.25
290
     0
  0
SCALE
  5
136E6
102
{ACAD_REACTORS
330
135E4
102
}
330
135E4
100
AcDbScale
 70
     0
300
1:50
140
1.0
141
5.0
290
     0
  0
SCALE
  5
13961
102
{ACAD_REACTORS
330
135E4
102
}
330
135E4
100
AcDbScale
 70
     0
300
1:7.5
140
1.0
141
0.75
290
     0
  0
SCALE
  5
13962
102
{ACAD_REACTORS
330
135E4
102
}
330
135E4
100
AcDbScale
 70
     0
300
1:25
140
1.0
141
2.5
290
     0
  0
SCALE
  5
13963
102
{ACAD_REACTORS
330
135E4
102
}
330
135E4
100
AcDbScale
 70
     0
300
1:75
140
1.0
141
7.5
290
     0
  0
SCALE
  5
13964
102
{ACAD_REACTORS
330
135E4
102
}
330
135E4
100
AcDbScale
 70
     0
300
1:150
140
1.0
141
15.0
290
     0
  0
SCALE
  5
13965
102
{ACAD_REACTORS
330
135E4
102
}
330
135E4
100
AcDbScale
 70
     0
300
1:200
140
1.0
141
20.0
290
     0
  0
SCALE
  5
13966
102
{ACAD_REACTORS
330
135E4
102
}
330
135E4
100
AcDbScale
 70
     0
300
1:250
140
1.0
141
25.0
290
     0
  0
SCALE
  5
13967
102
{ACAD_REACTORS
330
135E4
102
}
330
135E4
100
AcDbScale
 70
     0
300
1:500
140
1.0
141
50.0
290
     0
  0
SCALE
  5
13968
102
{ACAD_REACTORS
330
135E4
102
}
330
135E4
100
AcDbScale
 70
     0
300
1:750
140
1.0
141
75.0
290
     0
  0
SCALE
  5
13969
102
{ACAD_REACTORS
330
135E4
102
}
330
135E4
100
AcDbScale
 70
     0
300
1:1000
140
1.0
141
100.0
290
     0
  0
SCALE
  5
1396A
102
{ACAD_REACTORS
330
135E4
102
}
330
135E4
100
AcDbScale
 70
     0
300
1:1250
140
1.0
141
125.0
290
     0
  0
SCALE
  5
136E7
102
{ACAD_REACTORS
330
135E4
102
}
330
135E4
100
AcDbScale
 70
     0
300
1:100
140
1.0
141
10.0
290
     0
  0
SCALE
  5
1396B
102
{ACAD_REACTORS
330
135E4
102
}
330
135E4
100
AcDbScale
 70
     0
300
1:2000
140
1.0
141
200.0
290
     0
  0
SCALE
  5
1396C
102
{ACAD_REACTORS
330
135E4
102
}
330
135E4
100
AcDbScale
 70
     0
300
1:2500
140
1.0
141
250.0
290
     0
  0
SCALE
  5
1396D
102
{ACAD_REACTORS
330
135E4
102
}
330
135E4
100
AcDbScale
 70
     0
300
1:5000
140
1.0
141
500.0
290
     0
  0
SCALE
  5
136E8
102
{ACAD_REACTORS
330
135E4
102
}
330
135E4
100
AcDbScale
 70
     0
300
1:1_2
140
1.0
141
1.0
290
     0
  0
SCALE
  5
136E9
102
{ACAD_REACTORS
330
135E4
102
}
330
135E4
100
AcDbScale
 70
     0
300
1:2_2
140
1.0
141
2.0
290
     0
  0
SCALE
  5
136EA
102
{ACAD_REACTORS
330
135E4
102
}
330
135E4
100
AcDbScale
 70
     0
300
1:5_2
140
1.0
141
5.0
290
     0
  0
SCALE
  5
135E5
102
{ACAD_REACTORS
330
135E4
102
}
330
135E4
100
AcDbScale
 70
     0
300
1/64" = 1'-0"
140
0.015625
141
12.0
290
     0
  0
SCALE
  5
135E6
102
{ACAD_REACTORS
330
135E4
102
}
330
135E4
100
AcDbScale
 70
     0
300
1/32" = 1'-0"
140
0.03125
141
12.0
290
     0
  0
SCALE
  5
135E7
102
{ACAD_REACTORS
330
135E4
102
}
330
135E4
100
AcDbScale
 70
     0
300
1/16" = 1'-0"
140
0.0625
141
12.0
290
     0
  0
SCALE
  5
135E8
102
{ACAD_REACTORS
330
135E4
102
}
330
135E4
100
AcDbScale
 70
     0
300
3/32" = 1'-0"
140
0.09375
141
12.0
290
     0
  0
SCALE
  5
135E9
102
{ACAD_REACTORS
330
135E4
102
}
330
135E4
100
AcDbScale
 70
     0
300
1/8" = 1'-0"
140
0.125
141
12.0
290
     0
  0
SCALE
  5
135EA
102
{ACAD_REACTORS
330
135E4
102
}
330
135E4
100
AcDbScale
 70
     0
300
3/16" = 1'-0"
140
0.1875
141
12.0
290
     0
  0
SCALE
  5
135EB
102
{ACAD_REACTORS
330
135E4
102
}
330
135E4
100
AcDbScale
 70
     0
300
1/4" = 1'-0"
140
0.25
141
12.0
290
     0
  0
SCALE
  5
135EC
102
{ACAD_REACTORS
330
135E4
102
}
330
135E4
100
AcDbScale
 70
     0
300
3/8" = 1'-0"
140
0.375
141
12.0
290
     0
  0
SCALE
  5
135ED
102
{ACAD_REACTORS
330
135E4
102
}
330
135E4
100
AcDbScale
 70
     0
300
1/2" = 1'-0"
140
0.5
141
12.0
290
     0
  0
SCALE
  5
135EE
102
{ACAD_REACTORS
330
135E4
102
}
330
135E4
100
AcDbScale
 70
     0
300
3/4" = 1'-0"
140
0.75
141
12.0
290
     0
  0
SCALE
  5
135EF
102
{ACAD_REACTORS
330
135E4
102
}
330
135E4
100
AcDbScale
 70
     0
300
1" = 1'-0"
140
1.0
141
12.0
290
     0
  0
SCALE
  5
135F0
102
{ACAD_REACTORS
330
135E4
102
}
330
135E4
100
AcDbScale
 70
     0
300
1 1/2" = 1'-0"
140
1.5
141
12.0
290
     0
  0
SCALE
  5
135F1
102
{ACAD_REACTORS
330
135E4
102
}
330
135E4
100
AcDbScale
 70
     0
300
3" = 1'-0"
140
3.0
141
12.0
290
     0
  0
SCALE
  5
135F2
102
{ACAD_REACTORS
330
135E4
102
}
330
135E4
100
AcDbScale
 70
     0
300
6" = 1'-0"
140
6.0
141
12.0
290
     0
  0
SCALE
  5
135F3
102
{ACAD_REACTORS
330
135E4
102
}
330
135E4
100
AcDbScale
 70
     0
300
1'-0" = 1'-0"
140
12.0
141
12.0
290
     1
  0
TABLESTYLE
  5
DF3
102
{ACAD_XDICTIONARY
360
1362A
102
}
102
{ACAD_REACTORS
330
DF2
102
}
330
DF2
100
AcDbTableStyle
  3
Standard
 70
     0
 71
     0
 40
0.06
 41
0.06
280
     0
281
     0
  7
Standard
140
0.18
170
     2
 62
     0
 63
     7
283
     0
274
    -2
284
     1
 64
     0
275
    -2
285
     1
 65
     0
276
    -2
286
     1
 66
     0
277
    -2
287
     1
 67
     0
278
    -2
288
     1
 68
     0
279
    -2
289
     1
 69
     0
  7
Standard
140
0.25
170
     5
 62
     0
 63
     7
283
     0
274
    -2
284
     1
 64
     0
275
    -2
285
     1
 65
     0
276
    -2
286
     1
 66
     0
277
    -2
287
     1
 67
     0
278
    -2
288
     1
 68
     0
279
    -2
289
     1
 69
     0
  7
Standard
140
0.18
170
     5
 62
     0
 63
     7
283
     0
274
    -2
284
     1
 64
     0
275
    -2
285
     1
 65
     0
276
    -2
286
     1
 66
     0
277
    -2
287
     1
 67
     0
278
    -2
288
     1
 68
     0
279
    -2
289
     1
 69
     0
  0
VISUALSTYLE
  5
1733
102
{ACAD_REACTORS
330
172D
102
}
330
172D
100
AcDbVisualStyle
  2
2dWireframe
 70
     4
 71
     0
 72
     2
 73
     0
 90
        0
 40
-0.6
 41
-30.0
 62
     5
 63
     7
 74
     1
 91
        4
 64
     7
 65
   257
 75
     1
175
     1
 42
1.0
 92
        0
 66
   257
 43
1.0
 76
     1
 77
     6
 78
     2
 67
     7
 79
     5
170
     0
171
     0
290
     0
174
     0
 93
        1
 44
0.0
173
     0
291
     0
 45
0.0
1001
ACAD
1000
AcDbSavedByObjectVersion
1070
     0
  0
VISUALSTYLE
  5
133DE
102
{ACAD_REACTORS
330
172D
102
}
330
172D
100
AcDbVisualStyle
  2
3D Hidden
 70
     6
 71
     1
 72
     2
 73
     2
 90
        0
 40
-0.6
 41
-30.0
 62
     5
 63
     7
 74
     2
 91
        2
 64
     7
 65
   257
 75
     2
175
     1
 42
40.0
 92
        0
 66
   257
 43
1.0
 76
     1
 77
     6
 78
     2
 67
     7
 79
     3
170
     0
171
     0
290
     0
174
     0
 93
        1
 44
0.0
173
     0
291
     0
 45
0.0
1001
ACAD
1000
AcDbSavedByObjectVersion
1070
     0
  0
VISUALSTYLE
  5
133DD
102
{ACAD_REACTORS
330
172D
102
}
330
172D
100
AcDbVisualStyle
  2
3dWireframe
 70
     5
 71
     0
 72
     2
 73
     0
 90
        0
 40
-0.6
 41
-30.0
 62
     5
 63
     7
 74
     1
 91
        4
 64
     7
 65
   257
 75
     1
175
     1
 42
1.0
 92
        0
 66
   257
 43
1.0
 76
     1
 77
     6
 78
     2
 67
     7
 79
     5
170
     0
171
     0
290
     0
174
     0
 93
        1
 44
0.0
173
     0
291
     0
 45
0.0
1001
ACAD
1000
AcDbSavedByObjectVersion
1070
     0
  0
VISUALSTYLE
  5
1732
102
{ACAD_REACTORS
330
172D
102
}
330
172D
100
AcDbVisualStyle
  2
Basic
 70
     7
 71
     1
 72
     0
 73
     1
 90
        0
 40
-0.6
 41
-30.0
 62
     5
 63
     7
 74
     0
 91
        4
 64
     7
 65
   257
 75
     1
175
     1
 42
1.0
 92
        8
 66
     7
 43
1.0
 76
     1
 77
     6
 78
     2
 67
     7
 79
     5
170
     0
171
     0
290
     0
174
     0
 93
        1
 44
0.0
173
     0
291
     1
 45
0.0
1001
ACAD
1000
AcDbSavedByObjectVersion
1070
     0
  0
VISUALSTYLE
  5
1739
102
{ACAD_REACTORS
330
172D
102
}
330
172D
100
AcDbVisualStyle
  2
Brighten
 70
    12
 71
     2
 72
     2
 73
     0
 90
        0
 40
-0.6
 41
-30.0
 62
     5
 63
     7
 74
     1
 91
        4
 64
     7
 65
   257
 75
     1
175
     1
 42
1.0
 92
        8
 66
     7
 43
1.0
 76
     1
 77
     6
 78
     2
 67
     7
 79
     5
170
     0
171
     0
290
     0
174
     0
 93
        1
 44
50.0
173
     0
291
     1
 45
0.0
1001
ACAD
1000
AcDbSavedByObjectVersion
1070
     0
  0
VISUALSTYLE
  5
173D
102
{ACAD_REACTORS
330
172D
102
}
330
172D
100
AcDbVisualStyle
  2
ColorChange
 70
    16
 71
     2
 72
     2
 73
     3
 90
        0
 40
-0.6
 41
-30.0
 62
     5
 63
     8
 74
     1
 91
        4
 64
     7
 65
   257
 75
     1
175
     1
 42
1.0
 92
        8
 66
     8
 43
1.0
 76
     1
 77
     6
 78
     2
 67
     7
 79
     5
170
     0
171
     0
290
     0
174
     0
 93
        1
 44
0.0
173
     0
291
     1
 45
0.0
1001
ACAD
1000
AcDbSavedByObjectVersion
1070
     0
  0
VISUALSTYLE
  5
133DF
102
{ACAD_REACTORS
330
172D
102
}
330
172D
100
AcDbVisualStyle
  2
Conceptual
 70
     9
 71
     3
 72
     2
 73
     0
 90
        0
 40
-0.6
 41
-30.0
 62
     5
 63
     7
 74
     2
 91
        2
 64
     7
 65
   257
 75
     1
175
     1
 42
40.0
 92
        8
 66
     7
 43
1.0
 76
     1
 77
     6
 78
     2
 67
     7
 79
     3
170
     0
171
     0
290
     0
174
     0
 93
        1
 44
0.0
173
     0
291
     0
 45
0.0
1001
ACAD
1000
AcDbSavedByObjectVersion
1070
     0
  0
VISUALSTYLE
  5
1738
102
{ACAD_REACTORS
330
172D
102
}
330
172D
100
AcDbVisualStyle
  2
Dim
 70
    11
 71
     2
 72
     2
 73
     0
 90
        0
 40
-0.6
 41
-30.0
 62
     5
 63
     7
 74
     1
 91
        4
 64
     7
 65
   257
 75
     1
175
     1
 42
1.0
 92
        8
 66
     7
 43
1.0
 76
     1
 77
     6
 78
     2
 67
     7
 79
     5
170
     0
171
     0
290
     0
174
     0
 93
        1
 44
-50.0
173
     0
291
     1
 45
0.0
1001
ACAD
1000
AcDbSavedByObjectVersion
1070
     0
  0
VISUALSTYLE
  5
173C
102
{ACAD_REACTORS
330
172D
102
}
330
172D
100
AcDbVisualStyle
  2
Facepattern
 70
    15
 71
     2
 72
     2
 73
     0
 90
        0
 40
-0.6
 41
-30.0
 62
     5
 63
     7
 74
     1
 91
        4
 64
     7
 65
   257
 75
     1
175
     1
 42
1.0
 92
        8
 66
     7
 43
1.0
 76
     1
 77
     6
 78
     2
 67
     7
 79
     5
170
     0
171
     0
290
     0
174
     0
 93
        1
 44
0.0
173
     0
291
     1
 45
0.0
1001
ACAD
1000
AcDbSavedByObjectVersion
1070
     0
  0
VISUALSTYLE
  5
172E
102
{ACAD_REACTORS
330
172D
102
}
330
172D
100
AcDbVisualStyle
  2
Flat
 70
     0
 71
     2
 72
     1
 73
     1
 90
        2
 40
-0.6
 41
30.0
 62
     5
 63
     7
 74
     0
 91
        4
 64
     7
 65
   257
 75
     1
175
     1
 42
1.0
 92
        8
 66
     7
 43
1.0
 76
     1
 77
     6
 78
     2
 67
     7
 79
     5
170
     0
171
     0
290
     0
174
     0
 93
       13
 44
0.0
173
     0
291
     0
 45
0.0
1001
ACAD
1000
AcDbSavedByObjectVersion
1070
     0
  0
VISUALSTYLE
  5
172F
102
{ACAD_REACTORS
330
172D
102
}
330
172D
100
AcDbVisualStyle
  2
FlatWithEdges
 70
     1
 71
     2
 72
     1
 73
     1
 90
        2
 40
-0.6
 41
30.0
 62
     5
 63
     7
 74
     1
 91
        4
 64
     7
 65
   257
 75
     1
175
     1
 42
1.0
 92
        0
 66
   257
 43
1.0
 76
     1
 77
     6
 78
     2
 67
     7
 79
     5
170
     0
171
     0
290
     0
174
     0
 93
       13
 44
0.0
173
     0
291
     0
 45
0.0
1001
ACAD
1000
AcDbSavedByObjectVersion
1070
     0
  0
VISUALSTYLE
  5
1730
102
{ACAD_REACTORS
330
172D
102
}
330
172D
100
AcDbVisualStyle
  2
Gouraud
 70
     2
 71
     2
 72
     2
 73
     1
 90
        2
 40
-0.6
 41
30.0
 62
     5
 63
     7
 74
     0
 91
        4
 64
     7
 65
   257
 75
     1
175
     1
 42
1.0
 92
        0
 66
     7
 43
1.0
 76
     1
 77
     6
 78
     2
 67
     7
 79
     5
170
     0
171
     0
290
     0
174
     0
 93
       13
 44
0.0
173
     0
291
     0
 45
0.0
1001
ACAD
1000
AcDbSavedByObjectVersion
1070
     0
  0
VISUALSTYLE
  5
1731
102
{ACAD_REACTORS
330
172D
102
}
330
172D
100
AcDbVisualStyle
  2
GouraudWithEdges
 70
     3
 71
     2
 72
     2
 73
     1
 90
        2
 40
-0.6
 41
30.0
 62
     5
 63
     7
 74
     1
 91
        4
 64
     7
 65
   257
 75
     1
175
     1
 42
1.0
 92
        0
 66
   257
 43
1.0
 76
     1
 77
     6
 78
     2
 67
     7
 79
     5
170
     0
171
     0
290
     0
174
     0
 93
       13
 44
0.0
173
     0
291
     0
 45
0.0
1001
ACAD
1000
AcDbSavedByObjectVersion
1070
     0
  0
VISUALSTYLE
  5
173B
102
{ACAD_REACTORS
330
172D
102
}
330
172D
100
AcDbVisualStyle
  2
Linepattern
 70
    14
 71
     2
 72
     2
 73
     0
 90
        0
 40
-0.6
 41
-30.0
 62
     5
 63
     7
 74
     1
 91
        4
 64
     7
 65
   257
 75
     7
175
     7
 42
1.0
 92
        8
 66
     7
 43
1.0
 76
     1
 77
     6
 78
     2
 67
     7
 79
     5
170
     0
171
     0
290
     0
174
     0
 93
        1
 44
0.0
173
     0
291
     1
 45
0.0
1001
ACAD
1000
AcDbSavedByObjectVersion
1070
     0
  0
VISUALSTYLE
  5
13412
102
{ACAD_REACTORS
330
172D
102
}
330
172D
100
AcDbVisualStyle
  2

 70
     8
 71
     2
 72
     2
 73
     0
 90
        0
 40
-0.6
 41
-30.0
 62
     5
 63
     7
 74
     0
 91
        0
 64
     7
 65
   257
 75
     1
175
     1
 42
1.0
 92
        8
 66
     8
 43
1.0
 76
     1
 77
     6
 78
     2
 67
     7
 79
     5
170
     0
171
     0
290
     0
174
     0
 93
       13
 44
0.0
173
     0
291
     0
 45
0.0
1001
ACAD
1000
AcDbSavedByObjectVersion
1070
     0
  0
VISUALSTYLE
  5
13413
102
{ACAD_REACTORS
330
172D
102
}
330
172D
100
AcDbVisualStyle
  2

 70
     8
 71
     2
 72
     2
 73
     0
 90
        0
 40
-0.6
 41
-30.0
 62
     5
 63
     7
 74
     1
 91
        0
 64
     7
 65
   257
 75
     1
175
     1
 42
1.0
 92
        8
 66
     8
 43
1.0
 76
     1
 77
     6
 78
     2
 67
     7
 79
     5
170
     0
171
     0
290
     0
174
     0
 93
       13
 44
0.0
173
     0
291
     0
 45
0.0
1001
ACAD
1000
AcDbSavedByObjectVersion
1070
     0
  0
VISUALSTYLE
  5
133E0
102
{ACAD_REACTORS
330
172D
102
}
330
172D
100
AcDbVisualStyle
  2
Realistic
 70
     8
 71
     2
 72
     2
 73
     0
 90
        0
 40
-0.6
 41
-30.0
 62
     5
 63
     7
 74
     1
 91
        0
 64
     7
 65
   257
 75
     1
175
     1
 42
1.0
 92
        8
 66
     8
 43
1.0
 76
     1
 77
     6
 78
     2
 67
     7
 79
     5
170
     0
171
     0
290
     0
174
     0
 93
       13
 44
0.0
173
     0
291
     0
 45
0.0
1001
ACAD
1000
AcDbSavedByObjectVersion
1070
     0
  0
VISUALSTYLE
  5
173A
102
{ACAD_REACTORS
330
172D
102
}
330
172D
100
AcDbVisualStyle
  2
Thicken
 70
    13
 71
     2
 72
     2
 73
     0
 90
        0
 40
-0.6
 41
-30.0
 62
     5
 63
     7
 74
     1
 91
        4
 64
     7
 65
   257
 75
     1
175
     1
 42
1.0
 92
       12
 66
     7
 43
1.0
 76
     1
 77
     6
 78
     2
 67
     7
 79
     5
170
     0
171
     0
290
     0
174
     0
 93
        1
 44
0.0
173
     0
291
     1
 45
0.0
1001
ACAD
1000
AcDbSavedByObjectVersion
1070
     0
  0
DICTIONARY
  5
830A
102
{ACAD_REACTORS
330
8309
102
}
330
8309
100
AcDbDictionary
280
     1
281
     1
  3
Standards
360
830B
  0
DICTIONARYVAR
  5
1362F
102
{ACAD_REACTORS
330
E04
102
}
330
E04
100
DictionaryVariables
280
     0
  1
1/8" = 1'-0"
  0
DICTIONARYVAR
  5
1362D
102
{ACAD_REACTORS
330
E04
102
}
330
E04
100
DictionaryVariables
280
     0
  1
STANDARD
  0
DICTIONARYVAR
  5
E05
102
{ACAD_REACTORS
330
E04
102
}
330
E04
100
DictionaryVariables
280
     0
  1
STANDARD
  0
DICTIONARYVAR
  5
13A28
102
{ACAD_REACTORS
330
E04
102
}
330
E04
100
DictionaryVariables
280
     0
  1
1
  0
DICTIONARYVAR
  5
13A27
102
{ACAD_REACTORS
330
E04
102
}
330
E04
100
DictionaryVariables
280
     0
  1
1
  0
DICTIONARYVAR
  5
13A26
102
{ACAD_REACTORS
330
E04
102
}
330
E04
100
DictionaryVariables
280
     0
  1
0
  0
DICTIONARYVAR
  5
13631
102
{ACAD_REACTORS
330
E04
102
}
330
E04
100
DictionaryVariables
280
     0
  1
1
  0
DICTIONARYVAR
  5
13632
102
{ACAD_REACTORS
330
E04
102
}
330
E04
100
DictionaryVariables
280
     0
  1
15
  0
DICTIONARYVAR
  5
13630
102
{ACAD_REACTORS
330
E04
102
}
330
E04
100
DictionaryVariables
280
     0
  1
0
  0
DICTIONARYVAR
  5
1362E
102
{ACAD_REACTORS
330
E04
102
}
330
E04
100
DictionaryVariables
280
     0
  1
0
  0
DICTIONARYVAR
  5
13A25
102
{ACAD_REACTORS
330
E04
102
}
330
E04
100
DictionaryVariables
280
     0
  1
127
  0
XRECORD
  5
13620
102
{ACAD_REACTORS
330
1361F
102
}
330
1361F
100
AcDbXrecord
280
     1
330
134F2
330
134F3
330
134FB
330
134FC
330
13506
330
13507
330
13511
330
13512
330
1351E
330
1351F
330
13539
330
1353A
330
135B5
330
135B6
330
135BC
330
135BD
330
135C3
330
135C4
330
135CA
330
135CB
330
135D3
330
135D4
330
135DA
330
135DB
330
0
330
0
330
0
330
0
330
0
330
0
330
0
330
0
330
0
330
0
330
0
330
0
330
0
330
0
  0
XRECORD
  5
131D9
102
{ACAD_REACTORS
330
41C3
102
}
330
41C3
100
AcDbXrecord
280
     1
 40
0.000001
  0
XRECORD
  5
131DC
102
{ACAD_REACTORS
330
41C3
102
}
330
41C3
100
AcDbXrecord
280
     1
 70
     0
  0
XRECORD
  5
131DB
102
{ACAD_REACTORS
330
41C3
102
}
330
41C3
100
AcDbXrecord
280
     1
 70
     0
  0
XRECORD
  5
131DA
102
{ACAD_REACTORS
330
41C3
102
}
330
41C3
100
AcDbXrecord
280
     1
 70
     0
  0
DICTIONARY
  5
13A2D
330
10
100
AcDbDictionary
280
     1
281
     1
  3
ACAD_XREC_ROUNDTRIP
360
13A2E
  0
DICTIONARY
  5
13A2B
330
A
100
AcDbDictionary
280
     1
281
     1
  3
ACAD_XREC_ROUNDTRIP
360
13A2C
  0
DICTIONARY
  5
13A32
330
172B
100
AcDbDictionary
280
     1
281
     1
  3
ACAD_XREC_ROUNDTRIP
360
13A33
  0
DICTIONARY
  5
13A30
330
172A
100
AcDbDictionary
280
     1
281
     1
  3
ACAD_XREC_ROUNDTRIP
360
13A31
  0
DICTIONARY
  5
13A34
330
172C
100
AcDbDictionary
280
     1
281
     1
  3
ACAD_XREC_ROUNDTRIP
360
13A35
  0
DICTIONARY
  5
1362A
330
DF3
100
AcDbDictionary
280
     1
281
     1
  3
ACAD_ROUNDTRIP_2008_TABLESTYLE_CELLSTYLEMAP
360
13A29
  3
ACAD_XREC_ROUNDTRIP
360
13A2F
  0
BINRECORD
  5
830B
102
{ACAD_REACTORS
330
830A
102
}
330
830A
100
AcAecBinRecord
 90
        0
 91
    19403
 70
     0
310
0100FFFEFF0D4100490041002000560065007200730069006F006E00200033000500FFFF01001C004163416563556B4C6179657244657363726970746976654669656C64FFFEFF154400690073006300690070006C0069006E0065002000440065007300690067006E00610074006F0072000102000000007B333637354541
310
46100100002100000070BA406CD0EA76040B00FFFEFF001500FFFEFF01440002000000FFFEFF07500072006F0063006500730073000E00FFFEFF01440002000000FFFEFF12500072006F0063006500730073002000440065006D006F006C006900740069006F006E00000000000000FFFEFF01560002000000FFFEFF0E5000
310
72006F0063006500730073002000560061006300750075006D00000000000000FFFEFF01450002000000FFFEFF12500072006F006300650073007300200045006C0065006300740072006900630061006C00000000000000FFFEFF01570002000000FFFEFF0E500072006F0063006500730073002000570061007400650072
310
007300000000000000FFFEFF01580002000000FFFEFF0F500072006F00630065007300730020004500780068006100750073007400000000000000FFFEFF01470002000000FFFEFF0D500072006F006300650073007300200047006100730065007300000000000000FFFEFF014F0002000000FFFEFF0B500072006F006300
310
65007300730020004F0069006C00000000000000FFFEFF01500002000000FFFEFF0E500072006F006300650073007300200050006900700069006E006700000000000000FFFEFF01510002000000FFFEFF11500072006F0063006500730073002000450071007500690070006D0065006E007400000000000000FFFEFF0152
310
0002000000FFFEFF19500072006F006300650073007300200044007200610069006E0073002000260020005200650063006C00610069006D007300000000000000FFFEFF01410002000000FFFEFF0C500072006F00630065007300730020004100690072007300000000000000FFFEFF01530002000000FFFEFF0C50007200
310
6F00630065007300730020005300690074006500000000000000FFFEFF01540002000000FFFEFF18500072006F006300650073007300200045006E0074007200610069006E0065006400200053006F006C00690064007300000000000000FFFEFF01430002000000FFFEFF11500072006F0063006500730073002000430068
310
0065006D006900630061006C00730000000000000000000000FFFEFF01560002000000FFFEFF1053007500720076006500790020002F0020004D0061007000700069006E0067000500FFFEFF01460002000000FFFEFF0C4600690065006C0064002000530075007200760065007900000000000000FFFEFF01490002000000
310
FFFEFF0E4400690067006900740061006C002000530075007200760065007900000000000000FFFEFF014A0002000000FFFEFF1F53007500720076006500790020002F0020004D0061007000700069006E006700200028005500730065007200200044006500660069006E00650064002900000000000000FFFEFF014B0002
310
000000FFFEFF1F53007500720076006500790020002F0020004D0061007000700069006E006700200028005500730065007200200044006500660069006E00650064002900000000000000FFFEFF01410002000000FFFEFF0D410065007200690061006C00200053007500720076006500790000000000000000000000FFFE
310
FF01450002000000FFFEFF0A45006C0065006300740072006900630061006C000900FFFEFF01440002000000FFFEFF1545006C0065006300740072006900630061006C002000440065006D006F006C006900740069006F006E00000000000000FFFEFF01590002000000FFFEFF1C45006C0065006300740072006900630061
310
006C00200041007500780069006C0069006100720079002000530079007300740065006D007300000000000000FFFEFF01490002000000FFFEFF1A45006C0065006300740072006900630061006C00200049006E0073007400720075006D0065006E0074006100740069006F006E00000000000000FFFEFF014A0002000000
310
FFFEFF1945006C0065006300740072006900630061006C00200028005500730065007200200044006500660069006E00650064002900000000000000FFFEFF014B0002000000FFFEFF1945006C0065006300740072006900630061006C00200028005500730065007200200044006500660069006E00650064002900000000
310
000000FFFEFF014C0002000000FFFEFF1345006C0065006300740072006900630061006C0020004C00690067006800740069006E006700000000000000FFFEFF01500002000000FFFEFF1045006C0065006300740072006900630061006C00200050006F00770065007200000000000000FFFEFF01530002000000FFFEFF0F
310
45006C0065006300740072006900630061006C0020005300690074006500000000000000FFFEFF01540002000000FFFEFF1D45006C0065006300740072006900630061006C002000540065006C00650063006F006D006D0075006E00690063006100740069006F006E00730000000000000000000000FFFEFF015700020000
310
00FFFEFF0B43006900760069006C00200057006F0072006B0073000200FFFEFF014A0002000000FFFEFF1A43006900760069006C00200057006F0072006B007300200028005500730065007200200044006500660069006E00650064002900000000000000FFFEFF014B0002000000FFFEFF1A43006900760069006C002000
310
57006F0072006B007300200028005500730065007200200044006500660069006E0065006400290000000000000000000000FFFEFF01460002000000FFFEFF0F46006900720065002000500072006F00740065006300740069006F006E000400FFFEFF014A0002000000FFFEFF134600690072006500200028005500730065
310
007200200044006500660069006E00650064002900000000000000FFFEFF014B0002000000FFFEFF134600690072006500200028005500730065007200200044006500660069006E00650064002900000000000000FFFEFF01410002000000FFFEFF184600690072006500200044006500740065006300740069006F006E00
310
200061006E006400200041006C00610072006D00000000000000FFFEFF01530002000000FFFEFF10460069007200650020005300750070007000720065007300730069006F006E0000000000000000000000FFFEFF01470002000000FFFEFF07470065006E006500720061006C000500FFFEFF01490002000000FFFEFF1347
310
0065006E006500720061006C00200049006E0066006F0072006D006100740069006F006E00000000000000FFFEFF014A0002000000FFFEFF16470065006E006500720061006C00200028005500730065007200200044006500660069006E00650064002900000000000000FFFEFF014B0002000000FFFEFF16470065006E00
310
6500720061006C00200028005500730065007200200044006500660069006E00650064002900000000000000FFFEFF01520002000000FFFEFF10470065006E006500720061006C0020005200650073006F007500720063006500000000000000FFFEFF01430002000000FFFEFF13470065006E006500720061006C00200043
310
006F006E0074007200610063007400750061006C0000000000000000000000FFFEFF01580002000000FFFEFF114F00740068006500720020004400690073006300690070006C0069006E00650073000200FFFEFF014A0002000000FFFEFF204F00740068006500720020004400690073006300690070006C0069006E006500
310
7300200028005500730065007200200044006500660069006E00650064002900000000000000FFFEFF014B0002000000FFFEFF204F00740068006500720020004400690073006300690070006C0069006E0065007300200028005500730065007200200044006500660069006E0065006400290000000000000000000000FF
310
FEFF01480002000000FFFEFF13480061007A006100720064006F007500730020004D006100740065007200690061006C0073000700FFFEFF014A0002000000FFFEFF22480061007A006100720064006F007500730020004D006100740065007200690061006C00730020002800550073006500720020004400650066006900
310
6E00650064002900000000000000FFFEFF014B0002000000FFFEFF22480061007A006100720064006F007500730020004D006100740065007200690061006C007300200028005500730065007200200044006500660069006E00650064002900000000000000FFFEFF014C0002000000FFFEFF044C00650061006400000000
310
000000FFFEFF01500002000000FFFEFF03500043004200000000000000FFFEFF01520002000000FFFEFF0C5200650066007200690067006500720061006E0074007300000000000000FFFEFF01410002000000FFFEFF084100730062006500730074006F007300000000000000FFFEFF01430002000000FFFEFF0943006800
310
65006D006900630061006C00730000000000000000000000FFFEFF01490002000000FFFEFF0949006E0074006500720069006F00720073000600FFFEFF01440002000000FFFEFF1349006E0074006500720069006F0072002000440065006D006F006C006900740069006F006E00000000000000FFFEFF01460002000000FF
310
FEFF1149006E0074006500720069006F0072002000460069006E0069007300680065007300000000000000FFFEFF01470002000000FFFEFF1249006E0074006500720069006F0072007300200047007200610070006800690063007300000000000000FFFEFF014A0002000000FFFEFF1849006E0074006500720069006F00
310
72007300200028005500730065007200200044006500660069006E00650064002900000000000000FFFEFF014B0002000000FFFEFF1849006E0074006500720069006F0072007300200028005500730065007200200044006500660069006E00650064002900000000000000FFFEFF014E0002000000FFFEFF0F49006E0074
310
006500720069006F0072002000440065007300690067006E0000000000000000000000FFFEFF015A0002000000FFFEFF1A43006F006E00740072006100630074006F00720020002F002000530068006F0070002000440072006100770069006E00670073000200FFFEFF014A0002000000FFFEFF2943006F006E0074007200
310
6100630074006F00720020002F002000530068006F0070002000440072006100770069006E0067007300200028005500730065007200200044006500660069006E00650064002900000000000000FFFEFF014B0002000000FFFEFF2943006F006E00740072006100630074006F00720020002F002000530068006F00700020
310
00440072006100770069006E0067007300200028005500730065007200200044006500660069006E0065006400290000000000000000000000FFFEFF014C0002000000FFFEFF094C0061006E006400730063006100700065000500FFFEFF01440002000000FFFEFF144C0061006E0064007300630061007000650020004400
310
65006D006F006C006900740069006F006E00000000000000FFFEFF01490002000000FFFEFF144C0061006E006400730063006100700065002000490072007200690067006100740069006F006E00000000000000FFFEFF014A0002000000FFFEFF184C0061006E006400730063006100700065002000280055007300650072
310
00200044006500660069006E00650064002900000000000000FFFEFF014B0002000000FFFEFF184C0061006E00640073006300610070006500200028005500730065007200200044006500660069006E00650064002900000000000000FFFEFF01500002000000FFFEFF124C0061006E006400730063006100700065002000
310
50006C0061006E00740069006E00670000000000000000000000FFFEFF014D0002000000FFFEFF0A4D0065006300680061006E006900630061006C000700FFFEFF01440002000000FFFEFF154D0065006300680061006E006900630061006C002000440065006D006F006C006900740069006F006E00000000000000FFFEFF
310
01480002000000FFFEFF0F4D0065006300680061006E006900630061006C0020004800560041004300000000000000FFFEFF01490002000000FFFEFF1A4D0065006300680061006E006900630061006C00200049006E0073007400720075006D0065006E0074006100740069006F006E00000000000000FFFEFF014A000200
310
0000FFFEFF194D0065006300680061006E006900630061006C00200028005500730065007200200044006500660069006E00650064002900000000000000FFFEFF014B0002000000FFFEFF194D0065006300680061006E006900630061006C00200028005500730065007200200044006500660069006E0065006400290000
310
0000000000FFFEFF01500002000000FFFEFF114D0065006300680061006E006900630061006C00200050006900700069006E006700000000000000FFFEFF01530002000000FFFEFF0F4D0065006300680061006E006900630061006C002000530069007400650000000000000000000000FFFEFF014F0002000000FFFEFF0A
310
4F007000650072006100740069006F006E0073000200FFFEFF014A0002000000FFFEFF194F007000650072006100740069006F006E007300200028005500730065007200200044006500660069006E00650064002900000000000000FFFEFF014B0002000000FFFEFF194F007000650072006100740069006F006E00730020
310
0028005500730065007200200044006500660069006E0065006400290000000000000000000000FFFEFF01500002000000FFFEFF0850006C0075006D00620069006E0067000600FFFEFF01440002000000FFFEFF1350006C0075006D00620069006E0067002000440065006D006F006C006900740069006F006E0000000000
310
0000FFFEFF014A0002000000FFFEFF1750006C0075006D00620069006E006700200028005500730065007200200044006500660069006E00650064002900000000000000FFFEFF014B0002000000FFFEFF1750006C0075006D00620069006E006700200028005500730065007200200044006500660069006E006500640029
310
00000000000000FFFEFF01500002000000FFFEFF0F50006C0075006D00620069006E006700200050006900700069006E006700000000000000FFFEFF01510002000000FFFEFF1250006C0075006D00620069006E0067002000450071007500690070006D0065006E007400000000000000FFFEFF01530002000000FFFEFF0D
310
50006C0075006D00620069006E0067002000530069007400650000000000000000000000FFFEFF01510002000000FFFEFF09450071007500690070006D0065006E0074001100FFFEFF01440002000000FFFEFF1344006500740065006E00740069006F006E002000450071007500690070006D0065006E0074000000000000
310
00FFFEFF01560002000000FFFEFF1C56006900640065006F002F00500068006F0074006F0067007200610070006800690063002000450071007500690070006D0065006E007400000000000000FFFEFF01450002000000FFFEFF1545006400750063006100740069006F006E0061006C002000450071007500690070006D00
310
65006E007400000000000000FFFEFF01460002000000FFFEFF1646006F006F006400200053006500720076006900630065002000450071007500690070006D0065006E007400000000000000FFFEFF01590002000000FFFEFF12530065006300750072006900740079002000450071007500690070006D0065006E00740000
310
0000000000FFFEFF01480002000000FFFEFF1248006F00730070006900740061006C002000450071007500690070006D0065006E007400000000000000FFFEFF014A0002000000FFFEFF18450071007500690070006D0065006E007400200028005500730065007200200044006500660069006E0065006400290000000000
310
0000FFFEFF014B0002000000FFFEFF18450071007500690070006D0065006E007400200028005500730065007200200044006500660069006E00650064002900000000000000FFFEFF014C0002000000FFFEFF144C00610062006F007200610074006F00720079002000450071007500690070006D0065006E007400000000
310
000000FFFEFF014D0002000000FFFEFF154D00610069006E00740065006E0061006E00630065002000450071007500690070006D0065006E007400000000000000FFFEFF01500002000000FFFEFF155000610072006B0069006E00670020004C006F0074002000450071007500690070006D0065006E007400000000000000
310
FFFEFF01520002000000FFFEFF10520065007400610069006C002000450071007500690070006D0065006E007400000000000000FFFEFF01410002000000FFFEFF124100740068006C0065007400690063002000450071007500690070006D0065006E007400000000000000FFFEFF01530002000000FFFEFF0E5300690074
310
0065002000450071007500690070006D0065006E007400000000000000FFFEFF01420002000000FFFEFF0E420061006E006B002000450071007500690070006D0065006E007400000000000000FFFEFF01540002000000FFFEFF145400680065006100740072006900630061006C002000450071007500690070006D006500
310
6E007400000000000000FFFEFF01430002000000FFFEFF16440072007900200043006C00650061006E0069006E0067002000450071007500690070006D0065006E00740000000000000000000000FFFEFF01410002000000FFFEFF0D4100720063006800690074006500630074007500720061006C000A00FFFEFF01440002
310
000000FFFEFF184100720063006800690074006500630074007500720061006C002000440065006D006F006C006900740069006F006E00000000000000FFFEFF01450002000000FFFEFF164100720063006800690074006500630074007500720061006C00200045006C0065006D0065006E0074007300000000000000FFFE
310
FF01460002000000FFFEFF164100720063006800690074006500630074007500720061006C002000460069006E0069007300680065007300000000000000FFFEFF01470002000000FFFEFF164100720063006800690074006500630074007500720061006C00200047007200610070006800690063007300000000000000FF
310
FEFF01490002000000FFFEFF164100720063006800690074006500630074007500720061006C00200049006E0074006500720069006F007200000000000000FFFEFF014A0002000000FFFEFF1C4100720063006800690074006500630074007500720061006C00200028005500730065007200200044006500660069006E00
310
650064002900000000000000FFFEFF014B0002000000FFFEFF1C4100720063006800690074006500630074007500720061006C00200028005500730065007200200044006500660069006E00650064002900000000000000FFFEFF01500002000000FFFEFF144100720063006800690074006500630074007500720061006C
310
00200050006100760069006E006700000000000000FFFEFF01530002000000FFFEFF124100720063006800690074006500630074007500720061006C0020005300690074006500000000000000FFFEFF01540002000000FFFEFF1C4100720063006800690074006500630074007500720061006C0020005400720061006E00
310
730070006F00720074006100740069006F006E0000000000000001000000FFFEFF01520002000000FFFEFF085200650073006F0075007200630065000700FFFEFF01450002000000FFFEFF135200650073006F007500720063006500200045006C0065006300740072006900630061006C00000000000000FFFEFF014A0002
310
000000FFFEFF175200650073006F007500720063006500200028005500730065007200200044006500660069006E00650064002900000000000000FFFEFF014B0002000000FFFEFF175200650073006F007500720063006500200028005500730065007200200044006500660069006E00650064002900000000000000FFFE
310
FF014D0002000000FFFEFF135200650073006F00750072006300650020004D0065006300680061006E006900630061006C00000000000000FFFEFF01410002000000FFFEFF165200650073006F00750072006300650020004100720063006800690074006500630074007500720061006C00000000000000FFFEFF01530002
310
000000FFFEFF135200650073006F00750072006300650020005300740072007500630074007500720061006C00000000000000FFFEFF01430002000000FFFEFF0E5200650073006F007500720063006500200043006900760069006C0000000000000000000000FFFEFF01420002000000FFFEFF0C470065006F0074006500
310
630068006E006900630061006C000200FFFEFF014A0002000000FFFEFF1B470065006F0074006500630068006E006900630061006C00200028005500730065007200200044006500660069006E00650064002900000000000000FFFEFF014B0002000000FFFEFF1B470065006F0074006500630068006E006900630061006C
310
00200028005500730065007200200044006500660069006E0065006400290000000000000000000000FFFEFF01530002000000FFFEFF0A5300740072007500630074007500720061006C000600FFFEFF01440002000000FFFEFF155300740072007500630074007500720061006C002000440065006D006F006C0069007400
310
69006F006E00000000000000FFFEFF01460002000000FFFEFF125300740072007500630074007500720061006C0020004600720061006D0069006E006700000000000000FFFEFF014A0002000000FFFEFF195300740072007500630074007500720061006C00200028005500730065007200200044006500660069006E0065
310
0064002900000000000000FFFEFF014B0002000000FFFEFF195300740072007500630074007500720061006C00200028005500730065007200200044006500660069006E00650064002900000000000000FFFEFF01530002000000FFFEFF0F5300740072007500630074007500720061006C00200053006900740065000000
310
00000000FFFEFF01420002000000FFFEFF175300740072007500630074007500720061006C00200053007500620073007400720075006300740075007200650000000000000000000000FFFEFF01430002000000FFFEFF0543006900760069006C000900FFFEFF01440002000000FFFEFF1043006900760069006C00200044
310
0065006D006F006C006900740069006F006E00000000000000FFFEFF01550002000000FFFEFF0F43006900760069006C0020005500740069006C0069007400690065007300000000000000FFFEFF01470002000000FFFEFF0D43006900760069006C002000470072006100640069006E006700000000000000FFFEFF014900
310
02000000FFFEFF1243006900760069006C00200049006D00700072006F00760065006D0065006E0074007300000000000000FFFEFF014A0002000000FFFEFF1443006900760069006C00200028005500730065007200200044006500660069006E00650064002900000000000000FFFEFF014B0002000000FFFEFF14430069
310
00760069006C00200028005500730065007200200044006500660069006E00650064002900000000000000FFFEFF01500002000000FFFEFF0C43006900760069006C00200050006100760069006E006700000000000000FFFEFF01530002000000FFFEFF0A43006900760069006C0020005300690074006500000000000000
310
FFFEFF01540002000000FFFEFF1443006900760069006C0020005400720061006E00730070006F00720074006100740069006F006E0000000000000000000000FFFEFF01540002000000FFFEFF12540065006C00650063006F006D006D0075006E00690063006100740069006F006E0073000900FFFEFF01590002000000FF
310
FEFF0853006500630075007200690074007900000000000000FFFEFF01490002000000FFFEFF0849006E0074006500720063006F006D00000000000000FFFEFF014A0002000000FFFEFF21540065006C00650063006F006D006D0075006E00690063006100740069006F006E00730020002800550073006500720020004400
310
6500660069006E00650064002900000000000000FFFEFF014B0002000000FFFEFF21540065006C00650063006F006D006D0075006E00690063006100740069006F006E007300200028005500730065007200200044006500660069006E00650064002900000000000000FFFEFF014D0002000000FFFEFF0A4D006F006E0069
310
0074006F00720069006E006700000000000000FFFEFF014E0002000000FFFEFF0D440061007400610020004E006500740077006F0072006B007300000000000000FFFEFF01410002000000FFFEFF0E41007500640069006F0020002F002000560069007300750061006C00000000000000FFFEFF01540002000000FFFEFF09
310
540065006C006500700068006F006E006500000000000000FFFEFF01430002000000FFFEFF1143006C006F0063006B00200061006E0064002000500072006F006700720061006D00000000000000000000000180FFFEFF054D0061006A006F0072000300000000000000000000000000000000000000000000000000000000
310
000000FFFEFF002300FFFEFF052D0046006C006F00720002000000FFFEFF0546006C006F006F007200000000000000FFFEFF052D004500710070006D0002000000FFFEFF09450071007500690070006D0065006E007400000000000000FFFEFF052D00530069007400650002000000FFFEFF09530069007400650020007000
310
6C0061006E00000000000000FFFEFF052D0050006C0061006E0002000000FFFEFF154B0065007900200070006C0061006E002000280066006C006F006F007200200070006C0061006E002900000000000000FFFEFF052D004400650074006C0002000000FFFEFF06440065007400610069006C00000000000000FFFEFF052D
310
0054006F0070006F0002000000FFFEFF0A54006F0070006F00670072006100700068007900000000000000FFFEFF052D004300740072006C0002000000FFFEFF0E43006F006E00740072006F006C00200050006F0069006E0074007300000000000000FFFEFF052D004600750072006E0002000000FFFEFF0B460075007200
310
6E0069007300680069006E0067007300000000000000FFFEFF052D0053006C006100620002000000FFFEFF0553006C00610062007300000000000000FFFEFF052D0050006F006C00790002000000FFFEFF0850006F006C00790067006F006E007300000000000000FFFEFF052D0043006F006D006D0002000000FFFEFF1254
310
0065006C00650063006F006D006D0075006E00690063006100740069006F006E007300000000000000FFFEFF052D00570061006C006C0002000000FFFEFF05570061006C006C007300000000000000FFFEFF052D0047006C0061007A0002000000FFFEFF0747006C0061007A0069006E006700000000000000FFFEFF052D00
310
410072006500610002000000FFFEFF044100720065006100000000000000FFFEFF052D0043006F006400650002000000FFFEFF1443006F0064006500200063006F006D0070006C00690061006E0063006500200070006C0061006E00000000000000FFFEFF052D005300740072006D0002000000FFFEFF0844007200610069
310
006E00610067006500000000000000FFFEFF052D0044006F006F00720002000000FFFEFF0544006F006F0072007300000000000000FFFEFF052D0041006E006E006F0002000000FFFEFF0A41006E006E006F0074006100740069006F006E00000000000000FFFEFF052D004200650061006D0002000000FFFEFF0542006500
310
61006D007300000000000000FFFEFF052D004C0069007400650002000000FFFEFF114C00690067006800740069006E006700200066006900780074007500720065007300000000000000FFFEFF052D00480056004100430002000000FFFEFF044800560041004300000000000000FFFEFF052D004100630063007300020000
310
00FFFEFF0B410063006300650073007300200070006C0061006E00000000000000FFFEFF052D0043006F006C00730002000000FFFEFF0743006F006C0075006D006E007300000000000000FFFEFF052D0043006C006E00670002000000FFFEFF074300650069006C0069006E006700000000000000FFFEFF052D0045007600
310
6100630002000000FFFEFF0F450076006100630075006100740069006F006E00200070006C0061006E00000000000000FFFEFF052D0043006F006E00760002000000FFFEFF1143006F006E0076006500790069006E0067002000730079007300740065006D007300000000000000FFFEFF052D005300650063007400020000
310
00FFFEFF07530065006300740069006F006E00000000000000FFFEFF052D00500072006F00700002000000FFFEFF08500072006F0070006500720074007900000000000000FFFEFF052D0052006F006F00660002000000FFFEFF0452006F006F006600000000000000FFFEFF052D0045006C006500630002000000FFFEFF0A
310
45006C0065006300740072006900630061006C00000000000000FFFEFF052D00470072006900640002000000FFFEFF0A470072006900640020006C0069006E0065007300000000000000FFFEFF052D00540069006E006E0002000000FFFEFF1E54007200690061006E00670075006C00610074006500640020006900720072
310
006500670075006C006100720020006E006500740077006F0072006B00000000000000FFFEFF052D00500072006F00740002000000FFFEFF1646006900720065002000700072006F00740065006300740069006F006E002000730079007300740065006D00000000000000FFFEFF052D00460069007200650002000000FFFE
310
FF1446006900720065002000700072006F00740065006300740069006F006E00200070006C0061006E00000000000000FFFEFF052D0045006C006500760002000000FFFEFF0945006C00650076006100740069006F006E000000000000000180FFFEFF074D0069006E006F00720020003100040000000000000000F00E7704
310
00000000000000000000000000000000F00000FFFEFF006A00FFFEFF052D00410062006F00760002000000FFFEFF0E45006C0065006D0065006E00740073002000610062006F0076006500000000000000FFFEFF052D005400610062006C0002000000FFFEFF0B440061007400610020007400610062006C00650073000000
310
00000000FFFEFF052D00420064007200790002000000FFFEFF0842006F0075006E006400610072007900000000000000FFFEFF052D004500710070006D0002000000FFFEFF09450071007500690070006D0065006E007400000000000000FFFEFF052D0043006E007400720002000000FFFEFF0A430065006E007400650072
310
006C0069006E006500000000000000FFFEFF052D0057006B007300660002000000FFFEFF1E530079007300740065006D00200077006F0072006B0020007300750072006600610063006500200063006F006D0070006F006E0065006E0074007300000000000000FFFEFF052D00420072006E00670002000000FFFEFF1A4200
310
65006100720069006E0067007300200026002000640069007300740061006E006300650020006C006100620065006C007300000000000000FFFEFF052D00530077006300680002000000FFFEFF0853007700690074006300680065007300000000000000FFFEFF052D005400680069006E0002000000FFFEFF195400680069
310
006E0020007700650069006700680074002000670072006100700068006900630020006C0069006E0065007300000000000000FFFEFF052D00520061006900730002000000FFFEFF06520061006900730065006400000000000000FFFEFF052D004F00700065006E0002000000FFFEFF084F00700065006E0069006E006700
310
7300000000000000FFFEFF052D004E0070006C00740002000000FFFEFF204E006F006E002D0070006C006F007400740069006E00670020006700720061007000680069006300200069006E0066006F0072006D006100740069006F006E00000000000000FFFEFF052D00500072006F00660002000000FFFEFF08500072006F
310
00660069006C0065007300000000000000FFFEFF052D005200650066006C0002000000FFFEFF0E5200650066006C0065006300740065006400200050006C0061006E00000000000000FFFEFF052D00460069006E00650002000000FFFEFF19460069006E006500200077006500690067006800740020006700720061007000
310
68006900630020006C0069006E0065007300000000000000FFFEFF052D004100700070006C0002000000FFFEFF0A4100700070006C00690061006E00630065007300000000000000FFFEFF052D00440069006D00730002000000FFFEFF0A440069006D0065006E00730069006F006E007300000000000000FFFEFF052D0050
310
006F007700720002000000FFFEFF0550006F00770065007200000000000000FFFEFF052D0053006C006100620002000000FFFEFF0553006C00610062007300000000000000FFFEFF052D0043006F006E006E0002000000FFFEFF0B43006F006E006E0065006300740069006F006E007300000000000000FFFEFF052D005700
310
61006C006C0002000000FFFEFF05570061006C006C007300000000000000FFFEFF052D004100730073006D0002000000FFFEFF0A41007300730065006D0062006C00690065007300000000000000FFFEFF052D005600680063006C0002000000FFFEFF08560065006800690063006C0065007300000000000000FFFEFF052D
310
0043006F006D006D0002000000FFFEFF1A540065006C006500700068006F006E0065002C00200063006F006D006D0075006E00690063006100740069006F006E0073002000000000000000FFFEFF052D00460072006500650002000000FFFEFF0C46007200650065007300740061006E00640069006E006700000000000000
310
FFFEFF052D00530079006D00620002000000FFFEFF07530079006D0062006F006C007300000000000000FFFEFF052D00520064006D00650002000000FFFEFF1B52006500610064002D006D00650020006C006100790065007200200028006E006F007400200070006C006F0074007400650064002900000000000000FFFEFF
310
052D0053006C006300650002000000FFFEFF0653006C006900630065007300000000000000FFFEFF052D00460061007300630002000000FFFEFF074600610073006300690061007300000000000000FFFEFF052D00460069006C00650002000000FFFEFF0D460069006C006500200063006100620069006E00650074007300
310
000000000000FFFEFF052D004D00610073006B0002000000FFFEFF1241004400540020004D00610073006B0069006E00670020004F0062006A00650063007400000000000000FFFEFF052D004A0061006D00620002000000FFFEFF1544006F006F007200200061006E0064002000770069006E0064006F00770020006A0061
310
006D0062007300000000000000FFFEFF052D005300690067006E0002000000FFFEFF055300690067006E007300000000000000FFFEFF052D0046006E007300680002000000FFFEFF08460069006E0069007300680065007300000000000000FFFEFF052D00530063006800640002000000FFFEFF0953006300680065006400
310
75006C0065007300000000000000FFFEFF052D00500072006800740002000000FFFEFF0E5000610072007400690061006C002000680065006900670068007400000000000000FFFEFF052D00470072007000730002000000FFFEFF06470072006F00750070007300000000000000FFFEFF052D00540068006C006400020000
310
00FFFEFF0A5400680072006500730068006F006C0064007300000000000000FFFEFF052D005300630072006E0002000000FFFEFF14530063007200650065006E006500640020004200610063006B00670072006F0075006E0064007300000000000000FFFEFF052D0043006F006D00700002000000FFFEFF1349006E007400
310
650072006E0061006C00200063006F006D0070006F006E0065006E0074007300000000000000FFFEFF052D005400690074006C0002000000FFFEFF18440072006100770069006E00670020006F0072002000640065007400610069006C0020007400690074006C0065007300000000000000FFFEFF052D0054006500780074
310
0002000000FFFEFF045400650078007400000000000000FFFEFF052D004D00610072006B0002000000FFFEFF1D4D00610072006B006500720073002C00200062007200650061006B0020006D00610072006B0073002C0020006C00650061006400650072007300000000000000FFFEFF052D00460075006C006C0002000000
310
FFFEFF0B460075006C006C002D00680065006900670068007400000000000000FFFEFF052D00450076007400720002000000FFFEFF1B45006C0065007600610074006F00720020006300610072007300200061006E0064002000650071007500690070006D0065006E007400000000000000FFFEFF052D0053007000630065
310
0002000000FFFEFF0553007000610063006500000000000000FFFEFF052D00530075007300700002000000FFFEFF12530075007300700065006E00640065006400200065006C0065006D0065006E0074007300000000000000FFFEFF052D00540065006500730002000000FFFEFF094D00610069006E002000740065006500
310
7300000000000000FFFEFF052D00460069007800740002000000FFFEFF1170006C0075006D00620069006E006700200066006900780074007500720065007300000000000000FFFEFF052D00520065006600720002000000FFFEFF195200650066006500720065006E00630065002C002000650078007400650072006E0061
310
006C002000660069006C0065007300000000000000FFFEFF052D004C00610062006C0002000000FFFEFF064C006100620065006C007300000000000000FFFEFF052D004C0069007400650002000000FFFEFF084C00690067006800740069006E006700000000000000FFFEFF052D00480065007600790002000000FFFEFF1A
310
4800650061007600790020007700650069006700680074002000670072006100700068006900630020006C0069006E0065007300000000000000FFFEFF052D00480065006100640002000000FFFEFF1744006F006F007200200061006E0064002000770069006E0064006F0077002000680065006100640065007200730000
310
0000000000FFFEFF052D004C00650067006E0002000000FFFEFF144C006500670065006E00640073002C002000530079006D0062006F006C0020006B00650079007300000000000000FFFEFF052D004B00650079006E0002000000FFFEFF084B00650079006E006F00740065007300000000000000FFFEFF052D0046006900
310
7800640002000000FFFEFF0F460069007800650064002000650071007500690070006D0065006E007400000000000000FFFEFF052D004C00650076006C0002000000FFFEFF274C006500760065006C0020006300680061006E006700650073002C002000720061006D00700073002C00200070006900740073002C00200064
310
0065007000720065007300730069006F006E007300000000000000FFFEFF052D004D00650064006D0002000000FFFEFF1B4D0065006400690075006D0020007700650069006700680074002000670072006100700068006900630020006C0069006E0065007300000000000000FFFEFF052D0042006C006F00770002000000
310
FFFEFF0E45006C0065006D0065006E00740073002000620065006C006F007700000000000000FFFEFF052D00410063006300730002000000FFFEFF06410063006300650073007300000000000000FFFEFF052D004F0063006300700002000000FFFEFF1A4F00630063007500700061006E00740020006F007200200065006D
310
0070006C006F0079006500650020006E0061006D0065007300000000000000FFFEFF052D00430061007300650002000000FFFEFF08430061007300650077006F0072006B00000000000000FFFEFF052D00520065007600730002000000FFFEFF095200650076006900730069006F006E007300000000000000FFFEFF052D00
310
420072006300650002000000FFFEFF06420072006100630065007300000000000000FFFEFF052D00480069006400650002000000FFFEFF0E480069006400640065006E0020006F0062006A006500630074007300000000000000FFFEFF052D0043006C006E00670002000000FFFEFF074300650069006C0069006E00670000
310
0000000000FFFEFF052D005500740069006C0002000000FFFEFF095500740069006C0069007400690065007300000000000000FFFEFF052D00500061007400740002000000FFFEFF19540065007800740075007200650020006F00720020006800610074006300680020007000610074007400650072006E00730000000000
310
0000FFFEFF052D00430061007600690002000000FFFEFF06430061007600690074007900000000000000FFFEFF052D0050006C006E00740002000000FFFEFF0650006C0061006E0074007300000000000000FFFEFF052D00530074007200730002000000FFFEFF215300740061006900720020007400720065006100640073
310
002C00200065007300630061006C00610074006F00720073002C0020006C00610064006400650072007300000000000000FFFEFF052D00520065007600630002000000FFFEFF0F5200650076006900730069006F006E00200063006C006F00750064007300000000000000FFFEFF052D004D006F007600650002000000FFFE
310
FF124D006F0076006500610062006C0065002000650071007500690070006D0065006E007400000000000000FFFEFF052D005000650070006C0002000000FFFEFF06500065006F0070006C006500000000000000FFFEFF052D00440065006D006F0002000000FFFEFF0A440065006D006F006C006900740069006F006E0000
310
0000000000FFFEFF052D00430075007200740002000000FFFEFF0C4300750072007400610069006E002000570061006C006C00000000000000FFFEFF052D005700640077006B0002000000FFFEFF164100720063006800690074006500630074007500720061006C00200077006F006F00640077006F0072006B0000000000
310
0000FFFEFF052D004E006F007400650002000000FFFEFF054E006F00740065007300000000000000FFFEFF052D004F0076006800640002000000FFFEFF084F007600650072006800650061006400000000000000FFFEFF052D00530075006200740002000000FFFEFF14530075006200740072006100630074006900760065
310
00200065006C0065006D0065006E0074007300000000000000FFFEFF052D00530044004600460002000000FFFEFF1053007500700070006C0079002000640069006600660075007300650072007300000000000000FFFEFF052D00530074006F00720002000000FFFEFF19530079007300740065006D002000730074006F00
310
7200610067006500200063006F006D0070006F006E0065006E0074007300000000000000FFFEFF052D004900640065006E0002000000FFFEFF134900640065006E00740069006600690063006100740069006F006E0020005400610067007300000000000000FFFEFF052D004800720061006C0002000000FFFEFF16480061
310
006E0064007200610069006C0073002C0020006700750061007200640020007200610069006C007300000000000000FFFEFF052D00570069006400650002000000FFFEFF19570069006400650020007700650069006700680074002000670072006100700068006900630020006C0069006E0065007300000000000000FFFE
310
FF052D004D0061007300730002000000FFFEFF104D0061007300730069006E006700200045006C0065006D0065006E0074007300000000000000FFFEFF052D004C0069006E00650002000000FFFEFF0D44006500660069006E0069006E00670020004C0069006E006500000000000000FFFEFF052D00560069006500770002
310
000000FFFEFF13560069006500770070006F0072007400200044006500660069006E006900740069006F006E00000000000000FFFEFF052D0050006B006E00670002000000FFFEFF075000610072006B0069006E006700000000000000FFFEFF052D00520044004600460002000000FFFEFF14520065007400750072006E00
310
20006100690072002000640069006600660075007300650072007300000000000000FFFEFF052D00530065006100740002000000FFFEFF07530065006100740069006E006700000000000000FFFEFF052D0050006E006C00730002000000FFFEFF0D530079007300740065006D002000700061006E0065006C007300000000
310
000000FFFEFF052D004D0061007400630002000000FFFEFF0B4D00610074006300680020006C0069006E0065007300000000000000FFFEFF052D00410064007400760002000000FFFEFF1141006400640069007400690076006500200065006C0065006D0065006E0074007300000000000000FFFEFF052D00430068006100
310
730002000000FFFEFF0543006800610073006500000000000000FFFEFF052D005300700063006C0002000000FFFEFF0B5300700065006300690061006C007400690065007300000000000000FFFEFF052D00470072006900640002000000FFFEFF044700720069006400000000000000FFFEFF052D004E00690063006E0002
310
000000FFFEFF0F4E006F007400200069006E00200063006F006E0074007200610063007400000000000000FFFEFF052D004D0063007500740002000000FFFEFF164D00610069006E00200063007500740020006C0069006E006500200065006C0065006D0065006E0074007300000000000000FFFEFF052D00460069007200
310
650002000000FFFEFF0A46006900720065002000770061006C006C007300000000000000FFFEFF052D00530069006C006C0002000000FFFEFF0C570069006E0064006F0077002000730069006C006C007300000000000000FFFEFF052D005400700074006E0002000000FFFEFF1154006F0069006C00650074002000700061
310
00720074006900740069006F006E007300000000000000FFFEFF052D00520069007300720002000000FFFEFF0C530074006100690072002000720069007300650072007300000000000000FFFEFF052D004F0074006C006E0002000000FFFEFF074F00750074006C0069006E006500000000000000FFFEFF052D0054007400
310
6C00620002000000FFFEFF1642006F007200640065007200200061006E00640020007400690074006C006500200062006C006F0063006B000000000000000180FFFEFF074D0069006E006F0072002000320005000000004164642062656C6F77207468652073656C6563746564206974656DFFFEFF001600FFFEFF052D0041
310
0062006F00760002000000FFFEFF0E45006C0065006D0065006E00740073002000610062006F0076006500000000000000FFFEFF052D00420064007200790002000000FFFEFF0D4500640067006500200062006F0075006E006400610072007900000000000000FFFEFF052D005400680069006E0002000000FFFEFF0E4D00
310
69006E006F00720020006C0069006E00650077006F0072006B00000000000000FFFEFF052D004E0070006C00740002000000FFFEFF154E006F006E002D0070006C006F007400740069006E006700200065006C0065006D0065006E0074007300000000000000FFFEFF052D005200650066006C0002000000FFFEFF0F520065
310
0066006C0065006300740065006400200050006C0061006E007300000000000000FFFEFF052D00440069006D00730002000000FFFEFF0A440069006D0065006E00730069006F006E007300000000000000FFFEFF052D005300630061006C0002000000FFFEFF10470072006100700068006900630061006C00200053006300
310
61006C0065007300000000000000FFFEFF052D0053006C006300650002000000FFFEFF0653006C006900630065007300000000000000FFFEFF052D0047006C0061007A0002000000FFFEFF0747006C0061007A0069006E006700000000000000FFFEFF052D00460061007300630002000000FFFEFF06460061007300630069
310
006100000000000000FFFEFF052D00470072007000730002000000FFFEFF06470072006F00750070007300000000000000FFFEFF052D005400690074006C0002000000FFFEFF065400690074006C0065007300000000000000FFFEFF052D00530066006900740002000000FFFEFF0653006F00660066006900740000000000
310
0000FFFEFF052D00500061007400740002000000FFFEFF0E4800610074006300680020007000610074007400650072006E007300000000000000FFFEFF052D00480069006400650002000000FFFEFF0F480069006400640065006E00200065006C0065006D0065006E0074007300000000000000FFFEFF052D004E006F0074
310
00650002000000FFFEFF16470065006E006500720061006C0020005400650078007400200061006E00640020004E006F00740065007300000000000000FFFEFF052D0055006E006900740002000000FFFEFF0455006E0069007400000000000000FFFEFF052D004900640065006E0002000000FFFEFF0A4900640065006E00
310
740069006600690065007200000000000000FFFEFF052D004C0069006E00650002000000FFFEFF10470065006E006500720061006C0020006C0069006E00650077006F0072006B00000000000000FFFEFF052D00530069006C006C0002000000FFFEFF05530069006C006C007300000000000000FFFEFF052D005200690073
310
00720002000000FFFEFF06520069007300650072007300000000000000FFFEFF052D004F0074006C006E0002000000FFFEFF074F00750074006C0069006E0065000000000000000180FFFEFF06530074006100740075007300060000000000000000A434770470040000B10000005073770400000000050000FFFEFF000F00
310
FFFEFF022D00310002000000FFFEFF075000680061007300650020003100000000000000FFFEFF022D00320002000000FFFEFF075000680061007300650020003200000000000000FFFEFF022D00540002000000FFFEFF0E540065006D0070006F007200610072007900200077006F0072006B00000000000000FFFEFF022D
310
00330002000000FFFEFF075000680061007300650020003300000000000000FFFEFF022D00440002000000FFFEFF144500780069007300740069006E006700200074006F002000640065006D006F006C00690073006800000000000000FFFEFF022D00340002000000FFFEFF07500068006100730065002000340000000000
310
0000FFFEFF022D00450002000000FFFEFF124500780069007300740069006E006700200074006F002000720065006D00610069006E00000000000000FFFEFF022D00350002000000FFFEFF075000680061007300650020003500000000000000FFFEFF022D00460002000000FFFEFF0B460075007400750072006500200077
310
006F0072006B00000000000000FFFEFF022D00360002000000FFFEFF075000680061007300650020003600000000000000FFFEFF022D00370002000000FFFEFF075000680061007300650020003700000000000000FFFEFF022D00380002000000FFFEFF075000680061007300650020003800000000000000FFFEFF022D00
310
390002000000FFFEFF075000680061007300650020003900000000000000FFFEFF022D004D0002000000FFFEFF114900740065006D007300200074006F0020006200650020006D006F00760065006400000000000000FFFEFF022D004E0002000000FFFEFF084E0065007700200077006F0072006B000000000000000600FF
310
FF04001A004163416563556B4C61796572436F6D706F6E656E744669656C64FFFEFF174400690073006300690070006C0069006E0065002000440065007300690067006E00610074006F0072002000310001000000FFFEFF0440002C0040004000000000000100000000FFFEFF014100000000000780FFFEFF174400690073
310
006300690070006C0069006E0065002000440065007300690067006E00610074006F0072002000320001000000FFFEFF0440002C0040004000010000000100000000FFFEFF014400000000000780FFFEFF054D0061006A006F00720005000000FFFEFF052D00400040004000400000000000010000002DFFFEFF052D005700
310
61006C006C00000000000780FFFEFF064D0069006E006F007200310005000000FFFEFF022D002A0001000000010000002DFFFEFF052D004900640065006E00000000000780FFFEFF064D0069006E006F007200320005000000FFFEFF022D002A0001000000010000002DFFFEFF052D005400650078007400000000000780FF
310
FEFF0653007400610074007500730002000000FFFEFF022D002A0001000000010000002DFFFEFF022D004E0000000000050000010203040500FFFEFF00FFFEFF0320002D002000FFFEFF022C002000FFFEFF012000FFFEFF0320002D002000FFFEFF00
  0
XRECORD
  5
13A2E
102
{ACAD_REACTORS
330
13A2D
102
}
330
13A2D
100
AcDbXrecord
280
     1
102
SHADEPLOT
 70
     0
102
SHADEPLOTRESLEVEL
 70
     2
102
SHADEPLOTCUSTOMDPI
 70
   300
  0
XRECORD
  5
13A2C
102
{ACAD_REACTORS
330
13A2B
102
}
330
13A2B
100
AcDbXrecord
280
     1
102
SHADEPLOT
 70
     1
102
SHADEPLOTRESLEVEL
 70
     2
102
SHADEPLOTCUSTOMDPI
 70
   300
  0
XRECORD
  5
13A33
102
{ACAD_REACTORS
330
13A32
102
}
330
13A32
100
AcDbXrecord
280
     1
102
MATERIAL
148
0.0
149
0.0
149
0.0
 93
        0
 94
       63
282
     0
 72
     1
 77
     1
171
     1
175
     1
179
     1
273
     0
  0
XRECORD
  5
13A31
102
{ACAD_REACTORS
330
13A30
102
}
330
13A30
100
AcDbXrecord
280
     1
102
MATERIAL
148
0.0
149
0.0
149
0.0
 93
        0
 94
       63
282
     0
 72
     1
 77
     1
171
     1
175
     1
179
     1
273
     0
  0
XRECORD
  5
13A35
102
{ACAD_REACTORS
330
13A34
102
}
330
13A34
100
AcDbXrecord
280
     1
102
MATERIAL
148
0.0
149
0.0
149
0.0
 93
        0
 94
       63
282
     0
 72
     1
 77
     1
171
     1
175
     1
179
     1
273
     0
  0
CELLSTYLEMAP
  5
13A29
102
{ACAD_REACTORS
330
1362A
102
}
330
1362A
100
AcDbCellStyleMap
 90
        3
300
CELLSTYLE
  1
TABLEFORMAT_BEGIN
 90
        5
170
     1
 91
        0
 92
    32768
 62
   257
 93
        1
300
CONTENTFORMAT
  1
CONTENTFORMAT_BEGIN
 90
        0
 91
        0
 92
        4
 93
        0
300

 40
0.0
140
1.0
 94
        5
 62
     0
340
15
144
0.25
309
CONTENTFORMAT_END
171
     0
 94
        6
 95
        1
302
GRIDFORMAT
  1
GRIDFORMAT_BEGIN
 90
        0
 91
        1
 62
     0
 92
       -2
340
0
 93
        0
 40
0.045
309
GRIDFORMAT_END
 95
        2
302
GRIDFORMAT
  1
GRIDFORMAT_BEGIN
 90
        0
 91
        1
 62
     0
 92
       -2
340
0
 93
        0
 40
0.045
309
GRIDFORMAT_END
 95
        4
302
GRIDFORMAT
  1
GRIDFORMAT_BEGIN
 90
        0
 91
        1
 62
     0
 92
       -2
340
0
 93
        0
 40
0.045
309
GRIDFORMAT_END
 95
        8
302
GRIDFORMAT
  1
GRIDFORMAT_BEGIN
 90
        0
 91
        1
 62
     0
 92
       -2
340
0
 93
        0
 40
0.045
309
GRIDFORMAT_END
 95
       16
302
GRIDFORMAT
  1
GRIDFORMAT_BEGIN
 90
        0
 91
        1
 62
     0
 92
       -2
340
0
 93
        0
 40
0.045
309
GRIDFORMAT_END
 95
       32
302
GRIDFORMAT
  1
GRIDFORMAT_BEGIN
 90
        0
 91
        1
 62
     0
 92
       -2
340
0
 93
        0
 40
0.045
309
GRIDFORMAT_END
309
TABLEFORMAT_END
  1
CELLSTYLE_BEGIN
 90
        1
 91
        1
300
_TITLE
309
CELLSTYLE_END
300
CELLSTYLE
  1
TABLEFORMAT_BEGIN
 90
        5
170
     1
 91
        0
 92
        0
 62
   257
 93
        1
300
CONTENTFORMAT
  1
CONTENTFORMAT_BEGIN
 90
        0
 91
        0
 92
        4
 93
        0
300

 40
0.0
140
1.0
 94
        5
 62
     0
340
15
144
0.18
309
CONTENTFORMAT_END
171
     0
 94
        6
 95
        1
302
GRIDFORMAT
  1
GRIDFORMAT_BEGIN
 90
        0
 91
        1
 62
     0
 92
       -2
340
0
 93
        0
 40
0.045
309
GRIDFORMAT_END
 95
        2
302
GRIDFORMAT
  1
GRIDFORMAT_BEGIN
 90
        0
 91
        1
 62
     0
 92
       -2
340
0
 93
        0
 40
0.045
309
GRIDFORMAT_END
 95
        4
302
GRIDFORMAT
  1
GRIDFORMAT_BEGIN
 90
        0
 91
        1
 62
     0
 92
       -2
340
0
 93
        0
 40
0.045
309
GRIDFORMAT_END
 95
        8
302
GRIDFORMAT
  1
GRIDFORMAT_BEGIN
 90
        0
 91
        1
 62
     0
 92
       -2
340
0
 93
        0
 40
0.045
309
GRIDFORMAT_END
 95
       16
302
GRIDFORMAT
  1
GRIDFORMAT_BEGIN
 90
        0
 91
        1
 62
     0
 92
       -2
340
0
 93
        0
 40
0.045
309
GRIDFORMAT_END
 95
       32
302
GRIDFORMAT
  1
GRIDFORMAT_BEGIN
 90
        0
 91
        1
 62
     0
 92
       -2
340
0
 93
        0
 40
0.045
309
GRIDFORMAT_END
309
TABLEFORMAT_END
  1
CELLSTYLE_BEGIN
 90
        2
 91
        1
300
_HEADER
309
CELLSTYLE_END
300
CELLSTYLE
  1
TABLEFORMAT_BEGIN
 90
        5
170
     1
 91
        0
 92
        0
 62
   257
 93
        1
300
CONTENTFORMAT
  1
CONTENTFORMAT_BEGIN
 90
        0
 91
        0
 92
        4
 93
        0
300

 40
0.0
140
1.0
 94
        2
 62
     0
340
15
144
0.18
309
CONTENTFORMAT_END
171
     0
 94
        6
 95
        1
302
GRIDFORMAT
  1
GRIDFORMAT_BEGIN
 90
        0
 91
        1
 62
     0
 92
       -2
340
0
 93
        0
 40
0.045
309
GRIDFORMAT_END
 95
        2
302
GRIDFORMAT
  1
GRIDFORMAT_BEGIN
 90
        0
 91
        1
 62
     0
 92
       -2
340
0
 93
        0
 40
0.045
309
GRIDFORMAT_END
 95
        4
302
GRIDFORMAT
  1
GRIDFORMAT_BEGIN
 90
        0
 91
        1
 62
     0
 92
       -2
340
0
 93
        0
 40
0.045
309
GRIDFORMAT_END
 95
        8
302
GRIDFORMAT
  1
GRIDFORMAT_BEGIN
 90
        0
 91
        1
 62
     0
 92
       -2
340
0
 93
        0
 40
0.045
309
GRIDFORMAT_END
 95
       16
302
GRIDFORMAT
  1
GRIDFORMAT_BEGIN
 90
        0
 91
        1
 62
     0
 92
       -2
340
0
 93
        0
 40
0.045
309
GRIDFORMAT_END
 95
       32
302
GRIDFORMAT
  1
GRIDFORMAT_BEGIN
 90
        0
 91
        1
 62
     0
 92
       -2
340
0
 93
        0
 40
0.045
309
GRIDFORMAT_END
309
TABLEFORMAT_END
  1
CELLSTYLE_BEGIN
 90
        3
 91
        2
300
_DATA
309
CELLSTYLE_END
  0
XRECORD
  5
13A2F
102
{ACAD_REACTORS
330
1362A
102
}
330
1362A
100
AcDbXrecord
280
     1
102
ACAD_ROUNDTRIP_PRE2007_TABLESTYLE
 90
        4
 91
        0
  1

 92
        4
 93
        0
  2

 94
        4
 95
        0
  3

  0
ENDSEC
  0
EOF
