  0
SECTION
  2
HEADER
  9
$ACADVER
  1
AC1015
  9
$ACADMAINTVER
 70
    20
  9
$DWGCODEPAGE
  3
ANSI_1250
  9
$INSBASE
 10
215187.233673673
 20
127657.5168525552
 30
0.0
  9
$EXTMIN
 10
215179.8459445826
 20
127651.5804863085
 30
-0.0015258207003583
  9
$EXTMAX
 10
225394.0788508593
 20
141681.8396902825
 30
0.0000000349246037
  9
$LIMMIN
 10
0.0
 20
0.0
  9
$LIMMAX
 10
420.0
 20
297.0
  9
$ORTHOMODE
 70
     1
  9
$REGENMODE
 70
     1
  9
$FILLMODE
 70
     1
  9
$QTEXTMODE
 70
     0
  9
$MIRRTEXT
 70
     0
  9
$LTSCALE
 40
75.0
  9
$ATTMODE
 70
     1
  9
$TEXTSIZE
 40
20.0
  9
$TRACEWID
 40
1.0
  9
$TEXTSTYLE
  7
ROMANS
  9
$CLAYER
  8
0Wymiary-PL
  9
$CELTYPE
  6
ByLayer
  9
$CECOLOR
 62
   256
  9
$CELTSCALE
 40
1.0
  9
$DISPSILH
 70
     0
  9
$DIMSCALE
 40
1.0
  9
$DIMASZ
 40
30.0
  9
$DIMEXO
 40
43.0
  9
$DIMDLI
 40
0.0
  9
$DIMRND
 40
0.5
  9
$DIMDLE
 40
12.0
  9
$DIMEXE
 40
13.0
  9
$DIMTP
 40
0.0
  9
$DIMTM
 40
0.0
  9
$DIMTXT
 40
80.0
  9
$DIMCEN
 40
0.0
  9
$DIMTSZ
 40
0.0
  9
$DIMTOL
 70
     0
  9
$DIMLIM
 70
     0
  9
$DIMTIH
 70
     0
  9
$DIMTOH
 70
     0
  9
$DIMSE1
 70
     1
  9
$DIMSE2
 70
     1
  9
$DIMTAD
 70
     0
  9
$DIMZIN
 70
    12
  9
$DIMBLK
  1
B-DIM
  9
$DIMASO
 70
     1
  9
$DIMSHO
 70
     1
  9
$DIMPOST
  1

  9
$DIMAPOST
  1

  9
$DIMALT
 70
     0
  9
$DIMALTD
 70
     2
  9
$DIMALTF
 40
25.4
  9
$DIMLFAC
 40
1.0
  9
$DIMTOFL
 70
     1
  9
$DIMTVP
 40
1.0
  9
$DIMTIX
 70
     1
  9
$DIMSOXD
 70
     0
  9
$DIMSAH
 70
     0
  9
$DIMBLK1
  1

  9
$DIMBLK2
  1

  9
$DIMSTYLE
  2
500
  9
$DIMCLRD
 70
     1
  9
$DIMCLRE
 70
     1
  9
$DIMCLRT
 70
    10
  9
$DIMTFAC
 40
1.0
  9
$DIMGAP
 40
0.0
  9
$DIMJUST
 70
     0
  9
$DIMSD1
 70
     0
  9
$DIMSD2
 70
     0
  9
$DIMTOLJ
 70
     1
  9
$DIMTZIN
 70
     0
  9
$DIMALTZ
 70
     0
  9
$DIMALTTZ
 70
     0
  9
$DIMUPT
 70
     0
  9
$DIMDEC
 70
     1
  9
$DIMTDEC
 70
     1
  9
$DIMALTU
 70
     2
  9
$DIMALTTD
 70
     2
  9
$DIMTXSTY
  7
ROMANS
  9
$DIMAUNIT
 70
     0
  9
$DIMADEC
 70
     0
  9
$DIMALTRND
 40
0.0
  9
$DIMAZIN
 70
     0
  9
$DIMDSEP
 70
    46
  9
$DIMATFIT
 70
     3
  9
$DIMFRAC
 70
     0
  9
$DIMLDRBLK
  1
B-DIM
  9
$DIMLUNIT
 70
     2
  9
$DIMLWD
 70
    -2
  9
$DIMLWE
 70
    -2
  9
$DIMTMOVE
 70
     2
  9
$LUNITS
 70
     2
  9
$LUPREC
 70
     1
  9
$SKETCHINC
 40
1.0
  9
$FILLETRAD
 40
0.0
  9
$AUNITS
 70
     0
  9
$AUPREC
 70
     0
  9
$MENU
  1
.
  9
$ELEVATION
 40
0.0
  9
$PELEVATION
 40
0.0
  9
$THICKNESS
 40
0.0
  9
$LIMCHECK
 70
     0
  9
$CHAMFERA
 40
0.0
  9
$CHAMFERB
 40
0.0
  9
$CHAMFERC
 40
20.0
  9
$CHAMFERD
 40
0.0
  9
$SKPOLY
 70
     0
  9
$TDCREATE
 40
2452027.670547454
  9
$TDUCREATE
 40
2452027.587214121
  9
$TDUPDATE
 40
2454957.573834445
  9
$TDUUPDATE
 40
2454957.490501111
  9
$TDINDWG
 40
7.7748779051
  9
$TDUSRTIMER
 40
7.7748779051
  9
$USRTIMER
 70
     1
  9
$ANGBASE
 50
0.0
  9
$ANGDIR
 70
     0
  9
$PDMODE
 70
     0
  9
$PDSIZE
 40
0.0
  9
$PLINEWID
 40
60.0
  9
$SPLFRAME
 70
     0
  9
$SPLINETYPE
 70
     6
  9
$SPLINESEGS
 70
     8
  9
$HANDSEED
  5
26DF
  9
$SURFTAB1
 70
     6
  9
$SURFTAB2
 70
     6
  9
$SURFTYPE
 70
     6
  9
$SURFU
 70
     6
  9
$SURFV
 70
     6
  9
$UCSBASE
  2

  9
$UCSNAME
  2

  9
$UCSORG
 10
0.0
 20
0.0
 30
0.0
  9
$UCSXDIR
 10
1.0
 20
0.0
 30
0.0
  9
$UCSYDIR
 10
0.0
 20
1.0
 30
0.0
  9
$UCSORTHOREF
  2

  9
$UCSORTHOVIEW
 70
     0
  9
$UCSORGTOP
 10
0.0
 20
0.0
 30
0.0
  9
$UCSORGBOTTOM
 10
0.0
 20
0.0
 30
0.0
  9
$UCSORGLEFT
 10
0.0
 20
0.0
 30
0.0
  9
$UCSORGRIGHT
 10
0.0
 20
0.0
 30
0.0
  9
$UCSORGFRONT
 10
0.0
 20
0.0
 30
0.0
  9
$UCSORGBACK
 10
0.0
 20
0.0
 30
0.0
  9
$PUCSBASE
  2

  9
$PUCSNAME
  2

  9
$PUCSORG
 10
0.0
 20
0.0
 30
0.0
  9
$PUCSXDIR
 10
1.0
 20
0.0
 30
0.0
  9
$PUCSYDIR
 10
0.0
 20
1.0
 30
0.0
  9
$PUCSORTHOREF
  2

  9
$PUCSORTHOVIEW
 70
     0
  9
$PUCSORGTOP
 10
0.0
 20
0.0
 30
0.0
  9
$PUCSORGBOTTOM
 10
0.0
 20
0.0
 30
0.0
  9
$PUCSORGLEFT
 10
0.0
 20
0.0
 30
0.0
  9
$PUCSORGRIGHT
 10
0.0
 20
0.0
 30
0.0
  9
$PUCSORGFRONT
 10
0.0
 20
0.0
 30
0.0
  9
$PUCSORGBACK
 10
0.0
 20
0.0
 30
0.0
  9
$USERI1
 70
     0
  9
$USERI2
 70
     0
  9
$USERI3
 70
     0
  9
$USERI4
 70
     0
  9
$USERI5
 70
     0
  9
$USERR1
 40
0.0
  9
$USERR2
 40
0.0
  9
$USERR3
 40
0.0
  9
$USERR4
 40
0.0
  9
$USERR5
 40
0.0
  9
$WORLDVIEW
 70
     1
  9
$SHADEDGE
 70
     3
  9
$SHADEDIF
 70
    70
  9
$TILEMODE
 70
     1
  9
$MAXACTVP
 70
    64
  9
$PINSBASE
 10
0.0
 20
0.0
 30
0.0
  9
$PLIMCHECK
 70
     0
  9
$PEXTMIN
 10
1.000000000000000E+20
 20
1.000000000000000E+20
 30
1.000000000000000E+20
  9
$PEXTMAX
 10
-1.000000000000000E+20
 20
-1.000000000000000E+20
 30
-1.000000000000000E+20
  9
$PLIMMIN
 10
0.0
 20
0.0
  9
$PLIMMAX
 10
420.0
 20
297.0
  9
$UNITMODE
 70
     0
  9
$VISRETAIN
 70
     1
  9
$PLINEGEN
 70
     0
  9
$PSLTSCALE
 70
     1
  9
$TREEDEPTH
 70
  3020
  9
$CMLSTYLE
  2
Standard
  9
$CMLJUST
 70
     0
  9
$CMLSCALE
 40
20.0
  9
$PROXYGRAPHICS
 70
     1
  9
$MEASUREMENT
 70
     0
  9
$CELWEIGHT
370
    -1
  9
$ENDCAPS
280
     0
  9
$JOINSTYLE
280
     0
  9
$LWDISPLAY
290
     0
  9
$INSUNITS
 70
     5
  9
$HYPERLINKBASE
  1

  9
$STYLESHEET
  1
100.ctb
  9
$XEDIT
290
     1
  9
$CEPSNTYPE
380
     0
  9
$PSTYLEMODE
290
     1
  9
$FINGERPRINTGUID
  2
{938A2469-3AF5-11D5-BC95-0050BABCE9EC}
  9
$VERSIONGUID
  2
{1B2DE6C1-22A9-4B49-B79A-EF8C81F5CB76}
  9
$EXTNAMES
290
     1
  9
$PSVPSCALE
 40
0.0
  9
$OLESTARTUP
290
     0
  0
ENDSEC
  0
SECTION
  2
CLASSES
  0
CLASS
  1
ACDBDICTIONARYWDFLT
  2
AcDbDictionaryWithDefault
  3
ObjectDBX Classes
 90
        0
280
     0
281
     0
  0
CLASS
  1
ACDBPLACEHOLDER
  2
AcDbPlaceHolder
  3
ObjectDBX Classes
 90
        0
280
     0
281
     0
  0
CLASS
  1
LAYOUT
  2
AcDbLayout
  3
ObjectDBX Classes
 90
        0
280
     0
281
     0
  0
CLASS
  1
DICTIONARYVAR
  2
AcDbDictionaryVar
  3
ObjectDBX Classes
 90
        0
280
     0
281
     0
  0
CLASS
  1
SORTENTSTABLE
  2
AcDbSortentsTable
  3
ObjectDBX Classes
 90
        0
280
     0
281
     0
  0
CLASS
  1
AEC_VARS_DWG_SETUP
  2
AecDbVarsDwgSetup
  3
AecBase50|Product Desc: Autodesk Architectural Desktop 2007 |Company: Autodesk,Inc. |WEB Address: www.autodesk.com
 90
    32897
280
     0
281
     0
  0
CLASS
  1
AEC_DISP_REP_CONFIG
  2
AecDbDispRepConfig
  3
AecBase50|Product Desc: Autodesk Architectural Desktop 2007 |Company: Autodesk,Inc. |WEB Address: www.autodesk.com
 90
    32897
280
     0
281
     0
  0
CLASS
  1
AEC_DISP_REP_SET
  2
AecDbDispRepSet
  3
AecBase50|Product Desc: Autodesk Architectural Desktop 2007 |Company: Autodesk,Inc. |WEB Address: www.autodesk.com
 90
    32897
280
     0
281
     0
  0
CLASS
  1
AEC_DISP_REP_2D_SECTION
  2
AecDbDispRep2dSection
  3
AecBase50|Product Desc: Autodesk Architectural Desktop 2007 |Company: Autodesk,Inc. |WEB Address: www.autodesk.com
 90
    32897
280
     0
281
     0
  0
CLASS
  1
AEC_DISP_REP_ANCHOR_BUB_TO_GRID
  2
AecDbDispRepAnchorBubToGrid
  3
AecStructureBase50|Product Desc: Autodesk Architectural Desktop 2007 |Company: Autodesk,Inc. |WEB Address: www.autodesk.com
 90
    32897
280
     0
281
     0
  0
CLASS
  1
AEC_DISP_REP_ANCHOR_BUB_TO_GRID_MODEL
  2
AecDbDispRepAnchorBubToGridMdl
  3
AecStructureBase50|Product Desc: Autodesk Architectural Desktop 2007 |Company: Autodesk,Inc. |WEB Address: www.autodesk.com
 90
    32897
280
     0
281
     0
  0
CLASS
  1
AEC_DISP_REP_ANCHOR_ENT_TO_NODE
  2
AecDbDispRepAnchorEntToNode
  3
AecBase50|Product Desc: Autodesk Architectural Desktop 2007 |Company: Autodesk,Inc. |WEB Address: www.autodesk.com
 90
    32897
280
     0
281
     0
  0
CLASS
  1
AEC_DISP_REP_ANCHOR_TAG_TO_ENT
  2
AecDbDispRepAnchorTagToEnt
  3
AecScheduleData50|Product Desc: Autodesk Architectural Desktop 2007 |Company: Autodesk,Inc. |WEB Address: www.autodesk.com
 90
    32897
280
     0
281
     0
  0
CLASS
  1
AEC_DISP_REP_AREA
  2
AecDbDispRepArea
  3
AecAreaCalculationBase50|Product Desc: Autodesk Architectural Desktop 2007 |Company: Autodesk,Inc. |WEB Address: www.autodesk.com
 90
    32897
280
     0
281
     0
  0
CLASS
  1
AEC_DISP_REP_AREA_DECOMPOSED
  2
AecDbDispRepAreaDecomposed
  3
AecAreaCalculationBase50|Product Desc: Autodesk Architectural Desktop 2007 |Company: Autodesk,Inc. |WEB Address: www.autodesk.com
 90
    32897
280
     0
281
     0
  0
CLASS
  1
AEC_DISP_REP_AREAGROUP
  2
AecDbDispRepAreaGroup
  3
AecAreaCalculationBase50|Product Desc: Autodesk Architectural Desktop 2007 |Company: Autodesk,Inc. |WEB Address: www.autodesk.com
 90
    32897
280
     0
281
     0
  0
CLASS
  1
AEC_DISP_REP_BDG_ELEVLINE_MODEL
  2
AecDbDispRepBdgElevLineModel
  3
AecArchBase50|Product Desc: Autodesk Architectural Desktop 2007 |Company: Autodesk,Inc. |WEB Address: www.autodesk.com
 90
    32897
280
     0
281
     0
  0
CLASS
  1
AEC_DISP_REP_BDG_SECTIONLINE_PLAN
  2
AecDbDispRepBdgElevLinePlan
  3
AecArchBase50|Product Desc: Autodesk Architectural Desktop 2007 |Company: Autodesk,Inc. |WEB Address: www.autodesk.com
 90
    32897
280
     0
281
     0
  0
CLASS
  1
AEC_DISP_REP_BDG_SECTIONLINE_MODEL
  2
AecDbDispRepBdgSectionLineModel
  3
AecArchBase50|Product Desc: Autodesk Architectural Desktop 2007 |Company: Autodesk,Inc. |WEB Address: www.autodesk.com
 90
    32897
280
     0
281
     0
  0
CLASS
  1
AEC_DISP_REP_BDG_SECTIONLINE_PLAN
  2
AecDbDispRepBdgSectionLinePlan
  3
AecArchBase50|Product Desc: Autodesk Architectural Desktop 2007 |Company: Autodesk,Inc. |WEB Address: www.autodesk.com
 90
    32897
280
     0
281
     0
  0
CLASS
  1
AEC_DISP_REP_BDG_SECTION_SUBDIV
  2
AecDbDispRepBdgSectionSubDiv
  3
AecArchBase50|Product Desc: Autodesk Architectural Desktop 2007 |Company: Autodesk,Inc. |WEB Address: www.autodesk.com
 90
    32897
280
     0
281
     0
  0
CLASS
  1
AEC_DISP_REP_CAMERA
  2
AecDbDispRepCamera
  3
AecBase50|Product Desc: Autodesk Architectural Desktop 2007 |Company: Autodesk,Inc. |WEB Address: www.autodesk.com
 90
    32897
280
     0
281
     0
  0
CLASS
  1
AEC_DISP_REP_CEILING_GRID
  2
AecDbDispRepCeilingGrid
  3
AecArchBase50|Product Desc: Autodesk Architectural Desktop 2007 |Company: Autodesk,Inc. |WEB Address: www.autodesk.com
 90
    33661
280
     0
281
     0
  0
CLASS
  1
AEC_DISP_REP_CEILING_GRID_MODEL
  2
AecDbDispRepCeilingGridModel
  3
AecArchBase50|Product Desc: Autodesk Architectural Desktop 2007 |Company: Autodesk,Inc. |WEB Address: www.autodesk.com
 90
    32897
280
     0
281
     0
  0
CLASS
  1
AEC_DISP_REP_CEILING_GRID_RCP
  2
AecDbDispRepCeilingGridRcp
  3
AecArchBase50|Product Desc: Autodesk Architectural Desktop 2007 |Company: Autodesk,Inc. |WEB Address: www.autodesk.com
 90
    32897
280
     0
281
     0
  0
CLASS
  1
AEC_DISP_REP_CLIP_VOLUME_MODEL
  2
AecDbDispRepClipVolModel
  3
AecBase50|Product Desc: Autodesk Architectural Desktop 2007 |Company: Autodesk,Inc. |WEB Address: www.autodesk.com
 90
    32897
280
     0
281
     0
  0
CLASS
  1
AEC_DISP_REP_CLIP_VOLUME_PLAN
  2
AecDbDispRepClipVolPlan
  3
AecBase50|Product Desc: Autodesk Architectural Desktop 2007 |Company: Autodesk,Inc. |WEB Address: www.autodesk.com
 90
    32897
280
     0
281
     0
  0
CLASS
  1
AEC_DISP_REP_CLIP_VOLUME_RESULT_SUBDIV
  2
AecDbDispRepClipVolResSubDiv
  3
AecBase50|Product Desc: Autodesk Architectural Desktop 2007 |Company: Autodesk,Inc. |WEB Address: www.autodesk.com
 90
    32897
280
     0
281
     0
  0
CLASS
  1
AEC_DISP_REP_CLIP_VOLUME_RESULT
  2
AecDbDispRepClipVolResult
  3
AecBase50|Product Desc: Autodesk Architectural Desktop 2007 |Company: Autodesk,Inc. |WEB Address: www.autodesk.com
 90
    32897
280
     0
281
     0
  0
CLASS
  1
AEC_DISP_REP_COLUMN_GRID
  2
AecDbDispRepColumnGrid
  3
AecStructureBase50|Product Desc: Autodesk Architectural Desktop 2007 |Company: Autodesk,Inc. |WEB Address: www.autodesk.com
 90
    32897
280
     0
281
     0
  0
CLASS
  1
AEC_DISP_REP_COLUMN_GRID_MODEL
  2
AecDbDispRepColumnGridModel
  3
AecStructureBase50|Product Desc: Autodesk Architectural Desktop 2007 |Company: Autodesk,Inc. |WEB Address: www.autodesk.com
 90
    32897
280
     0
281
     0
  0
CLASS
  1
AEC_DISP_REP_CURTAIN_WALL_LAYOUT_MODEL
  2
AecDbDispRepCurtainWallLayoutModel
  3
AecArchBase50|Product Desc: Autodesk Architectural Desktop 2007 |Company: Autodesk,Inc. |WEB Address: www.autodesk.com
 90
    32897
280
     0
281
     0
  0
CLASS
  1
AEC_DISP_REP_CURTAIN_WALL_LAYOUT_PLAN
  2
AecDbDispRepCurtainWallLayoutPlan
  3
AecArchBase50|Product Desc: Autodesk Architectural Desktop 2007 |Company: Autodesk,Inc. |WEB Address: www.autodesk.com
 90
    32897
280
     0
281
     0
  0
CLASS
  1
AEC_DISP_REP_CURTAIN_WALL_UNIT_MODEL
  2
AecDbDispRepCurtainWallUnitModel
  3
AecArchBase50|Product Desc: Autodesk Architectural Desktop 2007 |Company: Autodesk,Inc. |WEB Address: www.autodesk.com
 90
    32897
280
     0
281
     0
  0
CLASS
  1
AEC_DISP_REP_CURTAIN_WALL_UNIT_PLAN
  2
AecDbDispRepCurtainWallUnitPlan
  3
AecArchBase50|Product Desc: Autodesk Architectural Desktop 2007 |Company: Autodesk,Inc. |WEB Address: www.autodesk.com
 90
    32897
280
     0
281
     0
  0
CLASS
  1
AEC_DB_DISP_REP_DIM_GROUP_PLAN
  2
AecDbDispRepDimGroupPlan
  3
AecArchDACHBase50|Product Desc: Autodesk Architectural Desktop 2007 |Company: Autodesk,Inc. |WEB Address: www.autodesk.com
 90
    32897
280
     0
281
     0
  0
CLASS
  1
AEC_DISP_REP_DOOR_MODEL
  2
AecDbDispRepDoorModel
  3
AecArchBase50|Product Desc: Autodesk Architectural Desktop 2007 |Company: Autodesk,Inc. |WEB Address: www.autodesk.com
 90
    32897
280
     0
281
     0
  0
CLASS
  1
AEC_DISP_REP_DOOR_NOMINAL
  2
AecDbDispRepDoorNominal
  3
AecArchBase50|Product Desc: Autodesk Architectural Desktop 2007 |Company: Autodesk,Inc. |WEB Address: www.autodesk.com
 90
    32897
280
     0
281
     0
  0
CLASS
  1
AEC_DISP_REP_DOOR_PLAN
  2
AecDbDispRepDoorPlan
  3
AecArchBase50|Product Desc: Autodesk Architectural Desktop 2007 |Company: Autodesk,Inc. |WEB Address: www.autodesk.com
 90
    32897
280
     0
281
     0
  0
CLASS
  1
AEC_DISP_REP_EDITINPLACEPROFILE
  2
AecDbDispRepEditInPlaceProfile
  3
AecBase50|Product Desc: Autodesk Architectural Desktop 2007 |Company: Autodesk,Inc. |WEB Address: www.autodesk.com
 90
    32897
280
     0
281
     0
  0
CLASS
  1
AEC_DISP_REP_ENT_REF
  2
AecDbDispRepEntRef
  3
AecBase50|Product Desc: Autodesk Architectural Desktop 2007 |Company: Autodesk,Inc. |WEB Address: www.autodesk.com
 90
    32897
280
     0
281
     0
  0
CLASS
  1
AEC_DISP_REP_LAYOUT_CURVE
  2
AecDbDispRepLayoutCurve
  3
AecBase50|Product Desc: Autodesk Architectural Desktop 2007 |Company: Autodesk,Inc. |WEB Address: www.autodesk.com
 90
    32897
280
     0
281
     0
  0
CLASS
  1
AEC_DISP_REP_LAYOUT_GRID2D
  2
AecDbDispRepLayoutGrid2d
  3
AecBase50|Product Desc: Autodesk Architectural Desktop 2007 |Company: Autodesk,Inc. |WEB Address: www.autodesk.com
 90
    32897
280
     0
281
     0
  0
CLASS
  1
AEC_DISP_REP_LAYOUT_GRID3D
  2
AecDbDispRepLayoutGrid3d
  3
AecBase50|Product Desc: Autodesk Architectural Desktop 2007 |Company: Autodesk,Inc. |WEB Address: www.autodesk.com
 90
    32897
280
     0
281
     0
  0
CLASS
  1
AEC_DISP_REP_MASKBLOCK_REF
  2
AecDbDispRepMaskBlockRef
  3
AecBase50|Product Desc: Autodesk Architectural Desktop 2007 |Company: Autodesk,Inc. |WEB Address: www.autodesk.com
 90
    32897
280
     0
281
     0
  0
CLASS
  1
AEC_DISP_REP_MASKBLOCK_REF_RCP
  2
AecDbDispRepMaskBlockRefRcp
  3
AecArchBase50|Product Desc: Autodesk Architectural Desktop 2007 |Company: Autodesk,Inc. |WEB Address: www.autodesk.com
 90
    32897
280
     0
281
     0
  0
CLASS
  1
AEC_DISP_REP_MASS_ELEM_MODEL
  2
AecDbDispRepMassElemModel
  3
AecBaseEx50|Product Desc: Autodesk Architectural Desktop 2007 |Company: Autodesk,Inc. |WEB Address: www.autodesk.com
 90
    32897
280
     0
281
     0
  0
CLASS
  1
AEC_DISP_REP_MASS_ELEM_SCHEM
  2
AecDbDispRepMassElemSchem
  3
AecBaseEx50|Product Desc: Autodesk Architectural Desktop 2007 |Company: Autodesk,Inc. |WEB Address: www.autodesk.com
 90
    32897
280
     0
281
     0
  0
CLASS
  1
AEC_DISP_REP_MASS_GROUP_MODEL
  2
AecDbDispRepMassGroupModel
  3
AecBaseEx50|Product Desc: Autodesk Architectural Desktop 2007 |Company: Autodesk,Inc. |WEB Address: www.autodesk.com
 90
    32897
280
     0
281
     0
  0
CLASS
  1
AEC_DISP_REP_MASS_GROUP_PLAN
  2
AecDbDispRepMassGroupPlan
  3
AecBaseEx50|Product Desc: Autodesk Architectural Desktop 2007 |Company: Autodesk,Inc. |WEB Address: www.autodesk.com
 90
    32897
280
     0
281
     0
  0
CLASS
  1
AEC_DISP_REP_MATERIAL
  2
AecDbDispRepMaterial
  3
AecBase50|Product Desc: Autodesk Architectural Desktop 2007 |Company: Autodesk,Inc. |WEB Address: www.autodesk.com
 90
    32897
280
     0
281
     0
  0
CLASS
  1
AEC_DISP_REP_MVBLOCK_REF
  2
AecDbDispRepMvBlockRef
  3
AecBase50|Product Desc: Autodesk Architectural Desktop 2007 |Company: Autodesk,Inc. |WEB Address: www.autodesk.com
 90
    32897
280
     0
281
     0
  0
CLASS
  1
AEC_DISP_REP_MVBLOCK_REF_MODEL
  2
AecDbDispRepMvBlockRefModel
  3
AecBase50|Product Desc: Autodesk Architectural Desktop 2007 |Company: Autodesk,Inc. |WEB Address: www.autodesk.com
 90
    32897
280
     0
281
     0
  0
CLASS
  1
AEC_DISP_REP_OPENING
  2
AecDbDispRepOpening
  3
AecArchBase50|Product Desc: Autodesk Architectural Desktop 2007 |Company: Autodesk,Inc. |WEB Address: www.autodesk.com
 90
    32897
280
     0
281
     0
  0
CLASS
  1
AEC_DISP_REP_OPENING_MODEL
  2
AecDbDispRepOpeningModel
  3
AecArchBase50|Product Desc: Autodesk Architectural Desktop 2007 |Company: Autodesk,Inc. |WEB Address: www.autodesk.com
 90
    32897
280
     0
281
     0
  0
CLASS
  1
AEC_DISP_REP_POLYGON_MODEL
  2
AecDbDispRepPolygonModel
  3
AecBase50|Product Desc: Autodesk Architectural Desktop 2007 |Company: Autodesk,Inc. |WEB Address: www.autodesk.com
 90
    32897
280
     0
281
     0
  0
CLASS
  1
AEC_DISP_REP_RAILING_MODEL
  2
AecDbDispRepRailingModel
  3
AecArchBase50|Product Desc: Autodesk Architectural Desktop 2007 |Company: Autodesk,Inc. |WEB Address: www.autodesk.com
 90
    32897
280
     0
281
     0
  0
CLASS
  1
AEC_DISP_REP_RAILING_PLAN
  2
AecDbDispRepRailingPlan
  3
AecArchBase50|Product Desc: Autodesk Architectural Desktop 2007 |Company: Autodesk,Inc. |WEB Address: www.autodesk.com
 90
    32897
280
     0
281
     0
  0
CLASS
  1
AEC_DISP_REP_ROOF_MODEL
  2
AecDbDispRepRoofModel
  3
AecArchBase50|Product Desc: Autodesk Architectural Desktop 2007 |Company: Autodesk,Inc. |WEB Address: www.autodesk.com
 90
    32897
280
     0
281
     0
  0
CLASS
  1
AEC_DISP_REP_ROOF_PLAN
  2
AecDbDispRepRoofPlan
  3
AecArchBase50|Product Desc: Autodesk Architectural Desktop 2007 |Company: Autodesk,Inc. |WEB Address: www.autodesk.com
 90
    32897
280
     0
281
     0
  0
CLASS
  1
AEC_DISP_REP_ROOFSLAB_MODEL
  2
AecDbDispRepRoofSlabModel
  3
AecArchBase50|Product Desc: Autodesk Architectural Desktop 2007 |Company: Autodesk,Inc. |WEB Address: www.autodesk.com
 90
    32897
280
     0
281
     0
  0
CLASS
  1
AEC_DISP_REP_ROOFSLAB_PLAN
  2
AecDbDispRepRoofSlabPlan
  3
AecArchBase50|Product Desc: Autodesk Architectural Desktop 2007 |Company: Autodesk,Inc. |WEB Address: www.autodesk.com
 90
    32897
280
     0
281
     0
  0
CLASS
  1
AEC_DISP_REP_SCHEDULE_TABLE
  2
AecDbDispRepScheduleTable
  3
AecSchedule50|Product Desc: Autodesk Architectural Desktop 2007 |Company: Autodesk,Inc. |WEB Address: www.autodesk.com
 90
    32897
280
     0
281
     0
  0
CLASS
  1
AEC_DISP_REP_SLAB_MODEL
  2
AecDbDispRepSlabModel
  3
AecArchBase50|Product Desc: Autodesk Architectural Desktop 2007 |Company: Autodesk,Inc. |WEB Address: www.autodesk.com
 90
    32897
280
     0
281
     0
  0
CLASS
  1
AEC_DISP_REP_SLAB_PLAN
  2
AecDbDispRepSlabPlan
  3
AecArchBase50|Product Desc: Autodesk Architectural Desktop 2007 |Company: Autodesk,Inc. |WEB Address: www.autodesk.com
 90
    32897
280
     0
281
     0
  0
CLASS
  1
AEC_DISP_REP_SLICE
  2
AecDbDispRepSlice
  3
AecBase50|Product Desc: Autodesk Architectural Desktop 2007 |Company: Autodesk,Inc. |WEB Address: www.autodesk.com
 90
    32897
280
     0
281
     0
  0
CLASS
  1
AEC_DISP_REP_SPACE_BOUNDARY_MODEL
  2
AecDbDispRepSpaceBoundaryModel
  3
AecArchBase50|Product Desc: Autodesk Architectural Desktop 2007 |Company: Autodesk,Inc. |WEB Address: www.autodesk.com
 90
    32897
280
     0
281
     0
  0
CLASS
  1
AEC_DISP_REP_SPACE_BOUNDARY_PLAN
  2
AecDbDispRepSpaceBoundaryPlan
  3
AecArchBase50|Product Desc: Autodesk Architectural Desktop 2007 |Company: Autodesk,Inc. |WEB Address: www.autodesk.com
 90
    32897
280
     0
281
     0
  0
CLASS
  1
AEC_DISP_REP_SPACE_BOUNDARY_SCHEM
  2
AecDbDispRepSpaceBoundarySketch
  3
AecArchBase50|Product Desc: Autodesk Architectural Desktop 2007 |Company: Autodesk,Inc. |WEB Address: www.autodesk.com
 90
    32897
280
     0
281
     0
  0
CLASS
  1
AEC_DISP_REP_SPACE_MODEL
  2
AecDbDispRepSpaceModel
  3
AecArchBase50|Product Desc: Autodesk Architectural Desktop 2007 |Company: Autodesk,Inc. |WEB Address: www.autodesk.com
 90
    32897
280
     0
281
     0
  0
CLASS
  1
AEC_DISP_REP_SPACE_PLAN
  2
AecDbDispRepSpacePlan
  3
AecArchBase50|Product Desc: Autodesk Architectural Desktop 2007 |Company: Autodesk,Inc. |WEB Address: www.autodesk.com
 90
    32897
280
     0
281
     0
  0
CLASS
  1
AEC_DISP_REP_STAIR_MODEL
  2
AecDbDispRepStairModel
  3
AecArchBase50|Product Desc: Autodesk Architectural Desktop 2007 |Company: Autodesk,Inc. |WEB Address: www.autodesk.com
 90
    32897
280
     0
281
     0
  0
CLASS
  1
AEC_DISP_REP_STAIR_PLAN
  2
AecDbDispRepStairPlan
  3
AecArchBase50|Product Desc: Autodesk Architectural Desktop 2007 |Company: Autodesk,Inc. |WEB Address: www.autodesk.com
 90
    32897
280
     0
281
     0
  0
CLASS
  1
AEC_DISP_REP_WALL_GRAPH
  2
AecDbDispRepWallGraph
  3
AecArchBase50|Product Desc: Autodesk Architectural Desktop 2007 |Company: Autodesk,Inc. |WEB Address: www.autodesk.com
 90
    32897
280
     0
281
     0
  0
CLASS
  1
AEC_DISP_REP_WALL_MODEL
  2
AecDbDispRepWallModel
  3
AecArchBase50|Product Desc: Autodesk Architectural Desktop 2007 |Company: Autodesk,Inc. |WEB Address: www.autodesk.com
 90
    32897
280
     0
281
     0
  0
CLASS
  1
AEC_DISP_REP_WALL_PLAN
  2
AecDbDispRepWallPlan
  3
AecArchBase50|Product Desc: Autodesk Architectural Desktop 2007 |Company: Autodesk,Inc. |WEB Address: www.autodesk.com
 90
    32897
280
     0
281
     0
  0
CLASS
  1
AEC_DISP_REP_WALL_SCHEM
  2
AecDbDispRepWallSchem
  3
AecArchBase50|Product Desc: Autodesk Architectural Desktop 2007 |Company: Autodesk,Inc. |WEB Address: www.autodesk.com
 90
    32897
280
     0
281
     0
  0
CLASS
  1
AEC_DISP_REP_WINDOW_ASSEMBLY_MODEL
  2
AecDbDispRepWindowAssemblyModel
  3
AecArchBase50|Product Desc: Autodesk Architectural Desktop 2007 |Company: Autodesk,Inc. |WEB Address: www.autodesk.com
 90
    32897
280
     0
281
     0
  0
CLASS
  1
AEC_DISP_REP_WINDOW_ASSEMBLY_PLAN
  2
AecDbDispRepWindowAssemblyPlan
  3
AecArchBase50|Product Desc: Autodesk Architectural Desktop 2007 |Company: Autodesk,Inc. |WEB Address: www.autodesk.com
 90
    32897
280
     0
281
     0
  0
CLASS
  1
AEC_AECDBDISPREPWINDOWASSEMBLYPLAN100
  2
AecDbDispRepWindowAssemblyPlan100
  3
AecArchDACHBase50|Product Desc: Autodesk Architectural Desktop 2007 |Company: Autodesk,Inc. |WEB Address: www.autodesk.com
 90
    32897
280
     0
281
     0
  0
CLASS
  1
AEC_DISP_REP_WINDOW_MODEL
  2
AecDbDispRepWindowModel
  3
AecArchBase50|Product Desc: Autodesk Architectural Desktop 2007 |Company: Autodesk,Inc. |WEB Address: www.autodesk.com
 90
    32897
280
     0
281
     0
  0
CLASS
  1
AEC_DISP_REP_WINDOW_NOMINAL
  2
AecDbDispRepWindowNominal
  3
AecArchBase50|Product Desc: Autodesk Architectural Desktop 2007 |Company: Autodesk,Inc. |WEB Address: www.autodesk.com
 90
    32897
280
     0
281
     0
  0
CLASS
  1
AEC_DISP_REP_WINDOW_PLAN
  2
AecDbDispRepWindowPlan
  3
AecArchBase50|Product Desc: Autodesk Architectural Desktop 2007 |Company: Autodesk,Inc. |WEB Address: www.autodesk.com
 90
    32897
280
     0
281
     0
  0
CLASS
  1
AECS_DISP_REP_MEMBER_LOGICAL
  2
AecsDbDispRepMemberLogical
  3
AecStructureBase50|Product Desc: Autodesk Architectural Desktop 2007 |Company: Autodesk,Inc. |WEB Address: www.autodesk.com
 90
    32897
280
     0
281
     0
  0
CLASS
  1
AECS_DISP_REP_MEMBER_MODEL_DESIGN
  2
AecsDbDispRepMemberModelDesign
  3
AecStructureBase50|Product Desc: Autodesk Architectural Desktop 2007 |Company: Autodesk,Inc. |WEB Address: www.autodesk.com
 90
    32897
280
     0
281
     0
  0
CLASS
  1
AECS_DISP_REP_MEMBER_PLAN_DESIGN
  2
AecsDbDispRepMemberPlanDesign
  3
AecStructureBase50|Product Desc: Autodesk Architectural Desktop 2007 |Company: Autodesk,Inc. |WEB Address: www.autodesk.com
 90
    32897
280
     0
281
     0
  0
CLASS
  1
AEC_DISP_PROPS_ENT
  2
AecDbDispPropsEnt
  3
AecBase50|Product Desc: Autodesk Architectural Desktop 2007 |Company: Autodesk,Inc. |WEB Address: www.autodesk.com
 90
    32897
280
     0
281
     0
  0
CLASS
  1
AEC_DISP_PROPS_CLIP_VOLUME
  2
AecDbDispPropsClipVol
  3
AecBase50|Product Desc: Autodesk Architectural Desktop 2007 |Company: Autodesk,Inc. |WEB Address: www.autodesk.com
 90
    32897
280
     0
281
     0
  0
CLASS
  1
AEC_DISP_PROPS_SLICE
  2
AecDbDispPropsSlice
  3
AecBase50|Product Desc: Autodesk Architectural Desktop 2007 |Company: Autodesk,Inc. |WEB Address: www.autodesk.com
 90
    32897
280
     0
281
     0
  0
CLASS
  1
AEC_DISP_PROPS_ROOFSLAB_PLAN
  2
AecDbDispPropsRoofSlabPlan
  3
AecArchBase50|Product Desc: Autodesk Architectural Desktop 2007 |Company: Autodesk,Inc. |WEB Address: www.autodesk.com
 90
    32897
280
     0
281
     0
  0
CLASS
  1
AEC_DISP_PROPS_GRID_ASSEMBLY_MODEL
  2
AecDbDispPropsGridAssemblyModel
  3
AecArchBase50|Product Desc: Autodesk Architectural Desktop 2007 |Company: Autodesk,Inc. |WEB Address: www.autodesk.com
 90
    32897
280
     0
281
     0
  0
CLASS
  1
AEC_DISP_PROPS_ROOF
  2
AecDbDispPropsRoof
  3
AecArchBase50|Product Desc: Autodesk Architectural Desktop 2007 |Company: Autodesk,Inc. |WEB Address: www.autodesk.com
 90
    32897
280
     0
281
     0
  0
CLASS
  1
AEC_DISP_PROPS_SPACE_MODEL
  2
AecDbDispPropsSpaceModel
  3
AecArchBase50|Product Desc: Autodesk Architectural Desktop 2007 |Company: Autodesk,Inc. |WEB Address: www.autodesk.com
 90
    32897
280
     0
281
     0
  0
CLASS
  1
AEC_DISP_PROPS_EDITINPLACEPROFILE_MODEL
  2
AecDbDispPropsEditInPlaceProfile
  3
AecBase50|Product Desc: Autodesk Architectural Desktop 2007 |Company: Autodesk,Inc. |WEB Address: www.autodesk.com
 90
    32897
280
     0
281
     0
  0
CLASS
  1
AEC_DISP_PROPS_DOOR
  2
AecDbDispPropsDoor
  3
AecArchBase50|Product Desc: Autodesk Architectural Desktop 2007 |Company: Autodesk,Inc. |WEB Address: www.autodesk.com
 90
    32897
280
     0
281
     0
  0
CLASS
  1
AEC_DISP_PROPS_MASKBLOCK
  2
AecDbDispPropsMaskBlock
  3
AecBase50|Product Desc: Autodesk Architectural Desktop 2007 |Company: Autodesk,Inc. |WEB Address: www.autodesk.com
 90
    32897
280
     0
281
     0
  0
CLASS
  1
AEC_DISP_PROPS_SPACE_PLAN
  2
AecDbDispPropsSpacePlan
  3
AecArchBase50|Product Desc: Autodesk Architectural Desktop 2007 |Company: Autodesk,Inc. |WEB Address: www.autodesk.com
 90
    32897
280
     0
281
     0
  0
CLASS
  1
AEC_DISP_PROPS_RAILING_PLAN
  2
AecDbDispPropsRailingPlan
  3
AecArchBase50|Product Desc: Autodesk Architectural Desktop 2007 |Company: Autodesk,Inc. |WEB Address: www.autodesk.com
 90
    32897
280
     0
281
     0
  0
CLASS
  1
AEC_DISP_PROPS_LAYOUT_GRID2D
  2
AecDbDispPropsLayoutGrid2d
  3
AecBase50|Product Desc: Autodesk Architectural Desktop 2007 |Company: Autodesk,Inc. |WEB Address: www.autodesk.com
 90
    32897
280
     0
281
     0
  0
CLASS
  1
AEC_DISP_PROPS_CLIP_VOLUME_RESULT
  2
AecDbDispPropsClipVolResSubDiv
  3
AecBase50|Product Desc: Autodesk Architectural Desktop 2007 |Company: Autodesk,Inc. |WEB Address: www.autodesk.com
 90
    32897
280
     0
281
     0
  0
CLASS
  1
AEC_DISP_PROPS_STAIR_MODEL
  2
AecDbDispPropsStairModel
  3
AecArchBase50|Product Desc: Autodesk Architectural Desktop 2007 |Company: Autodesk,Inc. |WEB Address: www.autodesk.com
 90
    32897
280
     0
281
     0
  0
CLASS
  1
AEC_DISP_PROPS_LAYOUT_CURVE
  2
AecDbDispPropsLayoutCurve
  3
AecBase50|Product Desc: Autodesk Architectural Desktop 2007 |Company: Autodesk,Inc. |WEB Address: www.autodesk.com
 90
    32897
280
     0
281
     0
  0
CLASS
  1
AEC_DISP_PROPS_POLYGON_MODEL
  2
AecDbDispPropsPolygonModel
  3
AecBase50|Product Desc: Autodesk Architectural Desktop 2007 |Company: Autodesk,Inc. |WEB Address: www.autodesk.com
 90
    32897
280
     0
281
     0
  0
CLASS
  1
AEC_DISP_PROPS_MASS_GROUP
  2
AecDbDispPropsMassGroup
  3
AecBaseEx50|Product Desc: Autodesk Architectural Desktop 2007 |Company: Autodesk,Inc. |WEB Address: www.autodesk.com
 90
    32897
280
     0
281
     0
  0
CLASS
  1
AEC_DISP_PROPS_STAIR_PLAN
  2
AecDbDispPropsStairPlan
  3
AecArchBase50|Product Desc: Autodesk Architectural Desktop 2007 |Company: Autodesk,Inc. |WEB Address: www.autodesk.com
 90
    32897
280
     0
281
     0
  0
CLASS
  1
AEC_DISP_PROPS_OPENING
  2
AecDbDispPropsOpening
  3
AecArchBase50|Product Desc: Autodesk Architectural Desktop 2007 |Company: Autodesk,Inc. |WEB Address: www.autodesk.com
 90
    32897
280
     0
281
     0
  0
CLASS
  1
AEC_DISP_PROPS_WALL_GRAPH
  2
AecDbDispPropsWallGraph
  3
AecArchBase50|Product Desc: Autodesk Architectural Desktop 2007 |Company: Autodesk,Inc. |WEB Address: www.autodesk.com
 90
    32897
280
     0
281
     0
  0
CLASS
  1
AEC_DISP_PROPS_DOOR_NOMINAL
  2
AecDbDispPropsDoorNominal
  3
AecArchBase50|Product Desc: Autodesk Architectural Desktop 2007 |Company: Autodesk,Inc. |WEB Address: www.autodesk.com
 90
    32897
280
     0
281
     0
  0
CLASS
  1
AEC_DISP_PROPS_SLAB
  2
AecDbDispPropsSlab
  3
AecArchBase50|Product Desc: Autodesk Architectural Desktop 2007 |Company: Autodesk,Inc. |WEB Address: www.autodesk.com
 90
    32897
280
     0
281
     0
  0
CLASS
  1
AEC_DISP_PROPS_WALL_MODEL
  2
AecDbDispPropsWallModel
  3
AecArchBase50|Product Desc: Autodesk Architectural Desktop 2007 |Company: Autodesk,Inc. |WEB Address: www.autodesk.com
 90
    32897
280
     0
281
     0
  0
CLASS
  1
AEC_DISP_PROPS_MATERIAL
  2
AecDbDispPropsMaterial
  3
AecBase50|Product Desc: Autodesk Architectural Desktop 2007 |Company: Autodesk,Inc. |WEB Address: www.autodesk.com
 90
    32897
280
     0
281
     0
  0
CLASS
  1
AEC_DISP_PROPS_WINDOW
  2
AecDbDispPropsWindow
  3
AecArchBase50|Product Desc: Autodesk Architectural Desktop 2007 |Company: Autodesk,Inc. |WEB Address: www.autodesk.com
 90
    32897
280
     0
281
     0
  0
CLASS
  1
AEC_DISP_PROPS_LAYOUT_GRID3D
  2
AecDbDispPropsLayoutGrid3d
  3
AecBase50|Product Desc: Autodesk Architectural Desktop 2007 |Company: Autodesk,Inc. |WEB Address: www.autodesk.com
 90
    32897
280
     0
281
     0
  0
CLASS
  1
AEC_DISP_PROPS_GRID_ASSEMBLY_PLAN
  2
AecDbDispPropsGridAssemblyPlan
  3
AecArchBase50|Product Desc: Autodesk Architectural Desktop 2007 |Company: Autodesk,Inc. |WEB Address: www.autodesk.com
 90
    32897
280
     0
281
     0
  0
CLASS
  1
AEC_DISP_PROPS_WALL_SCHEM
  2
AecDbDispPropsWallSchem
  3
AecArchBase50|Product Desc: Autodesk Architectural Desktop 2007 |Company: Autodesk,Inc. |WEB Address: www.autodesk.com
 90
    32897
280
     0
281
     0
  0
CLASS
  1
AEC_DISP_PROPS_WALL_PLAN
  2
AecDbDispPropsWallPlan
  3
AecArchBase50|Product Desc: Autodesk Architectural Desktop 2007 |Company: Autodesk,Inc. |WEB Address: www.autodesk.com
 90
    32897
280
     0
281
     0
  0
CLASS
  1
AEC_DISP_PROPS_SPACE_BOUNDARY
  2
AecDbDispPropsSpaceBoundary
  3
AecArchBase50|Product Desc: Autodesk Architectural Desktop 2007 |Company: Autodesk,Inc. |WEB Address: www.autodesk.com
 90
    32897
280
     0
281
     0
  0
CLASS
  1
AEC_DISP_PROPS_SLAB_PLAN
  2
AecDbDispPropsSlabPlan
  3
AecArchBase50|Product Desc: Autodesk Architectural Desktop 2007 |Company: Autodesk,Inc. |WEB Address: www.autodesk.com
 90
    32897
280
     0
281
     0
  0
CLASS
  1
AEC_DISP_PROPS_RAILING_MODEL
  2
AecDbDispPropsRailingModel
  3
AecArchBase50|Product Desc: Autodesk Architectural Desktop 2007 |Company: Autodesk,Inc. |WEB Address: www.autodesk.com
 90
    32897
280
     0
281
     0
  0
CLASS
  1
AEC_DISP_PROPS_MASS_ELEM_MODEL
  2
AecDbDispPropsMassElem
  3
AecBaseEx50|Product Desc: Autodesk Architectural Desktop 2007 |Company: Autodesk,Inc. |WEB Address: www.autodesk.com
 90
    32897
280
     0
281
     0
  0
CLASS
  1
AEC_DISP_PROPS_DIM
  2
AecDbDispPropsDimGroup
  3
AecArchDACHBase50|Product Desc: Autodesk Architectural Desktop 2007 |Company: Autodesk,Inc. |WEB Address: www.autodesk.com
 90
    32897
280
     0
281
     0
  0
CLASS
  1
AEC_DISP_PROPS_ROOFSLAB
  2
AecDbDispPropsRoofSlab
  3
AecArchBase50|Product Desc: Autodesk Architectural Desktop 2007 |Company: Autodesk,Inc. |WEB Address: www.autodesk.com
 90
    32897
280
     0
281
     0
  0
CLASS
  1
AEC_DISP_PROPS_ENT_REF
  2
AecDbDispPropsEntRef
  3
AecBase50|Product Desc: Autodesk Architectural Desktop 2007 |Company: Autodesk,Inc. |WEB Address: www.autodesk.com
 90
    32897
280
     0
281
     0
  0
CLASS
  1
AEC_DISP_PROPS_2D_SECTION
  2
AecDbDispProps2dSection
  3
AecBase50|Product Desc: Autodesk Architectural Desktop 2007 |Company: Autodesk,Inc. |WEB Address: www.autodesk.com
 90
    32897
280
     0
281
     0
  0
CLASS
  1
AECS_DISP_PROPS_MEMBER_LOGICAL
  2
AecsDbDispPropsMemberLogical
  3
AecStructureBase50|Product Desc: Autodesk Architectural Desktop 2007 |Company: Autodesk,Inc. |WEB Address: www.autodesk.com
 90
    32897
280
     0
281
     0
  0
CLASS
  1
AEC_DISP_PROPS_AREA_DECOMPOSED
  2
AecDbDispPropsAreaDecomposed
  3
AecAreaCalculationBase50|Product Desc: Autodesk Architectural Desktop 2007 |Company: Autodesk,Inc. |WEB Address: www.autodesk.com
 90
    32897
280
     0
281
     0
  0
CLASS
  1
AEC_DISP_PROPS_CAMERA
  2
AecDbDispPropsCamera
  3
AecBase50|Product Desc: Autodesk Architectural Desktop 2007 |Company: Autodesk,Inc. |WEB Address: www.autodesk.com
 90
    32897
280
     0
281
     0
  0
CLASS
  1
AECS_DISP_PROPS_MEMBER
  2
AecsDbDispPropsMember
  3
AecStructureBase50|Product Desc: Autodesk Architectural Desktop 2007 |Company: Autodesk,Inc. |WEB Address: www.autodesk.com
 90
    32897
280
     0
281
     0
  0
CLASS
  1
AECS_DISP_PROPS_MEMBER_PLAN
  2
AecsDbDispPropsMemberPlan
  3
AecStructureBase50|Product Desc: Autodesk Architectural Desktop 2007 |Company: Autodesk,Inc. |WEB Address: www.autodesk.com
 90
    32897
280
     0
281
     0
  0
CLASS
  1
AEC_DISP_PROPS_AREAGROUP
  2
AecDbDispPropsAreaGroup
  3
AecAreaCalculationBase50|Product Desc: Autodesk Architectural Desktop 2007 |Company: Autodesk,Inc. |WEB Address: www.autodesk.com
 90
    32897
280
     0
281
     0
  0
CLASS
  1
AEC_DISP_PROPS_WINDOW_NOMINAL
  2
AecDbDispPropsWindowNominal
  3
AecArchBase50|Product Desc: Autodesk Architectural Desktop 2007 |Company: Autodesk,Inc. |WEB Address: www.autodesk.com
 90
    32897
280
     0
281
     0
  0
CLASS
  1
AEC_DISP_PROPS_AREA
  2
AecDbDispPropsArea
  3
AecAreaCalculationBase50|Product Desc: Autodesk Architectural Desktop 2007 |Company: Autodesk,Inc. |WEB Address: www.autodesk.com
 90
    32897
280
     0
281
     0
  0
CLASS
  1
AEC_DISP_PROPS_SCHEDULE_TABLE
  2
AecDbDispPropsScheduleTable
  3
AecSchedule50|Product Desc: Autodesk Architectural Desktop 2007 |Company: Autodesk,Inc. |WEB Address: www.autodesk.com
 90
    32897
280
     0
281
     0
  0
CLASS
  1
AEC_LAYERKEY_STYLE
  2
AecDbLayerKeyStyle
  3
AecBase50|Product Desc: Autodesk Architectural Desktop 2007 |Company: Autodesk,Inc. |WEB Address: www.autodesk.com
 90
    32897
280
     0
281
     0
  0
CLASS
  1
AEC_VARS_ARCHBASE
  2
AecDbVarsArchBase
  3
AecArchBase50|Product Desc: Autodesk Architectural Desktop 2007 |Company: Autodesk,Inc. |WEB Address: www.autodesk.com
 90
    32897
280
     0
281
     0
  0
CLASS
  1
AEC_VARS_MUNICH
  2
AecDbVarsMunich
  3
AecArchDACHBase50|Product Desc: Autodesk Architectural Desktop 2007 |Company: Autodesk,Inc. |WEB Address: www.autodesk.com
 90
    32897
280
     0
281
     0
  0
CLASS
  1
AEC_NOTIFICATION_TRACKER
  2
AecDbNotificationTracker
  3
AecBase50|Product Desc: Autodesk Architectural Desktop 2007 |Company: Autodesk,Inc. |WEB Address: www.autodesk.com
 90
    32897
280
     0
281
     0
  0
CLASS
  1
AEC_DISP_REP_ANCHOR
  2
AecDbDispRepAnchor
  3
AecBase50|Product Desc: Autodesk Architectural Desktop 2007 |Company: Autodesk,Inc. |WEB Address: www.autodesk.com
 90
    32897
280
     0
281
     0
  0
CLASS
  1
AEC_DISP_REP_POLYGON_TRUECOLOUR
  2
AecDbDispRepPolygonTrueColour
  3
AecBase50|Product Desc: Autodesk Architectural Desktop 2007 |Company: Autodesk,Inc. |WEB Address: www.autodesk.com
 90
    32897
280
     0
281
     0
  0
CLASS
  1
AEC_DISP_PROPS_POLYGON_TRUECOLOUR
  2
AecDbDispPropsPolygonTrueColour
  3
AecBase50|Product Desc: Autodesk Architectural Desktop 2007 |Company: Autodesk,Inc. |WEB Address: www.autodesk.com
 90
    32897
280
     0
281
     0
  0
CLASS
  1
AEC_DISP_REP_BDG_ELEVLINE_RCP
  2
AecDbDispRepBdgElevLineRcp
  3
AecArchBase50|Product Desc: Autodesk Architectural Desktop 2007 |Company: Autodesk,Inc. |WEB Address: www.autodesk.com
 90
    32897
280
     0
281
     0
  0
CLASS
  1
AEC_DISP_REP_BDG_SECTIONLINE_RCP
  2
AecDbDispRepBdgSectionLineRcp
  3
AecArchBase50|Product Desc: Autodesk Architectural Desktop 2007 |Company: Autodesk,Inc. |WEB Address: www.autodesk.com
 90
    32897
280
     0
281
     0
  0
CLASS
  1
AEC_DISP_REP_BDG_SECTION_MODEL
  2
AecDbDispRepBdgSectionModel
  3
AecArchBase50|Product Desc: Autodesk Architectural Desktop 2007 |Company: Autodesk,Inc. |WEB Address: www.autodesk.com
 90
    32897
280
     0
281
     0
  0
CLASS
  1
AEC_DISP_REP_DOOR_ELEV
  2
AecDbDispRepDoorElev
  3
AecArchBase50|Product Desc: Autodesk Architectural Desktop 2007 |Company: Autodesk,Inc. |WEB Address: www.autodesk.com
 90
    32897
280
     0
281
     0
  0
CLASS
  1
AEC_DISP_REP_DOOR_RCP
  2
AecDbDispRepDoorRcp
  3
AecArchBase50|Product Desc: Autodesk Architectural Desktop 2007 |Company: Autodesk,Inc. |WEB Address: www.autodesk.com
 90
    32897
280
     0
281
     0
  0
CLASS
  1
AEC_DISP_REP_DOOR_THRESHOLD_PLAN
  2
AecDbDispRepDoorThresholdPlan
  3
AecArchBase50|Product Desc: Autodesk Architectural Desktop 2007 |Company: Autodesk,Inc. |WEB Address: www.autodesk.com
 90
    32897
280
     0
281
     0
  0
CLASS
  1
AEC_DISP_PROPS_DOOR_THRESHOLD_PLAN
  2
AecDbDispPropsDoorThresholdPlan
  3
AecArchBase50|Product Desc: Autodesk Architectural Desktop 2007 |Company: Autodesk,Inc. |WEB Address: www.autodesk.com
 90
    32897
280
     0
281
     0
  0
CLASS
  1
AEC_DISP_REP_MASS_ELEM_RCP
  2
AecDbDispRepMassElemRcp
  3
AecArchBase50|Product Desc: Autodesk Architectural Desktop 2007 |Company: Autodesk,Inc. |WEB Address: www.autodesk.com
 90
    32897
280
     0
281
     0
  0
CLASS
  1
AEC_DISP_REP_MASS_GROUP_RCP
  2
AecDbDispRepMassGroupRcp
  3
AecArchBase50|Product Desc: Autodesk Architectural Desktop 2007 |Company: Autodesk,Inc. |WEB Address: www.autodesk.com
 90
    32897
280
     0
281
     0
  0
CLASS
  1
AEC_DISP_REP_MVBLOCK_REF_RCP
  2
AecDbDispRepMvBlockRefRcp
  3
AecArchBase50|Product Desc: Autodesk Architectural Desktop 2007 |Company: Autodesk,Inc. |WEB Address: www.autodesk.com
 90
    32897
280
     0
281
     0
  0
CLASS
  1
AEC_DISP_REP_ROOF_RCP
  2
AecDbDispRepRoofRcp
  3
AecArchBase50|Product Desc: Autodesk Architectural Desktop 2007 |Company: Autodesk,Inc. |WEB Address: www.autodesk.com
 90
    32897
280
     0
281
     0
  0
CLASS
  1
AEC_DISP_REP_SPACE_BOUNDARY_DIAGRAM
  2
AecDbDispRepSpaceBoundaryDgrm
  3
AecArchBase50|Product Desc: Autodesk Architectural Desktop 2007 |Company: Autodesk,Inc. |WEB Address: www.autodesk.com
 90
    32897
280
     0
281
     0
  0
CLASS
  1
AEC_DISP_REP_SPACE_RCP
  2
AecDbDispRepSpaceRcp
  3
AecArchBase50|Product Desc: Autodesk Architectural Desktop 2007 |Company: Autodesk,Inc. |WEB Address: www.autodesk.com
 90
    32897
280
     0
281
     0
  0
CLASS
  1
AEC_DISP_REP_SPACE_VOLUME
  2
AecDbDispRepSpaceVolume
  3
AecArchBase50|Product Desc: Autodesk Architectural Desktop 2007 |Company: Autodesk,Inc. |WEB Address: www.autodesk.com
 90
    32897
280
     0
281
     0
  0
CLASS
  1
AEC_DISP_REP_STAIR_PLAN_OVERLAPPING
  2
AecDbDispRepStairPlanOverlapping
  3
AecArchBase50|Product Desc: Autodesk Architectural Desktop 2007 |Company: Autodesk,Inc. |WEB Address: www.autodesk.com
 90
    32897
280
     0
281
     0
  0
CLASS
  1
AEC_DISP_PROPS_STAIR_PLAN_OVERLAPPING
  2
AecDbDispPropsStairPlanOverlapping
  3
AecArchBase50|Product Desc: Autodesk Architectural Desktop 2007 |Company: Autodesk,Inc. |WEB Address: www.autodesk.com
 90
    32897
280
     0
281
     0
  0
CLASS
  1
AEC_DISP_REP_STAIR_RCP
  2
AecDbDispRepStairRcp
  3
AecArchBase50|Product Desc: Autodesk Architectural Desktop 2007 |Company: Autodesk,Inc. |WEB Address: www.autodesk.com
 90
    32897
280
     0
281
     0
  0
CLASS
  1
AEC_DISP_REP_WALL_RCP
  2
AecDbDispRepWallRcp
  3
AecArchBase50|Product Desc: Autodesk Architectural Desktop 2007 |Company: Autodesk,Inc. |WEB Address: www.autodesk.com
 90
    32897
280
     0
281
     0
  0
CLASS
  1
AEC_DISP_REP_WINDOWASSEMBLY_SILL_PLAN
  2
AecDbDispRepWindowAssemblySillPlan
  3
AecArchBase50|Product Desc: Autodesk Architectural Desktop 2007 |Company: Autodesk,Inc. |WEB Address: www.autodesk.com
 90
    32897
280
     0
281
     0
  0
CLASS
  1
AEC_DISP_PROPS_WINDOW_ASSEMBLY_SILL_PLAN
  2
AecDbDispPropsWindowAssemblySillPlan
  3
AecArchBase50|Product Desc: Autodesk Architectural Desktop 2007 |Company: Autodesk,Inc. |WEB Address: www.autodesk.com
 90
    32897
280
     0
281
     0
  0
CLASS
  1
AEC_DISP_REP_WINDOW_ELEV
  2
AecDbDispRepWindowElev
  3
AecArchBase50|Product Desc: Autodesk Architectural Desktop 2007 |Company: Autodesk,Inc. |WEB Address: www.autodesk.com
 90
    32897
280
     0
281
     0
  0
CLASS
  1
AEC_DISP_REP_WINDOW_RCP
  2
AecDbDispRepWindowRcp
  3
AecArchBase50|Product Desc: Autodesk Architectural Desktop 2007 |Company: Autodesk,Inc. |WEB Address: www.autodesk.com
 90
    32897
280
     0
281
     0
  0
CLASS
  1
AEC_DISP_REP_WINDOW_SILL_PLAN
  2
AecDbDispRepWindowSillPlan
  3
AecArchBase50|Product Desc: Autodesk Architectural Desktop 2007 |Company: Autodesk,Inc. |WEB Address: www.autodesk.com
 90
    32897
280
     0
281
     0
  0
CLASS
  1
AEC_DISP_PROPS_WINDOW_SILL_PLAN
  2
AecDbDispPropsWindowSillPlan
  3
AecArchBase50|Product Desc: Autodesk Architectural Desktop 2007 |Company: Autodesk,Inc. |WEB Address: www.autodesk.com
 90
    32897
280
     0
281
     0
  0
CLASS
  1
AEC_DISP_REP_ANCHOR_BUB_TO_GRID_RCP
  2
AecDbDispRepAnchorBubToGridRcp
  3
AecStructureBase50|Product Desc: Autodesk Architectural Desktop 2007 |Company: Autodesk,Inc. |WEB Address: www.autodesk.com
 90
    32897
280
     0
281
     0
  0
CLASS
  1
AEC_DISP_REP_COLUMN_GRID_RCP
  2
AecDbDispRepColumnGridRcp
  3
AecStructureBase50|Product Desc: Autodesk Architectural Desktop 2007 |Company: Autodesk,Inc. |WEB Address: www.autodesk.com
 90
    32897
280
     0
281
     0
  0
CLASS
  1
AECS_DISP_REP_MEMBER_ELEVATION_DESIGN
  2
AecsDbDispRepMemberElevationDesign
  3
AecStructureBase50|Product Desc: Autodesk Architectural Desktop 2007 |Company: Autodesk,Inc. |WEB Address: www.autodesk.com
 90
    32897
280
     0
281
     0
  0
CLASS
  1
AECS_DISP_PROPS_MEMBER_PROJECTED
  2
AecsDbDispPropsMemberProjected
  3
AecStructureBase50|Product Desc: Autodesk Architectural Desktop 2007 |Company: Autodesk,Inc. |WEB Address: www.autodesk.com
 90
    32897
280
     0
281
     0
  0
CLASS
  1
AECS_DISP_REP_MEMBER_ELEVATION_DETAIL
  2
AecsDbDispRepMemberElevationDetail
  3
AecStructureBase50|Product Desc: Autodesk Architectural Desktop 2007 |Company: Autodesk,Inc. |WEB Address: www.autodesk.com
 90
    32897
280
     0
281
     0
  0
CLASS
  1
AECS_DISP_REP_MEMBER_MODEL_DETAIL
  2
AecsDbDispRepMemberModelDetail
  3
AecStructureBase50|Product Desc: Autodesk Architectural Desktop 2007 |Company: Autodesk,Inc. |WEB Address: www.autodesk.com
 90
    32897
280
     0
281
     0
  0
CLASS
  1
AECS_DISP_REP_MEMBER_PLAN_DETAIL
  2
AecsDbDispRepMemberPlanDetail
  3
AecStructureBase50|Product Desc: Autodesk Architectural Desktop 2007 |Company: Autodesk,Inc. |WEB Address: www.autodesk.com
 90
    32897
280
     0
281
     0
  0
CLASS
  1
AECS_DISP_REP_MEMBER_PLAN_SKETCH
  2
AecsDbDispRepMemberPlanSketch
  3
AecStructureBase50|Product Desc: Autodesk Architectural Desktop 2007 |Company: Autodesk,Inc. |WEB Address: www.autodesk.com
 90
    32897
280
     0
281
     0
  0
CLASS
  1
AECS_DISP_PROPS_MEMBER_PLAN_SKETCH
  2
AecsDbDispPropsMemberPlanSketch
  3
AecStructureBase50|Product Desc: Autodesk Architectural Desktop 2007 |Company: Autodesk,Inc. |WEB Address: www.autodesk.com
 90
    32897
280
     0
281
     0
  0
CLASS
  1
AEC_AECDBDISPREPAREA100
  2
AecDbDispRepArea100
  3
AecArchDACHBase50|Product Desc: Autodesk Architectural Desktop 2007 |Company: Autodesk,Inc. |WEB Address: www.autodesk.com
 90
    32897
280
     0
281
     0
  0
CLASS
  1
AEC_AECDBDISPREPAREAGROUP100
  2
AecDbDispRepAreaGroup100
  3
AecArchDACHBase50|Product Desc: Autodesk Architectural Desktop 2007 |Company: Autodesk,Inc. |WEB Address: www.autodesk.com
 90
    32897
280
     0
281
     0
  0
CLASS
  1
AEC_AECDBDISPREPBDGELEVLINEPLAN100
  2
AecDbDispRepBdgElevLinePlan100
  3
AecArchDACHBase50|Product Desc: Autodesk Architectural Desktop 2007 |Company: Autodesk,Inc. |WEB Address: www.autodesk.com
 90
    32897
280
     0
281
     0
  0
CLASS
  1
AEC_AECDBDISPREPBDGSECTIONLINEPLAN100
  2
AecDbDispRepBdgSectionLinePlan100
  3
AecArchDACHBase50|Product Desc: Autodesk Architectural Desktop 2007 |Company: Autodesk,Inc. |WEB Address: www.autodesk.com
 90
    32897
280
     0
281
     0
  0
CLASS
  1
AEC_AECDBDISPREPCEILINGGRIDPLAN100
  2
AecDbDispRepCeilingGridPlan100
  3
AecArchDACHBase50|Product Desc: Autodesk Architectural Desktop 2007 |Company: Autodesk,Inc. |WEB Address: www.autodesk.com
 90
    32897
280
     0
281
     0
  0
CLASS
  1
AEC_AECDBDISPREPCOLUMNGRIDPLAN100
  2
AecDbDispRepColumnGridPlan100
  3
AecArchDACHBase50|Product Desc: Autodesk Architectural Desktop 2007 |Company: Autodesk,Inc. |WEB Address: www.autodesk.com
 90
    32897
280
     0
281
     0
  0
CLASS
  1
AEC_AECDBDISPREPCURTAINWALLLAYOUTPLAN100
  2
AecDbDispRepCurtainWallLayoutPlan100
  3
AecArchDACHBase50|Product Desc: Autodesk Architectural Desktop 2007 |Company: Autodesk,Inc. |WEB Address: www.autodesk.com
 90
    32897
280
     0
281
     0
  0
CLASS
  1
AEC_AECDBDISPREPCURTAINWALLUNITPLAN100
  2
AecDbDispRepCurtainWallUnitPlan100
  3
AecArchDACHBase50|Product Desc: Autodesk Architectural Desktop 2007 |Company: Autodesk,Inc. |WEB Address: www.autodesk.com
 90
    32897
280
     0
281
     0
  0
CLASS
  1
AEC_AECDBDISPREPMVBLOCKREFPLAN100
  2
AecDbDispRepMvBlockRefPlan100
  3
AecArchDACHBase50|Product Desc: Autodesk Architectural Desktop 2007 |Company: Autodesk,Inc. |WEB Address: www.autodesk.com
 90
    32897
280
     0
281
     0
  0
CLASS
  1
AEC_AECDBDISPREPROOFPLAN100
  2
AecDbDispRepRoofPlan100
  3
AecArchDACHBase50|Product Desc: Autodesk Architectural Desktop 2007 |Company: Autodesk,Inc. |WEB Address: www.autodesk.com
 90
    32897
280
     0
281
     0
  0
CLASS
  1
AEC_AECDBDISPREPROOFSLABPLAN100
  2
AecDbDispRepRoofSlabPlan100
  3
AecArchDACHBase50|Product Desc: Autodesk Architectural Desktop 2007 |Company: Autodesk,Inc. |WEB Address: www.autodesk.com
 90
    32897
280
     0
281
     0
  0
CLASS
  1
AEC_AECDBDISPREPSLABPLAN100
  2
AecDbDispRepSlabPlan100
  3
AecArchDACHBase50|Product Desc: Autodesk Architectural Desktop 2007 |Company: Autodesk,Inc. |WEB Address: www.autodesk.com
 90
    32897
280
     0
281
     0
  0
CLASS
  1
AEC_AECDBDISPREPSPACEBOUNDARYPLAN100
  2
AecDbDispRepSpaceBoundaryPlan100
  3
AecArchDACHBase50|Product Desc: Autodesk Architectural Desktop 2007 |Company: Autodesk,Inc. |WEB Address: www.autodesk.com
 90
    32897
280
     0
281
     0
  0
CLASS
  1
AEC_AECDBDISPREPSPACEPLAN100
  2
AecDbDispRepSpacePlan100
  3
AecArchDACHBase50|Product Desc: Autodesk Architectural Desktop 2007 |Company: Autodesk,Inc. |WEB Address: www.autodesk.com
 90
    32897
280
     0
281
     0
  0
CLASS
  1
AEC_AECDBDISPREPWALLPLAN100
  2
AecDbDispRepWallPlan100
  3
AecArchDACHBase50|Product Desc: Autodesk Architectural Desktop 2007 |Company: Autodesk,Inc. |WEB Address: www.autodesk.com
 90
    32897
280
     0
281
     0
  0
CLASS
  1
AEC_AECDBDISPREPAREA50
  2
AecDbDispRepArea50
  3
AecArchDACHBase50|Product Desc: Autodesk Architectural Desktop 2007 |Company: Autodesk,Inc. |WEB Address: www.autodesk.com
 90
    32897
280
     0
281
     0
  0
CLASS
  1
AEC_AECDBDISPREPAREAGROUP50
  2
AecDbDispRepAreaGroup50
  3
AecArchDACHBase50|Product Desc: Autodesk Architectural Desktop 2007 |Company: Autodesk,Inc. |WEB Address: www.autodesk.com
 90
    32897
280
     0
281
     0
  0
CLASS
  1
AEC_AECDBDISPREPBDGELEVLINEPLAN50
  2
AecDbDispRepBdgElevLinePlan50
  3
AecArchDACHBase50|Product Desc: Autodesk Architectural Desktop 2007 |Company: Autodesk,Inc. |WEB Address: www.autodesk.com
 90
    32897
280
     0
281
     0
  0
CLASS
  1
AEC_AECDBDISPREPBDGSECTIONLINEPLAN50
  2
AecDbDispRepBdgSectionLinePlan50
  3
AecArchDACHBase50|Product Desc: Autodesk Architectural Desktop 2007 |Company: Autodesk,Inc. |WEB Address: www.autodesk.com
 90
    32897
280
     0
281
     0
  0
CLASS
  1
AEC_AECDBDISPREPCEILINGGRIDPLAN50
  2
AecDbDispRepCeilingGridPlan50
  3
AecArchDACHBase50|Product Desc: Autodesk Architectural Desktop 2007 |Company: Autodesk,Inc. |WEB Address: www.autodesk.com
 90
    32897
280
     0
281
     0
  0
CLASS
  1
AEC_AECDBDISPREPCOLUMNGRIDPLAN50
  2
AecDbDispRepColumnGridPlan50
  3
AecArchDACHBase50|Product Desc: Autodesk Architectural Desktop 2007 |Company: Autodesk,Inc. |WEB Address: www.autodesk.com
 90
    32897
280
     0
281
     0
  0
CLASS
  1
AEC_AECDBDISPREPCURTAINWALLLAYOUTPLAN50
  2
AecDbDispRepCurtainWallLayoutPlan50
  3
AecArchDACHBase50|Product Desc: Autodesk Architectural Desktop 2007 |Company: Autodesk,Inc. |WEB Address: www.autodesk.com
 90
    32897
280
     0
281
     0
  0
CLASS
  1
AEC_AECDBDISPREPCURTAINWALLUNITPLAN50
  2
AecDbDispRepCurtainWallUnitPlan50
  3
AecArchDACHBase50|Product Desc: Autodesk Architectural Desktop 2007 |Company: Autodesk,Inc. |WEB Address: www.autodesk.com
 90
    32897
280
     0
281
     0
  0
CLASS
  1
AEC_AECDBDISPREPMVBLOCKREFPLAN50
  2
AecDbDispRepMvBlockRefPlan50
  3
AecArchDACHBase50|Product Desc: Autodesk Architectural Desktop 2007 |Company: Autodesk,Inc. |WEB Address: www.autodesk.com
 90
    32897
280
     0
281
     0
  0
CLASS
  1
AEC_AECDBDISPREPROOFPLAN50
  2
AecDbDispRepRoofPlan50
  3
AecArchDACHBase50|Product Desc: Autodesk Architectural Desktop 2007 |Company: Autodesk,Inc. |WEB Address: www.autodesk.com
 90
    32897
280
     0
281
     0
  0
CLASS
  1
AEC_AECDBDISPREPROOFSLABPLAN50
  2
AecDbDispRepRoofSlabPlan50
  3
AecArchDACHBase50|Product Desc: Autodesk Architectural Desktop 2007 |Company: Autodesk,Inc. |WEB Address: www.autodesk.com
 90
    32897
280
     0
281
     0
  0
CLASS
  1
AEC_AECDBDISPREPSLABPLAN50
  2
AecDbDispRepSlabPlan50
  3
AecArchDACHBase50|Product Desc: Autodesk Architectural Desktop 2007 |Company: Autodesk,Inc. |WEB Address: www.autodesk.com
 90
    32897
280
     0
281
     0
  0
CLASS
  1
AEC_AECDBDISPREPSPACEBOUNDARYPLAN50
  2
AecDbDispRepSpaceBoundaryPlan50
  3
AecArchDACHBase50|Product Desc: Autodesk Architectural Desktop 2007 |Company: Autodesk,Inc. |WEB Address: www.autodesk.com
 90
    32897
280
     0
281
     0
  0
CLASS
  1
AEC_AECDBDISPREPSPACEPLAN50
  2
AecDbDispRepSpacePlan50
  3
AecArchDACHBase50|Product Desc: Autodesk Architectural Desktop 2007 |Company: Autodesk,Inc. |WEB Address: www.autodesk.com
 90
    32897
280
     0
281
     0
  0
CLASS
  1
AEC_AECDBDISPREPWALLPLAN50
  2
AecDbDispRepWallPlan50
  3
AecArchDACHBase50|Product Desc: Autodesk Architectural Desktop 2007 |Company: Autodesk,Inc. |WEB Address: www.autodesk.com
 90
    32897
280
     0
281
     0
  0
CLASS
  1
AEC_AECDBDISPREPWINDOWASSEMBLYPLAN50
  2
AecDbDispRepWindowAssemblyPlan50
  3
AecArchDACHBase50|Product Desc: Autodesk Architectural Desktop 2007 |Company: Autodesk,Inc. |WEB Address: www.autodesk.com
 90
    32897
280
     0
281
     0
  0
CLASS
  1
AEC_DB_DISP_REP_DIM_GROUP_PLAN100
  2
AecDbDispRepDimGroupPlan100
  3
AecArchDACHBase50|Product Desc: Autodesk Architectural Desktop 2007 |Company: Autodesk,Inc. |WEB Address: www.autodesk.com
 90
    32897
280
     0
281
     0
  0
CLASS
  1
AEC_DB_DISP_REP_DIM_GROUP_PLAN50
  2
AecDbDispRepDimGroupPlan50
  3
AecArchDACHBase50|Product Desc: Autodesk Architectural Desktop 2007 |Company: Autodesk,Inc. |WEB Address: www.autodesk.com
 90
    32897
280
     0
281
     0
  0
CLASS
  1
AEC_DISP_REP_DOOR_PLAN_50
  2
AecDbDispRepDoorPlan50
  3
AecArchDACHBase50|Product Desc: Autodesk Architectural Desktop 2007 |Company: Autodesk,Inc. |WEB Address: www.autodesk.com
 90
    32897
280
     0
281
     0
  0
CLASS
  1
AEC_DISP_PROPS_DOOR_PLAN_50
  2
AecDbDispPropsDoorPlan50
  3
AecArchDACHBase50|Product Desc: Autodesk Architectural Desktop 2007 |Company: Autodesk,Inc. |WEB Address: www.autodesk.com
 90
    32897
280
     0
281
     0
  0
CLASS
  1
AEC_DISP_REP_DOOR_PLAN_HEKTO
  2
AecDbDispRepDoorPlanHekto
  3
AecArchDACHBase50|Product Desc: Autodesk Architectural Desktop 2007 |Company: Autodesk,Inc. |WEB Address: www.autodesk.com
 90
    32897
280
     0
281
     0
  0
CLASS
  1
AEC_DISP_PROPS_DOOR_PLAN_100
  2
AecDbDispPropsDoorPlan100
  3
AecArchDACHBase50|Product Desc: Autodesk Architectural Desktop 2007 |Company: Autodesk,Inc. |WEB Address: www.autodesk.com
 90
    32897
280
     0
281
     0
  0
CLASS
  1
AEC_DISP_REP_DOOR_THRESHOLD_SYMBOL_PLAN
  2
AecDbDispRepDoorThresholdSymbolPlan
  3
AecArchDACHBase50|Product Desc: Autodesk Architectural Desktop 2007 |Company: Autodesk,Inc. |WEB Address: www.autodesk.com
 90
    32897
280
     0
281
     0
  0
CLASS
  1
AEC_DISP_PROPS_DOOR_THRESHOLD_SYMBOL_PLAN
  2
AecDbDispPropsDoorThresholdSymbolPlan
  3
AecArchDACHBase50|Product Desc: Autodesk Architectural Desktop 2007 |Company: Autodesk,Inc. |WEB Address: www.autodesk.com
 90
    32897
280
     0
281
     0
  0
CLASS
  1
AEC_DISPREPAECDBDISPREPMASSELEMPLAN100
  2
AecDbDispRepMassElemPlan100
  3
AecArchDACHBase50|Product Desc: Autodesk Architectural Desktop 2007 |Company: Autodesk,Inc. |WEB Address: www.autodesk.com
 90
    32897
280
     0
281
     0
  0
CLASS
  1
AEC_DISPROPSMASSELEMPLANCOMMON
  2
AecDbDispPropsMassElemPlanCommon
  3
AecArchDACHBase50|Product Desc: Autodesk Architectural Desktop 2007 |Company: Autodesk,Inc. |WEB Address: www.autodesk.com
 90
    32897
280
     0
281
     0
  0
CLASS
  1
AEC_DISPREPAECDBDISPREPMASSELEMPLAN50
  2
AecDbDispRepMassElemPlan50
  3
AecArchDACHBase50|Product Desc: Autodesk Architectural Desktop 2007 |Company: Autodesk,Inc. |WEB Address: www.autodesk.com
 90
    32897
280
     0
281
     0
  0
CLASS
  1
AEC_DISPREPAECDBDISPREPMASSGROUPPLAN100
  2
AecDbDispRepMassGroupPlan100
  3
AecArchDACHBase50|Product Desc: Autodesk Architectural Desktop 2007 |Company: Autodesk,Inc. |WEB Address: www.autodesk.com
 90
    32897
280
     0
281
     0
  0
CLASS
  1
AEC_DISPROPSMASSGROUPPLANCOMMON
  2
AecDbDispPropsMassGroupPlanCommon
  3
AecArchDACHBase50|Product Desc: Autodesk Architectural Desktop 2007 |Company: Autodesk,Inc. |WEB Address: www.autodesk.com
 90
    32897
280
     0
281
     0
  0
CLASS
  1
AEC_DISPREPAECDBDISPREPMASSGROUPPLAN50
  2
AecDbDispRepMassGroupPlan50
  3
AecArchDACHBase50|Product Desc: Autodesk Architectural Desktop 2007 |Company: Autodesk,Inc. |WEB Address: www.autodesk.com
 90
    32897
280
     0
281
     0
  0
CLASS
  1
AEC_DISPREPAECDBDISPREPOPENINGPLAN100
  2
AecDbDispRepOpeningPlan100
  3
AecArchDACHBase50|Product Desc: Autodesk Architectural Desktop 2007 |Company: Autodesk,Inc. |WEB Address: www.autodesk.com
 90
    32897
280
     0
281
     0
  0
CLASS
  1
AEC_DISPROPSOPENINGPLANCOMMONHATCHED
  2
AecDbDispPropsOpeningPlanCommonHatched
  3
AecArchDACHBase50|Product Desc: Autodesk Architectural Desktop 2007 |Company: Autodesk,Inc. |WEB Address: www.autodesk.com
 90
    32897
280
     0
281
     0
  0
CLASS
  1
AEC_DISPREPAECDBDISPREPOPENINGPLAN50
  2
AecDbDispRepOpeningPlan50
  3
AecArchDACHBase50|Product Desc: Autodesk Architectural Desktop 2007 |Company: Autodesk,Inc. |WEB Address: www.autodesk.com
 90
    32897
280
     0
281
     0
  0
CLASS
  1
AEC_DISPREPAECDBDISPREPOPENINGPLANREFLECTED
  2
AecDbDispRepOpeningPlanReflected
  3
AecArchDACHBase50|Product Desc: Autodesk Architectural Desktop 2007 |Company: Autodesk,Inc. |WEB Address: www.autodesk.com
 90
    32897
280
     0
281
     0
  0
CLASS
  1
AEC_DISPROPSOPENINGPLANCOMMON
  2
AecDbDispPropsOpeningPlanCommon
  3
AecArchDACHBase50|Product Desc: Autodesk Architectural Desktop 2007 |Company: Autodesk,Inc. |WEB Address: www.autodesk.com
 90
    32897
280
     0
281
     0
  0
CLASS
  1
AEC_DISPREPAECDBDISPREPOPENINGSILLPLAN
  2
AecDbDispRepOpeningSillPlan
  3
AecArchDACHBase50|Product Desc: Autodesk Architectural Desktop 2007 |Company: Autodesk,Inc. |WEB Address: www.autodesk.com
 90
    32897
280
     0
281
     0
  0
CLASS
  1
AEC_DISPROPSOPENINGSILLPLAN
  2
AecDbDispPropsOpeningSillPlan
  3
AecArchDACHBase50|Product Desc: Autodesk Architectural Desktop 2007 |Company: Autodesk,Inc. |WEB Address: www.autodesk.com
 90
    32897
280
     0
281
     0
  0
CLASS
  1
AEC_DISP_REP_RAILING_PLAN_100
  2
AecDbDispRepRailingPlan100
  3
AecArchDACHBase50|Product Desc: Autodesk Architectural Desktop 2007 |Company: Autodesk,Inc. |WEB Address: www.autodesk.com
 90
    32897
280
     0
281
     0
  0
CLASS
  1
AEC_DISP_ROPS_RAILING_PLAN_100
  2
AecDbDispPropsRailingPlan100
  3
AecArchDACHBase50|Product Desc: Autodesk Architectural Desktop 2007 |Company: Autodesk,Inc. |WEB Address: www.autodesk.com
 90
    32897
280
     0
281
     0
  0
CLASS
  1
AEC_DISP_REP_RAILING_PLAN_50
  2
AecDbDispRepRailingPlan50
  3
AecArchDACHBase50|Product Desc: Autodesk Architectural Desktop 2007 |Company: Autodesk,Inc. |WEB Address: www.autodesk.com
 90
    32897
280
     0
281
     0
  0
CLASS
  1
AEC_DISP_ROPS_RAILING_PLAN_50
  2
AecDbDispPropsRailingPlan50
  3
AecArchDACHBase50|Product Desc: Autodesk Architectural Desktop 2007 |Company: Autodesk,Inc. |WEB Address: www.autodesk.com
 90
    32897
280
     0
281
     0
  0
CLASS
  1
AEC_DISP_REP_STAIR_PLAN_100
  2
AecDbDispRepStairPlan100
  3
AecArchDACHBase50|Product Desc: Autodesk Architectural Desktop 2007 |Company: Autodesk,Inc. |WEB Address: www.autodesk.com
 90
    32897
280
     0
281
     0
  0
CLASS
  1
AEC_DISP_ROPS_STAIR_PLAN_100
  2
AecDbDispPropsStairPlan100
  3
AecArchDACHBase50|Product Desc: Autodesk Architectural Desktop 2007 |Company: Autodesk,Inc. |WEB Address: www.autodesk.com
 90
    32897
280
     0
281
     0
  0
CLASS
  1
AEC_DISP_REP_STAIR_PLAN_50
  2
AecDbDispRepStairPlan50
  3
AecArchDACHBase50|Product Desc: Autodesk Architectural Desktop 2007 |Company: Autodesk,Inc. |WEB Address: www.autodesk.com
 90
    32897
280
     0
281
     0
  0
CLASS
  1
AEC_DISP_ROPS_STAIR_PLAN_50
  2
AecDbDispPropsStairPlan50
  3
AecArchDACHBase50|Product Desc: Autodesk Architectural Desktop 2007 |Company: Autodesk,Inc. |WEB Address: www.autodesk.com
 90
    32897
280
     0
281
     0
  0
CLASS
  1
AEC_DISP_REP_WINDOW_PLAN_100
  2
AecDbDispRepWindowPlan100
  3
AecArchDACHBase50|Product Desc: Autodesk Architectural Desktop 2007 |Company: Autodesk,Inc. |WEB Address: www.autodesk.com
 90
    32897
280
     0
281
     0
  0
CLASS
  1
AEC_DISP_PROPS_WINDOW_PLAN_100
  2
AecDbDispPropsWindowPlan100
  3
AecArchDACHBase50|Product Desc: Autodesk Architectural Desktop 2007 |Company: Autodesk,Inc. |WEB Address: www.autodesk.com
 90
    32897
280
     0
281
     0
  0
CLASS
  1
AEC_DISP_REP_WINDOW_PLAN_50
  2
AecDbDispRepWindowPlan50
  3
AecArchDACHBase50|Product Desc: Autodesk Architectural Desktop 2007 |Company: Autodesk,Inc. |WEB Address: www.autodesk.com
 90
    32897
280
     0
281
     0
  0
CLASS
  1
AEC_DISP_PROPS_WINDOW_PLAN_50
  2
AecDbDispPropsWindowPlan50
  3
AecArchDACHBase50|Product Desc: Autodesk Architectural Desktop 2007 |Company: Autodesk,Inc. |WEB Address: www.autodesk.com
 90
    32897
280
     0
281
     0
  0
CLASS
  1
BINRECORD
  2
AcAecBinRecord
  3
AecBase50|Product Desc: Autodesk Architectural Desktop 2007 |Company: Autodesk,Inc. |WEB Address: www.autodesk.com
 90
    32897
280
     0
281
     0
  0
CLASS
  1
SPATIAL_FILTER
  2
AcDbSpatialFilter
  3
ObjectDBX Classes
 90
    32768
280
     0
281
     0
  0
CLASS
  1
AEC_VARS_STRUCTUREBASE
  2
AecsDbVarsStructureBase
  3
AecStructureBase50|Product Desc: Autodesk Architectural Desktop 2007 |Company: Autodesk,Inc. |WEB Address: www.autodesk.com
 90
    32897
280
     0
281
     0
  0
CLASS
  1
DIMASSOC
  2
AcDbDimAssoc
  3
"AcDbDimAssoc|Product Desc:     AcDim ARX App For Dimension|Company:          Autodesk, Inc.|WEB Address:      www.autodesk.com"
 90
        0
280
     0
281
     0
  0
CLASS
  1
TABLESTYLE
  2
AcDbTableStyle
  3
ObjectDBX Classes
 90
     4095
280
     0
281
     0
  0
CLASS
  1
MATERIAL
  2
AcDbMaterial
  3
ObjectDBX Classes
 90
     1153
280
     0
281
     0
  0
CLASS
  1
VISUALSTYLE
  2
AcDbVisualStyle
  3
ObjectDBX Classes
 90
     4095
280
     0
281
     0
  0
CLASS
  1
EXACXREFPANELOBJECT
  2
ExAcXREFPanelObject
  3
EXAC_ESW
 90
    33793
280
     0
281
     0
  0
CLASS
  1
NPOCOLLECTION
  2
AcDbImpNonPersistentObjectsCollection
  3
ObjectDBX Classes
 90
    33921
280
     0
281
     0
  0
CLASS
  1
SCALE
  2
AcDbScale
  3
ObjectDBX Classes
 90
     1153
280
     0
281
     0
  0
CLASS
  1
MLEADERSTYLE
  2
AcDbMLeaderStyle
  3
ACDB_MLEADERSTYLE_CLASS
 90
     4095
280
     0
281
     0
  0
CLASS
  1
CELLSTYLEMAP
  2
AcDbCellStyleMap
  3
ObjectDBX Classes
 90
     1152
280
     0
281
     0
  0
ENDSEC
  0
SECTION
  2
TABLES
  0
TABLE
  2
VPORT
  5
1C
330
0
100
AcDbSymbolTable
 70
     1
  0
VPORT
  5
1728
330
1C
100
AcDbSymbolTableRecord
100
AcDbViewportTableRecord
  2
*Active
 70
     0
 10
0.0
 20
0.0
 11
1.0
 21
1.0
 12
229707.824112563
 22
130201.3116928684
 13
0.0
 23
0.0
 14
10.0
 24
10.0
 15
10.0
 25
10.0
 16
0.0
 26
0.0
 36
1.0
 17
0.0
 27
0.0
 37
0.0
 40
34862.73519427169
 41
1.561333333333333
 42
50.0
 43
0.0
 44
0.0
 50
0.0
 51
0.0
 71
     0
 72
  1000
 73
     1
 74
     1
 75
     0
 76
     0
 77
     0
 78
     0
281
     0
 65
     1
110
0.0
120
0.0
130
0.0
111
1.0
121
0.0
131
0.0
112
0.0
122
1.0
132
0.0
 79
     0
146
0.0
  0
ENDTAB
  0
TABLE
  2
LTYPE
  5
17
330
0
100
AcDbSymbolTable
 70
     5
  0
LTYPE
  5
18
330
17
100
AcDbSymbolTableRecord
100
AcDbLinetypeTableRecord
  2
ByBlock
 70
     0
  3

 72
    65
 73
     0
 40
0.0
  0
LTYPE
  5
19
330
17
100
AcDbSymbolTableRecord
100
AcDbLinetypeTableRecord
  2
ByLayer
 70
     0
  3

 72
    65
 73
     0
 40
0.0
  0
LTYPE
  5
8
330
17
100
AcDbSymbolTableRecord
100
AcDbLinetypeTableRecord
  2
Continuous
 70
     0
  3
Solid line
 72
    65
 73
     0
 40
0.0
  0
LTYPE
  5
158
330
17
100
AcDbSymbolTableRecord
100
AcDbLinetypeTableRecord
  2
HIDDEN
 70
     0
  3
Hidden __ __ __ __ __ __ __ __ __ __ __ __ __ _
 72
    65
 73
     2
 40
0.375
 49
0.25
 74
     0
 49
-0.125
 74
     0
  0
ENDTAB
  0
TABLE
  2
LAYER
  5
11
102
{ACAD_XDICTIONARY
360
12
102
}
330
0
100
AcDbSymbolTable
 70
    33
  0
LAYER
  5
4
102
{ACAD_XDICTIONARY
360
2274
102
}
330
11
100
AcDbSymbolTableRecord
100
AcDbLayerTableRecord
  2
0
 70
     0
 62
     7
  6
Continuous
370
    -3
390
5
1001
RAK
1000
{ACET-LAYISO
1070
     0
1070
     7
1000
Continuous
1071
       -3
1071
        1
1005
5
1000
ACET-LAYISO}
  0
LAYER
  5
39
102
{ACAD_XDICTIONARY
360
2276
102
}
330
11
100
AcDbSymbolTableRecord
100
AcDbLayerTableRecord
  2
WIDOK
 70
     0
 62
   114
  6
Continuous
370
    -3
390
5
1001
RAK
1000
{ACET-LAYISO
1070
     0
1070
   114
1000
Continuous
1071
       -3
1071
        1
1005
5
1000
ACET-LAYISO}
  0
LAYER
  5
35
102
{ACAD_XDICTIONARY
360
2278
102
}
330
11
100
AcDbSymbolTableRecord
100
AcDbLayerTableRecord
  2
SCIANY
 70
     0
 62
   140
  6
Continuous
370
    -3
390
5
1001
RAK
1000
{ACET-LAYISO
1070
     0
1070
   140
1000
Continuous
1071
       -3
1071
        1
1005
5
1000
ACET-LAYISO}
  0
LAYER
  5
65
330
11
100
AcDbSymbolTableRecord
100
AcDbLayerTableRecord
  2
DEFPOINTS
 70
     0
 62
     7
  6
Continuous
290
     0
370
    -3
390
5
1001
RAK
1000
{ACET-LAYISO
1070
     0
1070
     7
1000
Continuous
1071
       -3
1071
        0
1005
5
1000
ACET-LAYISO}
  0
LAYER
  5
15E
102
{ACAD_XDICTIONARY
360
227C
102
}
330
11
100
AcDbSymbolTableRecord
100
AcDbLayerTableRecord
  2
RAMKI-A4
 70
     0
 62
     2
  6
Continuous
290
     0
370
    -3
390
5
1001
RAK
1000
{ACET-LAYISO
1070
     0
1070
     2
1000
Continuous
1071
       -3
1071
        0
1005
5
1000
ACET-LAYISO}
  0
LAYER
  5
143
102
{ACAD_XDICTIONARY
360
2280
102
}
330
11
100
AcDbSymbolTableRecord
100
AcDbLayerTableRecord
  2
NAPISY
 70
     0
 62
   140
  6
Continuous
370
    -3
390
5
1001
RAK
1000
{ACET-LAYISO
1070
     0
1070
   140
1000
Continuous
1071
       -3
1071
        1
1005
5
1000
ACET-LAYISO}
  0
LAYER
  5
202C
102
{ACAD_XDICTIONARY
360
22B0
102
}
330
11
100
AcDbSymbolTableRecord
100
AcDbLayerTableRecord
  2
0Hatch
 70
     0
 62
   122
  6
Continuous
370
     5
390
5
  0
LAYER
  5
2081
102
{ACAD_XDICTIONARY
360
22B2
102
}
330
11
100
AcDbSymbolTableRecord
100
AcDbLayerTableRecord
  2
0Wymiary-PL
 70
     0
 62
     1
  6
Continuous
370
     5
390
5
  0
ENDTAB
  0
TABLE
  2
STYLE
  5
14
330
0
100
AcDbSymbolTable
 70
     7
  0
STYLE
  5
15
330
14
100
AcDbSymbolTableRecord
100
AcDbTextStyleTableRecord
  2
Standard
 70
     0
 40
0.0
 41
1.0
 50
0.0
 71
     0
 42
2.5
  3
txt
  4

  0
STYLE
  5
22
330
14
100
AcDbSymbolTableRecord
100
AcDbTextStyleTableRecord
  2
ROMANS
 70
     0
 40
0.0
 41
0.9
 50
0.0
 71
     0
 42
20.0
  3
romans.shx
  4

  0
STYLE
  5
144
330
14
100
AcDbSymbolTableRecord
100
AcDbTextStyleTableRecord
  2
AVA
 70
     0
 40
0.0
 41
1.0
 50
0.0
 71
     0
 42
158.5644099714409
  3
ARIAL.TTF
  4

1001
ACAD
1000
Arial CE
1071
    60962
  0
ENDTAB
  0
TABLE
  2
VIEW
  5
1A
330
0
100
AcDbSymbolTable
 70
     1
  0
VIEW
  5
C
330
1A
100
AcDbSymbolTableRecord
100
AcDbViewTableRecord
  2
RODODENDRON 5
 70
     0
 40
14020.0
 10
220287.1664355166
 20
148687.514558954
 41
10200.00000000003
 11
0.0
 21
0.0
 31
1.0
 12
0.0
 22
0.0
 32
0.0
 42
50.0
 43
0.0
 44
0.0
 50
0.0
 71
     0
281
     0
 72
     1
110
0.0
120
0.0
130
0.0
111
1.0
121
0.0
131
0.0
112
0.0
122
1.0
132
0.0
 79
     0
146
0.0
  0
ENDTAB
  0
TABLE
  2
UCS
  5
1B
330
0
100
AcDbSymbolTable
 70
     0
  0
ENDTAB
  0
TABLE
  2
APPID
  5
1E
330
0
100
AcDbSymbolTable
 70
    11
  0
APPID
  5
1F
330
1E
100
AcDbSymbolTableRecord
100
AcDbRegAppTableRecord
  2
ACAD
 70
     0
  0
APPID
  5
1E1
330
1E
100
AcDbSymbolTableRecord
100
AcDbRegAppTableRecord
  2
RAK
 70
     0
  0
APPID
  5
1E2
330
1E
100
AcDbSymbolTableRecord
100
AcDbRegAppTableRecord
  2
AcAecLayerStandard
 70
     0
  0
APPID
  5
A87
330
1E
100
AcDbSymbolTableRecord
100
AcDbRegAppTableRecord
  2
ACAD_PSEXT
 70
     0
  0
APPID
  5
C44
330
1E
100
AcDbSymbolTableRecord
100
AcDbRegAppTableRecord
  2
DCO15
 70
     0
  0
APPID
  5
1744
330
1E
100
AcDbSymbolTableRecord
100
AcDbRegAppTableRecord
  2
ACAD_EXEMPT_FROM_CAD_STANDARDS
 70
     0
  0
APPID
  5
1745
330
1E
100
AcDbSymbolTableRecord
100
AcDbRegAppTableRecord
  2
ACAD_DSTYLE_DIM_LINETYPE
 70
     0
  0
APPID
  5
1746
330
1E
100
AcDbSymbolTableRecord
100
AcDbRegAppTableRecord
  2
ACAD_DSTYLE_DIM_EXT1_LINETYPE
 70
     0
  0
APPID
  5
1747
330
1E
100
AcDbSymbolTableRecord
100
AcDbRegAppTableRecord
  2
ACAD_DSTYLE_DIM_EXT2_LINETYPE
 70
     0
  0
APPID
  5
1988
330
1E
100
AcDbSymbolTableRecord
100
AcDbRegAppTableRecord
  2
AcLayerTools
 70
     0
  0
APPID
  5
226A
330
1E
100
AcDbSymbolTableRecord
100
AcDbRegAppTableRecord
  2
ACAD_MLEADERVER
 70
     0
  0
ENDTAB
  0
TABLE
  2
DIMSTYLE
  5
20
330
0
100
AcDbSymbolTable
 70
     9
100
AcDbDimStyleTable
 71
     2
340
21
340
2B
  0
DIMSTYLE
105
21
102
{ACAD_REACTORS
330
2142
330
2143
330
2144
330
2146
330
2148
330
2149
330
214A
330
214B
330
262A
330
262B
330
262C
330
262D
330
262E
330
262F
330
2630
330
2631
102
}
330
20
100
AcDbSymbolTableRecord
100
AcDbDimStyleTableRecord
  2
500
 70
     0
 41
30.0
 42
43.0
 43
0.0
 44
13.0
 45
0.5
 46
12.0
 73
     0
 74
     0
 75
     1
 76
     1
 78
    12
140
80.0
141
0.0
145
1.0
147
0.0
172
     1
174
     1
176
     1
177
     1
178
    10
271
     1
272
     1
279
     2
340
22
341
23
342
23
  0
DIMSTYLE
105
2B
330
20
100
AcDbSymbolTableRecord
100
AcDbDimStyleTableRecord
  2
Standard
 70
     0
340
15
  0
ENDTAB
  0
TABLE
  2
BLOCK_RECORD
  5
1
330
0
100
AcDbSymbolTable
 70
    95
  0
BLOCK_RECORD
  5
2
102
{ACAD_XDICTIONARY
360
1FEF
102
}
330
1
100
AcDbSymbolTableRecord
100
AcDbBlockTableRecord
  2
*Model_Space
340
A
  0
BLOCK_RECORD
  5
D
330
1
100
AcDbSymbolTableRecord
100
AcDbBlockTableRecord
  2
*Paper_Space
340
10
  0
BLOCK_RECORD
  5
23
102
{ACAD_XDICTIONARY
360
24
102
}
330
1
100
AcDbSymbolTableRecord
100
AcDbBlockTableRecord
  2
B-DIM
340
0
102
{BLKREFS
331
2087
331
2088
331
2092
331
2093
331
209D
331
209E
331
20DA
331
20DB
331
20E5
331
20E6
331
20F0
331
20F1
331
21F2
331
21F3
331
21F9
331
21FA
331
2200
331
2201
331
2210
331
2211
331
223A
331
223B
331
2241
331
2242
331
2248
331
2249
331
224F
331
2250
331
22CB
331
22CC
331
22D5
331
22D6
331
22DF
331
22E0
331
22E9
331
22EA
331
22F5
331
22F6
331
22FF
331
2300
331
2309
331
230A
331
2313
331
2314
331
231D
331
231E
331
2327
331
2328
331
2331
331
2332
331
233B
331
233C
331
2347
331
2348
331
2351
331
2352
331
235B
331
235C
331
2365
331
2366
331
252E
331
252F
331
2538
331
2539
331
2544
331
2545
331
254E
331
254F
331
255A
331
255B
331
2564
331
2565
331
256E
331
256F
331
2578
331
2579
331
2584
331
2585
331
258E
331
258F
331
259A
331
259B
331
25A4
331
25A5
331
25B0
331
25B1
331
25BA
331
25BB
331
25C4
331
25C5
331
25CE
331
25CF
331
25DA
331
25DB
331
25E3
331
25E4
331
268C
331
268D
331
2693
331
2694
331
269A
331
269B
331
26A1
331
26A2
331
26A8
331
26A9
331
26B1
331
26B2
331
26B8
331
26B9
331
26BF
331
26C0
102
}
  0
BLOCK_RECORD
  5
214C
330
1
100
AcDbSymbolTableRecord
100
AcDbBlockTableRecord
  2
*D45
340
0
  0
BLOCK_RECORD
  5
2158
330
1
100
AcDbSymbolTableRecord
100
AcDbBlockTableRecord
  2
*D46
340
0
  0
BLOCK_RECORD
  5
2162
330
1
100
AcDbSymbolTableRecord
100
AcDbBlockTableRecord
  2
*D47
340
0
  0
BLOCK_RECORD
  5
2178
330
1
100
AcDbSymbolTableRecord
100
AcDbBlockTableRecord
  2
*D48
340
0
  0
BLOCK_RECORD
  5
218E
330
1
100
AcDbSymbolTableRecord
100
AcDbBlockTableRecord
  2
*D49
340
0
  0
BLOCK_RECORD
  5
2198
330
1
100
AcDbSymbolTableRecord
100
AcDbBlockTableRecord
  2
*D50
340
0
  0
BLOCK_RECORD
  5
21A4
330
1
100
AcDbSymbolTableRecord
100
AcDbBlockTableRecord
  2
*D51
340
0
  0
BLOCK_RECORD
  5
21AE
330
1
100
AcDbSymbolTableRecord
100
AcDbBlockTableRecord
  2
*D52
340
0
  0
BLOCK_RECORD
  5
2635
330
1
100
AcDbSymbolTableRecord
100
AcDbBlockTableRecord
  2
*D86
340
0
  0
BLOCK_RECORD
  5
2641
330
1
100
AcDbSymbolTableRecord
100
AcDbBlockTableRecord
  2
*D87
340
0
  0
BLOCK_RECORD
  5
264B
330
1
100
AcDbSymbolTableRecord
100
AcDbBlockTableRecord
  2
*D88
340
0
  0
BLOCK_RECORD
  5
2655
330
1
100
AcDbSymbolTableRecord
100
AcDbBlockTableRecord
  2
*D89
340
0
  0
BLOCK_RECORD
  5
265F
330
1
100
AcDbSymbolTableRecord
100
AcDbBlockTableRecord
  2
*D90
340
0
  0
BLOCK_RECORD
  5
2669
330
1
100
AcDbSymbolTableRecord
100
AcDbBlockTableRecord
  2
*D91
340
0
  0
BLOCK_RECORD
  5
2675
330
1
100
AcDbSymbolTableRecord
100
AcDbBlockTableRecord
  2
*D92
340
0
  0
BLOCK_RECORD
  5
267F
330
1
100
AcDbSymbolTableRecord
100
AcDbBlockTableRecord
  2
*D93
340
0
  0
ENDTAB
  0
ENDSEC
  0
SECTION
  2
BLOCKS
  0
BLOCK
  5
3
330
2
100
AcDbEntity
  8
0
100
AcDbBlockBegin
  2
*Model_Space
 70
     0
 10
0.0
 20
0.0
 30
0.0
  3
*Model_Space
  1

  0
ENDBLK
  5
9
330
2
100
AcDbEntity
  8
0
100
AcDbBlockEnd
  0
BLOCK
  5
E
330
D
100
AcDbEntity
 67
     1
  8
0
100
AcDbBlockBegin
  2
*Paper_Space
 70
     0
 10
0.0
 20
0.0
 30
0.0
  3
*Paper_Space
  1

  0
ENDBLK
  5
F
330
D
100
AcDbEntity
 67
     1
  8
0
100
AcDbBlockEnd
  0
BLOCK
  5
26
330
23
100
AcDbEntity
  8
0
100
AcDbBlockBegin
  2
B-DIM
 70
     0
 10
0.0
 20
0.0
 30
0.0
  3
B-DIM
  1

  0
LINE
  5
27
330
23
100
AcDbEntity
  8
0
 62
     1
100
AcDbLine
 10
0.000000000000091
 20
-1.1
 30
0.0
 11
0.000000000000091
 21
1.1
 31
0.0
  0
LWPOLYLINE
  5
28
330
23
100
AcDbEntity
  8
0
 62
     1
100
AcDbPolyline
 90
        2
 70
     0
 43
0.3
 10
-0.7071067811864851
 20
-0.7071067811864851
 10
0.707106781186576
 20
0.707106781186576
  0
LINE
  5
29
330
23
100
AcDbEntity
  8
0
 62
     1
100
AcDbLine
 10
1.20000000000009
 20
0.0
 30
0.0
 11
-1.199999999999909
 21
0.0
 31
0.0
  0
ENDBLK
  5
2A
330
23
100
AcDbEntity
  8
0
100
AcDbBlockEnd
  0
BLOCK
  5
2156
330
214C
100
AcDbEntity
  8
0
100
AcDbBlockBegin
  2
*D45
 70
     1
 10
0.0
 20
0.0
 30
0.0
  3
*D45
  1

  0
LINE
  5
25E0
330
214C
100
AcDbEntity
  8
0Hatch
 62
     1
370
    -2
100
AcDbLine
 10
223824.5075177089
 20
137565.1075190105
 30
0.0
 11
223824.5075177089
 21
137595.1075190105
 31
0.0
  0
LINE
  5
25E1
330
214C
100
AcDbEntity
  8
0Hatch
 62
     1
370
    -2
100
AcDbLine
 10
223824.5075177089
 20
137355.1075190106
 30
0.0
 11
223824.5075177089
 21
137325.1075190106
 31
0.0
  0
LINE
  5
25E2
330
214C
100
AcDbEntity
  8
0Hatch
 62
     1
370
    -2
100
AcDbLine
 10
223824.5075177089
 20
137535.1075190105
 30
0.0
 11
223824.5075177089
 21
137385.1075190106
 31
0.0
  0
INSERT
  5
25E3
330
214C
100
AcDbEntity
  8
0Hatch
 62
     1
370
    -2
100
AcDbBlockReference
  2
B-DIM
 10
223824.5075177089
 20
137535.1075190105
 30
0.0
 41
30.0
 42
30.0
 43
30.0
 50
270.0
  0
INSERT
  5
25E4
330
214C
100
AcDbEntity
  8
0Hatch
 62
     1
370
    -2
100
AcDbBlockReference
  2
B-DIM
 10
223824.5075177089
 20
137385.1075190106
 30
0.0
 41
30.0
 42
30.0
 43
30.0
 50
90.0
  0
MTEXT
  5
25E5
330
214C
100
AcDbEntity
  8
0Hatch
 62
    10
100
AcDbMText
 10
223744.5075177089
 20
137460.1075190106
 30
0.0
 40
80.0
 41
0.0
 71
     5
 72
     1
  1
\A1;150
  7
ROMANS
 11
0.0000000000000001
 21
1.0
 31
0.0
 73
     1
 44
1.0
1001
ACAD
1000
MTEXTBEGIN
1070
    73
1070
     1
1070
    44
1040
1.0
1070
    74
1070
     0
1000
MTEXTEND
  0
POINT
  5
25E6
330
214C
100
AcDbEntity
  8
DEFPOINTS
 62
     0
100
AcDbPoint
 10
222862.7250068845
 20
137535.1075190105
 30
0.0
  0
POINT
  5
25E7
330
214C
100
AcDbEntity
  8
DEFPOINTS
 62
     0
100
AcDbPoint
 10
223087.1245980791
 20
137385.1075190106
 30
0.0
  0
POINT
  5
25E8
330
214C
100
AcDbEntity
  8
DEFPOINTS
 62
     0
100
AcDbPoint
 10
223824.5075177089
 20
137385.1075190106
 30
0.0
  0
ENDBLK
  5
2157
330
214C
100
AcDbEntity
  8
0
100
AcDbBlockEnd
  0
BLOCK
  5
2160
330
2158
100
AcDbEntity
  8
0
100
AcDbBlockBegin
  2
*D46
 70
     1
 10
0.0
 20
0.0
 30
0.0
  3
*D46
  1

  0
LINE
  5
220F
330
2158
100
AcDbEntity
  8
0Wymiary-PL
 62
     1
370
    -2
100
AcDbLine
 10
223824.5075177089
 20
137355.1075190106
 30
0.0
 11
223824.5075177089
 21
136083.1075190106
 31
0.0
  0
INSERT
  5
2210
330
2158
100
AcDbEntity
  8
0Wymiary-PL
 62
     1
370
    -2
100
AcDbBlockReference
  2
B-DIM
 10
223824.5075177089
 20
137385.1075190106
 30
0.0
 41
30.0
 42
30.0
 43
30.0
 50
90.0
  0
INSERT
  5
2211
330
2158
100
AcDbEntity
  8
0Wymiary-PL
 62
     1
370
    -2
100
AcDbBlockReference
  2
B-DIM
 10
223824.5075177089
 20
136053.1075190106
 30
0.0
 41
30.0
 42
30.0
 43
30.0
 50
270.0
  0
MTEXT
  5
2212
330
2158
100
AcDbEntity
  8
0Wymiary-PL
 62
    10
100
AcDbMText
 10
223744.5075177089
 20
136719.1075190106
 30
0.0
 40
80.0
 41
0.0
 71
     5
 72
     1
  1
\A1;1332
  7
ROMANS
 11
0.0000000000000001
 21
1.0
 31
0.0
 73
     1
 44
1.0
1001
ACAD
1000
MTEXTBEGIN
1070
    73
1070
     1
1070
    44
1040
1.0
1070
    74
1070
     0
1000
MTEXTEND
  0
POINT
  5
2213
330
2158
100
AcDbEntity
  8
DEFPOINTS
 62
     0
100
AcDbPoint
 10
223087.1245980791
 20
137385.1075190106
 30
0.0
  0
POINT
  5
2214
330
2158
100
AcDbEntity
  8
DEFPOINTS
 62
     0
100
AcDbPoint
 10
223199.5208486766
 20
136053.1075190106
 30
0.0
  0
POINT
  5
2215
330
2158
100
AcDbEntity
  8
DEFPOINTS
 62
     0
100
AcDbPoint
 10
223824.5075177089
 20
136053.1075190106
 30
0.0
  0
ENDBLK
  5
2161
330
2158
100
AcDbEntity
  8
0
100
AcDbBlockEnd
  0
BLOCK
  5
216A
330
2162
100
AcDbEntity
  8
0
100
AcDbBlockBegin
  2
*D47
 70
     1
 10
0.0
 20
0.0
 30
0.0
  3
*D47
  1

  0
LINE
  5
25D9
330
2162
100
AcDbEntity
  8
0Hatch
 62
     1
370
    -2
100
AcDbLine
 10
223824.5075177089
 20
136023.1075190106
 30
0.0
 11
223824.5075177089
 21
135903.1075190106
 31
0.0
  0
INSERT
  5
25DA
330
2162
100
AcDbEntity
  8
0Hatch
 62
     1
370
    -2
100
AcDbBlockReference
  2
B-DIM
 10
223824.5075177089
 20
136053.1075190106
 30
0.0
 41
30.0
 42
30.0
 43
30.0
 50
90.0
  0
INSERT
  5
25DB
330
2162
100
AcDbEntity
  8
0Hatch
 62
     1
370
    -2
100
AcDbBlockReference
  2
B-DIM
 10
223824.5075177089
 20
135873.1075190106
 30
0.0
 41
30.0
 42
30.0
 43
30.0
 50
270.0
  0
MTEXT
  5
25DC
330
2162
100
AcDbEntity
  8
0Hatch
 62
    10
100
AcDbMText
 10
223744.5075177089
 20
135963.1075190107
 30
0.0
 40
80.0
 41
0.0
 71
     5
 72
     1
  1
\A1;180
  7
ROMANS
 11
0.0000000000000001
 21
1.0
 31
0.0
 73
     1
 44
1.0
1001
ACAD
1000
MTEXTBEGIN
1070
    73
1070
     1
1070
    44
1040
1.0
1070
    74
1070
     0
1000
MTEXTEND
  0
POINT
  5
25DD
330
2162
100
AcDbEntity
  8
DEFPOINTS
 62
     0
100
AcDbPoint
 10
223199.5208486766
 20
136053.1075190106
 30
0.0
  0
POINT
  5
25DE
330
2162
100
AcDbEntity
  8
DEFPOINTS
 62
     0
100
AcDbPoint
 10
222716.5208486765
 20
135873.1075190106
 30
0.0
  0
POINT
  5
25DF
330
2162
100
AcDbEntity
  8
DEFPOINTS
 62
     0
100
AcDbPoint
 10
223824.5075177089
 20
135873.1075190106
 30
0.0
  0
ENDBLK
  5
216B
330
2162
100
AcDbEntity
  8
0
100
AcDbBlockEnd
  0
BLOCK
  5
2180
330
2178
100
AcDbEntity
  8
0
100
AcDbBlockBegin
  2
*D48
 70
     1
 10
0.0
 20
0.0
 30
0.0
  3
*D48
  1

  0
LINE
  5
224E
330
2178
100
AcDbEntity
  8
0Wymiary-PL
 62
     1
370
    -2
100
AcDbLine
 10
223052.0013519464
 20
138109.4891981864
 30
0.0
 11
222212.0013519464
 21
138109.4891981864
 31
0.0
  0
INSERT
  5
224F
330
2178
100
AcDbEntity
  8
0Wymiary-PL
 62
     1
370
    -2
100
AcDbBlockReference
  2
B-DIM
 10
223082.0013519464
 20
138109.4891981864
 30
0.0
 41
30.0
 42
30.0
 43
30.0
  0
INSERT
  5
2250
330
2178
100
AcDbEntity
  8
0Wymiary-PL
 62
     1
370
    -2
100
AcDbBlockReference
  2
B-DIM
 10
222182.0013519464
 20
138109.4891981864
 30
0.0
 41
30.0
 42
30.0
 43
30.0
 50
180.0
  0
MTEXT
  5
2251
330
2178
100
AcDbEntity
  8
0Wymiary-PL
 62
    10
100
AcDbMText
 10
222632.0013519464
 20
138189.4891981864
 30
0.0
 40
80.0
 41
0.0
 71
     5
 72
     1
  1
\A1;900
  7
ROMANS
 73
     1
 44
1.0
1001
ACAD
1000
MTEXTBEGIN
1070
    73
1070
     1
1070
    44
1040
1.0
1070
    74
1070
     0
1000
MTEXTEND
  0
POINT
  5
2252
330
2178
100
AcDbEntity
  8
DEFPOINTS
 62
     0
100
AcDbPoint
 10
223082.0013519464
 20
136985.1075190106
 30
0.0
  0
POINT
  5
2253
330
2178
100
AcDbEntity
  8
DEFPOINTS
 62
     0
100
AcDbPoint
 10
222182.0013519464
 20
137385.1075190106
 30
0.0
  0
POINT
  5
2254
330
2178
100
AcDbEntity
  8
DEFPOINTS
 62
     0
100
AcDbPoint
 10
222182.0013519464
 20
138109.4891981864
 30
0.0
  0
ENDBLK
  5
2181
330
2178
100
AcDbEntity
  8
0
100
AcDbBlockEnd
  0
BLOCK
  5
2196
330
218E
100
AcDbEntity
  8
0
100
AcDbBlockBegin
  2
*D49
 70
     1
 10
0.0
 20
0.0
 30
0.0
  3
*D49
  1

  0
LINE
  5
2247
330
218E
100
AcDbEntity
  8
0Wymiary-PL
 62
     1
370
    -2
100
AcDbLine
 10
221837.1486851482
 20
137505.1075190106
 30
0.0
 11
221837.1486851482
 21
135903.1075190106
 31
0.0
  0
INSERT
  5
2248
330
218E
100
AcDbEntity
  8
0Wymiary-PL
 62
     1
370
    -2
100
AcDbBlockReference
  2
B-DIM
 10
221837.1486851482
 20
137535.1075190106
 30
0.0
 41
30.0
 42
30.0
 43
30.0
 50
90.0
  0
INSERT
  5
2249
330
218E
100
AcDbEntity
  8
0Wymiary-PL
 62
     1
370
    -2
100
AcDbBlockReference
  2
B-DIM
 10
221837.1486851482
 20
135873.1075190106
 30
0.0
 41
30.0
 42
30.0
 43
30.0
 50
270.0
  0
MTEXT
  5
224A
330
218E
100
AcDbEntity
  8
0Wymiary-PL
 62
    10
100
AcDbMText
 10
221757.1486851481
 20
136704.1075190106
 30
0.0
 40
80.0
 41
0.0
 71
     5
 72
     1
  1
\A1;1662
  7
ROMANS
 11
0.0000000000000001
 21
1.0
 31
0.0
 73
     1
 44
1.0
1001
ACAD
1000
MTEXTBEGIN
1070
    73
1070
     1
1070
    44
1040
1.0
1070
    74
1070
     0
1000
MTEXTEND
  0
POINT
  5
224B
330
218E
100
AcDbEntity
  8
DEFPOINTS
 62
     0
100
AcDbPoint
 10
222518.7971937382
 20
137535.1075190106
 30
0.0
  0
POINT
  5
224C
330
218E
100
AcDbEntity
  8
DEFPOINTS
 62
     0
100
AcDbPoint
 10
222329.5208486765
 20
135873.1075190106
 30
0.0
  0
POINT
  5
224D
330
218E
100
AcDbEntity
  8
DEFPOINTS
 62
     0
100
AcDbPoint
 10
221837.1486851482
 20
135873.1075190106
 30
0.0
  0
ENDBLK
  5
2197
330
218E
100
AcDbEntity
  8
0
100
AcDbBlockEnd
  0
BLOCK
  5
21A2
330
2198
100
AcDbEntity
  8
0
100
AcDbBlockBegin
  2
*D50
 70
     1
 10
0.0
 20
0.0
 30
0.0
  3
*D50
  1

  0
LINE
  5
21EF
330
2198
100
AcDbEntity
  8
0Wymiary-PL
 62
     1
370
    -2
100
AcDbLine
 10
223112.0013519464
 20
135238.861181402
 30
0.0
 11
223142.0013519464
 21
135238.861181402
 31
0.0
  0
LINE
  5
21F0
330
2198
100
AcDbEntity
  8
0Wymiary-PL
 62
     1
370
    -2
100
AcDbLine
 10
223022.0013519464
 20
135238.861181402
 30
0.0
 11
222992.0013519464
 21
135238.861181402
 31
0.0
  0
LINE
  5
21F1
330
2198
100
AcDbEntity
  8
0Wymiary-PL
 62
     1
370
    -2
100
AcDbLine
 10
223082.0013519464
 20
135238.861181402
 30
0.0
 11
223052.0013519464
 21
135238.861181402
 31
0.0
  0
INSERT
  5
21F2
330
2198
100
AcDbEntity
  8
0Wymiary-PL
 62
     1
370
    -2
100
AcDbBlockReference
  2
B-DIM
 10
223082.0013519464
 20
135238.861181402
 30
0.0
 41
30.0
 42
30.0
 43
30.0
 50
180.0
  0
INSERT
  5
21F3
330
2198
100
AcDbEntity
  8
0Wymiary-PL
 62
     1
370
    -2
100
AcDbBlockReference
  2
B-DIM
 10
223052.0013519464
 20
135238.861181402
 30
0.0
 41
30.0
 42
30.0
 43
30.0
  0
MTEXT
  5
21F4
330
2198
100
AcDbEntity
  8
0Wymiary-PL
 62
    10
100
AcDbMText
 10
223067.0013519464
 20
135318.8611814021
 30
0.0
 40
80.0
 41
0.0
 71
     5
 72
     1
  1
\A1;30
  7
ROMANS
 73
     1
 44
1.0
1001
ACAD
1000
MTEXTBEGIN
1070
    73
1070
     1
1070
    44
1040
1.0
1070
    74
1070
     0
1000
MTEXTEND
  0
POINT
  5
21F5
330
2198
100
AcDbEntity
  8
DEFPOINTS
 62
     0
100
AcDbPoint
 10
223082.0013519464
 20
136453.1075190105
 30
0.0
  0
POINT
  5
21F6
330
2198
100
AcDbEntity
  8
DEFPOINTS
 62
     0
100
AcDbPoint
 10
223052.0013519464
 20
136453.1075190105
 30
0.0
  0
POINT
  5
21F7
330
2198
100
AcDbEntity
  8
DEFPOINTS
 62
     0
100
AcDbPoint
 10
223052.0013519464
 20
135238.861181402
 30
0.0
  0
ENDBLK
  5
21A3
330
2198
100
AcDbEntity
  8
0
100
AcDbBlockEnd
  0
BLOCK
  5
21AC
330
21A4
100
AcDbEntity
  8
0
100
AcDbBlockBegin
  2
*D51
 70
     1
 10
0.0
 20
0.0
 30
0.0
  3
*D51
  1

  0
LINE
  5
21F8
330
21A4
100
AcDbEntity
  8
0Wymiary-PL
 62
     1
370
    -2
100
AcDbLine
 10
223022.0013519464
 20
135238.861181402
 30
0.0
 11
222599.0013519464
 21
135238.861181402
 31
0.0
  0
INSERT
  5
21F9
330
21A4
100
AcDbEntity
  8
0Wymiary-PL
 62
     1
370
    -2
100
AcDbBlockReference
  2
B-DIM
 10
223052.0013519464
 20
135238.861181402
 30
0.0
 41
30.0
 42
30.0
 43
30.0
  0
INSERT
  5
21FA
330
21A4
100
AcDbEntity
  8
0Wymiary-PL
 62
     1
370
    -2
100
AcDbBlockReference
  2
B-DIM
 10
222569.0013519464
 20
135238.861181402
 30
0.0
 41
30.0
 42
30.0
 43
30.0
 50
180.0
  0
MTEXT
  5
21FB
330
21A4
100
AcDbEntity
  8
0Wymiary-PL
 62
    10
100
AcDbMText
 10
222810.5013519464
 20
135318.8611814021
 30
0.0
 40
80.0
 41
0.0
 71
     5
 72
     1
  1
\A1;483
  7
ROMANS
 73
     1
 44
1.0
1001
ACAD
1000
MTEXTBEGIN
1070
    73
1070
     1
1070
    44
1040
1.0
1070
    74
1070
     0
1000
MTEXTEND
  0
POINT
  5
21FC
330
21A4
100
AcDbEntity
  8
DEFPOINTS
 62
     0
100
AcDbPoint
 10
223052.0013519464
 20
136453.1075190105
 30
0.0
  0
POINT
  5
21FD
330
21A4
100
AcDbEntity
  8
DEFPOINTS
 62
     0
100
AcDbPoint
 10
222569.0013519464
 20
136053.1075190104
 30
0.0
  0
POINT
  5
21FE
330
21A4
100
AcDbEntity
  8
DEFPOINTS
 62
     0
100
AcDbPoint
 10
222569.0013519464
 20
135238.861181402
 30
0.0
  0
ENDBLK
  5
21AD
330
21A4
100
AcDbEntity
  8
0
100
AcDbBlockEnd
  0
BLOCK
  5
21B6
330
21AE
100
AcDbEntity
  8
0
100
AcDbBlockBegin
  2
*D52
 70
     1
 10
0.0
 20
0.0
 30
0.0
  3
*D52
  1

  0
LINE
  5
21FF
330
21AE
100
AcDbEntity
  8
0Wymiary-PL
 62
     1
370
    -2
100
AcDbLine
 10
222539.0013519464
 20
135238.861181402
 30
0.0
 11
222212.0013519464
 21
135238.861181402
 31
0.0
  0
INSERT
  5
2200
330
21AE
100
AcDbEntity
  8
0Wymiary-PL
 62
     1
370
    -2
100
AcDbBlockReference
  2
B-DIM
 10
222569.0013519464
 20
135238.861181402
 30
0.0
 41
30.0
 42
30.0
 43
30.0
  0
INSERT
  5
2201
330
21AE
100
AcDbEntity
  8
0Wymiary-PL
 62
     1
370
    -2
100
AcDbBlockReference
  2
B-DIM
 10
222182.0013519464
 20
135238.861181402
 30
0.0
 41
30.0
 42
30.0
 43
30.0
 50
180.0
  0
MTEXT
  5
2202
330
21AE
100
AcDbEntity
  8
0Wymiary-PL
 62
    10
100
AcDbMText
 10
222375.5013519464
 20
135318.8611814021
 30
0.0
 40
80.0
 41
0.0
 71
     5
 72
     1
  1
\A1;387
  7
ROMANS
 73
     1
 44
1.0
1001
ACAD
1000
MTEXTBEGIN
1070
    73
1070
     1
1070
    44
1040
1.0
1070
    74
1070
     0
1000
MTEXTEND
  0
POINT
  5
2203
330
21AE
100
AcDbEntity
  8
DEFPOINTS
 62
     0
100
AcDbPoint
 10
222569.0013519464
 20
136053.1075190104
 30
0.0
  0
POINT
  5
2204
330
21AE
100
AcDbEntity
  8
DEFPOINTS
 62
     0
100
AcDbPoint
 10
222182.0013519464
 20
136053.1075190104
 30
0.0
  0
POINT
  5
2205
330
21AE
100
AcDbEntity
  8
DEFPOINTS
 62
     0
100
AcDbPoint
 10
222182.0013519464
 20
135238.861181402
 30
0.0
  0
ENDBLK
  5
21B7
330
21AE
100
AcDbEntity
  8
0
100
AcDbBlockEnd
  0
BLOCK
  5
2636
330
2635
100
AcDbEntity
  8
0
100
AcDbBlockBegin
  2
*D86
 70
     1
 10
0.0
 20
0.0
 30
0.0
  3
*D86
  1

  0
LINE
  5
2689
330
2635
100
AcDbEntity
  8
0Hatch
 62
     1
370
    -2
100
AcDbLine
 10
216975.2709720361
 20
137565.1075190105
 30
0.0
 11
216975.2709720361
 21
137595.1075190105
 31
0.0
  0
LINE
  5
268A
330
2635
100
AcDbEntity
  8
0Hatch
 62
     1
370
    -2
100
AcDbLine
 10
216975.2709720361
 20
137355.1075190106
 30
0.0
 11
216975.2709720361
 21
137325.1075190106
 31
0.0
  0
LINE
  5
268B
330
2635
100
AcDbEntity
  8
0Hatch
 62
     1
370
    -2
100
AcDbLine
 10
216975.2709720361
 20
137535.1075190105
 30
0.0
 11
216975.2709720361
 21
137385.1075190106
 31
0.0
  0
INSERT
  5
268C
330
2635
100
AcDbEntity
  8
0Hatch
 62
     1
370
    -2
100
AcDbBlockReference
  2
B-DIM
 10
216975.2709720361
 20
137535.1075190105
 30
0.0
 41
30.0
 42
30.0
 43
30.0
 50
270.0
  0
INSERT
  5
268D
330
2635
100
AcDbEntity
  8
0Hatch
 62
     1
370
    -2
100
AcDbBlockReference
  2
B-DIM
 10
216975.2709720361
 20
137385.1075190106
 30
0.0
 41
30.0
 42
30.0
 43
30.0
 50
90.0
  0
MTEXT
  5
268E
330
2635
100
AcDbEntity
  8
0Hatch
 62
    10
100
AcDbMText
 10
216895.2709720361
 20
137460.1075190106
 30
0.0
 40
80.0
 41
0.0
 71
     5
 72
     1
  1
\A1;150
  7
ROMANS
 11
0.0000000000000001
 21
1.0
 31
0.0
 73
     1
 44
1.0
1001
ACAD
1000
MTEXTBEGIN
1070
    73
1070
     1
1070
    44
1040
1.0
1070
    74
1070
     0
1000
MTEXTEND
  0
POINT
  5
268F
330
2635
100
AcDbEntity
  8
DEFPOINTS
 62
     0
100
AcDbPoint
 10
217937.0534828605
 20
137535.1075190105
 30
0.0
  0
POINT
  5
2690
330
2635
100
AcDbEntity
  8
DEFPOINTS
 62
     0
100
AcDbPoint
 10
217712.653891666
 20
137385.1075190106
 30
0.0
  0
POINT
  5
2691
330
2635
100
AcDbEntity
  8
DEFPOINTS
 62
     0
100
AcDbPoint
 10
216975.2709720361
 20
137385.1075190106
 30
0.0
  0
ENDBLK
  5
2637
330
2635
100
AcDbEntity
  8
0
100
AcDbBlockEnd
  0
BLOCK
  5
2642
330
2641
100
AcDbEntity
  8
0
100
AcDbBlockBegin
  2
*D87
 70
     1
 10
0.0
 20
0.0
 30
0.0
  3
*D87
  1

  0
LINE
  5
2692
330
2641
100
AcDbEntity
  8
0Wymiary-PL
 62
     1
370
    -2
100
AcDbLine
 10
216975.2709720361
 20
137355.1075190106
 30
0.0
 11
216975.2709720361
 21
136083.1075190106
 31
0.0
  0
INSERT
  5
2693
330
2641
100
AcDbEntity
  8
0Wymiary-PL
 62
     1
370
    -2
100
AcDbBlockReference
  2
B-DIM
 10
216975.2709720361
 20
137385.1075190106
 30
0.0
 41
30.0
 42
30.0
 43
30.0
 50
90.0
  0
INSERT
  5
2694
330
2641
100
AcDbEntity
  8
0Wymiary-PL
 62
     1
370
    -2
100
AcDbBlockReference
  2
B-DIM
 10
216975.2709720361
 20
136053.1075190106
 30
0.0
 41
30.0
 42
30.0
 43
30.0
 50
270.0
  0
MTEXT
  5
2695
330
2641
100
AcDbEntity
  8
0Wymiary-PL
 62
    10
100
AcDbMText
 10
216895.2709720361
 20
136719.1075190106
 30
0.0
 40
80.0
 41
0.0
 71
     5
 72
     1
  1
\A1;1332
  7
ROMANS
 11
0.0000000000000001
 21
1.0
 31
0.0
 73
     1
 44
1.0
1001
ACAD
1000
MTEXTBEGIN
1070
    73
1070
     1
1070
    44
1040
1.0
1070
    74
1070
     0
1000
MTEXTEND
  0
POINT
  5
2696
330
2641
100
AcDbEntity
  8
DEFPOINTS
 62
     0
100
AcDbPoint
 10
217712.653891666
 20
137385.1075190106
 30
0.0
  0
POINT
  5
2697
330
2641
100
AcDbEntity
  8
DEFPOINTS
 62
     0
100
AcDbPoint
 10
217600.2576410685
 20
136053.1075190106
 30
0.0
  0
POINT
  5
2698
330
2641
100
AcDbEntity
  8
DEFPOINTS
 62
     0
100
AcDbPoint
 10
216975.2709720361
 20
136053.1075190106
 30
0.0
  0
ENDBLK
  5
2643
330
2641
100
AcDbEntity
  8
0
100
AcDbBlockEnd
  0
BLOCK
  5
264C
330
264B
100
AcDbEntity
  8
0
100
AcDbBlockBegin
  2
*D88
 70
     1
 10
0.0
 20
0.0
 30
0.0
  3
*D88
  1

  0
LINE
  5
2699
330
264B
100
AcDbEntity
  8
0Hatch
 62
     1
370
    -2
100
AcDbLine
 10
216975.2709720361
 20
136023.1075190106
 30
0.0
 11
216975.2709720361
 21
135903.1075190106
 31
0.0
  0
INSERT
  5
269A
330
264B
100
AcDbEntity
  8
0Hatch
 62
     1
370
    -2
100
AcDbBlockReference
  2
B-DIM
 10
216975.2709720361
 20
136053.1075190106
 30
0.0
 41
30.0
 42
30.0
 43
30.0
 50
90.0
  0
INSERT
  5
269B
330
264B
100
AcDbEntity
  8
0Hatch
 62
     1
370
    -2
100
AcDbBlockReference
  2
B-DIM
 10
216975.2709720361
 20
135873.1075190106
 30
0.0
 41
30.0
 42
30.0
 43
30.0
 50
270.0
  0
MTEXT
  5
269C
330
264B
100
AcDbEntity
  8
0Hatch
 62
    10
100
AcDbMText
 10
216895.2709720361
 20
135963.1075190107
 30
0.0
 40
80.0
 41
0.0
 71
     5
 72
     1
  1
\A1;180
  7
ROMANS
 11
0.0000000000000001
 21
1.0
 31
0.0
 73
     1
 44
1.0
1001
ACAD
1000
MTEXTBEGIN
1070
    73
1070
     1
1070
    44
1040
1.0
1070
    74
1070
     0
1000
MTEXTEND
  0
POINT
  5
269D
330
264B
100
AcDbEntity
  8
DEFPOINTS
 62
     0
100
AcDbPoint
 10
217600.2576410685
 20
136053.1075190106
 30
0.0
  0
POINT
  5
269E
330
264B
100
AcDbEntity
  8
DEFPOINTS
 62
     0
100
AcDbPoint
 10
218083.2576410685
 20
135873.1075190106
 30
0.0
  0
POINT
  5
269F
330
264B
100
AcDbEntity
  8
DEFPOINTS
 62
     0
100
AcDbPoint
 10
216975.2709720361
 20
135873.1075190106
 30
0.0
  0
ENDBLK
  5
264D
330
264B
100
AcDbEntity
  8
0
100
AcDbBlockEnd
  0
BLOCK
  5
2656
330
2655
100
AcDbEntity
  8
0
100
AcDbBlockBegin
  2
*D89
 70
     1
 10
0.0
 20
0.0
 30
0.0
  3
*D89
  1

  0
LINE
  5
26A0
330
2655
100
AcDbEntity
  8
0Wymiary-PL
 62
     1
370
    -2
100
AcDbLine
 10
217747.7771377987
 20
138109.4891981864
 30
0.0
 11
218587.7771377987
 21
138109.4891981864
 31
0.0
  0
INSERT
  5
26A1
330
2655
100
AcDbEntity
  8
0Wymiary-PL
 62
     1
370
    -2
100
AcDbBlockReference
  2
B-DIM
 10
217717.7771377987
 20
138109.4891981864
 30
0.0
 41
30.0
 42
30.0
 43
30.0
 50
180.0
  0
INSERT
  5
26A2
330
2655
100
AcDbEntity
  8
0Wymiary-PL
 62
     1
370
    -2
100
AcDbBlockReference
  2
B-DIM
 10
218617.7771377987
 20
138109.4891981864
 30
0.0
 41
30.0
 42
30.0
 43
30.0
  0
MTEXT
  5
26A3
330
2655
100
AcDbEntity
  8
0Wymiary-PL
 62
    10
100
AcDbMText
 10
218167.7771377987
 20
138189.4891981864
 30
0.0
 40
80.0
 41
0.0
 71
     5
 72
     1
  1
\A1;900
  7
ROMANS
 73
     1
 44
1.0
1001
ACAD
1000
MTEXTBEGIN
1070
    73
1070
     1
1070
    44
1040
1.0
1070
    74
1070
     0
1000
MTEXTEND
  0
POINT
  5
26A4
330
2655
100
AcDbEntity
  8
DEFPOINTS
 62
     0
100
AcDbPoint
 10
217717.7771377987
 20
136985.1075190106
 30
0.0
  0
POINT
  5
26A5
330
2655
100
AcDbEntity
  8
DEFPOINTS
 62
     0
100
AcDbPoint
 10
218617.7771377987
 20
137385.1075190106
 30
0.0
  0
POINT
  5
26A6
330
2655
100
AcDbEntity
  8
DEFPOINTS
 62
     0
100
AcDbPoint
 10
218617.7771377987
 20
138109.4891981864
 30
0.0
  0
ENDBLK
  5
2657
330
2655
100
AcDbEntity
  8
0
100
AcDbBlockEnd
  0
BLOCK
  5
2660
330
265F
100
AcDbEntity
  8
0
100
AcDbBlockBegin
  2
*D90
 70
     1
 10
0.0
 20
0.0
 30
0.0
  3
*D90
  1

  0
LINE
  5
26A7
330
265F
100
AcDbEntity
  8
0Wymiary-PL
 62
     1
370
    -2
100
AcDbLine
 10
218962.6298045969
 20
137505.1075190106
 30
0.0
 11
218962.6298045969
 21
135903.1075190106
 31
0.0
  0
INSERT
  5
26A8
330
265F
100
AcDbEntity
  8
0Wymiary-PL
 62
     1
370
    -2
100
AcDbBlockReference
  2
B-DIM
 10
218962.6298045969
 20
137535.1075190106
 30
0.0
 41
30.0
 42
30.0
 43
30.0
 50
90.0
  0
INSERT
  5
26A9
330
265F
100
AcDbEntity
  8
0Wymiary-PL
 62
     1
370
    -2
100
AcDbBlockReference
  2
B-DIM
 10
218962.6298045969
 20
135873.1075190106
 30
0.0
 41
30.0
 42
30.0
 43
30.0
 50
270.0
  0
MTEXT
  5
26AA
330
265F
100
AcDbEntity
  8
0Wymiary-PL
 62
    10
100
AcDbMText
 10
218882.6298045969
 20
136704.1075190106
 30
0.0
 40
80.0
 41
0.0
 71
     5
 72
     1
  1
\A1;1662
  7
ROMANS
 11
0.0000000000000001
 21
1.0
 31
0.0
 73
     1
 44
1.0
1001
ACAD
1000
MTEXTBEGIN
1070
    73
1070
     1
1070
    44
1040
1.0
1070
    74
1070
     0
1000
MTEXTEND
  0
POINT
  5
26AB
330
265F
100
AcDbEntity
  8
DEFPOINTS
 62
     0
100
AcDbPoint
 10
218280.9812960069
 20
137535.1075190106
 30
0.0
  0
POINT
  5
26AC
330
265F
100
AcDbEntity
  8
DEFPOINTS
 62
     0
100
AcDbPoint
 10
218470.2576410685
 20
135873.1075190106
 30
0.0
  0
POINT
  5
26AD
330
265F
100
AcDbEntity
  8
DEFPOINTS
 62
     0
100
AcDbPoint
 10
218962.6298045969
 20
135873.1075190106
 30
0.0
  0
ENDBLK
  5
2661
330
265F
100
AcDbEntity
  8
0
100
AcDbBlockEnd
  0
BLOCK
  5
266A
330
2669
100
AcDbEntity
  8
0
100
AcDbBlockBegin
  2
*D91
 70
     1
 10
0.0
 20
0.0
 30
0.0
  3
*D91
  1

  0
LINE
  5
26AE
330
2669
100
AcDbEntity
  8
0Wymiary-PL
 62
     1
370
    -2
100
AcDbLine
 10
217687.7771377987
 20
135238.861181402
 30
0.0
 11
217657.7771377987
 21
135238.861181402
 31
0.0
  0
LINE
  5
26AF
330
2669
100
AcDbEntity
  8
0Wymiary-PL
 62
     1
370
    -2
100
AcDbLine
 10
217777.7771377987
 20
135238.861181402
 30
0.0
 11
217807.7771377987
 21
135238.861181402
 31
0.0
  0
LINE
  5
26B0
330
2669
100
AcDbEntity
  8
0Wymiary-PL
 62
     1
370
    -2
100
AcDbLine
 10
217717.7771377987
 20
135238.861181402
 30
0.0
 11
217747.7771377987
 21
135238.861181402
 31
0.0
  0
INSERT
  5
26B1
330
2669
100
AcDbEntity
  8
0Wymiary-PL
 62
     1
370
    -2
100
AcDbBlockReference
  2
B-DIM
 10
217717.7771377987
 20
135238.861181402
 30
0.0
 41
30.0
 42
30.0
 43
30.0
  0
INSERT
  5
26B2
330
2669
100
AcDbEntity
  8
0Wymiary-PL
 62
     1
370
    -2
100
AcDbBlockReference
  2
B-DIM
 10
217747.7771377987
 20
135238.861181402
 30
0.0
 41
30.0
 42
30.0
 43
30.0
 50
180.0
  0
MTEXT
  5
26B3
330
2669
100
AcDbEntity
  8
0Wymiary-PL
 62
    10
100
AcDbMText
 10
217732.7771377987
 20
135318.8611814021
 30
0.0
 40
80.0
 41
0.0
 71
     5
 72
     1
  1
\A1;30
  7
ROMANS
 73
     1
 44
1.0
1001
ACAD
1000
MTEXTBEGIN
1070
    73
1070
     1
1070
    44
1040
1.0
1070
    74
1070
     0
1000
MTEXTEND
  0
POINT
  5
26B4
330
2669
100
AcDbEntity
  8
DEFPOINTS
 62
     0
100
AcDbPoint
 10
217717.7771377987
 20
136453.1075190105
 30
0.0
  0
POINT
  5
26B5
330
2669
100
AcDbEntity
  8
DEFPOINTS
 62
     0
100
AcDbPoint
 10
217747.7771377987
 20
136453.1075190105
 30
0.0
  0
POINT
  5
26B6
330
2669
100
AcDbEntity
  8
DEFPOINTS
 62
     0
100
AcDbPoint
 10
217747.7771377987
 20
135238.861181402
 30
0.0
  0
ENDBLK
  5
266B
330
2669
100
AcDbEntity
  8
0
100
AcDbBlockEnd
  0
BLOCK
  5
2676
330
2675
100
AcDbEntity
  8
0
100
AcDbBlockBegin
  2
*D92
 70
     1
 10
0.0
 20
0.0
 30
0.0
  3
*D92
  1

  0
LINE
  5
26B7
330
2675
100
AcDbEntity
  8
0Wymiary-PL
 62
     1
370
    -2
100
AcDbLine
 10
217777.7771377987
 20
135238.861181402
 30
0.0
 11
218200.7771377987
 21
135238.861181402
 31
0.0
  0
INSERT
  5
26B8
330
2675
100
AcDbEntity
  8
0Wymiary-PL
 62
     1
370
    -2
100
AcDbBlockReference
  2
B-DIM
 10
217747.7771377987
 20
135238.861181402
 30
0.0
 41
30.0
 42
30.0
 43
30.0
 50
180.0
  0
INSERT
  5
26B9
330
2675
100
AcDbEntity
  8
0Wymiary-PL
 62
     1
370
    -2
100
AcDbBlockReference
  2
B-DIM
 10
218230.7771377987
 20
135238.861181402
 30
0.0
 41
30.0
 42
30.0
 43
30.0
  0
MTEXT
  5
26BA
330
2675
100
AcDbEntity
  8
0Wymiary-PL
 62
    10
100
AcDbMText
 10
217989.2771377987
 20
135318.8611814021
 30
0.0
 40
80.0
 41
0.0
 71
     5
 72
     1
  1
\A1;483
  7
ROMANS
 73
     1
 44
1.0
1001
ACAD
1000
MTEXTBEGIN
1070
    73
1070
     1
1070
    44
1040
1.0
1070
    74
1070
     0
1000
MTEXTEND
  0
POINT
  5
26BB
330
2675
100
AcDbEntity
  8
DEFPOINTS
 62
     0
100
AcDbPoint
 10
217747.7771377987
 20
136453.1075190105
 30
0.0
  0
POINT
  5
26BC
330
2675
100
AcDbEntity
  8
DEFPOINTS
 62
     0
100
AcDbPoint
 10
218230.7771377987
 20
136053.1075190104
 30
0.0
  0
POINT
  5
26BD
330
2675
100
AcDbEntity
  8
DEFPOINTS
 62
     0
100
AcDbPoint
 10
218230.7771377987
 20
135238.861181402
 30
0.0
  0
ENDBLK
  5
2677
330
2675
100
AcDbEntity
  8
0
100
AcDbBlockEnd
  0
BLOCK
  5
2680
330
267F
100
AcDbEntity
  8
0
100
AcDbBlockBegin
  2
*D93
 70
     1
 10
0.0
 20
0.0
 30
0.0
  3
*D93
  1

  0
LINE
  5
26BE
330
267F
100
AcDbEntity
  8
0Wymiary-PL
 62
     1
370
    -2
100
AcDbLine
 10
218260.7771377987
 20
135238.861181402
 30
0.0
 11
218587.7771377987
 21
135238.861181402
 31
0.0
  0
INSERT
  5
26BF
330
267F
100
AcDbEntity
  8
0Wymiary-PL
 62
     1
370
    -2
100
AcDbBlockReference
  2
B-DIM
 10
218230.7771377987
 20
135238.861181402
 30
0.0
 41
30.0
 42
30.0
 43
30.0
 50
180.0
  0
INSERT
  5
26C0
330
267F
100
AcDbEntity
  8
0Wymiary-PL
 62
     1
370
    -2
100
AcDbBlockReference
  2
B-DIM
 10
218617.7771377987
 20
135238.861181402
 30
0.0
 41
30.0
 42
30.0
 43
30.0
  0
MTEXT
  5
26C1
330
267F
100
AcDbEntity
  8
0Wymiary-PL
 62
    10
100
AcDbMText
 10
218424.2771377987
 20
135318.8611814021
 30
0.0
 40
80.0
 41
0.0
 71
     5
 72
     1
  1
\A1;387
  7
ROMANS
 73
     1
 44
1.0
1001
ACAD
1000
MTEXTBEGIN
1070
    73
1070
     1
1070
    44
1040
1.0
1070
    74
1070
     0
1000
MTEXTEND
  0
POINT
  5
26C2
330
267F
100
AcDbEntity
  8
DEFPOINTS
 62
     0
100
AcDbPoint
 10
218230.7771377987
 20
136053.1075190104
 30
0.0
  0
POINT
  5
26C3
330
267F
100
AcDbEntity
  8
DEFPOINTS
 62
     0
100
AcDbPoint
 10
218617.7771377987
 20
136053.1075190104
 30
0.0
  0
POINT
  5
26C4
330
267F
100
AcDbEntity
  8
DEFPOINTS
 62
     0
100
AcDbPoint
 10
218617.7771377987
 20
135238.861181402
 30
0.0
  0
ENDBLK
  5
2681
330
267F
100
AcDbEntity
  8
0
100
AcDbBlockEnd
  0
ENDSEC
  0
SECTION
  2
ENTITIES
  0
TEXT
  5
142
330
2
100
AcDbEntity
  8
NAPISY
100
AcDbText
 10
216646.5520012698
 20
128323.0717886572
 30
0.0
 40
100.0
  1
   O B R Y S   B U D Y N K U           S K A L A   1 : 5 0 0 
  7
AVA
100
AcDbText
  0
LINE
  5
157
330
2
100
AcDbEntity
  8
NAPISY
  6
HIDDEN
 62
     1
 48
5.0
100
AcDbLine
 10
220399.8892448725
 20
133670.6627583035
 30
0.0
 11
220399.8892448725
 21
138473.1198157809
 31
0.0
  0
TEXT
  5
159
330
2
100
AcDbEntity
  8
NAPISY
100
AcDbText
 10
220340.3680678792
 20
134752.3099211241
 30
0.0
 40
100.0
  1
OŚ ODBICIA LUSTRZANEGO
 50
90.0
  7
AVA
100
AcDbText
  0
TEXT
  5
15B
330
2
100
AcDbEntity
  8
NAPISY
100
AcDbText
 10
216742.7650523877
 20
140786.437049539
 30
0.0
 40
150.0
  1
MOŻNA WKLEIĆ DO PROJEKTU ZAGOSPODAROWANIA TERENU
  7
AVA
100
AcDbText
  0
TEXT
  5
15C
330
2
100
AcDbEntity
  8
NAPISY
100
AcDbText
 10
216666.4297817526
 20
141116.3055269018
 30
0.0
 40
150.0
  1
"DOM W ANYŻKU 2"
  7
AVA
100
AcDbText
  0
LWPOLYLINE
  5
15D
330
2
100
AcDbEntity
  8
RAMKI-A4
100
AcDbPolyline
 90
        4
 70
     1
 43
0.0
 10
215187.2000545948
 20
127657.5157057546
 10
215187.2000545948
 20
141677.5157057546
 10
225387.2000545948
 20
141677.5157057546
 10
225387.2000545948
 20
127657.5157057546
  0
CIRCLE
  5
20F9
330
2
100
AcDbEntity
  8
0Hatch
390
1E5
100
AcDbCircle
 10
-223332.0013519464
 20
137052.9865787471
 30
0.0
 40
89.99999999999971
210
0.0
220
0.0
230
-1.0
  0
LINE
  5
20FA
330
2
100
AcDbEntity
  8
0Hatch
390
1E5
100
AcDbLine
 10
222826.5377812554
 20
135872.1538913947
 30
0.0
 11
222826.5013519464
 21
135872.6300093888
 31
0.0
  0
ARC
  5
20FB
330
2
100
AcDbEntity
  8
0Hatch
390
1E5
100
AcDbCircle
 10
223069.1712391189
 20
135890.7185524926
 30
0.0
 40
243.342642207468
100
AcDbArc
 50
184.3753582688884
 51
220.1545372484297
  0
LINE
  5
20FC
330
2
100
AcDbEntity
  8
0Hatch
390
1E5
100
AcDbLine
 10
222902.2902234949
 20
135749.9199870509
 30
0.0
 11
222883.1825249326
 21
135733.7987012569
 31
0.0
  0
ARC
  5
20FD
330
2
100
AcDbEntity
  8
0Hatch
390
1E5
100
AcDbCircle
 10
-223069.1712391189
 20
135890.7185524926
 30
0.0
 40
218.342642207468
210
0.0
220
0.0
230
-1.0
100
AcDbArc
 50
319.8454627515703
 51
355.501078630057
  0
LINE
  5
20FE
330
2
100
AcDbEntity
  8
0Hatch
390
1E5
100
AcDbLine
 10
222826.5013519464
 20
135872.6300093888
 30
0.0
 11
222826.5013519464
 21
136053.1075190106
 31
0.0
  0
LINE
  5
20FF
330
2
100
AcDbEntity
  8
0Hatch
390
1E5
100
AcDbLine
 10
222851.5013519464
 20
136053.1075190106
 30
0.0
 11
222851.5013519464
 21
135873.591683998
 31
0.0
  0
LINE
  5
2100
330
2
100
AcDbEntity
  8
0Hatch
390
1E5
100
AcDbLine
 10
223210.0013519464
 20
137448.6221287313
 30
0.0
 11
223290.0013519464
 21
137448.6221287313
 31
0.0
  0
LINE
  5
2101
330
2
100
AcDbEntity
  8
0Hatch
390
1E5
100
AcDbLine
 10
223210.0013519464
 20
137428.6221287313
 30
0.0
 11
223210.0013519464
 21
137448.6221287313
 31
0.0
  0
LINE
  5
2102
330
2
100
AcDbEntity
  8
0Hatch
390
1E5
100
AcDbLine
 10
223270.0013519464
 20
137428.6221287313
 30
0.0
 11
223210.0013519464
 21
137428.6221287313
 31
0.0
  0
LINE
  5
2103
330
2
100
AcDbEntity
  8
0Hatch
390
1E5
100
AcDbLine
 10
223290.0013519464
 20
137448.6221287313
 30
0.0
 11
223290.0013519464
 21
137154.6526989642
 31
0.0
  0
LINE
  5
2104
330
2
100
AcDbEntity
  8
0Hatch
390
1E5
100
AcDbLine
 10
223270.0013519464
 20
137143.8491122799
 30
0.0
 11
223270.0013519464
 21
137428.6221287313
 31
0.0
  0
ARC
  5
2105
330
2
100
AcDbEntity
  8
WIDOK
390
1E5
100
AcDbCircle
 10
223332.0013519464
 20
137052.9865787471
 30
0.0
 40
109.9999999999997
100
AcDbArc
 50
124.3076514568788
 51
152.2891193300958
  0
ARC
  5
2106
330
2
100
AcDbEntity
  8
0Hatch
390
1E5
100
AcDbCircle
 10
223332.0013519464
 20
137052.9865787471
 30
0.0
 40
109.9999999999997
100
AcDbArc
 50
152.2891193300958
 51
112.4463505822448
  0
LINE
  5
2107
330
2
100
AcDbEntity
  8
0Hatch
100
AcDbLine
 10
222826.5013519464
 20
135873.1075190106
 30
0.0
 11
222569.0013519464
 21
135873.1075190106
 31
0.0
  0
LINE
  5
2108
330
2
100
AcDbEntity
  8
0Hatch
100
AcDbLine
 10
222826.5013519464
 20
136053.1075190106
 30
0.0
 11
222826.5013519464
 21
135873.1075190106
 31
0.0
  0
LINE
  5
2109
330
2
100
AcDbEntity
  8
0Hatch
100
AcDbLine
 10
222830.5374555099
 20
135843.1075190106
 30
0.0
 11
222569.0013519464
 21
135843.1075190106
 31
0.0
  0
ARC
  5
210A
330
2
100
AcDbEntity
  8
0Hatch
100
AcDbCircle
 10
-223058.5865675219
 20
135889.0600156647
 30
0.0
 40
232.6328210684635
210
0.0
220
0.0
230
-1.0
100
AcDbArc
 50
348.6073082659431
 51
356.0679297936431
  0
LINE
  5
210B
330
2
100
AcDbEntity
  8
0Hatch
100
AcDbLine
 10
222838.5512857582
 20
135813.1075190106
 30
0.0
 11
222569.0013519464
 21
135813.1075190106
 31
0.0
  0
ARC
  5
210C
330
2
100
AcDbEntity
  8
0Hatch
100
AcDbCircle
 10
-223065.9731413752
 20
135889.9737400521
 30
0.0
 40
240.0606513977589
210
0.0
220
0.0
230
-1.0
100
AcDbArc
 50
341.3252817407029
 51
348.7420396729244
  0
LINE
  5
210D
330
2
100
AcDbEntity
  8
0Hatch
100
AcDbLine
 10
222569.0013519464
 20
135803.1075190106
 30
0.0
 11
222182.0013519464
 21
135803.1075190106
 31
0.0
  0
LINE
  5
210E
330
2
100
AcDbEntity
  8
0Hatch
100
AcDbLine
 10
222182.0013519464
 20
135703.1075190106
 30
0.0
 11
222182.0013519464
 21
135873.1075190106
 31
0.0
  0
LINE
  5
210F
330
2
100
AcDbEntity
  8
0Hatch
100
AcDbLine
 10
222569.0013519464
 20
135703.1075190106
 30
0.0
 11
222182.0013519464
 21
135703.1075190106
 31
0.0
  0
LINE
  5
2110
330
2
100
AcDbEntity
  8
0Hatch
100
AcDbLine
 10
222569.0013519464
 20
135703.1075190106
 30
0.0
 11
222569.0013519464
 21
135873.1075190106
 31
0.0
  0
LINE
  5
2111
330
2
100
AcDbEntity
  8
0Hatch
100
AcDbLine
 10
223382.0013519464
 20
136719.1067976486
 30
0.0
 11
223382.0013519464
 21
136955.0069890358
 31
0.0
  0
ARC
  5
2112
330
2
100
AcDbEntity
  8
0Hatch
100
AcDbCircle
 10
-223082.0013621359
 20
136719.1067863904
 30
0.0
 40
299.9999898104579
210
0.0
220
0.0
230
-1.0
100
AcDbArc
 50
179.9999978505581
 51
275.7218763912326
  0
LINE
  5
2113
330
2
100
AcDbEntity
  8
WIDOK
100
AcDbLine
 10
223052.0013519464
 20
136390.4732631488
 30
0.0
 11
223052.091462236
 21
136420.6015238334
 31
0.0
  0
ARC
  5
2114
330
2
100
AcDbEntity
  8
0Hatch
100
AcDbCircle
 10
223082.0013519464
 20
136719.106797652
 30
0.0
 40
330.0000000000009
100
AcDbArc
 50
264.7840914310547
 51
0.000000000000007
  0
LINE
  5
2115
330
2
100
AcDbEntity
  8
0Hatch
100
AcDbLine
 10
223412.0013666822
 20
136977.4882500088
 30
0.0
 11
223412.0013519464
 21
136719.106797652
 31
0.0
  0
LINE
  5
2116
330
2
100
AcDbEntity
  8
0Hatch
100
AcDbLine
 10
223412.0013519464
 20
136719.106795866
 30
0.0
 11
223412.0013519464
 21
136977.4882343944
 31
0.0
  0
ARC
  5
2117
330
2
100
AcDbEntity
  8
0Hatch
100
AcDbCircle
 10
-223082.0013519464
 20
136719.106797652
 30
0.0
 40
330.0000000000013
210
0.0
220
0.0
230
-1.0
100
AcDbArc
 50
180.0000003101599
 51
275.2159085689453
  0
LINE
  5
2118
330
2
100
AcDbEntity
  8
WIDOK
100
AcDbLine
 10
223052.0013519464
 20
136360.4081193661
 30
0.0
 11
223052.0013519464
 21
136390.4732631488
 31
0.0
  0
ARC
  5
2119
330
2
100
AcDbEntity
  8
0Hatch
100
AcDbCircle
 10
223082.0743683103
 20
136719.0765569944
 30
0.0
 40
359.92698490652
100
AcDbArc
 50
265.2071722258913
 51
0.0048139260039462
  0
LINE
  5
211A
330
2
100
AcDbEntity
  8
0Hatch
100
AcDbLine
 10
223442.0013519464
 20
137052.9865787471
 30
0.0
 11
223442.0013519464
 21
136719.106797652
 31
0.0
  0
ARC
  5
211B
330
2
100
AcDbEntity
  8
0Hatch
100
AcDbCircle
 10
-223332.0013519464
 20
137052.9865787471
 30
0.0
 40
109.999999999999
210
0.0
220
0.0
230
-1.0
100
AcDbArc
 50
180.0
 51
55.69234854312122
  0
LINE
  5
211C
330
2
100
AcDbEntity
  8
0Hatch
100
AcDbLine
 10
223270.0013519464
 20
137428.6221287313
 30
0.0
 11
223270.0013519464
 21
137143.8491122799
 31
0.0
  0
LINE
  5
211D
330
2
100
AcDbEntity
  8
0Hatch
100
AcDbLine
 10
223210.0013519464
 20
137428.6221287313
 30
0.0
 11
223270.0013519464
 21
137428.6221287313
 31
0.0
  0
LINE
  5
211E
330
2
100
AcDbEntity
  8
0Hatch
100
AcDbLine
 10
223210.0013519464
 20
137448.6221287313
 30
0.0
 11
223210.0013519464
 21
137428.6221287313
 31
0.0
  0
ARC
  5
211F
330
2
100
AcDbEntity
  8
0Hatch
100
AcDbCircle
 10
222925.5528514873
 20
137448.6342669003
 30
0.0
 40
284.4485007180292
100
AcDbArc
 50
359.9975550374028
 51
162.3017964077142
  0
ARC
  5
2120
330
2
100
AcDbEntity
  8
0Hatch
100
AcDbCircle
 10
223082.0013178
 20
136719.1071161666
 30
0.0
 40
300.0003135232613
100
AcDbArc
 50
264.2781383129083
 51
287.9599425075293
  0
ARC
  5
2121
330
2
100
AcDbEntity
  8
0Hatch
100
AcDbCircle
 10
223082.0015072885
 20
136719.1065315906
 30
0.0
 40
299.9996990031052
100
AcDbArc
 50
287.9599425075293
 51
312.5977758031029
  0
ARC
  5
2122
330
2
100
AcDbEntity
  8
0Hatch
100
AcDbCircle
 10
223082.0013506344
 20
136719.106798228
 30
0.0
 40
300.0000013120697
100
AcDbArc
 50
312.5977633585273
 51
359.9999998899432
  0
LINE
  5
2123
330
2
100
AcDbEntity
  8
0Hatch
100
AcDbLine
 10
223240.0013519464
 20
137448.6221287313
 30
0.0
 11
223210.0013522054
 21
137448.6342669003
 31
0.0
  0
ARC
  5
2124
330
2
100
AcDbEntity
  8
0Hatch
100
AcDbCircle
 10
222925.5388926031
 20
137448.6221287313
 30
0.0
 40
314.4624593433169
100
AcDbArc
 50
0.000000000000007
 51
164.036429212191
  0
ARC
  5
2125
330
2
100
AcDbEntity
  8
0Hatch
100
AcDbCircle
 10
-222925.5528514873
 20
137448.6342669003
 30
0.0
 40
284.4485007180294
210
0.0
220
0.0
230
-1.0
100
AcDbArc
 50
17.69820359228572
 51
180.0
  0
LINE
  5
2126
330
2
100
AcDbEntity
  8
0Hatch
100
AcDbLine
 10
223270.0013519464
 20
137448.6221287313
 30
0.0
 11
223240.0013519464
 21
137448.6221345191
 31
0.0
  0
ARC
  5
2127
330
2
100
AcDbEntity
  8
0Hatch
100
AcDbCircle
 10
222925.5709114431
 20
137448.6499712209
 30
0.0
 40
344.4304416285922
100
AcDbArc
 50
359.9953684197039
 51
165.4623587106565
  0
ARC
  5
2128
330
2
100
AcDbEntity
  8
0Hatch
100
AcDbCircle
 10
-222925.5388926031
 20
137448.6221287313
 30
0.0
 40
314.4624593433168
210
0.0
220
0.0
230
-1.0
100
AcDbArc
 50
15.96357078780894
 51
179.9999989461231
  0
LWPOLYLINE
  5
212F
330
2
100
AcDbEntity
  8
0Hatch
100
AcDbPolyline
 90
       17
 70
     0
 43
0.0
 10
222182.0013519464
 20
137385.1075190106
 10
222406.7938531413
 20
137385.1075190106
 10
222406.7938531413
 20
137423.1041784135
 10
222518.7971937382
 20
137535.1075190106
 10
222715.2055101544
 20
137535.1075190105
 10
222827.2088507515
 20
137423.1041784135
 10
222827.2088507515
 20
137385.1075190106
 10
223052.0013519464
 20
137385.1075190106
 10
223052.0013519464
 20
136985.1075190106
 10
223082.0013519464
 20
136985.1075190106
 10
223082.0013519464
 20
136453.1075190105
 10
223052.0013519464
 20
136453.1075190106
 10
223052.0013519464
 20
136053.1075190106
 10
222569.0013519464
 20
136053.1075190104
 10
222569.0013519464
 20
135873.1075190106
 10
222182.0013519464
 20
135873.1075190106
 10
222182.0013519464
 20
137385.1075190106
  0
LWPOLYLINE
  5
2130
330
2
100
AcDbEntity
  8
0Hatch
100
AcDbPolyline
 90
       16
 70
     1
 43
0.0
 10
222242.0013519464
 20
137325.1075190106
 10
222466.7938531413
 20
137325.1075190106
 10
222466.7938531413
 20
137398.2513646711
 10
222543.6500074806
 20
137475.1075190106
 10
222690.352696412
 20
137475.1075190105
 10
222767.2088507515
 20
137398.251364671
 10
222767.2088507515
 20
137325.1075190106
 10
222992.0013519464
 20
137325.1075190106
 10
222992.0013519464
 20
136925.1075190106
 10
223022.0013519464
 20
136925.1075190106
 10
223022.0013519464
 20
136513.1075190106
 10
222992.0013519464
 20
136513.1075190106
 10
222992.0013519464
 20
136113.1075190106
 10
222509.0013519464
 20
136113.1075190104
 10
222509.0013519464
 20
135933.1075190105
 10
222242.0013519464
 20
135933.1075190105
  0
LINE
  5
2132
330
2
100
AcDbEntity
  8
SCIANY
 48
4.0
100
AcDbLine
 10
222718.0013519464
 20
136053.1075190106
 30
0.0
 11
222718.0013519464
 21
136113.1075190105
 31
0.0
  0
LINE
  5
2133
330
2
100
AcDbEntity
  8
SCIANY
 48
4.0
100
AcDbLine
 10
222618.0013519464
 20
136113.1075190104
 30
0.0
 11
222618.0013519464
 21
136053.1075190106
 31
0.0
  0
LINE
  5
2134
330
2
100
AcDbEntity
  8
SCIANY
 48
4.0
100
AcDbLine
 10
222490.0013519464
 20
135873.1075190106
 30
0.0
 11
222490.0013519464
 21
135933.1075190105
 31
0.0
  0
LINE
  5
2135
330
2
100
AcDbEntity
  8
SCIANY
 48
4.0
100
AcDbLine
 10
222250.0013519464
 20
135933.1075190105
 30
0.0
 11
222250.0013519464
 21
135873.1075190106
 31
0.0
  0
CIRCLE
  5
213A
330
2
100
AcDbEntity
  8
0Hatch
100
AcDbCircle
 10
223114.5013519464
 20
136962.6075190106
 30
0.0
 40
22.5
  0
HATCH
  5
213B
330
2
100
AcDbEntity
  8
0Hatch
100
AcDbHatch
 10
0.0
 20
0.0
 30
0.0
210
0.0
220
0.0
230
1.0
  2
SOLID
 70
     1
 71
     1
 91
        2
 92
        7
 72
     1
 73
     1
 93
        2
 10
223131.9989319279
 20
136962.6075190106
 42
1.0
 10
223096.998931928
 20
136962.6075190106
 42
1.0
 97
        1
330
213C
 92
        7
 72
     1
 73
     1
 93
        2
 10
223131.9989319279
 20
136475.6075190106
 42
1.0
 10
223096.998931928
 20
136475.6075190106
 42
1.0
 97
        1
330
213E
 75
     0
 76
     1
 47
1.596621133862797
 98
        2
 10
223108.9689667866
 20
136961.9661672158
 10
223113.7611476059
 20
136473.4000921548
1001
ACAD
1010
0.0
1020
0.0
1030
0.0
  0
CIRCLE
  5
213C
102
{ACAD_REACTORS
330
213B
102
}
330
2
100
AcDbEntity
  8
0Hatch
100
AcDbCircle
 10
-223114.498931928
 20
136962.6075190106
 30
0.0
 40
17.5
210
0.0
220
0.0
230
-1.0
  0
CIRCLE
  5
213D
330
2
100
AcDbEntity
  8
0Hatch
100
AcDbCircle
 10
-223114.5013519464
 20
136475.6075190106
 30
0.0
 40
22.5
210
0.0
220
0.0
230
-1.0
  0
CIRCLE
  5
213E
102
{ACAD_REACTORS
330
213B
102
}
330
2
100
AcDbEntity
  8
0Hatch
100
AcDbCircle
 10
223114.498931928
 20
136475.6075190106
 30
0.0
 40
17.5
  0
CIRCLE
  5
213F
330
2
100
AcDbEntity
  8
0Hatch
100
AcDbCircle
 10
-222782.5037719648
 20
135915.6075190106
 30
0.0
 40
22.5
210
0.0
220
0.0
230
-1.0
  0
HATCH
  5
2140
330
2
100
AcDbEntity
  8
0Hatch
100
AcDbHatch
 10
0.0
 20
0.0
 30
0.0
210
0.0
220
0.0
230
1.0
  2
SOLID
 70
     1
 71
     1
 91
        1
 92
        7
 72
     1
 73
     1
 93
        2
 10
222800.0013519464
 20
135915.6075190106
 42
1.0
 10
222765.0013519464
 20
135915.6075190106
 42
1.0
 97
        1
330
2141
 75
     0
 76
     1
 47
1.245682673447373
 98
        1
 10
222782.4047545192
 20
135913.0517057192
1001
ACAD
1010
0.0
1020
0.0
1030
0.0
  0
CIRCLE
  5
2141
102
{ACAD_REACTORS
330
2140
102
}
330
2
100
AcDbEntity
  8
0Hatch
100
AcDbCircle
 10
222782.5013519464
 20
135915.6075190106
 30
0.0
 40
17.5
  0
DIMENSION
  5
2142
330
2
100
AcDbEntity
  8
0Hatch
100
AcDbDimension
  2
*D45
 10
223824.5075177089
 20
137385.1075190106
 30
0.0
 11
223744.5075177089
 21
137460.1075190106
 31
0.0
 70
    32
 71
     5
 42
149.9999999999709
  3
500
100
AcDbAlignedDimension
 13
222862.7250068845
 23
137535.1075190105
 33
0.0
 14
223087.1245980791
 24
137385.1075190106
 34
0.0
 50
90.0
100
AcDbRotatedDimension
  0
DIMENSION
  5
2143
330
2
100
AcDbEntity
  8
0Wymiary-PL
100
AcDbDimension
  2
*D46
 10
223824.5075177089
 20
136053.1075190106
 30
0.0
 11
223744.5075177089
 21
136719.1075190106
 31
0.0
 70
    32
 71
     5
 42
1331.999999999971
  3
500
100
AcDbAlignedDimension
 13
223087.1245980791
 23
137385.1075190106
 33
0.0
 14
223199.5208486766
 24
136053.1075190106
 34
0.0
 50
90.0
100
AcDbRotatedDimension
  0
DIMENSION
  5
2144
330
2
100
AcDbEntity
  8
0Hatch
100
AcDbDimension
  2
*D47
 10
223824.5075177089
 20
135873.1075190106
 30
0.0
 11
223744.5075177089
 21
135963.1075190107
 31
0.0
 70
    32
 71
     5
 42
180.0000000000291
  3
500
100
AcDbAlignedDimension
 13
223199.5208486766
 23
136053.1075190106
 33
0.0
 14
222716.5208486765
 24
135873.1075190106
 34
0.0
 50
90.0
100
AcDbRotatedDimension
  0
DIMENSION
  5
2146
330
2
100
AcDbEntity
  8
0Wymiary-PL
100
AcDbDimension
  2
*D48
 10
222182.0013519464
 20
138109.4891981864
 30
0.0
 11
222632.0013519464
 21
138189.4891981864
 31
0.0
 70
    32
 71
     5
 42
900.0
  3
500
100
AcDbAlignedDimension
 13
223082.0013519464
 23
136985.1075190106
 33
0.0
 14
222182.0013519464
 24
137385.1075190106
 34
0.0
 50
180.0
100
AcDbRotatedDimension
  0
DIMENSION
  5
2148
330
2
100
AcDbEntity
  8
0Wymiary-PL
100
AcDbDimension
  2
*D49
 10
221837.1486851482
 20
135873.1075190106
 30
0.0
 11
221757.1486851481
 21
136704.1075190106
 31
0.0
 70
    32
 71
     5
 42
1662.0
  3
500
100
AcDbAlignedDimension
 13
222518.7971937382
 23
137535.1075190106
 33
0.0
 14
222329.5208486765
 24
135873.1075190106
 34
0.0
 50
90.0
100
AcDbRotatedDimension
  0
DIMENSION
  5
2149
330
2
100
AcDbEntity
  8
0Wymiary-PL
100
AcDbDimension
  2
*D50
 10
223052.0013519464
 20
135238.861181402
 30
0.0
 11
223067.0013519464
 21
135318.8611814021
 31
0.0
 70
    32
 71
     5
 42
30.0
  3
500
100
AcDbAlignedDimension
 13
223082.0013519464
 23
136453.1075190105
 33
0.0
 14
223052.0013519464
 24
136453.1075190105
 34
0.0
 50
180.0
100
AcDbRotatedDimension
  0
DIMENSION
  5
214A
330
2
100
AcDbEntity
  8
0Wymiary-PL
100
AcDbDimension
  2
*D51
 10
222569.0013519464
 20
135238.861181402
 30
0.0
 11
222810.5013519464
 21
135318.8611814021
 31
0.0
 70
    32
 71
     5
 42
483.0
  3
500
100
AcDbAlignedDimension
 13
223052.0013519464
 23
136453.1075190105
 33
0.0
 14
222569.0013519464
 24
136053.1075190104
 34
0.0
 50
180.0
100
AcDbRotatedDimension
  0
DIMENSION
  5
214B
330
2
100
AcDbEntity
  8
0Wymiary-PL
100
AcDbDimension
  2
*D52
 10
222182.0013519464
 20
135238.861181402
 30
0.0
 11
222375.5013519464
 21
135318.8611814021
 31
0.0
 70
    32
 71
     5
 42
387.0
  3
500
100
AcDbAlignedDimension
 13
222569.0013519464
 23
136053.1075190104
 33
0.0
 14
222182.0013519464
 24
136053.1075190104
 34
0.0
 50
180.0
100
AcDbRotatedDimension
  0
LWPOLYLINE
  5
25D8
330
2
100
AcDbEntity
  8
0Hatch
100
AcDbPolyline
 90
        4
 70
     0
 43
60.0
 10
222490.0013519464
 20
135903.1075190106
 10
222539.0013519464
 20
135903.1075190106
 10
222539.0013519464
 20
136083.1075190104
 10
222618.0013519464
 20
136083.1075190104
  0
LWPOLYLINE
  5
25EA
330
2
100
AcDbEntity
  8
0Hatch
100
AcDbPolyline
 90
       16
 70
     0
 43
60.0
 10
222718.0013519464
 20
136083.1075190105
 10
223022.0013519464
 20
136083.1075190106
 10
223022.0013519464
 20
136483.1075190106
 10
223052.0013519464
 20
136483.1075190106
 10
223052.0013519464
 20
136955.1075190106
 10
223022.0013519464
 20
136955.1075190106
 10
223022.0013519464
 20
137355.1075190106
 10
222797.2088507515
 20
137355.1075190106
 10
222797.2088507515
 20
137410.6777715423
 10
222702.7791032832
 20
137505.1075190105
 10
222531.2236006094
 20
137505.1075190106
 10
222436.7938531413
 20
137410.6777715423
 10
222436.7938531413
 20
137355.1075190106
 10
222212.0013519464
 20
137355.1075190106
 10
222212.0013519464
 20
135903.1075190106
 10
222250.0013519464
 20
135903.1075190106
  0
LWPOLYLINE
  5
25EB
330
2
100
AcDbEntity
  8
0Hatch
100
AcDbPolyline
 90
        2
 70
     0
 43
60.0
 10
223052.0013519464
 20
136955.1075190106
 10
222992.0013519464
 20
136955.1075190106
  0
CIRCLE
  5
25EC
330
2
100
AcDbEntity
  8
0Hatch
390
1E5
100
AcDbCircle
 10
-217467.7771377987
 20
137052.9865787471
 30
0.0
 40
89.99999999999971
210
0.0
220
0.0
230
-1.0
  0
LINE
  5
25ED
330
2
100
AcDbEntity
  8
0Hatch
390
1E5
100
AcDbLine
 10
217973.2407084897
 20
135872.1538913947
 30
0.0
 11
217973.2771377987
 21
135872.6300093888
 31
0.0
  0
ARC
  5
25EE
330
2
100
AcDbEntity
  8
0Hatch
390
1E5
100
AcDbCircle
 10
217730.6072506262
 20
135890.7185524926
 30
0.0
 40
243.342642207468
100
AcDbArc
 50
319.8454627512294
 51
355.6246417311085
  0
LINE
  5
25EF
330
2
100
AcDbEntity
  8
0Hatch
390
1E5
100
AcDbLine
 10
217897.4882662502
 20
135749.9199870509
 30
0.0
 11
217916.5959648125
 21
135733.7987012569
 31
0.0
  0
ARC
  5
25F0
330
2
100
AcDbEntity
  8
0Hatch
390
1E5
100
AcDbCircle
 10
-217730.6072506262
 20
135890.7185524926
 30
0.0
 40
218.342642207468
210
0.0
220
0.0
230
-1.0
100
AcDbArc
 50
184.4989213699875
 51
220.1545372487706
  0
LINE
  5
25F1
330
2
100
AcDbEntity
  8
0Hatch
390
1E5
100
AcDbLine
 10
217973.2771377987
 20
135872.6300093888
 30
0.0
 11
217973.2771377987
 21
136053.1075190106
 31
0.0
  0
LINE
  5
25F2
330
2
100
AcDbEntity
  8
0Hatch
390
1E5
100
AcDbLine
 10
217948.2771377987
 20
136053.1075190106
 30
0.0
 11
217948.2771377987
 21
135873.591683998
 31
0.0
  0
LINE
  5
25F3
330
2
100
AcDbEntity
  8
0Hatch
390
1E5
100
AcDbLine
 10
217589.7771377987
 20
137448.6221287313
 30
0.0
 11
217509.7771377987
 21
137448.6221287313
 31
0.0
  0
LINE
  5
25F4
330
2
100
AcDbEntity
  8
0Hatch
390
1E5
100
AcDbLine
 10
217589.7771377987
 20
137428.6221287313
 30
0.0
 11
217589.7771377987
 21
137448.6221287313
 31
0.0
  0
LINE
  5
25F5
330
2
100
AcDbEntity
  8
0Hatch
390
1E5
100
AcDbLine
 10
217529.7771377987
 20
137428.6221287313
 30
0.0
 11
217589.7771377987
 21
137428.6221287313
 31
0.0
  0
LINE
  5
25F6
330
2
100
AcDbEntity
  8
0Hatch
390
1E5
100
AcDbLine
 10
217509.7771377987
 20
137448.6221287313
 30
0.0
 11
217509.7771377987
 21
137154.6526989642
 31
0.0
  0
LINE
  5
25F7
330
2
100
AcDbEntity
  8
0Hatch
390
1E5
100
AcDbLine
 10
217529.7771377987
 20
137143.8491122799
 30
0.0
 11
217529.7771377987
 21
137428.6221287313
 31
0.0
  0
ARC
  5
25F8
330
2
100
AcDbEntity
  8
WIDOK
390
1E5
100
AcDbCircle
 10
217467.7771377987
 20
137052.9865787471
 30
0.0
 40
109.9999999999997
100
AcDbArc
 50
27.71088067023214
 51
55.69234854280853
  0
ARC
  5
25F9
330
2
100
AcDbEntity
  8
0Hatch
390
1E5
100
AcDbCircle
 10
217467.7771377987
 20
137052.9865787471
 30
0.0
 40
109.9999999999997
100
AcDbArc
 50
67.55364941753754
 51
27.71088067023214
  0
LINE
  5
25FA
330
2
100
AcDbEntity
  8
0Hatch
100
AcDbLine
 10
217973.2771377987
 20
135873.1075190106
 30
0.0
 11
218230.7771377987
 21
135873.1075190106
 31
0.0
  0
LINE
  5
25FB
330
2
100
AcDbEntity
  8
0Hatch
100
AcDbLine
 10
217973.2771377987
 20
136053.1075190106
 30
0.0
 11
217973.2771377987
 21
135873.1075190106
 31
0.0
  0
LINE
  5
25FC
330
2
100
AcDbEntity
  8
0Hatch
100
AcDbLine
 10
217969.2410342352
 20
135843.1075190106
 30
0.0
 11
218230.7771377987
 21
135843.1075190106
 31
0.0
  0
ARC
  5
25FD
330
2
100
AcDbEntity
  8
0Hatch
100
AcDbCircle
 10
-217741.1919222231
 20
135889.0600156647
 30
0.0
 40
232.6328210684635
210
0.0
220
0.0
230
-1.0
100
AcDbArc
 50
183.9320702062518
 51
191.392691734106
  0
LINE
  5
25FE
330
2
100
AcDbEntity
  8
0Hatch
100
AcDbLine
 10
217961.2272039869
 20
135813.1075190106
 30
0.0
 11
218230.7771377987
 21
135813.1075190106
 31
0.0
  0
ARC
  5
25FF
330
2
100
AcDbEntity
  8
0Hatch
100
AcDbCircle
 10
-217733.8053483698
 20
135889.9737400521
 30
0.0
 40
240.0606513977589
210
0.0
220
0.0
230
-1.0
100
AcDbArc
 50
191.2579603269073
 51
198.6747182597423
  0
LINE
  5
2600
330
2
100
AcDbEntity
  8
0Hatch
100
AcDbLine
 10
218230.7771377987
 20
135803.1075190106
 30
0.0
 11
218617.7771377987
 21
135803.1075190106
 31
0.0
  0
LINE
  5
2601
330
2
100
AcDbEntity
  8
0Hatch
100
AcDbLine
 10
218617.7771377987
 20
135703.1075190106
 30
0.0
 11
218617.7771377987
 21
135873.1075190106
 31
0.0
  0
LINE
  5
2602
330
2
100
AcDbEntity
  8
0Hatch
100
AcDbLine
 10
218230.7771377987
 20
135703.1075190106
 30
0.0
 11
218617.7771377987
 21
135703.1075190106
 31
0.0
  0
LINE
  5
2603
330
2
100
AcDbEntity
  8
0Hatch
100
AcDbLine
 10
218230.7771377987
 20
135703.1075190106
 30
0.0
 11
218230.7771377987
 21
135873.1075190106
 31
0.0
  0
LINE
  5
2604
330
2
100
AcDbEntity
  8
0Hatch
100
AcDbLine
 10
217417.7771377987
 20
136719.1067976486
 30
0.0
 11
217417.7771377987
 21
136955.0069890358
 31
0.0
  0
ARC
  5
2605
330
2
100
AcDbEntity
  8
0Hatch
100
AcDbCircle
 10
-217717.7771276091
 20
136719.1067863904
 30
0.0
 40
299.9999898104579
210
0.0
220
0.0
230
-1.0
100
AcDbArc
 50
264.2781236087839
 51
0.0000021494418625
  0
LINE
  5
2606
330
2
100
AcDbEntity
  8
WIDOK
100
AcDbLine
 10
217747.7771377987
 20
136390.4732631488
 30
0.0
 11
217747.6870275091
 21
136420.6015238334
 31
0.0
  0
ARC
  5
2607
330
2
100
AcDbEntity
  8
0Hatch
100
AcDbCircle
 10
217717.7771377987
 20
136719.106797652
 30
0.0
 40
330.0000000000009
100
AcDbArc
 50
180.0
 51
275.215908568932
  0
LINE
  5
2608
330
2
100
AcDbEntity
  8
0Hatch
100
AcDbLine
 10
217387.7771230629
 20
136977.4882500088
 30
0.0
 11
217387.7771377987
 21
136719.106797652
 31
0.0
  0
LINE
  5
2609
330
2
100
AcDbEntity
  8
0Hatch
100
AcDbLine
 10
217387.7771377987
 20
136719.106795866
 30
0.0
 11
217387.7771377987
 21
136977.4882343944
 31
0.0
  0
ARC
  5
260A
330
2
100
AcDbEntity
  8
0Hatch
100
AcDbCircle
 10
-217717.7771377987
 20
136719.106797652
 30
0.0
 40
330.0000000000013
210
0.0
220
0.0
230
-1.0
100
AcDbArc
 50
264.784091431068
 51
359.99999968984
  0
LINE
  5
260B
330
2
100
AcDbEntity
  8
WIDOK
100
AcDbLine
 10
217747.7771377987
 20
136360.4081193661
 30
0.0
 11
217747.7771377987
 21
136390.4732631488
 31
0.0
  0
ARC
  5
260C
330
2
100
AcDbEntity
  8
0Hatch
100
AcDbCircle
 10
217717.7041214348
 20
136719.0765569944
 30
0.0
 40
359.92698490652
100
AcDbArc
 50
179.9951860739959
 51
274.7928277740971
  0
LINE
  5
260D
330
2
100
AcDbEntity
  8
0Hatch
100
AcDbLine
 10
217357.7771377987
 20
137052.9865787471
 30
0.0
 11
217357.7771377987
 21
136719.106797652
 31
0.0
  0
ARC
  5
260E
330
2
100
AcDbEntity
  8
0Hatch
100
AcDbCircle
 10
-217467.7771377987
 20
137052.9865787471
 30
0.0
 40
109.999999999999
210
0.0
220
0.0
230
-1.0
100
AcDbArc
 50
124.3076514571914
 51
0.000000000000007
  0
LINE
  5
260F
330
2
100
AcDbEntity
  8
0Hatch
100
AcDbLine
 10
217529.7771377987
 20
137428.6221287313
 30
0.0
 11
217529.7771377987
 21
137143.8491122799
 31
0.0
  0
LINE
  5
2610
330
2
100
AcDbEntity
  8
0Hatch
100
AcDbLine
 10
217589.7771377987
 20
137428.6221287313
 30
0.0
 11
217529.7771377987
 21
137428.6221287313
 31
0.0
  0
LINE
  5
2611
330
2
100
AcDbEntity
  8
0Hatch
100
AcDbLine
 10
217589.7771377987
 20
137448.6221287313
 30
0.0
 11
217589.7771377987
 21
137428.6221287313
 31
0.0
  0
ARC
  5
2612
330
2
100
AcDbEntity
  8
0Hatch
100
AcDbCircle
 10
217874.2256382577
 20
137448.6342669003
 30
0.0
 40
284.4485007180292
100
AcDbArc
 50
17.69820359251581
 51
180.0024449625972
  0
ARC
  5
2613
330
2
100
AcDbEntity
  8
0Hatch
100
AcDbCircle
 10
217717.7771719451
 20
136719.1071161666
 30
0.0
 40
300.0003135232613
100
AcDbArc
 50
252.0400574923481
 51
275.7218616870752
  0
ARC
  5
2614
330
2
100
AcDbEntity
  8
0Hatch
100
AcDbCircle
 10
217717.7769824566
 20
136719.1065315906
 30
0.0
 40
299.9996990031052
100
AcDbArc
 50
227.4022241969706
 51
252.0400574923481
  0
ARC
  5
2615
330
2
100
AcDbEntity
  8
0Hatch
100
AcDbCircle
 10
217717.7771391107
 20
136719.106798228
 30
0.0
 40
300.0000013120697
100
AcDbArc
 50
180.0000001100568
 51
227.4022366420229
  0
LINE
  5
2616
330
2
100
AcDbEntity
  8
0Hatch
100
AcDbLine
 10
217559.7771377987
 20
137448.6221287313
 30
0.0
 11
217589.7771375397
 21
137448.6342669003
 31
0.0
  0
ARC
  5
2617
330
2
100
AcDbEntity
  8
0Hatch
100
AcDbCircle
 10
217874.239597142
 20
137448.6221287313
 30
0.0
 40
314.4624593433169
100
AcDbArc
 50
15.96357078741403
 51
180.0
  0
ARC
  5
2618
330
2
100
AcDbEntity
  8
0Hatch
100
AcDbCircle
 10
-217874.2256382577
 20
137448.6342669003
 30
0.0
 40
284.4485007180294
210
0.0
220
0.0
230
-1.0
100
AcDbArc
 50
0.000000000000007
 51
162.3017964074842
  0
LINE
  5
2619
330
2
100
AcDbEntity
  8
0Hatch
100
AcDbLine
 10
217529.7771377987
 20
137448.6221287313
 30
0.0
 11
217559.7771377987
 21
137448.6221345191
 31
0.0
  0
ARC
  5
261A
330
2
100
AcDbEntity
  8
0Hatch
100
AcDbCircle
 10
217874.207578302
 20
137448.6499712209
 30
0.0
 40
344.4304416285922
100
AcDbArc
 50
14.53764128905517
 51
180.0046315802961
  0
ARC
  5
261B
330
2
100
AcDbEntity
  8
0Hatch
100
AcDbCircle
 10
-217874.239597142
 20
137448.6221287313
 30
0.0
 40
314.4624593433168
210
0.0
220
0.0
230
-1.0
100
AcDbArc
 50
0.0000010538768516
 51
164.0364292125859
  0
LWPOLYLINE
  5
261C
330
2
100
AcDbEntity
  8
0Hatch
100
AcDbPolyline
 90
       17
 70
     0
 43
0.0
 10
218617.7771377987
 20
137385.1075190106
 10
218392.9846366037
 20
137385.1075190106
 10
218392.9846366037
 20
137423.1041784135
 10
218280.9812960069
 20
137535.1075190106
 10
218084.5729795907
 20
137535.1075190105
 10
217972.5696389936
 20
137423.1041784135
 10
217972.5696389936
 20
137385.1075190106
 10
217747.7771377987
 20
137385.1075190106
 10
217747.7771377987
 20
136985.1075190106
 10
217717.7771377987
 20
136985.1075190106
 10
217717.7771377987
 20
136453.1075190105
 10
217747.7771377987
 20
136453.1075190106
 10
217747.7771377987
 20
136053.1075190106
 10
218230.7771377987
 20
136053.1075190104
 10
218230.7771377987
 20
135873.1075190106
 10
218617.7771377987
 20
135873.1075190106
 10
218617.7771377987
 20
137385.1075190106
  0
LWPOLYLINE
  5
261D
330
2
100
AcDbEntity
  8
0Hatch
100
AcDbPolyline
 90
       16
 70
     1
 43
0.0
 10
218557.7771377987
 20
137325.1075190106
 10
218332.9846366037
 20
137325.1075190106
 10
218332.9846366037
 20
137398.2513646711
 10
218256.1284822645
 20
137475.1075190106
 10
218109.4257933331
 20
137475.1075190105
 10
218032.5696389936
 20
137398.251364671
 10
218032.5696389936
 20
137325.1075190106
 10
217807.7771377987
 20
137325.1075190106
 10
217807.7771377987
 20
136925.1075190106
 10
217777.7771377987
 20
136925.1075190106
 10
217777.7771377987
 20
136513.1075190106
 10
217807.7771377987
 20
136513.1075190106
 10
217807.7771377987
 20
136113.1075190106
 10
218290.7771377987
 20
136113.1075190104
 10
218290.7771377987
 20
135933.1075190105
 10
218557.7771377987
 20
135933.1075190105
  0
LINE
  5
261E
330
2
100
AcDbEntity
  8
SCIANY
 48
4.0
100
AcDbLine
 10
218081.7771377987
 20
136053.1075190106
 30
0.0
 11
218081.7771377987
 21
136113.1075190105
 31
0.0
  0
LINE
  5
261F
330
2
100
AcDbEntity
  8
SCIANY
 48
4.0
100
AcDbLine
 10
218181.7771377987
 20
136113.1075190104
 30
0.0
 11
218181.7771377987
 21
136053.1075190106
 31
0.0
  0
LINE
  5
2620
330
2
100
AcDbEntity
  8
SCIANY
 48
4.0
100
AcDbLine
 10
218309.7771377987
 20
135873.1075190106
 30
0.0
 11
218309.7771377987
 21
135933.1075190105
 31
0.0
  0
LINE
  5
2621
330
2
100
AcDbEntity
  8
SCIANY
 48
4.0
100
AcDbLine
 10
218549.7771377987
 20
135933.1075190105
 30
0.0
 11
218549.7771377987
 21
135873.1075190106
 31
0.0
  0
CIRCLE
  5
2622
330
2
100
AcDbEntity
  8
0Hatch
100
AcDbCircle
 10
217685.2771377987
 20
136962.6075190106
 30
0.0
 40
22.5
  0
HATCH
  5
2623
330
2
100
AcDbEntity
  8
0Hatch
100
AcDbHatch
 10
0.0
 20
0.0
 30
0.0
210
0.0
220
0.0
230
1.0
  2
SOLID
 70
     1
 71
     0
 91
        2
 92
        7
 72
     1
 73
     1
 93
        2
 10
217667.7795578171
 20
136962.6075190106
 42
-1.0
 10
217702.7795578171
 20
136962.6075190106
 42
-1.0
 97
        0
 92
        7
 72
     1
 73
     1
 93
        2
 10
217667.7795578171
 20
136475.6075190106
 42
-1.0
 10
217702.7795578171
 20
136475.6075190106
 42
-1.0
 97
        0
 75
     0
 76
     1
 47
1.596621133862797
 98
        2
 10
217690.8095229585
 20
136961.9661672158
 10
217686.0173421392
 20
136473.4000921548
1001
ACAD
1010
0.0
1020
0.0
1030
0.0
  0
CIRCLE
  5
2624
330
2
100
AcDbEntity
  8
0Hatch
100
AcDbCircle
 10
-217685.2795578171
 20
136962.6075190106
 30
0.0
 40
17.5
210
0.0
220
0.0
230
-1.0
  0
CIRCLE
  5
2625
330
2
100
AcDbEntity
  8
0Hatch
100
AcDbCircle
 10
-217685.2771377987
 20
136475.6075190106
 30
0.0
 40
22.5
210
0.0
220
0.0
230
-1.0
  0
CIRCLE
  5
2626
330
2
100
AcDbEntity
  8
0Hatch
100
AcDbCircle
 10
217685.2795578171
 20
136475.6075190106
 30
0.0
 40
17.5
  0
CIRCLE
  5
2627
330
2
100
AcDbEntity
  8
0Hatch
100
AcDbCircle
 10
-218017.2747177802
 20
135915.6075190106
 30
0.0
 40
22.5
210
0.0
220
0.0
230
-1.0
  0
HATCH
  5
2628
330
2
100
AcDbEntity
  8
0Hatch
100
AcDbHatch
 10
0.0
 20
0.0
 30
0.0
210
0.0
220
0.0
230
1.0
  2
SOLID
 70
     1
 71
     1
 91
        1
 92
        7
 72
     1
 73
     1
 93
        2
 10
218034.7771377987
 20
135915.6075190106
 42
1.0
 10
217999.7771377987
 20
135915.6075190106
 42
1.0
 97
        1
330
2629
 75
     0
 76
     1
 47
1.245682673447373
 98
        1
 10
218017.3737352259
 20
135913.0517057192
1001
ACAD
1010
0.0
1020
0.0
1030
0.0
  0
CIRCLE
  5
2629
102
{ACAD_REACTORS
330
2628
102
}
330
2
100
AcDbEntity
  8
0Hatch
100
AcDbCircle
 10
218017.2771377987
 20
135915.6075190106
 30
0.0
 40
17.5
  0
DIMENSION
  5
262A
330
2
100
AcDbEntity
  8
0Hatch
100
AcDbDimension
  2
*D86
 10
216975.2709720361
 20
137385.1075190106
 30
0.0
 11
216895.2709720361
 21
137460.1075190106
 31
0.0
 70
    32
 71
     5
 42
149.9999999999709
  3
500
100
AcDbAlignedDimension
 13
217937.0534828605
 23
137535.1075190105
 33
0.0
 14
217712.653891666
 24
137385.1075190106
 34
0.0
 50
90.0
100
AcDbRotatedDimension
  0
DIMENSION
  5
262B
330
2
100
AcDbEntity
  8
0Wymiary-PL
100
AcDbDimension
  2
*D87
 10
216975.2709720361
 20
136053.1075190106
 30
0.0
 11
216895.2709720361
 21
136719.1075190106
 31
0.0
 70
    32
 71
     5
 42
1331.999999999971
  3
500
100
AcDbAlignedDimension
 13
217712.653891666
 23
137385.1075190106
 33
0.0
 14
217600.2576410685
 24
136053.1075190106
 34
0.0
 50
90.0
100
AcDbRotatedDimension
  0
DIMENSION
  5
262C
330
2
100
AcDbEntity
  8
0Hatch
100
AcDbDimension
  2
*D88
 10
216975.2709720361
 20
135873.1075190106
 30
0.0
 11
216895.2709720361
 21
135963.1075190107
 31
0.0
 70
    32
 71
     5
 42
180.0000000000291
  3
500
100
AcDbAlignedDimension
 13
217600.2576410685
 23
136053.1075190106
 33
0.0
 14
218083.2576410685
 24
135873.1075190106
 34
0.0
 50
90.0
100
AcDbRotatedDimension
  0
DIMENSION
  5
262D
330
2
100
AcDbEntity
  8
0Wymiary-PL
100
AcDbDimension
  2
*D89
 10
218617.7771377987
 20
138109.4891981864
 30
0.0
 11
218167.7771377987
 21
138189.4891981864
 31
0.0
 70
    32
 71
     5
 42
900.0
  3
500
100
AcDbAlignedDimension
 13
217717.7771377987
 23
136985.1075190106
 33
0.0
 14
218617.7771377987
 24
137385.1075190106
 34
0.0
 50
0.000000000000007
100
AcDbRotatedDimension
  0
DIMENSION
  5
262E
330
2
100
AcDbEntity
  8
0Wymiary-PL
100
AcDbDimension
  2
*D90
 10
218962.6298045969
 20
135873.1075190106
 30
0.0
 11
218882.6298045969
 21
136704.1075190106
 31
0.0
 70
    32
 71
     5
 42
1662.0
  3
500
100
AcDbAlignedDimension
 13
218280.9812960069
 23
137535.1075190106
 33
0.0
 14
218470.2576410685
 24
135873.1075190106
 34
0.0
 50
90.0
100
AcDbRotatedDimension
  0
DIMENSION
  5
262F
330
2
100
AcDbEntity
  8
0Wymiary-PL
100
AcDbDimension
  2
*D91
 10
217747.7771377987
 20
135238.861181402
 30
0.0
 11
217732.7771377987
 21
135318.8611814021
 31
0.0
 70
    32
 71
     5
 42
30.0
  3
500
100
AcDbAlignedDimension
 13
217717.7771377987
 23
136453.1075190105
 33
0.0
 14
217747.7771377987
 24
136453.1075190105
 34
0.0
 50
0.000000000000007
100
AcDbRotatedDimension
  0
DIMENSION
  5
2630
330
2
100
AcDbEntity
  8
0Wymiary-PL
100
AcDbDimension
  2
*D92
 10
218230.7771377987
 20
135238.861181402
 30
0.0
 11
217989.2771377987
 21
135318.8611814021
 31
0.0
 70
    32
 71
     5
 42
483.0
  3
500
100
AcDbAlignedDimension
 13
217747.7771377987
 23
136453.1075190105
 33
0.0
 14
218230.7771377987
 24
136053.1075190104
 34
0.0
 50
0.000000000000007
100
AcDbRotatedDimension
  0
DIMENSION
  5
2631
330
2
100
AcDbEntity
  8
0Wymiary-PL
100
AcDbDimension
  2
*D93
 10
218617.7771377987
 20
135238.861181402
 30
0.0
 11
218424.2771377987
 21
135318.8611814021
 31
0.0
 70
    32
 71
     5
 42
387.0
  3
500
100
AcDbAlignedDimension
 13
218230.7771377987
 23
136053.1075190104
 33
0.0
 14
218617.7771377987
 24
136053.1075190104
 34
0.0
 50
0.000000000000007
100
AcDbRotatedDimension
  0
LWPOLYLINE
  5
2632
330
2
100
AcDbEntity
  8
0Hatch
100
AcDbPolyline
 90
        4
 70
     0
 43
60.0
 10
218309.7771377987
 20
135903.1075190106
 10
218260.7771377987
 20
135903.1075190106
 10
218260.7771377987
 20
136083.1075190104
 10
218181.7771377987
 20
136083.1075190104
  0
LWPOLYLINE
  5
2633
330
2
100
AcDbEntity
  8
0Hatch
100
AcDbPolyline
 90
       16
 70
     0
 43
60.0
 10
218081.7771377987
 20
136083.1075190105
 10
217777.7771377987
 20
136083.1075190106
 10
217777.7771377987
 20
136483.1075190106
 10
217747.7771377987
 20
136483.1075190106
 10
217747.7771377987
 20
136955.1075190106
 10
217777.7771377987
 20
136955.1075190106
 10
217777.7771377987
 20
137355.1075190106
 10
218002.5696389936
 20
137355.1075190106
 10
218002.5696389936
 20
137410.6777715423
 10
218096.9993864619
 20
137505.1075190105
 10
218268.5548891357
 20
137505.1075190106
 10
218362.9846366037
 20
137410.6777715423
 10
218362.9846366037
 20
137355.1075190106
 10
218587.7771377987
 20
137355.1075190106
 10
218587.7771377987
 20
135903.1075190106
 10
218549.7771377987
 20
135903.1075190106
  0
LWPOLYLINE
  5
2634
330
2
100
AcDbEntity
  8
0Hatch
100
AcDbPolyline
 90
        2
 70
     0
 43
60.0
 10
217747.7771377987
 20
136955.1075190106
 10
217807.7771377987
 20
136955.1075190106
  0
ENDSEC
  0
SECTION
  2
OBJECTS
  0
DICTIONARY
  5
7
330
0
100
AcDbDictionary
281
     1
  3
ACAD_COLOR
350
31
  3
ACAD_GROUP
350
2D
  3
ACAD_LAYOUT
350
B
  3
ACAD_MATERIAL
350
30
  3
ACAD_MLEADERSTYLE
350
2268
  3
ACAD_MLINESTYLE
350
2E
  3
ACAD_PLOTSETTINGS
350
2F
  3
ACAD_PLOTSTYLENAME
350
6
  3
ACAD_SCALELIST
350
2258
  3
ACAD_TABLESTYLE
350
DF2
  3
ACAD_VISUALSTYLE
350
172D
  3
ACDB_RECOMPOSE_DATA
350
22B8
  3
AcDbVariableDictionary
350
E04
  3
AEC_CLASSIFICATION_SYSTEM_DEFS
350
3C3
  3
AEC_PROPERTY_SET_DEFS
350
3C4
  3
ASE_INDEX_DICTIONARY
350
22B4
  3
DWGPROPS
350
26D3
  0
DICTIONARY
  5
12
330
11
100
AcDbDictionary
280
     1
281
     1
  3
ACAD_LAYERSTATES
360
13
  0
DICTIONARY
  5
2274
330
4
100
AcDbDictionary
280
     1
281
     1
  3
ADSK_XREC_LAYER_RECONCILED
360
2275
  0
DICTIONARY
  5
2276
330
39
100
AcDbDictionary
280
     1
281
     1
  3
ADSK_XREC_LAYER_RECONCILED
360
2277
  0
DICTIONARY
  5
2278
330
35
100
AcDbDictionary
280
     1
281
     1
  3
ADSK_XREC_LAYER_RECONCILED
360
2279
  0
DICTIONARY
  5
227C
330
15E
100
AcDbDictionary
280
     1
281
     1
  3
ADSK_XREC_LAYER_RECONCILED
360
227D
  0
DICTIONARY
  5
2280
330
143
100
AcDbDictionary
280
     1
281
     1
  3
ADSK_XREC_LAYER_RECONCILED
360
2281
  0
DICTIONARY
  5
22B0
330
202C
100
AcDbDictionary
280
     1
281
     1
  3
ADSK_XREC_LAYER_RECONCILED
360
22B1
  0
DICTIONARY
  5
22B2
330
2081
100
AcDbDictionary
280
     1
281
     1
  3
ADSK_XREC_LAYER_RECONCILED
360
22B3
  0
DICTIONARY
  5
1FEF
330
2
100
AcDbDictionary
280
     1
281
     1
  3
ACAD_SORTENTS
360
1FF0
  0
DICTIONARY
  5
24
330
23
100
AcDbDictionary
280
     1
281
     1
  3
ACAD_SORTENTS
360
117C
  0
DICTIONARY
  5
31
102
{ACAD_REACTORS
330
7
102
}
330
7
100
AcDbDictionary
281
     1
  0
DICTIONARY
  5
2D
102
{ACAD_REACTORS
330
7
102
}
330
7
100
AcDbDictionary
281
     1
  0
DICTIONARY
  5
B
102
{ACAD_REACTORS
330
7
102
}
330
7
100
AcDbDictionary
281
     1
  3
Layout1
350
10
  3
Model
350
A
  0
DICTIONARY
  5
30
102
{ACAD_REACTORS
330
7
102
}
330
7
100
AcDbDictionary
281
     1
  3
ByBlock
350
172B
  3
ByLayer
350
172A
  3
Global
350
172C
  0
DICTIONARY
  5
2268
102
{ACAD_REACTORS
330
7
102
}
330
7
100
AcDbDictionary
281
     1
  3
Standard
350
2269
  0
DICTIONARY
  5
2E
102
{ACAD_REACTORS
330
7
102
}
330
7
100
AcDbDictionary
281
     1
  3
Standard
350
33
  0
DICTIONARY
  5
2F
102
{ACAD_REACTORS
330
7
102
}
330
7
100
AcDbDictionary
281
     1
  0
ACDBDICTIONARYWDFLT
  5
6
102
{ACAD_REACTORS
330
7
102
}
330
7
100
AcDbDictionary
281
     1
  3
Medium
350
1E5
  3
Normal
350
5
100
AcDbDictionaryWithDefault
340
5
  0
DICTIONARY
  5
2258
102
{ACAD_REACTORS
330
7
102
}
330
7
100
AcDbDictionary
281
     1
  3
*A1
350
236D
  3
*A10
350
2376
  3
*A11
350
2377
  3
*A12
350
2378
  3
*A13
350
2379
  3
*A14
350
237A
  3
*A15
350
237B
  3
*A16
350
237C
  3
*A17
350
237D
  3
*A18
350
237E
  3
*A19
350
237F
  3
*A2
350
236E
  3
*A20
350
2380
  3
*A21
350
2381
  3
*A22
350
2382
  3
*A23
350
2383
  3
*A24
350
2384
  3
*A25
350
2385
  3
*A26
350
2386
  3
*A27
350
2387
  3
*A28
350
2388
  3
*A29
350
2389
  3
*A3
350
236F
  3
*A30
350
238A
  3
*A31
350
238B
  3
*A32
350
238C
  3
*A33
350
238D
  3
*A4
350
2370
  3
*A5
350
2371
  3
*A6
350
2372
  3
*A7
350
2373
  3
*A8
350
2374
  3
*A9
350
2375
  3
A0
350
2259
  3
A1
350
225A
  3
A2
350
225B
  3
A3
350
225C
  3
A4
350
225D
  3
A5
350
225E
  3
A6
350
225F
  3
A7
350
2260
  3
A8
350
2261
  3
A9
350
2262
  3
B0
350
2263
  3
B1
350
2264
  3
B2
350
2265
  3
B3
350
2266
  3
B4
350
2267
  0
DICTIONARY
  5
DF2
102
{ACAD_REACTORS
330
7
102
}
330
7
100
AcDbDictionary
281
     1
  3
Standard
350
DF3
  0
DICTIONARY
  5
172D
102
{ACAD_REACTORS
330
7
102
}
330
7
100
AcDbDictionary
281
     1
  3
2dWireframe
350
1733
  3
3D Hidden
350
1735
  3
3dWireframe
350
1734
  3
Basic
350
1732
  3
Brighten
350
1739
  3
ColorChange
350
173D
  3
Conceptual
350
1736
  3
Dim
350
1738
  3
Facepattern
350
173C
  3
Flat
350
172E
  3
FlatWithEdges
350
172F
  3
Gouraud
350
1730
  3
GouraudWithEdges
350
1731
  3
Linepattern
350
173B
  3
Phong
350
22C6
  3
PhongWithEdges
350
22C7
  3
Realistic
350
1737
  3
Thicken
350
173A
  0
XRECORD
  5
22B8
102
{ACAD_REACTORS
330
7
102
}
330
7
100
AcDbXrecord
280
     1
 90
        1
330
DF3
  0
DICTIONARY
  5
E04
102
{ACAD_REACTORS
330
7
102
}
330
7
100
AcDbDictionary
281
     1
  3
CANNOSCALE
350
22BB
  3
CMLEADERSTYLE
350
22B9
  3
CTABLESTYLE
350
E05
  3
DIMASSOC
350
26D1
  3
HIDETEXT
350
26D0
  3
INDEXCTL
350
26CF
  3
LAYEREVAL
350
22BD
  3
LAYERNOTIFY
350
22BE
  3
LIGHTINGUNITS
350
22BC
  3
MSLTSCALE
350
22BA
  3
SORTENTS
350
26CE
  0
DICTIONARY
  5
3C3
102
{ACAD_REACTORS
330
7
102
}
330
7
100
AcDbDictionary
281
     1
  0
DICTIONARY
  5
3C4
102
{ACAD_REACTORS
330
7
102
}
330
7
100
AcDbDictionary
281
     1
  0
DICTIONARY
  5
22B4
102
{ACAD_REACTORS
330
7
102
}
330
7
100
AcDbDictionary
281
     1
  3
ASEBlockHierarchyIndexRecord
350
22B5
1001
DCO15
1040
1652509014.437
  0
XRECORD
  5
26D3
102
{ACAD_REACTORS
330
7
102
}
330
7
100
AcDbXrecord
280
     1
  1
DWGPROPS COOKIE
  2

  3

  4

  6

  7

  8
beata.rzonca
  9

300
=
301
=
302
=
303
=
304
=
305
=
306
=
307
=
308
=
309
=
 40
7.774877719907407
 41
2452027.670547454
 42
2454957.573834445
  1

 90
        0
  0
DICTIONARY
  5
13
102
{ACAD_REACTORS
330
12
102
}
330
12
100
AcDbDictionary
281
     1
  3
_LAYISO_STATE
350
1FF5
1001
AcLayerTools
1000
A
1000
0
  0
XRECORD
  5
2275
102
{ACAD_REACTORS
330
2274
102
}
330
2274
100
AcDbXrecord
280
     1
290
     1
  0
XRECORD
  5
2277
102
{ACAD_REACTORS
330
2276
102
}
330
2276
100
AcDbXrecord
280
     1
290
     1
  0
XRECORD
  5
2279
102
{ACAD_REACTORS
330
2278
102
}
330
2278
100
AcDbXrecord
280
     1
290
     1
  0
XRECORD
  5
227D
102
{ACAD_REACTORS
330
227C
102
}
330
227C
100
AcDbXrecord
280
     1
290
     1
  0
XRECORD
  5
2281
102
{ACAD_REACTORS
330
2280
102
}
330
2280
100
AcDbXrecord
280
     1
290
     1
  0
XRECORD
  5
22B1
102
{ACAD_REACTORS
330
22B0
102
}
330
22B0
100
AcDbXrecord
280
     1
290
     1
  0
XRECORD
  5
22B3
102
{ACAD_REACTORS
330
22B2
102
}
330
22B2
100
AcDbXrecord
280
     1
290
     1
  0
SORTENTSTABLE
  5
1FF0
102
{ACAD_REACTORS
330
1FEF
102
}
330
1FEF
100
AcDbSortentsTable
330
2
331
2120
  5
2120
331
211A
  5
211A
331
2142
  5
2144
331
2134
  5
213A
331
2117
  5
2117
331
15D
  5
15D
331
2114
  5
2114
331
2106
  5
2106
331
2111
  5
2111
331
2103
  5
2103
331
157
  5
157
331
210E
  5
210E
331
2100
  5
2100
331
2128
  5
2128
331
210B
  5
210B
331
213F
  5
2141
331
20FD
  5
20FD
331
214A
  5
245E
331
2125
  5
2125
331
2108
  5
2108
331
213C
  5
213E
331
211F
  5
211F
331
20FA
  5
20FA
331
2122
  5
2122
331
211C
  5
211C
331
2144
  5
2148
331
2119
  5
2119
331
2141
  5
2143
331
2133
  5
2135
331
2116
  5
2116
331
15C
  5
15C
331
2130
  5
2133
331
2113
  5
2113
331
2105
  5
2105
331
159
  5
159
331
2110
  5
2110
331
2102
  5
2102
331
25D8
  5
25E9
331
210D
  5
210D
331
20FF
  5
20FF
331
2127
  5
2127
331
210A
  5
210A
331
213E
  5
2140
331
20FC
  5
20FC
331
2149
  5
214B
331
2124
  5
2124
331
142
  5
142
331
213B
  5
213D
331
211E
  5
211E
331
20F9
  5
20F9
331
2146
  5
2149
331
2121
  5
2121
331
211B
  5
211B
331
2143
  5
2146
331
2135
  5
213B
331
2118
  5
2118
331
2140
  5
2142
331
2132
  5
2134
331
2115
  5
2115
331
2107
  5
2107
331
15B
  5
15B
331
212F
  5
212F
331
2112
  5
2112
331
2104
  5
2104
331
210F
  5
210F
331
2101
  5
2101
331
210C
  5
210C
331
20FE
  5
20FE
331
214B
  5
245F
331
2126
  5
2126
331
2109
  5
2109
331
213D
  5
213F
331
20FB
  5
20FB
331
2148
  5
214A
331
2123
  5
2123
331
213A
  5
213C
331
211D
  5
211D
  0
SORTENTSTABLE
  5
117C
102
{ACAD_REACTORS
330
24
102
}
330
24
100
AcDbSortentsTable
330
23
  0
LAYOUT
  5
10
102
{ACAD_XDICTIONARY
360
26D6
102
}
102
{ACAD_REACTORS
330
B
102
}
330
B
100
AcDbPlotSettings
  1

  2
C:\PROGRAM FILES\AUTOCAD LT 2000\plotters\DWF ePlot.pc3
  4

  6

 40
0.0
 41
0.0
 42
0.0
 43
0.0
 44
0.0
 45
0.0
 46
0.0
 47
0.0
 48
0.0
 49
0.0
140
0.0
141
0.0
142
1.0
143
1.0
 70
   688
 72
     0
 73
     0
 74
     5
  7
monia.ctb
 75
    16
147
1.0
148
0.0
149
0.0
100
AcDbLayout
  1
Layout1
 70
     1
 71
     1
 10
0.0
 20
0.0
 11
420.0
 21
297.0
 12
0.0
 22
0.0
 32
0.0
 14
1.000000000000000E+20
 24
1.000000000000000E+20
 34
1.000000000000000E+20
 15
-1.000000000000000E+20
 25
-1.000000000000000E+20
 35
-1.000000000000000E+20
146
0.0
 13
0.0
 23
0.0
 33
0.0
 16
1.0
 26
0.0
 36
0.0
 17
0.0
 27
1.0
 37
0.0
 76
     0
330
D
  0
LAYOUT
  5
A
102
{ACAD_XDICTIONARY
360
26D4
102
}
102
{ACAD_REACTORS
330
B
102
}
330
B
100
AcDbPlotSettings
  1

  2
develop 161.pc3
  4
A4
  6
RODODENDRON 5
 40
4.773083209991455
 41
4.773089885711669
 42
4.7730712890625
 43
4.7730712890625
 44
209.9733276367187
 45
297.0953369140625
 46
0.0
 47
4.0
 48
215187.2000545948
 49
127657.5157057546
140
225387.2000545948
141
141677.5157057546
142
1.0
143
50.0
 70
 11952
 72
     1
 73
     0
 74
     4
  7
100.ctb
 75
    25
147
0.02
148
-215187.2000545948
149
-127657.5157057546
100
AcDbLayout
  1
Model
 70
     1
 71
     0
 10
0.0
 20
0.0
 11
12.0
 21
9.0
 12
0.0
 22
0.0
 32
0.0
 14
0.0
 24
0.0
 34
0.0
 15
0.0
 25
0.0
 35
0.0
146
0.0
 13
0.0
 23
0.0
 33
0.0
 16
1.0
 26
0.0
 36
0.0
 17
0.0
 27
1.0
 37
0.0
 76
     0
330
2
331
1728
  0
MATERIAL
  5
172B
102
{ACAD_XDICTIONARY
360
26DB
102
}
102
{ACAD_REACTORS
330
30
102
}
330
30
100
AcDbMaterial
  1
ByBlock
 73
     1
 78
     1
172
     1
176
     1
270
     1
274
     1
  0
MATERIAL
  5
172A
102
{ACAD_XDICTIONARY
360
26D9
102
}
102
{ACAD_REACTORS
330
30
102
}
330
30
100
AcDbMaterial
  1
ByLayer
 73
     1
 78
     1
172
     1
176
     1
270
     1
274
     1
  0
MATERIAL
  5
172C
102
{ACAD_XDICTIONARY
360
26DD
102
}
102
{ACAD_REACTORS
330
30
102
}
330
30
100
AcDbMaterial
  1
Global
 73
     1
 78
     1
172
     1
176
     1
270
     1
274
     1
  0
MLEADERSTYLE
  5
2269
102
{ACAD_REACTORS
330
2268
102
}
330
2268
100
AcDbMLeaderStyle
170
     2
171
     1
172
     0
 90
        2
 40
0.0
 41
0.0
173
     1
 91
-1056964608
340
18
 92
       -2
290
     1
 42
0.09
291
     1
 43
0.36
  3
Standard
 44
0.18
300

342
15
174
     1
178
     6
175
     1
176
     0
 93
-1056964608
 45
0.18
292
     0
297
     0
 46
0.18
 94
-1056964608
 47
1.0
 49
1.0
140
1.0
293
     1
141
0.0
294
     1
177
     0
142
1.0
295
     0
296
     0
143
0.125
1001
ACAD_MLEADERVER
1070
     2
  0
MLINESTYLE
  5
33
102
{ACAD_REACTORS
330
2E
102
}
330
2E
100
AcDbMlineStyle
  2
STANDARD
 70
     0
  3

 62
   256
 51
90.0
 52
90.0
 71
     2
 49
0.5
 62
   256
  6
BYLAYER
 49
-0.5
 62
   256
  6
BYLAYER
  0
ACDBPLACEHOLDER
  5
1E5
102
{ACAD_REACTORS
330
6
102
}
330
6
  0
ACDBPLACEHOLDER
  5
5
102
{ACAD_REACTORS
330
6
102
}
330
6
  0
SCALE
  5
236D
102
{ACAD_REACTORS
330
2258
102
}
330
2258
100
AcDbScale
 70
     0
300
1:10
140
1.0
141
1.0
290
     0
  0
SCALE
  5
2376
102
{ACAD_REACTORS
330
2258
102
}
330
2258
100
AcDbScale
 70
     0
300
1:10_2
140
1.0
141
10.0
290
     0
  0
SCALE
  5
2377
102
{ACAD_REACTORS
330
2258
102
}
330
2258
100
AcDbScale
 70
     0
300
1:20_2
140
1.0
141
20.0
290
     0
  0
SCALE
  5
2378
102
{ACAD_REACTORS
330
2258
102
}
330
2258
100
AcDbScale
 70
     0
300
1:50_2
140
1.0
141
50.0
290
     0
  0
SCALE
  5
2379
102
{ACAD_REACTORS
330
2258
102
}
330
2258
100
AcDbScale
 70
     0
300
1:100_2
140
1.0
141
100.0
290
     0
  0
SCALE
  5
237A
102
{ACAD_REACTORS
330
2258
102
}
330
2258
100
AcDbScale
 70
     0
300
1:1
140
1.0
141
0.1
290
     0
  0
SCALE
  5
237B
102
{ACAD_REACTORS
330
2258
102
}
330
2258
100
AcDbScale
 70
     0
300
1:1_1
140
1.0
141
1.0
290
     0
  0
SCALE
  5
237C
102
{ACAD_REACTORS
330
2258
102
}
330
2258
100
AcDbScale
 70
     0
300
1:2_1
140
1.0
141
2.0
290
     0
  0
SCALE
  5
237D
102
{ACAD_REACTORS
330
2258
102
}
330
2258
100
AcDbScale
 70
     0
300
1:4
140
1.0
141
4.0
290
     0
  0
SCALE
  5
237E
102
{ACAD_REACTORS
330
2258
102
}
330
2258
100
AcDbScale
 70
     0
300
1:5_1
140
1.0
141
5.0
290
     0
  0
SCALE
  5
237F
102
{ACAD_REACTORS
330
2258
102
}
330
2258
100
AcDbScale
 70
     0
300
1:8
140
1.0
141
8.0
290
     0
  0
SCALE
  5
236E
102
{ACAD_REACTORS
330
2258
102
}
330
2258
100
AcDbScale
 70
     0
300
1:2
140
1.0
141
0.2
290
     0
  0
SCALE
  5
2380
102
{ACAD_REACTORS
330
2258
102
}
330
2258
100
AcDbScale
 70
     0
300
1:10_1
140
1.0
141
10.0
290
     0
  0
SCALE
  5
2381
102
{ACAD_REACTORS
330
2258
102
}
330
2258
100
AcDbScale
 70
     0
300
1:16
140
1.0
141
16.0
290
     0
  0
SCALE
  5
2382
102
{ACAD_REACTORS
330
2258
102
}
330
2258
100
AcDbScale
 70
     0
300
1:20_1
140
1.0
141
20.0
290
     0
  0
SCALE
  5
2383
102
{ACAD_REACTORS
330
2258
102
}
330
2258
100
AcDbScale
 70
     0
300
1:30
140
1.0
141
30.0
290
     0
  0
SCALE
  5
2384
102
{ACAD_REACTORS
330
2258
102
}
330
2258
100
AcDbScale
 70
     0
300
1:40
140
1.0
141
40.0
290
     0
  0
SCALE
  5
2385
102
{ACAD_REACTORS
330
2258
102
}
330
2258
100
AcDbScale
 70
     0
300
1:50_1
140
1.0
141
50.0
290
     0
  0
SCALE
  5
2386
102
{ACAD_REACTORS
330
2258
102
}
330
2258
100
AcDbScale
 70
     0
300
1:100_1
140
1.0
141
100.0
290
     0
  0
SCALE
  5
2387
102
{ACAD_REACTORS
330
2258
102
}
330
2258
100
AcDbScale
 70
     0
300
2:1
140
2.0
141
1.0
290
     0
  0
SCALE
  5
2388
102
{ACAD_REACTORS
330
2258
102
}
330
2258
100
AcDbScale
 70
     0
300
4:1
140
4.0
141
1.0
290
     0
  0
SCALE
  5
2389
102
{ACAD_REACTORS
330
2258
102
}
330
2258
100
AcDbScale
 70
     0
300
8:1
140
8.0
141
1.0
290
     0
  0
SCALE
  5
236F
102
{ACAD_REACTORS
330
2258
102
}
330
2258
100
AcDbScale
 70
     0
300
1:5
140
1.0
141
0.5
290
     0
  0
SCALE
  5
238A
102
{ACAD_REACTORS
330
2258
102
}
330
2258
100
AcDbScale
 70
     0
300
10:1
140
10.0
141
1.0
290
     0
  0
SCALE
  5
238B
102
{ACAD_REACTORS
330
2258
102
}
330
2258
100
AcDbScale
 70
     0
300
100:1
140
100.0
141
1.0
290
     0
  0
SCALE
  5
238C
102
{ACAD_REACTORS
330
2258
102
}
330
2258
100
AcDbScale
 70
     0
300
1/128" = 1'-0"
140
0.0078125
141
12.0
290
     0
  0
SCALE
  5
238D
102
{ACAD_REACTORS
330
2258
102
}
330
2258
100
AcDbScale
 70
     0
300
1-1/2" = 1'-0"
140
1.5
141
12.0
290
     0
  0
SCALE
  5
2370
102
{ACAD_REACTORS
330
2258
102
}
330
2258
100
AcDbScale
 70
     0
300
1:20
140
1.0
141
2.0
290
     0
  0
SCALE
  5
2371
102
{ACAD_REACTORS
330
2258
102
}
330
2258
100
AcDbScale
 70
     0
300
1:50
140
1.0
141
5.0
290
     0
  0
SCALE
  5
2372
102
{ACAD_REACTORS
330
2258
102
}
330
2258
100
AcDbScale
 70
     0
300
1:100
140
1.0
141
10.0
290
     0
  0
SCALE
  5
2373
102
{ACAD_REACTORS
330
2258
102
}
330
2258
100
AcDbScale
 70
     0
300
1:1_2
140
1.0
141
1.0
290
     0
  0
SCALE
  5
2374
102
{ACAD_REACTORS
330
2258
102
}
330
2258
100
AcDbScale
 70
     0
300
1:2_2
140
1.0
141
2.0
290
     0
  0
SCALE
  5
2375
102
{ACAD_REACTORS
330
2258
102
}
330
2258
100
AcDbScale
 70
     0
300
1:5_2
140
1.0
141
5.0
290
     0
  0
SCALE
  5
2259
102
{ACAD_REACTORS
330
2258
102
}
330
2258
100
AcDbScale
 70
     0
300
1/64" = 1'-0"
140
0.015625
141
12.0
290
     0
  0
SCALE
  5
225A
102
{ACAD_REACTORS
330
2258
102
}
330
2258
100
AcDbScale
 70
     0
300
1/32" = 1'-0"
140
0.03125
141
12.0
290
     0
  0
SCALE
  5
225B
102
{ACAD_REACTORS
330
2258
102
}
330
2258
100
AcDbScale
 70
     0
300
1/16" = 1'-0"
140
0.0625
141
12.0
290
     0
  0
SCALE
  5
225C
102
{ACAD_REACTORS
330
2258
102
}
330
2258
100
AcDbScale
 70
     0
300
3/32" = 1'-0"
140
0.09375
141
12.0
290
     0
  0
SCALE
  5
225D
102
{ACAD_REACTORS
330
2258
102
}
330
2258
100
AcDbScale
 70
     0
300
1/8" = 1'-0"
140
0.125
141
12.0
290
     0
  0
SCALE
  5
225E
102
{ACAD_REACTORS
330
2258
102
}
330
2258
100
AcDbScale
 70
     0
300
3/16" = 1'-0"
140
0.1875
141
12.0
290
     0
  0
SCALE
  5
225F
102
{ACAD_REACTORS
330
2258
102
}
330
2258
100
AcDbScale
 70
     0
300
1/4" = 1'-0"
140
0.25
141
12.0
290
     0
  0
SCALE
  5
2260
102
{ACAD_REACTORS
330
2258
102
}
330
2258
100
AcDbScale
 70
     0
300
3/8" = 1'-0"
140
0.375
141
12.0
290
     0
  0
SCALE
  5
2261
102
{ACAD_REACTORS
330
2258
102
}
330
2258
100
AcDbScale
 70
     0
300
1/2" = 1'-0"
140
0.5
141
12.0
290
     0
  0
SCALE
  5
2262
102
{ACAD_REACTORS
330
2258
102
}
330
2258
100
AcDbScale
 70
     0
300
3/4" = 1'-0"
140
0.75
141
12.0
290
     0
  0
SCALE
  5
2263
102
{ACAD_REACTORS
330
2258
102
}
330
2258
100
AcDbScale
 70
     0
300
1" = 1'-0"
140
1.0
141
12.0
290
     0
  0
SCALE
  5
2264
102
{ACAD_REACTORS
330
2258
102
}
330
2258
100
AcDbScale
 70
     0
300
1 1/2" = 1'-0"
140
1.5
141
12.0
290
     0
  0
SCALE
  5
2265
102
{ACAD_REACTORS
330
2258
102
}
330
2258
100
AcDbScale
 70
     0
300
3" = 1'-0"
140
3.0
141
12.0
290
     0
  0
SCALE
  5
2266
102
{ACAD_REACTORS
330
2258
102
}
330
2258
100
AcDbScale
 70
     0
300
6" = 1'-0"
140
6.0
141
12.0
290
     0
  0
SCALE
  5
2267
102
{ACAD_REACTORS
330
2258
102
}
330
2258
100
AcDbScale
 70
     0
300
1'-0" = 1'-0"
140
12.0
141
12.0
290
     1
  0
TABLESTYLE
  5
DF3
102
{ACAD_XDICTIONARY
360
22B6
102
}
102
{ACAD_REACTORS
330
DF2
102
}
330
DF2
100
AcDbTableStyle
  3
Standard
 70
     0
 71
     0
 40
0.06
 41
0.06
280
     0
281
     0
  7
Standard
140
0.18
170
     2
 62
     0
 63
     7
283
     0
274
    -2
284
     1
 64
     0
275
    -2
285
     1
 65
     0
276
    -2
286
     1
 66
     0
277
    -2
287
     1
 67
     0
278
    -2
288
     1
 68
     0
279
    -2
289
     1
 69
     0
  7
Standard
140
0.25
170
     5
 62
     0
 63
     7
283
     0
274
    -2
284
     1
 64
     0
275
    -2
285
     1
 65
     0
276
    -2
286
     1
 66
     0
277
    -2
287
     1
 67
     0
278
    -2
288
     1
 68
     0
279
    -2
289
     1
 69
     0
  7
Standard
140
0.18
170
     5
 62
     0
 63
     7
283
     0
274
    -2
284
     1
 64
     0
275
    -2
285
     1
 65
     0
276
    -2
286
     1
 66
     0
277
    -2
287
     1
 67
     0
278
    -2
288
     1
 68
     0
279
    -2
289
     1
 69
     0
  0
VISUALSTYLE
  5
1733
102
{ACAD_REACTORS
330
172D
102
}
330
172D
100
AcDbVisualStyle
  2
2dWireframe
 70
     4
 71
     0
 72
     2
 73
     0
 90
        0
 40
-0.6
 41
-30.0
 62
     5
 63
     7
 74
     1
 91
        4
 64
     7
 65
   257
 75
     1
175
     1
 42
1.0
 92
        0
 66
   257
 43
1.0
 76
     1
 77
     6
 78
     2
 67
     7
 79
     5
170
     0
171
     0
290
     0
174
     0
 93
        1
 44
0.0
173
     0
291
     0
 45
0.0
1001
ACAD
1000
AcDbSavedByObjectVersion
1070
     0
  0
VISUALSTYLE
  5
1735
102
{ACAD_REACTORS
330
172D
102
}
330
172D
100
AcDbVisualStyle
  2
3D Hidden
 70
     6
 71
     1
 72
     2
 73
     2
 90
        0
 40
-0.6
 41
-30.0
 62
     5
 63
     7
 74
     2
 91
        2
 64
     7
 65
   257
 75
     2
175
     1
 42
40.0
 92
        0
 66
   257
 43
1.0
 76
     1
 77
     6
 78
     2
 67
     7
 79
     3
170
     0
171
     0
290
     0
174
     0
 93
        1
 44
0.0
173
     0
291
     0
 45
0.0
1001
ACAD
1000
AcDbSavedByObjectVersion
1070
     0
  0
VISUALSTYLE
  5
1734
102
{ACAD_REACTORS
330
172D
102
}
330
172D
100
AcDbVisualStyle
  2
3dWireframe
 70
     5
 71
     0
 72
     2
 73
     0
 90
        0
 40
-0.6
 41
-30.0
 62
     5
 63
     7
 74
     1
 91
        4
 64
     7
 65
   257
 75
     1
175
     1
 42
1.0
 92
        0
 66
   257
 43
1.0
 76
     1
 77
     6
 78
     2
 67
     7
 79
     5
170
     0
171
     0
290
     0
174
     0
 93
        1
 44
0.0
173
     0
291
     0
 45
0.0
1001
ACAD
1000
AcDbSavedByObjectVersion
1070
     0
  0
VISUALSTYLE
  5
1732
102
{ACAD_REACTORS
330
172D
102
}
330
172D
100
AcDbVisualStyle
  2
Basic
 70
     7
 71
     1
 72
     0
 73
     1
 90
        0
 40
-0.6
 41
-30.0
 62
     5
 63
     7
 74
     0
 91
        4
 64
     7
 65
   257
 75
     1
175
     1
 42
1.0
 92
        8
 66
     7
 43
1.0
 76
     1
 77
     6
 78
     2
 67
     7
 79
     5
170
     0
171
     0
290
     0
174
     0
 93
        1
 44
0.0
173
     0
291
     1
 45
0.0
1001
ACAD
1000
AcDbSavedByObjectVersion
1070
     0
  0
VISUALSTYLE
  5
1739
102
{ACAD_REACTORS
330
172D
102
}
330
172D
100
AcDbVisualStyle
  2
Brighten
 70
    12
 71
     2
 72
     2
 73
     0
 90
        0
 40
-0.6
 41
-30.0
 62
     5
 63
     7
 74
     1
 91
        4
 64
     7
 65
   257
 75
     1
175
     1
 42
1.0
 92
        8
 66
     7
 43
1.0
 76
     1
 77
     6
 78
     2
 67
     7
 79
     5
170
     0
171
     0
290
     0
174
     0
 93
        1
 44
50.0
173
     0
291
     1
 45
0.0
1001
ACAD
1000
AcDbSavedByObjectVersion
1070
     0
  0
VISUALSTYLE
  5
173D
102
{ACAD_REACTORS
330
172D
102
}
330
172D
100
AcDbVisualStyle
  2
ColorChange
 70
    16
 71
     2
 72
     2
 73
     3
 90
        0
 40
-0.6
 41
-30.0
 62
     5
 63
     8
 74
     1
 91
        4
 64
     7
 65
   257
 75
     1
175
     1
 42
1.0
 92
        8
 66
     8
 43
1.0
 76
     1
 77
     6
 78
     2
 67
     7
 79
     5
170
     0
171
     0
290
     0
174
     0
 93
        1
 44
0.0
173
     0
291
     1
 45
0.0
1001
ACAD
1000
AcDbSavedByObjectVersion
1070
     0
  0
VISUALSTYLE
  5
1736
102
{ACAD_REACTORS
330
172D
102
}
330
172D
100
AcDbVisualStyle
  2
Conceptual
 70
     9
 71
     3
 72
     2
 73
     0
 90
        0
 40
-0.6
 41
-30.0
 62
     5
 63
     7
 74
     2
 91
        2
 64
     7
 65
   257
 75
     1
175
     1
 42
40.0
 92
        8
 66
     7
 43
1.0
 76
     1
 77
     6
 78
     2
 67
     7
 79
     3
170
     0
171
     0
290
     0
174
     0
 93
        1
 44
0.0
173
     0
291
     0
 45
0.0
1001
ACAD
1000
AcDbSavedByObjectVersion
1070
     0
  0
VISUALSTYLE
  5
1738
102
{ACAD_REACTORS
330
172D
102
}
330
172D
100
AcDbVisualStyle
  2
Dim
 70
    11
 71
     2
 72
     2
 73
     0
 90
        0
 40
-0.6
 41
-30.0
 62
     5
 63
     7
 74
     1
 91
        4
 64
     7
 65
   257
 75
     1
175
     1
 42
1.0
 92
        8
 66
     7
 43
1.0
 76
     1
 77
     6
 78
     2
 67
     7
 79
     5
170
     0
171
     0
290
     0
174
     0
 93
        1
 44
-50.0
173
     0
291
     1
 45
0.0
1001
ACAD
1000
AcDbSavedByObjectVersion
1070
     0
  0
VISUALSTYLE
  5
173C
102
{ACAD_REACTORS
330
172D
102
}
330
172D
100
AcDbVisualStyle
  2
Facepattern
 70
    15
 71
     2
 72
     2
 73
     0
 90
        0
 40
-0.6
 41
-30.0
 62
     5
 63
     7
 74
     1
 91
        4
 64
     7
 65
   257
 75
     1
175
     1
 42
1.0
 92
        8
 66
     7
 43
1.0
 76
     1
 77
     6
 78
     2
 67
     7
 79
     5
170
     0
171
     0
290
     0
174
     0
 93
        1
 44
0.0
173
     0
291
     1
 45
0.0
1001
ACAD
1000
AcDbSavedByObjectVersion
1070
     0
  0
VISUALSTYLE
  5
172E
102
{ACAD_REACTORS
330
172D
102
}
330
172D
100
AcDbVisualStyle
  2
Flat
 70
     0
 71
     2
 72
     1
 73
     1
 90
        2
 40
-0.6
 41
30.0
 62
     5
 63
     7
 74
     0
 91
        4
 64
     7
 65
   257
 75
     1
175
     1
 42
1.0
 92
        8
 66
     7
 43
1.0
 76
     1
 77
     6
 78
     2
 67
     7
 79
     5
170
     0
171
     0
290
     0
174
     0
 93
       13
 44
0.0
173
     0
291
     0
 45
0.0
1001
ACAD
1000
AcDbSavedByObjectVersion
1070
     0
  0
VISUALSTYLE
  5
172F
102
{ACAD_REACTORS
330
172D
102
}
330
172D
100
AcDbVisualStyle
  2
FlatWithEdges
 70
     1
 71
     2
 72
     1
 73
     1
 90
        2
 40
-0.6
 41
30.0
 62
     5
 63
     7
 74
     1
 91
        4
 64
     7
 65
   257
 75
     1
175
     1
 42
1.0
 92
        0
 66
   257
 43
1.0
 76
     1
 77
     6
 78
     2
 67
     7
 79
     5
170
     0
171
     0
290
     0
174
     0
 93
       13
 44
0.0
173
     0
291
     0
 45
0.0
1001
ACAD
1000
AcDbSavedByObjectVersion
1070
     0
  0
VISUALSTYLE
  5
1730
102
{ACAD_REACTORS
330
172D
102
}
330
172D
100
AcDbVisualStyle
  2
Gouraud
 70
     2
 71
     2
 72
     2
 73
     1
 90
        2
 40
-0.6
 41
30.0
 62
     5
 63
     7
 74
     0
 91
        4
 64
     7
 65
   257
 75
     1
175
     1
 42
1.0
 92
        0
 66
     7
 43
1.0
 76
     1
 77
     6
 78
     2
 67
     7
 79
     5
170
     0
171
     0
290
     0
174
     0
 93
       13
 44
0.0
173
     0
291
     0
 45
0.0
1001
ACAD
1000
AcDbSavedByObjectVersion
1070
     0
  0
VISUALSTYLE
  5
1731
102
{ACAD_REACTORS
330
172D
102
}
330
172D
100
AcDbVisualStyle
  2
GouraudWithEdges
 70
     3
 71
     2
 72
     2
 73
     1
 90
        2
 40
-0.6
 41
30.0
 62
     5
 63
     7
 74
     1
 91
        4
 64
     7
 65
   257
 75
     1
175
     1
 42
1.0
 92
        0
 66
   257
 43
1.0
 76
     1
 77
     6
 78
     2
 67
     7
 79
     5
170
     0
171
     0
290
     0
174
     0
 93
       13
 44
0.0
173
     0
291
     0
 45
0.0
1001
ACAD
1000
AcDbSavedByObjectVersion
1070
     0
  0
VISUALSTYLE
  5
173B
102
{ACAD_REACTORS
330
172D
102
}
330
172D
100
AcDbVisualStyle
  2
Linepattern
 70
    14
 71
     2
 72
     2
 73
     0
 90
        0
 40
-0.6
 41
-30.0
 62
     5
 63
     7
 74
     1
 91
        4
 64
     7
 65
   257
 75
     7
175
     7
 42
1.0
 92
        8
 66
     7
 43
1.0
 76
     1
 77
     6
 78
     2
 67
     7
 79
     5
170
     0
171
     0
290
     0
174
     0
 93
        1
 44
0.0
173
     0
291
     1
 45
0.0
1001
ACAD
1000
AcDbSavedByObjectVersion
1070
     0
  0
VISUALSTYLE
  5
22C6
102
{ACAD_REACTORS
330
172D
102
}
330
172D
100
AcDbVisualStyle
  2

 70
     8
 71
     2
 72
     2
 73
     0
 90
        0
 40
-0.6
 41
-30.0
 62
     5
 63
     7
 74
     0
 91
        0
 64
     7
 65
   257
 75
     1
175
     1
 42
1.0
 92
        8
 66
     8
 43
1.0
 76
     1
 77
     6
 78
     2
 67
     7
 79
     5
170
     0
171
     0
290
     0
174
     0
 93
       13
 44
0.0
173
     0
291
     0
 45
0.0
1001
ACAD
1000
AcDbSavedByObjectVersion
1070
     0
  0
VISUALSTYLE
  5
22C7
102
{ACAD_REACTORS
330
172D
102
}
330
172D
100
AcDbVisualStyle
  2

 70
     8
 71
     2
 72
     2
 73
     0
 90
        0
 40
-0.6
 41
-30.0
 62
     5
 63
     7
 74
     1
 91
        0
 64
     7
 65
   257
 75
     1
175
     1
 42
1.0
 92
        8
 66
     8
 43
1.0
 76
     1
 77
     6
 78
     2
 67
     7
 79
     5
170
     0
171
     0
290
     0
174
     0
 93
       13
 44
0.0
173
     0
291
     0
 45
0.0
1001
ACAD
1000
AcDbSavedByObjectVersion
1070
     0
  0
VISUALSTYLE
  5
1737
102
{ACAD_REACTORS
330
172D
102
}
330
172D
100
AcDbVisualStyle
  2
Realistic
 70
     8
 71
     2
 72
     2
 73
     0
 90
        0
 40
-0.6
 41
-30.0
 62
     5
 63
     7
 74
     1
 91
        0
 64
     7
 65
   257
 75
     1
175
     1
 42
1.0
 92
        8
 66
     8
 43
1.0
 76
     1
 77
     6
 78
     2
 67
     7
 79
     5
170
     0
171
     0
290
     0
174
     0
 93
       13
 44
0.0
173
     0
291
     0
 45
0.0
1001
ACAD
1000
AcDbSavedByObjectVersion
1070
     0
  0
VISUALSTYLE
  5
173A
102
{ACAD_REACTORS
330
172D
102
}
330
172D
100
AcDbVisualStyle
  2
Thicken
 70
    13
 71
     2
 72
     2
 73
     0
 90
        0
 40
-0.6
 41
-30.0
 62
     5
 63
     7
 74
     1
 91
        4
 64
     7
 65
   257
 75
     1
175
     1
 42
1.0
 92
       12
 66
     7
 43
1.0
 76
     1
 77
     6
 78
     2
 67
     7
 79
     5
170
     0
171
     0
290
     0
174
     0
 93
        1
 44
0.0
173
     0
291
     1
 45
0.0
1001
ACAD
1000
AcDbSavedByObjectVersion
1070
     0
  0
DICTIONARYVAR
  5
22BB
102
{ACAD_REACTORS
330
E04
102
}
330
E04
100
DictionaryVariables
280
     0
  1
1'-0" = 1'-0"
  0
DICTIONARYVAR
  5
22B9
102
{ACAD_REACTORS
330
E04
102
}
330
E04
100
DictionaryVariables
280
     0
  1
STANDARD
  0
DICTIONARYVAR
  5
E05
102
{ACAD_REACTORS
330
E04
102
}
330
E04
100
DictionaryVariables
280
     0
  1
STANDARD
  0
DICTIONARYVAR
  5
26D1
102
{ACAD_REACTORS
330
E04
102
}
330
E04
100
DictionaryVariables
280
     0
  1
1
  0
DICTIONARYVAR
  5
26D0
102
{ACAD_REACTORS
330
E04
102
}
330
E04
100
DictionaryVariables
280
     0
  1
1
  0
DICTIONARYVAR
  5
26CF
102
{ACAD_REACTORS
330
E04
102
}
330
E04
100
DictionaryVariables
280
     0
  1
0
  0
DICTIONARYVAR
  5
22BD
102
{ACAD_REACTORS
330
E04
102
}
330
E04
100
DictionaryVariables
280
     0
  1
1
  0
DICTIONARYVAR
  5
22BE
102
{ACAD_REACTORS
330
E04
102
}
330
E04
100
DictionaryVariables
280
     0
  1
15
  0
DICTIONARYVAR
  5
22BC
102
{ACAD_REACTORS
330
E04
102
}
330
E04
100
DictionaryVariables
280
     0
  1
0
  0
DICTIONARYVAR
  5
22BA
102
{ACAD_REACTORS
330
E04
102
}
330
E04
100
DictionaryVariables
280
     0
  1
0
  0
DICTIONARYVAR
  5
26CE
102
{ACAD_REACTORS
330
E04
102
}
330
E04
100
DictionaryVariables
280
     0
  1
127
  0
XRECORD
  5
22B5
102
{ACAD_REACTORS
330
22B4
102
}
330
22B4
100
AcDbXrecord
280
     1
330
182
330
183
330
E1B
330
E1C
330
E1E
330
E1F
330
E20
330
E21
330
E22
330
E23
330
E8B
330
E8C
330
E8D
330
E8E
330
2087
330
2088
330
2092
330
2093
330
209D
330
209E
330
223A
330
223B
330
2241
330
2242
330
20DA
330
20DB
330
20E5
330
20E6
330
20F0
330
20F1
330
2209
330
220A
330
2210
330
2211
330
2217
330
2218
330
224F
330
2250
330
2248
330
2249
330
21F2
330
21F3
330
21F9
330
21FA
330
2200
330
2201
330
0
330
0
330
0
330
0
330
0
330
0
330
0
330
0
  0
XRECORD
  5
1FF5
102
{ACAD_REACTORS
330
13
102
}
330
13
100
AcDbXrecord
280
     1
 91
      535
301

290
     0
302
WYMIARY
330
1987
 90
        8
 62
   242
370
     5
331
8
  1
Color_242
330
1986
 90
        8
 62
   114
370
     9
331
8
  1
Color_114
330
1985
 90
        8
 62
   100
370
     5
331
8
  1
Color_100
330
E9E
 90
        8
 62
     8
370
     5
331
8
  1
Color_8
330
E9D
 90
        8
 62
   140
370
    15
331
8
  1
Color_140
330
E9C
 90
        8
 62
   210
370
    -3
331
8
  1
Color_210
330
E9B
 90
        8
 62
   190
370
     5
331
8
  1
Color_190
330
E9A
 90
        8
 62
     2
370
     5
331
8
  1
Color_2
330
E99
 90
        8
 62
    67
370
     5
331
8
  1
Color_67
330
E98
 90
        8
 62
     8
370
     5
331
8
  1
Color_8
330
A84
 90
        8
 62
   130
370
    -3
331
8
  1
Color_130
330
5E2
 90
        8
 62
   210
370
     9
331
8
  1
Color_210
330
1DA
 90
        8
 62
   114
370
     9
331
8
  1
Color_114
330
1D9
 90
        8
 62
    92
370
     5
331
8
  1
Color_92
330
1D8
 90
        8
 62
   113
370
    15
331
8
  1
Color_113
330
1D7
 90
        8
 62
     7
370
    50
331
8
  1
Color_7
330
1D6
 90
        8
 62
    91
370
    15
331
8
  1
Color_91
330
1D5
 90
        8
 62
    20
370
     9
331
8
  1
Color_20
330
1D4
 90
        8
 62
    92
370
     5
331
8
  1
Color_92
330
1D3
 90
        8
 62
    40
370
     5
331
8
  1
Color_40
330
1D2
 90
        8
 62
     1
370
     5
331
1CF
  1
Color_1
330
1D1
 90
        8
 62
     7
370
    13
331
8
  1
Color_7
330
1D0
 90
        8
 62
   114
370
     5
331
8
  1
Color_114
330
143
 90
        8
 62
   140
370
    -3
331
8
  1
Color_140
330
BB
 90
        8
 62
   100
370
    -3
331
8
  1
Color_100
330
15E
 90
        0
 62
     2
370
    -3
331
8
  1
Color_2
330
65
 90
        0
 62
     7
370
    -3
331
8
  1
Color_7
330
32
 90
        8
 62
     1
370
    -3
331
8
  1
Color_1
330
35
 90
        8
 62
   140
370
    -3
331
8
  1
Color_140
330
39
 90
        8
 62
   114
370
    -3
331
8
  1
Color_114
330
4
 90
        8
 62
     7
370
    -3
331
8
  1
Color_7
  0
DICTIONARY
  5
26D6
330
10
100
AcDbDictionary
280
     1
281
     1
  3
ACAD_XREC_ROUNDTRIP
360
26D7
  0
DICTIONARY
  5
26D4
330
A
100
AcDbDictionary
280
     1
281
     1
  3
ACAD_XREC_ROUNDTRIP
360
26D5
  0
DICTIONARY
  5
26DB
330
172B
100
AcDbDictionary
280
     1
281
     1
  3
ACAD_XREC_ROUNDTRIP
360
26DC
  0
DICTIONARY
  5
26D9
330
172A
100
AcDbDictionary
280
     1
281
     1
  3
ACAD_XREC_ROUNDTRIP
360
26DA
  0
DICTIONARY
  5
26DD
330
172C
100
AcDbDictionary
280
     1
281
     1
  3
ACAD_XREC_ROUNDTRIP
360
26DE
  0
DICTIONARY
  5
22B6
330
DF3
100
AcDbDictionary
280
     1
281
     1
  3
ACAD_ROUNDTRIP_2008_TABLESTYLE_CELLSTYLEMAP
360
26D2
  3
ACAD_XREC_ROUNDTRIP
360
26D8
  0
XRECORD
  5
26D7
102
{ACAD_REACTORS
330
26D6
102
}
330
26D6
100
AcDbXrecord
280
     1
102
SHADEPLOT
 70
     0
102
SHADEPLOTRESLEVEL
 70
     2
102
SHADEPLOTCUSTOMDPI
 70
   300
  0
XRECORD
  5
26D5
102
{ACAD_REACTORS
330
26D4
102
}
330
26D4
100
AcDbXrecord
280
     1
102
SHADEPLOT
 70
     1
102
SHADEPLOTRESLEVEL
 70
     2
102
SHADEPLOTCUSTOMDPI
 70
   300
  0
XRECORD
  5
26DC
102
{ACAD_REACTORS
330
26DB
102
}
330
26DB
100
AcDbXrecord
280
     1
102
MATERIAL
148
0.0
149
0.0
149
0.0
 93
        0
 94
       63
282
     0
 72
     1
 77
     1
171
     1
175
     1
179
     1
273
     0
  0
XRECORD
  5
26DA
102
{ACAD_REACTORS
330
26D9
102
}
330
26D9
100
AcDbXrecord
280
     1
102
MATERIAL
148
0.0
149
0.0
149
0.0
 93
        0
 94
       63
282
     0
 72
     1
 77
     1
171
     1
175
     1
179
     1
273
     0
  0
XRECORD
  5
26DE
102
{ACAD_REACTORS
330
26DD
102
}
330
26DD
100
AcDbXrecord
280
     1
102
MATERIAL
148
0.0
149
0.0
149
0.0
 93
        0
 94
       63
282
     0
 72
     1
 77
     1
171
     1
175
     1
179
     1
273
     0
  0
CELLSTYLEMAP
  5
26D2
102
{ACAD_REACTORS
330
22B6
102
}
330
22B6
100
AcDbCellStyleMap
 90
        3
300
CELLSTYLE
  1
TABLEFORMAT_BEGIN
 90
        5
170
     1
 91
        0
 92
    32768
 62
   257
 93
        1
300
CONTENTFORMAT
  1
CONTENTFORMAT_BEGIN
 90
        0
 91
        0
 92
        4
 93
        0
300

 40
0.0
140
1.0
 94
        5
 62
     0
340
15
144
0.25
309
CONTENTFORMAT_END
171
     0
 94
        6
 95
        1
302
GRIDFORMAT
  1
GRIDFORMAT_BEGIN
 90
        0
 91
        1
 62
     0
 92
       -2
340
0
 93
        0
 40
0.045
309
GRIDFORMAT_END
 95
        2
302
GRIDFORMAT
  1
GRIDFORMAT_BEGIN
 90
        0
 91
        1
 62
     0
 92
       -2
340
0
 93
        0
 40
0.045
309
GRIDFORMAT_END
 95
        4
302
GRIDFORMAT
  1
GRIDFORMAT_BEGIN
 90
        0
 91
        1
 62
     0
 92
       -2
340
0
 93
        0
 40
0.045
309
GRIDFORMAT_END
 95
        8
302
GRIDFORMAT
  1
GRIDFORMAT_BEGIN
 90
        0
 91
        1
 62
     0
 92
       -2
340
0
 93
        0
 40
0.045
309
GRIDFORMAT_END
 95
       16
302
GRIDFORMAT
  1
GRIDFORMAT_BEGIN
 90
        0
 91
        1
 62
     0
 92
       -2
340
0
 93
        0
 40
0.045
309
GRIDFORMAT_END
 95
       32
302
GRIDFORMAT
  1
GRIDFORMAT_BEGIN
 90
        0
 91
        1
 62
     0
 92
       -2
340
0
 93
        0
 40
0.045
309
GRIDFORMAT_END
309
TABLEFORMAT_END
  1
CELLSTYLE_BEGIN
 90
        1
 91
        1
300
_TITLE
309
CELLSTYLE_END
300
CELLSTYLE
  1
TABLEFORMAT_BEGIN
 90
        5
170
     1
 91
        0
 92
        0
 62
   257
 93
        1
300
CONTENTFORMAT
  1
CONTENTFORMAT_BEGIN
 90
        0
 91
        0
 92
        4
 93
        0
300

 40
0.0
140
1.0
 94
        5
 62
     0
340
15
144
0.18
309
CONTENTFORMAT_END
171
     0
 94
        6
 95
        1
302
GRIDFORMAT
  1
GRIDFORMAT_BEGIN
 90
        0
 91
        1
 62
     0
 92
       -2
340
0
 93
        0
 40
0.045
309
GRIDFORMAT_END
 95
        2
302
GRIDFORMAT
  1
GRIDFORMAT_BEGIN
 90
        0
 91
        1
 62
     0
 92
       -2
340
0
 93
        0
 40
0.045
309
GRIDFORMAT_END
 95
        4
302
GRIDFORMAT
  1
GRIDFORMAT_BEGIN
 90
        0
 91
        1
 62
     0
 92
       -2
340
0
 93
        0
 40
0.045
309
GRIDFORMAT_END
 95
        8
302
GRIDFORMAT
  1
GRIDFORMAT_BEGIN
 90
        0
 91
        1
 62
     0
 92
       -2
340
0
 93
        0
 40
0.045
309
GRIDFORMAT_END
 95
       16
302
GRIDFORMAT
  1
GRIDFORMAT_BEGIN
 90
        0
 91
        1
 62
     0
 92
       -2
340
0
 93
        0
 40
0.045
309
GRIDFORMAT_END
 95
       32
302
GRIDFORMAT
  1
GRIDFORMAT_BEGIN
 90
        0
 91
        1
 62
     0
 92
       -2
340
0
 93
        0
 40
0.045
309
GRIDFORMAT_END
309
TABLEFORMAT_END
  1
CELLSTYLE_BEGIN
 90
        2
 91
        1
300
_HEADER
309
CELLSTYLE_END
300
CELLSTYLE
  1
TABLEFORMAT_BEGIN
 90
        5
170
     1
 91
        0
 92
        0
 62
   257
 93
        1
300
CONTENTFORMAT
  1
CONTENTFORMAT_BEGIN
 90
        0
 91
        0
 92
        4
 93
        0
300

 40
0.0
140
1.0
 94
        2
 62
     0
340
15
144
0.18
309
CONTENTFORMAT_END
171
     0
 94
        6
 95
        1
302
GRIDFORMAT
  1
GRIDFORMAT_BEGIN
 90
        0
 91
        1
 62
     0
 92
       -2
340
0
 93
        0
 40
0.045
309
GRIDFORMAT_END
 95
        2
302
GRIDFORMAT
  1
GRIDFORMAT_BEGIN
 90
        0
 91
        1
 62
     0
 92
       -2
340
0
 93
        0
 40
0.045
309
GRIDFORMAT_END
 95
        4
302
GRIDFORMAT
  1
GRIDFORMAT_BEGIN
 90
        0
 91
        1
 62
     0
 92
       -2
340
0
 93
        0
 40
0.045
309
GRIDFORMAT_END
 95
        8
302
GRIDFORMAT
  1
GRIDFORMAT_BEGIN
 90
        0
 91
        1
 62
     0
 92
       -2
340
0
 93
        0
 40
0.045
309
GRIDFORMAT_END
 95
       16
302
GRIDFORMAT
  1
GRIDFORMAT_BEGIN
 90
        0
 91
        1
 62
     0
 92
       -2
340
0
 93
        0
 40
0.045
309
GRIDFORMAT_END
 95
       32
302
GRIDFORMAT
  1
GRIDFORMAT_BEGIN
 90
        0
 91
        1
 62
     0
 92
       -2
340
0
 93
        0
 40
0.045
309
GRIDFORMAT_END
309
TABLEFORMAT_END
  1
CELLSTYLE_BEGIN
 90
        3
 91
        2
300
_DATA
309
CELLSTYLE_END
  0
XRECORD
  5
26D8
102
{ACAD_REACTORS
330
22B6
102
}
330
22B6
100
AcDbXrecord
280
     1
102
ACAD_ROUNDTRIP_PRE2007_TABLESTYLE
 90
        4
 91
        0
  1

 92
        4
 93
        0
  2

 94
        4
 95
        0
  3

  0
ENDSEC
  0
EOF
