  0
SECTION
  2
HEADER
  9
$ACADVER
  1
AC1015
  9
$ACADMAINTVER
 70
    18
  9
$DWGCODEPAGE
  3
ANSI_1250
  9
$INSBASE
 10
0.0
 20
0.0
 30
0.0
  9
$EXTMIN
 10
1.000000000000000E+20
 20
1.000000000000000E+20
 30
1.000000000000000E+20
  9
$EXTMAX
 10
0.0
 20
0.0
 30
0.0
  9
$LIMMIN
 10
0.0
 20
0.0
  9
$LIMMAX
 10
53600.0
 20
41400.0
  9
$ORTHOMODE
 70
     1
  9
$REGENMODE
 70
     1
  9
$FILLMODE
 70
     1
  9
$QTEXTMODE
 70
     0
  9
$MIRRTEXT
 70
     0
  9
$LTSCALE
 40
50.0
  9
$ATTMODE
 70
     1
  9
$TEXTSIZE
 40
2.5
  9
$TRACEWID
 40
0.5
  9
$TEXTSTYLE
  7
RomanS
  9
$CLAYER
  8
0
  9
$CELTYPE
  6
ByLayer
  9
$CECOLOR
 62
   256
  9
$CELTSCALE
 40
1.0
  9
$DISPSILH
 70
     1
  9
$DIMSCALE
 40
1.0
  9
$DIMASZ
 40
15.0
  9
$DIMEXO
 40
43.0
  9
$DIMDLI
 40
24.0
  9
$DIMRND
 40
0.5
  9
$DIMDLE
 40
12.0
  9
$DIMEXE
 40
13.0
  9
$DIMTP
 40
0.0
  9
$DIMTM
 40
0.0
  9
$DIMTXT
 40
30.0
  9
$DIMCEN
 40
0.0
  9
$DIMTSZ
 40
0.0
  9
$DIMTOL
 70
     0
  9
$DIMLIM
 70
     0
  9
$DIMTIH
 70
     0
  9
$DIMTOH
 70
     0
  9
$DIMSE1
 70
     1
  9
$DIMSE2
 70
     1
  9
$DIMTAD
 70
     1
  9
$DIMZIN
 70
     8
  9
$DIMBLK
  1
B-DIM_K
  9
$DIMASO
 70
     1
  9
$DIMSHO
 70
     1
  9
$DIMPOST
  1

  9
$DIMAPOST
  1

  9
$DIMALT
 70
     0
  9
$DIMALTD
 70
     2
  9
$DIMALTF
 40
25.4
  9
$DIMLFAC
 40
1.0
  9
$DIMTOFL
 70
     1
  9
$DIMTVP
 40
1.0
  9
$DIMTIX
 70
     1
  9
$DIMSOXD
 70
     0
  9
$DIMSAH
 70
     0
  9
$DIMBLK1
  1

  9
$DIMBLK2
  1

  9
$DIMSTYLE
  2
100-PR
  9
$DIMCLRD
 70
     7
  9
$DIMCLRE
 70
     1
  9
$DIMCLRT
 70
   140
  9
$DIMTFAC
 40
1.0
  9
$DIMGAP
 40
12.0
  9
$DIMJUST
 70
     0
  9
$DIMSD1
 70
     0
  9
$DIMSD2
 70
     0
  9
$DIMTOLJ
 70
     1
  9
$DIMTZIN
 70
     0
  9
$DIMALTZ
 70
     0
  9
$DIMALTTZ
 70
     0
  9
$DIMUPT
 70
     0
  9
$DIMDEC
 70
     1
  9
$DIMTDEC
 70
     1
  9
$DIMALTU
 70
     2
  9
$DIMALTTD
 70
     2
  9
$DIMTXSTY
  7
RomanS
  9
$DIMAUNIT
 70
     0
  9
$DIMADEC
 70
     0
  9
$DIMALTRND
 40
0.0
  9
$DIMAZIN
 70
     0
  9
$DIMDSEP
 70
    46
  9
$DIMATFIT
 70
     3
  9
$DIMFRAC
 70
     0
  9
$DIMLDRBLK
  1
Dot
  9
$DIMLUNIT
 70
     2
  9
$DIMLWD
 70
     5
  9
$DIMLWE
 70
    -2
  9
$DIMTMOVE
 70
     2
  9
$LUNITS
 70
     2
  9
$LUPREC
 70
     2
  9
$SKETCHINC
 40
1.0
  9
$FILLETRAD
 40
0.0
  9
$AUNITS
 70
     0
  9
$AUPREC
 70
     2
  9
$MENU
  1
.
  9
$ELEVATION
 40
0.0
  9
$PELEVATION
 40
0.0
  9
$THICKNESS
 40
0.0
  9
$LIMCHECK
 70
     0
  9
$CHAMFERA
 40
0.0
  9
$CHAMFERB
 40
0.0
  9
$CHAMFERC
 40
0.0
  9
$CHAMFERD
 40
0.0
  9
$SKPOLY
 70
     0
  9
$TDCREATE
 40
2453924.466519630
  9
$TDUCREATE
 40
2453924.383186296
  9
$TDUPDATE
 40
2455498.462100868
  9
$TDUUPDATE
 40
2455498.378767535
  9
$TDINDWG
 40
5.9311631597
  9
$TDUSRTIMER
 40
5.9311629861
  9
$USRTIMER
 70
     1
  9
$ANGBASE
 50
0.0
  9
$ANGDIR
 70
     0
  9
$PDMODE
 70
     0
  9
$PDSIZE
 40
0.0
  9
$PLINEWID
 40
0.0
  9
$SPLFRAME
 70
     0
  9
$SPLINETYPE
 70
     6
  9
$SPLINESEGS
 70
     8
  9
$HANDSEED
  5
29B
  9
$SURFTAB1
 70
     6
  9
$SURFTAB2
 70
     6
  9
$SURFTYPE
 70
     6
  9
$SURFU
 70
     6
  9
$SURFV
 70
     6
  9
$UCSBASE
  2

  9
$UCSNAME
  2

  9
$UCSORG
 10
0.0
 20
0.0
 30
0.0
  9
$UCSXDIR
 10
1.0
 20
0.0
 30
0.0
  9
$UCSYDIR
 10
0.0
 20
1.0
 30
0.0
  9
$UCSORTHOREF
  2

  9
$UCSORTHOVIEW
 70
     1
  9
$UCSORGTOP
 10
0.0
 20
0.0
 30
0.0
  9
$UCSORGBOTTOM
 10
0.0
 20
0.0
 30
0.0
  9
$UCSORGLEFT
 10
0.0
 20
0.0
 30
0.0
  9
$UCSORGRIGHT
 10
0.0
 20
0.0
 30
0.0
  9
$UCSORGFRONT
 10
0.0
 20
0.0
 30
0.0
  9
$UCSORGBACK
 10
0.0
 20
0.0
 30
0.0
  9
$PUCSBASE
  2

  9
$PUCSNAME
  2

  9
$PUCSORG
 10
0.0
 20
0.0
 30
0.0
  9
$PUCSXDIR
 10
1.0
 20
0.0
 30
0.0
  9
$PUCSYDIR
 10
0.0
 20
1.0
 30
0.0
  9
$PUCSORTHOREF
  2

  9
$PUCSORTHOVIEW
 70
     0
  9
$PUCSORGTOP
 10
0.0
 20
0.0
 30
0.0
  9
$PUCSORGBOTTOM
 10
0.0
 20
0.0
 30
0.0
  9
$PUCSORGLEFT
 10
0.0
 20
0.0
 30
0.0
  9
$PUCSORGRIGHT
 10
0.0
 20
0.0
 30
0.0
  9
$PUCSORGFRONT
 10
0.0
 20
0.0
 30
0.0
  9
$PUCSORGBACK
 10
0.0
 20
0.0
 30
0.0
  9
$USERI1
 70
     0
  9
$USERI2
 70
     0
  9
$USERI3
 70
     0
  9
$USERI4
 70
     0
  9
$USERI5
 70
     0
  9
$USERR1
 40
0.0
  9
$USERR2
 40
0.0
  9
$USERR3
 40
0.0
  9
$USERR4
 40
0.0
  9
$USERR5
 40
0.0
  9
$WORLDVIEW
 70
     1
  9
$SHADEDGE
 70
     3
  9
$SHADEDIF
 70
    70
  9
$TILEMODE
 70
     1
  9
$MAXACTVP
 70
    64
  9
$PINSBASE
 10
0.0
 20
0.0
 30
0.0
  9
$PLIMCHECK
 70
     0
  9
$PEXTMIN
 10
0.1849314666158011
 20
0.1807636100571841
 30
0.0
  9
$PEXTMAX
 10
19.70561214497582
 20
28.41692371118396
 30
0.0
  9
$PLIMMIN
 10
-0.4233333110809327
 20
-0.4275669574737549
  9
$PLIMMAX
 10
20.57399945259094
 20
29.26926531791687
  9
$UNITMODE
 70
     0
  9
$VISRETAIN
 70
     1
  9
$PLINEGEN
 70
     0
  9
$PSLTSCALE
 70
     0
  9
$TREEDEPTH
 70
  3020
  9
$CMLSTYLE
  2
Standard
  9
$CMLJUST
 70
     0
  9
$CMLSCALE
 40
20.0
  9
$PROXYGRAPHICS
 70
     0
  9
$MEASUREMENT
 70
     1
  9
$CELWEIGHT
370
    -1
  9
$ENDCAPS
280
     0
  9
$JOINSTYLE
280
     0
  9
$LWDISPLAY
290
     0
  9
$INSUNITS
 70
     5
  9
$HYPERLINKBASE
  1

  9
$STYLESHEET
  1

  9
$XEDIT
290
     1
  9
$CEPSNTYPE
380
     0
  9
$PSTYLEMODE
290
     1
  9
$FINGERPRINTGUID
  2
{AC1FA645-5292-4135-A6DA-87636598A1C2}
  9
$VERSIONGUID
  2
{C54DC185-08F2-4E41-A65D-3003A8FDD023}
  9
$EXTNAMES
290
     1
  9
$PSVPSCALE
 40
0.0
  9
$OLESTARTUP
290
     0
  0
ENDSEC
  0
SECTION
  2
CLASSES
  0
CLASS
  1
ACDBDICTIONARYWDFLT
  2
AcDbDictionaryWithDefault
  3
ObjectDBX Classes
 90
        0
280
     0
281
     0
  0
CLASS
  1
ACDBPLACEHOLDER
  2
AcDbPlaceHolder
  3
ObjectDBX Classes
 90
        0
280
     0
281
     0
  0
CLASS
  1
LAYOUT
  2
AcDbLayout
  3
ObjectDBX Classes
 90
        0
280
     0
281
     0
  0
CLASS
  1
DICTIONARYVAR
  2
AcDbDictionaryVar
  3
ObjectDBX Classes
 90
        0
280
     0
281
     0
  0
CLASS
  1
AEC_DISP_REP_2D_SECTION
  2
AecDbDispRep2dSection
  3
AecBase50|Product Desc: Autodesk Architectural Desktop 2007 |Company: Autodesk,Inc. |WEB Address: www.autodesk.com
 90
    32897
280
     0
281
     0
  0
CLASS
  1
AEC_DISP_PROPS_2D_SECTION
  2
AecDbDispProps2dSection
  3
AecBase50|Product Desc: Autodesk Architectural Desktop 2007 |Company: Autodesk,Inc. |WEB Address: www.autodesk.com
 90
    32897
280
     0
281
     0
  0
CLASS
  1
AEC_DISP_REP_ANCHOR
  2
AecDbDispRepAnchor
  3
AecBase50|Product Desc: Autodesk Architectural Desktop 2007 |Company: Autodesk,Inc. |WEB Address: www.autodesk.com
 90
    32897
280
     0
281
     0
  0
CLASS
  1
AEC_DISP_REP_ANCHOR_ENT_TO_NODE
  2
AecDbDispRepAnchorEntToNode
  3
AecBaseEx50|Product Desc: Autodesk Architectural Desktop 2007 |Company: Autodesk,Inc. |WEB Address: www.autodesk.com
 90
    32897
280
     0
281
     0
  0
CLASS
  1
AEC_DISP_PROPS_ENT
  2
AecDbDispPropsEnt
  3
AecBase50|Product Desc: Autodesk Architectural Desktop 2007 |Company: Autodesk,Inc. |WEB Address: www.autodesk.com
 90
    32897
280
     0
281
     0
  0
CLASS
  1
AEC_DISP_REP_CAMERA
  2
AecDbDispRepCamera
  3
AecBase50|Product Desc: Autodesk Architectural Desktop 2007 |Company: Autodesk,Inc. |WEB Address: www.autodesk.com
 90
    32897
280
     0
281
     0
  0
CLASS
  1
AEC_DISP_PROPS_CAMERA
  2
AecDbDispPropsCamera
  3
AecBase50|Product Desc: Autodesk Architectural Desktop 2007 |Company: Autodesk,Inc. |WEB Address: www.autodesk.com
 90
    32897
280
     0
281
     0
  0
CLASS
  1
AEC_DISP_REP_CLIP_VOLUME_MODEL
  2
AecDbDispRepClipVolModel
  3
AecBase50|Product Desc: Autodesk Architectural Desktop 2007 |Company: Autodesk,Inc. |WEB Address: www.autodesk.com
 90
    32897
280
     0
281
     0
  0
CLASS
  1
AEC_DISP_PROPS_CLIP_VOLUME
  2
AecDbDispPropsClipVol
  3
AecBase50|Product Desc: Autodesk Architectural Desktop 2007 |Company: Autodesk,Inc. |WEB Address: www.autodesk.com
 90
    32897
280
     0
281
     0
  0
CLASS
  1
AEC_DISP_REP_CLIP_VOLUME_PLAN
  2
AecDbDispRepClipVolPlan
  3
AecBase50|Product Desc: Autodesk Architectural Desktop 2007 |Company: Autodesk,Inc. |WEB Address: www.autodesk.com
 90
    32897
280
     0
281
     0
  0
CLASS
  1
AEC_DISP_REP_CLIP_VOLUME_RESULT
  2
AecDbDispRepClipVolResult
  3
AecBase50|Product Desc: Autodesk Architectural Desktop 2007 |Company: Autodesk,Inc. |WEB Address: www.autodesk.com
 90
    32897
280
     0
281
     0
  0
CLASS
  1
AEC_DISP_REP_CLIP_VOLUME_RESULT_SUBDIV
  2
AecDbDispRepClipVolResSubDiv
  3
AecBase50|Product Desc: Autodesk Architectural Desktop 2007 |Company: Autodesk,Inc. |WEB Address: www.autodesk.com
 90
    32897
280
     0
281
     0
  0
CLASS
  1
AEC_DISP_PROPS_CLIP_VOLUME_RESULT
  2
AecDbDispPropsClipVolResSubDiv
  3
AecBase50|Product Desc: Autodesk Architectural Desktop 2007 |Company: Autodesk,Inc. |WEB Address: www.autodesk.com
 90
    32897
280
     0
281
     0
  0
CLASS
  1
AEC_DISP_REP_ENT_REF
  2
AecDbDispRepEntRef
  3
AecBase50|Product Desc: Autodesk Architectural Desktop 2007 |Company: Autodesk,Inc. |WEB Address: www.autodesk.com
 90
    32897
280
     0
281
     0
  0
CLASS
  1
AEC_DISP_PROPS_ENT_REF
  2
AecDbDispPropsEntRef
  3
AecBase50|Product Desc: Autodesk Architectural Desktop 2007 |Company: Autodesk,Inc. |WEB Address: www.autodesk.com
 90
    32897
280
     0
281
     0
  0
CLASS
  1
AEC_DISP_REP_LAYOUT_CURVE
  2
AecDbDispRepLayoutCurve
  3
AecBase50|Product Desc: Autodesk Architectural Desktop 2007 |Company: Autodesk,Inc. |WEB Address: www.autodesk.com
 90
    32897
280
     0
281
     0
  0
CLASS
  1
AEC_VARS_DWG_SETUP
  2
AecDbVarsDwgSetup
  3
AecBase50|Product Desc: Autodesk Architectural Desktop 2007 |Company: Autodesk,Inc. |WEB Address: www.autodesk.com
 90
    32897
280
     0
281
     0
  0
CLASS
  1
AEC_DISP_PROPS_LAYOUT_CURVE
  2
AecDbDispPropsLayoutCurve
  3
AecBase50|Product Desc: Autodesk Architectural Desktop 2007 |Company: Autodesk,Inc. |WEB Address: www.autodesk.com
 90
    32897
280
     0
281
     0
  0
CLASS
  1
AEC_DISP_REP_LAYOUT_GRID2D
  2
AecDbDispRepLayoutGrid2d
  3
AecBase50|Product Desc: Autodesk Architectural Desktop 2007 |Company: Autodesk,Inc. |WEB Address: www.autodesk.com
 90
    32897
280
     0
281
     0
  0
CLASS
  1
AEC_DISP_PROPS_LAYOUT_GRID2D
  2
AecDbDispPropsLayoutGrid2d
  3
AecBase50|Product Desc: Autodesk Architectural Desktop 2007 |Company: Autodesk,Inc. |WEB Address: www.autodesk.com
 90
    32897
280
     0
281
     0
  0
CLASS
  1
AEC_DISP_REP_LAYOUT_GRID3D
  2
AecDbDispRepLayoutGrid3d
  3
AecBase50|Product Desc: Autodesk Architectural Desktop 2007 |Company: Autodesk,Inc. |WEB Address: www.autodesk.com
 90
    32897
280
     0
281
     0
  0
CLASS
  1
AEC_DISP_PROPS_LAYOUT_GRID3D
  2
AecDbDispPropsLayoutGrid3d
  3
AecBase50|Product Desc: Autodesk Architectural Desktop 2007 |Company: Autodesk,Inc. |WEB Address: www.autodesk.com
 90
    32897
280
     0
281
     0
  0
CLASS
  1
AEC_DISP_REP_MASKBLOCK_REF
  2
AecDbDispRepMaskBlockRef
  3
AecBase50|Product Desc: Autodesk Architectural Desktop 2007 |Company: Autodesk,Inc. |WEB Address: www.autodesk.com
 90
    32897
280
     0
281
     0
  0
CLASS
  1
AEC_DISP_PROPS_MASKBLOCK
  2
AecDbDispPropsMaskBlock
  3
AecBase50|Product Desc: Autodesk Architectural Desktop 2007 |Company: Autodesk,Inc. |WEB Address: www.autodesk.com
 90
    32897
280
     0
281
     0
  0
CLASS
  1
AEC_DISP_REP_MASS_ELEM_MODEL
  2
AecDbDispRepMassElemModel
  3
AecBaseEx50|Product Desc: Autodesk Architectural Desktop 2007 |Company: Autodesk,Inc. |WEB Address: www.autodesk.com
 90
    32897
280
     0
281
     0
  0
CLASS
  1
AEC_DISP_PROPS_MASS_ELEM_MODEL
  2
AecDbDispPropsMassElem
  3
AecBaseEx50|Product Desc: Autodesk Architectural Desktop 2007 |Company: Autodesk,Inc. |WEB Address: www.autodesk.com
 90
    32897
280
     0
281
     0
  0
CLASS
  1
AEC_DISP_REP_MASS_ELEM_SCHEM
  2
AecDbDispRepMassElemSchem
  3
AecBaseEx50|Product Desc: Autodesk Architectural Desktop 2007 |Company: Autodesk,Inc. |WEB Address: www.autodesk.com
 90
    32897
280
     0
281
     0
  0
CLASS
  1
AEC_DISP_REP_MASS_GROUP_MODEL
  2
AecDbDispRepMassGroupModel
  3
AecBaseEx50|Product Desc: Autodesk Architectural Desktop 2007 |Company: Autodesk,Inc. |WEB Address: www.autodesk.com
 90
    32897
280
     0
281
     0
  0
CLASS
  1
AEC_DISP_PROPS_MASS_GROUP
  2
AecDbDispPropsMassGroup
  3
AecBaseEx50|Product Desc: Autodesk Architectural Desktop 2007 |Company: Autodesk,Inc. |WEB Address: www.autodesk.com
 90
    32897
280
     0
281
     0
  0
CLASS
  1
AEC_DISP_REP_MASS_GROUP_PLAN
  2
AecDbDispRepMassGroupPlan
  3
AecBaseEx50|Product Desc: Autodesk Architectural Desktop 2007 |Company: Autodesk,Inc. |WEB Address: www.autodesk.com
 90
    32897
280
     0
281
     0
  0
CLASS
  1
AEC_DISP_REP_MVBLOCK_REF
  2
AecDbDispRepMvBlockRef
  3
AecBase50|Product Desc: Autodesk Architectural Desktop 2007 |Company: Autodesk,Inc. |WEB Address: www.autodesk.com
 90
    32897
280
     0
281
     0
  0
CLASS
  1
AEC_DISP_REP_MVBLOCK_REF_MODEL
  2
AecDbDispRepMvBlockRefModel
  3
AecBase50|Product Desc: Autodesk Architectural Desktop 2007 |Company: Autodesk,Inc. |WEB Address: www.autodesk.com
 90
    32897
280
     0
281
     0
  0
CLASS
  1
AEC_DISP_REP_POLYGON_MODEL
  2
AecDbDispRepPolygonModel
  3
AecBaseEx50|Product Desc: Autodesk Architectural Desktop 2007 |Company: Autodesk,Inc. |WEB Address: www.autodesk.com
 90
    32897
280
     0
281
     0
  0
CLASS
  1
AEC_DISP_PROPS_POLYGON_MODEL
  2
AecDbDispPropsPolygonModel
  3
AecBaseEx50|Product Desc: Autodesk Architectural Desktop 2007 |Company: Autodesk,Inc. |WEB Address: www.autodesk.com
 90
    32897
280
     0
281
     0
  0
CLASS
  1
AEC_DISP_REP_POLYGON_TRUECOLOUR
  2
AecDbDispRepPolygonTrueColour
  3
AecBaseEx50|Product Desc: Autodesk Architectural Desktop 2007 |Company: Autodesk,Inc. |WEB Address: www.autodesk.com
 90
    32897
280
     0
281
     0
  0
CLASS
  1
AEC_DISP_PROPS_POLYGON_TRUECOLOUR
  2
AecDbDispPropsPolygonTrueColour
  3
AecBaseEx50|Product Desc: Autodesk Architectural Desktop 2007 |Company: Autodesk,Inc. |WEB Address: www.autodesk.com
 90
    32897
280
     0
281
     0
  0
CLASS
  1
AEC_DISP_REP_SLICE
  2
AecDbDispRepSlice
  3
AecBase50|Product Desc: Autodesk Architectural Desktop 2007 |Company: Autodesk,Inc. |WEB Address: www.autodesk.com
 90
    32897
280
     0
281
     0
  0
CLASS
  1
AEC_DISP_PROPS_SLICE
  2
AecDbDispPropsSlice
  3
AecBase50|Product Desc: Autodesk Architectural Desktop 2007 |Company: Autodesk,Inc. |WEB Address: www.autodesk.com
 90
    32897
280
     0
281
     0
  0
CLASS
  1
AEC_DISP_REP_ANCHOR_BUB_TO_GRID
  2
AecDbDispRepAnchorBubToGrid
  3
AecStructureBase50|Product Desc: Autodesk Architectural Desktop 2007 |Company: Autodesk,Inc. |WEB Address: www.autodesk.com
 90
    32897
280
     0
281
     0
  0
CLASS
  1
AEC_DISP_REP_ANCHOR_BUB_TO_GRID_MODEL
  2
AecDbDispRepAnchorBubToGridMdl
  3
AecStructureBase50|Product Desc: Autodesk Architectural Desktop 2007 |Company: Autodesk,Inc. |WEB Address: www.autodesk.com
 90
    32897
280
     0
281
     0
  0
CLASS
  1
AEC_DISP_REP_ANCHOR_BUB_TO_GRID_RCP
  2
AecDbDispRepAnchorBubToGridRcp
  3
AecStructureBase50|Product Desc: Autodesk Architectural Desktop 2007 |Company: Autodesk,Inc. |WEB Address: www.autodesk.com
 90
    32897
280
     0
281
     0
  0
CLASS
  1
AEC_DISP_REP_BDG_ELEVLINE_MODEL
  2
AecDbDispRepBdgElevLineModel
  3
AecArchBase50|Product Desc: Autodesk Architectural Desktop 2007 |Company: Autodesk,Inc. |WEB Address: www.autodesk.com
 90
    32897
280
     0
281
     0
  0
CLASS
  1
AEC_DISP_REP_BDG_SECTIONLINE_PLAN
  2
AecDbDispRepBdgElevLinePlan
  3
AecArchBase50|Product Desc: Autodesk Architectural Desktop 2007 |Company: Autodesk,Inc. |WEB Address: www.autodesk.com
 90
    32897
280
     0
281
     0
  0
CLASS
  1
AEC_DISP_REP_BDG_ELEVLINE_RCP
  2
AecDbDispRepBdgElevLineRcp
  3
AecArchBase50|Product Desc: Autodesk Architectural Desktop 2007 |Company: Autodesk,Inc. |WEB Address: www.autodesk.com
 90
    32897
280
     0
281
     0
  0
CLASS
  1
AEC_DISP_REP_BDG_SECTIONLINE_MODEL
  2
AecDbDispRepBdgSectionLineModel
  3
AecArchBase50|Product Desc: Autodesk Architectural Desktop 2007 |Company: Autodesk,Inc. |WEB Address: www.autodesk.com
 90
    32897
280
     0
281
     0
  0
CLASS
  1
AEC_DISP_REP_BDG_SECTIONLINE_PLAN
  2
AecDbDispRepBdgSectionLinePlan
  3
AecArchBase50|Product Desc: Autodesk Architectural Desktop 2007 |Company: Autodesk,Inc. |WEB Address: www.autodesk.com
 90
    32897
280
     0
281
     0
  0
CLASS
  1
AEC_DISP_REP_BDG_SECTIONLINE_RCP
  2
AecDbDispRepBdgSectionLineRcp
  3
AecArchBase50|Product Desc: Autodesk Architectural Desktop 2007 |Company: Autodesk,Inc. |WEB Address: www.autodesk.com
 90
    32897
280
     0
281
     0
  0
CLASS
  1
AEC_DISP_REP_BDG_SECTION_MODEL
  2
AecDbDispRepBdgSectionModel
  3
AecArchBase50|Product Desc: Autodesk Architectural Desktop 2007 |Company: Autodesk,Inc. |WEB Address: www.autodesk.com
 90
    32897
280
     0
281
     0
  0
CLASS
  1
AEC_DISP_REP_BDG_SECTION_SUBDIV
  2
AecDbDispRepBdgSectionSubDiv
  3
AecArchBase50|Product Desc: Autodesk Architectural Desktop 2007 |Company: Autodesk,Inc. |WEB Address: www.autodesk.com
 90
    32897
280
     0
281
     0
  0
CLASS
  1
AEC_DISP_REP_CEILING_GRID
  2
AecDbDispRepCeilingGrid
  3
AecArchBase50|Product Desc: Autodesk Architectural Desktop 2007 |Company: Autodesk,Inc. |WEB Address: www.autodesk.com
 90
    33661
280
     0
281
     0
  0
CLASS
  1
AEC_DISP_REP_CEILING_GRID_MODEL
  2
AecDbDispRepCeilingGridModel
  3
AecArchBase50|Product Desc: Autodesk Architectural Desktop 2007 |Company: Autodesk,Inc. |WEB Address: www.autodesk.com
 90
    32897
280
     0
281
     0
  0
CLASS
  1
AEC_DISP_REP_CEILING_GRID_RCP
  2
AecDbDispRepCeilingGridRcp
  3
AecArchBase50|Product Desc: Autodesk Architectural Desktop 2007 |Company: Autodesk,Inc. |WEB Address: www.autodesk.com
 90
    32897
280
     0
281
     0
  0
CLASS
  1
AEC_DISP_REP_COLUMN_GRID
  2
AecDbDispRepColumnGrid
  3
AecStructureBase50|Product Desc: Autodesk Architectural Desktop 2007 |Company: Autodesk,Inc. |WEB Address: www.autodesk.com
 90
    32897
280
     0
281
     0
  0
CLASS
  1
AEC_DISP_REP_COLUMN_GRID_MODEL
  2
AecDbDispRepColumnGridModel
  3
AecStructureBase50|Product Desc: Autodesk Architectural Desktop 2007 |Company: Autodesk,Inc. |WEB Address: www.autodesk.com
 90
    32897
280
     0
281
     0
  0
CLASS
  1
AEC_DISP_REP_COLUMN_GRID_RCP
  2
AecDbDispRepColumnGridRcp
  3
AecStructureBase50|Product Desc: Autodesk Architectural Desktop 2007 |Company: Autodesk,Inc. |WEB Address: www.autodesk.com
 90
    32897
280
     0
281
     0
  0
CLASS
  1
AEC_DISP_REP_CURTAIN_WALL_LAYOUT_MODEL
  2
AecDbDispRepCurtainWallLayoutModel
  3
AecArchBase50|Product Desc: Autodesk Architectural Desktop 2007 |Company: Autodesk,Inc. |WEB Address: www.autodesk.com
 90
    32897
280
     0
281
     0
  0
CLASS
  1
AEC_DISP_PROPS_GRID_ASSEMBLY_MODEL
  2
AecDbDispPropsGridAssemblyModel
  3
AecArchBase50|Product Desc: Autodesk Architectural Desktop 2007 |Company: Autodesk,Inc. |WEB Address: www.autodesk.com
 90
    32897
280
     0
281
     0
  0
CLASS
  1
AEC_DISP_REP_CURTAIN_WALL_LAYOUT_PLAN
  2
AecDbDispRepCurtainWallLayoutPlan
  3
AecArchBase50|Product Desc: Autodesk Architectural Desktop 2007 |Company: Autodesk,Inc. |WEB Address: www.autodesk.com
 90
    32897
280
     0
281
     0
  0
CLASS
  1
AEC_DISP_PROPS_GRID_ASSEMBLY_PLAN
  2
AecDbDispPropsGridAssemblyPlan
  3
AecArchBase50|Product Desc: Autodesk Architectural Desktop 2007 |Company: Autodesk,Inc. |WEB Address: www.autodesk.com
 90
    32897
280
     0
281
     0
  0
CLASS
  1
AEC_DISP_REP_CURTAIN_WALL_UNIT_MODEL
  2
AecDbDispRepCurtainWallUnitModel
  3
AecArchBase50|Product Desc: Autodesk Architectural Desktop 2007 |Company: Autodesk,Inc. |WEB Address: www.autodesk.com
 90
    32897
280
     0
281
     0
  0
CLASS
  1
AEC_DISP_REP_CURTAIN_WALL_UNIT_PLAN
  2
AecDbDispRepCurtainWallUnitPlan
  3
AecArchBase50|Product Desc: Autodesk Architectural Desktop 2007 |Company: Autodesk,Inc. |WEB Address: www.autodesk.com
 90
    32897
280
     0
281
     0
  0
CLASS
  1
AEC_DISP_REP_DOOR_MODEL
  2
AecDbDispRepDoorModel
  3
AecArchBase50|Product Desc: Autodesk Architectural Desktop 2007 |Company: Autodesk,Inc. |WEB Address: www.autodesk.com
 90
    32897
280
     0
281
     0
  0
CLASS
  1
AEC_DISP_PROPS_DOOR
  2
AecDbDispPropsDoor
  3
AecArchBase50|Product Desc: Autodesk Architectural Desktop 2007 |Company: Autodesk,Inc. |WEB Address: www.autodesk.com
 90
    32897
280
     0
281
     0
  0
CLASS
  1
AEC_DISP_REP_DOOR_ELEV
  2
AecDbDispRepDoorElev
  3
AecArchBase50|Product Desc: Autodesk Architectural Desktop 2007 |Company: Autodesk,Inc. |WEB Address: www.autodesk.com
 90
    32897
280
     0
281
     0
  0
CLASS
  1
AEC_DISP_REP_DOOR_PLAN
  2
AecDbDispRepDoorPlan
  3
AecArchBase50|Product Desc: Autodesk Architectural Desktop 2007 |Company: Autodesk,Inc. |WEB Address: www.autodesk.com
 90
    32897
280
     0
281
     0
  0
CLASS
  1
AEC_DISP_REP_DOOR_NOMINAL
  2
AecDbDispRepDoorNominal
  3
AecArchBase50|Product Desc: Autodesk Architectural Desktop 2007 |Company: Autodesk,Inc. |WEB Address: www.autodesk.com
 90
    32897
280
     0
281
     0
  0
CLASS
  1
AEC_DISP_PROPS_DOOR_NOMINAL
  2
AecDbDispPropsDoorNominal
  3
AecArchBase50|Product Desc: Autodesk Architectural Desktop 2007 |Company: Autodesk,Inc. |WEB Address: www.autodesk.com
 90
    32897
280
     0
281
     0
  0
CLASS
  1
AEC_DISP_REP_DOOR_RCP
  2
AecDbDispRepDoorRcp
  3
AecArchBase50|Product Desc: Autodesk Architectural Desktop 2007 |Company: Autodesk,Inc. |WEB Address: www.autodesk.com
 90
    32897
280
     0
281
     0
  0
CLASS
  1
AEC_DISP_REP_DOOR_THRESHOLD_PLAN
  2
AecDbDispRepDoorThresholdPlan
  3
AecArchBase50|Product Desc: Autodesk Architectural Desktop 2007 |Company: Autodesk,Inc. |WEB Address: www.autodesk.com
 90
    32897
280
     0
281
     0
  0
CLASS
  1
AEC_DISP_PROPS_DOOR_THRESHOLD_PLAN
  2
AecDbDispPropsDoorThresholdPlan
  3
AecArchBase50|Product Desc: Autodesk Architectural Desktop 2007 |Company: Autodesk,Inc. |WEB Address: www.autodesk.com
 90
    32897
280
     0
281
     0
  0
CLASS
  1
AEC_DISP_REP_MASKBLOCK_REF_RCP
  2
AecDbDispRepMaskBlockRefRcp
  3
AecArchBase50|Product Desc: Autodesk Architectural Desktop 2007 |Company: Autodesk,Inc. |WEB Address: www.autodesk.com
 90
    32897
280
     0
281
     0
  0
CLASS
  1
AEC_DISP_REP_MASS_ELEM_RCP
  2
AecDbDispRepMassElemRcp
  3
AecArchBase50|Product Desc: Autodesk Architectural Desktop 2007 |Company: Autodesk,Inc. |WEB Address: www.autodesk.com
 90
    32897
280
     0
281
     0
  0
CLASS
  1
AEC_DISP_REP_MASS_GROUP_RCP
  2
AecDbDispRepMassGroupRcp
  3
AecArchBase50|Product Desc: Autodesk Architectural Desktop 2007 |Company: Autodesk,Inc. |WEB Address: www.autodesk.com
 90
    32897
280
     0
281
     0
  0
CLASS
  1
AEC_DISP_REP_MVBLOCK_REF_RCP
  2
AecDbDispRepMvBlockRefRcp
  3
AecArchBase50|Product Desc: Autodesk Architectural Desktop 2007 |Company: Autodesk,Inc. |WEB Address: www.autodesk.com
 90
    32897
280
     0
281
     0
  0
CLASS
  1
AEC_DISP_REP_OPENING
  2
AecDbDispRepOpening
  3
AecArchBase50|Product Desc: Autodesk Architectural Desktop 2007 |Company: Autodesk,Inc. |WEB Address: www.autodesk.com
 90
    32897
280
     0
281
     0
  0
CLASS
  1
AEC_DISP_PROPS_OPENING
  2
AecDbDispPropsOpening
  3
AecArchBase50|Product Desc: Autodesk Architectural Desktop 2007 |Company: Autodesk,Inc. |WEB Address: www.autodesk.com
 90
    32897
280
     0
281
     0
  0
CLASS
  1
AEC_DISP_REP_OPENING_MODEL
  2
AecDbDispRepOpeningModel
  3
AecArchBase50|Product Desc: Autodesk Architectural Desktop 2007 |Company: Autodesk,Inc. |WEB Address: www.autodesk.com
 90
    32897
280
     0
281
     0
  0
CLASS
  1
AEC_DISP_REP_RAILING_MODEL
  2
AecDbDispRepRailingModel
  3
AecArchBase50|Product Desc: Autodesk Architectural Desktop 2007 |Company: Autodesk,Inc. |WEB Address: www.autodesk.com
 90
    32897
280
     0
281
     0
  0
CLASS
  1
AEC_DISP_PROPS_RAILING_MODEL
  2
AecDbDispPropsRailingModel
  3
AecArchBase50|Product Desc: Autodesk Architectural Desktop 2007 |Company: Autodesk,Inc. |WEB Address: www.autodesk.com
 90
    32897
280
     0
281
     0
  0
CLASS
  1
AEC_DISP_REP_RAILING_PLAN
  2
AecDbDispRepRailingPlan
  3
AecArchBase50|Product Desc: Autodesk Architectural Desktop 2007 |Company: Autodesk,Inc. |WEB Address: www.autodesk.com
 90
    32897
280
     0
281
     0
  0
CLASS
  1
AEC_DISP_PROPS_RAILING_PLAN
  2
AecDbDispPropsRailingPlan
  3
AecArchBase50|Product Desc: Autodesk Architectural Desktop 2007 |Company: Autodesk,Inc. |WEB Address: www.autodesk.com
 90
    32897
280
     0
281
     0
  0
CLASS
  1
AEC_DISP_REP_ROOF_MODEL
  2
AecDbDispRepRoofModel
  3
AecArchBase50|Product Desc: Autodesk Architectural Desktop 2007 |Company: Autodesk,Inc. |WEB Address: www.autodesk.com
 90
    32897
280
     0
281
     0
  0
CLASS
  1
AEC_DISP_PROPS_ROOF
  2
AecDbDispPropsRoof
  3
AecArchBase50|Product Desc: Autodesk Architectural Desktop 2007 |Company: Autodesk,Inc. |WEB Address: www.autodesk.com
 90
    32897
280
     0
281
     0
  0
CLASS
  1
AEC_DISP_REP_ROOF_PLAN
  2
AecDbDispRepRoofPlan
  3
AecArchBase50|Product Desc: Autodesk Architectural Desktop 2007 |Company: Autodesk,Inc. |WEB Address: www.autodesk.com
 90
    32897
280
     0
281
     0
  0
CLASS
  1
AEC_DISP_REP_ROOF_RCP
  2
AecDbDispRepRoofRcp
  3
AecArchBase50|Product Desc: Autodesk Architectural Desktop 2007 |Company: Autodesk,Inc. |WEB Address: www.autodesk.com
 90
    32897
280
     0
281
     0
  0
CLASS
  1
AEC_DISP_REP_SLAB_MODEL
  2
AecDbDispRepSlabModel
  3
AecArchBase50|Product Desc: Autodesk Architectural Desktop 2007 |Company: Autodesk,Inc. |WEB Address: www.autodesk.com
 90
    32897
280
     0
281
     0
  0
CLASS
  1
AEC_DISP_PROPS_SLAB
  2
AecDbDispPropsSlab
  3
AecArchBase50|Product Desc: Autodesk Architectural Desktop 2007 |Company: Autodesk,Inc. |WEB Address: www.autodesk.com
 90
    32897
280
     0
281
     0
  0
CLASS
  1
AEC_DISP_REP_ROOFSLAB_MODEL
  2
AecDbDispRepRoofSlabModel
  3
AecArchBase50|Product Desc: Autodesk Architectural Desktop 2007 |Company: Autodesk,Inc. |WEB Address: www.autodesk.com
 90
    32897
280
     0
281
     0
  0
CLASS
  1
AEC_DISP_PROPS_ROOFSLAB
  2
AecDbDispPropsRoofSlab
  3
AecArchBase50|Product Desc: Autodesk Architectural Desktop 2007 |Company: Autodesk,Inc. |WEB Address: www.autodesk.com
 90
    32897
280
     0
281
     0
  0
CLASS
  1
AEC_DISP_REP_SLAB_PLAN
  2
AecDbDispRepSlabPlan
  3
AecArchBase50|Product Desc: Autodesk Architectural Desktop 2007 |Company: Autodesk,Inc. |WEB Address: www.autodesk.com
 90
    32897
280
     0
281
     0
  0
CLASS
  1
AEC_DISP_PROPS_SLAB_PLAN
  2
AecDbDispPropsSlabPlan
  3
AecArchBase50|Product Desc: Autodesk Architectural Desktop 2007 |Company: Autodesk,Inc. |WEB Address: www.autodesk.com
 90
    32897
280
     0
281
     0
  0
CLASS
  1
AEC_DISP_REP_ROOFSLAB_PLAN
  2
AecDbDispRepRoofSlabPlan
  3
AecArchBase50|Product Desc: Autodesk Architectural Desktop 2007 |Company: Autodesk,Inc. |WEB Address: www.autodesk.com
 90
    32897
280
     0
281
     0
  0
CLASS
  1
AEC_DISP_PROPS_ROOFSLAB_PLAN
  2
AecDbDispPropsRoofSlabPlan
  3
AecArchBase50|Product Desc: Autodesk Architectural Desktop 2007 |Company: Autodesk,Inc. |WEB Address: www.autodesk.com
 90
    32897
280
     0
281
     0
  0
CLASS
  1
AEC_DISP_REP_SPACE_BOUNDARY_DIAGRAM
  2
AecDbDispRepSpaceBoundaryDgrm
  3
AecArchBase50|Product Desc: Autodesk Architectural Desktop 2007 |Company: Autodesk,Inc. |WEB Address: www.autodesk.com
 90
    32897
280
     0
281
     0
  0
CLASS
  1
AEC_DISP_REP_SPACE_BOUNDARY_MODEL
  2
AecDbDispRepSpaceBoundaryModel
  3
AecArchBase50|Product Desc: Autodesk Architectural Desktop 2007 |Company: Autodesk,Inc. |WEB Address: www.autodesk.com
 90
    32897
280
     0
281
     0
  0
CLASS
  1
AEC_DISP_REP_SPACE_BOUNDARY_PLAN
  2
AecDbDispRepSpaceBoundaryPlan
  3
AecArchBase50|Product Desc: Autodesk Architectural Desktop 2007 |Company: Autodesk,Inc. |WEB Address: www.autodesk.com
 90
    32897
280
     0
281
     0
  0
CLASS
  1
AEC_DISP_REP_SPACE_BOUNDARY_SCHEM
  2
AecDbDispRepSpaceBoundarySketch
  3
AecArchBase50|Product Desc: Autodesk Architectural Desktop 2007 |Company: Autodesk,Inc. |WEB Address: www.autodesk.com
 90
    32897
280
     0
281
     0
  0
CLASS
  1
AEC_DISP_REP_SPACE_MODEL
  2
AecDbDispRepSpaceModel
  3
AecArchBase50|Product Desc: Autodesk Architectural Desktop 2007 |Company: Autodesk,Inc. |WEB Address: www.autodesk.com
 90
    32897
280
     0
281
     0
  0
CLASS
  1
AEC_DISP_PROPS_SPACE_MODEL
  2
AecDbDispPropsSpaceModel
  3
AecArchBase50|Product Desc: Autodesk Architectural Desktop 2007 |Company: Autodesk,Inc. |WEB Address: www.autodesk.com
 90
    32897
280
     0
281
     0
  0
CLASS
  1
AEC_DISP_REP_SPACE_PLAN
  2
AecDbDispRepSpacePlan
  3
AecArchBase50|Product Desc: Autodesk Architectural Desktop 2007 |Company: Autodesk,Inc. |WEB Address: www.autodesk.com
 90
    32897
280
     0
281
     0
  0
CLASS
  1
AEC_DISP_PROPS_SPACE_PLAN
  2
AecDbDispPropsSpacePlan
  3
AecArchBase50|Product Desc: Autodesk Architectural Desktop 2007 |Company: Autodesk,Inc. |WEB Address: www.autodesk.com
 90
    32897
280
     0
281
     0
  0
CLASS
  1
AEC_DISP_REP_SPACE_RCP
  2
AecDbDispRepSpaceRcp
  3
AecArchBase50|Product Desc: Autodesk Architectural Desktop 2007 |Company: Autodesk,Inc. |WEB Address: www.autodesk.com
 90
    32897
280
     0
281
     0
  0
CLASS
  1
AEC_DISP_REP_SPACE_VOLUME
  2
AecDbDispRepSpaceVolume
  3
AecArchBase50|Product Desc: Autodesk Architectural Desktop 2007 |Company: Autodesk,Inc. |WEB Address: www.autodesk.com
 90
    32897
280
     0
281
     0
  0
CLASS
  1
AEC_DISP_REP_STAIR_MODEL
  2
AecDbDispRepStairModel
  3
AecArchBase50|Product Desc: Autodesk Architectural Desktop 2007 |Company: Autodesk,Inc. |WEB Address: www.autodesk.com
 90
    32897
280
     0
281
     0
  0
CLASS
  1
AEC_DISP_PROPS_STAIR_MODEL
  2
AecDbDispPropsStairModel
  3
AecArchBase50|Product Desc: Autodesk Architectural Desktop 2007 |Company: Autodesk,Inc. |WEB Address: www.autodesk.com
 90
    32897
280
     0
281
     0
  0
CLASS
  1
AEC_DISP_REP_STAIR_PLAN
  2
AecDbDispRepStairPlan
  3
AecArchBase50|Product Desc: Autodesk Architectural Desktop 2007 |Company: Autodesk,Inc. |WEB Address: www.autodesk.com
 90
    32897
280
     0
281
     0
  0
CLASS
  1
AEC_DISP_PROPS_STAIR_PLAN
  2
AecDbDispPropsStairPlan
  3
AecArchBase50|Product Desc: Autodesk Architectural Desktop 2007 |Company: Autodesk,Inc. |WEB Address: www.autodesk.com
 90
    32897
280
     0
281
     0
  0
CLASS
  1
AEC_DISP_REP_STAIR_RCP
  2
AecDbDispRepStairRcp
  3
AecArchBase50|Product Desc: Autodesk Architectural Desktop 2007 |Company: Autodesk,Inc. |WEB Address: www.autodesk.com
 90
    32897
280
     0
281
     0
  0
CLASS
  1
AEC_DISP_REP_WALL_GRAPH
  2
AecDbDispRepWallGraph
  3
AecArchBase50|Product Desc: Autodesk Architectural Desktop 2007 |Company: Autodesk,Inc. |WEB Address: www.autodesk.com
 90
    32897
280
     0
281
     0
  0
CLASS
  1
AEC_DISP_PROPS_WALL_GRAPH
  2
AecDbDispPropsWallGraph
  3
AecArchBase50|Product Desc: Autodesk Architectural Desktop 2007 |Company: Autodesk,Inc. |WEB Address: www.autodesk.com
 90
    32897
280
     0
281
     0
  0
CLASS
  1
AEC_DISP_REP_WALL_MODEL
  2
AecDbDispRepWallModel
  3
AecArchBase50|Product Desc: Autodesk Architectural Desktop 2007 |Company: Autodesk,Inc. |WEB Address: www.autodesk.com
 90
    32897
280
     0
281
     0
  0
CLASS
  1
AEC_DISP_PROPS_WALL
  2
AecDbDispPropsWall
  3
AecArchBase50|Product Desc: Autodesk Architectural Desktop 2007 |Company: Autodesk,Inc. |WEB Address: www.autodesk.com
 90
    32897
280
     0
281
     0
  0
CLASS
  1
AEC_DISP_REP_WALL_PLAN
  2
AecDbDispRepWallPlan
  3
AecArchBase50|Product Desc: Autodesk Architectural Desktop 2007 |Company: Autodesk,Inc. |WEB Address: www.autodesk.com
 90
    32897
280
     0
281
     0
  0
CLASS
  1
AEC_DISP_PROPS_WALL_PLAN
  2
AecDbDispPropsWallPlan
  3
AecArchBase50|Product Desc: Autodesk Architectural Desktop 2007 |Company: Autodesk,Inc. |WEB Address: www.autodesk.com
 90
    32897
280
     0
281
     0
  0
CLASS
  1
AEC_DISP_REP_WALL_RCP
  2
AecDbDispRepWallRcp
  3
AecArchBase50|Product Desc: Autodesk Architectural Desktop 2007 |Company: Autodesk,Inc. |WEB Address: www.autodesk.com
 90
    32897
280
     0
281
     0
  0
CLASS
  1
AEC_DISP_REP_WALL_SCHEM
  2
AecDbDispRepWallSchem
  3
AecArchBase50|Product Desc: Autodesk Architectural Desktop 2007 |Company: Autodesk,Inc. |WEB Address: www.autodesk.com
 90
    32897
280
     0
281
     0
  0
CLASS
  1
AEC_DISP_PROPS_WALL_SCHEM
  2
AecDbDispPropsWallSchem
  3
AecArchBase50|Product Desc: Autodesk Architectural Desktop 2007 |Company: Autodesk,Inc. |WEB Address: www.autodesk.com
 90
    32897
280
     0
281
     0
  0
CLASS
  1
AEC_DISP_REP_WINDOW_ASSEMBLY_MODEL
  2
AecDbDispRepWindowAssemblyModel
  3
AecArchBase50|Product Desc: Autodesk Architectural Desktop 2007 |Company: Autodesk,Inc. |WEB Address: www.autodesk.com
 90
    32897
280
     0
281
     0
  0
CLASS
  1
AEC_DISP_REP_WINDOW_ASSEMBLY_PLAN
  2
AecDbDispRepWindowAssemblyPlan
  3
AecArchBase50|Product Desc: Autodesk Architectural Desktop 2007 |Company: Autodesk,Inc. |WEB Address: www.autodesk.com
 90
    32897
280
     0
281
     0
  0
CLASS
  1
AEC_DISP_REP_WINDOW_MODEL
  2
AecDbDispRepWindowModel
  3
AecArchBase50|Product Desc: Autodesk Architectural Desktop 2007 |Company: Autodesk,Inc. |WEB Address: www.autodesk.com
 90
    32897
280
     0
281
     0
  0
CLASS
  1
AEC_DISP_PROPS_WINDOW
  2
AecDbDispPropsWindow
  3
AecArchBase50|Product Desc: Autodesk Architectural Desktop 2007 |Company: Autodesk,Inc. |WEB Address: www.autodesk.com
 90
    32897
280
     0
281
     0
  0
CLASS
  1
AEC_DISP_REP_WINDOW_ELEV
  2
AecDbDispRepWindowElev
  3
AecArchBase50|Product Desc: Autodesk Architectural Desktop 2007 |Company: Autodesk,Inc. |WEB Address: www.autodesk.com
 90
    32897
280
     0
281
     0
  0
CLASS
  1
AEC_DISP_REP_WINDOW_PLAN
  2
AecDbDispRepWindowPlan
  3
AecArchBase50|Product Desc: Autodesk Architectural Desktop 2007 |Company: Autodesk,Inc. |WEB Address: www.autodesk.com
 90
    32897
280
     0
281
     0
  0
CLASS
  1
AEC_DISP_REP_WINDOW_NOMINAL
  2
AecDbDispRepWindowNominal
  3
AecArchBase50|Product Desc: Autodesk Architectural Desktop 2007 |Company: Autodesk,Inc. |WEB Address: www.autodesk.com
 90
    32897
280
     0
281
     0
  0
CLASS
  1
AEC_DISP_PROPS_WINDOW_NOMINAL
  2
AecDbDispPropsWindowNominal
  3
AecArchBase50|Product Desc: Autodesk Architectural Desktop 2007 |Company: Autodesk,Inc. |WEB Address: www.autodesk.com
 90
    32897
280
     0
281
     0
  0
CLASS
  1
AEC_DISP_REP_WINDOW_RCP
  2
AecDbDispRepWindowRcp
  3
AecArchBase50|Product Desc: Autodesk Architectural Desktop 2007 |Company: Autodesk,Inc. |WEB Address: www.autodesk.com
 90
    32897
280
     0
281
     0
  0
CLASS
  1
AEC_DISP_REP_WINDOW_SILL_PLAN
  2
AecDbDispRepWindowSillPlan
  3
AecArchBase50|Product Desc: Autodesk Architectural Desktop 2007 |Company: Autodesk,Inc. |WEB Address: www.autodesk.com
 90
    32897
280
     0
281
     0
  0
CLASS
  1
AEC_DISP_PROPS_WINDOW_SILL_PLAN
  2
AecDbDispPropsWindowSillPlan
  3
AecArchBase50|Product Desc: Autodesk Architectural Desktop 2007 |Company: Autodesk,Inc. |WEB Address: www.autodesk.com
 90
    32897
280
     0
281
     0
  0
CLASS
  1
AEC_DISP_REP_ANCHOR_TAG_TO_ENT
  2
AecDbDispRepAnchorTagToEnt
  3
AecScheduleData50|Product Desc: Autodesk Architectural Desktop 2007 |Company: Autodesk,Inc. |WEB Address: www.autodesk.com
 90
    32897
280
     0
281
     0
  0
CLASS
  1
AECS_DISP_REP_MEMBER_ELEVATION_DESIGN
  2
AecsDbDispRepMemberElevationDesign
  3
AecStructureBase50|Product Desc: Autodesk Architectural Desktop 2007 |Company: Autodesk,Inc. |WEB Address: www.autodesk.com
 90
    32897
280
     0
281
     0
  0
CLASS
  1
AECS_DISP_PROPS_MEMBER_PROJECTED
  2
AecsDbDispPropsMemberProjected
  3
AecStructureBase50|Product Desc: Autodesk Architectural Desktop 2007 |Company: Autodesk,Inc. |WEB Address: www.autodesk.com
 90
    32897
280
     0
281
     0
  0
CLASS
  1
AECS_DISP_REP_MEMBER_ELEVATION_DETAIL
  2
AecsDbDispRepMemberElevationDetail
  3
AecStructureBase50|Product Desc: Autodesk Architectural Desktop 2007 |Company: Autodesk,Inc. |WEB Address: www.autodesk.com
 90
    32897
280
     0
281
     0
  0
CLASS
  1
AECS_DISP_REP_MEMBER_LOGICAL
  2
AecsDbDispRepMemberLogical
  3
AecStructureBase50|Product Desc: Autodesk Architectural Desktop 2007 |Company: Autodesk,Inc. |WEB Address: www.autodesk.com
 90
    32897
280
     0
281
     0
  0
CLASS
  1
AECS_DISP_PROPS_MEMBER_LOGICAL
  2
AecsDbDispPropsMemberLogical
  3
AecStructureBase50|Product Desc: Autodesk Architectural Desktop 2007 |Company: Autodesk,Inc. |WEB Address: www.autodesk.com
 90
    32897
280
     0
281
     0
  0
CLASS
  1
AECS_DISP_REP_MEMBER_MODEL_DESIGN
  2
AecsDbDispRepMemberModelDesign
  3
AecStructureBase50|Product Desc: Autodesk Architectural Desktop 2007 |Company: Autodesk,Inc. |WEB Address: www.autodesk.com
 90
    32897
280
     0
281
     0
  0
CLASS
  1
AECS_DISP_PROPS_MEMBER
  2
AecsDbDispPropsMember
  3
AecStructureBase50|Product Desc: Autodesk Architectural Desktop 2007 |Company: Autodesk,Inc. |WEB Address: www.autodesk.com
 90
    32897
280
     0
281
     0
  0
CLASS
  1
AECS_DISP_REP_MEMBER_MODEL_DETAIL
  2
AecsDbDispRepMemberModelDetail
  3
AecStructureBase50|Product Desc: Autodesk Architectural Desktop 2007 |Company: Autodesk,Inc. |WEB Address: www.autodesk.com
 90
    32897
280
     0
281
     0
  0
CLASS
  1
AECS_DISP_REP_MEMBER_PLAN_DESIGN
  2
AecsDbDispRepMemberPlanDesign
  3
AecStructureBase50|Product Desc: Autodesk Architectural Desktop 2007 |Company: Autodesk,Inc. |WEB Address: www.autodesk.com
 90
    32897
280
     0
281
     0
  0
CLASS
  1
AECS_DISP_PROPS_MEMBER_PLAN
  2
AecsDbDispPropsMemberPlan
  3
AecStructureBase50|Product Desc: Autodesk Architectural Desktop 2007 |Company: Autodesk,Inc. |WEB Address: www.autodesk.com
 90
    32897
280
     0
281
     0
  0
CLASS
  1
AECS_DISP_REP_MEMBER_PLAN_DETAIL
  2
AecsDbDispRepMemberPlanDetail
  3
AecStructureBase50|Product Desc: Autodesk Architectural Desktop 2007 |Company: Autodesk,Inc. |WEB Address: www.autodesk.com
 90
    32897
280
     0
281
     0
  0
CLASS
  1
AECS_DISP_REP_MEMBER_PLAN_SKETCH
  2
AecsDbDispRepMemberPlanSketch
  3
AecStructureBase50|Product Desc: Autodesk Architectural Desktop 2007 |Company: Autodesk,Inc. |WEB Address: www.autodesk.com
 90
    32897
280
     0
281
     0
  0
CLASS
  1
AECS_DISP_PROPS_MEMBER_PLAN_SKETCH
  2
AecsDbDispPropsMemberPlanSketch
  3
AecStructureBase50|Product Desc: Autodesk Architectural Desktop 2007 |Company: Autodesk,Inc. |WEB Address: www.autodesk.com
 90
    32897
280
     0
281
     0
  0
CLASS
  1
AEC_DISP_REP_SCHEDULE_TABLE
  2
AecDbDispRepScheduleTable
  3
AecSchedule50|Product Desc: Autodesk Architectural Desktop 2007 |Company: Autodesk,Inc. |WEB Address: www.autodesk.com
 90
    32897
280
     0
281
     0
  0
CLASS
  1
AEC_DISP_PROPS_SCHEDULE_TABLE
  2
AecDbDispPropsScheduleTable
  3
AecSchedule50|Product Desc: Autodesk Architectural Desktop 2007 |Company: Autodesk,Inc. |WEB Address: www.autodesk.com
 90
    32897
280
     0
281
     0
  0
CLASS
  1
AEC_DISP_REP_AREA
  2
AecDbDispRepArea
  3
AecAreaCalculationBase50|Product Desc: Autodesk Architectural Desktop 2007 |Company: Autodesk,Inc. |WEB Address: www.autodesk.com
 90
    32897
280
     0
281
     0
  0
CLASS
  1
AEC_DISP_PROPS_AREA
  2
AecDbDispPropsArea
  3
AecAreaCalculationBase50|Product Desc: Autodesk Architectural Desktop 2007 |Company: Autodesk,Inc. |WEB Address: www.autodesk.com
 90
    32897
280
     0
281
     0
  0
CLASS
  1
AEC_DISP_REP_AREA_DECOMPOSED
  2
AecDbDispRepAreaDecomposed
  3
AecAreaCalculationBase50|Product Desc: Autodesk Architectural Desktop 2007 |Company: Autodesk,Inc. |WEB Address: www.autodesk.com
 90
    32897
280
     0
281
     0
  0
CLASS
  1
AEC_DISP_PROPS_AREA_DECOMPOSED
  2
AecDbDispPropsAreaDecomposed
  3
AecAreaCalculationBase50|Product Desc: Autodesk Architectural Desktop 2007 |Company: Autodesk,Inc. |WEB Address: www.autodesk.com
 90
    32897
280
     0
281
     0
  0
CLASS
  1
AEC_DISP_REP_AREAGROUP
  2
AecDbDispRepAreaGroup
  3
AecAreaCalculationBase50|Product Desc: Autodesk Architectural Desktop 2007 |Company: Autodesk,Inc. |WEB Address: www.autodesk.com
 90
    32897
280
     0
281
     0
  0
CLASS
  1
AEC_DISP_PROPS_AREAGROUP
  2
AecDbDispPropsAreaGroup
  3
AecAreaCalculationBase50|Product Desc: Autodesk Architectural Desktop 2007 |Company: Autodesk,Inc. |WEB Address: www.autodesk.com
 90
    32897
280
     0
281
     0
  0
CLASS
  1
AEC_AECDBDISPREPAREA100
  2
AecDbDispRepArea100
  3
AecArchDACHBase50|Product Desc: Autodesk Architectural Desktop 2007 |Company: Autodesk,Inc. |WEB Address: www.autodesk.com
 90
    32897
280
     0
281
     0
  0
CLASS
  1
AEC_AECDBDISPREPAREAGROUP100
  2
AecDbDispRepAreaGroup100
  3
AecArchDACHBase50|Product Desc: Autodesk Architectural Desktop 2007 |Company: Autodesk,Inc. |WEB Address: www.autodesk.com
 90
    32897
280
     0
281
     0
  0
CLASS
  1
AEC_AECDBDISPREPBDGELEVLINEPLAN100
  2
AecDbDispRepBdgElevLinePlan100
  3
AecArchDACHBase50|Product Desc: Autodesk Architectural Desktop 2007 |Company: Autodesk,Inc. |WEB Address: www.autodesk.com
 90
    32897
280
     0
281
     0
  0
CLASS
  1
AEC_AECDBDISPREPBDGSECTIONLINEPLAN100
  2
AecDbDispRepBdgSectionLinePlan100
  3
AecArchDACHBase50|Product Desc: Autodesk Architectural Desktop 2007 |Company: Autodesk,Inc. |WEB Address: www.autodesk.com
 90
    32897
280
     0
281
     0
  0
CLASS
  1
AEC_AECDBDISPREPCEILINGGRIDPLAN100
  2
AecDbDispRepCeilingGridPlan100
  3
AecArchDACHBase50|Product Desc: Autodesk Architectural Desktop 2007 |Company: Autodesk,Inc. |WEB Address: www.autodesk.com
 90
    32897
280
     0
281
     0
  0
CLASS
  1
AEC_AECDBDISPREPCOLUMNGRIDPLAN100
  2
AecDbDispRepColumnGridPlan100
  3
AecArchDACHBase50|Product Desc: Autodesk Architectural Desktop 2007 |Company: Autodesk,Inc. |WEB Address: www.autodesk.com
 90
    32897
280
     0
281
     0
  0
CLASS
  1
AEC_AECDBDISPREPCURTAINWALLLAYOUTPLAN100
  2
AecDbDispRepCurtainWallLayoutPlan100
  3
AecArchDACHBase50|Product Desc: Autodesk Architectural Desktop 2007 |Company: Autodesk,Inc. |WEB Address: www.autodesk.com
 90
    32897
280
     0
281
     0
  0
CLASS
  1
AEC_AECDBDISPREPCURTAINWALLUNITPLAN100
  2
AecDbDispRepCurtainWallUnitPlan100
  3
AecArchDACHBase50|Product Desc: Autodesk Architectural Desktop 2007 |Company: Autodesk,Inc. |WEB Address: www.autodesk.com
 90
    32897
280
     0
281
     0
  0
CLASS
  1
AEC_AECDBDISPREPMVBLOCKREFPLAN100
  2
AecDbDispRepMvBlockRefPlan100
  3
AecArchDACHBase50|Product Desc: Autodesk Architectural Desktop 2007 |Company: Autodesk,Inc. |WEB Address: www.autodesk.com
 90
    32897
280
     0
281
     0
  0
CLASS
  1
AEC_AECDBDISPREPROOFPLAN100
  2
AecDbDispRepRoofPlan100
  3
AecArchDACHBase50|Product Desc: Autodesk Architectural Desktop 2007 |Company: Autodesk,Inc. |WEB Address: www.autodesk.com
 90
    32897
280
     0
281
     0
  0
CLASS
  1
AEC_AECDBDISPREPROOFSLABPLAN100
  2
AecDbDispRepRoofSlabPlan100
  3
AecArchDACHBase50|Product Desc: Autodesk Architectural Desktop 2007 |Company: Autodesk,Inc. |WEB Address: www.autodesk.com
 90
    32897
280
     0
281
     0
  0
CLASS
  1
AEC_AECDBDISPREPSLABPLAN100
  2
AecDbDispRepSlabPlan100
  3
AecArchDACHBase50|Product Desc: Autodesk Architectural Desktop 2007 |Company: Autodesk,Inc. |WEB Address: www.autodesk.com
 90
    32897
280
     0
281
     0
  0
CLASS
  1
AEC_AECDBDISPREPSPACEBOUNDARYPLAN100
  2
AecDbDispRepSpaceBoundaryPlan100
  3
AecArchDACHBase50|Product Desc: Autodesk Architectural Desktop 2007 |Company: Autodesk,Inc. |WEB Address: www.autodesk.com
 90
    32897
280
     0
281
     0
  0
CLASS
  1
AEC_AECDBDISPREPSPACEPLAN100
  2
AecDbDispRepSpacePlan100
  3
AecArchDACHBase50|Product Desc: Autodesk Architectural Desktop 2007 |Company: Autodesk,Inc. |WEB Address: www.autodesk.com
 90
    32897
280
     0
281
     0
  0
CLASS
  1
AEC_AECDBDISPREPWALLPLAN100
  2
AecDbDispRepWallPlan100
  3
AecArchDACHBase50|Product Desc: Autodesk Architectural Desktop 2007 |Company: Autodesk,Inc. |WEB Address: www.autodesk.com
 90
    32897
280
     0
281
     0
  0
CLASS
  1
AEC_AECDBDISPREPWINDOWASSEMBLYPLAN100
  2
AecDbDispRepWindowAssemblyPlan100
  3
AecArchDACHBase50|Product Desc: Autodesk Architectural Desktop 2007 |Company: Autodesk,Inc. |WEB Address: www.autodesk.com
 90
    32897
280
     0
281
     0
  0
CLASS
  1
AEC_AECSDBDISPREPMEMBERPLAN100
  2
AecsDbDispRepMemberPlan100
  3
AecArchDACHBase50|Product Desc: Autodesk Architectural Desktop 2007 |Company: Autodesk,Inc. |WEB Address: www.autodesk.com
 90
    32897
280
     0
281
     0
  0
CLASS
  1
AEC_AECDBDISPREPAREA50
  2
AecDbDispRepArea50
  3
AecArchDACHBase50|Product Desc: Autodesk Architectural Desktop 2007 |Company: Autodesk,Inc. |WEB Address: www.autodesk.com
 90
    32897
280
     0
281
     0
  0
CLASS
  1
AEC_AECDBDISPREPAREAGROUP50
  2
AecDbDispRepAreaGroup50
  3
AecArchDACHBase50|Product Desc: Autodesk Architectural Desktop 2007 |Company: Autodesk,Inc. |WEB Address: www.autodesk.com
 90
    32897
280
     0
281
     0
  0
CLASS
  1
AEC_AECDBDISPREPBDGELEVLINEPLAN50
  2
AecDbDispRepBdgElevLinePlan50
  3
AecArchDACHBase50|Product Desc: Autodesk Architectural Desktop 2007 |Company: Autodesk,Inc. |WEB Address: www.autodesk.com
 90
    32897
280
     0
281
     0
  0
CLASS
  1
AEC_AECDBDISPREPBDGSECTIONLINEPLAN50
  2
AecDbDispRepBdgSectionLinePlan50
  3
AecArchDACHBase50|Product Desc: Autodesk Architectural Desktop 2007 |Company: Autodesk,Inc. |WEB Address: www.autodesk.com
 90
    32897
280
     0
281
     0
  0
CLASS
  1
AEC_AECDBDISPREPCEILINGGRIDPLAN50
  2
AecDbDispRepCeilingGridPlan50
  3
AecArchDACHBase50|Product Desc: Autodesk Architectural Desktop 2007 |Company: Autodesk,Inc. |WEB Address: www.autodesk.com
 90
    32897
280
     0
281
     0
  0
CLASS
  1
AEC_AECDBDISPREPCOLUMNGRIDPLAN50
  2
AecDbDispRepColumnGridPlan50
  3
AecArchDACHBase50|Product Desc: Autodesk Architectural Desktop 2007 |Company: Autodesk,Inc. |WEB Address: www.autodesk.com
 90
    32897
280
     0
281
     0
  0
CLASS
  1
AEC_AECDBDISPREPCURTAINWALLLAYOUTPLAN50
  2
AecDbDispRepCurtainWallLayoutPlan50
  3
AecArchDACHBase50|Product Desc: Autodesk Architectural Desktop 2007 |Company: Autodesk,Inc. |WEB Address: www.autodesk.com
 90
    32897
280
     0
281
     0
  0
CLASS
  1
AEC_AECDBDISPREPCURTAINWALLUNITPLAN50
  2
AecDbDispRepCurtainWallUnitPlan50
  3
AecArchDACHBase50|Product Desc: Autodesk Architectural Desktop 2007 |Company: Autodesk,Inc. |WEB Address: www.autodesk.com
 90
    32897
280
     0
281
     0
  0
CLASS
  1
AEC_AECDBDISPREPMVBLOCKREFPLAN50
  2
AecDbDispRepMvBlockRefPlan50
  3
AecArchDACHBase50|Product Desc: Autodesk Architectural Desktop 2007 |Company: Autodesk,Inc. |WEB Address: www.autodesk.com
 90
    32897
280
     0
281
     0
  0
CLASS
  1
AEC_AECDBDISPREPROOFPLAN50
  2
AecDbDispRepRoofPlan50
  3
AecArchDACHBase50|Product Desc: Autodesk Architectural Desktop 2007 |Company: Autodesk,Inc. |WEB Address: www.autodesk.com
 90
    32897
280
     0
281
     0
  0
CLASS
  1
AEC_AECDBDISPREPROOFSLABPLAN50
  2
AecDbDispRepRoofSlabPlan50
  3
AecArchDACHBase50|Product Desc: Autodesk Architectural Desktop 2007 |Company: Autodesk,Inc. |WEB Address: www.autodesk.com
 90
    32897
280
     0
281
     0
  0
CLASS
  1
AEC_AECDBDISPREPSLABPLAN50
  2
AecDbDispRepSlabPlan50
  3
AecArchDACHBase50|Product Desc: Autodesk Architectural Desktop 2007 |Company: Autodesk,Inc. |WEB Address: www.autodesk.com
 90
    32897
280
     0
281
     0
  0
CLASS
  1
AEC_AECDBDISPREPSPACEBOUNDARYPLAN50
  2
AecDbDispRepSpaceBoundaryPlan50
  3
AecArchDACHBase50|Product Desc: Autodesk Architectural Desktop 2007 |Company: Autodesk,Inc. |WEB Address: www.autodesk.com
 90
    32897
280
     0
281
     0
  0
CLASS
  1
AEC_AECDBDISPREPSPACEPLAN50
  2
AecDbDispRepSpacePlan50
  3
AecArchDACHBase50|Product Desc: Autodesk Architectural Desktop 2007 |Company: Autodesk,Inc. |WEB Address: www.autodesk.com
 90
    32897
280
     0
281
     0
  0
CLASS
  1
AEC_AECDBDISPREPWALLPLAN50
  2
AecDbDispRepWallPlan50
  3
AecArchDACHBase50|Product Desc: Autodesk Architectural Desktop 2007 |Company: Autodesk,Inc. |WEB Address: www.autodesk.com
 90
    32897
280
     0
281
     0
  0
CLASS
  1
AEC_AECDBDISPREPWINDOWASSEMBLYPLAN50
  2
AecDbDispRepWindowAssemblyPlan50
  3
AecArchDACHBase50|Product Desc: Autodesk Architectural Desktop 2007 |Company: Autodesk,Inc. |WEB Address: www.autodesk.com
 90
    32897
280
     0
281
     0
  0
CLASS
  1
AEC_AECSDBDISPREPMEMBERPLAN50
  2
AecsDbDispRepMemberPlan50
  3
AecArchDACHBase50|Product Desc: Autodesk Architectural Desktop 2007 |Company: Autodesk,Inc. |WEB Address: www.autodesk.com
 90
    32897
280
     0
281
     0
  0
CLASS
  1
AEC_AECDBDISPREPCURTAINWALLLAYOUTXSECTION
  2
AecDbDispRepCurtainWallLayoutXSection
  3
AecArchDACHBase50|Product Desc: Autodesk Architectural Desktop 2007 |Company: Autodesk,Inc. |WEB Address: www.autodesk.com
 90
    32897
280
     0
281
     0
  0
CLASS
  1
AEC_DISPROPSXSECTIONCOMMON
  2
AecDbDispPropsXSectionCmn
  3
AecArchDACHBase50|Product Desc: Autodesk Architectural Desktop 2007 |Company: Autodesk,Inc. |WEB Address: www.autodesk.com
 90
    32897
280
     0
281
     0
  0
CLASS
  1
AEC_AECDBDISPREPCURTAINWALLUNITXSECTION
  2
AecDbDispRepCurtainWallUnitXSection
  3
AecArchDACHBase50|Product Desc: Autodesk Architectural Desktop 2007 |Company: Autodesk,Inc. |WEB Address: www.autodesk.com
 90
    32897
280
     0
281
     0
  0
CLASS
  1
AEC_AECDBDISPREPDOORXSECTION
  2
AecDbDispRepDoorXSection
  3
AecArchDACHBase50|Product Desc: Autodesk Architectural Desktop 2007 |Company: Autodesk,Inc. |WEB Address: www.autodesk.com
 90
    32897
280
     0
281
     0
  0
CLASS
  1
AEC_AECDBDISPREPMASSELEMXSECTION
  2
AecDbDispRepMassElemXSection
  3
AecArchDACHBase50|Product Desc: Autodesk Architectural Desktop 2007 |Company: Autodesk,Inc. |WEB Address: www.autodesk.com
 90
    32897
280
     0
281
     0
  0
CLASS
  1
AEC_AECDBDISPREPROOFXSECTION
  2
AecDbDispRepRoofXSection
  3
AecArchDACHBase50|Product Desc: Autodesk Architectural Desktop 2007 |Company: Autodesk,Inc. |WEB Address: www.autodesk.com
 90
    32897
280
     0
281
     0
  0
CLASS
  1
AEC_AECDBDISPREPROOFSLABXSECTION
  2
AecDbDispRepRoofSlabXSection
  3
AecArchDACHBase50|Product Desc: Autodesk Architectural Desktop 2007 |Company: Autodesk,Inc. |WEB Address: www.autodesk.com
 90
    32897
280
     0
281
     0
  0
CLASS
  1
AEC_AECDBDISPREPSLABXSECTION
  2
AecDbDispRepSlabXSection
  3
AecArchDACHBase50|Product Desc: Autodesk Architectural Desktop 2007 |Company: Autodesk,Inc. |WEB Address: www.autodesk.com
 90
    32897
280
     0
281
     0
  0
CLASS
  1
AEC_AECDBDISPREPSPACEXSECTION
  2
AecDbDispRepSpaceXSection
  3
AecArchDACHBase50|Product Desc: Autodesk Architectural Desktop 2007 |Company: Autodesk,Inc. |WEB Address: www.autodesk.com
 90
    32897
280
     0
281
     0
  0
CLASS
  1
AEC_AECDBDISPREPSPACEBOUNDARYXSECTION
  2
AecDbDispRepSpaceBoundaryXSection
  3
AecArchDACHBase50|Product Desc: Autodesk Architectural Desktop 2007 |Company: Autodesk,Inc. |WEB Address: www.autodesk.com
 90
    32897
280
     0
281
     0
  0
CLASS
  1
AEC_AECDBDISPREPWINDOWXSECTION
  2
AecDbDispRepWindowXSection
  3
AecArchDACHBase50|Product Desc: Autodesk Architectural Desktop 2007 |Company: Autodesk,Inc. |WEB Address: www.autodesk.com
 90
    32897
280
     0
281
     0
  0
CLASS
  1
AEC_AECDBDISPREPWINDOWASSEMBLYXSECTION
  2
AecDbDispRepWindowAssemblyXSection
  3
AecArchDACHBase50|Product Desc: Autodesk Architectural Desktop 2007 |Company: Autodesk,Inc. |WEB Address: www.autodesk.com
 90
    32897
280
     0
281
     0
  0
CLASS
  1
AEC_AECDBDISPREPMEMBERXSECTION
  2
AecDbDispRepMemberXSection
  3
AecArchDACHBase50|Product Desc: Autodesk Architectural Desktop 2007 |Company: Autodesk,Inc. |WEB Address: www.autodesk.com
 90
    32897
280
     0
281
     0
  0
CLASS
  1
AEC_DB_DISP_REP_DIM_GROUP_PLAN100
  2
AecDbDispRepDimGroupPlan100
  3
AecArchDACHBase50|Product Desc: Autodesk Architectural Desktop 2007 |Company: Autodesk,Inc. |WEB Address: www.autodesk.com
 90
    32897
280
     0
281
     0
  0
CLASS
  1
AEC_DISP_PROPS_DIM
  2
AecDbDispPropsDimGroup
  3
AecArchDACHBase50|Product Desc: Autodesk Architectural Desktop 2007 |Company: Autodesk,Inc. |WEB Address: www.autodesk.com
 90
    32897
280
     0
281
     0
  0
CLASS
  1
AEC_DB_DISP_REP_DIM_GROUP_PLAN50
  2
AecDbDispRepDimGroupPlan50
  3
AecArchDACHBase50|Product Desc: Autodesk Architectural Desktop 2007 |Company: Autodesk,Inc. |WEB Address: www.autodesk.com
 90
    32897
280
     0
281
     0
  0
CLASS
  1
AEC_DB_DISP_REP_DIM_GROUP_PLAN
  2
AecDbDispRepDimGroupPlan
  3
AecArchDACHBase50|Product Desc: Autodesk Architectural Desktop 2007 |Company: Autodesk,Inc. |WEB Address: www.autodesk.com
 90
    32897
280
     0
281
     0
  0
CLASS
  1
AEC_DISP_REP_DOOR_PLAN_50
  2
AecDbDispRepDoorPlan50
  3
AecArchDACHBase50|Product Desc: Autodesk Architectural Desktop 2007 |Company: Autodesk,Inc. |WEB Address: www.autodesk.com
 90
    32897
280
     0
281
     0
  0
CLASS
  1
AEC_DISP_PROPS_DOOR_PLAN_50
  2
AecDbDispPropsDoorPlan50
  3
AecArchDACHBase50|Product Desc: Autodesk Architectural Desktop 2007 |Company: Autodesk,Inc. |WEB Address: www.autodesk.com
 90
    32897
280
     0
281
     0
  0
CLASS
  1
AEC_DISP_REP_DOOR_PLAN_HEKTO
  2
AecDbDispRepDoorPlanHekto
  3
AecArchDACHBase50|Product Desc: Autodesk Architectural Desktop 2007 |Company: Autodesk,Inc. |WEB Address: www.autodesk.com
 90
    32897
280
     0
281
     0
  0
CLASS
  1
AEC_DISP_PROPS_DOOR_PLAN_100
  2
AecDbDispPropsDoorPlan100
  3
AecArchDACHBase50|Product Desc: Autodesk Architectural Desktop 2007 |Company: Autodesk,Inc. |WEB Address: www.autodesk.com
 90
    32897
280
     0
281
     0
  0
CLASS
  1
AEC_DISP_REP_DOOR_THRESHOLD_SYMBOL_PLAN
  2
AecDbDispRepDoorThresholdSymbolPlan
  3
AecArchDACHBase50|Product Desc: Autodesk Architectural Desktop 2007 |Company: Autodesk,Inc. |WEB Address: www.autodesk.com
 90
    32897
280
     0
281
     0
  0
CLASS
  1
AEC_DISP_PROPS_DOOR_THRESHOLD_SYMBOL_PLAN
  2
AecDbDispPropsDoorThresholdSymbolPlan
  3
AecArchDACHBase50|Product Desc: Autodesk Architectural Desktop 2007 |Company: Autodesk,Inc. |WEB Address: www.autodesk.com
 90
    32897
280
     0
281
     0
  0
CLASS
  1
AEC_DISPREPAECDBDISPREPMASSELEMPLAN100
  2
AecDbDispRepMassElemPlan100
  3
AecArchDACHBase50|Product Desc: Autodesk Architectural Desktop 2007 |Company: Autodesk,Inc. |WEB Address: www.autodesk.com
 90
    32897
280
     0
281
     0
  0
CLASS
  1
AEC_DISPROPSMASSELEMPLANCOMMON
  2
AecDbDispPropsMassElemPlanCommon
  3
AecArchDACHBase50|Product Desc: Autodesk Architectural Desktop 2007 |Company: Autodesk,Inc. |WEB Address: www.autodesk.com
 90
    32897
280
     0
281
     0
  0
CLASS
  1
AEC_DISPREPAECDBDISPREPMASSELEMPLAN50
  2
AecDbDispRepMassElemPlan50
  3
AecArchDACHBase50|Product Desc: Autodesk Architectural Desktop 2007 |Company: Autodesk,Inc. |WEB Address: www.autodesk.com
 90
    32897
280
     0
281
     0
  0
CLASS
  1
AEC_DISPREPAECDBDISPREPMASSGROUPPLAN100
  2
AecDbDispRepMassGroupPlan100
  3
AecArchDACHBase50|Product Desc: Autodesk Architectural Desktop 2007 |Company: Autodesk,Inc. |WEB Address: www.autodesk.com
 90
    32897
280
     0
281
     0
  0
CLASS
  1
AEC_DISPROPSMASSGROUPPLANCOMMON
  2
AecDbDispPropsMassGroupPlanCommon
  3
AecArchDACHBase50|Product Desc: Autodesk Architectural Desktop 2007 |Company: Autodesk,Inc. |WEB Address: www.autodesk.com
 90
    32897
280
     0
281
     0
  0
CLASS
  1
AEC_DISPREPAECDBDISPREPMASSGROUPPLAN50
  2
AecDbDispRepMassGroupPlan50
  3
AecArchDACHBase50|Product Desc: Autodesk Architectural Desktop 2007 |Company: Autodesk,Inc. |WEB Address: www.autodesk.com
 90
    32897
280
     0
281
     0
  0
CLASS
  1
AEC_DISPREPMASSGROUPXSECTION
  2
AecDbDispRepMassGroupXSection
  3
AecArchDACHBase50|Product Desc: Autodesk Architectural Desktop 2007 |Company: Autodesk,Inc. |WEB Address: www.autodesk.com
 90
    32897
280
     0
281
     0
  0
CLASS
  1
AEC_DISPREPAECDBDISPREPOPENINGPLAN100
  2
AecDbDispRepOpeningPlan100
  3
AecArchDACHBase50|Product Desc: Autodesk Architectural Desktop 2007 |Company: Autodesk,Inc. |WEB Address: www.autodesk.com
 90
    32897
280
     0
281
     0
  0
CLASS
  1
AEC_DISPROPSOPENINGPLANCOMMONHATCHED
  2
AecDbDispPropsOpeningPlanCommonHatched
  3
AecArchDACHBase50|Product Desc: Autodesk Architectural Desktop 2007 |Company: Autodesk,Inc. |WEB Address: www.autodesk.com
 90
    32897
280
     0
281
     0
  0
CLASS
  1
AEC_DISPREPAECDBDISPREPOPENINGPLAN50
  2
AecDbDispRepOpeningPlan50
  3
AecArchDACHBase50|Product Desc: Autodesk Architectural Desktop 2007 |Company: Autodesk,Inc. |WEB Address: www.autodesk.com
 90
    32897
280
     0
281
     0
  0
CLASS
  1
AEC_DISPREPAECDBDISPREPOPENINGPLANREFLECTED
  2
AecDbDispRepOpeningPlanReflected
  3
AecArchDACHBase50|Product Desc: Autodesk Architectural Desktop 2007 |Company: Autodesk,Inc. |WEB Address: www.autodesk.com
 90
    32897
280
     0
281
     0
  0
CLASS
  1
AEC_DISPROPSOPENINGPLANCOMMON
  2
AecDbDispPropsOpeningPlanCommon
  3
AecArchDACHBase50|Product Desc: Autodesk Architectural Desktop 2007 |Company: Autodesk,Inc. |WEB Address: www.autodesk.com
 90
    32897
280
     0
281
     0
  0
CLASS
  1
AEC_DISPREPAECDBDISPREPOPENINGSILLPLAN
  2
AecDbDispRepOpeningSillPlan
  3
AecArchDACHBase50|Product Desc: Autodesk Architectural Desktop 2007 |Company: Autodesk,Inc. |WEB Address: www.autodesk.com
 90
    32897
280
     0
281
     0
  0
CLASS
  1
AEC_DISPROPSOPENINGSILLPLAN
  2
AecDbDispPropsOpeningSillPlan
  3
AecArchDACHBase50|Product Desc: Autodesk Architectural Desktop 2007 |Company: Autodesk,Inc. |WEB Address: www.autodesk.com
 90
    32897
280
     0
281
     0
  0
CLASS
  1
AEC_DISP_REP_RAILING_PLAN_100
  2
AecDbDispRepRailingPlan100
  3
AecArchDACHBase50|Product Desc: Autodesk Architectural Desktop 2007 |Company: Autodesk,Inc. |WEB Address: www.autodesk.com
 90
    32897
280
     0
281
     0
  0
CLASS
  1
AEC_DISP_ROPS_RAILING_PLAN_100
  2
AecDbDispPropsRailingPlan100
  3
AecArchDACHBase50|Product Desc: Autodesk Architectural Desktop 2007 |Company: Autodesk,Inc. |WEB Address: www.autodesk.com
 90
    32897
280
     0
281
     0
  0
CLASS
  1
AEC_DISP_REP_RAILING_PLAN_50
  2
AecDbDispRepRailingPlan50
  3
AecArchDACHBase50|Product Desc: Autodesk Architectural Desktop 2007 |Company: Autodesk,Inc. |WEB Address: www.autodesk.com
 90
    32897
280
     0
281
     0
  0
CLASS
  1
AEC_DISP_ROPS_RAILING_PLAN_COMMON
  2
AecDbDispPropsRailingPlanCommon
  3
AecArchDACHBase50|Product Desc: Autodesk Architectural Desktop 2007 |Company: Autodesk,Inc. |WEB Address: www.autodesk.com
 90
    32897
280
     0
281
     0
  0
CLASS
  1
AEC_DISPREPRAILINGXSECTION
  2
AecDbDispRepRailingXSection
  3
AecArchDACHBase50|Product Desc: Autodesk Architectural Desktop 2007 |Company: Autodesk,Inc. |WEB Address: www.autodesk.com
 90
    32897
280
     0
281
     0
  0
CLASS
  1
AEC_DISP_REP_STAIR_PLAN_100
  2
AecDbDispRepStairPlan100
  3
AecArchDACHBase50|Product Desc: Autodesk Architectural Desktop 2007 |Company: Autodesk,Inc. |WEB Address: www.autodesk.com
 90
    32897
280
     0
281
     0
  0
CLASS
  1
AEC_DISP_ROPS_STAIR_PLAN_100
  2
AecDbDispPropsStairPlan100
  3
AecArchDACHBase50|Product Desc: Autodesk Architectural Desktop 2007 |Company: Autodesk,Inc. |WEB Address: www.autodesk.com
 90
    32897
280
     0
281
     0
  0
CLASS
  1
AEC_DISP_REP_STAIR_PLAN_50
  2
AecDbDispRepStairPlan50
  3
AecArchDACHBase50|Product Desc: Autodesk Architectural Desktop 2007 |Company: Autodesk,Inc. |WEB Address: www.autodesk.com
 90
    32897
280
     0
281
     0
  0
CLASS
  1
AEC_DISP_ROPS_STAIR_PLAN_50
  2
AecDbDispPropsStairPlan50
  3
AecArchDACHBase50|Product Desc: Autodesk Architectural Desktop 2007 |Company: Autodesk,Inc. |WEB Address: www.autodesk.com
 90
    32897
280
     0
281
     0
  0
CLASS
  1
AEC_DISPREPSTAIRXSECTION
  2
AecDbDispRepStairXSection
  3
AecArchDACHBase50|Product Desc: Autodesk Architectural Desktop 2007 |Company: Autodesk,Inc. |WEB Address: www.autodesk.com
 90
    32897
280
     0
281
     0
  0
CLASS
  1
AEC_DISPREPWALLXSECTION
  2
AecDbDispRepWallXSection
  3
AecArchDACHBase50|Product Desc: Autodesk Architectural Desktop 2007 |Company: Autodesk,Inc. |WEB Address: www.autodesk.com
 90
    32897
280
     0
281
     0
  0
CLASS
  1
AEC_DISPROPSXSECTIONWALL
  2
AecDbDispPropsWallXSection
  3
AecArchDACHBase50|Product Desc: Autodesk Architectural Desktop 2007 |Company: Autodesk,Inc. |WEB Address: www.autodesk.com
 90
    32897
280
     0
281
     0
  0
CLASS
  1
AEC_DISP_REP_WINDOW_PLAN_100
  2
AecDbDispRepWindowPlan100
  3
AecArchDACHBase50|Product Desc: Autodesk Architectural Desktop 2007 |Company: Autodesk,Inc. |WEB Address: www.autodesk.com
 90
    32897
280
     0
281
     0
  0
CLASS
  1
AEC_DISP_PROPS_WINDOW_PLAN_100
  2
AecDbDispPropsWindowPlan100
  3
AecArchDACHBase50|Product Desc: Autodesk Architectural Desktop 2007 |Company: Autodesk,Inc. |WEB Address: www.autodesk.com
 90
    32897
280
     0
281
     0
  0
CLASS
  1
AEC_DISP_REP_WINDOW_PLAN_50
  2
AecDbDispRepWindowPlan50
  3
AecArchDACHBase50|Product Desc: Autodesk Architectural Desktop 2007 |Company: Autodesk,Inc. |WEB Address: www.autodesk.com
 90
    32897
280
     0
281
     0
  0
CLASS
  1
AEC_DISP_PROPS_WINDOW_PLAN_50
  2
AecDbDispPropsWindowPlan50
  3
AecArchDACHBase50|Product Desc: Autodesk Architectural Desktop 2007 |Company: Autodesk,Inc. |WEB Address: www.autodesk.com
 90
    32897
280
     0
281
     0
  0
CLASS
  1
AEC_DISP_REP_SET
  2
AecDbDispRepSet
  3
AecBase50|Product Desc: Autodesk Architectural Desktop 2007 |Company: Autodesk,Inc. |WEB Address: www.autodesk.com
 90
    32897
280
     0
281
     0
  0
CLASS
  1
AEC_DISP_REP_CONFIG
  2
AecDbDispRepConfig
  3
AecBase50|Product Desc: Autodesk Architectural Desktop 2007 |Company: Autodesk,Inc. |WEB Address: www.autodesk.com
 90
    32897
280
     0
281
     0
  0
CLASS
  1
AEC_LAYERKEY_STYLE
  2
AecDbLayerKeyStyle
  3
AecBase50|Product Desc: Autodesk Architectural Desktop 2007 |Company: Autodesk,Inc. |WEB Address: www.autodesk.com
 90
    32897
280
     0
281
     0
  0
CLASS
  1
AEC_VARS_ARCHBASE
  2
AecDbVarsArchBase
  3
AecArchBase50|Product Desc: Autodesk Architectural Desktop 2007 |Company: Autodesk,Inc. |WEB Address: www.autodesk.com
 90
    32897
280
     0
281
     0
  0
CLASS
  1
BINRECORD
  2
AcAecBinRecord
  3
AecBase50|Product Desc: Autodesk Architectural Desktop 2007 |Company: Autodesk,Inc. |WEB Address: www.autodesk.com
 90
    32897
280
     0
281
     0
  0
CLASS
  1
AEC_VARS_MUNICH
  2
AecDbVarsMunich
  3
AecArchDACHBase50|Product Desc: Autodesk Architectural Desktop 2007 |Company: Autodesk,Inc. |WEB Address: www.autodesk.com
 90
    32897
280
     0
281
     0
  0
CLASS
  1
AEC_STAIR_STYLE
  2
AecDbStairStyle
  3
AecArchBase50|Product Desc: Autodesk Architectural Desktop 2007 |Company: Autodesk,Inc. |WEB Address: www.autodesk.com
 90
    32897
280
     0
281
     0
  0
CLASS
  1
AEC_2DSECTION_STYLE
  2
AecDb2dSectionStyle
  3
AecBase50|Product Desc: Autodesk Architectural Desktop 2007 |Company: Autodesk,Inc. |WEB Address: www.autodesk.com
 90
    32897
280
     0
281
     0
  0
CLASS
  1
AEC_DIM_STYLE
  2
AecDbDimensionStyle
  3
AecArchDACHBase50|Product Desc: Autodesk Architectural Desktop 2007 |Company: Autodesk,Inc. |WEB Address: www.autodesk.com
 90
    32897
280
     0
281
     0
  0
CLASS
  1
AEC_LAYOUT_GRID2D
  2
AecDbLayoutGrid2d
  3
AecBase50|Product Desc: Autodesk Architectural Desktop 2007 |Company: Autodesk,Inc. |WEB Address: www.autodesk.com
 90
    33661
280
     0
281
     1
  0
CLASS
  1
AEC_MVBLOCK_DEF
  2
AecDbMvBlockDef
  3
AecBase50|Product Desc: Autodesk Architectural Desktop 2007 |Company: Autodesk,Inc. |WEB Address: www.autodesk.com
 90
    32897
280
     0
281
     0
  0
CLASS
  1
AEC_AECDBAREAPROPOSALNAMES
  2
AecDbAreaProposalNames
  3
AecAreaCalculationBase50|Product Desc: Autodesk Architectural Desktop 2007 |Company: Autodesk,Inc. |WEB Address: www.autodesk.com
 90
    32897
280
     0
281
     0
  0
CLASS
  1
AEC_AECDBAREAGROUPSTYLE
  2
AecDbAreaGroupStyle
  3
AecAreaCalculationBase50|Product Desc: Autodesk Architectural Desktop 2007 |Company: Autodesk,Inc. |WEB Address: www.autodesk.com
 90
    32897
280
     0
281
     0
  0
CLASS
  1
AEC_AECDBAREAGROUPDEF
  2
AecDbAreaGroupDef
  3
AecAreaCalculationBase50|Product Desc: Autodesk Architectural Desktop 2007 |Company: Autodesk,Inc. |WEB Address: www.autodesk.com
 90
    32897
280
     0
281
     0
  0
CLASS
  1
AecDbPropertySet
  2
AecDbPropertySet
  3
AecScheduleData50|Product Desc: Autodesk Architectural Desktop 2007 |Company: Autodesk,Inc. |WEB Address: www.autodesk.com
 90
    32897
280
     0
281
     0
  0
CLASS
  1
AEC_TEXT_NOTE
  2
AecDbTextNote
  3
AecBase50|Product Desc: Autodesk Architectural Desktop 2007 |Company: Autodesk,Inc. |WEB Address: www.autodesk.com
 90
    32897
280
     0
281
     0
  0
CLASS
  1
AEC_SCHEDULE_DATA_FORMAT
  2
AecDbScheduleDataFormat
  3
AecScheduleData50|Product Desc: Autodesk Architectural Desktop 2007 |Company: Autodesk,Inc. |WEB Address: www.autodesk.com
 90
    32897
280
     0
281
     0
  0
CLASS
  1
AEC_PROPERTY_SET_DEF
  2
AecDbPropertySetDef
  3
AecScheduleData50|Product Desc: Autodesk Architectural Desktop 2007 |Company: Autodesk,Inc. |WEB Address: www.autodesk.com
 90
    32897
280
     0
281
     0
  0
CLASS
  1
AEC_SCHEDULE_TABLE_STYLE
  2
AecDbScheduleTableStyle
  3
AecSchedule50|Product Desc: Autodesk Architectural Desktop 2007 |Company: Autodesk,Inc. |WEB Address: www.autodesk.com
 90
    32897
280
     0
281
     0
  0
CLASS
  1
AEC_AECDBAREAMODIFIER
  2
AecDbAreaModifier
  3
AecAreaCalculationBase50|Product Desc: Autodesk Architectural Desktop 2007 |Company: Autodesk,Inc. |WEB Address: www.autodesk.com
 90
    32897
280
     0
281
     0
  0
CLASS
  1
AEC_AECDBAREASTYLE
  2
AecDbAreaStyle
  3
AecAreaCalculationBase50|Product Desc: Autodesk Architectural Desktop 2007 |Company: Autodesk,Inc. |WEB Address: www.autodesk.com
 90
    32897
280
     0
281
     0
  0
CLASS
  1
AEC_MATERIAL_DEF
  2
AecDbMaterialDef
  3
AecBase50|Product Desc: Autodesk Architectural Desktop 2007 |Company: Autodesk,Inc. |WEB Address: www.autodesk.com
 90
    32897
280
     0
281
     0
  0
CLASS
  1
AEC_DISP_PROPS_SPACE_BOUNDARY
  2
AecDbDispPropsSpaceBoundary
  3
AecArchBase50|Product Desc: Autodesk Architectural Desktop 2007 |Company: Autodesk,Inc. |WEB Address: www.autodesk.com
 90
    32897
280
     0
281
     0
  0
CLASS
  1
AEC_DISP_PROPS_WALL_MODEL
  2
AecDbDispPropsWallModel
  3
AecArchBase50|Product Desc: Autodesk Architectural Desktop 2007 |Company: Autodesk,Inc. |WEB Address: www.autodesk.com
 90
    32897
280
     0
281
     0
  0
CLASS
  1
AEC_BLOCK_REF_PATH_MGR
  2
AecDbBlockRefPathMgr
  3
AecBase40
 90
    32897
280
     1
281
     0
  0
CLASS
  1
AEC_NOTIFICATION_TRACKER
  2
AecDbNotificationTracker
  3
AecBase50|Product Desc: Autodesk Architectural Desktop 2007 |Company: Autodesk,Inc. |WEB Address: www.autodesk.com
 90
    32897
280
     0
281
     0
  0
CLASS
  1
AEC_DISP_REP_EDITINPLACEPROFILE
  2
AecDbDispRepEditInPlaceProfile
  3
AecBase50|Product Desc: Autodesk Architectural Desktop 2007 |Company: Autodesk,Inc. |WEB Address: www.autodesk.com
 90
    32897
280
     0
281
     0
  0
CLASS
  1
AEC_DISP_PROPS_EDITINPLACEPROFILE_MODEL
  2
AecDbDispPropsEditInPlaceProfile
  3
AecBase50|Product Desc: Autodesk Architectural Desktop 2007 |Company: Autodesk,Inc. |WEB Address: www.autodesk.com
 90
    32897
280
     0
281
     0
  0
CLASS
  1
AEC_DISP_REP_MATERIAL
  2
AecDbDispRepMaterial
  3
AecBase50|Product Desc: Autodesk Architectural Desktop 2007 |Company: Autodesk,Inc. |WEB Address: www.autodesk.com
 90
    32897
280
     0
281
     0
  0
CLASS
  1
AEC_DISP_PROPS_MATERIAL
  2
AecDbDispPropsMaterial
  3
AecBase50|Product Desc: Autodesk Architectural Desktop 2007 |Company: Autodesk,Inc. |WEB Address: www.autodesk.com
 90
    32897
280
     0
281
     0
  0
CLASS
  1
AEC_DISP_REP_STAIR_PLAN_OVERLAPPING
  2
AecDbDispRepStairPlanOverlapping
  3
AecArchBase50|Product Desc: Autodesk Architectural Desktop 2007 |Company: Autodesk,Inc. |WEB Address: www.autodesk.com
 90
    32897
280
     0
281
     0
  0
CLASS
  1
AEC_DISP_PROPS_STAIR_PLAN_OVERLAPPING
  2
AecDbDispPropsStairPlanOverlapping
  3
AecArchBase50|Product Desc: Autodesk Architectural Desktop 2007 |Company: Autodesk,Inc. |WEB Address: www.autodesk.com
 90
    32897
280
     0
281
     0
  0
CLASS
  1
AEC_DISP_REP_WINDOWASSEMBLY_SILL_PLAN
  2
AecDbDispRepWindowAssemblySillPlan
  3
AecArchBase50|Product Desc: Autodesk Architectural Desktop 2007 |Company: Autodesk,Inc. |WEB Address: www.autodesk.com
 90
    32897
280
     0
281
     0
  0
CLASS
  1
AEC_DISP_PROPS_WINDOW_ASSEMBLY_SILL_PLAN
  2
AecDbDispPropsWindowAssemblySillPlan
  3
AecArchBase50|Product Desc: Autodesk Architectural Desktop 2007 |Company: Autodesk,Inc. |WEB Address: www.autodesk.com
 90
    32897
280
     0
281
     0
  0
CLASS
  1
SPATIAL_INDEX
  2
AcDbSpatialIndex
  3
ObjectDBX Classes
 90
    32768
280
     0
281
     0
  0
CLASS
  1
AEC_MASS_ELEM_STYLE
  2
AecDbMassElemStyle
  3
AecBaseEx50|Product Desc: Autodesk Architectural Desktop 2007 |Company: Autodesk,Inc. |WEB Address: www.autodesk.com
 90
    32897
280
     0
281
     0
  0
CLASS
  1
MATERIAL
  2
AcDbMaterial
  3
ObjectDBX Classes
 90
     1153
280
     0
281
     0
  0
CLASS
  1
AEC_CURTAIN_WALL_UNIT_STYLE
  2
AecDbCurtainWallUnitStyle
  3
AecArchBase50|Product Desc: Autodesk Architectural Desktop 2007 |Company: Autodesk,Inc. |WEB Address: www.autodesk.com
 90
    32897
280
     0
281
     0
  0
CLASS
  1
AEC_CURTAIN_WALL_LAYOUT_STYLE
  2
AecDbCurtainWallLayoutStyle
  3
AecArchBase50|Product Desc: Autodesk Architectural Desktop 2007 |Company: Autodesk,Inc. |WEB Address: www.autodesk.com
 90
    32897
280
     0
281
     0
  0
CLASS
  1
AEC_DOOR_STYLE
  2
AecDbDoorStyle
  3
AecArchBase50|Product Desc: Autodesk Architectural Desktop 2007 |Company: Autodesk,Inc. |WEB Address: www.autodesk.com
 90
    32897
280
     0
281
     0
  0
CLASS
  1
AEC_WINDOW_STYLE
  2
AecDbWindowStyle
  3
AecArchBase50|Product Desc: Autodesk Architectural Desktop 2007 |Company: Autodesk,Inc. |WEB Address: www.autodesk.com
 90
    32897
280
     0
281
     0
  0
CLASS
  1
AEC_POLYGON_STYLE
  2
AecDbPolygonStyle
  3
AecBaseEx50|Product Desc: Autodesk Architectural Desktop 2007 |Company: Autodesk,Inc. |WEB Address: www.autodesk.com
 90
    32897
280
     0
281
     0
  0
CLASS
  1
AEC_WINDOW_ASSEMBLY_STYLE
  2
AecDbWindowAssemblyStyle
  3
AecArchBase50|Product Desc: Autodesk Architectural Desktop 2007 |Company: Autodesk,Inc. |WEB Address: www.autodesk.com
 90
    32897
280
     0
281
     0
  0
CLASS
  1
AEC_DISP_REP_GRIP_SAMPLER
  2
AecDbDispRepGripSampler
  3
AecTestBase40
 90
    32897
280
     1
281
     0
  0
CLASS
  1
AEC_DISP_ROPS_RAILING_PLAN_50
  2
AecDbDispPropsRailingPlan50
  3
AecArchDACHBase50|Product Desc: Autodesk Architectural Desktop 2007 |Company: Autodesk,Inc. |WEB Address: www.autodesk.com
 90
    32897
280
     0
281
     0
  0
CLASS
  1
AEC_STAIR_WINDER_TYPE_BALANCED
  2
AecDbStairWinderTypeBalanced
  3
AecArchBase50|Product Desc: Autodesk Architectural Desktop 2007 |Company: Autodesk,Inc. |WEB Address: www.autodesk.com
 90
    32897
280
     0
281
     0
  0
CLASS
  1
AEC_STAIR_WINDER_TYPE_SINGLE_POINT
  2
AecDbStairWinderTypeSinglePoint
  3
AecArchBase50|Product Desc: Autodesk Architectural Desktop 2007 |Company: Autodesk,Inc. |WEB Address: www.autodesk.com
 90
    32897
280
     0
281
     0
  0
CLASS
  1
AEC_STAIR_WINDER_TYPE_MANUAL
  2
AecDbStairWinderTypeManual
  3
AecArchBase50|Product Desc: Autodesk Architectural Desktop 2007 |Company: Autodesk,Inc. |WEB Address: www.autodesk.com
 90
    32897
280
     0
281
     0
  0
CLASS
  1
AEC_STAIR_WINDER_STYLE
  2
AecDbStairWinderStyle
  3
AecArchBase50|Product Desc: Autodesk Architectural Desktop 2007 |Company: Autodesk,Inc. |WEB Address: www.autodesk.com
 90
    32897
280
     0
281
     0
  0
CLASS
  1
AEC_STAIR
  2
AecDbStair
  3
AecArchBase50|Product Desc: Autodesk Architectural Desktop 2007 |Company: Autodesk,Inc. |WEB Address: www.autodesk.com
 90
    33661
280
     0
281
     1
  0
CLASS
  1
AEC_MASKBLOCK_DEF
  2
AecDbMaskBlockDef
  3
AecBase50|Product Desc: Autodesk Architectural Desktop 2007 |Company: Autodesk,Inc. |WEB Address: www.autodesk.com
 90
    32897
280
     0
281
     0
  0
CLASS
  1
SORTENTSTABLE
  2
AcDbSortentsTable
  3
ObjectDBX Classes
 90
        0
280
     0
281
     0
  0
CLASS
  1
AECS_MEMBER_NODE_SHAPE
  2
AecsDbMemberNodeShape
  3
AecStructureBase50|Product Desc: Autodesk Architectural Desktop 2007 |Company: Autodesk,Inc. |WEB Address: www.autodesk.com
 90
    32897
280
     0
281
     0
  0
CLASS
  1
AECS_MEMBER_STYLE
  2
AecsDbMemberStyle
  3
AecStructureBase50|Product Desc: Autodesk Architectural Desktop 2007 |Company: Autodesk,Inc. |WEB Address: www.autodesk.com
 90
    32897
280
     0
281
     0
  0
CLASS
  1
AECS_MEMBER
  2
AecsDbMember
  3
AecStructureBase50|Product Desc: Autodesk Architectural Desktop 2007 |Company: Autodesk,Inc. |WEB Address: www.autodesk.com
 90
    33661
280
     0
281
     1
  0
CLASS
  1
AEC_MVBLOCK_REF
  2
AecDbMvBlockRef
  3
AecBase50|Product Desc: Autodesk Architectural Desktop 2007 |Company: Autodesk,Inc. |WEB Address: www.autodesk.com
 90
    33661
280
     0
281
     1
  0
CLASS
  1
AEC_VARS_STRUCTUREBASE
  2
AecsDbVarsStructureBase
  3
AecStructureBase50|Product Desc: Autodesk Architectural Desktop 2007 |Company: Autodesk,Inc. |WEB Address: www.autodesk.com
 90
    32897
280
     0
281
     0
  0
CLASS
  1
AEC_MASS_ELEM
  2
AecDbMassElem
  3
AecBaseEx50|Product Desc: Autodesk Architectural Desktop 2007 |Company: Autodesk,Inc. |WEB Address: www.autodesk.com
 90
    33661
280
     0
281
     1
  0
CLASS
  1
AEC_WALL
  2
AecDbWall
  3
AecArchBase50|Product Desc: Autodesk Architectural Desktop 2007 |Company: Autodesk,Inc. |WEB Address: www.autodesk.com
 90
    33661
280
     0
281
     1
  0
CLASS
  1
AEC_WINDOW
  2
AecDbWindow
  3
AecArchBase50|Product Desc: Autodesk Architectural Desktop 2007 |Company: Autodesk,Inc. |WEB Address: www.autodesk.com
 90
    33661
280
     0
281
     1
  0
CLASS
  1
AEC_ANCHOR_OPENINGBASE_TO_WALL
  2
AecDbAnchorOpeningBaseToWall
  3
AecArchBase50|Product Desc: Autodesk Architectural Desktop 2007 |Company: Autodesk,Inc. |WEB Address: www.autodesk.com
 90
    32897
280
     0
281
     0
  0
CLASS
  1
AEC_DOOR
  2
AecDbDoor
  3
AecArchBase50|Product Desc: Autodesk Architectural Desktop 2007 |Company: Autodesk,Inc. |WEB Address: www.autodesk.com
 90
    33661
280
     0
281
     1
  0
CLASS
  1
AEC_ANCHOR_TAG_TO_ENT
  2
AecDbAnchorTagToEnt
  3
AecScheduleData50|Product Desc: Autodesk Architectural Desktop 2007 |Company: Autodesk,Inc. |WEB Address: www.autodesk.com
 90
    32897
280
     0
281
     0
  0
CLASS
  1
AEC_OPENING
  2
AecDbOpening
  3
AecArchBase50|Product Desc: Autodesk Architectural Desktop 2007 |Company: Autodesk,Inc. |WEB Address: www.autodesk.com
 90
    33661
280
     0
281
     1
  0
CLASS
  1
AEC_POLYGON
  2
AecDbPolygon
  3
AecBaseEx50|Product Desc: Autodesk Architectural Desktop 2007 |Company: Autodesk,Inc. |WEB Address: www.autodesk.com
 90
    33661
280
     0
281
     1
  0
CLASS
  1
AEC_ROOFSLAB
  2
AecDbRoofSlab
  3
AecArchBase50|Product Desc: Autodesk Architectural Desktop 2007 |Company: Autodesk,Inc. |WEB Address: www.autodesk.com
 90
    33661
280
     0
281
     1
  0
CLASS
  1
AEC_SPACE_BOUNDARY
  2
AecDbSpaceBoundary
  3
AecArchBase50|Product Desc: Autodesk Architectural Desktop 2007 |Company: Autodesk,Inc. |WEB Address: www.autodesk.com
 90
    33661
280
     0
281
     1
  0
CLASS
  1
AEC_SPACE
  2
AecDbSpace
  3
AecArchBase50|Product Desc: Autodesk Architectural Desktop 2007 |Company: Autodesk,Inc. |WEB Address: www.autodesk.com
 90
    33661
280
     0
281
     1
  0
CLASS
  1
AEC_CLASSIFICATION_SYSTEM_DEF
  2
AecDbClassificationSystemDef
  3
AecBase50|Product Desc: Autodesk Architectural Desktop 2007 |Company: Autodesk,Inc. |WEB Address: www.autodesk.com
 90
    32897
280
     0
281
     0
  0
CLASS
  1
AEC_CLASSIFICATION_DEF
  2
AecDbClassificationDef
  3
AecBase50|Product Desc: Autodesk Architectural Desktop 2007 |Company: Autodesk,Inc. |WEB Address: www.autodesk.com
 90
    32897
280
     0
281
     0
  0
CLASS
  1
AEC_CLEANUP_GROUP_DEF
  2
AecDbCleanupGroupDef
  3
AecArchBase50|Product Desc: Autodesk Architectural Desktop 2007 |Company: Autodesk,Inc. |WEB Address: www.autodesk.com
 90
    32897
280
     0
281
     0
  0
CLASS
  1
AEC_STDSIZE_OPENINGS
  2
AecDbStdSizeOpeningList
  3
AecArchBase50|Product Desc: Autodesk Architectural Desktop 2007 |Company: Autodesk,Inc. |WEB Address: www.autodesk.com
 90
    32897
280
     0
281
     0
  0
CLASS
  1
AEC_ENDCAP_STYLE
  2
AecDbEndcapStyle
  3
AecArchBase50|Product Desc: Autodesk Architectural Desktop 2007 |Company: Autodesk,Inc. |WEB Address: www.autodesk.com
 90
    32897
280
     0
281
     0
  0
CLASS
  1
AEC_FRAME_DEF
  2
AecDbOpeningEndcapStyle
  3
AecArchBase50|Product Desc: Autodesk Architectural Desktop 2007 |Company: Autodesk,Inc. |WEB Address: www.autodesk.com
 90
    32897
280
     0
281
     0
  0
CLASS
  1
AEC_PROFILE_DEF
  2
AecDbProfileDef
  3
AecBase50|Product Desc: Autodesk Architectural Desktop 2007 |Company: Autodesk,Inc. |WEB Address: www.autodesk.com
 90
    32897
280
     0
281
     0
  0
CLASS
  1
AEC_ROOFSLAB_STYLE
  2
AecDbRoofSlabStyle
  3
AecArchBase50|Product Desc: Autodesk Architectural Desktop 2007 |Company: Autodesk,Inc. |WEB Address: www.autodesk.com
 90
    32897
280
     0
281
     0
  0
CLASS
  1
AEC_ROOFSLABEDGE_STYLE
  2
AecDbRoofSlabEdgeStyle
  3
AecArchBase50|Product Desc: Autodesk Architectural Desktop 2007 |Company: Autodesk,Inc. |WEB Address: www.autodesk.com
 90
    32897
280
     0
281
     0
  0
CLASS
  1
AEC_SPACE_STYLES
  2
AecDbSpaceStyle
  3
AecArchBase50|Product Desc: Autodesk Architectural Desktop 2007 |Company: Autodesk,Inc. |WEB Address: www.autodesk.com
 90
    32897
280
     0
281
     0
  0
CLASS
  1
AEC_WALL_STYLE
  2
AecDbWallStyle
  3
AecArchBase50|Product Desc: Autodesk Architectural Desktop 2007 |Company: Autodesk,Inc. |WEB Address: www.autodesk.com
 90
    32897
280
     0
281
     0
  0
CLASS
  1
AEC_DIMENSION_GROUP
  2
AecDbDimensionGroup
  3
AecArchDACHBase50|Product Desc: Autodesk Architectural Desktop 2007 |Company: Autodesk,Inc. |WEB Address: www.autodesk.com
 90
    33661
280
     0
281
     1
  0
CLASS
  1
AEC_ANCHOR_TO_N_REF
  2
AecDbAnchorToNRef
  3
AecArchDACHBase50|Product Desc: Autodesk Architectural Desktop 2007 |Company: Autodesk,Inc. |WEB Address: www.autodesk.com
 90
    32897
280
     0
281
     0
  0
CLASS
  1
AEC_SLAB
  2
AecDbSlab
  3
AecArchBase50|Product Desc: Autodesk Architectural Desktop 2007 |Company: Autodesk,Inc. |WEB Address: www.autodesk.com
 90
    33661
280
     0
281
     1
  0
CLASS
  1
AEC_SLAB_STYLE
  2
AecDbSlabStyle
  3
AecArchBase50|Product Desc: Autodesk Architectural Desktop 2007 |Company: Autodesk,Inc. |WEB Address: www.autodesk.com
 90
    32897
280
     0
281
     0
  0
CLASS
  1
AEC_SLABEDGE_STYLE
  2
AecDbSlabEdgeStyle
  3
AecArchBase50|Product Desc: Autodesk Architectural Desktop 2007 |Company: Autodesk,Inc. |WEB Address: www.autodesk.com
 90
    32897
280
     0
281
     0
  0
CLASS
  1
RTEXT
  2
RText
  3
RText|AutoCAD Express Tool|expresstools@autodesk.com
 90
    35839
280
     0
281
     1
  0
CLASS
  1
ABAD_DB_WINROOF_DISPREP
  2
AbAdDbWinRoofDispRep
  3
AbAdDbWinRoof|Custom Application
 90
    32769
280
     1
281
     0
  0
CLASS
  1
AB_AD_DISP_PROPS_WINROOF
  2
AbAdDbWinRoofDispProp
  3
AbAdDbWinRoof|Custom Application
 90
    32769
280
     1
281
     0
  0
CLASS
  1
ABAD_DB_WINROOF_DISPREP_DRAWINGROOF
  2
AbAdDbWinRoofDispRepDrawingRoof
  3
AbAdDbWinRoof|Custom Application
 90
    32769
280
     1
281
     0
  0
CLASS
  1
AB_AD_DISP_PROPS_WINROOF_DRAWINGROOF
  2
AbAdDbWinRoofDispPropDrawingRoof
  3
AbAdDbWinRoof|Custom Application
 90
    32769
280
     1
281
     0
  0
CLASS
  1
ABAD_DB_WINROOF_DISPREP_PLAN
  2
AbAdDbWinRoofDispRepPlan
  3
AbAdDbWinRoof|Custom Application
 90
    32769
280
     1
281
     0
  0
CLASS
  1
AB_AD_DISP_PROPS_WINROOF_PLAN
  2
AbAdDbWinRoofDispPropPlan
  3
AbAdDbWinRoof|Custom Application
 90
    32769
280
     1
281
     0
  0
CLASS
  1
ABAD_PLATEOPENING_DISPREP_DESC
  2
AbAdOpeningPlateRepDesc
  3
AbAdPlateDbx|Custom Application
 90
    32769
280
     1
281
     0
  0
CLASS
  1
ABAD_PLATEOPENING_DISPPROPS_DESC
  2
AbAdOpeningPlatePropsDesc
  3
AbAdPlateDbx|Custom Application
 90
    32769
280
     1
281
     0
  0
CLASS
  1
ABAD_PLATEOPENING_DISPREP_MODEL
  2
AbAdOpeningPlateRepModel
  3
AbAdPlateDbx|Custom Application
 90
    32769
280
     1
281
     0
  0
CLASS
  1
ABAD_PLATEOPENING_DISPPROPS_MODEL
  2
AbAdOpeningPlatePropsModel
  3
AbAdPlateDbx|Custom Application
 90
    32769
280
     1
281
     0
  0
CLASS
  1
ABAD_PLATEOPENING_DISPREP_PLAN
  2
AbAdOpeningPlateRepPlan
  3
AbAdPlateDbx|Custom Application
 90
    32769
280
     1
281
     0
  0
CLASS
  1
ABAD_PLATEOPENING_DISPPROPS_PLAN
  2
AbAdOpeningPlatePropsPlan
  3
AbAdPlateDbx|Custom Application
 90
    32769
280
     1
281
     0
  0
CLASS
  1
ABAD_PLATEOPENING_DISPREP_SIMPLE
  2
AbAdOpeningPlateRepSimple
  3
AbAdPlateDbx|Custom Application
 90
    32769
280
     1
281
     0
  0
CLASS
  1
ABAD_PLATEOPENING_DISPPROPS_SIMPLE
  2
AbAdOpeningPlatePropsSimple
  3
AbAdPlateDbx|Custom Application
 90
    32769
280
     1
281
     0
  0
CLASS
  1
ABAD_PLATE_DISPREPPLAN
  2
AbAdPlateDispRepPlan
  3
AbAdPlateDbx|Custom Application
 90
    32769
280
     1
281
     0
  0
CLASS
  1
ABAD_PLATE_DISPPROPS_PLAN
  2
AbAdPlateDispPropsPlan
  3
AbAdPlateDbx|Custom Application
 90
    32769
280
     1
281
     0
  0
CLASS
  1
ABAD_PLATE_DISPREPCEILING
  2
AbAdPlateDispRepCeiling
  3
AbAdPlateDbx|Custom Application
 90
    32769
280
     1
281
     0
  0
CLASS
  1
ABAD_PLATE_DISPREPMODEL
  2
AbAdPlateDispRepModel
  3
AbAdPlateDbx|Custom Application
 90
    32769
280
     1
281
     0
  0
CLASS
  1
ABAD_PLATE_DISPPROPS_BASE
  2
AbAdPlateDispPropsBase
  3
AbAdPlateDbx|Custom Application
 90
    32769
280
     1
281
     0
  0
CLASS
  1
ABAD_ROOF_OUTLINE_DISPREP
  2
AbAdRoofOutlineDispRep
  3
AbAdRoofDispRep|Custom Application
 90
    32769
280
     1
281
     0
  0
CLASS
  1
ABAD_ROOF_OUTLINE_DISP_PROP
  2
AbAdRoofOutlineDispProp
  3
AbAdRoofDispRep|Custom Application
 90
    32769
280
     1
281
     0
  0
CLASS
  1
ABAD_ROOF_PLANLOFT_DISPREP
  2
AbAdRoofPlanLoftDispRep
  3
AbAdRoofDispRep|Custom Application
 90
    32769
280
     1
281
     0
  0
CLASS
  1
ABAD_ROOF_PLANLOFT_DISPROP
  2
AbAdRoofPlanLoftDispProp
  3
AbAdRoofDispRep|Custom Application
 90
    32769
280
     1
281
     0
  0
CLASS
  1
ABAD_STAIR_DESC_DISPREP
  2
AbAdStairDesDispRep
  3
AbAdStairDispRep|Custom Application
 90
    32769
280
     1
281
     0
  0
CLASS
  1
ADCG_STAIR_DESC_DISPROP
  2
AbAdStairDesDispProp
  3
AbAdStairDispRep|Custom Application
 90
    32769
280
     1
281
     0
  0
CLASS
  1
ABAD_STAIR_DISP_REP
  2
AbAdStairDispRep
  3
AbAdStairDispRep|Custom Application
 90
    32769
280
     1
281
     0
  0
CLASS
  1
ABAD_STAIR_DISP_PROP
  2
AbAdStairDispProp
  3
AbAdStairDispRep|Custom Application
 90
    32769
280
     1
281
     0
  0
CLASS
  1
ABAD_WALL_DISP_REP
  2
AbAdWallDispRep
  3
AbAdWallDispRep|Custom Application
 90
    32769
280
     1
281
     0
  0
CLASS
  1
ABAD_WINDOW_DISP_REP
  2
AbAdWindowDispRep
  3
AbAdWindowDispRep|Custom Application
 90
    32769
280
     1
281
     0
  0
CLASS
  1
ABAD_WINDOW_DISP_PROP
  2
AbAdWindowDispProp
  3
AbAdWindowDispRep|Custom Application
 90
    32769
280
     1
281
     0
  0
CLASS
  1
ABAD_DB_DISPREP_ROOF_HATCH
  2
AbAdDbDispRepRoofHatch
  3
AbAdDbWinRoof|Custom Application
 90
    32769
280
     1
281
     0
  0
CLASS
  1
ABAD_DB_DISPPROP_ROOF_HATCH
  2
AbAdDbDispPropsRoofHatch
  3
AbAdDbWinRoof|Custom Application
 90
    32769
280
     1
281
     0
  0
CLASS
  1
ABAD_DB_DISPREP_ROOFSLAB_HATCH
  2
AbAdDbDispRepRoofSlabHatch
  3
AbAdDbWinRoof|Custom Application
 90
    32769
280
     1
281
     0
  0
CLASS
  1
ABAD_WIN_PANELS_ELEVATION_DISPREP
  2
AbAdDispRepWinPanelsElev
  3
AbAdWinDoorPanelsDbx|Custom Application
 90
    32769
280
     1
281
     0
  0
CLASS
  1
ABAD_WIN_PANELS_DISPPROP
  2
AbAdDispPropWinPanels
  3
AbAdWinDoorPanelsDbx|Custom Application
 90
    32769
280
     1
281
     0
  0
CLASS
  1
ABAD_WIN_PANELS_DISPREP
  2
AbAdDispRepWinPanels
  3
AbAdWinDoorPanelsDbx|Custom Application
 90
    32769
280
     1
281
     0
  0
CLASS
  1
ABAD_DOOR_DISP_REP
  2
AbAdDoorDispRep
  3
AbAdDoorDispRep|Custom Application
 90
    32769
280
     1
281
     0
  0
CLASS
  1
ABAD_DOOR_DISP_PROP
  2
AbAdDoorDispProp
  3
AbAdDoorDispRep|Custom Application
 90
    32769
280
     1
281
     0
  0
CLASS
  1
ABAD_DOOR_THRESHOLD_DISP_REP
  2
AbAdThresholdDispRep
  3
AbAdDoorDispRep|Custom Application
 90
    32769
280
     1
281
     0
  0
CLASS
  1
ABAD_DOOR_THRESHOLD_DISP_PROP
  2
AbAdThresholdDispProps
  3
AbAdDoorDispRep|Custom Application
 90
    32769
280
     1
281
     0
  0
CLASS
  1
ABAD_ISOLATION_DISPREP
  2
AbAdIsolationDispRep
  3
AbAdIsolationDbx|Custom Application
 90
    32769
280
     1
281
     0
  0
CLASS
  1
ABAD_ISOLATION_DISPPROPS
  2
AbAdIsolationDispProps
  3
AbAdIsolationDbx|Custom Application
 90
    32769
280
     1
281
     0
  0
CLASS
  1
PLOTSETTINGS
  2
AcDbPlotSettings
  3
ObjectDBX Classes
 90
    32768
280
     0
281
     0
  0
CLASS
  1
AEC_AREA
  2
AecDbArea
  3
AecAreaCalculationBase50|Product Desc: Autodesk Architectural Desktop 2007 |Company: Autodesk,Inc. |WEB Address: www.autodesk.com
 90
    33661
280
     0
281
     1
  0
CLASS
  1
VISUALSTYLE
  2
AcDbVisualStyle
  3
ObjectDBX Classes
 90
     4095
280
     0
281
     0
  0
CLASS
  1
TABLESTYLE
  2
AcDbTableStyle
  3
ObjectDBX Classes
 90
     4095
280
     0
281
     0
  0
CLASS
  1
AEC_AECDBDISPREPZONE100
  2
AecDbDispRepZonePlan100
  3
AecArchDACHBase50|Product Desc: Autodesk Architectural Desktop 2007 |Company: Autodesk,Inc. |WEB Address: www.autodesk.com
 90
    32897
280
     0
281
     0
  0
CLASS
  1
AEC_DISP_PROPS_ZONE
  2
AecDbDispPropsZone
  3
AecArchBase50|Product Desc: Autodesk Architectural Desktop 2007 |Company: Autodesk,Inc. |WEB Address: www.autodesk.com
 90
    32897
280
     0
281
     0
  0
CLASS
  1
AEC_AECDBDISPREPZONE50
  2
AecDbDispRepZonePlan50
  3
AecArchDACHBase50|Product Desc: Autodesk Architectural Desktop 2007 |Company: Autodesk,Inc. |WEB Address: www.autodesk.com
 90
    32897
280
     0
281
     0
  0
CLASS
  1
AEC_DISP_REP_DISPLAYTHEME
  2
AecDbDispRepDisplayTheme
  3
AecBase50|Product Desc: Autodesk Architectural Desktop 2007 |Company: Autodesk,Inc. |WEB Address: www.autodesk.com
 90
    32897
280
     0
281
     0
  0
CLASS
  1
AEC_DISP_PROPS_DISPLAYTHEME
  2
AecDbDispPropsDisplayTheme
  3
AecBase50|Product Desc: Autodesk Architectural Desktop 2007 |Company: Autodesk,Inc. |WEB Address: www.autodesk.com
 90
    32897
280
     0
281
     0
  0
CLASS
  1
AEC_DISP_REP_ANCHOR_EXT_TAG_TO_ENT
  2
AecDbDispRepAnchorExtendedTagToEnt
  3
AecScheduleData50|Product Desc: Autodesk Architectural Desktop 2007 |Company: Autodesk,Inc. |WEB Address: www.autodesk.com
 90
    32897
280
     0
281
     0
  0
CLASS
  1
AEC_DISP_REP_SPACE_DECOMPOSED
  2
AecDbDispRepSpaceDecomposed
  3
AecArchBase50|Product Desc: Autodesk Architectural Desktop 2007 |Company: Autodesk,Inc. |WEB Address: www.autodesk.com
 90
    32897
280
     0
281
     0
  0
CLASS
  1
AEC_DISP_PROPS_SPACE_DECOMPOSED
  2
AecDbDispPropsSpaceDecomposed
  3
AecArchBase50|Product Desc: Autodesk Architectural Desktop 2007 |Company: Autodesk,Inc. |WEB Address: www.autodesk.com
 90
    32897
280
     0
281
     0
  0
CLASS
  1
AEC_DISP_REP_ZONE
  2
AecDbDispRepZone
  3
AecArchBase50|Product Desc: Autodesk Architectural Desktop 2007 |Company: Autodesk,Inc. |WEB Address: www.autodesk.com
 90
    32897
280
     0
281
     0
  0
CLASS
  1
AEC_LIST_DEF
  2
AecDbListDefinition
  3
AecBase50|Product Desc: Autodesk Architectural Desktop 2007 |Company: Autodesk,Inc. |WEB Address: www.autodesk.com
 90
    32897
280
     0
281
     0
  0
CLASS
  1
AEC_LIST_DEF
  2
AecDbListItem
  3
AecBase50|Product Desc: Autodesk Architectural Desktop 2007 |Company: Autodesk,Inc. |WEB Address: www.autodesk.com
 90
    32897
280
     0
281
     0
  0
CLASS
  1
AEC_AECDBZONESTYLE
  2
AecDbZoneStyle
  3
AecArchBase50|Product Desc: Autodesk Architectural Desktop 2007 |Company: Autodesk,Inc. |WEB Address: www.autodesk.com
 90
    32897
280
     0
281
     0
  0
CLASS
  1
AEC_AECDBZONEDEF
  2
AecDbZoneDef
  3
AecArchBase50|Product Desc: Autodesk Architectural Desktop 2007 |Company: Autodesk,Inc. |WEB Address: www.autodesk.com
 90
    32897
280
     0
281
     0
  0
CLASS
  1
EXACXREFPANELOBJECT
  2
ExAcXREFPanelObject
  3
EXAC_ESW
 90
    33793
280
     0
281
     0
  0
CLASS
  1
NPOCOLLECTION
  2
AcDbImpNonPersistentObjectsCollection
  3
ObjectDBX Classes
 90
    33921
280
     0
281
     0
  0
CLASS
  1
AEC_LEVEL_CHANGE_TRACKER
  2
AecDbLevelChangeTracker
  3
AecProject50|Product Desc: Autodesk Architectural Desktop 2007 |Company: Autodesk,Inc. |WEB Address: www.autodesk.com
 90
    32897
280
     0
281
     0
  0
CLASS
  1
AEC_BDG_SECTIONLINE
  2
AecDbBdgSectionLine
  3
AecArchBase50|Product Desc: Autodesk Architectural Desktop 2007 |Company: Autodesk,Inc. |WEB Address: www.autodesk.com
 90
    33661
280
     0
281
     1
  0
CLASS
  1
AEC_ANCHOR_ENT_TO_LAYOUT_NODE
  2
AecDbAnchorEntToLayoutNode
  3
AecBaseEx50|Product Desc: Autodesk Architectural Desktop 2007 |Company: Autodesk,Inc. |WEB Address: www.autodesk.com
 90
    32897
280
     0
281
     0
  0
CLASS
  1
AEC_2D_SECTION
  2
AecDb2dSection
  3
AecBase50|Product Desc: Autodesk Architectural Desktop 2007 |Company: Autodesk,Inc. |WEB Address: www.autodesk.com
 90
    33661
280
     0
281
     1
  0
CLASS
  1
AEC_RAILING
  2
AecDbRailing
  3
AecArchBase50|Product Desc: Autodesk Architectural Desktop 2007 |Company: Autodesk,Inc. |WEB Address: www.autodesk.com
 90
    33661
280
     0
281
     1
  0
CLASS
  1
AEC_ANCHOR_RAILING_TO_STAIR
  2
AecDbAnchorRailingToStair
  3
AecArchBase50|Product Desc: Autodesk Architectural Desktop 2007 |Company: Autodesk,Inc. |WEB Address: www.autodesk.com
 90
    32897
280
     0
281
     0
  0
CLASS
  1
AEC_RAILING_STYLE
  2
AecDbRailingStyle
  3
AecArchBase50|Product Desc: Autodesk Architectural Desktop 2007 |Company: Autodesk,Inc. |WEB Address: www.autodesk.com
 90
    32897
280
     0
281
     0
  0
CLASS
  1
AEC_ANCHOR_ENT_TO_GRID_ASSEMBLY
  2
AecDbAnchorEntToGridAssembly
  3
AecBaseEx50|Product Desc: Autodesk Architectural Desktop 2007 |Company: Autodesk,Inc. |WEB Address: www.autodesk.com
 90
    32897
280
     0
281
     0
  0
CLASS
  1
AEC_WINDOW_ASSEMBLY
  2
AecDbWindowAssembly
  3
AecArchBase50|Product Desc: Autodesk Architectural Desktop 2007 |Company: Autodesk,Inc. |WEB Address: www.autodesk.com
 90
    33661
280
     0
281
     1
  0
CLASS
  1
AEC_ANCHOR_WINASSEMBLY_TO_WALL
  2
AecDbAnchorWinAssemblyToWall
  3
AecArchBase50|Product Desc: Autodesk Architectural Desktop 2007 |Company: Autodesk,Inc. |WEB Address: www.autodesk.com
 90
    32897
280
     0
281
     0
  0
CLASS
  1
AEC_OPENING_SHAPE_PROFILE_EDITOR
  2
AecDbOpeningShapeProfileEditor
  3
AecArchBase50|Product Desc: Autodesk Architectural Desktop 2007 |Company: Autodesk,Inc. |WEB Address: www.autodesk.com
 90
    32897
280
     0
281
     0
  0
CLASS
  1
AEC_EDIT_IN_PLACE_PROFILE
  2
AecDbEditInPlaceProfile
  3
AecBase50|Product Desc: Autodesk Architectural Desktop 2007 |Company: Autodesk,Inc. |WEB Address: www.autodesk.com
 90
    33661
280
     0
281
     1
  0
CLASS
  1
AEC_DISPLAYTHEME_STYLE
  2
AecDbDisplayThemeStyle
  3
AecBase50|Product Desc: Autodesk Architectural Desktop 2007 |Company: Autodesk,Inc. |WEB Address: www.autodesk.com
 90
    32897
280
     0
281
     0
  0
CLASS
  1
EXACTERMXREFMAP
  2
ExAcTermXrefMap
  3
EXAC_SERVICE
 90
    33793
280
     0
281
     0
  0
CLASS
  1
AEC_WALLMOD_STYLE
  2
AecDbWallModStyle
  3
AecArchBase50|Product Desc: Autodesk Architectural Desktop 2007 |Company: Autodesk,Inc. |WEB Address: www.autodesk.com
 90
    32897
280
     0
281
     0
  0
CLASS
  1
SOLID_BACKGROUND
  2
AcDbSolidBackground
  3
SCENEOE
 90
    36863
280
     0
281
     0
  0
CLASS
  1
DIMASSOC
  2
AcDbDimAssoc
  3
"AcDbDimAssoc|Product Desc:     AcDim ARX App For Dimension|Company:          Autodesk, Inc.|WEB Address:      www.autodesk.com"
 90
        0
280
     0
281
     0
  0
CLASS
  1
AEC_SCHEDULE_TABLE
  2
AecDbScheduleTable
  3
AecSchedule50|Product Desc: Autodesk Architectural Desktop 2007 |Company: Autodesk,Inc. |WEB Address: www.autodesk.com
 90
    33661
280
     0
281
     1
  0
CLASS
  1
SCALE
  2
AcDbScale
  3
ObjectDBX Classes
 90
     1153
280
     0
281
     0
  0
CLASS
  1
MLEADERSTYLE
  2
AcDbMLeaderStyle
  3
ACDB_MLEADERSTYLE_CLASS
 90
    36863
280
     0
281
     0
  0
CLASS
  1
CELLSTYLEMAP
  2
AcDbCellStyleMap
  3
ObjectDBX Classes
 90
     1152
280
     0
281
     0
  0
CLASS
  1
AEC_REFEDIT_STATUS_TRACKER
  2
AecDbRefEditStatusTracker
  3
AecArchBase50|Product Desc: Autodesk Architectural Desktop 2007 |Company: Autodesk,Inc. |WEB Address: www.autodesk.com
 90
    32897
280
     0
281
     0
  0
CLASS
  1
ACAD_EVALUATION_GRAPH
  2
AcDbEvalGraph
  3
ObjectDBX Classes
 90
    33921
280
     0
281
     0
  0
CLASS
  1
BLOCKVISIBILITYPARAMETER
  2
AcDbBlockVisibilityParameter
  3
ObjectDBX Classes
 90
    33921
280
     0
281
     0
  0
CLASS
  1
BLOCKVISIBILITYGRIP
  2
AcDbBlockVisibilityGrip
  3
ObjectDBX Classes
 90
    33921
280
     0
281
     0
  0
CLASS
  1
BLOCKGRIPLOCATIONCOMPONENT
  2
AcDbBlockGripExpr
  3
ObjectDBX Classes
 90
    33921
280
     0
281
     0
  0
CLASS
  1
ACDB_DYNAMICBLOCKPURGEPREVENTER_VERSION
  2
AcDbDynamicBlockPurgePreventer
  3
ObjectDBX Classes
 90
    33921
280
     0
281
     0
  0
CLASS
  1
ACDB_BLOCKREPRESENTATION_DATA
  2
AcDbBlockRepresentationData
  3
ObjectDBX Classes
 90
    33921
280
     0
281
     0
  0
CLASS
  1
BLOCKROTATIONPARAMETER
  2
AcDbBlockRotationParameter
  3
ObjectDBX Classes
 90
    33921
280
     0
281
     0
  0
CLASS
  1
BLOCKROTATIONGRIP
  2
AcDbBlockRotationGrip
  3
ObjectDBX Classes
 90
    33921
280
     0
281
     0
  0
CLASS
  1
BLOCKROTATEACTION
  2
AcDbBlockRotateAction
  3
ObjectDBX Classes
 90
    33921
280
     0
281
     0
  0
CLASS
  1
BLOCKFLIPPARAMETER
  2
AcDbBlockFlipParameter
  3
ObjectDBX Classes
 90
    33921
280
     0
281
     0
  0
CLASS
  1
BLOCKFLIPGRIP
  2
AcDbBlockFlipGrip
  3
ObjectDBX Classes
 90
    33921
280
     0
281
     0
  0
CLASS
  1
BLOCKFLIPACTION
  2
AcDbBlockFlipAction
  3
ObjectDBX Classes
 90
    33921
280
     0
281
     0
  0
CLASS
  1
ACAECUSTOBJ
  2
AcAeEditorObj
  3
AcAeEditorObj
 90
    33792
280
     1
281
     0
  0
CLASS
  1
VISIBILITYPARAMETERENTITY
  2
AcDbBlockVisibilityParameterEntity
  3
ObjectDBX Classes
 90
    33793
280
     0
281
     1
  0
CLASS
  1
ACAEEEMGROBJ
  2
AcAeEEMgrObj
  3
AcAeEEMgrObj
 90
    33792
280
     0
281
     0
  0
CLASS
  1
VISIBILITYGRIPENTITY
  2
AcDbBlockVisibilityGripEntity
  3
ObjectDBX Classes
 90
    33793
280
     0
281
     1
  0
CLASS
  1
FLIPPARAMETERENTITY
  2
AcDbBlockFlipParameterEntity
  3
ObjectDBX Classes
 90
    33793
280
     0
281
     1
  0
CLASS
  1
FLIPGRIPENTITY
  2
AcDbBlockFlipGripEntity
  3
ObjectDBX Classes
 90
    33793
280
     0
281
     1
  0
CLASS
  1
FLIPACTIONENTITY
  2
AcDbBlockFlipActionEntity
  3
ObjectDBX Classes
 90
    33793
280
     0
281
     1
  0
CLASS
  1
ROTATIONPARAMETERENTITY
  2
AcDbBlockRotationParameterEntity
  3
ObjectDBX Classes
 90
    33793
280
     0
281
     1
  0
CLASS
  1
ROTATIONGRIPENTITY
  2
AcDbBlockRotationGripEntity
  3
ObjectDBX Classes
 90
    33793
280
     0
281
     1
  0
CLASS
  1
ROTATEACTIONENTITY
  2
AcDbBlockRotateActionEntity
  3
ObjectDBX Classes
 90
    33793
280
     0
281
     1
  0
CLASS
  1
ACSH_HISTORY_CLASS
  2
AcDbShHistory
  3
ObjectDBX Classes
 90
    33921
280
     0
281
     0
  0
CLASS
  1
ACSH_WEDGE_CLASS
  2
AcDbShWedge
  3
ObjectDBX Classes
 90
    33921
280
     0
281
     0
  0
CLASS
  1
AEC_ANCHOR_MVB_TO_UCS
  2
AecDbAnchorMVBToUCS
  3
AecBase50|Product Desc: Autodesk Architectural Desktop 2007 |Company: Autodesk,Inc. |WEB Address: www.autodesk.com
 90
    32897
280
     0
281
     0
  0
CLASS
  1
AEC_ANCHOR_ENT_TO_ENT
  2
AecDbAnchorEntToEnt
  3
AecBaseEx50|Product Desc: Autodesk Architectural Desktop 2007 |Company: Autodesk,Inc. |WEB Address: www.autodesk.com
 90
    32897
280
     0
281
     0
  0
CLASS
  1
AEC_MASS_GROUP
  2
AecDbMassGroup
  3
AecBaseEx50|Product Desc: Autodesk Architectural Desktop 2007 |Company: Autodesk,Inc. |WEB Address: www.autodesk.com
 90
    33661
280
     0
281
     1
  0
CLASS
  1
OBJECT_PTR
  2
CAseDLPNTableRecord
  3
ASE-LPNTableRecord
 90
        1
280
     0
281
     0
  0
CLASS
  1
AEC_ZONE
  2
AecDbZone
  3
AecArchBase50|Product Desc: Autodesk Architectural Desktop 2007 |Company: Autodesk,Inc. |WEB Address: www.autodesk.com
 90
    33661
280
     0
281
     1
  0
ENDSEC
  0
SECTION
  2
TABLES
  0
TABLE
  2
VPORT
  5
1D7
330
0
100
AcDbSymbolTable
 70
     1
  0
VPORT
  5
1D8
330
1D7
100
AcDbSymbolTableRecord
100
AcDbViewportTableRecord
  2
*Active
 70
     0
 10
0.0
 20
0.0
 11
1.0
 21
1.0
 12
-17018.48994232024
 22
-4195.036275456049
 13
0.0
 23
0.0
 14
1.0
 24
1.0
 15
3000.0
 25
3000.0
 16
0.0
 26
0.0
 36
1.0
 17
2059.896332786709
 27
637.0291641391438
 37
513.1181298210634
 40
34914.90161872429
 41
2.239304812834224
 42
50.0
 43
0.0
 44
0.0
 50
0.0
 51
0.0
 71
     0
 72
 20000
 73
     1
 74
     1
 75
     0
 76
     0
 77
     0
 78
     0
281
     0
 65
     1
110
0.0
120
0.0
130
0.0
111
1.0
121
0.0
131
0.0
112
0.0
122
1.0
132
0.0
 79
     0
146
0.0
  0
ENDTAB
  0
TABLE
  2
LTYPE
  5
1D2
330
0
100
AcDbSymbolTable
 70
     2
  0
LTYPE
  5
1D3
330
1D2
100
AcDbSymbolTableRecord
100
AcDbLinetypeTableRecord
  2
ByBlock
 70
     0
  3

 72
    65
 73
     0
 40
0.0
  0
LTYPE
  5
1D4
330
1D2
100
AcDbSymbolTableRecord
100
AcDbLinetypeTableRecord
  2
ByLayer
 70
     0
  3

 72
    65
 73
     0
 40
0.0
  0
LTYPE
  5
E
330
1D2
100
AcDbSymbolTableRecord
100
AcDbLinetypeTableRecord
  2
Continuous
 70
     0
  3
Solid line
 72
    65
 73
     0
 40
0.0
  0
LTYPE
  5
15
330
1D2
100
AcDbSymbolTableRecord
100
AcDbLinetypeTableRecord
  2
HIDDEN
 70
     0
  3
Hidden __ __ __ __ __ __ __ __ __ __ __ __ __
 72
    65
 73
     2
 40
9.524999999999998
 49
6.349999999999999
 74
     0
 49
-3.174999999999999
 74
     0
  0
ENDTAB
  0
TABLE
  2
LAYER
  5
1CA
102
{ACAD_XDICTIONARY
360
1CB
102
}
330
0
100
AcDbSymbolTable
 70
     5
  0
LAYER
  5
6
102
{ACAD_XDICTIONARY
360
7
102
}
330
1CA
100
AcDbSymbolTableRecord
100
AcDbLayerTableRecord
  2
0
 70
     0
 62
     7
  6
Continuous
370
    -3
390
9
1001
AcAecLayerStandard
1000

  0
LAYER
  5
9D
330
1CA
100
AcDbSymbolTableRecord
100
AcDbLayerTableRecord
  2
Defpoints
 70
     0
 62
     7
  6
Continuous
290
     0
370
    -3
390
9
1001
AcAecLayerStandard
1000

1000
Default Non-Plotting Layer
  0
LAYER
  5
11
102
{ACAD_XDICTIONARY
360
12
102
}
330
1CA
100
AcDbSymbolTableRecord
100
AcDbLayerTableRecord
  2
0Napisy
 70
     0
 62
   150
  6
Continuous
370
    15
390
9
1001
RAK
1000
{ACET-LAYISO
1070
     0
1070
   150
1000
Continuous
1071
       15
1071
        1
1005
9
1000
ACET-LAYISO}
  0
LAYER
  5
17
102
{ACAD_XDICTIONARY
360
18
102
}
330
1CA
100
AcDbSymbolTableRecord
100
AcDbLayerTableRecord
  2
0Napisy-PL
 70
     0
 62
   140
  6
Continuous
370
    15
390
9
1001
RAK
1000
{ACET-LAYISO
1070
     0
1070
   140
1000
Continuous
1071
       15
1071
        1
1005
9
1000
ACET-LAYISO}
  0
LAYER
  5
1C
102
{ACAD_XDICTIONARY
360
1D
102
}
330
1CA
100
AcDbSymbolTableRecord
100
AcDbLayerTableRecord
  2
RAMKI-A4
 70
     0
 62
     2
  6
Continuous
290
     0
370
    -3
390
9
1001
RAK
1000
{ACET-LAYISO
1070
     0
1070
     2
1000
Continuous
1071
       -3
1071
        0
1005
9
1000
ACET-LAYISO}
  0
ENDTAB
  0
TABLE
  2
STYLE
  5
1CF
330
0
100
AcDbSymbolTable
 70
     4
  0
STYLE
  5
1D0
330
1CF
100
AcDbSymbolTableRecord
100
AcDbTextStyleTableRecord
  2
Standard
 70
     0
 40
0.0
 41
1.0
 50
0.0
 71
     0
 42
0.2
  3
txt
  4

  0
STYLE
  5
9B
330
1CF
100
AcDbSymbolTableRecord
100
AcDbTextStyleTableRecord
  2
RomanS
 70
     0
 40
0.0
 41
0.8
 50
0.0
 71
     0
 42
2.5
  3
romans.shx
  4

  0
STYLE
  5
22
330
1CF
100
AcDbSymbolTableRecord
100
AcDbTextStyleTableRecord
  2
ARIAL
 70
     0
 40
0.0
 41
1.0
 50
0.0
 71
     0
 42
20.0
  3
ARIAL.TTF
  4

1001
ACAD
1000
Arial CE
1071
    60962
  0
STYLE
  5
19
330
1CF
100
AcDbSymbolTableRecord
100
AcDbTextStyleTableRecord
  2
AVA
 70
     0
 40
0.0
 41
1.0
 50
0.0
 71
     0
 42
158.5644099714409
  3
ARIAL.TTF
  4

1001
ACAD
1000
Arial CE
1071
    60962
  0
ENDTAB
  0
TABLE
  2
VIEW
  5
1D5
330
0
100
AcDbSymbolTable
 70
     0
  0
ENDTAB
  0
TABLE
  2
UCS
  5
1D6
330
0
100
AcDbSymbolTable
 70
     0
  0
ENDTAB
  0
TABLE
  2
APPID
  5
1DB
330
0
100
AcDbSymbolTable
 70
     6
  0
APPID
  5
1A
330
1DB
100
AcDbSymbolTableRecord
100
AcDbRegAppTableRecord
  2
ACAD
 70
     0
  0
APPID
  5
F
330
1DB
100
AcDbSymbolTableRecord
100
AcDbRegAppTableRecord
  2
AcAecLayerStandard
 70
     0
  0
APPID
  5
14
330
1DB
100
AcDbSymbolTableRecord
100
AcDbRegAppTableRecord
  2
RAK
 70
     0
  0
APPID
  5
24
330
1DB
100
AcDbSymbolTableRecord
100
AcDbRegAppTableRecord
  2
DCO15
 70
     0
  0
APPID
  5
1C2
330
1DB
100
AcDbSymbolTableRecord
100
AcDbRegAppTableRecord
  2
ACAD_PSEXT
 70
     0
  0
APPID
  5
23
330
1DB
100
AcDbSymbolTableRecord
100
AcDbRegAppTableRecord
  2
AcDbBlockRepETag
 70
     0
  0
ENDTAB
  0
TABLE
  2
DIMSTYLE
  5
1DC
330
0
100
AcDbSymbolTable
 70
     2
100
AcDbDimStyleTable
 71
     2
340
1DD
340
A1
  0
DIMSTYLE
105
1DD
330
1DC
100
AcDbSymbolTableRecord
100
AcDbDimStyleTableRecord
  2
100-PR
 70
     0
 41
15.0
 42
43.0
 43
24.0
 44
13.0
 45
0.5
 46
12.0
 73
     0
 74
     0
 75
     1
 76
     1
 77
     1
 78
     8
140
30.0
141
0.0
145
1.0
147
12.0
172
     1
174
     1
176
     7
177
     1
178
   140
271
     1
272
     1
279
     2
340
9B
341
1DE
342
1E3
371
     5
  0
DIMSTYLE
105
A1
102
{ACAD_REACTORS
330
8A
330
A2
330
AF
330
BC
330
C7
330
134
330
141
330
14E
330
15B
330
166
330
173
330
180
330
18F
330
19A
330
1A7
330
1B4
102
}
330
1DC
100
AcDbSymbolTableRecord
100
AcDbDimStyleTableRecord
  2
500
 70
     0
 41
30.0
 42
43.0
 43
0.0
 44
13.0
 45
0.5
 46
12.0
 73
     0
 74
     0
 75
     1
 76
     1
 78
    12
140
80.0
141
0.0
145
1.0
147
0.0
172
     1
174
     1
176
     1
177
     1
178
   140
271
     1
272
     1
279
     2
340
9B
341
91
342
91
  0
ENDTAB
  0
TABLE
  2
BLOCK_RECORD
  5
1
330
0
100
AcDbSymbolTable
 70
    19
  0
BLOCK_RECORD
  5
2
102
{ACAD_XDICTIONARY
360
3
102
}
330
1
100
AcDbSymbolTableRecord
100
AcDbBlockTableRecord
  2
*Model_Space
340
1C0
  0
BLOCK_RECORD
  5
1C3
102
{ACAD_XDICTIONARY
360
1C4
102
}
330
1
100
AcDbSymbolTableRecord
100
AcDbBlockTableRecord
  2
*Paper_Space
340
1C7
  0
BLOCK_RECORD
  5
91
102
{ACAD_XDICTIONARY
360
92
102
}
330
1
100
AcDbSymbolTableRecord
100
AcDbBlockTableRecord
  2
B-DIM
340
0
310
2800000020000000200000000100080000000000000400000000000000000000000000000000000000000000000080000080000000808000800000008000800080800000C0C0C000C0DCC000F0CAA6000020400000206000002080000020A0000020C0000020E00000400000004020000040400000406000004080000040A0
310
000040C0000040E00000600000006020000060400000606000006080000060A0000060C0000060E00000800000008020000080400000806000008080000080A0000080C0000080E00000A0000000A0200000A0400000A0600000A0800000A0A00000A0C00000A0E00000C0000000C0200000C0400000C0600000C0800000C0
310
A00000C0C00000C0E00000E0000000E0200000E0400000E0600000E0800000E0A00000E0C00000E0E00040000000400020004000400040006000400080004000A0004000C0004000E00040200000402020004020400040206000402080004020A0004020C0004020E000404000004040200040404000404060004040800040
310
40A0004040C0004040E00040600000406020004060400040606000406080004060A0004060C0004060E00040800000408020004080400040806000408080004080A0004080C0004080E00040A0000040A0200040A0400040A0600040A0800040A0A00040A0C00040A0E00040C0000040C0200040C0400040C0600040C08000
310
40C0A00040C0C00040C0E00040E0000040E0200040E0400040E0600040E0800040E0A00040E0C00040E0E00080000000800020008000400080006000800080008000A0008000C0008000E00080200000802020008020400080206000802080008020A0008020C0008020E00080400000804020008040400080406000804080
310
008040A0008040C0008040E00080600000806020008060400080606000806080008060A0008060C0008060E00080800000808020008080400080806000808080008080A0008080C0008080E00080A0000080A0200080A0400080A0600080A0800080A0A00080A0C00080A0E00080C0000080C0200080C0400080C0600080C0
310
800080C0A00080C0C00080C0E00080E0000080E0200080E0400080E0600080E0800080E0A00080E0C00080E0E000C0000000C0002000C0004000C0006000C0008000C000A000C000C000C000E000C0200000C0202000C0204000C0206000C0208000C020A000C020C000C020E000C0400000C0402000C0404000C0406000C0
310
408000C040A000C040C000C040E000C0600000C0602000C0604000C0606000C0608000C060A000C060C000C060E000C0800000C0802000C0804000C0806000C0808000C080A000C080C000C080E000C0A00000C0A02000C0A04000C0A06000C0A08000C0A0A000C0A0C000C0A0E000C0C00000C0C02000C0C04000C0C06000
310
C0C08000C0C0A000F0FBFF00A4A0A000808080000000FF0000FF000000FFFF00FF000000FF00FF00FFFF0000FFFFFF0000000000000000000000000000000000000000000000000000000000000000000000000000000000000000000000000000000000000000000000000000000000000000000000000000000000000000
310
000000000000000000000000000000000000000000000000000000000000000000F900000000000000000000000000000000000000000000000000000000000000F900000000000000000000000000000000000000000000000000000000000000F90000000000000000000000000000000000000000000000F90000000000
310
0000F900000000000000000000000000000000000000000000F900F9000000000000F9000000000000000000000000000000000000000000F9000000F90000000000F900000000000000000000000000000000000000000000F9000000F900000000F90000000000000000000000000000000000000000000000F9000000F9
310
000000F9000000000000000000000000000000000000000000000000F9000000F90000F900000000000000000000000000000000000000000000000000F9000000F900F90000000000000000000000000000000000000000000000000000F9000000F9F9000000000000000000000000000000000000000000000000000000
310
F9000000F900000000000000000000000000000000000000000000000000000000F90000F9F9000000000000000000000000000000F9F9F9F9F9F9F9F9F9F9F9F9F9F9F9F9F9F9F9F9F9F9F9F9F9F9F9F9F9F900000000000000000000000000000000F9F90000F90000000000000000000000000000000000000000000000
310
0000000000F9000000F9000000000000000000000000000000000000000000000000000000F9F9000000F90000000000000000000000000000000000000000000000000000F900F9000000F900000000000000000000000000000000000000000000000000F90000F9000000F9000000000000000000000000000000000000
310
000000000000F9000000F9000000F90000000000000000000000000000000000000000000000F900000000F9000000F900000000000000000000000000000000000000000000F90000000000F900F90000000000000000000000000000000000000000000000F9000000000000F90000000000000000000000000000000000
310
00000000000000F900000000000000000000000000000000000000000000000000000000000000F900000000000000000000000000000000000000000000000000000000000000F900000000000000000000000000000000000000000000000000000000000000000000000000000000000000000000000000000000000000
310
0000000000000000000000000000000000000000000000000000000000000000000000000000000000000000000000000000000000000000
102
{BLKREFS
331
1B8
331
1B9
331
1AD
331
1AE
331
1A0
331
1A1
331
193
331
194
331
188
331
189
331
179
331
17A
331
16C
331
16D
331
15F
331
160
331
154
331
155
331
147
331
148
331
13A
331
13B
331
CD
331
CE
331
C0
331
C1
331
B5
331
B6
331
A8
331
A9
331
90
331
99
102
}
  0
BLOCK_RECORD
  5
1DE
330
1
100
AcDbSymbolTableRecord
100
AcDbBlockTableRecord
  2
_Dot
340
0
  0
BLOCK_RECORD
  5
1E3
330
1
100
AcDbSymbolTableRecord
100
AcDbBlockTableRecord
  2
B-DIM_K
340
0
310
2800000020000000200000000100080000000000000400000000000000000000000000000000000000000000000080000080000000808000800000008000800080800000C0C0C000C0DCC000F0CAA6000020400000206000002080000020A0000020C0000020E00000400000004020000040400000406000004080000040A0
310
000040C0000040E00000600000006020000060400000606000006080000060A0000060C0000060E00000800000008020000080400000806000008080000080A0000080C0000080E00000A0000000A0200000A0400000A0600000A0800000A0A00000A0C00000A0E00000C0000000C0200000C0400000C0600000C0800000C0
310
A00000C0C00000C0E00000E0000000E0200000E0400000E0600000E0800000E0A00000E0C00000E0E00040000000400020004000400040006000400080004000A0004000C0004000E00040200000402020004020400040206000402080004020A0004020C0004020E000404000004040200040404000404060004040800040
310
40A0004040C0004040E00040600000406020004060400040606000406080004060A0004060C0004060E00040800000408020004080400040806000408080004080A0004080C0004080E00040A0000040A0200040A0400040A0600040A0800040A0A00040A0C00040A0E00040C0000040C0200040C0400040C0600040C08000
310
40C0A00040C0C00040C0E00040E0000040E0200040E0400040E0600040E0800040E0A00040E0C00040E0E00080000000800020008000400080006000800080008000A0008000C0008000E00080200000802020008020400080206000802080008020A0008020C0008020E00080400000804020008040400080406000804080
310
008040A0008040C0008040E00080600000806020008060400080606000806080008060A0008060C0008060E00080800000808020008080400080806000808080008080A0008080C0008080E00080A0000080A0200080A0400080A0600080A0800080A0A00080A0C00080A0E00080C0000080C0200080C0400080C0600080C0
310
800080C0A00080C0C00080C0E00080E0000080E0200080E0400080E0600080E0800080E0A00080E0C00080E0E000C0000000C0002000C0004000C0006000C0008000C000A000C000C000C000E000C0200000C0202000C0204000C0206000C0208000C020A000C020C000C020E000C0400000C0402000C0404000C0406000C0
310
408000C040A000C040C000C040E000C0600000C0602000C0604000C0606000C0608000C060A000C060C000C060E000C0800000C0802000C0804000C0806000C0808000C080A000C080C000C080E000C0A00000C0A02000C0A04000C0A06000C0A08000C0A0A000C0A0C000C0A0E000C0C00000C0C02000C0C04000C0C06000
310
C0C08000C0C0A000F0FBFF00A4A0A000808080000000FF0000FF000000FFFF00FF000000FF00FF00FFFF0000FFFFFF0000000000000000000000000000000000000000000000000000000000000000000000000000000000000000000000000000000000000000000000000000000000000000000000000000000000000000
310
0000000000000000000000000000000000000000000000000000000000000000FF00000000000000000000000000000000000000000000000000000000000000FF00000000000000000000000000000000000000000000000000000000000000FF000000000000000000000000000000000000000000000000000000000000
310
00FF0000000000000000000000000000000000000000000000FF00000000000000FF000000000000000000000000000000000000000000000000FF000000000000FF00000000000000000000000000000000000000000000000000FF0000000000FF0000000000000000000000000000000000000000000000000000FF0000
310
0000FF000000000000000000000000000000000000000000000000000000FF000000FF00000000000000000000000000000000000000000000000000000000FF0000FF0000000000000000000000000000000000000000000000000000000000FF00FF00000000000000000000000000000000000000000000000000000000
310
0000FFFF00000000000000000000000000000000000000000000000000000000000000FF0000000000000000000000000000000000FFFFFFFFFFFFFFFFFFFFFFFFFFFFFFFFFFFFFFFFFFFFFFFFFFFFFFFFFF0000000000000000000000000000000000FF00FF00000000000000000000000000000000000000000000000000
310
00000000FF0000FF00000000000000000000000000000000000000000000000000000000FF000000FF000000000000000000000000000000000000000000000000000000FF00000000FF0000000000000000000000000000000000000000000000000000FF0000000000FF0000000000000000000000000000000000000000
310
0000000000FF000000000000FF000000000000000000000000000000000000000000000000FF00000000000000FF0000000000000000000000000000000000000000000000FF00000000000000000000000000000000000000000000000000000000000000FF00000000000000000000000000000000000000000000000000
310
000000000000FF00000000000000000000000000000000000000000000000000000000000000FF00000000000000000000000000000000000000000000000000000000000000000000000000000000000000000000000000000000000000000000000000000000000000000000000000000000000000000000000000000000
310
0000000000000000000000000000000000000000000000000000000000000000000000000000000000000000000000000000000000000000
1001
ACAD
1000
DesignCenter Data
1002
{
1070
     1
1070
     1
1002
}
  0
BLOCK_RECORD
  5
1B5
330
1
100
AcDbSymbolTableRecord
100
AcDbBlockTableRecord
  2
*D3
340
0
  0
BLOCK_RECORD
  5
1A8
330
1
100
AcDbSymbolTableRecord
100
AcDbBlockTableRecord
  2
*D4
340
0
  0
BLOCK_RECORD
  5
19B
330
1
100
AcDbSymbolTableRecord
100
AcDbBlockTableRecord
  2
*D5
340
0
  0
BLOCK_RECORD
  5
CA
330
1
100
AcDbSymbolTableRecord
100
AcDbBlockTableRecord
  2
*D6
340
0
  0
BLOCK_RECORD
  5
BD
330
1
100
AcDbSymbolTableRecord
100
AcDbBlockTableRecord
  2
*D7
340
0
  0
BLOCK_RECORD
  5
B2
330
1
100
AcDbSymbolTableRecord
100
AcDbBlockTableRecord
  2
*D8
340
0
  0
BLOCK_RECORD
  5
A5
330
1
100
AcDbSymbolTableRecord
100
AcDbBlockTableRecord
  2
*D9
340
0
  0
BLOCK_RECORD
  5
8D
330
1
100
AcDbSymbolTableRecord
100
AcDbBlockTableRecord
  2
*D10
340
0
  0
BLOCK_RECORD
  5
190
330
1
100
AcDbSymbolTableRecord
100
AcDbBlockTableRecord
  2
*D11
340
0
  0
BLOCK_RECORD
  5
183
330
1
100
AcDbSymbolTableRecord
100
AcDbBlockTableRecord
  2
*D12
340
0
  0
BLOCK_RECORD
  5
174
330
1
100
AcDbSymbolTableRecord
100
AcDbBlockTableRecord
  2
*D13
340
0
  0
BLOCK_RECORD
  5
169
330
1
100
AcDbSymbolTableRecord
100
AcDbBlockTableRecord
  2
*D14
340
0
  0
BLOCK_RECORD
  5
15C
330
1
100
AcDbSymbolTableRecord
100
AcDbBlockTableRecord
  2
*D15
340
0
  0
BLOCK_RECORD
  5
151
330
1
100
AcDbSymbolTableRecord
100
AcDbBlockTableRecord
  2
*D16
340
0
  0
BLOCK_RECORD
  5
144
330
1
100
AcDbSymbolTableRecord
100
AcDbBlockTableRecord
  2
*D17
340
0
  0
BLOCK_RECORD
  5
137
330
1
100
AcDbSymbolTableRecord
100
AcDbBlockTableRecord
  2
*D18
340
0
  0
ENDTAB
  0
ENDSEC
  0
SECTION
  2
BLOCKS
  0
BLOCK
  5
5
330
2
100
AcDbEntity
  8
0
100
AcDbBlockBegin
  2
*Model_Space
 70
     0
 10
0.0
 20
0.0
 30
0.0
  3
*Model_Space
  1

  0
ENDBLK
  5
1BF
330
2
100
AcDbEntity
  8
0
100
AcDbBlockEnd
  0
BLOCK
  5
1C5
330
1C3
100
AcDbEntity
 67
     1
  8
0
100
AcDbBlockBegin
  2
*Paper_Space
 70
     0
 10
0.0
 20
0.0
 30
0.0
  3
*Paper_Space
  1

  0
ENDBLK
  5
1C6
330
1C3
100
AcDbEntity
 67
     1
  8
0
100
AcDbBlockEnd
  0
BLOCK
  5
94
330
91
100
AcDbEntity
  8
0
100
AcDbBlockBegin
  2
B-DIM
 70
     0
 10
0.0
 20
0.0
 30
0.0
  3
B-DIM
  1

  0
LINE
  5
95
330
91
100
AcDbEntity
  8
0
 62
     1
100
AcDbLine
 10
0.000000000000091
 20
-1.1
 30
0.0
 11
0.000000000000091
 21
1.1
 31
0.0
  0
LWPOLYLINE
  5
96
330
91
100
AcDbEntity
  8
0
 62
     1
100
AcDbPolyline
 90
        2
 70
     0
 43
0.3
 10
-0.7071067811864851
 20
-0.7071067811864851
 10
0.707106781186576
 20
0.707106781186576
  0
LINE
  5
97
330
91
100
AcDbEntity
  8
0
 62
     1
100
AcDbLine
 10
1.20000000000009
 20
0.0
 30
0.0
 11
-1.199999999999909
 21
0.0
 31
0.0
  0
ENDBLK
  5
98
330
91
100
AcDbEntity
  8
0
100
AcDbBlockEnd
  0
BLOCK
  5
1DF
330
1DE
100
AcDbEntity
  8
0
100
AcDbBlockBegin
  2
_Dot
 70
     0
 10
0.0
 20
0.0
 30
0.0
  3
_Dot
  1

  0
LWPOLYLINE
  5
1E0
330
1DE
100
AcDbEntity
  8
0
  6
ByBlock
 62
     0
100
AcDbPolyline
 90
        2
 70
     1
 43
0.5
 10
-0.25
 20
0.0
 42
1.0
 10
0.25
 20
0.0
 42
1.0
  0
LINE
  5
1E1
330
1DE
100
AcDbEntity
  8
0
  6
ByBlock
 62
     0
370
    -2
100
AcDbLine
 10
-0.5
 20
0.0
 30
0.0
 11
-1.0
 21
0.0
 31
0.0
  0
ENDBLK
  5
1E2
330
1DE
100
AcDbEntity
  8
0
100
AcDbBlockEnd
  0
BLOCK
  5
1E4
330
1E3
100
AcDbEntity
  8
0
 48
4.0
100
AcDbBlockBegin
  2
B-DIM_K
 70
     0
 10
0.0
 20
0.0
 30
0.0
  3
B-DIM_K
  1

  0
LINE
  5
1E5
330
1E3
100
AcDbEntity
  8
0
 62
     7
100
AcDbLine
 10
-0.0000000000002274
 20
-1.100000000000363
 30
0.0
 11
-0.0000000000002274
 21
1.100000000000363
 31
0.0
  0
LWPOLYLINE
  5
1E6
330
1E3
100
AcDbEntity
  8
0
 62
     7
100
AcDbPolyline
 90
        2
 70
     0
 43
0.0
 10
-0.7071067811868943
 20
-0.707106781186667
 10
0.7071067811864396
 20
0.707106781186667
  0
LINE
  5
1E7
330
1E3
100
AcDbEntity
  8
0
 62
     7
100
AcDbLine
 10
1.200000000000045
 20
0.0
 30
0.0
 11
-1.200000000000045
 21
0.0
 31
0.0
  0
ENDBLK
  5
1E8
330
1E3
100
AcDbEntity
  8
0
 48
4.0
100
AcDbBlockEnd
  0
BLOCK
  5
1B6
330
1B5
100
AcDbEntity
  8
0
100
AcDbBlockBegin
  2
*D3
 70
     1
 10
0.0
 20
0.0
 30
0.0
  3
*D3
  1

  0
LINE
  5
1B7
330
1B5
100
AcDbEntity
  8
0
 62
     1
370
    -2
100
AcDbLine
 10
-16501.58975215672
 20
2356.14212126015
 30
0.0
 11
-16501.58975215672
 21
1266.172585475703
 31
0.0
  0
INSERT
  5
1B8
330
1B5
100
AcDbEntity
  8
0
 62
     1
370
    -2
100
AcDbBlockReference
  2
B-DIM
 10
-16501.58975215672
 20
2386.14212126015
 30
0.0
 41
30.0
 42
30.0
 43
30.0
 50
90.0
  0
INSERT
  5
1B9
330
1B5
100
AcDbEntity
  8
0
 62
     1
370
    -2
100
AcDbBlockReference
  2
B-DIM
 10
-16501.58975215672
 20
1236.172585475703
 30
0.0
 41
30.0
 42
30.0
 43
30.0
 50
270.0
  0
MTEXT
  5
1BA
330
1B5
100
AcDbEntity
  8
0
 62
   140
370
     5
100
AcDbMText
 10
-16581.58975215672
 20
1811.157353367924
 30
0.0
 40
80.0
 41
0.0
 71
     5
 72
     1
  1
\A1;1150
  7
RomanS
 11
0.0000000000000001
 21
1.0
 31
0.0
 73
     1
 44
1.0
1001
ACAD
1000
MTEXTBEGIN
1070
    73
1070
     1
1070
    44
1040
1.0
1070
    74
1070
     0
1000
MTEXTEND
  0
POINT
  5
1BB
330
1B5
100
AcDbEntity
  8
Defpoints
 62
     0
100
AcDbPoint
 10
-16660.77882316912
 20
2386.14212126015
 30
0.0
  0
POINT
  5
1BC
330
1B5
100
AcDbEntity
  8
Defpoints
 62
     0
100
AcDbPoint
 10
-16660.77882316912
 20
1236.172585475703
 30
0.0
  0
POINT
  5
1BD
330
1B5
100
AcDbEntity
  8
Defpoints
 62
     0
100
AcDbPoint
 10
-16501.58975215672
 20
1236.172585475703
 30
0.0
  0
ENDBLK
  5
1BE
330
1B5
100
AcDbEntity
  8
0
100
AcDbBlockEnd
  0
BLOCK
  5
1A9
330
1A8
100
AcDbEntity
  8
0
100
AcDbBlockBegin
  2
*D4
 70
     1
 10
0.0
 20
0.0
 30
0.0
  3
*D4
  1

  0
LINE
  5
1AA
330
1A8
100
AcDbEntity
  8
0
 62
     1
370
    -2
100
AcDbLine
 10
-16693.77882316912
 20
1366.142121260143
 30
0.0
 11
-16693.77882316912
 21
1396.142121260143
 31
0.0
  0
LINE
  5
1AB
330
1A8
100
AcDbEntity
  8
0
 62
     1
370
    -2
100
AcDbLine
 10
-16693.77882316912
 20
1206.172585475704
 30
0.0
 11
-16693.77882316912
 21
1176.172585475704
 31
0.0
  0
LINE
  5
1AC
330
1A8
100
AcDbEntity
  8
0
 62
     1
370
    -2
100
AcDbLine
 10
-16693.77882316912
 20
1336.142121260143
 30
0.0
 11
-16693.77882316912
 21
1236.172585475704
 31
0.0
  0
INSERT
  5
1AD
330
1A8
100
AcDbEntity
  8
0
 62
     1
370
    -2
100
AcDbBlockReference
  2
B-DIM
 10
-16693.77882316912
 20
1336.142121260143
 30
0.0
 41
30.0
 42
30.0
 43
30.0
 50
270.0
  0
INSERT
  5
1AE
330
1A8
100
AcDbEntity
  8
0
 62
     1
370
    -2
100
AcDbBlockReference
  2
B-DIM
 10
-16693.77882316912
 20
1236.172585475704
 30
0.0
 41
30.0
 42
30.0
 43
30.0
 50
90.0
  0
MTEXT
  5
1AF
330
1A8
100
AcDbEntity
  8
0
 62
   140
370
     5
100
AcDbMText
 10
-16773.77882316912
 20
1286.157353367921
 30
0.0
 40
80.0
 41
0.0
 71
     5
 72
     1
  1
\A1;100
  7
RomanS
 11
0.0000000000000001
 21
1.0
 31
0.0
 73
     1
 44
1.0
1001
ACAD
1000
MTEXTBEGIN
1070
    73
1070
     1
1070
    44
1040
1.0
1070
    74
1070
     0
1000
MTEXTEND
  0
POINT
  5
1B0
330
1A8
100
AcDbEntity
  8
Defpoints
 62
     0
100
AcDbPoint
 10
-17563.54419966847
 20
1336.142121260143
 30
0.0
  0
POINT
  5
1B1
330
1A8
100
AcDbEntity
  8
Defpoints
 62
     0
100
AcDbPoint
 10
-17568.54419966861
 20
1236.172585475704
 30
-0.4000000000000057
  0
POINT
  5
1B2
330
1A8
100
AcDbEntity
  8
Defpoints
 62
     0
100
AcDbPoint
 10
-16693.77882316912
 20
1236.172585475704
 30
0.0
  0
ENDBLK
  5
1B3
330
1A8
100
AcDbEntity
  8
0
100
AcDbBlockEnd
  0
BLOCK
  5
19C
330
19B
100
AcDbEntity
  8
0
100
AcDbBlockBegin
  2
*D5
 70
     1
 10
0.0
 20
0.0
 30
0.0
  3
*D5
  1

  0
LINE
  5
19D
330
19B
100
AcDbEntity
  8
0
 62
     1
370
    -2
100
AcDbLine
 10
-16693.77882316912
 20
2256.142121260156
 30
0.0
 11
-16693.77882316912
 21
2226.142121260156
 31
0.0
  0
LINE
  5
19E
330
19B
100
AcDbEntity
  8
0
 62
     1
370
    -2
100
AcDbLine
 10
-16693.77882316912
 20
2416.142121260156
 30
0.0
 11
-16693.77882316912
 21
2446.142121260156
 31
0.0
  0
LINE
  5
19F
330
19B
100
AcDbEntity
  8
0
 62
     1
370
    -2
100
AcDbLine
 10
-16693.77882316912
 20
2286.142121260156
 30
0.0
 11
-16693.77882316912
 21
2386.142121260156
 31
0.0
  0
INSERT
  5
1A0
330
19B
100
AcDbEntity
  8
0
 62
     1
370
    -2
100
AcDbBlockReference
  2
B-DIM
 10
-16693.77882316912
 20
2286.142121260156
 30
0.0
 41
30.0
 42
30.0
 43
30.0
 50
90.0
  0
INSERT
  5
1A1
330
19B
100
AcDbEntity
  8
0
 62
     1
370
    -2
100
AcDbBlockReference
  2
B-DIM
 10
-16693.77882316912
 20
2386.142121260156
 30
0.0
 41
30.0
 42
30.0
 43
30.0
 50
270.0
  0
MTEXT
  5
1A2
330
19B
100
AcDbEntity
  8
0
 62
   140
370
     5
100
AcDbMText
 10
-16773.77882316912
 20
2336.142121260153
 30
0.0
 40
80.0
 41
0.0
 71
     5
 72
     1
  1
\A1;100
  7
RomanS
 11
0.0000000000000001
 21
1.0
 31
0.0
 73
     1
 44
1.0
1001
ACAD
1000
MTEXTBEGIN
1070
    73
1070
     1
1070
    44
1040
1.0
1070
    74
1070
     0
1000
MTEXTEND
  0
POINT
  5
1A3
330
19B
100
AcDbEntity
  8
Defpoints
 62
     0
100
AcDbPoint
 10
-17539.54419966861
 20
2286.142121260156
 30
0.0
  0
POINT
  5
1A4
330
19B
100
AcDbEntity
  8
Defpoints
 62
     0
100
AcDbPoint
 10
-17539.54419966861
 20
2386.142121260157
 30
0.0
  0
POINT
  5
1A5
330
19B
100
AcDbEntity
  8
Defpoints
 62
     0
100
AcDbPoint
 10
-16693.77882316912
 20
2386.142121260156
 30
0.0
  0
ENDBLK
  5
1A6
330
19B
100
AcDbEntity
  8
0
100
AcDbBlockEnd
  0
BLOCK
  5
CB
330
CA
100
AcDbEntity
  8
0
100
AcDbBlockBegin
  2
*D6
 70
     1
 10
0.0
 20
0.0
 30
0.0
  3
*D6
  1

  0
LINE
  5
CC
330
CA
100
AcDbEntity
  8
0
 62
     1
370
    -2
100
AcDbLine
 10
-16693.77882316912
 20
2256.142121260149
 30
0.0
 11
-16693.77882316912
 21
1366.142121260149
 31
0.0
  0
INSERT
  5
CD
330
CA
100
AcDbEntity
  8
0
 62
     1
370
    -2
100
AcDbBlockReference
  2
B-DIM
 10
-16693.77882316912
 20
2286.142121260149
 30
0.0
 41
30.0
 42
30.0
 43
30.0
 50
90.0
  0
INSERT
  5
CE
330
CA
100
AcDbEntity
  8
0
 62
     1
370
    -2
100
AcDbBlockReference
  2
B-DIM
 10
-16693.77882316912
 20
1336.142121260149
 30
0.0
 41
30.0
 42
30.0
 43
30.0
 50
270.0
  0
MTEXT
  5
CF
330
CA
100
AcDbEntity
  8
0
 62
   140
370
     5
100
AcDbMText
 10
-16773.77882316912
 20
1811.142121260147
 30
0.0
 40
80.0
 41
0.0
 71
     5
 72
     1
  1
\A1;950
  7
RomanS
 11
0.0000000000000001
 21
1.0
 31
0.0
 73
     1
 44
1.0
1001
ACAD
1000
MTEXTBEGIN
1070
    73
1070
     1
1070
    44
1040
1.0
1070
    74
1070
     0
1000
MTEXTEND
  0
POINT
  5
D0
330
CA
100
AcDbEntity
  8
Defpoints
 62
     0
100
AcDbPoint
 10
-17203.54419966861
 20
2286.142121260149
 30
0.0
  0
POINT
  5
D1
330
CA
100
AcDbEntity
  8
Defpoints
 62
     0
100
AcDbPoint
 10
-17203.54419966861
 20
1336.142121260149
 30
0.0
  0
POINT
  5
D2
330
CA
100
AcDbEntity
  8
Defpoints
 62
     0
100
AcDbPoint
 10
-16693.77882316912
 20
1336.142121260149
 30
0.0
  0
ENDBLK
  5
D3
330
CA
100
AcDbEntity
  8
0
100
AcDbBlockEnd
  0
BLOCK
  5
BE
330
BD
100
AcDbEntity
  8
0
100
AcDbBlockBegin
  2
*D7
 70
     1
 10
0.0
 20
0.0
 30
0.0
  3
*D7
  1

  0
LINE
  5
BF
330
BD
100
AcDbEntity
  8
0
 62
     1
370
    -2
100
AcDbLine
 10
-18273.54419966862
 20
2835.570271963973
 30
0.0
 11
-17233.45656137079
 21
2835.570271963973
 31
0.0
  0
INSERT
  5
C0
330
BD
100
AcDbEntity
  8
0
 62
     1
370
    -2
100
AcDbBlockReference
  2
B-DIM
 10
-18303.54419966861
 20
2835.570271963973
 30
0.0
 41
30.0
 42
30.0
 43
30.0
 50
180.0
  0
INSERT
  5
C1
330
BD
100
AcDbEntity
  8
0
 62
     1
370
    -2
100
AcDbBlockReference
  2
B-DIM
 10
-17203.45656137079
 20
2835.570271963973
 30
0.0
 41
30.0
 42
30.0
 43
30.0
  0
MTEXT
  5
C2
330
BD
100
AcDbEntity
  8
0
 62
   140
370
     5
100
AcDbMText
 10
-17753.5003805197
 20
2915.570271963973
 30
0.0
 40
80.0
 41
0.0
 71
     5
 72
     1
  1
\A1;1100
  7
RomanS
 73
     1
 44
1.0
1001
ACAD
1000
MTEXTBEGIN
1070
    73
1070
     1
1070
    44
1040
1.0
1070
    74
1070
     0
1000
MTEXTEND
  0
POINT
  5
C3
330
BD
100
AcDbEntity
  8
Defpoints
 62
     0
100
AcDbPoint
 10
-18303.54419966861
 20
2640.422226369023
 30
-0.0000000000013977
  0
POINT
  5
C4
330
BD
100
AcDbEntity
  8
Defpoints
 62
     0
100
AcDbPoint
 10
-17203.45656137079
 20
2624.742734444715
 30
0.0
  0
POINT
  5
C5
330
BD
100
AcDbEntity
  8
Defpoints
 62
     0
100
AcDbPoint
 10
-17203.45656137079
 20
2835.570271963973
 30
0.0
  0
ENDBLK
  5
C6
330
BD
100
AcDbEntity
  8
0
100
AcDbBlockEnd
  0
BLOCK
  5
B3
330
B2
100
AcDbEntity
  8
0
100
AcDbBlockBegin
  2
*D8
 70
     1
 10
0.0
 20
0.0
 30
0.0
  3
*D8
  1

  0
LINE
  5
B4
330
B2
100
AcDbEntity
  8
0
 62
     1
370
    -2
100
AcDbLine
 10
-17509.54419966861
 20
2657.742734444715
 30
0.0
 11
-17233.45656137079
 21
2657.742734444715
 31
0.0
  0
INSERT
  5
B5
330
B2
100
AcDbEntity
  8
0
 62
     1
370
    -2
100
AcDbBlockReference
  2
B-DIM
 10
-17539.54419966861
 20
2657.742734444715
 30
0.0
 41
30.0
 42
30.0
 43
30.0
 50
180.0
  0
INSERT
  5
B6
330
B2
100
AcDbEntity
  8
0
 62
     1
370
    -2
100
AcDbBlockReference
  2
B-DIM
 10
-17203.45656137079
 20
2657.742734444715
 30
0.0
 41
30.0
 42
30.0
 43
30.0
  0
MTEXT
  5
B7
330
B2
100
AcDbEntity
  8
0
 62
   140
370
     5
100
AcDbMText
 10
-17371.5003805197
 20
2737.742734444716
 30
0.0
 40
80.0
 41
0.0
 71
     5
 72
     1
  1
\A1;336
  7
RomanS
 73
     1
 44
1.0
1001
ACAD
1000
MTEXTBEGIN
1070
    73
1070
     1
1070
    44
1040
1.0
1070
    74
1070
     0
1000
MTEXTEND
  0
POINT
  5
B8
330
B2
100
AcDbEntity
  8
Defpoints
 62
     0
100
AcDbPoint
 10
-17539.54419966861
 20
2286.142121260149
 30
0.0
  0
POINT
  5
B9
330
B2
100
AcDbEntity
  8
Defpoints
 62
     0
100
AcDbPoint
 10
-17203.45656137079
 20
2286.096095843149
 30
0.0
  0
POINT
  5
BA
330
B2
100
AcDbEntity
  8
Defpoints
 62
     0
100
AcDbPoint
 10
-17203.45656137079
 20
2657.742734444715
 30
0.0
  0
ENDBLK
  5
BB
330
B2
100
AcDbEntity
  8
0
100
AcDbBlockEnd
  0
BLOCK
  5
A6
330
A5
100
AcDbEntity
  8
0
100
AcDbBlockBegin
  2
*D9
 70
     1
 10
0.0
 20
0.0
 30
0.0
  3
*D9
  1

  0
LINE
  5
A7
330
A5
100
AcDbEntity
  8
0
 62
     1
370
    -2
100
AcDbLine
 10
-17937.54419966861
 20
2657.742734444715
 30
0.0
 11
-17569.54419966861
 21
2657.742734444715
 31
0.0
  0
INSERT
  5
A8
330
A5
100
AcDbEntity
  8
0
 62
     1
370
    -2
100
AcDbBlockReference
  2
B-DIM
 10
-17967.54419966861
 20
2657.742734444715
 30
0.0
 41
30.0
 42
30.0
 43
30.0
 50
180.0
  0
INSERT
  5
A9
330
A5
100
AcDbEntity
  8
0
 62
     1
370
    -2
100
AcDbBlockReference
  2
B-DIM
 10
-17539.54419966861
 20
2657.742734444715
 30
0.0
 41
30.0
 42
30.0
 43
30.0
  0
MTEXT
  5
AA
330
A5
100
AcDbEntity
  8
0
 62
   140
370
     5
100
AcDbMText
 10
-17753.54419966861
 20
2737.742734444716
 30
0.0
 40
80.0
 41
0.0
 71
     5
 72
     1
  1
\A1;428
  7
RomanS
 73
     1
 44
1.0
1001
ACAD
1000
MTEXTBEGIN
1070
    73
1070
     1
1070
    44
1040
1.0
1070
    74
1070
     0
1000
MTEXTEND
  0
POINT
  5
AB
330
A5
100
AcDbEntity
  8
Defpoints
 62
     0
100
AcDbPoint
 10
-17967.54419966861
 20
2386.142121260149
 30
0.0
  0
POINT
  5
AC
330
A5
100
AcDbEntity
  8
Defpoints
 62
     0
100
AcDbPoint
 10
-17539.54419966861
 20
2386.142121260149
 30
0.0
  0
POINT
  5
AD
330
A5
100
AcDbEntity
  8
Defpoints
 62
     0
100
AcDbPoint
 10
-17539.54419966861
 20
2657.742734444715
 30
0.0
  0
ENDBLK
  5
AE
330
A5
100
AcDbEntity
  8
0
100
AcDbBlockEnd
  0
BLOCK
  5
8E
330
8D
100
AcDbEntity
  8
0
100
AcDbBlockBegin
  2
*D10
 70
     1
 10
0.0
 20
0.0
 30
0.0
  3
*D10
  1

  0
LINE
  5
8F
330
8D
100
AcDbEntity
  8
0
 62
     1
370
    -2
100
AcDbLine
 10
-18273.54419966861
 20
2657.742734444715
 30
-0.0000000000006988
 11
-17997.54419966861
 21
2657.742734444715
 31
-0.0000000000006988
  0
INSERT
  5
90
330
8D
100
AcDbEntity
  8
0
 62
     1
370
    -2
100
AcDbBlockReference
  2
B-DIM
 10
-18303.54419966861
 20
2657.742734444715
 30
-0.0000000000006988
 41
30.0
 42
30.0
 43
30.0
 50
180.0
  0
INSERT
  5
99
330
8D
100
AcDbEntity
  8
0
 62
     1
370
    -2
100
AcDbBlockReference
  2
B-DIM
 10
-17967.54419966861
 20
2657.742734444715
 30
-0.0000000000006988
 41
30.0
 42
30.0
 43
30.0
  0
MTEXT
  5
9A
330
8D
100
AcDbEntity
  8
0
 62
   140
370
     5
100
AcDbMText
 10
-18135.54419966861
 20
2737.742734444716
 30
-0.0000000000006988
 40
80.0
 41
0.0
 71
     5
 72
     1
  1
\A1;336
  7
RomanS
 73
     1
 44
1.0
1001
ACAD
1000
MTEXTBEGIN
1070
    73
1070
     1
1070
    44
1040
1.0
1070
    74
1070
     0
1000
MTEXTEND
  0
POINT
  5
9C
330
8D
100
AcDbEntity
  8
Defpoints
 62
     0
100
AcDbPoint
 10
-18303.54419966861
 20
2286.142121260149
 30
0.0
  0
POINT
  5
9E
330
8D
100
AcDbEntity
  8
Defpoints
 62
     0
100
AcDbPoint
 10
-17967.54419966861
 20
2286.142121260149
 30
-0.0000000000006988
  0
POINT
  5
9F
330
8D
100
AcDbEntity
  8
Defpoints
 62
     0
100
AcDbPoint
 10
-17967.54419966861
 20
2657.742734444715
 30
-0.0000000000006988
  0
ENDBLK
  5
A0
330
8D
100
AcDbEntity
  8
0
100
AcDbBlockEnd
  0
BLOCK
  5
191
330
190
100
AcDbEntity
  8
0
100
AcDbBlockBegin
  2
*D11
 70
     1
 10
0.0
 20
0.0
 30
0.0
  3
*D11
  1

  0
LINE
  5
192
330
190
100
AcDbEntity
  8
0
 62
     1
370
    -2
100
AcDbLine
 10
-14934.05796331187
 20
2356.142121260146
 30
0.0
 11
-14934.05796331187
 21
1266.1725854757
 31
0.0
  0
INSERT
  5
193
330
190
100
AcDbEntity
  8
0
 62
     1
370
    -2
100
AcDbBlockReference
  2
B-DIM
 10
-14934.05796331187
 20
2386.142121260146
 30
0.0
 41
30.0
 42
30.0
 43
30.0
 50
90.0
  0
INSERT
  5
194
330
190
100
AcDbEntity
  8
0
 62
     1
370
    -2
100
AcDbBlockReference
  2
B-DIM
 10
-14934.05796331187
 20
1236.1725854757
 30
0.0
 41
30.0
 42
30.0
 43
30.0
 50
270.0
  0
MTEXT
  5
195
330
190
100
AcDbEntity
  8
0
 62
   140
370
     5
100
AcDbMText
 10
-15014.05796331187
 20
1811.15735336792
 30
0.0
 40
80.0
 41
0.0
 71
     5
 72
     1
  1
\A1;1150
  7
RomanS
 11
0.0000000000000001
 21
1.0
 31
0.0
 73
     1
 44
1.0
1001
ACAD
1000
MTEXTBEGIN
1070
    73
1070
     1
1070
    44
1040
1.0
1070
    74
1070
     0
1000
MTEXTEND
  0
POINT
  5
196
330
190
100
AcDbEntity
  8
Defpoints
 62
     0
100
AcDbPoint
 10
-14774.86889229948
 20
2386.142121260146
 30
0.0
  0
POINT
  5
197
330
190
100
AcDbEntity
  8
Defpoints
 62
     0
100
AcDbPoint
 10
-14774.86889229948
 20
1236.172585475699
 30
0.0
  0
POINT
  5
198
330
190
100
AcDbEntity
  8
Defpoints
 62
     0
100
AcDbPoint
 10
-14934.05796331187
 20
1236.1725854757
 30
0.0
  0
ENDBLK
  5
199
330
190
100
AcDbEntity
  8
0
100
AcDbBlockEnd
  0
BLOCK
  5
184
330
183
100
AcDbEntity
  8
0
100
AcDbBlockBegin
  2
*D12
 70
     1
 10
0.0
 20
0.0
 30
0.0
  3
*D12
  1

  0
LINE
  5
185
330
183
100
AcDbEntity
  8
0
 62
     1
370
    -2
100
AcDbLine
 10
-14741.86889229947
 20
1366.142121260136
 30
0.0
 11
-14741.86889229947
 21
1396.142121260136
 31
0.0
  0
LINE
  5
186
330
183
100
AcDbEntity
  8
0
 62
     1
370
    -2
100
AcDbLine
 10
-14741.86889229947
 20
1206.172585475697
 30
0.0
 11
-14741.86889229947
 21
1176.172585475697
 31
0.0
  0
LINE
  5
187
330
183
100
AcDbEntity
  8
0
 62
     1
370
    -2
100
AcDbLine
 10
-14741.86889229947
 20
1336.142121260136
 30
0.0
 11
-14741.86889229947
 21
1236.172585475697
 31
0.0
  0
INSERT
  5
188
330
183
100
AcDbEntity
  8
0
 62
     1
370
    -2
100
AcDbBlockReference
  2
B-DIM
 10
-14741.86889229947
 20
1336.142121260136
 30
0.0
 41
30.0
 42
30.0
 43
30.0
 50
270.0
  0
INSERT
  5
189
330
183
100
AcDbEntity
  8
0
 62
     1
370
    -2
100
AcDbBlockReference
  2
B-DIM
 10
-14741.86889229947
 20
1236.172585475697
 30
0.0
 41
30.0
 42
30.0
 43
30.0
 50
90.0
  0
MTEXT
  5
18A
330
183
100
AcDbEntity
  8
0
 62
   140
370
     5
100
AcDbMText
 10
-14821.86889229947
 20
1286.157353367914
 30
0.0
 40
80.0
 41
0.0
 71
     5
 72
     1
  1
\A1;100
  7
RomanS
 11
0.0000000000000001
 21
1.0
 31
0.0
 73
     1
 44
1.0
1001
ACAD
1000
MTEXTBEGIN
1070
    73
1070
     1
1070
    44
1040
1.0
1070
    74
1070
     0
1000
MTEXTEND
  0
POINT
  5
18B
330
183
100
AcDbEntity
  8
Defpoints
 62
     0
100
AcDbPoint
 10
-13872.10351580012
 20
1336.142121260136
 30
0.0
  0
POINT
  5
18C
330
183
100
AcDbEntity
  8
Defpoints
 62
     0
100
AcDbPoint
 10
-13867.10351579998
 20
1236.172585475697
 30
-0.4000000000000057
  0
POINT
  5
18D
330
183
100
AcDbEntity
  8
Defpoints
 62
     0
100
AcDbPoint
 10
-14741.86889229947
 20
1236.172585475697
 30
0.0
  0
ENDBLK
  5
18E
330
183
100
AcDbEntity
  8
0
100
AcDbBlockEnd
  0
BLOCK
  5
175
330
174
100
AcDbEntity
  8
0
100
AcDbBlockBegin
  2
*D13
 70
     1
 10
0.0
 20
0.0
 30
0.0
  3
*D13
  1

  0
LINE
  5
176
330
174
100
AcDbEntity
  8
0
 62
     1
370
    -2
100
AcDbLine
 10
-14741.86889229947
 20
2256.142121260149
 30
0.0
 11
-14741.86889229947
 21
2226.142121260149
 31
0.0
  0
LINE
  5
177
330
174
100
AcDbEntity
  8
0
 62
     1
370
    -2
100
AcDbLine
 10
-14741.86889229947
 20
2416.142121260149
 30
0.0
 11
-14741.86889229947
 21
2446.142121260149
 31
0.0
  0
LINE
  5
178
330
174
100
AcDbEntity
  8
0
 62
     1
370
    -2
100
AcDbLine
 10
-14741.86889229947
 20
2286.142121260149
 30
0.0
 11
-14741.86889229947
 21
2386.142121260149
 31
0.0
  0
INSERT
  5
179
330
174
100
AcDbEntity
  8
0
 62
     1
370
    -2
100
AcDbBlockReference
  2
B-DIM
 10
-14741.86889229947
 20
2286.142121260149
 30
0.0
 41
30.0
 42
30.0
 43
30.0
 50
90.0
  0
INSERT
  5
17A
330
174
100
AcDbEntity
  8
0
 62
     1
370
    -2
100
AcDbBlockReference
  2
B-DIM
 10
-14741.86889229947
 20
2386.142121260149
 30
0.0
 41
30.0
 42
30.0
 43
30.0
 50
270.0
  0
MTEXT
  5
17B
330
174
100
AcDbEntity
  8
0
 62
   140
370
     5
100
AcDbMText
 10
-14821.86889229947
 20
2336.142121260147
 30
0.0
 40
80.0
 41
0.0
 71
     5
 72
     1
  1
\A1;100
  7
RomanS
 11
0.0000000000000001
 21
1.0
 31
0.0
 73
     1
 44
1.0
1001
ACAD
1000
MTEXTBEGIN
1070
    73
1070
     1
1070
    44
1040
1.0
1070
    74
1070
     0
1000
MTEXTEND
  0
POINT
  5
17C
330
174
100
AcDbEntity
  8
Defpoints
 62
     0
100
AcDbPoint
 10
-13896.10351579998
 20
2286.142121260149
 30
0.0
  0
POINT
  5
17D
330
174
100
AcDbEntity
  8
Defpoints
 62
     0
100
AcDbPoint
 10
-13896.10351579998
 20
2386.142121260149
 30
0.0
  0
POINT
  5
17E
330
174
100
AcDbEntity
  8
Defpoints
 62
     0
100
AcDbPoint
 10
-14741.86889229947
 20
2386.142121260149
 30
0.0
  0
ENDBLK
  5
17F
330
174
100
AcDbEntity
  8
0
100
AcDbBlockEnd
  0
BLOCK
  5
16A
330
169
100
AcDbEntity
  8
0
100
AcDbBlockBegin
  2
*D14
 70
     1
 10
0.0
 20
0.0
 30
0.0
  3
*D14
  1

  0
LINE
  5
16B
330
169
100
AcDbEntity
  8
0
 62
     1
370
    -2
100
AcDbLine
 10
-14741.86889229947
 20
2256.142121260149
 30
0.0
 11
-14741.86889229947
 21
1366.142121260149
 31
0.0
  0
INSERT
  5
16C
330
169
100
AcDbEntity
  8
0
 62
     1
370
    -2
100
AcDbBlockReference
  2
B-DIM
 10
-14741.86889229947
 20
2286.142121260149
 30
0.0
 41
30.0
 42
30.0
 43
30.0
 50
90.0
  0
INSERT
  5
16D
330
169
100
AcDbEntity
  8
0
 62
     1
370
    -2
100
AcDbBlockReference
  2
B-DIM
 10
-14741.86889229947
 20
1336.142121260149
 30
0.0
 41
30.0
 42
30.0
 43
30.0
 50
270.0
  0
MTEXT
  5
16E
330
169
100
AcDbEntity
  8
0
 62
   140
370
     5
100
AcDbMText
 10
-14821.86889229947
 20
1811.142121260147
 30
0.0
 40
80.0
 41
0.0
 71
     5
 72
     1
  1
\A1;950
  7
RomanS
 11
0.0000000000000001
 21
1.0
 31
0.0
 73
     1
 44
1.0
1001
ACAD
1000
MTEXTBEGIN
1070
    73
1070
     1
1070
    44
1040
1.0
1070
    74
1070
     0
1000
MTEXTEND
  0
POINT
  5
16F
330
169
100
AcDbEntity
  8
Defpoints
 62
     0
100
AcDbPoint
 10
-14232.10351579998
 20
2286.142121260149
 30
0.0
  0
POINT
  5
170
330
169
100
AcDbEntity
  8
Defpoints
 62
     0
100
AcDbPoint
 10
-14232.10351579998
 20
1336.142121260149
 30
0.0
  0
POINT
  5
171
330
169
100
AcDbEntity
  8
Defpoints
 62
     0
100
AcDbPoint
 10
-14741.86889229947
 20
1336.142121260149
 30
0.0
  0
ENDBLK
  5
172
330
169
100
AcDbEntity
  8
0
100
AcDbBlockEnd
  0
BLOCK
  5
15D
330
15C
100
AcDbEntity
  8
0
100
AcDbBlockBegin
  2
*D15
 70
     1
 10
0.0
 20
0.0
 30
0.0
  3
*D15
  1

  0
LINE
  5
15E
330
15C
100
AcDbEntity
  8
0
 62
     1
370
    -2
100
AcDbLine
 10
-13162.10351579998
 20
2835.570271963973
 30
0.0
 11
-14202.19115409781
 21
2835.570271963973
 31
0.0
  0
INSERT
  5
15F
330
15C
100
AcDbEntity
  8
0
 62
     1
370
    -2
100
AcDbBlockReference
  2
B-DIM
 10
-13132.10351579998
 20
2835.570271963973
 30
0.0
 41
30.0
 42
30.0
 43
30.0
  0
INSERT
  5
160
330
15C
100
AcDbEntity
  8
0
 62
     1
370
    -2
100
AcDbBlockReference
  2
B-DIM
 10
-14232.19115409781
 20
2835.570271963973
 30
0.0
 41
30.0
 42
30.0
 43
30.0
 50
180.0
  0
MTEXT
  5
161
330
15C
100
AcDbEntity
  8
0
 62
   140
370
     5
100
AcDbMText
 10
-13682.14733494889
 20
2915.570271963973
 30
0.0
 40
80.0
 41
0.0
 71
     5
 72
     1
  1
\A1;1100
  7
RomanS
 73
     1
 44
1.0
1001
ACAD
1000
MTEXTBEGIN
1070
    73
1070
     1
1070
    44
1040
1.0
1070
    74
1070
     0
1000
MTEXTEND
  0
POINT
  5
162
330
15C
100
AcDbEntity
  8
Defpoints
 62
     0
100
AcDbPoint
 10
-13132.10351579998
 20
2640.422226369023
 30
-0.0000000000013977
  0
POINT
  5
163
330
15C
100
AcDbEntity
  8
Defpoints
 62
     0
100
AcDbPoint
 10
-14232.19115409781
 20
2624.742734444715
 30
0.0
  0
POINT
  5
164
330
15C
100
AcDbEntity
  8
Defpoints
 62
     0
100
AcDbPoint
 10
-14232.19115409781
 20
2835.570271963973
 30
0.0
  0
ENDBLK
  5
165
330
15C
100
AcDbEntity
  8
0
100
AcDbBlockEnd
  0
BLOCK
  5
152
330
151
100
AcDbEntity
  8
0
100
AcDbBlockBegin
  2
*D16
 70
     1
 10
0.0
 20
0.0
 30
0.0
  3
*D16
  1

  0
LINE
  5
153
330
151
100
AcDbEntity
  8
0
 62
     1
370
    -2
100
AcDbLine
 10
-13926.10351579999
 20
2657.742734444715
 30
0.0
 11
-14202.19115409781
 21
2657.742734444715
 31
0.0
  0
INSERT
  5
154
330
151
100
AcDbEntity
  8
0
 62
     1
370
    -2
100
AcDbBlockReference
  2
B-DIM
 10
-13896.10351579998
 20
2657.742734444715
 30
0.0
 41
30.0
 42
30.0
 43
30.0
  0
INSERT
  5
155
330
151
100
AcDbEntity
  8
0
 62
     1
370
    -2
100
AcDbBlockReference
  2
B-DIM
 10
-14232.19115409781
 20
2657.742734444715
 30
0.0
 41
30.0
 42
30.0
 43
30.0
 50
180.0
  0
MTEXT
  5
156
330
151
100
AcDbEntity
  8
0
 62
   140
370
     5
100
AcDbMText
 10
-14064.1473349489
 20
2737.742734444716
 30
0.0
 40
80.0
 41
0.0
 71
     5
 72
     1
  1
\A1;336
  7
RomanS
 73
     1
 44
1.0
1001
ACAD
1000
MTEXTBEGIN
1070
    73
1070
     1
1070
    44
1040
1.0
1070
    74
1070
     0
1000
MTEXTEND
  0
POINT
  5
157
330
151
100
AcDbEntity
  8
Defpoints
 62
     0
100
AcDbPoint
 10
-13896.10351579998
 20
2286.142121260149
 30
0.0
  0
POINT
  5
158
330
151
100
AcDbEntity
  8
Defpoints
 62
     0
100
AcDbPoint
 10
-14232.19115409781
 20
2286.096095843149
 30
0.0
  0
POINT
  5
159
330
151
100
AcDbEntity
  8
Defpoints
 62
     0
100
AcDbPoint
 10
-14232.19115409781
 20
2657.742734444715
 30
0.0
  0
ENDBLK
  5
15A
330
151
100
AcDbEntity
  8
0
100
AcDbBlockEnd
  0
BLOCK
  5
145
330
144
100
AcDbEntity
  8
0
100
AcDbBlockBegin
  2
*D17
 70
     1
 10
0.0
 20
0.0
 30
0.0
  3
*D17
  1

  0
LINE
  5
146
330
144
100
AcDbEntity
  8
0
 62
     1
370
    -2
100
AcDbLine
 10
-13498.10351579999
 20
2657.742734444715
 30
0.0
 11
-13866.10351579999
 21
2657.742734444715
 31
0.0
  0
INSERT
  5
147
330
144
100
AcDbEntity
  8
0
 62
     1
370
    -2
100
AcDbBlockReference
  2
B-DIM
 10
-13468.10351579998
 20
2657.742734444715
 30
0.0
 41
30.0
 42
30.0
 43
30.0
  0
INSERT
  5
148
330
144
100
AcDbEntity
  8
0
 62
     1
370
    -2
100
AcDbBlockReference
  2
B-DIM
 10
-13896.10351579998
 20
2657.742734444715
 30
0.0
 41
30.0
 42
30.0
 43
30.0
 50
180.0
  0
MTEXT
  5
149
330
144
100
AcDbEntity
  8
0
 62
   140
370
     5
100
AcDbMText
 10
-13682.10351579999
 20
2737.742734444716
 30
0.0
 40
80.0
 41
0.0
 71
     5
 72
     1
  1
\A1;428
  7
RomanS
 73
     1
 44
1.0
1001
ACAD
1000
MTEXTBEGIN
1070
    73
1070
     1
1070
    44
1040
1.0
1070
    74
1070
     0
1000
MTEXTEND
  0
POINT
  5
14A
330
144
100
AcDbEntity
  8
Defpoints
 62
     0
100
AcDbPoint
 10
-13468.10351579998
 20
2386.142121260149
 30
0.0
  0
POINT
  5
14B
330
144
100
AcDbEntity
  8
Defpoints
 62
     0
100
AcDbPoint
 10
-13896.10351579998
 20
2386.142121260149
 30
0.0
  0
POINT
  5
14C
330
144
100
AcDbEntity
  8
Defpoints
 62
     0
100
AcDbPoint
 10
-13896.10351579998
 20
2657.742734444715
 30
0.0
  0
ENDBLK
  5
14D
330
144
100
AcDbEntity
  8
0
100
AcDbBlockEnd
  0
BLOCK
  5
138
330
137
100
AcDbEntity
  8
0
100
AcDbBlockBegin
  2
*D18
 70
     1
 10
0.0
 20
0.0
 30
0.0
  3
*D18
  1

  0
LINE
  5
139
330
137
100
AcDbEntity
  8
0
 62
     1
370
    -2
100
AcDbLine
 10
-13162.10351579998
 20
2657.742734444715
 30
-0.0000000000006988
 11
-13438.10351579999
 21
2657.742734444715
 31
-0.0000000000006988
  0
INSERT
  5
13A
330
137
100
AcDbEntity
  8
0
 62
     1
370
    -2
100
AcDbBlockReference
  2
B-DIM
 10
-13132.10351579998
 20
2657.742734444715
 30
-0.0000000000006988
 41
30.0
 42
30.0
 43
30.0
  0
INSERT
  5
13B
330
137
100
AcDbEntity
  8
0
 62
     1
370
    -2
100
AcDbBlockReference
  2
B-DIM
 10
-13468.10351579998
 20
2657.742734444715
 30
-0.0000000000006988
 41
30.0
 42
30.0
 43
30.0
 50
180.0
  0
MTEXT
  5
13C
330
137
100
AcDbEntity
  8
0
 62
   140
370
     5
100
AcDbMText
 10
-13300.10351579999
 20
2737.742734444716
 30
-0.0000000000006988
 40
80.0
 41
0.0
 71
     5
 72
     1
  1
\A1;336
  7
RomanS
 73
     1
 44
1.0
1001
ACAD
1000
MTEXTBEGIN
1070
    73
1070
     1
1070
    44
1040
1.0
1070
    74
1070
     0
1000
MTEXTEND
  0
POINT
  5
13D
330
137
100
AcDbEntity
  8
Defpoints
 62
     0
100
AcDbPoint
 10
-13132.10351579998
 20
2286.142121260149
 30
0.0
  0
POINT
  5
13E
330
137
100
AcDbEntity
  8
Defpoints
 62
     0
100
AcDbPoint
 10
-13468.10351579998
 20
2286.142121260149
 30
-0.0000000000006988
  0
POINT
  5
13F
330
137
100
AcDbEntity
  8
Defpoints
 62
     0
100
AcDbPoint
 10
-13468.10351579998
 20
2657.742734444715
 30
-0.0000000000006988
  0
ENDBLK
  5
140
330
137
100
AcDbEntity
  8
0
100
AcDbBlockEnd
  0
ENDSEC
  0
SECTION
  2
ENTITIES
  0
LINE
  5
10
330
2
100
AcDbEntity
  8
0Napisy
  6
HIDDEN
 62
     1
 48
0.3
370
     5
100
AcDbLine
 10
-15717.8238577343
 20
-1981.074088513247
 30
0.0
 11
-15717.8238577343
 21
4194.444471891322
 31
0.0
  0
TEXT
  5
16
330
2
100
AcDbEntity
  8
0Napisy-PL
370
     5
100
AcDbText
 10
-19451.28332085427
 20
6837.630183012189
 30
0.0
 40
150.0
  1
"DOM W ASPARAGUSACH (PN)"
  7
AVA
100
AcDbText
  0
LINE
  5
1B
330
2
100
AcDbEntity
  8
RAMKI-A4
370
     5
100
AcDbLine
 10
-20930.51304801202
 20
-6621.159638134973
 30
0.0
 11
-20930.51304801202
 21
7398.840361865026
 31
0.0
  0
LINE
  5
1E
330
2
100
AcDbEntity
  8
RAMKI-A4
370
     5
100
AcDbLine
 10
-20930.51304801202
 20
7398.840361865026
 30
0.0
 11
-10730.51304801198
 21
7398.840361865026
 31
0.0
  0
LINE
  5
1F
330
2
100
AcDbEntity
  8
RAMKI-A4
370
     5
100
AcDbLine
 10
-10730.51304801198
 20
7398.840361865026
 30
0.0
 11
-10730.51304801198
 21
-6621.159638134973
 31
0.0
  0
LINE
  5
20
330
2
100
AcDbEntity
  8
RAMKI-A4
370
     5
100
AcDbLine
 10
-10730.51304801198
 20
-6621.159638134973
 30
0.0
 11
-20930.51304801202
 21
-6621.159638134973
 31
0.0
  0
MTEXT
  5
21
102
{ACAD_XDICTIONARY
360
28F
102
}
330
2
100
AcDbEntity
  8
0Napisy
100
AcDbMText
 10
-19352.31660995085
 20
6653.693611126996
 30
0.0
 40
150.0
 41
0.0
 71
     1
 72
     5
  1
{\fArial|b0|i0|c238|p34;MO\U+017BNA WKLEI\U+0106 DO PROJEKTU ZAGOSPODAROWANIA TERENU}
  7
ARIAL
 73
     1
 44
1.0
1001
AcDbBlockRepETag
1070
     1
1071
      383
1005
0
1001
DCO15
1071
        1
1071
        1
1000
_tabelka_-_inform_i_etykiety_Link1
1004
19000000
1000
_tabelka_Arial151
1001
ACAD
1000
MTEXTBEGIN
1070
    73
1070
     1
1070
    44
1040
1.0
1070
    74
1070
     0
1000
MTEXTEND
  0
MTEXT
  5
25
102
{ACAD_XDICTIONARY
360
291
102
}
330
2
100
AcDbEntity
  8
0Napisy
100
AcDbMText
 10
-15905.05720571993
 20
-1908.647887674022
 30
0.0
 40
100.0
 41
0.0
 71
     1
 72
     5
  1
{\fArial|b0|i0|c238|p34;O\U+015A ODBICIA LUSTRZANEGO}
  7
ARIAL
 11
0.0000000000000001
 21
1.0
 31
0.0
 73
     1
 44
1.0
1001
AcDbBlockRepETag
1070
     1
1071
      383
1005
0
1001
DCO15
1071
        1
1071
        1
1000
_tabelka_-_inform_i_etykiety_Link1
1004
1B000000
1000
_tabelka_Arial151
1001
ACAD
1000
MTEXTBEGIN
1070
    73
1070
     1
1070
    44
1040
1.0
1070
    74
1070
     0
1000
MTEXTEND
  0
MTEXT
  5
26
330
2
100
AcDbEntity
  8
0Napisy
100
AcDbMText
 10
-19328.03663852066
 20
-5657.606246139541
 30
0.0
 40
100.0
 41
0.0
 71
     1
 72
     5
  1
{\fArial|b0|i0|c238|p34;OBRYS  BUDYNKU}
  7
ARIAL
 73
     1
 44
1.0
1001
AcDbBlockRepETag
1070
     1
1071
      383
1005
0
1001
DCO15
1071
        1
1071
        1
1000
_tabelka_-_inform_i_etykiety_Link1
1004
1A000000
1000
_tabelka_Arial151
1001
ACAD
1000
MTEXTBEGIN
1070
    73
1070
     1
1070
    44
1040
1.0
1070
    74
1070
     0
1000
MTEXTEND
  0
MTEXT
  5
27
330
2
100
AcDbEntity
  8
0Napisy
100
AcDbMText
 10
-19328.03663852066
 20
-5907.606246139541
 30
0.0
 40
100.0
 41
0.0
 71
     1
 72
     5
  1
{\fArial|b0|i0|c238|p34;Skala:}
  7
ARIAL
 73
     1
 44
1.0
1001
AcDbBlockRepETag
1070
     1
1071
      383
1005
0
1001
DCO15
1071
        1
1071
        1
1000
_tabelka_-_inform_i_etykiety_Link1
1004
08000000
1000
_tabelka_Arial151
1001
ACAD
1000
MTEXTBEGIN
1070
    73
1070
     1
1070
    44
1040
1.0
1070
    74
1070
     0
1000
MTEXTEND
  0
TEXT
  5
28
330
2
100
AcDbEntity
  8
0Napisy
100
AcDbText
 10
-18660.34552123796
 20
-6009.311566739816
 30
0.0
 40
100.0
  1
1:500
  7
ARIAL
100
AcDbText
1001
AcDbBlockRepETag
1070
     1
1071
      383
1005
0
1001
DCO15
1071
        1
1071
        1
1000
_tabelka_-_inform_i_etykiety_Link1
1004
08000000
1000
_tabelka_Arial151
  0
LINE
  5
29
330
2
100
AcDbEntity
  8
0
 62
     6
370
     5
100
AcDbLine
 10
-17198.54419966847
 20
1391.142121260283
 30
28.0
 11
-16983.54419966836
 21
1391.14212126032
 31
28.0
  0
LINE
  5
2A
330
2
100
AcDbEntity
  8
0
 62
     6
370
     5
100
AcDbLine
 10
-16983.54419966836
 20
1391.14212126032
 30
28.0
 11
-16983.5441996685
 21
1626.142121260136
 31
0.0000000000001254
  0
LINE
  5
2B
330
2
100
AcDbEntity
  8
0
 62
     6
370
     5
100
AcDbLine
 10
-17203.54419966869
 20
1331.142121260278
 30
0.0
 11
-16918.54419966848
 21
1331.142121260278
 31
0.0
  0
LINE
  5
2C
330
2
100
AcDbEntity
  8
0
 62
     6
370
     5
100
AcDbLine
 10
-16918.54419966848
 20
1331.142121260278
 30
0.0
 11
-16918.54419966848
 21
1691.142121260138
 31
0.0
  0
LINE
  5
2D
330
2
100
AcDbEntity
  8
0
 62
     6
370
     5
100
AcDbLine
 10
-16918.54419966848
 20
1691.142121260138
 30
0.0
 11
-16918.54419966848
 21
1691.142121260138
 31
0.0
  0
LINE
  5
2E
330
2
100
AcDbEntity
  8
0
 62
     6
370
     5
100
AcDbLine
 10
-16918.54419966848
 20
1691.142121260138
 30
0.0
 11
-16943.54419966847
 21
1691.142121260116
 31
0.0
  0
LINE
  5
2F
330
2
100
AcDbEntity
  8
0
  6
Continuous
 62
   114
370
     5
390
30
100
AcDbLine
 10
-18308.54419966862
 20
1336.142121260263
 30
0.0
 11
-17998.54419966861
 21
1336.142121260147
 31
0.0
  0
HATCH
  5
31
330
2
100
AcDbEntity
  8
0
 62
   114
370
     5
100
AcDbHatch
 10
0.0
 20
0.0
 30
-0.0000000000006988
210
0.0
220
0.0
230
1.0
  2
SOLID
 70
     1
 71
     1
 91
        2
 92
        7
 72
     0
 73
     1
 93
       24
 10
-17703.54419966861
 20
1396.142121260148
 10
-17703.54419966861
 20
1336.142121260147
 10
-17287.539797538
 20
1336.142121260149
 10
-17203.54419966861
 20
1336.142121260149
 10
-17203.54419966861
 20
1646.142121260149
 10
-17203.45655506785
 20
2286.142121260149
 10
-17539.54419966861
 20
2286.142121260149
 10
-17539.54419966861
 20
2386.142121260149
 10
-17967.54419966861
 20
2386.142121260149
 10
-17967.54419966861
 20
2286.142121260149
 10
-18303.54419966861
 20
2286.142121260149
 10
-18303.54419966861
 20
1336.142121260147
 10
-18238.54419966861
 20
1336.142121260147
 10
-18238.54419966861
 20
1396.142121260261
 10
-18243.54419966861
 20
1396.142121260263
 10
-18243.54419966861
 20
2226.142121260149
 10
-17907.54419966861
 20
2226.142121260149
 10
-17907.54419966861
 20
2326.142121260149
 10
-17599.54419966861
 20
2326.142121260149
 10
-17599.54419966861
 20
2226.142121260149
 10
-17263.46477231179
 20
2226.142121260149
 10
-17263.544199106
 20
1646.150337941391
 10
-17263.54419966861
 20
1646.142121260149
 10
-17263.54419966861
 20
1396.142121260149
 97
       23
330
76
330
74
330
68
330
6A
330
66
330
7A
330
7C
330
73
330
56
330
32
330
7D
330
7B
330
67
330
6B
330
69
330
75
330
77
330
79
330
6E
330
54
330
6D
330
6C
330
78
 92
       22
 72
     0
 73
     1
 93
        4
 10
-17998.54419966861
 20
1396.142121260147
 10
-17998.54419966861
 20
1336.142121260147
 10
-17803.54419966861
 20
1336.142121260147
 10
-17803.54419966861
 20
1396.142121260147
 97
        4
330
71
330
6F
330
70
330
72
 75
     0
 76
     1
 47
2.994045755211303
 98
        2
 10
-17450.39717747929
 20
1375.901811148791
 10
-17944.78001539881
 20
1381.889941515861
1001
ACAD
1010
0.0
1020
0.0
1030
0.0
  0
LINE
  5
32
102
{ACAD_REACTORS
330
31
102
}
330
2
100
AcDbEntity
  8
0
  6
Continuous
 62
   114
370
     5
390
30
100
AcDbLine
 10
-18243.54419966861
 20
1396.142121260263
 30
0.0
 11
-17998.54419966859
 21
1396.142121260147
 31
0.0
  0
LINE
  5
33
330
2
100
AcDbEntity
  8
0
 62
     6
370
     5
100
AcDbLine
 10
-16983.54419966839
 20
1996.142121260102
 30
0.0
 11
-16983.54419966839
 21
2261.142121260147
 31
0.0
  0
LINE
  5
34
330
2
100
AcDbEntity
  8
0
  6
Continuous
 62
     6
370
     5
100
AcDbLine
 10
-16983.54419966839
 20
2261.142121260147
 30
0.0
 11
-17198.54419966833
 21
2261.142121260182
 31
0.0
  0
LINE
  5
35
330
2
100
AcDbEntity
  8
0
  6
Continuous
 62
     6
370
     5
100
AcDbLine
 10
-17203.54419966861
 20
1391.142121260258
 30
0.0
 11
-16983.54419966834
 21
1391.142121260294
 31
0.0
  0
LINE
  5
36
330
2
100
AcDbEntity
  8
0
  6
Continuous
 62
     6
370
     5
100
AcDbLine
 10
-16983.54419966834
 20
1391.142121260294
 30
0.0
 11
-16983.54419966848
 21
1626.142121260138
 31
0.0
  0
LINE
  5
37
330
2
100
AcDbEntity
  8
0
  6
Continuous
 62
     6
370
     5
100
AcDbLine
 10
-17013.54419966846
 20
1696.142121260138
 30
0.0
 11
-16983.54419966849
 21
1696.142121260138
 31
0.0
  0
LINE
  5
38
330
2
100
AcDbEntity
  8
0
  6
Continuous
 62
     6
370
     5
100
AcDbLine
 10
-16983.54419966849
 20
1696.142121260138
 30
0.0
 11
-16983.5441996684
 21
1926.142121260158
 31
0.0
  0
LINE
  5
39
330
2
100
AcDbEntity
  8
0
  6
Continuous
 62
     6
370
     5
100
AcDbLine
 10
-16983.5441996684
 20
1926.142121260158
 30
0.0
 11
-17013.54419966836
 21
1926.142121260182
 31
0.0
  0
LINE
  5
3A
330
2
100
AcDbEntity
  8
0
  6
Continuous
 62
     6
370
     5
100
AcDbLine
 10
-17013.5441996683
 20
1996.142121260127
 30
0.0
 11
-16983.54419966839
 21
1996.142121260102
 31
0.0
  0
LINE
  5
3B
330
2
100
AcDbEntity
  8
0
 62
     6
370
     5
100
AcDbLine
 10
-16983.54419966839
 20
1996.142121260102
 30
0.0
 11
-16983.54419966839
 21
2261.142121260147
 31
0.0
  0
LINE
  5
3C
330
2
100
AcDbEntity
  8
0
  6
Continuous
 62
     6
370
     5
100
AcDbLine
 10
-16983.54419966839
 20
2261.142121260147
 30
0.0
 11
-17203.54419966861
 21
2261.142121260182
 31
0.0
  0
LINE
  5
3D
330
2
100
AcDbEntity
  8
0
  6
Continuous
 62
     6
370
     5
100
AcDbLine
 10
-16983.5441996684
 20
1926.142121260158
 30
0.0
 11
-16983.54419966849
 21
1696.142121260138
 31
0.0
  0
LINE
  5
3E
330
2
100
AcDbEntity
  8
0
  6
Continuous
 62
     6
370
     5
100
AcDbLine
 10
-17622.51918484452
 20
1182.375295416685
 30
0.0
 11
-17622.51918484452
 21
1331.142121260187
 31
0.0
  0
LINE
  5
3F
330
2
100
AcDbEntity
  8
0
  6
Continuous
 62
     6
370
     5
100
AcDbLine
 10
-17884.56262491305
 20
1182.375295416685
 30
0.0
 11
-17884.56262491305
 21
1331.142121260187
 31
0.0
  0
LINE
  5
40
330
2
100
AcDbEntity
  8
0
  6
Continuous
 62
     6
370
     5
100
AcDbLine
 10
-17884.56262491305
 20
1212.375295416685
 30
0.0
 11
-17622.51918484452
 21
1212.375295416685
 31
0.0
  0
LINE
  5
41
330
2
100
AcDbEntity
  8
0
 62
     6
370
     5
100
AcDbLine
 10
-17943.54419966847
 20
1182.375295416685
 30
0.0
 11
-18308.54419966862
 21
1182.375295416685
 31
0.0
210
0.0
220
0.0
230
-1.0
  0
LINE
  5
42
330
2
100
AcDbEntity
  8
0
 62
     6
370
     5
100
AcDbLine
 10
-18308.54419966862
 20
1182.375295416685
 30
0.0
 11
-18308.54419966862
 21
1331.142121260123
 31
15.0
210
-1.0
220
0.0000000000000002
230
0.0
  0
LINE
  5
43
330
2
100
AcDbEntity
  8
0
 62
   114
370
     5
100
AcDbLine
 10
-18308.54419966862
 20
1331.142121260123
 30
15.0
 11
-18308.54419966862
 21
1331.142121260123
 31
0.0
210
-1.0
220
0.0000000000000002
230
0.0
  0
LINE
  5
44
330
2
100
AcDbEntity
  8
0
 62
     6
370
     5
100
AcDbLine
 10
-18308.54419966862
 20
1336.142121260263
 30
0.0
 11
-18308.54419966862
 21
1182.375295416685
 31
0.0
210
-1.0
220
0.0000000000000002
230
0.0
  0
LINE
  5
45
330
2
100
AcDbEntity
  8
0
 62
     6
370
     5
100
AcDbLine
 10
-17943.54419966847
 20
1331.142121260123
 30
0.0
 11
-17943.54419966847
 21
1182.375295416685
 31
0.0
210
1.0
220
-0.0000000000000002
230
0.0
  0
LINE
  5
46
330
2
100
AcDbEntity
  8
0
 62
     6
370
     5
100
AcDbLine
 10
-17943.54419966847
 20
1182.375295416685
 30
0.0
 11
-17943.54419966847
 21
1331.142121260123
 31
15.0
210
1.0
220
-0.0000000000000002
230
0.0
  0
LINE
  5
47
330
2
100
AcDbEntity
  8
0
  6
Continuous
 62
     6
370
     5
100
AcDbLine
 10
-17884.56262491305
 20
1336.142121260134
 30
0.0
 11
-17884.56262491305
 21
1182.375295416685
 31
0.0
  0
LINE
  5
48
330
2
100
AcDbEntity
  8
0
  6
Continuous
 62
     6
370
     5
100
AcDbLine
 10
-17943.54419966847
 20
1182.375295416685
 30
0.0
 11
-17563.54419966847
 21
1182.375295416685
 31
0.0
  0
LINE
  5
49
330
2
100
AcDbEntity
  8
0
  6
Continuous
 62
     6
370
     5
100
AcDbLine
 10
-17943.54419966847
 20
1182.375295416685
 30
0.0
 11
-17943.54419966847
 21
1336.142121260134
 31
0.0
  0
LINE
  5
4A
330
2
100
AcDbEntity
  8
0
  6
Continuous
 62
     6
370
     5
100
AcDbLine
 10
-17622.51918484452
 20
1336.142121260136
 30
0.0
 11
-17622.51918484452
 21
1182.375295416685
 31
0.0
  0
LINE
  5
4B
330
2
100
AcDbEntity
  8
0
  6
Continuous
 62
     6
370
     5
100
AcDbLine
 10
-17563.54419966847
 20
1182.375295416685
 30
0.0
 11
-17563.54419966847
 21
1336.142121260136
 31
0.0
  0
LINE
  5
4C
330
2
100
AcDbEntity
  8
0
  6
Continuous
 62
     6
370
     5
100
AcDbLine
 10
-17013.5441996683
 20
1996.142121260127
 30
0.0
 11
-17013.54419966836
 21
1926.142121260182
 31
0.0
  0
LINE
  5
4D
330
2
100
AcDbEntity
  8
0
  6
Continuous
 62
     6
370
     5
100
AcDbLine
 10
-17013.54419966836
 20
1926.142121260182
 30
0.0
 11
-16943.54419966842
 21
1926.142121260127
 31
0.0
  0
LINE
  5
4E
330
2
100
AcDbEntity
  8
0
  6
Continuous
 62
     6
370
     5
100
AcDbLine
 10
-16943.54419966842
 20
1926.142121260127
 30
0.0
 11
-16943.54419966836
 21
1996.142121260069
 31
0.0
  0
LINE
  5
4F
330
2
100
AcDbEntity
  8
0
  6
Continuous
 62
     6
370
     5
100
AcDbLine
 10
-16943.54419966836
 20
1996.142121260069
 30
0.0
 11
-17013.5441996683
 21
1996.142121260127
 31
0.0
  0
LINE
  5
50
330
2
100
AcDbEntity
  8
0
  6
Continuous
 62
     6
370
     5
100
AcDbLine
 10
-17013.54419966847
 20
1626.142121260138
 30
0.0
 11
-16943.54419966847
 21
1626.142121260138
 31
0.0
  0
LINE
  5
51
330
2
100
AcDbEntity
  8
0
  6
Continuous
 62
     6
370
     5
100
AcDbLine
 10
-16943.54419966847
 20
1626.142121260138
 30
0.0
 11
-16943.54419966847
 21
1696.142121260138
 31
0.0
  0
LINE
  5
52
330
2
100
AcDbEntity
  8
0
  6
Continuous
 62
     6
370
     5
100
AcDbLine
 10
-16943.54419966847
 20
1696.142121260138
 30
0.0
 11
-17013.54419966845
 21
1696.142121260138
 31
0.0
  0
LINE
  5
53
330
2
100
AcDbEntity
  8
0
  6
Continuous
 62
     6
370
     5
100
AcDbLine
 10
-17013.54419966845
 20
1696.142121260138
 30
0.0
 11
-17013.54419966847
 21
1626.142121260138
 31
0.0
  0
LINE
  5
54
102
{ACAD_REACTORS
330
31
102
}
330
2
100
AcDbEntity
  8
0
  6
Continuous
 62
   114
370
     5
100
AcDbLine
 10
-17703.54419966861
 20
1336.142121260147
 30
0.0
 11
-17703.54419966861
 21
1396.142121260147
 31
0.0
  0
LINE
  5
55
330
2
100
AcDbEntity
  8
0
  6
Continuous
 62
   114
370
     5
100
AcDbLine
 10
-17998.54419966861
 20
1361.642121260149
 30
0.0
 11
-17998.54419966861
 21
1349.642121260149
 31
0.0
  0
LINE
  5
56
102
{ACAD_REACTORS
330
31
102
}
330
2
100
AcDbEntity
  8
0
  6
Continuous
 62
   114
370
     5
100
AcDbLine
 10
-18238.54419966861
 20
1396.142121260236
 30
0.0
 11
-18238.54419966861
 21
1336.142121260236
 31
0.0
  0
LINE
  5
57
330
2
100
AcDbEntity
  8
0
  6
Continuous
 62
   114
370
     5
100
AcDbLine
 10
-17943.54419966861
 20
1280.142121260149
 30
229.6
 11
-17943.54419966861
 21
1231.142121260149
 31
229.6
  0
LINE
  5
58
330
2
100
AcDbEntity
  8
0
  6
Continuous
 62
   114
370
     5
100
AcDbLine
 10
-17943.54419966861
 20
1231.142121260149
 30
229.6
 11
-17884.56262491305
 21
1231.142121260149
 31
229.6
  0
LINE
  5
59
330
2
100
AcDbEntity
  8
0
  6
Continuous
 62
   114
370
     5
100
AcDbLine
 10
-17622.51918484452
 20
1231.142121260149
 30
229.6
 11
-17563.54419966861
 21
1231.142121260149
 31
229.6
  0
LINE
  5
5A
330
2
100
AcDbEntity
  8
0
  6
Continuous
 62
   114
370
     5
100
AcDbLine
 10
-17563.54419966861
 20
1231.142121260149
 30
229.6
 11
-17563.54419966861
 21
1280.142121260149
 31
229.6
  0
LINE
  5
5B
330
2
100
AcDbEntity
  8
0
  6
Continuous
 62
   114
370
     5
100
AcDbLine
 10
-17563.54419966861
 20
1280.142121260149
 30
229.6
 11
-17622.51918484452
 21
1280.142121260149
 31
229.6
  0
LINE
  5
5C
330
2
100
AcDbEntity
  8
0
  6
Continuous
 62
   114
370
     5
100
AcDbLine
 10
-17884.56262491305
 20
1280.142121260149
 30
229.6
 11
-17943.54419966861
 21
1280.142121260149
 31
229.6
  0
LINE
  5
5D
330
2
100
AcDbEntity
  8
0
 62
   114
370
     5
100
AcDbLine
 10
-17568.54419966861
 20
1275.142121260149
 30
-0.4000000000000057
 11
-17568.54419966861
 21
1236.142121260149
 31
-0.4000000000000057
  0
LINE
  5
5E
330
2
100
AcDbEntity
  8
0
 62
   114
370
     5
100
AcDbLine
 10
-17568.54419966861
 20
1236.142121260149
 30
-0.4000000000000057
 11
-17617.54419966861
 21
1236.142121260149
 31
-0.4000000000000057
  0
LINE
  5
5F
330
2
100
AcDbEntity
  8
0
 62
   114
370
     5
100
AcDbLine
 10
-17889.54419966861
 20
1236.142121260149
 30
-0.4000000000000057
 11
-17938.54419966861
 21
1236.142121260149
 31
-0.4000000000000057
  0
LINE
  5
60
330
2
100
AcDbEntity
  8
0
  6
Continuous
 62
   114
370
     5
100
AcDbLine
 10
-17889.54419966861
 20
1275.142121260149
 30
229.5999999999999
 11
-17889.54419966861
 21
1236.142121260149
 31
-0.4000000000000057
  0
LINE
  5
61
330
2
100
AcDbEntity
  8
0
  6
Continuous
 62
   114
370
     5
100
AcDbLine
 10
-17889.54419966861
 20
1236.142121260149
 30
-0.4000000000000057
 11
-17938.54419966861
 21
1236.142121260149
 31
-0.4000000000000057
  0
LINE
  5
62
330
2
100
AcDbEntity
  8
0
  6
Continuous
 62
   114
370
     5
100
AcDbLine
 10
-17938.54419966861
 20
1236.142121260149
 30
-0.4000000000000057
 11
-17938.54419966861
 21
1275.142121260149
 31
-0.4000000000000057
  0
LINE
  5
63
330
2
100
AcDbEntity
  8
0
  6
Continuous
 62
   114
370
     5
100
AcDbLine
 10
-17617.54419966861
 20
1275.142121260149
 30
-0.4000000000000057
 11
-17617.54419966861
 21
1236.142121260149
 31
-0.4000000000000057
  0
LINE
  5
64
330
2
100
AcDbEntity
  8
0
  6
Continuous
 62
   114
370
     5
100
AcDbLine
 10
-17617.54419966861
 20
1236.142121260149
 30
-0.4000000000000057
 11
-17568.54419966861
 21
1236.142121260149
 31
-0.4000000000000057
  0
LINE
  5
65
330
2
100
AcDbEntity
  8
0
  6
Continuous
 62
   114
370
     5
100
AcDbLine
 10
-17568.54419966861
 20
1236.142121260149
 30
-0.4000000000000057
 11
-17568.54419966861
 21
1275.142121260149
 31
-0.4000000000000057
  0
LINE
  5
66
102
{ACAD_REACTORS
330
31
330
8C
102
}
330
2
100
AcDbEntity
  8
0
  6
Continuous
 62
   114
370
     5
100
AcDbLine
 10
-17967.54419966861
 20
2386.142121260149
 30
-0.0000000000006988
 11
-17967.54419966861
 21
2286.142121260149
 31
-0.0000000000006988
  0
LINE
  5
67
102
{ACAD_REACTORS
330
31
102
}
330
2
100
AcDbEntity
  8
0
  6
Continuous
 62
   114
370
     5
100
AcDbLine
 10
-17907.54419966861
 20
2326.142121260149
 30
-0.0000000000006988
 11
-17907.54419966861
 21
2226.142121260149
 31
-0.0000000000006988
  0
LINE
  5
68
102
{ACAD_REACTORS
330
31
330
A4
102
}
330
2
100
AcDbEntity
  8
0
  6
Continuous
 62
   114
370
     5
100
AcDbLine
 10
-17539.54419966861
 20
2286.142121260149
 30
0.0
 11
-17539.54419966861
 21
2386.142121260149
 31
0.0
  0
LINE
  5
69
102
{ACAD_REACTORS
330
31
102
}
330
2
100
AcDbEntity
  8
0
  6
Continuous
 62
   114
370
     5
100
AcDbLine
 10
-17599.54419966861
 20
2226.142121260149
 30
0.0
 11
-17599.54419966861
 21
2326.142121260149
 31
0.0
  0
LINE
  5
6A
102
{ACAD_REACTORS
330
31
330
A4
102
}
330
2
100
AcDbEntity
  8
0
  6
Continuous
 62
   114
370
     5
100
AcDbLine
 10
-17539.54419966861
 20
2386.142121260149
 30
0.0
 11
-17967.54419966861
 21
2386.142121260149
 31
0.0
  0
LINE
  5
6B
102
{ACAD_REACTORS
330
31
102
}
330
2
100
AcDbEntity
  8
0
  6
Continuous
 62
   114
370
     5
100
AcDbLine
 10
-17599.54419966861
 20
2326.142121260149
 30
0.0
 11
-17907.54419966861
 21
2326.142121260149
 31
0.0
  0
LINE
  5
6C
102
{ACAD_REACTORS
330
31
330
C9
102
}
330
2
100
AcDbEntity
  8
0
  6
Continuous
 62
   114
370
     5
100
AcDbLine
 10
-17287.539797538
 20
1336.142121260149
 30
0.0
 11
-17203.54419966861
 21
1336.142121260149
 31
0.0
  0
LINE
  5
6D
102
{ACAD_REACTORS
330
31
102
}
330
2
100
AcDbEntity
  8
0
  6
Continuous
 62
   114
370
     5
100
AcDbLine
 10
-17803.54419966861
 20
1336.142121260147
 30
0.0
 11
-17287.539797538
 21
1336.142121260149
 31
0.0
  0
LINE
  5
6E
102
{ACAD_REACTORS
330
31
102
}
330
2
100
AcDbEntity
  8
0
  6
Continuous
 62
   114
370
     5
100
AcDbLine
 10
-17803.54419966861
 20
1396.142121260147
 30
0.0
 11
-17263.54419966861
 21
1396.142121260149
 31
0.0
  0
LINE
  5
6F
102
{ACAD_REACTORS
330
31
102
}
330
2
100
AcDbEntity
  8
0
  6
Continuous
 62
   114
370
     5
100
AcDbLine
 10
-17998.54419966861
 20
1396.142121260147
 30
0.0
 11
-17998.54419966861
 21
1336.142121260147
 31
0.0
  0
LINE
  5
70
102
{ACAD_REACTORS
330
31
102
}
330
2
100
AcDbEntity
  8
0
  6
Continuous
 62
   114
370
     5
100
AcDbLine
 10
-17998.54419966861
 20
1336.142121260147
 30
0.0
 11
-17803.54419966861
 21
1336.142121260147
 31
0.0
  0
LINE
  5
71
102
{ACAD_REACTORS
330
31
102
}
330
2
100
AcDbEntity
  8
0
  6
Continuous
 62
   114
370
     5
100
AcDbLine
 10
-17998.54419966861
 20
1396.142121260147
 30
0.0
 11
-17803.54419966861
 21
1396.142121260147
 31
0.0
  0
LINE
  5
72
102
{ACAD_REACTORS
330
31
102
}
330
2
100
AcDbEntity
  8
0
  6
Continuous
 62
   114
370
     5
100
AcDbLine
 10
-17803.54419966861
 20
1336.142121260147
 30
0.0
 11
-17803.54419966861
 21
1396.142121260147
 31
0.0
  0
LINE
  5
73
102
{ACAD_REACTORS
330
31
102
}
330
2
100
AcDbEntity
  8
0
  6
Continuous
 62
   114
370
     5
100
AcDbLine
 10
-18303.54419966861
 20
1336.142121260147
 30
0.0
 11
-18238.54419966861
 21
1336.142121260147
 31
0.0
  0
LINE
  5
74
102
{ACAD_REACTORS
330
31
330
B1
330
C9
102
}
330
2
100
AcDbEntity
  8
0
  6
Continuous
 62
   114
370
     5
100
AcDbLine
 10
-17203.54419966861
 20
2286.142121260149
 30
0.0
 11
-17539.54419966861
 21
2286.142121260149
 31
0.0
  0
LINE
  5
75
102
{ACAD_REACTORS
330
31
102
}
330
2
100
AcDbEntity
  8
0
  6
Continuous
 62
   114
370
     5
100
AcDbLine
 10
-17263.46477231179
 20
2226.142121260149
 30
0.0
 11
-17599.54419966861
 21
2226.142121260149
 31
0.0
  0
LINE
  5
76
102
{ACAD_REACTORS
330
31
330
B1
102
}
330
2
100
AcDbEntity
  8
0
  6
Continuous
 62
   114
370
     5
100
AcDbLine
 10
-17203.54419966861
 20
1646.142121260149
 30
0.0
 11
-17203.45587034441
 21
2291.142121258848
 31
0.0
  0
LINE
  5
77
102
{ACAD_REACTORS
330
31
102
}
330
2
100
AcDbEntity
  8
0
  6
Continuous
 62
   114
370
     5
100
AcDbLine
 10
-17263.544199106
 20
1646.150337941391
 30
0.0
 11
-17263.46477231179
 21
2226.142121260149
 31
0.0
  0
LINE
  5
78
102
{ACAD_REACTORS
330
31
102
}
330
2
100
AcDbEntity
  8
0
  6
Continuous
 62
   114
370
     5
100
AcDbLine
 10
-17203.54419966861
 20
1336.142121260149
 30
0.0
 11
-17203.54419966861
 21
1646.142121260149
 31
0.0
  0
LINE
  5
79
102
{ACAD_REACTORS
330
31
102
}
330
2
100
AcDbEntity
  8
0
  6
Continuous
 62
   114
370
     5
100
AcDbLine
 10
-17263.54419966861
 20
1396.142121260149
 30
0.0
 11
-17263.54419966861
 21
1646.142121260149
 31
0.0
  0
LINE
  5
7A
102
{ACAD_REACTORS
330
31
102
}
330
2
100
AcDbEntity
  8
0
  6
Continuous
 62
   114
370
     5
100
AcDbLine
 10
-17967.54419966861
 20
2286.142121260149
 30
0.0
 11
-18303.54419966861
 21
2286.142121260149
 31
0.0
  0
LINE
  5
7B
102
{ACAD_REACTORS
330
31
102
}
330
2
100
AcDbEntity
  8
0
  6
Continuous
 62
   114
370
     5
100
AcDbLine
 10
-17907.54419966861
 20
2226.142121260149
 30
-0.0000000000006988
 11
-18243.54419966861
 21
2226.142121260149
 31
0.0
  0
LINE
  5
7C
102
{ACAD_REACTORS
330
31
330
8C
102
}
330
2
100
AcDbEntity
  8
0
  6
Continuous
 62
   114
370
     5
100
AcDbLine
 10
-18303.54419966861
 20
2286.142121260149
 30
0.0
 11
-18303.54419966861
 21
1336.142121260149
 31
0.0
  0
LINE
  5
7D
102
{ACAD_REACTORS
330
31
102
}
330
2
100
AcDbEntity
  8
0
  6
Continuous
 62
   114
370
     5
100
AcDbLine
 10
-18243.54419966861
 20
2226.142121260149
 30
0.0
 11
-18243.54419966861
 21
1396.142121260263
 31
0.0
  0
LINE
  5
7E
330
2
100
AcDbEntity
  8
0
  6
Continuous
 62
   114
370
     5
100
AcDbLine
 10
-17203.54419966869
 20
1331.142121260278
 30
-14.00000000000115
 11
-17203.54419966854
 21
1391.142121260283
 31
13.99999999999885
  0
HATCH
  5
7F
330
2
100
AcDbEntity
  8
0
 62
   114
370
     5
100
AcDbHatch
 10
0.0
 20
0.0
 30
0.0
210
0.0
220
0.0
230
1.0
  2
SOLID
 70
     1
 71
     0
 91
        1
 92
        1
 93
        4
 72
     1
 10
-17938.54419966861
 20
1275.142121260149
 11
-17889.54419966861
 21
1275.142121260149
 72
     1
 10
-17889.54419966861
 20
1275.142121260149
 11
-17889.54419966861
 21
1236.172585475697
 72
     1
 10
-17889.54419966861
 20
1236.172585475697
 11
-17938.54419966861
 21
1236.142121260149
 72
     1
 10
-17938.54419966861
 20
1236.142121260149
 11
-17938.54419966861
 21
1275.142121260149
 97
        0
 75
     0
 76
     1
 98
        1
 10
-19224.04419966861
 20
-3358.665232327934
1001
ACAD
1010
0.0
1020
0.0
1030
0.0
  0
HATCH
  5
80
330
2
100
AcDbEntity
  8
0
 62
   114
370
     5
100
AcDbHatch
 10
0.0
 20
0.0
 30
0.0
210
0.0
220
0.0
230
1.0
  2
SOLID
 70
     1
 71
     0
 91
        1
 92
        1
 93
        4
 72
     1
 10
-17617.54419966861
 20
1275.142121260149
 11
-17568.54419966861
 21
1275.142121260149
 72
     1
 10
-17568.54419966861
 20
1275.142121260149
 11
-17568.54419966861
 21
1236.172585475697
 72
     1
 10
-17568.54419966861
 20
1236.172585475697
 11
-17617.54419966861
 21
1236.142121260149
 72
     1
 10
-17617.54419966861
 20
1236.142121260149
 11
-17617.54419966861
 21
1275.142121260149
 97
        0
 75
     0
 76
     1
 98
        1
 10
-19224.04419966861
 20
-3358.665232327934
1001
ACAD
1010
0.0
1020
0.0
1030
0.0
  0
LINE
  5
81
330
2
100
AcDbEntity
  8
0
 62
   114
370
     5
100
AcDbLine
 10
-17889.54419966861
 20
1275.142121260149
 30
-0.4000000000000057
 11
-17889.54419966861
 21
1236.172585475697
 31
-0.4000000000000057
  0
LINE
  5
82
330
2
100
AcDbEntity
  8
0
 62
   114
370
     5
100
AcDbLine
 10
-17889.54419966861
 20
1236.172585475697
 30
-0.4000000000000057
 11
-17938.54419966861
 21
1236.142121260149
 31
-0.4000000000000057
  0
LINE
  5
83
330
2
100
AcDbEntity
  8
0
 62
   114
370
     5
100
AcDbLine
 10
-17938.54419966861
 20
1236.142121260149
 30
-0.4000000000000057
 11
-17938.54419966861
 21
1275.142121260149
 31
-0.4000000000000057
  0
LINE
  5
84
330
2
100
AcDbEntity
  8
0
 62
   114
370
     5
100
AcDbLine
 10
-17568.54419966861
 20
1275.142121260149
 30
-0.4000000000000057
 11
-17568.54419966861
 21
1236.172585475697
 31
-0.4000000000000057
  0
LINE
  5
85
330
2
100
AcDbEntity
  8
0
 62
   114
370
     5
100
AcDbLine
 10
-17568.54419966861
 20
1236.172585475697
 30
-0.4000000000000057
 11
-17617.54419966861
 21
1236.142121260149
 31
-0.4000000000000057
  0
LINE
  5
86
330
2
100
AcDbEntity
  8
0
 62
   114
370
     5
100
AcDbLine
 10
-17617.54419966861
 20
1236.142121260149
 30
-0.4000000000000057
 11
-17617.54419966861
 21
1275.142121260149
 31
-0.4000000000000057
  0
LINE
  5
87
330
2
100
AcDbEntity
  8
0
 62
     6
370
     5
100
AcDbLine
 10
-16948.54419966833
 20
2291.142121260145
 30
0.0
 11
-17203.45587034441
 21
2291.142121258848
 31
0.0
  0
LINE
  5
88
330
2
100
AcDbEntity
  8
0
 62
     6
370
     5
100
AcDbLine
 10
-16948.54419966833
 20
2291.142121260145
 30
0.0
 11
-16948.54419966833
 21
1996.142121260074
 31
0.0
  0
LINE
  5
89
330
2
100
AcDbEntity
  8
0
 62
     6
370
     5
100
AcDbLine
 10
-16948.54419966833
 20
1926.142121260131
 30
0.0
 11
-16948.54419966833
 21
1696.142121260138
 31
0.0
  0
DIMENSION
  5
8A
102
{ACAD_XDICTIONARY
360
8B
102
}
102
{ACAD_REACTORS
330
8C
102
}
330
2
100
AcDbEntity
  8
0
370
     5
100
AcDbDimension
  2
*D10
 10
-17967.54419966861
 20
2657.742734444715
 30
-0.0000000000006988
 11
-18135.54419966861
 21
2737.742734444716
 31
-0.0000000000006988
 71
     5
 42
336.0
  3
500
100
AcDbAlignedDimension
 13
-18303.54419966861
 23
2286.142121260149
 33
0.0
 14
-17967.54419966861
 24
2286.142121260149
 34
-0.0000000000006988
100
AcDbRotatedDimension
  0
DIMENSION
  5
A2
102
{ACAD_XDICTIONARY
360
A3
102
}
102
{ACAD_REACTORS
330
A4
102
}
330
2
100
AcDbEntity
  8
0
370
     5
100
AcDbDimension
  2
*D9
 10
-17539.54419966861
 20
2657.742734444715
 30
0.0
 11
-17753.54419966861
 21
2737.742734444716
 31
0.0
 71
     5
 42
428.0
  3
500
100
AcDbAlignedDimension
 13
-17967.54419966861
 23
2386.142121260149
 33
0.0
 14
-17539.54419966861
 24
2386.142121260149
 34
0.0
100
AcDbRotatedDimension
  0
DIMENSION
  5
AF
102
{ACAD_XDICTIONARY
360
B0
102
}
102
{ACAD_REACTORS
330
B1
102
}
330
2
100
AcDbEntity
  8
0
370
     5
100
AcDbDimension
  2
*D8
 10
-17203.45656137079
 20
2657.742734444715
 30
0.0
 11
-17371.5003805197
 21
2737.742734444716
 31
0.0
 71
     5
 42
336.087638297824
  3
500
100
AcDbAlignedDimension
 13
-17539.54419966861
 23
2286.142121260149
 33
0.0
 14
-17203.45656137079
 24
2286.096095843149
 34
0.0
100
AcDbRotatedDimension
  0
DIMENSION
  5
BC
330
2
100
AcDbEntity
  8
0
370
     5
100
AcDbDimension
  2
*D7
 10
-17203.45656137079
 20
2835.570271963973
 30
0.0
 11
-17753.5003805197
 21
2915.570271963973
 31
0.0
 71
     5
 42
1100.087638297827
  3
500
100
AcDbAlignedDimension
 13
-18303.54419966861
 23
2640.422226369023
 33
-0.0000000000013977
 14
-17203.45656137079
 24
2624.742734444715
 34
0.0
100
AcDbRotatedDimension
  0
DIMENSION
  5
C7
102
{ACAD_XDICTIONARY
360
C8
102
}
102
{ACAD_REACTORS
330
C9
102
}
330
2
100
AcDbEntity
  8
0
370
     5
100
AcDbDimension
  2
*D6
 10
-16693.77882316912
 20
1336.142121260149
 30
0.0
 11
-16773.77882316912
 21
1811.142121260147
 31
0.0
 71
     5
 42
950.0000000000001
  3
500
100
AcDbAlignedDimension
 13
-17203.54419966861
 23
2286.142121260149
 33
0.0
 14
-17203.54419966861
 24
1336.142121260149
 34
0.0
 50
90.0
100
AcDbRotatedDimension
  0
LINE
  5
D4
330
2
100
AcDbEntity
  8
0
 62
     6
370
     5
100
AcDbLine
 10
-14237.10351580012
 20
1391.142121260283
 30
28.0
 11
-14452.10351580024
 21
1391.14212126032
 31
28.0
  0
LINE
  5
D5
330
2
100
AcDbEntity
  8
0
 62
     6
370
     5
100
AcDbLine
 10
-14452.10351580024
 20
1391.14212126032
 30
28.0
 11
-14452.10351580009
 21
1626.142121260136
 31
0.0000000000001254
  0
LINE
  5
D6
330
2
100
AcDbEntity
  8
0
 62
     6
370
     5
100
AcDbLine
 10
-14232.10351579991
 20
1331.142121260278
 30
0.0
 11
-14517.10351580012
 21
1331.142121260278
 31
0.0
  0
LINE
  5
D7
330
2
100
AcDbEntity
  8
0
 62
     6
370
     5
100
AcDbLine
 10
-14517.10351580012
 20
1331.142121260278
 30
0.0
 11
-14517.10351580012
 21
1691.142121260138
 31
0.0
  0
LINE
  5
D8
330
2
100
AcDbEntity
  8
0
 62
     6
370
     5
100
AcDbLine
 10
-14517.10351580012
 20
1691.142121260138
 30
0.0
 11
-14517.10351580012
 21
1691.142121260138
 31
0.0
  0
LINE
  5
D9
330
2
100
AcDbEntity
  8
0
 62
     6
370
     5
100
AcDbLine
 10
-14517.10351580012
 20
1691.142121260138
 30
0.0
 11
-14492.10351580012
 21
1691.142121260116
 31
0.0
  0
LINE
  5
DA
330
2
100
AcDbEntity
  8
0
  6
Continuous
 62
   114
370
     5
390
30
100
AcDbLine
 10
-13127.10351579998
 20
1336.142121260263
 30
0.0
 11
-13437.10351579999
 21
1336.142121260147
 31
0.0
  0
HATCH
  5
DB
330
2
100
AcDbEntity
  8
0
 62
   114
370
     5
100
AcDbHatch
 10
0.0
 20
0.0
 30
-0.0000000000006988
210
0.0
220
0.0
230
1.0
  2
SOLID
 70
     1
 71
     1
 91
        2
 92
        7
 72
     0
 73
     1
 93
       24
 10
-14172.10351579998
 20
1396.142121260149
 10
-14172.10351579998
 20
1646.142121260149
 10
-14172.1035163626
 20
1646.150337941391
 10
-14172.18294315681
 20
2226.142121260149
 10
-13836.10351579998
 20
2226.142121260149
 10
-13836.10351579999
 20
2326.142121260149
 10
-13528.10351579998
 20
2326.142121260149
 10
-13528.10351579998
 20
2226.142121260149
 10
-13192.10351579998
 20
2226.142121260149
 10
-13192.10351579998
 20
1396.142121260263
 10
-13197.10351579999
 20
1396.142121260261
 10
-13197.10351579999
 20
1336.142121260147
 10
-13132.10351579998
 20
1336.142121260147
 10
-13132.10351579999
 20
2286.14212126015
 10
-13468.10351579998
 20
2286.14212126015
 10
-13468.10351579998
 20
2386.142121260149
 10
-13896.10351579998
 20
2386.142121260149
 10
-13896.10351579998
 20
2286.142121260149
 10
-14232.19116040075
 20
2286.14212126015
 10
-14232.10351579998
 20
1646.142121260149
 10
-14232.10351579998
 20
1336.142121260149
 10
-14148.10791793059
 20
1336.142121260149
 10
-13732.10351579999
 20
1336.142121260147
 10
-13732.10351579998
 20
1396.142121260147
 97
       23
330
120
330
11E
330
112
330
114
330
110
330
124
330
126
330
11D
330
100
330
DC
330
127
330
125
330
111
330
115
330
113
330
11F
330
121
330
123
330
118
330
FE
330
117
330
116
330
122
 92
       22
 72
     0
 73
     1
 93
        4
 10
-13632.10351579998
 20
1396.142121260147
 10
-13632.10351579999
 20
1336.142121260147
 10
-13437.10351579999
 20
1336.142121260147
 10
-13437.10351579999
 20
1396.142121260147
 97
        4
330
11B
330
119
330
11A
330
11C
 75
     0
 76
     1
 47
2.994045755211303
 98
        2
 10
-13985.2505379893
 20
1375.901811148791
 10
-13490.86770006978
 20
1381.889941515861
1001
ACAD
1010
0.0
1020
0.0
1030
0.0
  0
LINE
  5
DC
102
{ACAD_REACTORS
330
DB
102
}
330
2
100
AcDbEntity
  8
0
  6
Continuous
 62
   114
370
     5
390
30
100
AcDbLine
 10
-13192.10351579998
 20
1396.142121260263
 30
0.0
 11
-13437.10351580001
 21
1396.142121260147
 31
0.0
  0
LINE
  5
DD
330
2
100
AcDbEntity
  8
0
 62
     6
370
     5
100
AcDbLine
 10
-14452.10351580021
 20
1996.142121260102
 30
0.0
 11
-14452.10351580021
 21
2261.142121260147
 31
0.0
  0
LINE
  5
DE
330
2
100
AcDbEntity
  8
0
  6
Continuous
 62
     6
370
     5
100
AcDbLine
 10
-14452.10351580021
 20
2261.142121260147
 30
0.0
 11
-14237.10351580026
 21
2261.142121260182
 31
0.0
  0
LINE
  5
DF
330
2
100
AcDbEntity
  8
0
  6
Continuous
 62
     6
370
     5
100
AcDbLine
 10
-14232.10351579998
 20
1391.142121260258
 30
0.0
 11
-14452.10351580025
 21
1391.142121260294
 31
0.0
  0
LINE
  5
E0
330
2
100
AcDbEntity
  8
0
  6
Continuous
 62
     6
370
     5
100
AcDbLine
 10
-14452.10351580025
 20
1391.142121260294
 30
0.0
 11
-14452.10351580012
 21
1626.142121260138
 31
0.0
  0
LINE
  5
E1
330
2
100
AcDbEntity
  8
0
  6
Continuous
 62
     6
370
     5
100
AcDbLine
 10
-14422.10351580014
 20
1696.142121260138
 30
0.0
 11
-14452.1035158001
 21
1696.142121260138
 31
0.0
  0
LINE
  5
E2
330
2
100
AcDbEntity
  8
0
  6
Continuous
 62
     6
370
     5
100
AcDbLine
 10
-14452.1035158001
 20
1696.142121260138
 30
0.0
 11
-14452.10351580019
 21
1926.142121260158
 31
0.0
  0
LINE
  5
E3
330
2
100
AcDbEntity
  8
0
  6
Continuous
 62
     6
370
     5
100
AcDbLine
 10
-14452.10351580019
 20
1926.142121260158
 30
0.0
 11
-14422.10351580023
 21
1926.142121260182
 31
0.0
  0
LINE
  5
E4
330
2
100
AcDbEntity
  8
0
  6
Continuous
 62
     6
370
     5
100
AcDbLine
 10
-14422.1035158003
 20
1996.142121260127
 30
0.0
 11
-14452.10351580021
 21
1996.142121260102
 31
0.0
  0
LINE
  5
E5
330
2
100
AcDbEntity
  8
0
 62
     6
370
     5
100
AcDbLine
 10
-14452.10351580021
 20
1996.142121260102
 30
0.0
 11
-14452.10351580021
 21
2261.142121260147
 31
0.0
  0
LINE
  5
E6
330
2
100
AcDbEntity
  8
0
  6
Continuous
 62
     6
370
     5
100
AcDbLine
 10
-14452.10351580021
 20
2261.142121260147
 30
0.0
 11
-14232.10351579998
 21
2261.142121260182
 31
0.0
  0
LINE
  5
E7
330
2
100
AcDbEntity
  8
0
  6
Continuous
 62
     6
370
     5
100
AcDbLine
 10
-14452.10351580019
 20
1926.142121260158
 30
0.0
 11
-14452.1035158001
 21
1696.142121260138
 31
0.0
  0
LINE
  5
E8
330
2
100
AcDbEntity
  8
0
  6
Continuous
 62
     6
370
     5
100
AcDbLine
 10
-13813.12853062407
 20
1182.375295416685
 30
0.0
 11
-13813.12853062407
 21
1331.142121260187
 31
0.0
  0
LINE
  5
E9
330
2
100
AcDbEntity
  8
0
  6
Continuous
 62
     6
370
     5
100
AcDbLine
 10
-13551.08509055554
 20
1182.375295416685
 30
0.0
 11
-13551.08509055554
 21
1331.142121260187
 31
0.0
  0
LINE
  5
EA
330
2
100
AcDbEntity
  8
0
  6
Continuous
 62
     6
370
     5
100
AcDbLine
 10
-13551.08509055554
 20
1212.375295416685
 30
0.0
 11
-13813.12853062407
 21
1212.375295416685
 31
0.0
  0
LINE
  5
EB
330
2
100
AcDbEntity
  8
0
 62
     6
370
     5
100
AcDbLine
 10
-13492.10351580012
 20
1182.375295416685
 30
0.0
 11
-13127.10351579998
 21
1182.375295416685
 31
0.0
210
0.0
220
0.0
230
-1.0
  0
LINE
  5
EC
330
2
100
AcDbEntity
  8
0
 62
     6
370
     5
100
AcDbLine
 10
-13127.10351579998
 20
1182.375295416685
 30
0.0
 11
-13127.10351579998
 21
1331.142121260123
 31
15.0
210
1.0
220
0.0000000000000002
230
0.0
  0
LINE
  5
ED
330
2
100
AcDbEntity
  8
0
 62
   114
370
     5
100
AcDbLine
 10
-13127.10351579998
 20
1331.142121260123
 30
15.0
 11
-13127.10351579998
 21
1331.142121260123
 31
0.0
210
1.0
220
0.0000000000000002
230
0.0
  0
LINE
  5
EE
330
2
100
AcDbEntity
  8
0
 62
     6
370
     5
100
AcDbLine
 10
-13127.10351579998
 20
1336.142121260263
 30
0.0
 11
-13127.10351579998
 21
1182.375295416685
 31
0.0
210
1.0
220
0.0000000000000002
230
0.0
  0
LINE
  5
EF
330
2
100
AcDbEntity
  8
0
 62
     6
370
     5
100
AcDbLine
 10
-13492.10351580012
 20
1331.142121260123
 30
0.0
 11
-13492.10351580012
 21
1182.375295416685
 31
0.0
210
-1.0
220
-0.0000000000000002
230
0.0
  0
LINE
  5
F0
330
2
100
AcDbEntity
  8
0
 62
     6
370
     5
100
AcDbLine
 10
-13492.10351580012
 20
1182.375295416685
 30
0.0
 11
-13492.10351580012
 21
1331.142121260123
 31
15.0
210
-1.0
220
-0.0000000000000002
230
0.0
  0
LINE
  5
F1
330
2
100
AcDbEntity
  8
0
  6
Continuous
 62
     6
370
     5
100
AcDbLine
 10
-13551.08509055554
 20
1336.142121260134
 30
0.0
 11
-13551.08509055554
 21
1182.375295416685
 31
0.0
  0
LINE
  5
F2
330
2
100
AcDbEntity
  8
0
  6
Continuous
 62
     6
370
     5
100
AcDbLine
 10
-13492.10351580012
 20
1182.375295416685
 30
0.0
 11
-13872.10351580012
 21
1182.375295416685
 31
0.0
  0
LINE
  5
F3
330
2
100
AcDbEntity
  8
0
  6
Continuous
 62
     6
370
     5
100
AcDbLine
 10
-13492.10351580012
 20
1182.375295416685
 30
0.0
 11
-13492.10351580012
 21
1336.142121260134
 31
0.0
  0
LINE
  5
F4
330
2
100
AcDbEntity
  8
0
  6
Continuous
 62
     6
370
     5
100
AcDbLine
 10
-13813.12853062407
 20
1336.142121260136
 30
0.0
 11
-13813.12853062407
 21
1182.375295416685
 31
0.0
  0
LINE
  5
F5
102
{ACAD_REACTORS
330
182
102
}
330
2
100
AcDbEntity
  8
0
  6
Continuous
 62
     6
370
     5
100
AcDbLine
 10
-13872.10351580012
 20
1182.375295416685
 30
0.0
 11
-13872.10351580012
 21
1336.142121260136
 31
0.0
  0
LINE
  5
F6
330
2
100
AcDbEntity
  8
0
  6
Continuous
 62
     6
370
     5
100
AcDbLine
 10
-14422.1035158003
 20
1996.142121260127
 30
0.0
 11
-14422.10351580023
 21
1926.142121260182
 31
0.0
  0
LINE
  5
F7
330
2
100
AcDbEntity
  8
0
  6
Continuous
 62
     6
370
     5
100
AcDbLine
 10
-14422.10351580023
 20
1926.142121260182
 30
0.0
 11
-14492.10351580017
 21
1926.142121260127
 31
0.0
  0
LINE
  5
F8
330
2
100
AcDbEntity
  8
0
  6
Continuous
 62
     6
370
     5
100
AcDbLine
 10
-14492.10351580017
 20
1926.142121260127
 30
0.0
 11
-14492.10351580023
 21
1996.142121260069
 31
0.0
  0
LINE
  5
F9
330
2
100
AcDbEntity
  8
0
  6
Continuous
 62
     6
370
     5
100
AcDbLine
 10
-14492.10351580023
 20
1996.142121260069
 30
0.0
 11
-14422.1035158003
 21
1996.142121260127
 31
0.0
  0
LINE
  5
FA
330
2
100
AcDbEntity
  8
0
  6
Continuous
 62
     6
370
     5
100
AcDbLine
 10
-14422.10351580012
 20
1626.142121260138
 30
0.0
 11
-14492.10351580012
 21
1626.142121260138
 31
0.0
  0
LINE
  5
FB
330
2
100
AcDbEntity
  8
0
  6
Continuous
 62
     6
370
     5
100
AcDbLine
 10
-14492.10351580012
 20
1626.142121260138
 30
0.0
 11
-14492.10351580012
 21
1696.142121260138
 31
0.0
  0
LINE
  5
FC
330
2
100
AcDbEntity
  8
0
  6
Continuous
 62
     6
370
     5
100
AcDbLine
 10
-14492.10351580012
 20
1696.142121260138
 30
0.0
 11
-14422.10351580014
 21
1696.142121260138
 31
0.0
  0
LINE
  5
FD
330
2
100
AcDbEntity
  8
0
  6
Continuous
 62
     6
370
     5
100
AcDbLine
 10
-14422.10351580014
 20
1696.142121260138
 30
0.0
 11
-14422.10351580012
 21
1626.142121260138
 31
0.0
  0
LINE
  5
FE
102
{ACAD_REACTORS
330
DB
102
}
330
2
100
AcDbEntity
  8
0
  6
Continuous
 62
   114
370
     5
100
AcDbLine
 10
-13732.10351579998
 20
1336.142121260147
 30
0.0
 11
-13732.10351579998
 21
1396.142121260147
 31
0.0
  0
LINE
  5
FF
330
2
100
AcDbEntity
  8
0
  6
Continuous
 62
   114
370
     5
100
AcDbLine
 10
-13437.10351579999
 20
1361.642121260149
 30
0.0
 11
-13437.10351579999
 21
1349.642121260149
 31
0.0
  0
LINE
  5
100
102
{ACAD_REACTORS
330
DB
102
}
330
2
100
AcDbEntity
  8
0
  6
Continuous
 62
   114
370
     5
100
AcDbLine
 10
-13197.10351579999
 20
1396.142121260236
 30
0.0
 11
-13197.10351579999
 21
1336.142121260236
 31
0.0
  0
LINE
  5
101
330
2
100
AcDbEntity
  8
0
  6
Continuous
 62
   114
370
     5
100
AcDbLine
 10
-13492.10351579998
 20
1280.142121260149
 30
229.6
 11
-13492.10351579998
 21
1231.142121260149
 31
229.6
  0
LINE
  5
102
330
2
100
AcDbEntity
  8
0
  6
Continuous
 62
   114
370
     5
100
AcDbLine
 10
-13492.10351579998
 20
1231.142121260149
 30
229.6
 11
-13551.08509055554
 21
1231.142121260149
 31
229.6
  0
LINE
  5
103
330
2
100
AcDbEntity
  8
0
  6
Continuous
 62
   114
370
     5
100
AcDbLine
 10
-13813.12853062407
 20
1231.142121260149
 30
229.6
 11
-13872.10351579998
 21
1231.142121260149
 31
229.6
  0
LINE
  5
104
330
2
100
AcDbEntity
  8
0
  6
Continuous
 62
   114
370
     5
100
AcDbLine
 10
-13872.10351579998
 20
1231.142121260149
 30
229.6
 11
-13872.10351579998
 21
1280.142121260149
 31
229.6
  0
LINE
  5
105
330
2
100
AcDbEntity
  8
0
  6
Continuous
 62
   114
370
     5
100
AcDbLine
 10
-13872.10351579998
 20
1280.142121260149
 30
229.6
 11
-13813.12853062407
 21
1280.142121260149
 31
229.6
  0
LINE
  5
106
330
2
100
AcDbEntity
  8
0
  6
Continuous
 62
   114
370
     5
100
AcDbLine
 10
-13551.08509055554
 20
1280.142121260149
 30
229.6
 11
-13492.10351579998
 21
1280.142121260149
 31
229.6
  0
LINE
  5
107
330
2
100
AcDbEntity
  8
0
 62
   114
370
     5
100
AcDbLine
 10
-13867.10351579998
 20
1275.142121260149
 30
-0.4000000000000057
 11
-13867.10351579998
 21
1236.142121260149
 31
-0.4000000000000057
  0
LINE
  5
108
330
2
100
AcDbEntity
  8
0
 62
   114
370
     5
100
AcDbLine
 10
-13867.10351579998
 20
1236.142121260149
 30
-0.4000000000000057
 11
-13818.10351579998
 21
1236.142121260149
 31
-0.4000000000000057
  0
LINE
  5
109
330
2
100
AcDbEntity
  8
0
 62
   114
370
     5
100
AcDbLine
 10
-13546.10351579998
 20
1236.142121260149
 30
-0.4000000000000057
 11
-13497.10351579998
 21
1236.142121260149
 31
-0.4000000000000057
  0
LINE
  5
10A
330
2
100
AcDbEntity
  8
0
  6
Continuous
 62
   114
370
     5
100
AcDbLine
 10
-13546.10351579998
 20
1275.142121260149
 30
229.5999999999999
 11
-13546.10351579998
 21
1236.142121260149
 31
-0.4000000000000057
  0
LINE
  5
10B
330
2
100
AcDbEntity
  8
0
  6
Continuous
 62
   114
370
     5
100
AcDbLine
 10
-13546.10351579998
 20
1236.142121260149
 30
-0.4000000000000057
 11
-13497.10351579998
 21
1236.142121260149
 31
-0.4000000000000057
  0
LINE
  5
10C
330
2
100
AcDbEntity
  8
0
  6
Continuous
 62
   114
370
     5
100
AcDbLine
 10
-13497.10351579998
 20
1236.142121260149
 30
-0.4000000000000057
 11
-13497.10351579998
 21
1275.142121260149
 31
-0.4000000000000057
  0
LINE
  5
10D
330
2
100
AcDbEntity
  8
0
  6
Continuous
 62
   114
370
     5
100
AcDbLine
 10
-13818.10351579998
 20
1275.142121260149
 30
-0.4000000000000057
 11
-13818.10351579998
 21
1236.142121260149
 31
-0.4000000000000057
  0
LINE
  5
10E
330
2
100
AcDbEntity
  8
0
  6
Continuous
 62
   114
370
     5
100
AcDbLine
 10
-13818.10351579998
 20
1236.142121260149
 30
-0.4000000000000057
 11
-13867.10351579998
 21
1236.142121260149
 31
-0.4000000000000057
  0
LINE
  5
10F
330
2
100
AcDbEntity
  8
0
  6
Continuous
 62
   114
370
     5
100
AcDbLine
 10
-13867.10351579998
 20
1236.142121260149
 30
-0.4000000000000057
 11
-13867.10351579998
 21
1275.142121260149
 31
-0.4000000000000057
  0
LINE
  5
110
102
{ACAD_REACTORS
330
DB
330
136
102
}
330
2
100
AcDbEntity
  8
0
  6
Continuous
 62
   114
370
     5
100
AcDbLine
 10
-13468.10351579998
 20
2386.142121260149
 30
-0.0000000000006988
 11
-13468.10351579998
 21
2286.142121260149
 31
-0.0000000000006988
  0
LINE
  5
111
102
{ACAD_REACTORS
330
DB
102
}
330
2
100
AcDbEntity
  8
0
  6
Continuous
 62
   114
370
     5
100
AcDbLine
 10
-13528.10351579998
 20
2326.142121260149
 30
-0.0000000000006988
 11
-13528.10351579998
 21
2226.142121260149
 31
-0.0000000000006988
  0
LINE
  5
112
102
{ACAD_REACTORS
330
DB
330
143
102
}
330
2
100
AcDbEntity
  8
0
  6
Continuous
 62
   114
370
     5
100
AcDbLine
 10
-13896.10351579998
 20
2286.142121260149
 30
0.0
 11
-13896.10351579998
 21
2386.142121260149
 31
0.0
  0
LINE
  5
113
102
{ACAD_REACTORS
330
DB
102
}
330
2
100
AcDbEntity
  8
0
  6
Continuous
 62
   114
370
     5
100
AcDbLine
 10
-13836.10351579998
 20
2226.142121260149
 30
0.0
 11
-13836.10351579998
 21
2326.142121260149
 31
0.0
  0
LINE
  5
114
102
{ACAD_REACTORS
330
DB
330
143
102
}
330
2
100
AcDbEntity
  8
0
  6
Continuous
 62
   114
370
     5
100
AcDbLine
 10
-13896.10351579998
 20
2386.142121260149
 30
0.0
 11
-13468.10351579998
 21
2386.142121260149
 31
0.0
  0
LINE
  5
115
102
{ACAD_REACTORS
330
DB
102
}
330
2
100
AcDbEntity
  8
0
  6
Continuous
 62
   114
370
     5
100
AcDbLine
 10
-13836.10351579998
 20
2326.142121260149
 30
0.0
 11
-13528.10351579998
 21
2326.142121260149
 31
0.0
  0
LINE
  5
116
102
{ACAD_REACTORS
330
DB
330
168
102
}
330
2
100
AcDbEntity
  8
0
  6
Continuous
 62
   114
370
     5
100
AcDbLine
 10
-14148.10791793059
 20
1336.142121260149
 30
0.0
 11
-14232.10351579998
 21
1336.142121260149
 31
0.0
  0
LINE
  5
117
102
{ACAD_REACTORS
330
DB
102
}
330
2
100
AcDbEntity
  8
0
  6
Continuous
 62
   114
370
     5
100
AcDbLine
 10
-13632.10351579998
 20
1336.142121260147
 30
0.0
 11
-14148.10791793059
 21
1336.142121260149
 31
0.0
  0
LINE
  5
118
102
{ACAD_REACTORS
330
DB
102
}
330
2
100
AcDbEntity
  8
0
  6
Continuous
 62
   114
370
     5
100
AcDbLine
 10
-13632.10351579998
 20
1396.142121260147
 30
0.0
 11
-14172.10351579998
 21
1396.142121260149
 31
0.0
  0
LINE
  5
119
102
{ACAD_REACTORS
330
DB
102
}
330
2
100
AcDbEntity
  8
0
  6
Continuous
 62
   114
370
     5
100
AcDbLine
 10
-13437.10351579999
 20
1396.142121260147
 30
0.0
 11
-13437.10351579999
 21
1336.142121260147
 31
0.0
  0
LINE
  5
11A
102
{ACAD_REACTORS
330
DB
102
}
330
2
100
AcDbEntity
  8
0
  6
Continuous
 62
   114
370
     5
100
AcDbLine
 10
-13437.10351579999
 20
1336.142121260147
 30
0.0
 11
-13632.10351579998
 21
1336.142121260147
 31
0.0
  0
LINE
  5
11B
102
{ACAD_REACTORS
330
DB
102
}
330
2
100
AcDbEntity
  8
0
  6
Continuous
 62
   114
370
     5
100
AcDbLine
 10
-13437.10351579999
 20
1396.142121260147
 30
0.0
 11
-13632.10351579998
 21
1396.142121260147
 31
0.0
  0
LINE
  5
11C
102
{ACAD_REACTORS
330
DB
102
}
330
2
100
AcDbEntity
  8
0
  6
Continuous
 62
   114
370
     5
100
AcDbLine
 10
-13632.10351579998
 20
1336.142121260147
 30
0.0
 11
-13632.10351579998
 21
1396.142121260147
 31
0.0
  0
LINE
  5
11D
102
{ACAD_REACTORS
330
DB
102
}
330
2
100
AcDbEntity
  8
0
  6
Continuous
 62
   114
370
     5
100
AcDbLine
 10
-13132.10351579998
 20
1336.142121260147
 30
0.0
 11
-13197.10351579999
 21
1336.142121260147
 31
0.0
  0
LINE
  5
11E
102
{ACAD_REACTORS
330
DB
330
150
330
168
102
}
330
2
100
AcDbEntity
  8
0
  6
Continuous
 62
   114
370
     5
100
AcDbLine
 10
-14232.10351579998
 20
2286.142121260149
 30
0.0
 11
-13896.10351579998
 21
2286.142121260149
 31
0.0
  0
LINE
  5
11F
102
{ACAD_REACTORS
330
DB
102
}
330
2
100
AcDbEntity
  8
0
  6
Continuous
 62
   114
370
     5
100
AcDbLine
 10
-14172.18294315681
 20
2226.142121260149
 30
0.0
 11
-13836.10351579998
 21
2226.142121260149
 31
0.0
  0
LINE
  5
120
102
{ACAD_REACTORS
330
DB
330
150
102
}
330
2
100
AcDbEntity
  8
0
  6
Continuous
 62
   114
370
     5
100
AcDbLine
 10
-14232.10351579998
 20
1646.142121260149
 30
0.0
 11
-14232.19184512419
 21
2291.142121258848
 31
0.0
  0
LINE
  5
121
102
{ACAD_REACTORS
330
DB
102
}
330
2
100
AcDbEntity
  8
0
  6
Continuous
 62
   114
370
     5
100
AcDbLine
 10
-14172.1035163626
 20
1646.150337941391
 30
0.0
 11
-14172.18294315681
 21
2226.142121260149
 31
0.0
  0
LINE
  5
122
102
{ACAD_REACTORS
330
DB
102
}
330
2
100
AcDbEntity
  8
0
  6
Continuous
 62
   114
370
     5
100
AcDbLine
 10
-14232.10351579998
 20
1336.142121260149
 30
0.0
 11
-14232.10351579998
 21
1646.142121260149
 31
0.0
  0
LINE
  5
123
102
{ACAD_REACTORS
330
DB
102
}
330
2
100
AcDbEntity
  8
0
  6
Continuous
 62
   114
370
     5
100
AcDbLine
 10
-14172.10351579998
 20
1396.142121260149
 30
0.0
 11
-14172.10351579998
 21
1646.142121260149
 31
0.0
  0
LINE
  5
124
102
{ACAD_REACTORS
330
DB
102
}
330
2
100
AcDbEntity
  8
0
  6
Continuous
 62
   114
370
     5
100
AcDbLine
 10
-13468.10351579998
 20
2286.142121260149
 30
0.0
 11
-13132.10351579998
 21
2286.142121260149
 31
0.0
  0
LINE
  5
125
102
{ACAD_REACTORS
330
DB
102
}
330
2
100
AcDbEntity
  8
0
  6
Continuous
 62
   114
370
     5
100
AcDbLine
 10
-13528.10351579998
 20
2226.142121260149
 30
-0.0000000000006988
 11
-13192.10351579998
 21
2226.142121260149
 31
0.0
  0
LINE
  5
126
102
{ACAD_REACTORS
330
DB
330
136
102
}
330
2
100
AcDbEntity
  8
0
  6
Continuous
 62
   114
370
     5
100
AcDbLine
 10
-13132.10351579998
 20
2286.142121260149
 30
0.0
 11
-13132.10351579998
 21
1336.142121260149
 31
0.0
  0
LINE
  5
127
102
{ACAD_REACTORS
330
DB
102
}
330
2
100
AcDbEntity
  8
0
  6
Continuous
 62
   114
370
     5
100
AcDbLine
 10
-13192.10351579998
 20
2226.142121260149
 30
0.0
 11
-13192.10351579998
 21
1396.142121260263
 31
0.0
  0
LINE
  5
128
330
2
100
AcDbEntity
  8
0
  6
Continuous
 62
   114
370
     5
100
AcDbLine
 10
-14232.10351579991
 20
1331.142121260278
 30
-14.00000000000115
 11
-14232.10351580006
 21
1391.142121260283
 31
13.99999999999885
  0
HATCH
  5
129
330
2
100
AcDbEntity
  8
0
 62
   114
370
     5
100
AcDbHatch
 10
0.0
 20
0.0
 30
0.0
210
0.0
220
0.0
230
1.0
  2
SOLID
 70
     1
 71
     0
 91
        1
 92
        1
 93
        4
 72
     1
 10
-13497.10351579998
 20
1275.142121260149
 11
-13546.10351579998
 21
1275.142121260149
 72
     1
 10
-13546.10351579998
 20
1275.142121260149
 11
-13546.10351579998
 21
1236.172585475697
 72
     1
 10
-13546.10351579998
 20
1236.172585475697
 11
-13497.10351579998
 21
1236.142121260149
 72
     1
 10
-13497.10351579998
 20
1236.142121260149
 11
-13497.10351579998
 21
1275.142121260149
 97
        0
 75
     0
 76
     1
 98
        1
 10
-12211.60351579998
 20
-3358.665232327934
1001
ACAD
1010
0.0
1020
0.0
1030
0.0
  0
HATCH
  5
12A
330
2
100
AcDbEntity
  8
0
 62
   114
370
     5
100
AcDbHatch
 10
0.0
 20
0.0
 30
0.0
210
0.0
220
0.0
230
1.0
  2
SOLID
 70
     1
 71
     0
 91
        1
 92
        1
 93
        4
 72
     1
 10
-13818.10351579998
 20
1275.142121260149
 11
-13867.10351579998
 21
1275.142121260149
 72
     1
 10
-13867.10351579998
 20
1275.142121260149
 11
-13867.10351579998
 21
1236.172585475697
 72
     1
 10
-13867.10351579998
 20
1236.172585475697
 11
-13818.10351579998
 21
1236.142121260149
 72
     1
 10
-13818.10351579998
 20
1236.142121260149
 11
-13818.10351579998
 21
1275.142121260149
 97
        0
 75
     0
 76
     1
 98
        1
 10
-12211.60351579998
 20
-3358.665232327934
1001
ACAD
1010
0.0
1020
0.0
1030
0.0
  0
LINE
  5
12B
330
2
100
AcDbEntity
  8
0
 62
   114
370
     5
100
AcDbLine
 10
-13546.10351579998
 20
1275.142121260149
 30
-0.4000000000000057
 11
-13546.10351579998
 21
1236.172585475697
 31
-0.4000000000000057
  0
LINE
  5
12C
330
2
100
AcDbEntity
  8
0
 62
   114
370
     5
100
AcDbLine
 10
-13546.10351579998
 20
1236.172585475697
 30
-0.4000000000000057
 11
-13497.10351579998
 21
1236.142121260149
 31
-0.4000000000000057
  0
LINE
  5
12D
330
2
100
AcDbEntity
  8
0
 62
   114
370
     5
100
AcDbLine
 10
-13497.10351579998
 20
1236.142121260149
 30
-0.4000000000000057
 11
-13497.10351579998
 21
1275.142121260149
 31
-0.4000000000000057
  0
LINE
  5
12E
102
{ACAD_REACTORS
330
182
102
}
330
2
100
AcDbEntity
  8
0
 62
   114
370
     5
100
AcDbLine
 10
-13867.10351579998
 20
1275.142121260149
 30
-0.4000000000000057
 11
-13867.10351579998
 21
1236.172585475697
 31
-0.4000000000000057
  0
LINE
  5
12F
330
2
100
AcDbEntity
  8
0
 62
   114
370
     5
100
AcDbLine
 10
-13867.10351579998
 20
1236.172585475697
 30
-0.4000000000000057
 11
-13818.10351579998
 21
1236.142121260149
 31
-0.4000000000000057
  0
LINE
  5
130
330
2
100
AcDbEntity
  8
0
 62
   114
370
     5
100
AcDbLine
 10
-13818.10351579998
 20
1236.142121260149
 30
-0.4000000000000057
 11
-13818.10351579998
 21
1275.142121260149
 31
-0.4000000000000057
  0
LINE
  5
131
330
2
100
AcDbEntity
  8
0
 62
     6
370
     5
100
AcDbLine
 10
-14487.10351580027
 20
2291.142121260145
 30
0.0
 11
-14232.19184512419
 21
2291.142121258848
 31
0.0
  0
LINE
  5
132
330
2
100
AcDbEntity
  8
0
 62
     6
370
     5
100
AcDbLine
 10
-14487.10351580027
 20
2291.142121260145
 30
0.0
 11
-14487.10351580027
 21
1996.142121260074
 31
0.0
  0
LINE
  5
133
330
2
100
AcDbEntity
  8
0
 62
     6
370
     5
100
AcDbLine
 10
-14487.10351580027
 20
1926.142121260131
 30
0.0
 11
-14487.10351580027
 21
1696.142121260138
 31
0.0
  0
DIMENSION
  5
134
102
{ACAD_XDICTIONARY
360
135
102
}
102
{ACAD_REACTORS
330
136
102
}
330
2
100
AcDbEntity
  8
0
370
     5
100
AcDbDimension
  2
*D18
 10
-13468.10351579998
 20
2657.742734444715
 30
-0.0000000000006988
 11
-13300.10351579999
 21
2737.742734444716
 31
-0.0000000000006988
 71
     5
 42
336.0
  3
500
100
AcDbAlignedDimension
 13
-13132.10351579998
 23
2286.142121260149
 33
0.0
 14
-13468.10351579998
 24
2286.142121260149
 34
-0.0000000000006988
 50
180.0
100
AcDbRotatedDimension
  0
DIMENSION
  5
141
102
{ACAD_XDICTIONARY
360
142
102
}
102
{ACAD_REACTORS
330
143
102
}
330
2
100
AcDbEntity
  8
0
370
     5
100
AcDbDimension
  2
*D17
 10
-13896.10351579998
 20
2657.742734444715
 30
0.0
 11
-13682.10351579999
 21
2737.742734444716
 31
0.0
 71
     5
 42
428.0
  3
500
100
AcDbAlignedDimension
 13
-13468.10351579998
 23
2386.142121260149
 33
0.0
 14
-13896.10351579998
 24
2386.142121260149
 34
0.0
 50
180.0
100
AcDbRotatedDimension
  0
DIMENSION
  5
14E
102
{ACAD_XDICTIONARY
360
14F
102
}
102
{ACAD_REACTORS
330
150
102
}
330
2
100
AcDbEntity
  8
0
370
     5
100
AcDbDimension
  2
*D16
 10
-14232.19115409781
 20
2657.742734444715
 30
0.0
 11
-14064.1473349489
 21
2737.742734444716
 31
0.0
 71
     5
 42
336.087638297824
  3
500
100
AcDbAlignedDimension
 13
-13896.10351579998
 23
2286.142121260149
 33
0.0
 14
-14232.19115409781
 24
2286.096095843149
 34
0.0
 50
180.0
100
AcDbRotatedDimension
  0
DIMENSION
  5
15B
330
2
100
AcDbEntity
  8
0
370
     5
100
AcDbDimension
  2
*D15
 10
-14232.19115409781
 20
2835.570271963973
 30
0.0
 11
-13682.14733494889
 21
2915.570271963973
 31
0.0
 71
     5
 42
1100.087638297827
  3
500
100
AcDbAlignedDimension
 13
-13132.10351579998
 23
2640.422226369023
 33
-0.0000000000013977
 14
-14232.19115409781
 24
2624.742734444715
 34
0.0
 50
180.0
100
AcDbRotatedDimension
  0
DIMENSION
  5
166
102
{ACAD_XDICTIONARY
360
167
102
}
102
{ACAD_REACTORS
330
168
102
}
330
2
100
AcDbEntity
  8
0
370
     5
100
AcDbDimension
  2
*D14
 10
-14741.86889229947
 20
1336.142121260149
 30
0.0
 11
-14821.86889229947
 21
1811.142121260147
 31
0.0
 71
     5
 42
950.0
  3
500
100
AcDbAlignedDimension
 13
-14232.10351579998
 23
2286.142121260149
 33
0.0
 14
-14232.10351579998
 24
1336.142121260149
 34
0.0
 50
90.0
100
AcDbRotatedDimension
  0
DIMENSION
  5
173
330
2
100
AcDbEntity
  8
0
370
     5
100
AcDbDimension
  2
*D13
 10
-14741.86889229947
 20
2386.142121260149
 30
0.0
 11
-14821.86889229947
 21
2336.142121260147
 31
0.0
 71
     5
 42
100.0
  3
500
100
AcDbAlignedDimension
 13
-13896.10351579998
 23
2286.142121260149
 33
0.0
 14
-13896.10351579998
 24
2386.142121260149
 34
0.0
 50
90.0
100
AcDbRotatedDimension
  0
DIMENSION
  5
180
102
{ACAD_XDICTIONARY
360
181
102
}
102
{ACAD_REACTORS
330
182
102
}
330
2
100
AcDbEntity
  8
0
370
     5
100
AcDbDimension
  2
*D12
 10
-14741.86889229947
 20
1236.172585475697
 30
0.0
 11
-14821.86889229947
 21
1286.157353367914
 31
0.0
 71
     5
 42
99.96953578443935
  3
500
100
AcDbAlignedDimension
 13
-13872.10351580012
 23
1336.142121260136
 33
0.0
 14
-13867.10351579998
 24
1236.172585475697
 34
-0.4000000000000057
 50
90.0
100
AcDbRotatedDimension
  0
DIMENSION
  5
18F
330
2
100
AcDbEntity
  8
0
370
     5
100
AcDbDimension
  2
*D11
 10
-14934.05796331187
 20
1236.1725854757
 30
0.0
 11
-15014.05796331187
 21
1811.15735336792
 31
0.0
 71
     5
 42
1149.969535784446
  3
500
100
AcDbAlignedDimension
 13
-14774.86889229948
 23
2386.142121260146
 33
0.0
 14
-14774.86889229948
 24
1236.172585475699
 34
0.0
 50
90.0
100
AcDbRotatedDimension
  0
DIMENSION
  5
19A
330
2
100
AcDbEntity
  8
0
370
     5
100
AcDbDimension
  2
*D5
 10
-16693.77882316912
 20
2386.142121260156
 30
0.0
 11
-16773.77882316912
 21
2336.142121260153
 31
0.0
 71
     5
 42
100.0
  3
500
100
AcDbAlignedDimension
 13
-17539.54419966861
 23
2286.142121260156
 33
0.0
 14
-17539.54419966861
 24
2386.142121260157
 34
0.0
 50
90.0
100
AcDbRotatedDimension
  0
DIMENSION
  5
1A7
330
2
100
AcDbEntity
  8
0
370
     5
100
AcDbDimension
  2
*D4
 10
-16693.77882316912
 20
1236.172585475704
 30
0.0
 11
-16773.77882316912
 21
1286.157353367921
 31
0.0
 71
     5
 42
99.96953578443935
  3
500
100
AcDbAlignedDimension
 13
-17563.54419966847
 23
1336.142121260143
 33
0.0
 14
-17568.54419966861
 24
1236.172585475704
 34
-0.4000000000000057
 50
90.0
100
AcDbRotatedDimension
  0
DIMENSION
  5
1B4
330
2
100
AcDbEntity
  8
0
370
     5
100
AcDbDimension
  2
*D3
 10
-16501.58975215672
 20
1236.172585475703
 30
0.0
 11
-16581.58975215672
 21
1811.157353367924
 31
0.0
 71
     5
 42
1149.969535784446
  3
500
100
AcDbAlignedDimension
 13
-16660.77882316912
 23
2386.14212126015
 33
0.0
 14
-16660.77882316912
 24
1236.172585475703
 34
0.0
 50
90.0
100
AcDbRotatedDimension
  0
ENDSEC
  0
SECTION
  2
OBJECTS
  0
DICTIONARY
  5
B
330
0
100
AcDbDictionary
281
     1
  3
ACAD_COLOR
350
1EF
  3
ACAD_GROUP
350
1EA
  3
ACAD_LAYOUT
350
1C1
  3
ACAD_MATERIAL
350
D
  3
ACAD_MLINESTYLE
350
1EB
  3
ACAD_PLOTSETTINGS
350
1EC
  3
ACAD_PLOTSTYLENAME
350
A
  3
ACAD_SCALELIST
350
1F0
  3
ACAD_TABLESTYLE
350
1F1
  3
ACAD_VISUALSTYLE
350
1DA
  3
ACDB_RECOMPOSE_DATA
350
28B
  3
AcDbVariableDictionary
350
27F
  3
CONLABELDictionary
350
22D
  3
CONLDEFDictionary
350
20E
  3
DWGPROPS
350
28C
  0
DICTIONARY
  5
1CB
330
1CA
100
AcDbDictionary
280
     1
281
     1
  3
ACAD_LAYERFILTERS
360
1CC
  3
ACAD_LAYERSTATES
360
1CD
  3
ACLYDICTIONARY
360
1CE
  0
DICTIONARY
  5
7
330
6
100
AcDbDictionary
280
     1
281
     1
  3
ADSK_XREC_LAYER_RECONCILED
360
8
  0
DICTIONARY
  5
12
330
11
100
AcDbDictionary
280
     1
281
     1
  3
ADSK_XREC_LAYER_RECONCILED
360
13
  0
DICTIONARY
  5
18
330
17
100
AcDbDictionary
280
     1
281
     1
  0
DICTIONARY
  5
1D
330
1C
100
AcDbDictionary
280
     1
281
     1
  0
DICTIONARY
  5
3
330
2
100
AcDbDictionary
280
     1
281
     1
  3
ACAD_SORTENTS
360
20D
  0
DICTIONARY
  5
1C4
330
1C3
100
AcDbDictionary
280
     1
281
     1
  0
DICTIONARY
  5
92
330
91
100
AcDbDictionary
280
     1
281
     1
  3
ACAD_SORTENTS
360
20C
  0
DICTIONARY
  5
28F
330
21
100
AcDbDictionary
280
     1
281
     1
  3
ACAD_MTEXT_RT
360
290
  0
DICTIONARY
  5
291
330
25
100
AcDbDictionary
280
     1
281
     1
  3
ACAD_MTEXT_RT
360
292
  0
DICTIONARY
  5
8B
330
8A
100
AcDbDictionary
280
     1
281
     1
  3
ACAD_DIMASSOC
360
8C
  0
DICTIONARY
  5
A3
330
A2
100
AcDbDictionary
280
     1
281
     1
  3
ACAD_DIMASSOC
360
A4
  0
DICTIONARY
  5
B0
330
AF
100
AcDbDictionary
280
     1
281
     1
  3
ACAD_DIMASSOC
360
B1
  0
DICTIONARY
  5
C8
330
C7
100
AcDbDictionary
280
     1
281
     1
  3
ACAD_DIMASSOC
360
C9
  0
DICTIONARY
  5
135
330
134
100
AcDbDictionary
280
     1
281
     1
  3
ACAD_DIMASSOC
360
136
  0
DICTIONARY
  5
142
330
141
100
AcDbDictionary
280
     1
281
     1
  3
ACAD_DIMASSOC
360
143
  0
DICTIONARY
  5
14F
330
14E
100
AcDbDictionary
280
     1
281
     1
  3
ACAD_DIMASSOC
360
150
  0
DICTIONARY
  5
167
330
166
100
AcDbDictionary
280
     1
281
     1
  3
ACAD_DIMASSOC
360
168
  0
DICTIONARY
  5
181
330
180
100
AcDbDictionary
280
     1
281
     1
  3
ACAD_DIMASSOC
360
182
  0
DICTIONARY
  5
1EF
102
{ACAD_REACTORS
330
B
102
}
330
B
100
AcDbDictionary
281
     1
  0
DICTIONARY
  5
1EA
102
{ACAD_REACTORS
330
B
102
}
330
B
100
AcDbDictionary
281
     1
  0
DICTIONARY
  5
1C1
102
{ACAD_REACTORS
330
B
102
}
330
B
100
AcDbDictionary
281
     1
  3
koncepcja (A4)
350
1C7
  3
Model
350
1C0
  0
DICTIONARY
  5
D
102
{ACAD_REACTORS
330
B
102
}
330
B
100
AcDbDictionary
281
     1
  3
ByBlock
350
1EE
  3
ByLayer
350
1ED
  3
Global
350
C
  0
DICTIONARY
  5
1EB
102
{ACAD_REACTORS
330
B
102
}
330
B
100
AcDbDictionary
281
     1
  3
Standard
350
1F2
  0
DICTIONARY
  5
1EC
102
{ACAD_REACTORS
330
B
102
}
330
B
100
AcDbDictionary
281
     1
  0
ACDBDICTIONARYWDFLT
  5
A
102
{ACAD_REACTORS
330
B
102
}
330
B
100
AcDbDictionary
281
     1
  3
Medium
350
30
  3
Normal
350
9
100
AcDbDictionaryWithDefault
340
9
  0
DICTIONARY
  5
1F0
102
{ACAD_REACTORS
330
B
102
}
330
B
100
AcDbDictionary
281
     1
  3
A0
350
1F7
  3
A1
350
1F8
  3
A2
350
1F9
  3
A3
350
1FA
  3
A4
350
1FB
  3
A5
350
1FC
  3
A6
350
1FD
  3
A7
350
1FE
  3
A8
350
1FF
  3
A9
350
200
  3
B0
350
201
  3
B1
350
202
  3
B2
350
203
  3
B3
350
204
  3
B4
350
205
  3
B5
350
206
  3
B6
350
207
  3
B7
350
208
  3
B8
350
209
  3
B9
350
20A
  3
C0
350
20B
  0
DICTIONARY
  5
1F1
102
{ACAD_REACTORS
330
B
102
}
330
B
100
AcDbDictionary
281
     1
  3
Standard
350
1F3
  0
DICTIONARY
  5
1DA
102
{ACAD_REACTORS
330
B
102
}
330
B
100
AcDbDictionary
281
     1
  3
2dWireframe
350
1D9
  3
3dWireframe
350
1F6
  3
Realistic
350
1F5
  0
XRECORD
  5
28B
102
{ACAD_REACTORS
330
B
102
}
330
B
100
AcDbXrecord
280
     1
 90
        1
330
1F3
  0
DICTIONARY
  5
27F
102
{ACAD_REACTORS
330
B
102
}
330
B
100
AcDbDictionary
281
     1
  3
CANNOSCALE
350
282
  3
CMLEADERSTYLE
350
281
  3
CTABLESTYLE
350
280
  3
DIMASSOC
350
287
  3
HIDETEXT
350
286
  3
INDEXCTL
350
285
  3
LAYERNOTIFY
350
283
  3
SORTENTS
350
284
  0
DICTIONARY
  5
22D
102
{ACAD_REACTORS
330
B
102
}
330
B
100
AcDbDictionary
281
     1
  3
_el_wzb_Left_nazw_romans16
350
27E
  3
_elementy_wiezby_SKROT_Romans16
350
27D
  3
_materialy_przegrod_pl_Label1
350
27C
  3
_nazwy_przegrod_romans18
350
27B
  3
_nazwy_rysunkow_Arial37
350
27A
  3
_nazwy_rysunkow_Romans18
350
279
  3
_opisy_rozne_II_Label1
350
278
  3
_opisy_rozne_II_Link1Label1
350
277
  3
_posadzki_do_zestawienia_pomieszczen_Romans17
350
276
  3
_rozne_opisy_rys_R16_right
350
275
  3
_rozne_opisy_rys_Romans12
350
274
  3
_rozne_opisy_rys_Romans16
350
273
  3
_tabelka_-_inform_i_etykiety_Romans13
350
272
  3
_tabelka_Arial15-center
350
271
  3
_tabelka_Arial151
350
270
  3
_tabelka_Romans 10
350
26F
  3
_tabelka_Romans13
350
26E
  3
_tabelka_Romans19
350
26D
  3
_tbl_nazwy_rys_Arial35
350
26C
  3
_tbl_nazwy_rys_Romans18
350
26B
  3
ALFABET-Arial20
350
26A
  3
ALFABET-Arial26
350
269
  3
ALFABET-Arial37
350
268
  3
Arial_27
350
267
  3
arkusz_nazwy_Arial35
350
266
  3
arkusz_nazwy_Arial_35_DwieLinie
350
265
  3
arkusz_nazwy_Romans18
350
264
  3
arkusz_nazwy_Romans_18
350
263
  3
jednostki-Arial18
350
262
  3
jednostki-Arial30
350
261
  3
jednostki-Romans16
350
260
  3
jednostki_arial6.6kursywa
350
25F
  3
jednostki_ROMANS11
350
25E
  3
jednostki_ROMANS15
350
25D
  3
jednostki_Romans30
350
25C
  3
jednostki_Romans7
350
25B
  3
jednostkiLabel1
350
25A
  3
jednostkiRomans22
350
259
  3
konstr_drew_arial6.6kursywa
350
258
  3
konstr_drew_romans7
350
257
  3
konstr_stalarial9kursywa
350
256
  3
konstr_stalLabel1
350
255
  3
konstr_stalLabel2
350
254
  3
miesiace-Romans17
350
253
  3
pomieszczenia-Arial 15
350
252
  3
pomieszczenia-Romans17
350
251
  3
romans16
350
250
  3
Romans_17
350
24F
  3
schematy_arial15
350
24E
  3
schematy_arial20
350
24D
  3
schematy_arial37
350
24C
  3
schematy_romans15
350
24B
  3
schematy_romans15Right
350
24A
  3
stolarka-Arial14
350
249
  3
stolarka-Romans1607
350
248
  3
stolarka-Romans1608
350
247
  3
stolarkaLabel1
350
246
  3
szczegoly_arial12kursywa
350
245
  3
szczegoly_arial6.6kursRight
350
244
  3
szczegoly_arial6.6kursywa
350
243
  3
szczegoly_Romans7
350
242
  3
szczegoly_romans7_right
350
241
  3
tbl_nazwy_rys_Arial37
350
240
  3
tbl_opisy_Romans_poch20
350
23F
  3
tbl_opisy_RomansPoch14
350
23E
  3
tbl_opisy_RomansPoch20_R
350
23D
  3
tbl_PRZEGRODY
350
23C
  3
tbl_uwagi_coRomans20Right
350
23B
  3
uwag_og_na_ark_Arial18
350
23A
  3
uwagi_co_Arial37
350
239
  3
uwagi_co_Romans20
350
238
  3
uwagi_na_schematachLabel1
350
237
  3
uwagi_na_schematachLabel2
350
236
  3
uwagi_na_schematachRight
350
235
  3
uwagi_wodkan_Romans18
350
234
  3
uwagi_wodkanARIAL37
350
233
  3
uwagi_wodkanRomans20_Right
350
232
  3
zbroj_plyty_arial22
350
231
  3
zbroj_plyty_romans12
350
230
  3
zbroj_plyty_romans12Right
350
22F
  3
zbroj_plyty_romans9
350
22E
  0
DICTIONARY
  5
20E
102
{ACAD_REACTORS
330
B
102
}
330
B
100
AcDbDictionary
281
     1
  3
_elementy_wiezby_Link1
350
22C
  3
_materialy_przegrod_pl_Link1
350
22B
  3
_nazwy_przegrod_pl_Link1
350
22A
  3
_nazwy_rysunkow_Arial37
350
229
  3
_opisy_rozne_II_Link1
350
228
  3
_opisy_rozne_II_Link2
350
227
  3
_posadzki_do_zestawienia_pomieszczen_Link1
350
226
  3
_rozne_opisy_rys_Link1
350
225
  3
_tabelka_-_inform_i_etykiety_Link1
350
224
  3
_tbl_nazwy_rys_Link1
350
223
  3
_uwagi_ogolne_na_arkuszu_Link1
350
222
  3
_~TMPCLP122371_Link1
350
221
  3
ALFABETLink1
350
220
  3
arkusz_nazwyLink1
350
21F
  3
arkusz_nazwyLink2
350
21E
  3
jednostkiLink1
350
21D
  3
konstr_drewLink1
350
21C
  3
konstr_stalLink1
350
21B
  3
miesiaceLink1
350
21A
  3
pomieszczeniaLink1
350
219
  3
schematyLink1
350
218
  3
stolarkaLink1
350
217
  3
szczegolyLink1
350
216
  3
tbl_jednostkiLink1
350
215
  3
tbl_opisyLink1
350
214
  3
tbl_PRZEGRODYLink1
350
213
  3
tbl_uwagi_coLink1
350
212
  3
tbl_uwagi_wodkanLink1
350
211
  3
uwagi_na_schematachLink1
350
210
  3
zbroj_plytyLink1
350
20F
  0
XRECORD
  5
28C
102
{ACAD_REACTORS
330
B
102
}
330
B
100
AcDbXrecord
280
     1
  1
DWGPROPS COOKIE
  2

  3

  4

  6

  7

  8

  9

300
=
301
=
302
=
303
=
304
=
305
=
306
=
307
=
308
=
309
=
 40
5.931163159722221
 41
2453924.46651963
 42
2455498.462100868
  1

 90
        0
  0
DICTIONARY
  5
1CC
102
{ACAD_REACTORS
330
1CB
102
}
330
1CB
100
AcDbDictionary
281
     1
  0
DICTIONARY
  5
1CD
102
{ACAD_REACTORS
330
1CB
102
}
330
1CB
100
AcDbDictionary
281
     1
  0
DICTIONARY
  5
1CE
102
{ACAD_REACTORS
330
1CB
102
}
330
1CB
100
AcDbDictionary
281
     1
1001
ACAD
1000
<All
  0
XRECORD
  5
8
102
{ACAD_REACTORS
330
7
102
}
330
7
100
AcDbXrecord
280
     1
290
     1
  0
XRECORD
  5
13
102
{ACAD_REACTORS
330
12
102
}
330
12
100
AcDbXrecord
280
     1
290
     1
  0
SORTENTSTABLE
  5
20D
102
{ACAD_REACTORS
330
3
102
}
330
3
100
AcDbSortentsTable
330
2
  0
SORTENTSTABLE
  5
20C
102
{ACAD_REACTORS
330
92
102
}
330
92
100
AcDbSortentsTable
330
91
  0
XRECORD
  5
290
102
{ACAD_REACTORS
330
28F
102
}
330
28F
100
AcDbXrecord
280
     1
 40
264312.0
  1
{\fArial|b0|i0|c238|p34;MOŻNA WKLEIĆ DO PROJEKTU ZAGOSPODAROWANIA TERENU}
  0
XRECORD
  5
292
102
{ACAD_REACTORS
330
291
102
}
330
291
100
AcDbXrecord
280
     1
 40
106589.0
  1
{\fArial|b0|i0|c238|p34;OŚ ODBICIA LUSTRZANEGO}
  0
DIMASSOC
  5
8C
102
{ACAD_REACTORS
330
8B
102
}
330
8B
100
AcDbDimAssoc
330
8A
 90
        3
 70
     0
 71
     0
  1
AcDbOsnapPointRef
 72
    13
331
7C
 73
     2
 91
        0
 40
0.0
 10
0.0
 20
0.0
 30
2.000000000000000E+50
 75
     0
  1
AcDbOsnapPointRef
 72
     1
331
66
 73
     2
 91
        0
 40
1.0
 10
0.0
 20
0.0
 30
2.000000000000000E+50
 75
     0
  0
DIMASSOC
  5
A4
102
{ACAD_REACTORS
330
A3
102
}
330
A3
100
AcDbDimAssoc
330
A2
 90
        3
 70
     0
 71
     0
  1
AcDbOsnapPointRef
 72
     1
331
6A
 73
     2
 91
        0
 40
1.0
 10
0.0
 20
0.0
 30
2.000000000000000E+50
 75
     0
  1
AcDbOsnapPointRef
 72
     1
331
68
 73
     2
 91
        0
 40
1.0
 10
0.0
 20
0.0
 30
2.000000000000000E+50
 75
     0
  0
DIMASSOC
  5
B1
102
{ACAD_REACTORS
330
B0
102
}
330
B0
100
AcDbDimAssoc
330
AF
 90
        3
 70
     0
 71
     0
  1
AcDbOsnapPointRef
 72
     1
331
74
 73
     2
 91
        0
 40
1.0
 10
0.0
 20
0.0
 30
2.000000000000000E+50
 75
     0
  1
AcDbOsnapPointRef
 72
     8
331
76
 73
     2
 91
        0
 40
0.9921767047818457
 10
0.0
 20
0.0
 30
0.0
 75
     1
  1
AcDbOsnapPointRef
 72
     1
331
74
 73
     2
 91
        0
 40
1.0
 10
0.0
 20
0.0
 30
2.000000000000000E+50
 75
     0
  0
DIMASSOC
  5
C9
102
{ACAD_REACTORS
330
C8
102
}
330
C8
100
AcDbDimAssoc
330
C7
 90
        3
 70
     0
 71
     0
  1
AcDbOsnapPointRef
 72
    13
331
74
 73
     2
 91
        0
 40
0.0
 10
0.0
 20
0.0
 30
2.000000000000000E+50
 75
     0
  1
AcDbOsnapPointRef
 72
     1
331
6C
 73
     2
 91
        0
 40
1.0
 10
0.0
 20
0.0
 30
2.000000000000000E+50
 75
     0
  0
DIMASSOC
  5
136
102
{ACAD_REACTORS
330
135
102
}
330
135
100
AcDbDimAssoc
330
134
 90
        3
 70
     0
 71
     0
  1
AcDbOsnapPointRef
 72
    13
331
126
 73
     2
 91
        0
 40
0.0
 10
0.0
 20
0.0
 30
2.000000000000000E+50
 75
     0
  1
AcDbOsnapPointRef
 72
     1
331
110
 73
     2
 91
        0
 40
1.0
 10
0.0
 20
0.0
 30
2.000000000000000E+50
 75
     0
  0
DIMASSOC
  5
143
102
{ACAD_REACTORS
330
142
102
}
330
142
100
AcDbDimAssoc
330
141
 90
        3
 70
     0
 71
     0
  1
AcDbOsnapPointRef
 72
     1
331
114
 73
     2
 91
        0
 40
1.0
 10
0.0
 20
0.0
 30
2.000000000000000E+50
 75
     0
  1
AcDbOsnapPointRef
 72
     1
331
112
 73
     2
 91
        0
 40
1.0
 10
0.0
 20
0.0
 30
2.000000000000000E+50
 75
     0
  0
DIMASSOC
  5
150
102
{ACAD_REACTORS
330
14F
102
}
330
14F
100
AcDbDimAssoc
330
14E
 90
        3
 70
     0
 71
     0
  1
AcDbOsnapPointRef
 72
     1
331
11E
 73
     2
 91
        0
 40
1.0
 10
0.0
 20
0.0
 30
2.000000000000000E+50
 75
     0
  1
AcDbOsnapPointRef
 72
     8
331
120
 73
     2
 91
        0
 40
0.9921767047818457
 10
0.0
 20
0.0
 30
0.0
 75
     1
  1
AcDbOsnapPointRef
 72
     1
331
11E
 73
     2
 91
        0
 40
1.0
 10
0.0
 20
0.0
 30
2.000000000000000E+50
 75
     0
  0
DIMASSOC
  5
168
102
{ACAD_REACTORS
330
167
102
}
330
167
100
AcDbDimAssoc
330
166
 90
        3
 70
     0
 71
     0
  1
AcDbOsnapPointRef
 72
    13
331
11E
 73
     2
 91
        0
 40
0.0
 10
0.0
 20
0.0
 30
2.000000000000000E+50
 75
     0
  1
AcDbOsnapPointRef
 72
     1
331
116
 73
     2
 91
        0
 40
1.0
 10
0.0
 20
0.0
 30
2.000000000000000E+50
 75
     0
  0
DIMASSOC
  5
182
102
{ACAD_REACTORS
330
181
102
}
330
181
100
AcDbDimAssoc
330
180
 90
        3
 70
     0
 71
     0
  1
AcDbOsnapPointRef
 72
     1
331
F5
 73
     2
 91
        0
 40
1.0
 10
0.0
 20
0.0
 30
2.000000000000000E+50
 75
     0
  1
AcDbOsnapPointRef
 72
     1
331
12E
 73
     2
 91
        0
 40
1.0
 10
0.0
 20
0.0
 30
2.000000000000000E+50
 75
     0
  0
LAYOUT
  5
1C7
102
{ACAD_XDICTIONARY
360
1C8
102
}
102
{ACAD_REACTORS
330
1C1
102
}
330
1C1
100
AcDbPlotSettings
  1

  2
\\druk\HP LaserJet P2015 Series PCL 6
  4
A4
  6

 40
4.233333110809326
 41
4.275669574737548
 42
4.233322143554687
 43
4.23333740234375
 44
209.9733276367187
 45
296.9683227539062
 46
0.0
 47
0.0
 48
0.0
 49
0.0
140
0.0
141
0.0
142
10.0
143
1.0
 70
   672
 72
     1
 73
     0
 74
     5
  7
monochrome_140.ctb
 75
     0
147
1.0
148
0.0
149
0.0
100
AcDbLayout
  1
koncepcja (A4)
 70
     0
 71
     1
 10
-0.4233333110809327
 20
-0.4275669574737549
 11
20.57399945259094
 21
29.26926531791687
 12
0.0
 22
0.0
 32
0.0
 14
0.1849314666158011
 24
0.1807636100571841
 34
0.0
 15
19.70561214497582
 25
28.41692371118396
 35
0.0
146
0.0
 13
0.0
 23
0.0
 33
0.0
 16
1.0
 26
0.0
 36
0.0
 17
0.0
 27
1.0
 37
0.0
 76
     0
330
1C3
1001
ACAD_PSEXT
1000
\\druk\HP LaserJet P2015 Series PCL 6
1000
HP LaserJet P2015 Series PCL 6
1000
Dział Design
1000
HP LaserJet P2015n - Dział Design
1070
     0
  0
LAYOUT
  5
1C0
102
{ACAD_XDICTIONARY
360
293
102
}
102
{ACAD_REACTORS
330
1C1
102
}
330
1C1
100
AcDbPlotSettings
  1

  2
PDFCreator
  4
A4
  6

 40
3.174999952316284
 41
3.174999952316284
 42
3.175003051757812
 43
3.17498779296875
 44
209.8886566162109
 45
297.0530090332031
 46
0.0
 47
0.0
 48
-22990.40938079872
 49
-7258.188802274118
140
-12790.40938079869
141
6761.811197725882
142
1.0
143
50.11333139422816
 70
 11952
 72
     1
 73
     0
 74
     4
  7
monochrome_140.ctb
 75
     0
147
0.0199547699619742
148
22990.40938079872
149
7258.188802274118
100
AcDbLayout
  1
Model
 70
     1
 71
     0
 10
0.0
 20
0.0
 11
12.0
 21
9.0
 12
0.0
 22
0.0
 32
0.0
 14
0.0
 24
0.0
 34
0.0
 15
0.0
 25
0.0
 35
0.0
146
0.0
 13
0.0
 23
0.0
 33
0.0
 16
1.0
 26
0.0
 36
0.0
 17
0.0
 27
1.0
 37
0.0
 76
     0
330
2
331
1D8
1001
ACAD_PSEXT
1000
PDFCreator
1000
PDFCreator
1000
PDFCreator:
1000
eDoc Printer
1070
     0
  0
MATERIAL
  5
1EE
102
{ACAD_XDICTIONARY
360
298
102
}
102
{ACAD_REACTORS
330
D
102
}
330
D
100
AcDbMaterial
  1
ByBlock
 73
     1
 78
     1
172
     1
176
     1
270
     1
274
     1
  0
MATERIAL
  5
1ED
102
{ACAD_XDICTIONARY
360
296
102
}
102
{ACAD_REACTORS
330
D
102
}
330
D
100
AcDbMaterial
  1
ByLayer
 73
     1
 78
     1
172
     1
176
     1
270
     1
274
     1
  0
MATERIAL
  5
C
102
{ACAD_XDICTIONARY
360
28D
102
}
102
{ACAD_REACTORS
330
D
102
}
330
D
100
AcDbMaterial
  1
Global
 73
     1
 78
     1
172
     1
176
     1
270
     1
274
     1
  0
MLINESTYLE
  5
1F2
102
{ACAD_REACTORS
330
1EB
102
}
330
1EB
100
AcDbMlineStyle
  2
STANDARD
 70
     0
  3

 62
   256
 51
90.0
 52
90.0
 71
     2
 49
0.5
 62
   256
  6
BYLAYER
 49
-0.5
 62
   256
  6
BYLAYER
  0
ACDBPLACEHOLDER
  5
30
102
{ACAD_REACTORS
330
A
102
}
330
A
  0
ACDBPLACEHOLDER
  5
9
102
{ACAD_REACTORS
330
A
102
}
330
A
  0
SCALE
  5
1F7
102
{ACAD_REACTORS
330
1F0
102
}
330
1F0
100
AcDbScale
 70
     0
300
1:1
140
1.0
141
0.1
290
     0
  0
SCALE
  5
1F8
102
{ACAD_REACTORS
330
1F0
102
}
330
1F0
100
AcDbScale
 70
     0
300
1:2
140
1.0
141
0.2
290
     0
  0
SCALE
  5
1F9
102
{ACAD_REACTORS
330
1F0
102
}
330
1F0
100
AcDbScale
 70
     0
300
1:2.5
140
1.0
141
0.25
290
     0
  0
SCALE
  5
1FA
102
{ACAD_REACTORS
330
1F0
102
}
330
1F0
100
AcDbScale
 70
     0
300
1:5
140
1.0
141
0.5
290
     0
  0
SCALE
  5
1FB
102
{ACAD_REACTORS
330
1F0
102
}
330
1F0
100
AcDbScale
 70
     0
300
1:7.5
140
1.0
141
0.75
290
     0
  0
SCALE
  5
1FC
102
{ACAD_REACTORS
330
1F0
102
}
330
1F0
100
AcDbScale
 70
     0
300
1:10
140
1.0
141
1.0
290
     1
  0
SCALE
  5
1FD
102
{ACAD_REACTORS
330
1F0
102
}
330
1F0
100
AcDbScale
 70
     0
300
1:20
140
1.0
141
2.0
290
     0
  0
SCALE
  5
1FE
102
{ACAD_REACTORS
330
1F0
102
}
330
1F0
100
AcDbScale
 70
     0
300
1:25
140
1.0
141
2.5
290
     0
  0
SCALE
  5
1FF
102
{ACAD_REACTORS
330
1F0
102
}
330
1F0
100
AcDbScale
 70
     0
300
1:50
140
1.0
141
5.0
290
     0
  0
SCALE
  5
200
102
{ACAD_REACTORS
330
1F0
102
}
330
1F0
100
AcDbScale
 70
     0
300
1:75
140
1.0
141
7.5
290
     0
  0
SCALE
  5
201
102
{ACAD_REACTORS
330
1F0
102
}
330
1F0
100
AcDbScale
 70
     0
300
1:100
140
1.0
141
10.0
290
     0
  0
SCALE
  5
202
102
{ACAD_REACTORS
330
1F0
102
}
330
1F0
100
AcDbScale
 70
     0
300
1:150
140
1.0
141
15.0
290
     0
  0
SCALE
  5
203
102
{ACAD_REACTORS
330
1F0
102
}
330
1F0
100
AcDbScale
 70
     0
300
1:200
140
1.0
141
20.0
290
     0
  0
SCALE
  5
204
102
{ACAD_REACTORS
330
1F0
102
}
330
1F0
100
AcDbScale
 70
     0
300
1:250
140
1.0
141
25.0
290
     0
  0
SCALE
  5
205
102
{ACAD_REACTORS
330
1F0
102
}
330
1F0
100
AcDbScale
 70
     0
300
1:500
140
1.0
141
50.0
290
     0
  0
SCALE
  5
206
102
{ACAD_REACTORS
330
1F0
102
}
330
1F0
100
AcDbScale
 70
     0
300
1:750
140
1.0
141
75.0
290
     0
  0
SCALE
  5
207
102
{ACAD_REACTORS
330
1F0
102
}
330
1F0
100
AcDbScale
 70
     0
300
1:1000
140
1.0
141
100.0
290
     0
  0
SCALE
  5
208
102
{ACAD_REACTORS
330
1F0
102
}
330
1F0
100
AcDbScale
 70
     0
300
1:1250
140
1.0
141
125.0
290
     0
  0
SCALE
  5
209
102
{ACAD_REACTORS
330
1F0
102
}
330
1F0
100
AcDbScale
 70
     0
300
1:2000
140
1.0
141
200.0
290
     0
  0
SCALE
  5
20A
102
{ACAD_REACTORS
330
1F0
102
}
330
1F0
100
AcDbScale
 70
     0
300
1:2500
140
1.0
141
250.0
290
     0
  0
SCALE
  5
20B
102
{ACAD_REACTORS
330
1F0
102
}
330
1F0
100
AcDbScale
 70
     0
300
1:5000
140
1.0
141
500.0
290
     0
  0
TABLESTYLE
  5
1F3
102
{ACAD_XDICTIONARY
360
1F4
102
}
102
{ACAD_REACTORS
330
1F1
102
}
330
1F1
100
AcDbTableStyle
  3
Standard
 70
     0
 71
     0
 40
1.5
 41
1.5
280
     0
281
     0
  7
Standard
140
4.5
170
     2
 62
     0
 63
     7
283
     0
274
    -2
284
     1
 64
     0
275
    -2
285
     1
 65
     0
276
    -2
286
     1
 66
     0
277
    -2
287
     1
 67
     0
278
    -2
288
     1
 68
     0
279
    -2
289
     1
 69
     0
  7
Standard
140
6.0
170
     5
 62
     0
 63
     7
283
     0
274
    -2
284
     1
 64
     0
275
    -2
285
     1
 65
     0
276
    -2
286
     1
 66
     0
277
    -2
287
     1
 67
     0
278
    -2
288
     1
 68
     0
279
    -2
289
     1
 69
     0
  7
Standard
140
4.5
170
     5
 62
     0
 63
     7
283
     0
274
    -2
284
     1
 64
     0
275
    -2
285
     1
 65
     0
276
    -2
286
     1
 66
     0
277
    -2
287
     1
 67
     0
278
    -2
288
     1
 68
     0
279
    -2
289
     1
 69
     0
  0
VISUALSTYLE
  5
1D9
102
{ACAD_REACTORS
330
1DA
102
}
330
1DA
100
AcDbVisualStyle
  2
2dWireframe
 70
     4
 71
     0
 72
     2
 73
     0
 90
        0
 40
-0.6
 41
-30.0
 62
     5
 63
     7
 74
     1
 91
        4
 64
     7
 65
   257
 75
     1
175
     1
 42
1.0
 92
        0
 66
   257
 43
1.0
 76
     1
 77
     6
 78
     2
 67
     7
 79
     5
170
     0
171
     0
290
     0
174
     0
 93
        1
 44
0.0
173
     0
291
     0
 45
0.0
1001
ACAD
1000
AcDbSavedByObjectVersion
1070
     0
  0
VISUALSTYLE
  5
1F6
102
{ACAD_REACTORS
330
1DA
102
}
330
1DA
100
AcDbVisualStyle
  2
3dWireframe
 70
     5
 71
     0
 72
     2
 73
     0
 90
        0
 40
-0.6
 41
-30.0
 62
     5
 63
     7
 74
     1
 91
        4
 64
     7
 65
   257
 75
     1
175
     1
 42
1.0
 92
        0
 66
   257
 43
1.0
 76
     1
 77
     6
 78
     2
 67
     7
 79
     5
170
     0
171
     0
290
     0
174
     0
 93
        1
 44
0.0
173
     0
291
     0
 45
0.0
1001
ACAD
1000
AcDbSavedByObjectVersion
1070
     0
  0
VISUALSTYLE
  5
1F5
102
{ACAD_REACTORS
330
1DA
102
}
330
1DA
100
AcDbVisualStyle
  2
Realistic
 70
     8
 71
     2
 72
     2
 73
     0
 90
        0
 40
-0.6
 41
-30.0
 62
     5
 63
     7
 74
     1
 91
        0
 64
     7
 65
   257
 75
     1
175
     1
 42
1.0
 92
        8
 66
     8
 43
1.0
 76
     1
 77
     6
 78
     2
 67
     7
 79
     5
170
     0
171
     0
290
     0
174
     0
 93
       13
 44
0.0
173
     0
291
     0
 45
0.0
1001
ACAD
1000
AcDbSavedByObjectVersion
1070
     0
  0
DICTIONARYVAR
  5
282
102
{ACAD_REACTORS
330
27F
102
}
330
27F
100
DictionaryVariables
280
     0
  1
1:100
  0
DICTIONARYVAR
  5
281
102
{ACAD_REACTORS
330
27F
102
}
330
27F
100
DictionaryVariables
280
     0
  1
STANDARD
  0
DICTIONARYVAR
  5
280
102
{ACAD_REACTORS
330
27F
102
}
330
27F
100
DictionaryVariables
280
     0
  1
STANDARD
  0
DICTIONARYVAR
  5
287
102
{ACAD_REACTORS
330
27F
102
}
330
27F
100
DictionaryVariables
280
     0
  1
2
  0
DICTIONARYVAR
  5
286
102
{ACAD_REACTORS
330
27F
102
}
330
27F
100
DictionaryVariables
280
     0
  1
1
  0
DICTIONARYVAR
  5
285
102
{ACAD_REACTORS
330
27F
102
}
330
27F
100
DictionaryVariables
280
     0
  1
0
  0
DICTIONARYVAR
  5
283
102
{ACAD_REACTORS
330
27F
102
}
330
27F
100
DictionaryVariables
280
     0
  1
14
  0
DICTIONARYVAR
  5
284
102
{ACAD_REACTORS
330
27F
102
}
330
27F
100
DictionaryVariables
280
     0
  1
127
  0
OBJECT_PTR
  5
27E
102
{ACAD_REACTORS
330
22D
102
}
330
22D
1001
DCO15
1000
jet_dbsamples..."elementy wiezby"(_el_wzb_Left_nazw_romans16)
1000
nazw_el_wiezb
1040
1.0
1040
1.0
1040
0.0
1040
0.0
1040
0.0
1040
0.0
1040
0.0
1040
15.0
1071
        0
1071
      256
1071
        7
1071
        5
1071
        1
1000
RomanS
1000
ByLayer
1000
#(nazw_el_wiezb)
  0
OBJECT_PTR
  5
27D
102
{ACAD_REACTORS
330
22D
102
}
330
22D
1001
DCO15
1000
jet_dbsamples..."elementy wiezby"(_elementy_wiezby_SKROT_Romans16)
1000
skrot_el_wiezb
1040
1.0
1040
1.0
1040
0.0
1040
0.0
1040
0.0
1040
0.0
1040
0.0
1040
16.0
1071
        0
1071
      256
1071
        9
1071
        5
1071
        1
1000
RomanS
1000
ByLayer
1000
#(skrot_el_wiezb)
  0
OBJECT_PTR
  5
27C
102
{ACAD_REACTORS
330
22D
102
}
330
22D
1001
DCO15
1000
jet_dbsamples..."materialy przegrod pl"(_materialy_przegrod_pl_Label1)
1000
nazw_mat
1040
1.0
1040
1.0
1040
0.0
1040
0.0
1040
0.0
1040
0.0
1040
0.0
1040
17.0
1071
        0
1071
      256
1071
        7
1071
        5
1071
        1
1000
RomanS
1000
ByLayer
1000
#(nazw_mat)
  0
OBJECT_PTR
  5
27B
102
{ACAD_REACTORS
330
22D
102
}
330
22D
1001
DCO15
1000
jet_dbsamples..."nazwy przegrod pl"(_nazwy_przegrod_romans18)
1000
nzw_przegrody
1040
1.0
1040
1.0
1040
0.0
1040
0.0
1040
0.0
1040
0.0
1040
0.0
1040
17.0
1071
        0
1071
      256
1071
        7
1071
        5
1071
        1
1000
RomanS
1000
ByLayer
1000
{\L\C2;#(nzw_przegrody)}
  0
OBJECT_PTR
  5
27A
102
{ACAD_REACTORS
330
22D
102
}
330
22D
1001
DCO15
1000
jet_dbsamples..."nazwy rysunkow"(_nazwy_rysunkow_Arial37)
1000
1linia
1000
2linia
1000
3linia
1040
1.0
1040
1.0
1040
0.0
1040
0.0
1040
0.0
1040
0.0
1040
0.0
1040
37.0
1071
        0
1071
      256
1071
        1
1071
        5
1071
        1
1000
RomanS
1000
ByLayer
1000
{\fArial|b0|i0|c238|p34;#(1linia)\P#(2linia)\P#(3linia)}
  0
OBJECT_PTR
  5
279
102
{ACAD_REACTORS
330
22D
102
}
330
22D
1001
DCO15
1000
jet_dbsamples..."nazwy rysunkow"(_nazwy_rysunkow_Romans18)
1000
1linia
1000
2linia
1000
3linia
1040
1.0
1040
1.0
1040
0.0
1040
0.0
1040
0.0
1040
0.0
1040
0.0
1040
18.0
1071
        0
1071
      256
1071
        2
1071
        5
1071
        1
1000
RomanS
1000
ByLayer
1000
{\Fromans.shx|c238;#(1linia)\P#(2linia)\P#(3linia)}
  0
OBJECT_PTR
  5
278
102
{ACAD_REACTORS
330
22D
102
}
330
22D
1001
DCO15
1000
jet_dbsamples..."opisy rozne II"(_opisy_rozne_II_Label1)
1000
opis różny
1040
1.0
1040
1.0
1040
0.0
1040
0.0
1040
0.0
1040
0.0
1040
0.0
1040
10.0
1071
        0
1071
      256
1071
        1
1071
        5
1071
        1
1000
RomanS
1000
ByLayer
1000
#(opis różny)
  0
OBJECT_PTR
  5
277
102
{ACAD_REACTORS
330
22D
102
}
330
22D
1001
DCO15
1000
jet_dbsamples..."opisy rozne II"(_opisy_rozne_II_Link1Label1)
1000
opis różny
1040
1.0
1040
1.0
1040
0.0
1040
0.0
1040
0.0
1040
0.0
1040
0.0
1040
10.0
1071
        0
1071
      256
1071
        1
1071
        5
1071
        1
1000
RomanS
1000
ByLayer
1000
#(opis różny)
  0
OBJECT_PTR
  5
276
102
{ACAD_REACTORS
330
22D
102
}
330
22D
1001
DCO15
1000
jet_dbsamples..."posadzki do zestawienia pomieszczen"(_posadzki_do_zestawienia_pomieszczen_Romans17)
1000
nazwa_pos
1040
1.0
1040
1.0
1040
0.0
1040
0.0
1040
0.0
1040
0.0
1040
0.0
1040
17.0
1071
        0
1071
      256
1071
        7
1071
        5
1071
        1
1000
RomanS
1000
ByLayer
1000
#(nazwa_pos)
  0
OBJECT_PTR
  5
275
102
{ACAD_REACTORS
330
22D
102
}
330
22D
1001
DCO15
1000
jet_dbsamples..."rozne opisy rys"(_rozne_opisy_rys_R16_right)
1000
1L
1000
2L
1000
3L
1000
4L
1000
5L
1040
1.0
1040
1.0
1040
0.0
1040
0.0
1040
0.0
1040
0.0
1040
0.0
1040
16.0
1071
        0
1071
      256
1071
        3
1071
        5
1071
        1
1000
RomanS
1000
ByLayer
1000
#(1L)\P#(2L)\P#(3L)\P#(4L)\P#(5L)
  0
OBJECT_PTR
  5
274
102
{ACAD_REACTORS
330
22D
102
}
330
22D
1001
DCO15
1000
jet_dbsamples..."rozne opisy rys"(_rozne_opisy_rys_Romans12)
1000
1L
1000
2L
1000
3L
1000
4L
1000
5L
1040
1.0
1040
1.0
1040
0.0
1040
0.0
1040
0.0
1040
0.0
1040
0.0
1040
13.0
1071
        0
1071
      256
1071
        1
1071
        5
1071
        1
1000
RomanS
1000
ByLayer
1000
#(1L)\P#(2L)\P#(3L)\P#(4L)\P#(5L)
  0
OBJECT_PTR
  5
273
102
{ACAD_REACTORS
330
22D
102
}
330
22D
1001
DCO15
1000
jet_dbsamples..."rozne opisy rys"(_rozne_opisy_rys_Romans16)
1000
1L
1000
2L
1000
3L
1000
4L
1000
5L
1040
1.0
1040
1.0
1040
0.0
1040
0.0
1040
0.0
1040
0.0
1040
0.0
1040
16.0
1071
        0
1071
      256
1071
        1
1071
        5
1071
        1
1000
RomanS
1000
ByLayer
1000
#(1L)\P#(2L)\P#(3L)\P#(4L)\P#(5L)
  0
OBJECT_PTR
  5
272
102
{ACAD_REACTORS
330
22D
102
}
330
22D
1001
DCO15
1000
jet_dbsamples..."tabelka - inform i etykiety"(_tabelka_-_inform_i_etykiety_Romans13)
1000
1linia
1000
2linia_ewentualna
1000
3linia_ewentualna
1040
1.0
1040
1.0
1040
0.0
1040
0.0
1040
0.0
1040
0.0
1040
0.0
1040
13.0
1071
        0
1071
      256
1071
        1
1071
        5
1071
        1
1000
RomanS
1000
ByLayer
1000
#(1linia)\P#(2linia_ewentualna)\P#(3linia_ewentualna)
  0
OBJECT_PTR
  5
271
102
{ACAD_REACTORS
330
22D
102
}
330
22D
1001
DCO15
1000
jet_dbsamples..."tabelka - inform i etykiety"(_tabelka_Arial15-center)
1000
1linia
1000
2linia_ewentualna
1000
3linia_ewentualna
1040
1.0
1040
1.0
1040
0.0
1040
0.0
1040
0.0
1040
0.0
1040
0.0
1040
15.0
1071
        0
1071
      256
1071
        2
1071
        5
1071
        1
1000
RomanS
1000
ByLayer
1000
{\fArial|b0|i0|c238|p34;#(1linia)\P#(2linia_ewentualna)\P#(3linia_ewentualna)}
  0
OBJECT_PTR
  5
270
102
{ACAD_REACTORS
330
22D
102
}
330
22D
1001
DCO15
1000
jet_dbsamples..."tabelka - inform i etykiety"(_tabelka_Arial151)
1000
1linia
1040
1.0
1040
1.0
1040
0.0
1040
0.0
1040
0.0
1040
0.0
1040
0.0
1040
15.0
1071
        0
1071
      256
1071
        1
1071
        5
1071
        1
1000
RomanS
1000
ByLayer
1000
{\fArial|b0|i0|c238|p34;#(1linia)}
  0
OBJECT_PTR
  5
26F
102
{ACAD_REACTORS
330
22D
102
}
330
22D
1001
DCO15
1000
jet_dbsamples..."tabelka - inform i etykiety"(_tabelka_Romans 10)
1000
1linia
1000
2linia_ewentualna
1000
3linia_ewentualna
1040
1.0
1040
1.0
1040
0.0
1040
0.0
1040
0.0
1040
0.0
1040
0.0
1040
10.0
1071
        0
1071
      256
1071
        1
1071
        5
1071
        1
1000
RomanS
1000
ByLayer
1000
#(1linia)\P#(2linia_ewentualna)\P#(3linia_ewentualna)
  0
OBJECT_PTR
  5
26E
102
{ACAD_REACTORS
330
22D
102
}
330
22D
1001
DCO15
1000
jet_dbsamples..."tabelka - inform i etykiety"(_tabelka_Romans13)
1000
1linia
1000
2linia_ewentualna
1000
3linia_ewentualna
1040
1.0
1040
1.0
1040
0.0
1040
0.0
1040
0.0
1040
0.0
1040
0.0
1040
13.0
1071
        0
1071
      256
1071
        1
1071
        5
1071
        1
1000
RomanS
1000
ByLayer
1000
#(1linia)\P#(2linia_ewentualna)\P#(3linia_ewentualna)
  0
OBJECT_PTR
  5
26D
102
{ACAD_REACTORS
330
22D
102
}
330
22D
1001
DCO15
1000
jet_dbsamples..."tabelka - inform i etykiety"(_tabelka_Romans19)
1000
1linia
1000
2linia_ewentualna
1000
3linia_ewentualna
1040
1.0
1040
1.0
1040
0.0
1040
0.0
1040
0.0
1040
0.0
1040
0.0
1040
19.0
1071
        0
1071
      256
1071
        2
1071
        5
1071
        1
1000
RomanS
1000
ByLayer
1000
#(1linia)\P#(2linia_ewentualna)\P#(3linia_ewentualna)
  0
OBJECT_PTR
  5
26C
102
{ACAD_REACTORS
330
22D
102
}
330
22D
1001
DCO15
1000
ELE..."tbl_nazwy rys"(_tbl_nazwy_rys_Arial35)
1000
2
1040
1.0
1040
1.0
1040
0.0
1040
0.0
1040
0.0
1040
0.0
1040
0.0
1040
35.0
1071
        0
1071
      256
1071
        1
1071
        5
1071
        1
1000
ARIAL
1000
ByLayer
1000
#(2)
  0
OBJECT_PTR
  5
26B
102
{ACAD_REACTORS
330
22D
102
}
330
22D
1001
DCO15
1000
ELE..."tbl_nazwy rys"(_tbl_nazwy_rys_Romans18)
1000
2
1040
1.0
1040
1.0
1040
0.0
1040
0.0
1040
0.0
1040
0.0
1040
0.0
1040
18.0
1071
        0
1071
      256
1071
        1
1071
        5
1071
        1
1000
ARIAL
1000
ByLayer
1000
#(2)
  0
OBJECT_PTR
  5
26A
102
{ACAD_REACTORS
330
22D
102
}
330
22D
1001
DCO15
1000
jet_dbsamples...ALFABET(ALFABET-Arial20)
1000
liter_alf
1040
1.0
1040
1.0
1040
0.0
1040
0.0
1040
0.0
1040
0.0
1040
0.0
1040
20.0
1071
        0
1071
      256
1071
        7
1071
        5
1071
        1
1000
ARIAL
1000
ByLayer
1000
{\fArial|b0|i0|c238|p34;#(liter_alf)}
  0
OBJECT_PTR
  5
269
102
{ACAD_REACTORS
330
22D
102
}
330
22D
1001
DCO15
1000
jet_dbsamples...ALFABET(ALFABET-Arial26)
1000
liter_alf
1040
1.0
1040
1.0
1040
0.0
1040
0.0
1040
0.0
1040
0.0
1040
0.0
1040
26.0
1071
        0
1071
      256
1071
        7
1071
        5
1071
        1
1000
ARIAL
1000
ByLayer
1000
{\fArial|b0|i0|c238|p34;\C140;#(liter_alf)}
  0
OBJECT_PTR
  5
268
102
{ACAD_REACTORS
330
22D
102
}
330
22D
1001
DCO15
1000
jet_dbsamples...ALFABET(ALFABET-Arial37)
1000
liter_alf
1040
1.0
1040
1.0
1040
0.0
1040
0.0
1040
0.0
1040
0.0
1040
0.0
1040
37.0
1071
        0
1071
      256
1071
        7
1071
        5
1071
        1
1000
ARIAL
1000
ByLayer
1000
{\fArial|b0|i0|c238|p34;#(liter_alf)}
  0
OBJECT_PTR
  5
267
102
{ACAD_REACTORS
330
22D
102
}
330
22D
1001
DCO15
1000
jet_dbsamples..."uwagi ogolne na arkuszu"(Arial_27)
1000
1naglowek
1000
1linia
1000
2linia
1000
3linia
1000
4linia
1000
5linia
1000
6linia
1000
7linia
1000
8linia
1000
9linia
1000
10linia
1000
11linia
1000
12linia
1040
1.0
1040
1.0
1040
0.0
1040
0.0
1040
0.0
1040
0.0
1040
0.0
1040
26.0
1071
        0
1071
      256
1071
        1
1071
        5
1071
        1
1000
ARIAL
1000
ByLayer
1000
{\fArial|b0|i0|c238|p34;#(1naglowek)\P#(1linia)\P#(2linia)\P#(3linia)\P#(4linia)\P#(5linia)\P#(6linia)\P#(7linia)\P#(8linia)\P#(9linia)\P#(10linia)\P#(11linia)\P#(12linia)}
  0
OBJECT_PTR
  5
266
102
{ACAD_REACTORS
330
22D
102
}
330
22D
1001
DCO15
1000
wkc...arkusz_nazwy(arkusz_nazwy_Arial35)
1000
Nazwa rysunku
1040
1.0
1040
1.0
1040
0.0
1040
0.0
1040
0.0
1040
0.0
1040
0.0
1040
35.0
1071
        0
1071
      256
1071
        1
1071
        5
1071
        1
1000
ARIAL
1000
ByLayer
1000
#(Nazwa rysunku)
  0
OBJECT_PTR
  5
265
102
{ACAD_REACTORS
330
22D
102
}
330
22D
1001
DCO15
1000
konstr...arkusz_nazwy(arkusz_nazwy_Arial_35_DwieLinie)
1000
Nazwa rysunku
1000
Nazwa rysunku_2
1040
1.0
1040
1.0
1040
0.0
1040
0.0
1040
0.0
1040
0.0
1040
0.0
1040
35.0
1071
        0
1071
      256
1071
        2
1071
        5
1071
        1
1000
ARIAL
1000
ByLayer
1000
#(Nazwa rysunku)\P#(Nazwa rysunku_2)
  0
OBJECT_PTR
  5
264
102
{ACAD_REACTORS
330
22D
102
}
330
22D
1001
DCO15
1000
wkc...arkusz_nazwy(arkusz_nazwy_Romans18)
1000
Nazwa rysunku
1040
1.0
1040
1.0
1040
0.0
1040
0.0
1040
0.0
1040
0.0
1040
0.0
1040
18.0
1071
        0
1071
      256
1071
        1
1071
        5
1071
        1
1000
RomanS
1000
ByLayer
1000
#(Nazwa rysunku)
  0
OBJECT_PTR
  5
263
102
{ACAD_REACTORS
330
22D
102
}
330
22D
1001
DCO15
1000
konstr...arkusz_nazwy(arkusz_nazwy_Romans_18)
1000
Nazwa rysunku
1000
Nazwa rysunku_2
1040
1.0
1040
1.0
1040
0.0
1040
0.0
1040
0.0
1040
0.0
1040
0.0
1040
18.0
1071
        0
1071
      256
1071
        2
1071
        5
1071
        1
1000
RomanS
1000
ByLayer
1000
#(Nazwa rysunku) #(Nazwa rysunku_2)
  0
OBJECT_PTR
  5
262
102
{ACAD_REACTORS
330
22D
102
}
330
22D
1001
DCO15
1000
jet_dbsamples...jednostki(jednostki-Arial18)
1000
jedn
1040
1.0
1040
1.0
1040
0.0
1040
0.0
1040
0.0
1040
0.0
1040
0.0
1040
18.0
1071
        0
1071
      256
1071
        7
1071
        5
1071
        1
1000
RomanS
1000
ByLayer
1000
{\fArial|b0|i0|c238|p34;#(jedn)}
  0
OBJECT_PTR
  5
261
102
{ACAD_REACTORS
330
22D
102
}
330
22D
1001
DCO15
1000
jet_dbsamples...jednostki(jednostki-Arial30)
1000
jedn
1040
1.0
1040
1.0
1040
0.0
1040
0.0
1040
0.0
1040
0.0
1040
0.0
1040
30.0
1071
        0
1071
      256
1071
        7
1071
        5
1071
        1
1000
RomanS
1000
ByLayer
1000
{\fArial|b0|i0|c238|p34;#(jedn)}
  0
OBJECT_PTR
  5
260
102
{ACAD_REACTORS
330
22D
102
}
330
22D
1001
DCO15
1000
jet_dbsamples...jednostki(jednostki-Romans16)
1000
jedn
1040
1.0
1040
1.0
1040
0.0
1040
0.0
1040
0.0
1040
0.0
1040
0.0
1040
16.0
1071
        0
1071
      256
1071
        7
1071
        5
1071
        1
1000
RomanS
1000
ByLayer
1000
#(jedn)
  0
OBJECT_PTR
  5
25F
102
{ACAD_REACTORS
330
22D
102
}
330
22D
1001
DCO15
1000
KONSTR...jednostki(jednostki_arial6.6kursywa)
1000
JEDNOSTKI
1040
1.0
1040
1.0
1040
0.0
1040
0.0
1040
0.0
1040
0.0
1040
0.0
1040
6.599999999999999
1071
        0
1071
      256
1071
        1
1071
        5
1071
        1
1000
RomanS
1000
ByLayer
1000
{\fArial|b0|i1|c0|p34;#(JEDNOSTKI)}
  0
OBJECT_PTR
  5
25E
102
{ACAD_REACTORS
330
22D
102
}
330
22D
1001
DCO15
1000
KONSTR...jednostki(jednostki_ROMANS11)
1000
JEDNOSTKI
1040
1.0
1040
1.0
1040
0.0
1040
0.0
1040
0.0
1040
0.0
1040
0.0
1040
11.0
1071
        0
1071
      256
1071
        1
1071
        5
1071
        1
1000
RomanS
1000
ByLayer
1000
#(JEDNOSTKI)
  0
OBJECT_PTR
  5
25D
102
{ACAD_REACTORS
330
22D
102
}
330
22D
1001
DCO15
1000
KONSTR...jednostki(jednostki_ROMANS15)
1000
JEDNOSTKI
1040
1.0
1040
1.0
1040
0.0
1040
0.0
1040
0.0
1040
0.0
1040
0.0
1040
15.0
1071
        0
1071
      256
1071
        1
1071
        5
1071
        1
1000
RomanS
1000
ByLayer
1000
#(JEDNOSTKI)
  0
OBJECT_PTR
  5
25C
102
{ACAD_REACTORS
330
22D
102
}
330
22D
1001
DCO15
1000
ELE...tbl_jednostki(jednostki_Romans30)
1000
1
1040
1.0
1040
1.0
1040
0.0
1040
0.0
1040
0.0
1040
0.0
1040
0.0
1040
30.0
1071
        0
1071
      256
1071
        1
1071
        5
1071
        1
1000
RomanS
1000
ByLayer
1000
#(1)
  0
OBJECT_PTR
  5
25B
102
{ACAD_REACTORS
330
22D
102
}
330
22D
1001
DCO15
1000
KONSTR...jednostki(jednostki_Romans7)
1000
JEDNOSTKI
1040
1.0
1040
1.0
1040
0.0
1040
0.0
1040
0.0
1040
0.0
1040
0.0
1040
7.0
1071
        0
1071
      256
1071
        1
1071
        5
1071
        1
1000
RomanS
1000
ByLayer
1000
#(JEDNOSTKI)
  0
OBJECT_PTR
  5
25A
102
{ACAD_REACTORS
330
22D
102
}
330
22D
1001
DCO15
1000
KONSTR...jednostki(jednostkiLabel1)
1000
JEDNOSTKI
1040
1.0
1040
1.0
1040
0.0
1040
0.0
1040
0.0
1040
0.0
1040
0.0
1040
11.0
1071
        0
1071
      256
1071
        7
1071
        5
1071
        1
1000
RomanS
1000
ByLayer
1000
#(JEDNOSTKI)
  0
OBJECT_PTR
  5
259
102
{ACAD_REACTORS
330
22D
102
}
330
22D
1001
DCO15
1000
KONSTR...jednostki(jednostkiRomans22)
1000
JEDNOSTKI
1040
1.0
1040
1.0
1040
0.0
1040
0.0
1040
0.0
1040
0.0
1040
0.0
1040
22.4
1071
        0
1071
      256
1071
        7
1071
        5
1071
        1
1000
RomanS
1000
ByLayer
1000
#(JEDNOSTKI)
  0
OBJECT_PTR
  5
258
102
{ACAD_REACTORS
330
22D
102
}
330
22D
1001
DCO15
1000
KONSTR...konstr_drew(konstr_drew_arial6.6kursywa)
1000
1L
1000
2L
1000
3L
1000
4L
1000
5L
1040
1.0
1040
1.0
1040
0.0
1040
0.0
1040
0.0
1040
0.0
1040
0.0
1040
6.599999999999999
1071
        0
1071
      256
1071
        1
1071
        5
1071
        1
1000
RomanS
1000
ByLayer
1000
{\fArial|b0|i1|c238|p34;#(1L)\P#(2L)\P#(3L)\P#(4L)\P#(5L)}
  0
OBJECT_PTR
  5
257
102
{ACAD_REACTORS
330
22D
102
}
330
22D
1001
DCO15
1000
KONSTR...konstr_drew(konstr_drew_romans7)
1000
1L
1000
2L
1000
3L
1000
4L
1000
5L
1000
6L
1040
1.0
1040
1.0
1040
0.0
1040
0.0
1040
0.0
1040
0.0
1040
0.0
1040
7.0
1071
        0
1071
      256
1071
        1
1071
        5
1071
        1
1000
RomanS
1000
ByLayer
1000
#(1L)\P#(2L)\P#(3L)\P#(4L)\P#(5L)\P#(6L)
  0
OBJECT_PTR
  5
256
102
{ACAD_REACTORS
330
22D
102
}
330
22D
1001
DCO15
1000
KONSTR...konstr_stal(konstr_stalarial9kursywa)
1000
1L
1000
2L
1000
3L
1000
4L
1040
1.0
1040
1.0
1040
0.0
1040
0.0
1040
0.0
1040
0.0
1040
0.0
1040
9.0
1071
        0
1071
      256
1071
        1
1071
        5
1071
        1
1000
RomanS
1000
ByLayer
1000
{\fArial|b0|i1|c238|p34;#(1L)\P#(2L)\P#(3L)\P#(4L)}
  0
OBJECT_PTR
  5
255
102
{ACAD_REACTORS
330
22D
102
}
330
22D
1001
DCO15
1000
KONSTR...konstr_stal(konstr_stalLabel1)
1000
1L
1000
2L
1000
3L
1000
4L
1040
1.0
1040
1.0
1040
0.0
1040
0.0
1040
0.0
1040
0.0
1040
0.0
1040
6.0
1071
        0
1071
      256
1071
        1
1071
        5
1071
        1
1000
RomanS
1000
ByLayer
1000
#(1L)\P#(2L)\P#(3L)\P#(4L)
  0
OBJECT_PTR
  5
254
102
{ACAD_REACTORS
330
22D
102
}
330
22D
1001
DCO15
1000
KONSTR...konstr_stal(konstr_stalLabel2)
1000
1L
1000
2L
1000
3L
1000
4L
1040
1.0
1040
1.0
1040
0.0
1040
0.0
1040
0.0
1040
0.0
1040
0.0
1040
6.0
1071
        0
1071
      256
1071
        1
1071
        5
1071
        1
1000
RomanS
1000
ByLayer
1000
#(1L)\P#(2L)\P#(3L)\P#(4L)
  0
OBJECT_PTR
  5
253
102
{ACAD_REACTORS
330
22D
102
}
330
22D
1001
DCO15
1000
jet_dbsamples...miesiace(miesiace-Romans17)
1000
nzw_mies
1040
1.0
1040
1.0
1040
0.0
1040
0.0
1040
0.0
1040
0.0
1040
0.0
1040
17.0
1071
        0
1071
      256
1071
        1
1071
        5
1071
        1
1000
RomanS
1000
ByLayer
1000
#(nzw_mies)
  0
OBJECT_PTR
  5
252
102
{ACAD_REACTORS
330
22D
102
}
330
22D
1001
DCO15
1000
jet_dbsamples...pomieszczenia(pomieszczenia-Arial 15)
1000
nazwa
1040
1.0
1040
1.0
1040
0.0
1040
0.0
1040
0.0
1040
0.0
1040
0.0
1040
15.0
1071
        0
1071
      256
1071
        8
1071
        5
1071
        1
1000
RomanS
1000
ByLayer
1000
{\fArial|b0|i0|c238|p34;#(nazwa)}
  0
OBJECT_PTR
  5
251
102
{ACAD_REACTORS
330
22D
102
}
330
22D
1001
DCO15
1000
jet_dbsamples...pomieszczenia(pomieszczenia-Romans17)
1000
nazwa
1040
1.0
1040
1.0
1040
0.0
1040
0.0
1040
0.0
1040
0.0
1040
0.0
1040
17.0
1071
        0
1071
      256
1071
        7
1071
        5
1071
        1
1000
RomanS
1000
ByLayer
1000
#(nazwa)
  0
OBJECT_PTR
  5
250
102
{ACAD_REACTORS
330
22D
102
}
330
22D
1001
DCO15
1000
jet_dbsamples..."elementy wiezby"(romans16)
1000
nazw_el_wiezb
1040
1.0
1040
1.0
1040
0.0
1040
0.0
1040
0.0
1040
0.0
1040
0.0
1040
16.0
1071
        0
1071
      256
1071
        1
1071
        5
1071
        1
1000
RomanS
1000
ByLayer
1000
#(nazw_el_wiezb)
  0
OBJECT_PTR
  5
24F
102
{ACAD_REACTORS
330
22D
102
}
330
22D
1001
DCO15
1000
jet_dbsamples..."uwagi ogolne na arkuszu"(Romans_17)
1000
1naglowek
1000
1linia
1000
2linia
1000
3linia
1000
4linia
1000
5linia
1000
6linia
1000
7linia
1000
8linia
1000
9linia
1000
10linia
1000
11linia
1000
12linia
1040
1.0
1040
1.0
1040
0.0
1040
0.0
1040
0.0
1040
0.0
1040
0.0
1040
17.0
1071
        0
1071
      256
1071
        1
1071
        5
1071
        1
1000
RomanS
1000
ByLayer
1000
#(1naglowek)\P#(1linia)\P#(2linia)\P#(3linia)\P#(4linia)\P#(5linia)\P#(6linia)\P#(7linia)\P#(8linia)\P#(9linia)\P#(10linia)\P#(11linia)\P#(12linia)
  0
OBJECT_PTR
  5
24E
102
{ACAD_REACTORS
330
22D
102
}
330
22D
1001
DCO15
1000
KONSTR...schematy(schematy_arial15)
1000
1L
1000
2L
1000
3L
1000
4L
1000
5L
1040
1.0
1040
1.0
1040
0.0
1040
0.0
1040
0.0
1040
0.0
1040
0.0
1040
15.0
1071
        0
1071
      256
1071
        1
1071
        5
1071
        1
1000
RomanS
1000
ByLayer
1000
{\fArial|b0|i0|c238|p34;#(1L)\P#(2L)\P#(3L)\P#(4L)\P#(5L)\fArial|b0|i0|c0|p34;}
  0
OBJECT_PTR
  5
24D
102
{ACAD_REACTORS
330
22D
102
}
330
22D
1001
DCO15
1000
KONSTR...schematy(schematy_arial20)
1000
1L
1000
2L
1000
3L
1000
4L
1000
5L
1040
1.0
1040
1.0
1040
0.0
1040
0.0
1040
0.0
1040
0.0
1040
0.0
1040
22.0
1071
        0
1071
      256
1071
        1
1071
        5
1071
        1
1000
RomanS
1000
ByLayer
1000
{\fArial|b0|i0|c238|p34;#(1L)\P#(2L)\P#(3L)\P#(4L)\P#(5L)}
  0
OBJECT_PTR
  5
24C
102
{ACAD_REACTORS
330
22D
102
}
330
22D
1001
DCO15
1000
KONSTR...schematy(schematy_arial37)
1000
1L
1000
2L
1000
3L
1000
4L
1000
5L
1040
1.0
1040
1.0
1040
0.0
1040
0.0
1040
0.0
1040
0.0
1040
0.0
1040
37.0
1071
        0
1071
      256
1071
        1
1071
        5
1071
        1
1000
RomanS
1000
ByLayer
1000
{\fArial|b0|i0|c238|p34;#(1L)\P#(2L)\P#(3L)\P#(4L)\P#(5L)}
  0
OBJECT_PTR
  5
24B
102
{ACAD_REACTORS
330
22D
102
}
330
22D
1001
DCO15
1000
KONSTR...schematy(schematy_romans15)
1000
1L
1000
2L
1000
3L
1000
4L
1000
5L
1040
1.0
1040
1.0
1040
0.0
1040
0.0
1040
0.0
1040
0.0
1040
0.0
1040
15.0
1071
        0
1071
      256
1071
        1
1071
        5
1071
        1
1000
RomanS
1000
ByLayer
1000
#(1L)\P#(2L)\P#(3L)\P#(4L)\P#(5L)
  0
OBJECT_PTR
  5
24A
102
{ACAD_REACTORS
330
22D
102
}
330
22D
1001
DCO15
1000
KONSTR...schematy(schematy_romans15Right)
1000
1L
1000
2L
1000
3L
1000
4L
1000
5L
1040
1.0
1040
1.0
1040
0.0
1040
0.0
1040
0.0
1040
0.0
1040
0.0
1040
15.0
1071
        0
1071
      256
1071
        3
1071
        5
1071
        1
1000
RomanS
1000
ByLayer
1000
#(1L)\P#(2L)\P#(3L)\P#(4L)\P#(5L)
  0
OBJECT_PTR
  5
249
102
{ACAD_REACTORS
330
22D
102
}
330
22D
1001
DCO15
1000
jet_dbsamples...stolarka(stolarka-Arial14)
1000
STOL_TKST
1000
STOL_TKST_2linia
1040
1.0
1040
1.0
1040
0.0
1040
0.0
1040
0.0
1040
0.0
1040
0.0
1040
14.0
1071
        0
1071
      256
1071
        1
1071
        5
1071
        1
1000
RomanS
1000
ByLayer
1000
{\fArial|b0|i0|c238|p34;#(STOL_TKST)\P#(STOL_TKST_2linia)}
  0
OBJECT_PTR
  5
248
102
{ACAD_REACTORS
330
22D
102
}
330
22D
1001
DCO15
1000
jet_dbsamples...stolarka(stolarka-Romans1607)
1000
STOL_TKST
1000
STOL_TKST_2linia
1040
1.0
1040
1.0
1040
0.0
1040
0.0
1040
0.0
1040
0.0
1040
0.0
1040
16.0
1071
        0
1071
      256
1071
        5
1071
        5
1071
        1
1000
RomanS
1000
ByLayer
1000
#(STOL_TKST)\P#(STOL_TKST_2linia)
  0
OBJECT_PTR
  5
247
102
{ACAD_REACTORS
330
22D
102
}
330
22D
1001
DCO15
1000
jet_dbsamples...stolarka(stolarka-Romans1608)
1000
STOL_TKST
1000
STOL_TKST_2linia
1040
1.0
1040
1.0
1040
0.0
1040
0.0
1040
0.0
1040
0.0
1040
0.0
1040
16.0
1071
        0
1071
      256
1071
        5
1071
        5
1071
        1
1000
RomanS
1000
ByLayer
1000
#(STOL_TKST)\P#(STOL_TKST_2linia)
  0
OBJECT_PTR
  5
246
102
{ACAD_REACTORS
330
22D
102
}
330
22D
1001
DCO15
1000
jet_dbsamples...stolarka(stolarkaLabel1)
1000
STOL_TKST
1000
STOL_TKST_2linia
1040
1.0
1040
1.0
1040
0.0
1040
0.0
1040
0.0
1040
0.0
1040
0.0
1040
25.0
1071
        0
1071
      256
1071
        1
1071
        5
1071
        1
1000
RomanS
1000
ByLayer
1000
{\fArial|b0|i0|c238|p34;#(STOL_TKST)\P#(STOL_TKST_2linia)}
  0
OBJECT_PTR
  5
245
102
{ACAD_REACTORS
330
22D
102
}
330
22D
1001
DCO15
1000
KONSTR...szczegoly(szczegoly_arial12kursywa)
1000
1L
1000
2L
1000
3L
1000
4L
1000
5L
1000
6L
1040
1.0
1040
1.0
1040
0.0
1040
0.0
1040
0.0
1040
0.0
1040
0.0
1040
12.0
1071
        0
1071
      256
1071
        1
1071
        5
1071
        1
1000
RomanS
1000
ByLayer
1000
{\fArial|b0|i1|c238|p34;#(1L)\P#(2L)\P#(3L)\P#(4L)\P#(5L)\P#(6L)}
  0
OBJECT_PTR
  5
244
102
{ACAD_REACTORS
330
22D
102
}
330
22D
1001
DCO15
1000
KONSTR...szczegoly(szczegoly_arial6.6kursRight)
1000
1L
1000
2L
1000
3L
1000
4L
1000
5L
1000
6L
1040
1.0
1040
1.0
1040
0.0
1040
0.0
1040
0.0
1040
0.0
1040
0.0
1040
6.599999999999999
1071
        0
1071
      256
1071
        3
1071
        5
1071
        1
1000
RomanS
1000
ByLayer
1000
{\fArial|b0|i1|c238|p34;#(1L)\P#(2L)\P#(3L)\P#(4L)\P#(5L)\P#(6L)}
  0
OBJECT_PTR
  5
243
102
{ACAD_REACTORS
330
22D
102
}
330
22D
1001
DCO15
1000
KONSTR...szczegoly(szczegoly_arial6.6kursywa)
1000
1L
1000
2L
1000
3L
1000
4L
1000
5L
1000
6L
1040
1.0
1040
1.0
1040
0.0
1040
0.0
1040
0.0
1040
0.0
1040
0.0
1040
6.599999999999999
1071
        0
1071
      256
1071
        1
1071
        5
1071
        1
1000
RomanS
1000
ByLayer
1000
{\fArial|b0|i1|c238|p34;#(1L)\P#(2L)\P#(3L)\P#(4L)\P#(5L)\P#(6L)}
  0
OBJECT_PTR
  5
242
102
{ACAD_REACTORS
330
22D
102
}
330
22D
1001
DCO15
1000
KONSTR...szczegoly(szczegoly_Romans7)
1000
1L
1000
2L
1000
3L
1000
4L
1000
5L
1000
6L
1040
1.0
1040
1.0
1040
0.0
1040
0.0
1040
0.0
1040
0.0
1040
0.0
1040
7.0
1071
        0
1071
      256
1071
        1
1071
        5
1071
        1
1000
RomanS
1000
ByLayer
1000
#(1L)\P#(2L)\P#(3L)\P#(4L)\P#(5L)\P#(6L)
  0
OBJECT_PTR
  5
241
102
{ACAD_REACTORS
330
22D
102
}
330
22D
1001
DCO15
1000
KONSTR...szczegoly(szczegoly_romans7_right)
1000
1L
1000
2L
1000
3L
1000
4L
1000
5L
1000
6L
1040
1.0
1040
1.0
1040
0.0
1040
0.0
1040
0.0
1040
0.0
1040
0.0
1040
7.0
1071
        0
1071
      256
1071
        3
1071
        5
1071
        1
1000
RomanS
1000
ByLayer
1000
#(1L)\P#(2L)\P#(3L)\P#(4L)\P#(5L)\P#(6L)
  0
OBJECT_PTR
  5
240
102
{ACAD_REACTORS
330
22D
102
}
330
22D
1001
DCO15
1000
ELE..."tbl_nazwy rys"(tbl_nazwy_rys_Arial37)
1000
2
1040
1.0
1040
1.0
1040
0.0
1040
0.0
1040
0.0
1040
0.0
1040
0.0
1040
37.0
1071
        0
1071
      256
1071
        7
1071
        5
1071
        1
1000
RomanS
1000
ByLayer
1000
#(2)
  0
OBJECT_PTR
  5
23F
102
{ACAD_REACTORS
330
22D
102
}
330
22D
1001
DCO15
1000
ELE...tbl_opisy(tbl_opisy_Romans_poch20)
1000
1
1000
2
1000
3
1000
4
1040
1.0
1040
1.0
1040
0.0
1040
0.0
1040
0.0
1040
0.0
1040
0.0
1040
20.0
1071
        0
1071
      256
1071
        1
1071
        5
1071
        1
1000
RomanS
1000
ByLayer
1000
#(1)\P#(2)\P#(3)\P#(4)
  0
OBJECT_PTR
  5
23E
102
{ACAD_REACTORS
330
22D
102
}
330
22D
1001
DCO15
1000
ELE...tbl_opisy(tbl_opisy_RomansPoch14)
1000
1
1000
2
1000
3
1000
4
1040
1.0
1040
1.0
1040
0.0
1040
0.0
1040
0.0
1040
0.0
1040
0.0
1040
14.4
1071
        0
1071
      256
1071
        1
1071
        5
1071
        1
1000
RomanS
1000
ByLayer
1000
#(1)\P#(2)\P#(3)\P#(4)
  0
OBJECT_PTR
  5
23D
102
{ACAD_REACTORS
330
22D
102
}
330
22D
1001
DCO15
1000
ELE...tbl_opisy(tbl_opisy_RomansPoch20_R)
1000
1
1000
2
1000
3
1000
4
1040
1.0
1040
1.0
1040
0.0
1040
0.0
1040
0.0
1040
0.0
1040
0.0
1040
20.0
1071
        0
1071
      256
1071
        3
1071
        5
1071
        1
1000
RomanS
1000
ByLayer
1000
#(1)\P#(2)\P#(3)\P#(4)
  0
OBJECT_PTR
  5
23C
102
{ACAD_REACTORS
330
22D
102
}
330
22D
1001
DCO15
1000
jet_dbsamples...tbl_PRZEGRODY(tbl_PRZEGRODY)
1000
nazwa przegrody
1000
1w
1000
2w
1000
3w
1000
4w
1000
5w
1000
6w
1000
7w
1000
8w
1000
9w
1000
10w
1000
11w
1000
12w
1000
13w
1000
14w
1000
15w
1000
16w
1040
1.0
1040
1.0
1040
0.0
1040
0.0
1040
0.0
1040
0.0
1040
0.0
1040
17.0
1071
        0
1071
      256
1071
        1
1071
        5
1071
        1
1000
RomanS
1000
ByLayer
1000
{\Fromans.shx|c238;\L\C2;#(nazwa przegrody)\C4;\P}#(1w)\P#(2w)\P#(3w)\P#(4w)\P#(5w)\P#(6w)\P#(7w)\P#(8w)\P#(9w)\P#(10w)\P#(11w)\P#(12w)\P#(13w)\P#(14w)\P#(15w)\P#(16w)
  0
OBJECT_PTR
  5
23B
102
{ACAD_REACTORS
330
22D
102
}
330
22D
1001
DCO15
1000
wkc...tbl_uwagi_co(tbl_uwagi_coRomans20Right)
1000
1L
1000
2L
1000
3L
1000
4L
1000
5L
1040
1.0
1040
1.0
1040
0.0
1040
0.0
1040
0.0
1040
0.0
1040
0.0
1040
20.0
1071
        0
1071
      256
1071
        3
1071
        5
1071
        1
1000
RomanS
1000
ByLayer
1000
{\Fromans.shx|c238;#(1L)\P#(2L)\P#(3L)\P#(4L)\P#(5L)}
  0
OBJECT_PTR
  5
23A
102
{ACAD_REACTORS
330
22D
102
}
330
22D
1001
DCO15
1000
jet_dbsamples..."uwagi ogolne na arkuszu"(uwag_og_na_ark_Arial18)
1000
1naglowek
1000
1linia
1000
2linia
1000
3linia
1000
4linia
1000
5linia
1000
6linia
1000
7linia
1000
8linia
1000
9linia
1000
10linia
1000
11linia
1000
12linia
1040
1.0
1040
1.0
1040
0.0
1040
0.0
1040
0.0
1040
0.0
1040
0.0
1040
18.0
1071
        0
1071
      256
1071
        1
1071
        5
1071
        1
1000
RomanS
1000
ByLayer
1000
{\fArial|b0|i0|c238|p34;#(1naglowek)\P#(1linia)\P#(2linia)\P#(3linia)\P#(4linia)\P#(5linia)\P#(6linia)\P#(7linia)\P#(8linia)\P#(9linia)\P#(10linia)\P#(11linia)\P#(12linia)}
  0
OBJECT_PTR
  5
239
102
{ACAD_REACTORS
330
22D
102
}
330
22D
1001
DCO15
1000
wkc...tbl_uwagi_co(uwagi_co_Arial37)
1000
1L
1000
2L
1000
3L
1000
4L
1000
5L
1040
1.0
1040
1.0
1040
0.0
1040
0.0
1040
0.0
1040
0.0
1040
0.0
1040
37.0
1071
        0
1071
      256
1071
        1
1071
        5
1071
        1
1000
RomanS
1000
ByLayer
1000
#(1L)\P#(2L)\P#(3L)\P#(4L)\P#(5L){\fArial|b0|i0|c0|p34;}
  0
OBJECT_PTR
  5
238
102
{ACAD_REACTORS
330
22D
102
}
330
22D
1001
DCO15
1000
wkc...tbl_uwagi_co(uwagi_co_Romans20)
1000
1L
1000
2L
1000
3L
1000
4L
1000
5L
1040
1.0
1040
1.0
1040
0.0
1040
0.0
1040
0.0
1040
0.0
1040
0.0
1040
20.0
1071
        0
1071
      256
1071
        1
1071
        5
1071
        1
1000
RomanS
1000
ByLayer
1000
{\Fromans.shx|c238;#(1L)\P#(2L)\P#(3L)\P#(4L)\P#(5L)}
  0
OBJECT_PTR
  5
237
102
{ACAD_REACTORS
330
22D
102
}
330
22D
1001
DCO15
1000
KONSTR...uwagi_na_schematach(uwagi_na_schematachLabel1)
1000
1L
1000
2L
1000
3L
1000
4L
1000
5L
1000
6L
1000
7L
1000
8L
1000
9L
1000
10L
1000
11L
1000
12L
1040
1.0
1040
1.0
1040
0.0
1040
0.0
1040
0.0
1040
0.0
1040
0.0
1040
22.4
1071
        0
1071
      256
1071
        1
1071
        5
1071
        1
1000
RomanS
1000
ByLayer
1000
{\Fromans.shx|c238;#(1L)\P#(2L)\P#(3L)\P#(4L)\P#(5L)\P#(6L)\P#(7L)\P#(8L)\P#(9L)\P#(10L)\P#(11L)\P#(12L)}
  0
OBJECT_PTR
  5
236
102
{ACAD_REACTORS
330
22D
102
}
330
22D
1001
DCO15
1000
KONSTR...uwagi_na_schematach(uwagi_na_schematachLabel2)
1000
1L
1000
2L
1000
3L
1000
4L
1000
5L
1000
6L
1000
7L
1000
8L
1000
9L
1000
10L
1000
11L
1000
12L
1040
1.0
1040
1.0
1040
0.0
1040
0.0
1040
0.0
1040
0.0
1040
0.0
1040
35.0
1071
        0
1071
      256
1071
        1
1071
        5
1071
        1
1000
RomanS
1000
ByLayer
1000
{\fArial|b0|i1|c0|p34;#(1L)\P#(2L)\P#(3L)\P#(4L)\P#(5L)\P#(6L)\P#(7L)\P#(8L)\P#(9L)\P#(10L)\P#(11L)\P#(12L)}
  0
OBJECT_PTR
  5
235
102
{ACAD_REACTORS
330
22D
102
}
330
22D
1001
DCO15
1000
KONSTR...uwagi_na_schematach(uwagi_na_schematachRight)
1000
1L
1000
2L
1000
3L
1000
4L
1000
5L
1000
6L
1000
7L
1000
8L
1000
9L
1000
10L
1000
11L
1000
12L
1040
1.0
1040
1.0
1040
0.0
1040
0.0
1040
0.0
1040
0.0
1040
0.0
1040
22.4
1071
        0
1071
      256
1071
        3
1071
        5
1071
        1
1000
RomanS
1000
ByLayer
1000
{\Fromans.shx|c238;#(1L)\P#(2L)\P#(3L)\P#(4L)\P#(5L)\P#(6L)\P#(7L)\P#(8L)\P#(9L)\P#(10L)\P#(11L)\P#(12L)}
  0
OBJECT_PTR
  5
234
102
{ACAD_REACTORS
330
22D
102
}
330
22D
1001
DCO15
1000
wkc...tbl_uwagi_wodkan(uwagi_wodkan_Romans18)
1000
1L
1000
2L
1000
3L
1000
4L
1000
5L
1040
1.0
1040
1.0
1040
0.0
1040
0.0
1040
0.0
1040
0.0
1040
0.0
1040
20.0
1071
        0
1071
      256
1071
        1
1071
        5
1071
        1
1000
RomanS
1000
ByLayer
1000
#(1L)\P#(2L)\P#(3L)\P#(4L)\P#(5L)
  0
OBJECT_PTR
  5
233
102
{ACAD_REACTORS
330
22D
102
}
330
22D
1001
DCO15
1000
wkc...tbl_uwagi_wodkan(uwagi_wodkanARIAL37)
1000
1L
1000
2L
1000
3L
1000
4L
1000
5L
1040
1.0
1040
1.0
1040
0.0
1040
0.0
1040
0.0
1040
0.0
1040
0.0
1040
37.0
1071
        0
1071
      256
1071
        1
1071
        5
1071
        1
1000
RomanS
1000
ByLayer
1000
#(1L)\P#(2L)\P#(3L)\P#(4L)\P#(5L)
  0
OBJECT_PTR
  5
232
102
{ACAD_REACTORS
330
22D
102
}
330
22D
1001
DCO15
1000
wkc...tbl_uwagi_wodkan(uwagi_wodkanRomans20_Right)
1000
1L
1000
2L
1000
3L
1000
4L
1000
5L
1040
1.0
1040
1.0
1040
0.0
1040
0.0
1040
0.0
1040
0.0
1040
0.0
1040
20.0
1071
        0
1071
      256
1071
        3
1071
        5
1071
        1
1000
RomanS
1000
ByLayer
1000
{\Fromans.shx|c238;#(1L)\P#(2L)\P#(3L)\P#(4L)\P#(5L)}
  0
OBJECT_PTR
  5
231
102
{ACAD_REACTORS
330
22D
102
}
330
22D
1001
DCO15
1000
KONSTR...zbroj_plyty(zbroj_plyty_arial22)
1000
1L
1000
2L
1000
3L
1040
1.0
1040
1.0
1040
0.0
1040
0.0
1040
0.0
1040
0.0
1040
0.0
1040
22.0
1071
        0
1071
      256
1071
        1
1071
        5
1071
        1
1000
RomanS
1000
ByLayer
1000
{\fArial|b0|i0|c238|p34;#(1L)\P#(2L)\P#(3L)}
  0
OBJECT_PTR
  5
230
102
{ACAD_REACTORS
330
22D
102
}
330
22D
1001
DCO15
1000
KONSTR...zbroj_plyty(zbroj_plyty_romans12)
1000
1L
1000
2L
1000
3L
1040
1.0
1040
1.0
1040
0.0
1040
0.0
1040
0.0
1040
0.0
1040
0.0
1040
11.0
1071
        0
1071
      256
1071
        1
1071
        5
1071
        1
1000
RomanS
1000
ByLayer
1000
#(1L)\P#(2L)\P#(3L)
  0
OBJECT_PTR
  5
22F
102
{ACAD_REACTORS
330
22D
102
}
330
22D
1001
DCO15
1000
KONSTR...zbroj_plyty(zbroj_plyty_romans12Right)
1000
1L
1000
2L
1000
3L
1040
1.0
1040
1.0
1040
0.0
1040
0.0
1040
0.0
1040
0.0
1040
0.0
1040
11.0
1071
        0
1071
      256
1071
        3
1071
        5
1071
        1
1000
RomanS
1000
ByLayer
1000
#(1L)\P#(2L)\P#(3L)
  0
OBJECT_PTR
  5
22E
102
{ACAD_REACTORS
330
22D
102
}
330
22D
1001
DCO15
1000
KONSTR...zbroj_plyty(zbroj_plyty_romans9)
1000
1L
1000
2L
1000
3L
1040
1.0
1040
1.0
1040
0.0
1040
0.0
1040
0.0
1040
0.0
1040
0.0
1040
9.0
1071
        0
1071
      256
1071
        1
1071
        5
1071
        1
1000
RomanS
1000
ByLayer
1000
#(1L)\P#(2L)\P#(3L)
  0
OBJECT_PTR
  5
22C
102
{ACAD_REACTORS
330
20E
102
}
330
20E
1001
DCO15
1000
jet_dbsamples..."elementy wiezby"(_elementy_wiezby_Link1)
1000
IDENTYFIKATOR
1000

1000

1070
     4
1070
     0
1070
     0
1070
     0
1070
  1024
  0
OBJECT_PTR
  5
22B
102
{ACAD_REACTORS
330
20E
102
}
330
20E
1001
DCO15
1000
jet_dbsamples..."materialy przegrod pl"(_materialy_przegrod_pl_Link1)
1000
IDENTYFIKATOR
1000

1000

1070
     4
1070
     0
1070
     0
1070
     0
1070
  1024
  0
OBJECT_PTR
  5
22A
102
{ACAD_REACTORS
330
20E
102
}
330
20E
1001
DCO15
1000
jet_dbsamples..."nazwy przegrod pl"(_nazwy_przegrod_pl_Link1)
1000
IDENTYFIKATOR
1000

1000

1070
     4
1070
     0
1070
     0
1070
     0
1070
  1024
  0
OBJECT_PTR
  5
229
102
{ACAD_REACTORS
330
20E
102
}
330
20E
1001
DCO15
1000
jet_dbsamples..."nazwy rysunkow"(_nazwy_rysunkow_Arial37)
1000
IDENTYFIKATOR
1000

1000

1070
     4
1070
     0
1070
     0
1070
     0
1070
  1024
  0
OBJECT_PTR
  5
228
102
{ACAD_REACTORS
330
20E
102
}
330
20E
1001
DCO15
1000
jet_dbsamples..."opisy rozne II"(_opisy_rozne_II_Link1)
1000
"opis różny"
1000
1250
1000
ASCII
1070
    12
1070
   200
1070
     0
1070
     0
1070
  1024
  0
OBJECT_PTR
  5
227
102
{ACAD_REACTORS
330
20E
102
}
330
20E
1001
DCO15
1000
jet_dbsamples..."opisy rozne II"(_opisy_rozne_II_Link2)
1000
IDENTYFIKATOR
1000

1000

1070
     4
1070
     0
1070
     0
1070
     0
1070
  1024
  0
OBJECT_PTR
  5
226
102
{ACAD_REACTORS
330
20E
102
}
330
20E
1001
DCO15
1000
jet_dbsamples..."posadzki do zestawienia pomieszczen"(_posadzki_do_zestawienia_pomieszczen_Link1)
1000
IDENTYFIKATOR
1000

1000

1070
     4
1070
     0
1070
     0
1070
     0
1070
  1024
  0
OBJECT_PTR
  5
225
102
{ACAD_REACTORS
330
20E
102
}
330
20E
1001
DCO15
1000
jet_dbsamples..."rozne opisy rys"(_rozne_opisy_rys_Link1)
1000
IDENTYFIKATOR
1000

1000

1070
     4
1070
     0
1070
     0
1070
     0
1070
  1024
  0
OBJECT_PTR
  5
224
102
{ACAD_REACTORS
330
20E
102
}
330
20E
1001
DCO15
1000
jet_dbsamples..."tabelka - inform i etykiety"(_tabelka_-_inform_i_etykiety_Link1)
1000
IDENTYFIKATOR
1000

1000

1070
     4
1070
     0
1070
     0
1070
     0
1070
  1024
  0
OBJECT_PTR
  5
223
102
{ACAD_REACTORS
330
20E
102
}
330
20E
1001
DCO15
1000
ELE..."tbl_nazwy rys"(_tbl_nazwy_rys_Link1)
1000
"1"
1000

1000

1070
     4
1070
     0
1070
     0
1070
     0
1070
  1024
  0
OBJECT_PTR
  5
222
102
{ACAD_REACTORS
330
20E
102
}
330
20E
1001
DCO15
1000
jet_dbsamples..."uwagi ogolne na arkuszu"(_uwagi_ogolne_na_arkuszu_Link1)
1000
IDENTYFIKATOR
1000

1000

1070
     4
1070
     0
1070
     0
1070
     0
1070
  1024
  0
OBJECT_PTR
  5
221
102
{ACAD_REACTORS
330
20E
102
}
330
20E
1001
DCO15
1000
jet_dbsamples..."~TMPCLP122371"(_~TMPCLP122371_Link1)
1000
IDENTYFIKATOR
1000

1000

1070
     4
1070
     0
1070
     0
1070
     0
1070
  1024
1000
GUPA
1000
1250
1000
ASCII
1070
    12
1070
    50
1070
     0
1070
     0
1070
  1024
1000
NAZW_MAT
1000
1250
1000
ASCII
1070
    12
1070
   100
1070
     0
1070
     0
1070
  1024
  0
OBJECT_PTR
  5
220
102
{ACAD_REACTORS
330
20E
102
}
330
20E
1001
DCO15
1000
jet_dbsamples...ALFABET(ALFABETLink1)
1000
IDENTYFIKATOR
1000

1000

1070
     4
1070
     0
1070
     0
1070
     0
1070
  1024
  0
OBJECT_PTR
  5
21F
102
{ACAD_REACTORS
330
20E
102
}
330
20E
1001
DCO15
1000
wkc...arkusz_nazwy(arkusz_nazwyLink1)
1000
IDENTYFIKATOR
1000

1000

1070
     4
1070
     0
1070
     0
1070
     0
1070
  1024
  0
OBJECT_PTR
  5
21E
102
{ACAD_REACTORS
330
20E
102
}
330
20E
1001
DCO15
1000
konstr...arkusz_nazwy(arkusz_nazwyLink2)
1000
IDENTYFIKATOR
1000

1000

1070
     4
1070
     0
1070
     0
1070
     0
1070
  1024
  0
OBJECT_PTR
  5
21D
102
{ACAD_REACTORS
330
20E
102
}
330
20E
1001
DCO15
1000
jet_dbsamples...jednostki(jednostkiLink1)
1000
IDENTYFIKATOR
1000

1000

1070
     4
1070
     0
1070
     0
1070
     0
1070
  1024
  0
OBJECT_PTR
  5
21C
102
{ACAD_REACTORS
330
20E
102
}
330
20E
1001
DCO15
1000
KONSTR...konstr_drew(konstr_drewLink1)
1000
IDENTYFIKATOR
1000

1000

1070
     4
1070
     0
1070
     0
1070
     0
1070
  1024
  0
OBJECT_PTR
  5
21B
102
{ACAD_REACTORS
330
20E
102
}
330
20E
1001
DCO15
1000
KONSTR...konstr_stal(konstr_stalLink1)
1000
IDENTYFIKATOR
1000

1000

1070
     4
1070
     0
1070
     0
1070
     0
1070
  1024
  0
OBJECT_PTR
  5
21A
102
{ACAD_REACTORS
330
20E
102
}
330
20E
1001
DCO15
1000
jet_dbsamples...miesiace(miesiaceLink1)
1000
IDENTYFIKATOR
1000

1000

1070
     4
1070
     0
1070
     0
1070
     0
1070
  1024
  0
OBJECT_PTR
  5
219
102
{ACAD_REACTORS
330
20E
102
}
330
20E
1001
DCO15
1000
jet_dbsamples...pomieszczenia(pomieszczeniaLink1)
1000
IDENTYFIKATOR
1000

1000

1070
     4
1070
     0
1070
     0
1070
     0
1070
  1024
  0
OBJECT_PTR
  5
218
102
{ACAD_REACTORS
330
20E
102
}
330
20E
1001
DCO15
1000
KONSTR...schematy(schematyLink1)
1000
IDENTYFIKATOR
1000

1000

1070
     4
1070
     0
1070
     0
1070
     0
1070
  1024
  0
OBJECT_PTR
  5
217
102
{ACAD_REACTORS
330
20E
102
}
330
20E
1001
DCO15
1000
jet_dbsamples...stolarka(stolarkaLink1)
1000
IDENTYFIKATOR
1000

1000

1070
     4
1070
     0
1070
     0
1070
     0
1070
  1024
  0
OBJECT_PTR
  5
216
102
{ACAD_REACTORS
330
20E
102
}
330
20E
1001
DCO15
1000
KONSTR...szczegoly(szczegolyLink1)
1000
IDENTYFIKATOR
1000

1000

1070
     4
1070
     0
1070
     0
1070
     0
1070
  1024
  0
OBJECT_PTR
  5
215
102
{ACAD_REACTORS
330
20E
102
}
330
20E
1001
DCO15
1000
ELE...tbl_jednostki(tbl_jednostkiLink1)
1000
IDENTYFIKATOR
1000

1000

1070
     4
1070
     0
1070
     0
1070
     0
1070
  1024
  0
OBJECT_PTR
  5
214
102
{ACAD_REACTORS
330
20E
102
}
330
20E
1001
DCO15
1000
ELE...tbl_opisy(tbl_opisyLink1)
1000
IDENTYFIKATOR
1000

1000

1070
     4
1070
     0
1070
     0
1070
     0
1070
  1024
  0
OBJECT_PTR
  5
213
102
{ACAD_REACTORS
330
20E
102
}
330
20E
1001
DCO15
1000
jet_dbsamples...tbl_PRZEGRODY(tbl_PRZEGRODYLink1)
1000
IDENTYFIKATOR
1000

1000

1070
     4
1070
     0
1070
     0
1070
     0
1070
  1024
  0
OBJECT_PTR
  5
212
102
{ACAD_REACTORS
330
20E
102
}
330
20E
1001
DCO15
1000
wkc...tbl_uwagi_co(tbl_uwagi_coLink1)
1000
IDENTYFIKATOR
1000

1000

1070
     4
1070
     0
1070
     0
1070
     0
1070
  1024
  0
OBJECT_PTR
  5
211
102
{ACAD_REACTORS
330
20E
102
}
330
20E
1001
DCO15
1000
wkc...tbl_uwagi_wodkan(tbl_uwagi_wodkanLink1)
1000
IDENTYFIKATOR
1000

1000

1070
     4
1070
     0
1070
     0
1070
     0
1070
  1024
  0
OBJECT_PTR
  5
210
102
{ACAD_REACTORS
330
20E
102
}
330
20E
1001
DCO15
1000
KONSTR...uwagi_na_schematach(uwagi_na_schematachLink1)
1000
IDENTYFIKATOR
1000

1000

1070
     4
1070
     0
1070
     0
1070
     0
1070
  1024
  0
OBJECT_PTR
  5
20F
102
{ACAD_REACTORS
330
20E
102
}
330
20E
1001
DCO15
1000
KONSTR...zbroj_plyty(zbroj_plytyLink1)
1000
IDENTYFIKATOR
1000

1000

1070
     4
1070
     0
1070
     0
1070
     0
1070
  1024
  0
DICTIONARY
  5
1C8
330
1C7
100
AcDbDictionary
280
     1
281
     1
  3
ACAD_XREC_ROUNDTRIP
360
295
  3
ADSK_XREC_LAYOUTTHUMBNAIL
360
1C9
  0
DICTIONARY
  5
293
330
1C0
100
AcDbDictionary
280
     1
281
     1
  3
ACAD_XREC_ROUNDTRIP
360
294
  0
DICTIONARY
  5
298
330
1EE
100
AcDbDictionary
280
     1
281
     1
  3
ACAD_XREC_ROUNDTRIP
360
299
  0
DICTIONARY
  5
296
330
1ED
100
AcDbDictionary
280
     1
281
     1
  3
ACAD_XREC_ROUNDTRIP
360
297
  0
DICTIONARY
  5
28D
330
C
100
AcDbDictionary
280
     1
281
     1
  3
ACAD_XREC_ROUNDTRIP
360
28E
  0
DICTIONARY
  5
1F4
330
1F3
100
AcDbDictionary
280
     1
281
     1
  3
ACAD_ROUNDTRIP_2008_TABLESTYLE_CELLSTYLEMAP
360
28A
  3
ACAD_XREC_ROUNDTRIP
360
29A
  0
XRECORD
  5
295
102
{ACAD_REACTORS
330
1C8
102
}
330
1C8
100
AcDbXrecord
280
     1
102
SHADEPLOT
 70
     1
102
SHADEPLOTRESLEVEL
 70
     4
102
SHADEPLOTCUSTOMDPI
 70
   600
  0
XRECORD
  5
1C9
102
{ACAD_REACTORS
330
1C8
102
}
330
1C8
100
AcDbXrecord
280
     1
310
28000000B400000000010000010008000000000000B4000000000000000000000001000000000000FFFFFF0000000000FFFFFF000000000000000000000000000000000000000000000000000000000000000000330000006600000099000000CC000000FF00000000330000333300006633000099330000CC330000FF3300
310
0000660000336600006666000099660000CC660000FF66000000990000339900006699000099990000CC990000FF99000000CC000033CC000066CC000099CC0000CCCC0000FFCC000000FF000033FF000066FF000099FF0000CCFF0000FFFF000000003300330033006600330099003300CC003300FF003300003333003333
310
33006633330099333300CC333300FF33330000663300336633006666330099663300CC663300FF66330000993300339933006699330099993300CC993300FF99330000CC330033CC330066CC330099CC3300CCCC3300FFCC330000FF330033FF330066FF330099FF3300CCFF3300FFFF330000006600330066006600660099
310
006600CC006600FF00660000336600333366006633660099336600CC336600FF33660000666600336666006666660099666600CC666600FF66660000996600339966006699660099996600CC996600FF99660000CC660033CC660066CC660099CC6600CCCC6600FFCC660000FF660033FF660066FF660099FF6600CCFF6600
310
FFFF660000009900330099006600990099009900CC009900FF00990000339900333399006633990099339900CC339900FF33990000669900336699006666990099669900CC669900FF66990000999900339999006699990099999900CC999900FF99990000CC990033CC990066CC990099CC9900CCCC9900FFCC990000FF99
310
0033FF990066FF990099FF9900CCFF9900FFFF99000000CC003300CC006600CC009900CC00CC00CC00FF00CC000033CC003333CC006633CC009933CC00CC33CC00FF33CC000066CC003366CC006666CC009966CC00CC66CC00FF66CC000099CC003399CC006699CC009999CC00CC99CC00FF99CC0000CCCC0033CCCC0066CC
310
CC0099CCCC00CCCCCC00FFCCCC0000FFCC0033FFCC0066FFCC0099FFCC00CCFFCC00FFFFCC000000FF003300FF006600FF009900FF00CC00FF00FF00FF000033FF003333FF006633FF009933FF00CC33FF00FF33FF000066FF003366FF006666FF009966FF00CC66FF00FF66FF000099FF003399FF006699FF009999FF00CC
310
99FF00FF99FF0000CCFF0033CCFF0066CCFF0099CCFF00CCCCFF00FFCCFF0000FFFF0033FFFF0066FFFF0099FFFF00CCFFFF00FFFFFF00000000000D0D0D001A1A1A00282828003535350043434300505050005D5D5D006B6B6B00787878008686860093939300A1A1A100AEAEAE00BBBBBB00C9C9C900D6D6D600E4E4E400
310
F1F1F100FFFFFF0000000000000000000000000000000000000000000000000000000000000000000000000000000000E2E2E2E2E2E2E2E2E2E2E2E2E2E2E2E2E2E2E2E2E2E2E2E2E2E2E2E2E2E2E2E2E2E2E2E2E2E2E2E2E2E2E2E2E2E2E2E2E2E2E2E2E2E2E2E2E2E2E2E2E2E2E2E2E2E2E2E2E2E2E2E2E2E2E2E2E2E2E2
310
E2E2E2E2E2E2E2E2E2E2E2E2E2E2E2E2E2E2E2E2E2E2E2E2E2E2E2E2E2E2E2E2E2E2E2E2E2E2E2E2E2E2E2E2E2E2E2E2E2E2E2E2E2E2E2E2E2E2E2E2E2E2E2E2E2E2E2E2E2E2E2E2E2E2E2E2E2E2E2E2E2E2E2E2E2E2E2E2E2E2E2E2E2E2E2E2E2E2E2E2E2E2F5F5F5F5F5F5F5F5F5F5F5F5F5F5F5F5F5F5F5F5F5F5F5F5F5
310
F5F5F5F5F5F5F5F5F5F5F5F5F5F5F5F5F5F5F5F5F5F5F5F5F5F5F5F5F5F5F5F5F5F5F5F5F5F5F5F5F5F5F5F5F5F5F5F5F5F5F5F5F5F5F5F5F5F5F5F5F5F5F5F5F5F5F5F5F5F5F5F5F5F5F5F5F5F5F5F5F5F5F5F5F5F5F5F5F5F5F5F5F5F5F5F5F5F5F5F5F5F5F5F5F5F5F5F5F5F5F5F5F5F5F5F5F5F5F5F5F5F5F5F5F5F5F5
310
F5F5F5F5F5F5F5F5F5F5F5F5F5F5F5F5F5F5F5F5F5F5F5F5F5F5F5E2F5F5F5F5F5F5F5F5F5F5F5F5F5F5F5F5F5F5F5F5F5F5F5F5F5F5F5F5F5F5F5F5F5F5F5F5F5F5F5F5F5F5F5F5F5F5F5F5F5F5F5F5F5F5F5F5F5F5F5F5F5F5F5F5F5F5F5F5F5F5F5F5F5F5F5F5F5F5F5F5F5F5F5F5F5F5F5F5F5F5F5F5F5F5F5F5F5F5F5
310
F5F5F5F5F5F5F5F5F5F5F5F5F5F5F5F5F5F5F5F5F5F5F5F5F5F5F5F5F5F5F5F5F5F5F5F5F5F5F5F5F5F5F5F5F5F5F5F5F5F5F5F5F5F5F5F5F5F5F5F5F5F5F5F5F5F5F5F5F5F5F5F5F5F5F5F5F5F5F5F5E2F5F5F5F5F5F5F5F5F5F5F5F5F5F5F5F5F5F5F5F5F5F5F5F5F5F5F5F5F5F5F5F5F5F5F5F5F5F5F5F5F5F5F5F5F5F5
310
F5F5F5F5F5F5F5F5F5F5F5F5F5F5F5F5F5F5F5F5F5F5F5F5F5F5F5F5F5F5F5F5F5F5F5F5F5F5F5F5F5F5F5F5F5F5F5F5F5F5F5F5F5F5F5F5F5F5F5F5F5F5F5F5F5F5F5F5F5F5F5F5F5F5F5F5F5F5F5F5F5F5F5F5F5F5F5F5F5F5F5F5F5F5F5F5F5F5F5F5F5F5F5F5F5F5F5F5F5F5F5F5F5F5F5F5F5F5F5F5F5F5F5F5F5F5F5
310
F5F5F5F5F5F5E2F5F5F5E2E2E2E2E2E2E2E2F5F5F5F5F5F5F5F5F5E2E2E2E2E2E2E2E2E2E2E2E2E2E2E2E2F5F5F5F5F5F5F5F5F5E2E2E2E2E2E2E2E2E2E2E2E2E2E2E2E2F5F5F5F5F5F5F5F5F5E2E2E2E2E2E2E2E2E2E2E2E2E2E2E2E2F5F5F5F5F5F5F5F5E2E2E2E2E2E2E2E2E2E2E2E2E2E2E2E2F5F5F5F5F5F5F5F5F5E2
310
E2E2E2E2E2E2E2E2E2E2E2E2E2E2E2F5F5F5F5F5F5F5F5F5E2E2E2E2E2E2E2E2E2E2E2E2E2E2E2E2F5F5F5F5F5F5F5F5F5E2E2E2E2E2E2E2E2F5F5E2F5F5F5E2F5F5F5F5F5F5F5F5F5F5F5F5F5F5F5F5F5F5F5F5F5F5F5F5F5F5F5F5F5F5F5F5F5F5F5F5F5F5F5F5F5F5F5F5F5F5F5F5F5F5F5F5F5F5F5F5F5F5F5F5F5F5F5
310
F5F5F5F5F5F5F5F5F5F5F5F5F5F5F5F5F5F5F5F5F5F5F5F5F5F5F5F5F5F5F5F5F5F5F5F5F5F5F5F5F5F5F5F5F5F5F5F5F5F5F5F5F5F5F5F5F5F5F5F5F5F5F5F5F5F5F5F5F5F5F5F5F5F5F5F5F5F5F5F5F5F5F5F5F5F5F5F5F5F5F5F5F5F5F5F5F5F5F5F5F5F5F5F5F5F5F5F5F5E2F5F5E2F5F5F5E2F5F5F5F5F5F5F5F5F5F5
310
F5F5F5F5F5F5F5F5F5F5F5F5F5F5F5F5F5F5F5F5F5F5F5F5F5F5F5F5F5F5F5F5F5F5F5F5F5F5F5F5F5F5F5F5F5F5F5F5F5F5F5F5F5F5F5F5F5F5F5F5F5F5F5F5F51919191919191919191919191919191919191919191919191919191919191919191919191919191919191919191919191919191919191919191919191919
310
19191919191919191919191919191919191919191919191919F5F5F5F5F5F5F5F5F5F5E2F5F5E2F5F5F5E2F5F5F5F5F5F5F5F5F5F5F5F5F5F5F5F5F5F5F5F5F5F5F5F5F5F5F5F5F5F5F5F5F5F5F5F5F5F5F5F5F5F5F5F5F5F5F5F5F5F5F5F5F5F5F5F5F5F5F5F5F5F5F5F5F5F5F5F5F5F5F5F5F5F5F5192727272727272727
310
27272727272727F5F519F5F5F5F5F5F5F5F5F5F5F5F5F5F5F5F519F527272727272727272727272727F5F519F5F5F5F5F5F5F5F5F5F5F5F5F5F5F5F519F5F5F5F5F5F5F5F5F5F5F5F5F5F5F5F519F5F5F5F5F5F5F5F5F5F5E2F5F5E2F5F5F5E2F5F5F5F5F5F5F5F5F5F5F5F5F5F5F5F5F5F5F5F5F5F5F5F5F5F5F5F5F5F5F5
310
F5F5F5F5F5F5F5F5F5F5F5F5F5F5F5F5F5F5F5F5F5F5F5F5F5F5F5F5F5F5F5F5F5F5F5F5F5F5F5F5F5F5F5F519F5F5F5F5F5F5F5F5F5F5F5F5F5F5F5F5F519F5F5F5F5F5F5F5F5F5F5F5F5F5F5F5F519F5F5F5F5F5F5F5F5F5F5F5F5F5F5F5F519F5F5F5F5F5F5F5F5F5F5F5F5F5F5F5F519F5F5F5F5F5F5F5F5F5F5F5F5F5
310
F5F5F519F5F5F5F5F5F5F5F5F5F5E2F5F5E2F5F5F5E2F5F5F5F5F5F5F5F5F5F5F5F5F5F5F5F5F5F5F5F5F5F5F5F5F5F5F5F5F5F5F5F5F5F5F5F5F5F5F5F5F5F5F5F5F5F5F5F5F5F5F5F5F5F5F5F5F5F5F5F5F5F5F5F5F5F5F5F5F5F5F5F5F5F5F5191919191919191919191919191919191919191919191919191919191919
310
191919191919191919191919191919191919191919191919191919191919191919191919191919191919191919191919191919191919191919F5F5F5F5F5F5F5F5F5F5E2F5F5E2F5F5F5E2F527272727F5F5F5F5F5F5F5F5F5F5F5F5F5F5F5F5F5F5F5F5F5F5F5F5F5F5F5F5F5F5F5F5F5F5F5F5F5F5F5F5F5F5F5F5F5F5F5
310
F5F5F5F5F5F5F5F5F5F5F5F5F5F5F5F5F5F5F5F5F5F5F519272727272727272727272727272727F5F519F5F5F5F5F5F5F5F5F5F5F5F5F5F5F5F519F5F5F5F5F5F5F5F5F5F5F5F5F5F5F5F519F527272727272727272727272727F5F519F5F5F5F5F5F5F5F5F5F5F5F5F5F5F5F519F5F5F52727F5F5F5F5F5E2F5F5E2F5F5F5
310
E2F527272727F5F5F5F5F5F5F5F5F5F5F5F5F5F5F5F5F5F5F5F5F52727272727272727272727272727272727F5F52727272727272727272727272727272727F5F5F5F5F5F5F5F5F5F5F5F5F519F5F5F5F5F5F5F5F5F5F5F5F5F5F5F5F5F519F5F5F5F5F5F5F5F5F5F5F5F5F5F5F5F519F5F5F5F5F5F5F5F5F5F5F5F5F5F5F5
310
F519F5F5F5F5F5F5F5F5F5F5F5F5F5F5F5F519F5F5F5F5F5F5F5F5F5F5F5F5F5F5F5F519F5F5F52727F5F5F5F5F5E2F5F5E2F5F5F5F5F527272727F5F5F5F5F5F5F5F5F5F5F5F5F5F5F5F5F5F5F5F5F52727272727272727272727272727272727F5F52727272727272727272727272727272727F5F5F5F5F5F5F5F5F5F5F5
310
F5F5191919191919191919191919191919191919191919191919191919191919191919191919191919191919191919191919191919191919191919191919191919191919191919191919191919191919191919191919191919F5F5F52727F5F5F5F5F5F5F5F5E2F5F5F5F5F527272727F5F5F5F5F5F5F5F5F5F5F5F5F5F5F5
310
F5F5F5F5F5F5F5F5F5F5F5F5F527272727272727272727F5F527272727272727272727272727272727F5F5F5F5F5F5F5F5F5F5F5F5F5F519272727272727272727272727F5F5F5F5F519F5F5F5F5F5F5F5F5F5F5F5F5F5F5F5F519F5F5F5F5F5F5F5F5F5F5F5F5F5F5F5F519F527272727272727272727272727F5F519F5F5
310
F5F5F5F5F5F5F5F5F5F5F5F5F5F519F5F5F52727F5F5F5F5F5F5F5F5E2F5F5F5F5F527272727F5F5F5F5F5F5F5F5F5F5F5F5F5F5F5F5F5F5F5F5F5F5F5F5F5F5F5F527272727272727272727F5F527272727272727272727272727272727F5F5F5F5F5F5F5F5F5F5F5F5F5F519F5F5F5F5F5F5F5F5F5F5F5F5F5F5F5F5F519
310
F5F5F5F5F5F5F5F5F5F5F5F5F5F5F5F519F5F5F5F5F5F5F5F5F5F5F5F5F5F5F5F519F5F5F5F5F5F5F5F5F5F5F5F5F5F5F5F519F5F5F5F5F5F5F5F5F5F5F5F5F5F5F5F519F5F5F52727F5F5F5F5F5F5F5F5E2F5F5F5F5F527272727F5F5F5F5F5F5F5F5F5F5F5F5F5F5F5F5F5F5F5F5F5F5F5F5F5F5F5F52727272727272727
310
2727F5F527272727272727272727272727272727F5F5F5F5F5F5F5F5F5F5F5F5F5F5191919191919191919191919191919191919191919191919191919191919191919191919191919191919191919191919191919191919191919191919191919191919191919191919191919191919191919191919191919F5F5F52727F5
310
F5F5F5F5F5F5F5E2F5F5F5F5F527272727F5F5F5F5F5F5F5F5F5F5F5F5F5F5F5F5F5F5F5F5F5F5F5272727272727272727272727272727F5F527272727272727272727272727272727272727F5F5F5F5F5F5F5F5F5F5F519272727272727272727272727272727F5F519F5F5F5F5F5F5F5F5F5F5F5F5F5F5F5F519F5F5F5F5
310
F5F5F5F5F5F5F5F5F5F5F5F519F527272727272727272727272727F5F519F5F5F5F5F5F5F5F5F5F5F5F5F5F5F5F519F5F5F52727F5F5F5F5F5F5F5F5E2F5F5F5F5F527272727F5F5F5F5F5F5F5F5F5F5F5F5F5F5F5F5F5F5F5F5F5F5F5272727272727272727272727272727F5F52727272727272727272727272727272727
310
2727F5F5F5F5F5F5F5F5F5F5F519F5F5F5F5F5F5F5F5F5F5F5F5F5F5F5F5F519F5F5F5F5F5F5F5F5F5F5F5F5F5F5F5F519F5F5F5F5F5F5F5F5F5F5F5F5F5F5F5F519F5F5F5F5F5F5F5F5F5F5F5F5F5F5F5F519F5F5F5F5F5F5F5F5F5F5F5F5F5F5F5F519F5F5F52727F5F5F5F5F5F5F5F5E2F5F5F5F5F527272727F5F5F5F5
310
F5F5F5F5F5F5F5F5F5F5F5F5F5F5F5F5F5F5F5F5F5F5F5F5F5F5F5F5F5F5F5F5F5F5F5F5F5F5F5F5F5F5F5F5F5F5F5F5F5F5F5F5F5F5F5F5F5F5F5F5F5F5F5F5F5F519191919191919191919191919191919191919191919191919191919191919191919191919191919191919191919191919191919191919191919191919
310
1919191919191919191919191919191919191919191919191919F5F5F52727F5F5F5F5F5F5F5F5E2F5F5F5F5F527272727F5F5F5F5F5F5F5F5F5F5F5F5F5F5F5F5F5F5F5F5F5F5F5F5F5F5F5F5F5F5F5F5F5F5F5F5F5F5F5F5F5F5F5F5F5F5F5F5F5F5F5F5F5F5F5F5F5F5F5F5F5F5F5F5F5F5F5F5F5F51927272727272727
310
272727272727F5F5F5F519F5F5F5F5F5F5F5F5F5F5F5F5F5F5F5F519F5F5F5F5F5F5F5F5F5F5F5F5F5F5F5F519F527272727272727272727272727F5F519F5F5F5F5F5F5F5F5F5F5F5F5F5F5F5F519F5F5F52727F5F5F5F5F5F5F5F5E2F5F5F5F5F527272727F5F5F5F5F5F5F5F5F5F5F5F5F5F5F5F5F5F5F5F5F5F5F5F5F5
310
F5F5F5F5F5F5F5F5F5F5F5F5F5F5F5F5F5F5F5F5F5F5F5F5F5F5F5F5F5F5F5F5F5F5F5F5F5F5F5F5F5F5F5F5F519F5F5F5F5F5F5F5F5F5F5F5F5F5F5F5F5F519F5F5F5F5F5F5F5F5F5F5F5F5F5F5F5F519F5F5F5F5F5F5F5F5F5F5F5F5F5F5F5F519F5F5F5F5F5F5F5F5F5F5F5F5F5F5F5F519F5F5F5F5F5F5F5F5F5F5F5F5
310
F5F5F5F519F5F5F52727F5F5F5F5F5F5F5F5E2F5F5F5E2F527272727F5F5F5F5F5F5F5F5F5F5F5F5F5F5F5F5F5F5F5F5F5F5F5F5F5F5F5F5F5F5F5F5F5F5F5F5F5F5F5F5F5F5F5F5F5F5F5F5F5F5F5F5F5F5F5F5F5F5F5F5F5F5F5F5F5F5F5F5F5F51919191919191919191919191919191919191919191919191919191919
310
19191919191919191919191919191919191919191919191919191919191919191919191919191919191919191919191919191919191919191919F5F5F52727F5F5F5F5F5E2F5F5E2F5F5F5E2F527272727F5F5F5F5F5F5F5F5F5F5F5F5F5F5F5F5F5F5F5F5F5F5F5F5F5F5F5F5F5F5F5F5F5F5F5F5F5F5F5F5F5F5F5F5F5F5
310
F5F5F5F5F5F5F5F5F5F5F5F5F5F5F5F5F5F5F5F5F5F5F5F51927272727272727272727272727272727F519F5F5F5F5F5F5F5F5F5F5F5F5F5F5F5F519F5F5F5F5F5F5F5F5F5F5F5F5F5F5F5F519F527272727272727272727272727F5F519F5F5F5F5F5F5F5F5F5F5F5F5F5F5F5F519F5F5F52727F5F5F5F5F5E2F5F5E2F5F5
310
F5E2F527272727F5F5F5F5F5F5F5F5F5F5F5F5F5F5F5F5F5F5F5F5F5F5F5F5F5F5F5F5F5F5F5F5F5F5F5F5F5F5F5F5F5F5F5F5F5F5F5F5F5F5F5F5F5F5F5F5F5F5F5F5F5F5F5F5F5F5F5F5F5F519F5F5F5F5F5F5F5F5F5F5F5F5F5F5F5F5F519F5F5F5F5F5F5F5F5F5F5F5F5F5F5F5F519F5F5F5F5F5F5F5F5F5F5F5F5F5F5
310
F5F519F5F5F5F5F5F5F5F5F5F5F5F5F5F5F5F519F5F5F5F5F5F5F5F5F5F5F5F5F5F5F5F519F5F5F52727F5F5F5F5F5E2F5F5E2F5F5F5E2F527272727F5F5F5F5F5F5F5F5F5F5F5F5F5F5F5F5F5F5F5F5F5F5F5F5F5F5F5F5F5F5F5F5F5F5F5F5F5F5F5F5F5F5F5F5F5F5F5F5F5F5F5F5F5F5F5F5F5F5F5F5F5F5F5F5F5F5F5
310
F5F5F5191919191919191919191919191919191919191919191919191919191919191919191919191919191919191919191919191919191919191919191919191919191919191919191919191919191919191919191919191919F5F5F52727F5F5F5F5F5E2F5F5E2F5F5F5E2F527272727F5F5F5F5F5F5F5F5F5F5F5F5F5F5
310
F5F5F5F5F5F5F5F5F5F5F5F5F5F5F5F5F5F5F5F5F5F5F5F5F5F5F5F5F5F5F5F5F5F5F5F5F5F5F5F5F5F5F5F5F5F5F5F5F5F5F5F5F5F5F5F5192727272727F5F5F5F5F5F5F5F5F5F5F5F519F5F5F5F5F5F5F5F5F5F5F5F5F5F5F5F519F527272727272727272727272727F5F519F527272727272727272727272727F5F519F5
310
F5F5F5F5F5F5F5F5F5F5F5F5F5F5F519F5F5F52727F5F5F5F5F5E2F5F5E2F5F5F5E2F527272727F5F5F5F5F5F5F5F5F5F5F5F5F5F5F5F5F5F5F5F5F5F5F5F5F5F5F5F5F5F5F5F5F5F5F5F5F5F5F5F5F5F5F5F5F5F5F5F5F5F5F5F5F5F5F5F5F5F5F5F5F5F5F5F5F5F5F5F5F5F519F5F5F5F5F5F5F5F5F5F5F5F5F5F5F5F5F5
310
19F5F5F5F5F5F5F5F5F5F5F5F5F5F5F5F519F5F5F5F5F5F5F5F5F5F5F5F5F5F5F5F519F5F5F5F5F5F5F5F5F5F5F5F5F5F5F5F519F5F5F5F5F5F5F5F5F5F5F5F5F5F5F5F519F5F5F52727F5F5F5F5F5E2F5F5E2F5F5F5E2F527272727F5F5F5F5F5F5F5F5F5F5F5F5F5F5F5F5F5F5F5F5F5F5F5F5F5F5F5F5F5F5F5F5F5F5F5
310
F5F5F5F5F5F5F5F5F5F5F5F5F5F5F5F5F5F5F5F5F5F5F5F5F5F5F5F5F5F5F5F5F5F5F5191919191919191919191919191919191919191919191919191919191919191919191919191919191919191919191919191919191919191919191919191919191919191919191919191919191919191919191919191919F5F5F52727
310
F5F5F5F5F5E2F5F5E2F5F5F5E2F527272727F5F5F5F5F5F5F5F5F5F5F5F5F5F5F5F5F5F5F5F5F5F5F5F5F5F5F5F5F5F5F5F5F5F5F5F5F5F5F5F5F5F5F5F5F5F5F5F5F5F5F5F5F5F5F5F5F5F5F5F5F5F5F5F5F5F5F5F5F5F5F5F5F5F5F5F5F5F5F5F5F5F5F5F5F5F5F5F519F5F5F5272727272727272727F5F5F5F519F5F527
310
27272727272727272727F5F5F519F527272727272727272727272727F5F519F5F5F5F5F52727272727F5F5F5F5F5F519F5F5F52727F5F5F5F5F5E2F5F5E2F5F5F5E2F527272727F5F5F5F5F5F5F5F5F5F5F5F5F5F5F5F5F5F5F5F5F5F5F5F5F5F5F5F5F5F5F5F5F5F5F5F5F5F5F5F5F5F5F5F5F5F5F5F5F5F5F5F5F5F5F5F5
310
F5F5F5F5F5F5F5F5F5F5F5F5F5F5F5F5F5F5F5F5F5F5F5F5F5F5F5F5F5F5F5F519F5F5F5F5F5F5F5F5F5F5F5F5F5F5F5F519F5F5F5F5F5F5F5F5F5F5F5F5F5F5F5F519F5F5F5F5F5F5F5F5F5F5F5F5F5F5F5F519F5F5F5F5F5F5F5F5F5F5F5F5F5F5F5F519F5F5F52727F5F5F5F5F5E2F5F5E2F5F5F5E2F527272727F5F5F5
310
F5F5F5F5F5F5F5F5F5F5F5F5F5F5F5F5F5F5F5F5F5F5F5F5F5F5F5F5F5F5F5F5F5F5F5F5F5F5F5F5F5F5F5F5F5F5F5F5F5F5F5F5F5F5F5F5F5F5F5F5F5F5F5F5F5F5F5F5F5F5F5F5F5F5F5F5F5F5F5F5F5F5F5F5F5191919191919191919191919191919191919191919191919191919191919191919191919191919191919
310
191919191919191919191919191919191919191919191919191919F5F5F52727F5F5F5F5F5E2F5F5E2F5F5F5E2F527272727F5F5F5F5F5F5F5F5F5F5F5F5F5F5F5F5F5F5F5F5F5F5F5F5F5F5F5F5F5F5F5F5F5F5F5F5F5F5F5F5F5F5F5F5F5F5F5F5F5F5F5F5F5F5F5F5F5F5F5F5F5F5F5F5F5F5F5F5F5F5F5F5F5F5F5F5F5
310
F5F5F5F5F5F5F5F5F5F5F5F5F5F5F5F5F5F5F5F5F5F5F5F5F5F5F5F5F5F5F5F5F5F5F5F5F5F5F5F5F5F5F5F5F5F5F5F5F5F5F5F5F5F5F5F5F5F5F5F5F5F5F5F5F5F5F5F5F5F5F5F5F5F5F5F5F5F5F5F5F5F5F52727F5F5F5F5F5E2F5F5E2F5F5F5E2F527272727F5F5F5F5F5F5F5F5F5F5F5F5F5F5F5F5F5F5F5F5F5F5F5F5
310
F5F5F5F5F5F5F5F5F5F5F5F5F5F5F5F5F5F5F5F5F5F5F5F5F5F5F5F5F5F5F5F5F5F5F5F5F5F5F5F5F5F5F5F5F5F5F5F5F5F5F5F5F5F5F5F5F5F5F5F5F5F5F5F5F5F5F5F5F5F5F5F5F5F5F5F5F5F5F5F5F5F5F5F5F5F5F5F5F5F5F5F5F5F5F5F5F5F5F5F5F5F5F5F5F5F5F5F5F5F5F5F5F5F5F5F5F5F5F5F5F5F5F5F5F5F5F5
310
F5F5F5F5F5F5F5F5F52727F5F5F5F5F5E2F5F5E2F5F5F5E2F527272727F5F5F5F5F5F5F5F5F5F5F5F5F5F5F5F5F5F5F5F5F5F5F5F5F5F5F5F5F5F5F5F5F5F5F5F5F5F5F5F5F5F5F5F5F5F5F5F5F5F5F5F5F5F5F5F5F5F5F5F5F5F5F5F5F5F5F5F5F5F5F5F5F5F5F5F5F5F5F5F5F5F5F5F5F5F5F5F5F5F5F5F5F5F5F5F5F5F5
310
F5F5F5F5F5F5F5F5F5F5F5F5F5F5F5F5F5F5F5F5F5F5F5F5F5F5F5F5F5F5F5F5F5F5F5F5F5F5F5F5F5F5F5F5F5F5F5F5F5F5F5F5F5F5F5F5F5F5F5F5F5F52727F5F5F5F5F5E2F5F5E2F5F5F5E2F527272727F5F5F5F5F5F5F5F5F5F5F5F5F5F5F5F5F5F5F5F5F5F5F5F5F5F5F5F5F5F5F5F5F5F5F5F5F5F5F5F5F5F5F5F5F5
310
F5F5F5F5F5F5F5F5F5F5F5F5F5F5F5F5F5F5F5F5F5F5F5F5F5F5F5F5F5F5F5F5F5F5F5F5F5F5F5F5F5F5F5F5F5F5F5F5F5F5F5F5F5F5F5F5F5F5F5F5F5F5F5F5F5F5F5F5F5F5F5F5F5F5F5F5F5F5F5F5F5F5F5F5F5F5F5F5F5F5F5F5F5F5F5F5F5F5F5F5F5F5F5F5F5F5F5F5F5F5F5F5F5F5F52727F5F5F5F5F5E2F5F5E2F5
310
F5F5E2F527272727F5F5F5F5F5F5F5F5F5F5F5F5F5F5F5F5F5F5F5F5F5F5F5F5F5F5F5F5F5F5F5F5F5F5F5F5F5F5F5F5F5F5F5F5F5F5F5F5F5F5F5F5F5F5F5F5F5F5F5F5F5F5F5F5F5F5F5F5F5F5F5F5F5F5F5F5F5F5F5F5F5F5F5F5F5F5F5F5F5F5F5F5F5F5F5F5F5F5F5F5F5F5F5F5F5F5F5F5F5F5F5F5F5F5F5F5F5F5F5
310
F5F5F5F5F5F5F5F5F5F5F5F5F5F5F5F5F5F5F5F5F5F5F5F5F5F5F5F5F5F5F5F5F5F5F5F5F5F5F5F5F52727F5F5F5F5F5E2F5F5E2F5F5F5E2F527272727F5F5F5F5F5F5F5F5F5F5F5F5F5F5F5F5F5F5F5F5F5F5F5F5F5F5F5F5F5F5F5F5F5F5F5F5F5F5F5F5F5F5F5F5F5F5F5F5F5F5F5F5F5F5F5F5F5F5F5F5F5F5F5F5F5F5
310
F5F5F5F5F5F5F5F5F5F5F5F5F5F5F5F5F5F5F5F5F5F5F5F5F5F5F5F5F5F5F5F5F5F5F5F5F5F5F5F5F5F5F5F5F5F5F5F5F5F5F5F5F5F5F5F5F5F5F5F5F5F5F5F5F5F5F5F5F5F5F5F5F5F5F5F5F5F5F5F5F5F5F5F5F5F5F5F5F5F5F5F5F5F52727F5F5F5F5F5E2F5F5E2F5F5F5F5F527272727F5F5F5F5F5F5F5F5F5F5F5F5F5
310
F5F5F5F5F5F5F5F5F5F5F5F5F5F5F5F5F5F5F5F5F5F5F5F5F5F5F5F5F5F5F5F5F5F5F5F5F5F5F5F5F5F5F5F5F5F5F5F5F5F5F5F5F5F5F5F5F5F5F5F5F5F5F5F5F5F5F5F5F5F5F5F5F5F5F5F5F5F5F5F5F5F5F5F5F5F5F5F5F5F5F5F5F5F5F5F5F5F5F5F5F5F5F5F5F5F5F5F5F5F5F5F5F5F5F5F5F5F5F5F5F5F5F5F5F5F5F5
310
F5F5F5F5F5F5F5F5F5F5F5F5F5F5F5F5F5F5F5F52727F5F5F5F5F5F5F5F5E2F5F5F5F5F527272727F5F5F5F5F5F5F5F5F5F5F5F5F5F5F5F5F5F5F5F5F5F5F5F5F5F5F5F5F5F5F5F5F5F5F5F5F5F5F5F5F5F5F5F5F5F5F5F5F5F5F5F5F5F5F5F5F5F5F5F5F5F5F5F5F5F5F5F5F5F5F5F5F5F5F5F5F5F5F5F5F5F5F5F5F5F5F5
310
F5F5F5F5F5F5F5F5F5F5F5F5F5F5F5F5F5F5F5F5F5F5F5F5F5F5F5F5F5F5F5F5F5F5F5F5F5F5F5F5F5F5F5F5F5F5F5F5F5F5F5F5F5F5F5F5F5F5F5F5F5F5F5F5F5F5F5F5F5F5F5F5F52727F5F5F5F5F5F5F5F5E2F5F5F5F5F527272727F5F5F5F5F5F5F5F5F5F5F5F5F5F5F5F5F5F5F5F5F5F5F5F5F5F5F5F5F5F5F5F5F5F5
310
F5F5F5F5F5F5F5F5F5F5F5F5F5F5F5F5F5F5F5F5F5F5F5F5F5F5F5F5F5F5F5F5F5F5F5F5F5F5F5F5F5F5F5F5F5F5F5F5F5F5F5F5F5F5F5F5F5F5F5F5F5F5F5F5F5F5F5F5F5F5F5F5F5F5F5F5F5F5F5F5F5F5F5F5F5F5F5F5F5F5F5F5F5F5F5F5F5F5F5F5F5F5F5F5F5F5F5F5F5F5F5F5F5F5F5F5F5F5F5F5F5F5F5F5F5F527
310
27F5F5F5F5F5F5F5F5E2F5F5F5F5F527272727F5F5F5F5F5F5F5F5F5F5F5F5F5F5F5F5F5F5F5F5F5F5F5F5F5F5F5F5F5F5F5F5F5F5F5F5F5F5F5F5F5F5F5F5F5F5F5F5F5F5F5F5F5F5F5F5F5F5F5F5F5F5F5F5F5F5F5F5F5F5F5F5F5F5F5F5F5F5F5F5F5F5F5F5F5F5F5F5F5F5F5F5F5F5F5F5F5F5F5F5F5F5F5F5F5F5F5F5
310
F5F5F5F5F5F5F5F5F5F5F5F5F5F5F5F5F5F5F5F5F5F5F5F5F5F5F5F5F5F5F5F5F5F5F5F5F5F5F5F5F5F5F5F5F5F5F5F5F5F5F5F52727F5F5F5F5F5F5F5F5E2F5F5F5F5F527272727F5F5F5F5F5F5F5F5F5F5F5F5F5F5F5F5F5F5F5F5F5F5F5F5F5F5F5F5F5F5F5F5F5F5F5F5F5F5F5F5F5F5F5F5F5F5F5F5F5F5F5F5F5F5F5
310
F5F5F5F5F5F5F5F5F5F5F5F5F5F5F5F5F5F5F5F5F5F5F5F5F5F5F5F5F5F5F5F5F5F5F5F5F5F5F5F5F5F5F5F5F5F5F5F5F5F5F5F5F5F5F5F5F5F5F5F5F5F5F5F5F5F5F5F5F5F5F5F5F5F5F5F5F5F5F5F5F5F5F5F5F5F5F5F5F5F5F5F5F5F5F5F5F5F5F5F5F5F5F5F5F52727F5F5F5F5F5F5F5F5E2F5F5F5F5F527272727F5F5
310
E9E9E9E9E9E9E9E9E9E9E9E9E9E9E9E9E9E9E9E9E9E9E9E9E9E9E9E9E9E9E9E9E9E9E9E9E9E9E9E9E9E9E9E9E9E9E9E9E9E9E9E9E9E9E9E9E9E9E9E9E9E9E9E9E9E9E9E9E9E9E9E9E9E9E9E9E9E9E9E9E9E9E9E9E9E9E9E9E9E9E9E9E9E9E9E9E9E9E9E9E9E9E9E9E9E9E9E9E9E9E9E9E9E9E9E9E9E9E9E9E9E9E9E9E9E9E9
310
E9E9E9E9E9E9E9E9E9E9E9E9E9E9E9E9E9E9E9E9E9E9E9E9E9E9E9E9E9E9E92727E9E9F5F5F5F5F5F5E2F5F5F5F5F527272727F5F5E9F5F5F5F5F5F5F5F5F5F5F5F5F5F5F5F5F5F5F5F5F5F5F5F5F5F5F5F5F5F5F5F5F5F5F5F5F5F5F5F5F5F5F5F5F5F5F5F5F5F5F5F5F5F5F5F5F5F5F5F5F5F5F5F5F5F5F5F5F5F5F5F5F5
310
F5F5F5F5F5F5F5F5F5F5F5F5F5F5F5F5F5F5F5F5F5F5F5F5F5F5F5F5F5F5F5F5F5F5F5F5F5F5F5F5F5F5F5F5F5F5F5F5F5F5F5F5F5F5F5F5F5F5F5F5F5F5F5F5F5F5F5F5F5F5F5F5F5F5F5F5F5F5F5F5F5F5F5F52727F5E9F5F5F5F5F5F5E2F5F5F5F5F527F5F527F5F5E9F5F5F5F5F5F5F5F5F5F5F5F5F5F5F5F5F5F5F5F5
310
F5F5F5F5F5F5F5F5F5F5F5F5F5F5F5F5F5F5F5F5F5F5F5F5F5F5F5F5F5F5F5F5F5F5F5F5F5F5F5F5F5F5F5F5F5F5F5F5F5F5F5F5F5F5F5F5F5F5F5F5F5F5F5F5F5F5F5F5F5F5F5F5F5F5F5F5F5F5F5F5F5F5F5F5F5F5F5F5F5F5F5F5F5F5F5F5F5F5F5F5F5F5F5F5F5F5F5F5F5F5F5F5F5F5F5F5F5F5F5F5F5F5F5F5F5F5F5
310
F5F5F5F5F5F5F5F5F5F52727F5E9F5F5F5F5F5F5E2F5F5F5F5F527F5F527F5F5E9F5F5F5F5F5F5F5F5F5F5F5F5F5F5F5F5F5F5F5F5F5F5F5F5F5F5F5F5F5F5F5F5F5F5F5F5F5F5F5F5F5F5F5F5F5F5F5F5F5F5F5F5F5F5F5F5F5F5F5F5F5F5F5F5F5F5F5F5F5F5F5F5F5F5F5F5F5F5F5F5F5F5F5F5F5F5F5F5F5F5F5F5F5F5
310
F5F5F5F5F5F5F5F5F5F5F5F5F5F5F5F5F5F5F5F5F5F5F5F5F5F5F5F5F5F5F5F5F5F5F5F5F5F5F5F5F5F5F5F5F5F5F5F5F5F5F5F5F5F5F5F5F5F5F5F5F5F5F52727F5E9F5F5F5F5F5F5E2F5F5F5E2F527F5F527F5F5E9F5F5F5F5F5F5F5F5F5F5F5F5F5F5F5F5F5F5F5F5F5F5F5F5F5F5F5F5F5F5F5F5F5F5F5F5F5F5F5F5F5
310
F5F5F5F5F5F5F5F5F5F5F5F5F5F5F5F5F5F5F5F5F5F5F5F5F5F5F5F5F5F5F5F5F5F5F5F5F5F5F5F5F5F5F5F5F5F5F5F5F5F5F5F5F5F5F5F5F5F5F5F5F5F5F5F5F5F5F5F5F5F5F5F5F5F5F5F5F5F5F5F5F5F5F5F5F5F5F5F5F5F5F5F5F5F5F5F5F5F5F5F5F5F5F5F5F5F5F5F5F5F5F5F5F5F5F5F52727F5E9F5F5F5E2F5F5E2
310
F5F5F5E2F527F5F527F5F5E9F5F5F5F5F5F5F5F5F5F5F5F5F5F5F5F5F5F5F5F5F5F5F5F5F5F5F5F5F5F5F5F5F5F5F5F5F5F5F5F5F5F5F5F5F5F5F5F5F5F5F5F5F5F5F5F5F5F5F5F5F5F5F5F5F5F5F5F5F5F5F5F5F5F5F5F5F5F5F5F5F5F5F5F5F5F5F5F5F5F5F5F5F5F5F5F5F5F5F5F5F5F5F5F5F5F5F5F5F5F5F5F5F5F5F5
310
F5F5F5F5F5F5F5F5F5F5F5F5F5F5F5F5F5F5F5F5F5F5F5F5F5F5F5F5F5F5F5F5F5F5F5F5F5F5F5F5F5F52727F5E9F5F5F5E2F5F5E2F5F5F5E2F527F5F527F5F5E9F5F5F5F5F5F5F5F5F5F5F5F5F5F5F5F5F5F5F5F5F5F5F5F5F5F5F5F5F5F5F5F5F5F5F5F5F5F5F5F5F5F5F5F5F5F5F5F5F5F5F5F5F5F5F5F5F5F5F5F5F5F5
310
F5F5F5F5F5F5F5F5F5F5F5F5F5F5F5F5F5F5F5F5F5F5F5F5F5F5F5F5F5F5F5F5F5F5F5F5F5F5F5F5F5F5F5F5F5F5F5F5F5F5F5F5F5F5F5F5F5F5F5F5F5F5F5F5F5F5F5F5F5F5F5F5F5F5F5F5F5F5F5F5F5F5F5F5F5F5F5F5F5F5F5F5F5F5F52727F5E9F5F5F5E2F5F5E2F5F5F5E2F5F5F5F527F5F5E9F5F5F5F5F5F5F5F5F5
310
F5F5F5F5F5F5F5F5F5F5F5F5F5F5F5F5F5F5F5F55353535353535353535353535353535353535353535353535353535353535353535353535353535353535363535353F5F5F5F5F5F5F5F5F5F5F5F5F5F5F5F5F5F5F5F5F5F5F5F5F5F5F5F5F5F5F5F5F5F5F5F5F5F5F5F5F5F5F5F5F5F5F5F5F5F5F5F5F5F5F5F5F5F5F5F5
310
F5F5F5F5F5F5F5F5F5F5F5F5F5F5F5F5F5F5F5F5F52727F5E9F5F5F5E2F5F5E2F5F5F5E2F5F5F5F527F5F5E9F5F5F5F5F5F5F5F5F5F5F5F5F5F5F5F5F5F5F5F5F5F5F5F5F5F5F5F5F553F5F5F5F5F5F5F5F5F5F5F5F5F5F5F5F5F5F5F5F5F5F5F5F5F5F5F5F5F5F5F5F5F5F5F5F5F5F5F5F5636363636353F5F5F5F5F5F5F5
310
F5F5F5F5F5F5F5F5F5F5F5F5F5F5F5F5F5F5F5F5F5F5F5F5F5F5F5F5F5F5F5F5F5F5F5F5F5F5F5F5F5F5F5F5F5F5F5F5F5F5F5F5F5F5F5F5F5F5F5F5F5F5F5F5F5F5F5F5F5F5F5F5F5F52727F5E9F5F5F5E2F5F5E2F5F5F5E2F5F5F5F527F5F5E9F5F5F5F5F5F5F5F5F5F5F5F5F5F5F5F5F5F5F5F5F5F5F5F5F5F5F5F5F553
310
F5F5F5F5F5F5F5F5F5F5F5F5F5F5F5F5F5F5F5F5F5F5F5F5F5F5F5F5F5F5F5F5F5F5F5F5F5F5F5F5636363636353F5F5F5F5F5F5F5F5F5F5F5F5F5F5F5F5F5F5F5F5F5F5F5F5F5F5F5F5F5F5F5F5F5F5F5F5F5F5F5F5F5F5F5F5F5F5F5F5F5F5F5F5F5F5F5F5F5F5F5F5F5F5F5F5F5F5F5F5F5F5F5F5F5F5F5F5F5F5F5F5F5
310
2727F5E9F5F5F5E2F5F5E2F5F5F5E2F5F5F5F527F5F5E9F5F5F5F5F5F5F5F5F5F5F5F5F5F5F5F5F5F5F5F5F5F5F5F5F5F5F5F5F57878787878787878787878787878787878787878787878787878787878787878787878787878787878787878787878F5F5F5F5F5F5F5F5F5F5F5F5F5F5F5F5F5F5F5F5F5F5F5F5F5F5F5F5
310
F5F5F5F5F5F5F5F5F5F5F5F5F5F5F5F5F5F5F5F5F5F5F5F5F5F5F5F5F5F5F5F5F5F5F5F5F5F5F5F5F5F5F5F5F5F5F5F5F5F5F5F5F52727F5E9F5F5F5E2F5F5E2F5F5F5E2F5F5F5F527F5F5E9F5F5F5F5F5F5F5F5F5F5F5F5F5F5F5F5F5F5F5F5F5F5F5F5F5F5F5F5F55363F5636363786363636363F5F5F5F5F5F578636363
310
63636363F5F5F5F5F5F5F5F578F5F5F5F5F5F5636363636353F5F5F5F5F5F5F5F5F5F5F5F5F5F5F5F5F5F5F5F5F5F5F5F5F5F5F5F5F5F5F5F5F5F5F5F5F5F5F5F5F5F5F5F5F5F5F5F5F5F5F5F5F5F5F5F5F5F5F5F5F5F5F5F5F5F5F5F5F5F5F5F5F5F5F5F5F5F5F5F5F52727F5E9F5F5F5E2F5F5E2F5F5F5E2F5F5F5F5F5F5
310
F5E9F5F5F5F5F5F5F5F5F5F5F5F5F5F5F5F5F5F5F5F5F5F5F5F5F5F5F5F5F55363F56363F5786363636363F5F5F5F5F5F57863F5F563F563F5F5F5F5F5F5F5F5F578F5F5F5F5F5F5636363F56353F5F5F5F5F5F5F5F5F5F5F5F5F5F5F5F5F5F5F5F5F5F5F5F5F5F5F5F5F5F5F5F5F5F5F5F5F5F5F5F5F5F5F5F5F5F5F5F5F5
310
F5F5F5F5F5F5F5F5F5F5F5F5F5F5F5F5F5F5F5F5F5F5F5F5F5F5F5F5F5F5F5F52727F5E9F5F5F5E2F5F5E2F5F5F5E2F5F5F5F5F5F5F5E9F5F5F5F5F5F5F5F5F5F5F5F5F5F5F5F5F5F5F5F5F5F5F5F5F5F5F5F5F55363636363637863636363636363F5F5F5F57863636363636363F5F5F5F5F5F5F5F578F5F5F5F5F5F5F563
310
63636353F5F5F5F5F5F5F5F5F5F5F5F5F5F5F5F5F5F5F5F5F5F5F5F5F5F5F5F5F5F5F5F5F5F5F5F5F5F5F5F5F5F5F5F5F5F5F5F5F5F5F5F5F5F5F5F5F5F5F5F5F5F5F5F5F5F5F5F5F5F5F5F5F5F5F5F5F5F5F5F5F52727F5E9F5F5F5E2F5F5E2F5F5F5E2F5F5F5F5F5F5F5E9F5F5F5F5F5F5F5F5F5F5F5F5F5F5F5F5F5F5F5
310
F5F5F5F5F5F5F5F5F5F55363F56363637863636363636363F5F5F5F57863636363636363F5F5F5F5F5F5F5F578F5F5F5F5F5F5F56363636353F5F5F5F5F5F5F5F5F5F5F5F5F5F5F5F5F5F5F5F5F5F5F5F5F5F5F5F5F5F5F5F5F5F5F5F5F5F5F5F5F5F5F5F5F5F5F5F5F5F5F5F5F5F5F5F5F5F5F5F5F5F5F5F5F5F5F5F5F5F5
310
F5F5F5F5F5F5F5F5F5F5F52727F5E9F5F5F5E2F5F5E2F5F5F5E2F5F5F5F5F5F5F5E9F5F5F5F5F5F5F5F5F5F5F5F5F5F5F5F5F5F5F5F5F5F5F5F5F5F5F5F5F553F563F5F5F578F5F5F5F5F5F5F5F5F5F5F578F5F5F5F5F5F5F5F5F5F5F5F5F5F5F578F5F5F5F5F5F5F5F563F5F553F5F5F5F5F5F5F5F5F5F5F5F5F5F5F5F5F5
310
F5F5F5F5F5F5F5F5F5F5F5F5F5F5F5F5F5F5F5F5F5F5F5F5F5F5F5F5F5F5F5F5F5F5F5F5F5F5F5F5F5F5F5F5F5F5F5F5F5F5F5F5F5F5F5F5F5F5F5F5F5F5F5F52727F5E9F5F5F5E2F5F5E2F5F5F5E2F5F5F5F5F5F5F5E9F5F5F5F5F5F5F5F5F5F5F5F5F5F5F5F5F5F5F5F5F5F5F5F5F5F5F5F5F55363F56363637863636363
310
63636363F5F5F57863636363636363F5F5F5F5F5F5F5F578F5F5F5F5F5F5F56363636353F5F5F5F5F5F5F5F5F5F5F5F5F5F5F5F5F5F5F5F5F5F5F5F5F5F5F5F5F5F5F5F5F5F5F5F5F5F5F5F5F5F5F5F5F5F5F5F5F5F5F5F5F5F5F5F5F5F5F5F5F5F5F5F5F5F5F5F5F5F5F5F5F5F5F5F5F5F5F5F5F52727F5E9F5F5F5E2F5F5
310
E2F5F5F5E2F5F5F5F5F5F5F5E9F5F5F5F5F5F5F5F5F5F5F5F5F5F5F5F5F5F5F5F5F5F5F5F5F5F5F5F5F55363F5636363786363636363636363F5F5F57863F5F563F563F5F5F5F5F5F5F5F5F578F5F5F5F5F5F5F56363636353F5F5F5F5F5F5F5F5F5F5F5F5F5F5F5F5F5F5F5F5F5F5F5F5F5F5F5F5F5F5F5F5F5F5F5F5F5F5
310
F5F5F5F5F5F5F5F5F5F5F5F5F5F5F5F5F5F5F5F5F5F5F5F5F5F5F5F5F5F5F5F5F5F5F5F5F5F5F5F5F5F5F52727F5E9F5F5F5E2F5F5E2F5F5F5E2F5F5F5F5F5F5F5E9F5F5F5F5F5F5F5F5F5F5F5F5F5F5F5F5F5F5F5F5F5F5F5F5F5F5F5F5F55363636363F578636363636363F5F5F5F5F57863636363636363636363636363
310
636378F5F5F5F5F5F5F56363636353F5F5F5F5F5F5F5F5F5F5F5F5F5F5F5F5F5F5F5F5F5F5F5F5F5F5F5F5F5F5F5F5F5F5F5F5F5F5F5F5F5F5F5F5F5F5F5F5F5F5F5F5F5F5F5F5F5F5F5F5F5F5F5F5F5F5F5F5F5F5F5F5F5F5F5F5F5F5F5F5F52727F5E9F5F5F5E2F5F5E2F5F5F5E2F5F5F5F5F5F5F5E9F5F5F5F5F5F5F5F5
310
F5F5F5F5F5F5F5F5F5F5F5F5F5F5F5F5F5F5F5F5F55363F56363637863636363636363F5F5F5F57863636363636363636363636363636378F5F5F5F5F5F5F56363636353F5F5F5F5F5F5F5F5F5F5F5F5F5F5F5F5F5F5F5F5F5F5F5F5F5F5F5F5F5F5F5F5F5F5F5F5F5F5F5F5F5F5F5F5F5F5F5F5F5F5F5F5F5F5F5F5F5F5F5
310
F5F5F5F5F5F5F5F5F5F5F5F5F5F5F5F5F5F5F5F5F5F52727F5E9F5F5F5E2F5F5E2F5F5F5F5F5F5F5F5F5F5F5E9F5F5F5F5F5F5F5F5F5F5F5F5F5F5F5F5F5F5F5F5F5F5F5F5F5F5F5F5F553F5F563F5F578F5F5F5F5F5F5F5F5F5F5F578F5F5F5F5F5F5F5F5F5F5F5F5F5F5F578F5F5F5F5F5F5F5F5F5F5F553F5F5F5F5F5F5
310
F5F5F5F5F5F5F5F5F5F5F5F5F5F5F5F5F5F5F5F5F5F5F5F5F5F5F5F5F5F5F5F5F5F5F5F5F5F5F5F5F5F5F5F5F5F5F5F5F5F5F5F5F5F5F5F5F5F5F5F5F5F5F5F5F5F5F5F5F5F5F5F5F5F5F52727F5E9F5F5F5F5F5F5E2F5F5F5F5F5F5F5F5F5F5F5E9F5F5F5F5F5F5F5F5F5F5F5F5F5F5F5F5F5F5F5F5F5F5F5F5F5F5F5F5F5
310
536363636363786363636363636363F5F5F5786363636363F563636363F5F5F5F5F578F5F5F5F5F5F5F56363636353F5F5F5F5F5F5F5F5F5F5F5F5F5F5F5F5F5F5F5F5F5F5F5F5F5F5F5F5F5F5F5F5F5F5F5F5F5F5F5F5F5F5F5F5F5F5F5F5F5F5F5F5F5F5F5F5F5F5F5F5F5F5F5F5F5F5F5F5F5F5F5F5F5F5F5F5F5F5F5F5
310
F52727F5E9F5F5F5F5F5F5E2F5F5F5F5F5F5F5F5F5F5F5E9F5F5F5F5F5F5F5F5F5F5F5F5F5F5F5F5F5F5F5F5F5F5F5F5F5F5F5F5F55363F5636363786363636363636363F5F5F5786363636363F5636363F5F5F5F5F5F578F5F5F5F5F5F5F56363636353F5F5F5F5F5F5F5F5F5F5F5F5F5F5F5F5F5F5F5BEBEBEF5F5F5F5F5
310
F5F5F5F5F5F5F5F5F5F5F5F5F5F5F5F5F5F5F5F5F5F5F5F5F5F5F5F5F5F5F5F5F5F5F5F5F5F5F5F5F5F5F5F5F5F5F5F5F5F5F5F5F5F52727F5E9F5F5F5F5F5F5E2F5F5F5F5F5F5F5F5F5F5F5E9F5F5F5F5F5F5F5F5F5F5F5F5F5F5F5F5F5F5F5F5F5F5F5F5F5F5F5F5F553F563F5F5F578F5F5F5F5F5F5F5F5F5F5F57863F5
310
F5F5F5F563F5F5F5F5F5F5F5F578F5F5F5F5F5F5F5F563F5F553F5F5F5F5F5F5F5F5F5F5F5F5F5F5F5F5F5BEBEBEF5BEBEBEF5F5F5F5F5F5F5F5F5F5F5F5F5F5F5F5F5F5F5F5F5F5F5F5F5F5F5F5F5F5F5F5F5F5F5F5F5F5F5F5F5F5F5F5F5F5F5F5F5F5F5F5F5F5F5F5F52727F5E9F5F5F5F5F5F5E2F5F5F5F5F5F5F5F5F5
310
F5F5E9F5F5F5F5F5F5F5F5F5F5F5F5F5F5F5F5F5F5F5F5F5F5F5F5F5F5F5F5F55363F56363637863636363636363F5F5F5F5786363636363F563636363F5F5F5F5F578F5F5F5F5F5F5F56363636353F5F5F5F5F5F5F5F5F5F5F5F5F5F5F5F5BEBEF5F5F5F5F5BEBEF5F5F5F5F5F5F5F5F5F5F5F5F5F5F5F5F5F5F5F5F5F5F5
310
F5F5F5F5F5F5F5F5F5F5F5F5F5F5F5F5F5F5F5F5F5F5F5F5F5F5F5F5F5F5F5F5F52727F5E9F5F5F5F5F5F5E2F5F5F5F5F5F5F5F5F5F5F5E9F5F5F5F5F5F5F5F5F5F5F5F5F5F5F5F5F5F5F5F5F5F5F5F5F5F5F5F5F55363F56363F57863636363636363F5F5F5F578F5F5F563F5F5F5F563F5F5F5F5F5F578F5F5F5F5F5F5F5
310
6363636353F5F5F5F5F5F5F5F5F5F5F5F5F5F5F5BEBEBEF5F5F5F5F5BEBEBEF5F5F5F5F5F5F5F5F5F5F5F5F5F5F5F5F5F5F5F5F5F5F5F5F5F5F5F5F5F5F5F5F5F5F5F5F5F5F5F5F5F5F5F5F5F5F5F5F5F5F5F5F5F5F52727F5E9F5F5F5F5F5F5E2F5F5F5F5F5F5F5F5F5F5F5E9F5F5F5F5F5F5F5F5F5F5F5F5F5F5F5F5F5F5
310
F5F5F5F5F5F5F5F5F5F5F55363636363F57863636363636363F5F5F5F5786363636363F563636363F5F5F5F5F578F5F5F5F5F5F5F56363636353F5F5F5F5F5F5F5F5F5F5F5F5F5F5F5BEF5F5BEF5F5F5BEF5F5BEF5F5F5F5F5F5F5F5F5F5F5F5F5F5F5F5F5F5F5F5F5F5F5F5F5F5F5F5F5F5F5F5F5F5F5F5F5F5F5F5F5F5F5
310
F5F5F5F5F5F5F5F5F5F5F5F52727F5E9F5F5F5F5F5F5E2F5F5F5F5F5F5F5F5F5F5F5E9F5F5F5F5F5F5F5F5F5F5F5F5F5F5F5F5F5F5F5F5F5F5F5F5F5F5F5F5F55363F56363637863636363636363F5F5F5F5786363636363F5636363F5F5F5F5F5F578F5F5F5F5F5F5F56363636353F5F5F5F5F5F5F5F5F5F5F5F5F5F5F5BE
310
F5F5F5BEBEBEF5F5F5BEF5F5F5F5F5F5F5F5F5F5F5F5F5F5F5F5F5F5F5F5F5F5F5F5F5F5F5F5F5F5F5F5F5F5F5F5F5F5F5F5F5F5F5F5F5F5F5F5F5F5F5F5F5F5F52727F5E9F5F5F5F5F5F5E2F5F5F5F5F5F5F5F5F5F5F5E9F5F5F5F5F5F5F5F5F5F5F5F5F5F5F5F5F5F5F5F5F5F5F5F5F5F5F5F5F553F56363F5F578F5F5F5
310
F5F5F5F5F5F5F5F57863F5F5F5F5F563F5F5F5F5F5F5F5F578F5F5F5F5F5F5F5F5F5F5F553F5F5F5F5F5F5F5F5F5F5F5F5F5F5F5BEF5F5F5BEBEBEF5F5F5BEF5F5F5F5F5F5F5F5F5F5F5F5F5F5F5F5F5F5F5F5F5F5F5F5F5F5F5F5F5F5F5F5F5F5F5F5F5F5F5F5F5F5F5F5F5F5F5F5F5F5F5F5F5F5F52727F5E9F5F5F5F5F5
310
F5E2F5F5F5E2F5F5F5F5F5F5F5E9F5F5F5F5F5F5F5F5F5F5F5F5F5F5F5F5F5F5F5F5F5F5F5F5F5F5F5F5F55363F5636363786363636363F5F5F5F5F5F5786363636363F563636363F5F5F5F5F578F5F5F5F5F5F5636363636353F5F5F5F5F5F5F5F5F5F5F5F5F5F5F5BEF5F5BEF5BEBEBEF5F5BEF5F5F5F5F5F5F5F5F5F5F5
310
F5F5F5F5F5F5F5F5F5F5F5F5F5F5F5F5F5F5F5F5F5F5F5F5F5F5F5F5F5F5F5F5F5F5F5F5F5F5F5F5F5F5F5F52727F5E9F5F5F5E2F5F5E2F5F5F5E2F5F5F5F5F5F5F5E9F5F5F5F5F5F5F5F5F5F5F5F5F5F5F5F5F5F5F5F5F5F5F5F5F5F5F5F5F55363F5636363786363636363F5F5F5F5F5F5786363636363F5636363F5F5F5
310
F5F5F578F5F5F5F5F5F56363F5636353F5F5F5F5F5F5F5F5F5F5F5F5F5F5F5BEF5BEBEBEF5F5F5BEF5BEF5F5F5F5F5F5F5F5F5F5F5F5F5F5F5F5F5F5F5F5F5F5F5F5F5F5F5F5F5F5F5F5F5F5F5F5F5F5F5F5F5F5F5F5F5F5F5F5F5F5F5F5F5F5F52727F5E9F5F5F5E2F5F5E2F5F5F5E2F5F5F5F5F5F5F5E9F5F5F5F5F5F5F5
310
F5F5F5F5F5F5F5F5F5F5F5F5F5F5F5F5F5F5F5F5F5F553F563F5F5F578F5F5F5F5F5F5F5F5F5F5F57863F5F5F5F5F563F5F5F5F5F5F5F5F578F5F5F5F5F5F5F5F563F5F553F5F5F5F5F5F5F5F5F5F5F5F5F5F5BEF5BEBEF5F5F5F5F5F5BEF5F5F5F5F5F5F5F5F5F5F5F5F5F5F5F5F5F5F5F5F5F5F5F5F5F5F5F5F5F5F5F5F5
310
F5F5F5F5F5F5F5F5F5F5F5F5F5F5F5F5F5F5F5F5F5F5F52727F5E9F5F5F5E2F5F5E2F5F5F5E2F5F5F5F5F5F5F5E9F5F5F5F5F5F5F5F5F5F5F5F5F5F5F5F5F5F5F5F5F5F5F5F5F5F5F5F5F55363F56363637863636363F5F5F5F5F5F5F5786363636363F563636363F5F5F5F5F578F5F5F5F5F5F5F56363636353F5F5F5F5F5
310
F5F5F5F5F5F5F5F5F5BEBEBEBEBEF5F5F5BEBEBEF5F5F5F5F5F5F5F5F5F5F5F5F5F5F5F5F5F5F5F5F5F5F5F5F5F5F5F5F5F5F5F5F5F5F5F5F5F5F5F5F5F5F5F5F5F5F5F5F5F5F5F5F5F5F5F52727F5E9F5F5F5E2F5F5E2F5F5F5E2F5F5F5F5F5F5F5E9F5F5F5F5F5F5F5F5F5F5F5F5F5F5F5F5F5F5F5F5F5F5F5F5F5F5F5F5
310
F55363F563636378636363F5F5F5F5F5F5F5F578F5F5F563F5F5F5F563F5F5F5F5F5F578F5F5F5F5F5F5F56363636353F5F5F5F5F5F5F5F5F5F5F5F5BEF5BEF5BEF5BEBEBEBEBEF5F5F5F5F5F5F5F5F5F5F5F5F5F5F5F5F5F5F5F5F5F5F5F5F5F5F5F5F5F5F5F5F5F5F5F5F5F5F5F5F5F5F5F5F5F5F5F5F5F5F5F5F5F5F5F5
310
F5F52727F5E9F5F5F5E2F5F5E2F5F5F5E2F5F5F5F5F5F5F5E9F5F5F5F5F5F5F5F5F5F5F5F5F5F5F5F5F5F5F5F5F5F5F5F5F5F5F5F5F553F5636363F5786363636363636363F5F5F57863636363636363F5F5F5F5F5F5F5F578F5F5F5F5F5F5F56363636353F5F5F5F5F5F5F5F5F5F5F5F5F5BEF5BEF5BEF5F5F5F5F5F5F5F5
310
F5F5F5F5F5F5F5F5F5F5F5F5F5F5F5F5F5F5F5F5F5F5F5F5F5F5F5F5F5F5F5F5F5F5F5F5F5F5F5F5F5F5F5F5F5F5F5F5F5F5F5F5F5F5F52727F5E9F5F5F5E2F5F5E2F5F5F5E2F5F5F5F5F5F5F5E9F5F5F5F5F5F5F5F5F5F5F5F5F5F5F5F5F5F5F5F5F5F5F5F5F5F5F5F5F55363636363F5786363636363636363F5F5F57863
310
636363636363F5F5F5F5F5F5F5F578F5F5F5F5F5F5F56363636353F5F5F5F5F5F5F5F5F5F5F5F5F5F5BEBEF5F5F5F5F5F5F5F5F5F5F5F5F5F5F5F5F5F5F5F5F5F5F5F5F5F5F5F5F5F5F5F5F5F5F5F5F5F5F5F5F5F5F5F5F5F5F5F5F5F5F5F5F5F5F5F5F5F5F5F5F5F5F5F5F52727F5E9F5F5F5E2F5F5E2F5F5F5E2F5F5F5F5
310
F5F5F5E9F5F5F5F5F5F5F5F5F5F5F5F5F5F5F5F5F5F5F5F5F5F5F5F5F5F5F5F5F57878786378787878787878787878787878787878787878787878787878787878787878787878787878787878787878F5F5F5F5F5F5F5F5F5F5F5F5F5F5F5BEF5F5F5F5F5F5F5F5F5F5F5F5F5F5F5F5F5F5F5F5F5F5F5F5F5F5F5F5F5F5F5
310
F5F5F5F5F5F5F5F5F5F5F5F5F5F5F5F5F5F5F5F5F5F5F5F5F5F5F5F5F5F5F5F5F5F52727F5E9F5F5F5E2F5F5E2F5F5F5E2F5F5F5F5F5F5F5E9F5F5F5F5F5F5F5F5F5F5F5F5F5F5F5F5F5F5F5F5F5F5F5F5F5F5F5F5F553F5F5F5F5F578ABABABABABABABABABABAB78ABABABABABABABF5F5F5F5F5F5F5F578ABABABF5ABAB
310
ABABABABAB53F5F5F5F5F5F5F5F5F5F5F5F5F5F5F5F5F5F5F5F5F5F5F5F5F5F5F5F5F5F5F5F5F5F5F5F5F5F5F5F5F5F5F5F5F5F5F5F5F5F5F5F5F5F5F5F5F5F5F5F5F5F5F5F5F5F5F5F5F5F5F5F5F5F5F5F5F5F5F5F5F5F5F5F5E9F5F5F5E2F5F5E2F5F5F5E2F5F5F5F5F5F5F5E9F5F5F5F5F5F5F5F5F5F5F5F5F5F5F5F5F5
310
F5F5F5F5F5F5F5F5F5F5F5F553F5F5F5F5F578ABABABABABABABABABABAB78ABABABABABABABF5F5F5F5F5F5F5F578ABABABF5ABABABABABABAB53F5F5F5F5F5F5F5F5F5F5F5F5F5F5F5F5F5F5F5F5F5F5F5F5F5F5F5F5F5F5F5F5F5F5F5F5F5F5F5F5F5F5F5F5F5F5F5F5F5F5F5F5F5F5F5F5F5F5F5F5F5F5F5F5F5F5F5F5
310
F5F5F5F5F5F5F5F5F5F5F5F5F5F5F5F5E9F5F5F5E2F5F5E2F5F5F5E2F5F5F5F5F5F5F5E9F5F5F5F5F5F5F5F5F5F5F5F5F5F5F5F5F5F5F5F5F5F5F5F5F5F5F5F5F57878787878787878787878787878787878787878787878787878787878787878787878787878787878787878787878F5F5F5F5F5F5F5F5F5F5F5F5F5F5F5
310
F5F5F5F5F5F5F5F5F5F5F5F5F5F5F5F5F5F5F5F5F5F5F5F5F5F5F5F5F5F5F5F5F5F5F5F5F5F5F5F5F5F5F5F5F5F5F5F5F5F5F5F5F5F5F5F5F5F5F5F5F5F5F5F5F5F5F5F5F5E9F5F5F5E2F5F5E2F5F5F5E2F5F5F5F5F5F5F5E9F5F5F5F5F5F5F5F5F5F5F5F5F5F5F5F5F5F5F5F5F5F5F5F5F5F5F5F5F553848484848484F5F5
310
8484F584848484848484848484848484848484848484F5F5F5F5F5F5F5F5F5F5F5F5F5F5F553F5F5F5F5F5F5F5F5F5F5F5F5F5F5F5F5F5F5F5F5F5F5F5F5F5F5F5F5F5F5F5F5F5F5F5F5F5F5F5F5F5F5F5F5F5F5F5F5F5F5F5F5F5F5F5F5F5F5F5F5F5F5F5F5F5F5F5F5F5F5F5F5F5F5F5F5F5F5F5F5F5F5F5F5E9F5F5F5E2
310
F5F5E2F5F5F5E2F5F5F5F5F5F5F5E9F5F5F5F5F5F5F5F5F5F5F5F5F5F5F5F5F5F5F5F5F5F5F5F5F5F5F5F5F55384848484848453535353535353845353845384535353538453535353538453535353535353535353535353535353F5F5F5F5F5F5F5F5F5F5F5F5F5F5F5F5F5F5F5F5F5F5F5F5F5F5F5F5F5F5F5F5F5F5F5F5
310
F5F5F5F5F5F5F5F5F5F5F5F5F5F5F5F5F5F5F5F5F5F5F5F5F5F5F5F5F5F5F5F5F5F5F5F5F5F5F5F5F5F5F5F5F5F5F5F5E9F5F5F5E2F5F5E2F5F5F5E2F5F5F5F5F5F5F5E9F5F5F5F5F5F5F5F5F5F5F5F5F5F5F5F5F5F5F5F5F5F5F5F5F5F5F5F5F5F5F5F5F5F5F5F5F5F5F5F5F5F5F5F5F5F5F5F5F5F5F5F5F5F5F5F5F5F5F5
310
F5F5F5F5F5F5F5F5F5F5F5F5F5F5F5F5F5F5F5F5F5F5F5F5F5F5F5F5F5F5F5F5F5F5F5F5F5F5F5F5F5F5F5F5F5F5F5F5F5F5F5F5F5F5F5F5F5F5F5F5F5F5F5F5F5F5F5F5F5F5F5F5F5F5F5F5F5F5F5F5F5F5F5F5F5F5F5F5F5F5F5F5F5F5F5F5F5F5F5F5F5E9F5F5F5E2F5F5E2F5F5F5E2F5F5F5F5F5F5F5E9F5F5F5F5F5F5
310
F5F5F5F5F5F5F5F5F5F5F5F5F5F5F5F5F5F5F5F5F5F5F5F5F5F5F5F5F5F5F5F5F5F5F5F5F5F5F5F5F5F5F5F5F5F5F5F5F5F5F5F5F5F5F5F5F5F5F5F5F5F5F5F51B1BF5F5F5F5F5F5F5F5F5F5F5F5F5F5F5F5F5F5F5F5F5F5F5F5F5F5F5F5F5F5F5F5F5F5F5F5F5F5F5F5F5F5F5F5F5F5F5F5F5F5F5F5F5F5F5F5F5F5F5F5F5
310
F5F5F5F5F5F5F5F5F5F5F5F5F5F5F5F5F5F5F5F5F5F5F5F5F5F5F5E9F5F5F5E2F5F5E2F5F5F5E2F5F5F5F5F5F5F5E9F5F5F5F5F5F5F5F5F5F5F5F5F5F5F5F5F5F5F5F5F5F5F5F5F5C3C3C3C3C3C3C3C3C3C3C3C3C3C3C3C3C3C3C3C3C3C3C3C3C3C3C3C3C3C3C3C3C3C3C3C3C3C3C3C3C3C3C3C3C31B1BC3D6C3C3C3C3C3C3
310
C3C3C3C3C3C3C3C3C3C3F5F5F5F5F5F5F5F5F5F5F5F5F5F5F5F5F5F5F5F5F5F5F5F5F5F5F5F5F5F5F5F5F5F5F5F5F5F5F5F5F5F5F5F5F5F5F5F5F5F5F5F5F5F5F5F5F5F5F5F5F5F5F5F5F5F5F5F5F5F5E9F5F5F5E2F5F5E2F5F5F5F5F5F5F5F5F5F5F5E9F5F5F5F5F5F5F5F5F5F5F5F5F5F5F5F5F5F5F5F5F5F5F5F5F5C3F5
310
F5F5F5F5F5F5F5F5F5F5F5F5F5F5F5F5F5F5F5F5F5F5F5F5F5F5F5F5F5F5C3F5F5F5F5C3F5F5F5F5F5F5F51B1BF5D6F5F5F5F5F5F5F5F5F5F5C3F5F5F5F5C3F5F5F5F5F5F5F5F5F5F5F5F5F5F5F5F5F5F5F5F5F5F5F5F5F5F5F5F5F5F5F5F5F5F5F5F5F5F5F5F5F5F5F5F5F5F5F5F5F5F5F5F5F5F5F5F5F5F5F5F5F5F5F5F5
310
F5F5F5F5F5F5E9F5F5F5F5F5F5E2F5F5F5F5F5F5F5F5F5F5F5E9F5F5F5F5F5F5F5F5F5F5F5F5F5F5F5F5F5F5F5F5F5F5F5F5F5C3F5F5F5F5F5F5F5F5F5F5F5F5F5F5F5F5F5F5F5F5F5F5F5F5F5F5F5F5F5F5F5C3F5F5F5F5C3F5F5F5F5F5F5F51B1BD6D6D6F5F5F5F5F5F5F5F5F5C3F5F5F5F5C3F5F5F5F5F5F5F5F5F5F5F5
310
F5F5F5F5F5F5F5F5F5F5F5F5F5F5F5F5F5F5F5F5F5F5F5F5F5F5F5F5F5F5F5F5F5F5F5F5F5F5F5F5F5F5F5F5F5F5F5F5F5F5F5F5F5F5F5F5F5F5F5E9F5F5F5F5F5F5E2F5F5F5F5F5F5F5F5F5F5F5E9F5F5F5F5F5F5F5F5F5F5F5F5F5F5F5F5F5F5F5F5F5F5F5F5F5C3F5F5F5F5F5F5F5F5F5F5F5F5F5F5F5F5F5F5F5F5F5F5
310
F5F5F5F5F5F5F5F5F5C3F5F5F5F5C3C3C3C3C3C3C3C31B1BC3D6C3C3C3C3C3C3C3C3C3C3C3F5F5F5F5C3F5F5F5F5F5F5F5F5F5F5F5F5F5F5F5F5F5F5F5F5F5F5F5F5F5F5F5F5F5F5F5F5F5F5F5F5F5F5F5F5F5F5F5F5F5F5F5F5F5F5F5F5F5F5F5F5F5F5F5F5F5F5F5F5F5F5F5F5F5F5E9F5F5F5F5F5F5E2F5F5F5F5F5F5F5
310
F5F5F5F5E9F5F5F5F5F5F5F5F5F5F5F5BEBEF5F5F5F5BEF5F5F5F5F5F5F5C3F5F5F5F5F5F5F5F5F5F5F5F5F5F5F5F5F5F5F5F5F5F5F5F5F5F5F5F5F5F5F5C3C3C3C3C3C3C3C3C3C3C3C3C31B1BC3C3C3C3C3C3C3C3C3C3C3C3C3C3C3C3C3C3F5F5F5F5F5F5F5F5F5F5F5F5F5F5F5F5F5F5F5F5F5F5F5F5F5F5F5F5F5F5F5F5
310
F5F5F5F5F5F5F5F5F5F5F5F5F5F5F5F5F5F5F5F5F5F5F5F5F5F5F5F5F5F5F5F5F5F5F5F5F5F5E9F5F5F5F5F5F5E2F5F5F5F5F5F5F5F5F5F5F5E9F5F5F5F5F5F5F5F5F5F5F5BEBEF5F5F5BEBEF5F5F5F5F5F5F5C3F5F5F5F5F5F5F5F5F5F5F5F5F5F5F5F5F5F5F5F5F5F5F5F5F5F5F5F5F5F5F5C3BEBEE2BEC3BEBEBEBEBEBE
310
BE1B1BBEBEBEBEBEBEBEBEBEBEBEBEC3BEBEBEBEC3F5F5F5F5F5F5F5F5F5F5F5F5F5F5F5F5F5F5F5F5F5F5F5F5F5F5F5F5F5F5F5F5F5F5F5F5F5F5F5F5F5F5F5F5F5F5F5F5F5F5F5F5F5F5F5F5F5F5F5F5F5F5F5F5F5F5F5F5F5F5E9F5F5F5F5F5F5E2F5F5F5F5F5F5F5F5F5F5F5E9F5F5F5F5F5F5F5F5F5F5F5BEF5F5F5F5
310
F5BEF5F5F5F5F5F5F5C3F5F5F5F5F5F5F5F5F5F5F5F5F5F5F5F5F5F5F5F5F5F5F5F5F5F5F5F5F5F5F5C3BEBEBEE2C3F5F5F5F5F5F5F5F5F5F5F5F5F5F5F5F5F5F5F5F5F5C3E2BEBEBEC3F5F5F5F5F5F5F5F5F5F5F5F51C1C1C1C1CF5F5F5F5F5F5F5F5F5F5F5F5F5F5F5F5F5F5F5F5F5F5F5F5F5F5F5F5F5F5F5F5F5F5F5F5
310
F5F5F5F5F5F5F5F5F5F5F5F5F5F5F5F5F5E9F5F5F5F5F5F5E2F5F5F5F5F5F5F5F5F5F5F5E9F5F5F5F5F5F5F5F5F5F5F5BEF5F5F5F5F5BEF5F5F5F5F5F5F5C3F5F5F5F5F5F5F5F5F5F5F5F5F5F5F5F5F5F5F5F5F5F5F5F5F5F5F5F5F5F5F5C3BEF5BEE2C3F5F5F5F5F5F5F5F5F5F5F5F5F5F5F5F5F5F5F5F5F5C3E2F5F5BEC3
310
F5F5F5F5F5F5F5F5F5F5F5F51C72727272F5F5F5F5F5F5F5F5F5F5F5F5F5F5F5F5F5F5F5F5F5F5F5F5F5F5F5F5F5F5F5F5F5F5F5F5F5F5F5F5F5F5F5F5F5F5F5F5F5F5F5F5F5E9F5F5F5F5F5F5E2F5F5F5F5F5F5F5F5F5F5F5E9F5F5F5F5F5F5F5F5F5F5F5BEF5F5F52727BEF5F5F5F5F5F5F5C3F5F5F5F5F5F5D6D6D6D6D6
310
D6D6D6D6D6D6D6D6D6D6D6F5D6D6D6F5F5F52929C3BEE2BEBEC3BEBEBEBEBEBEBEBEBEBEBEBEBEBEBEBEBEBEBEBEBEC3BEE2E2E2C32929F5F5F5F5F5F5F5F5F51C72727272721CF5F5F5F5F5F5F5F5F5F5F5F5F5F5F5F5F5F5F5F5F5F5F5F5F5F5F5F5F5F5F5F5F5F5F5F5F5F5F5F5F5F5F5F5F5F5F5F5F5F5F5F5E9F5F5F5
310
F5F5F5E2F5F5F5E2F5F5F5F5F5F5F5E9F5F5F5F5F5F5F5F5F5F5F5BEF5F5F52727BEF5F5F5F5F5F5F5C3F5F5F5F5F5F5D6F5F5F5F5F5F5F5F5F5F5F5F5F5F5F5F5F5F5D6F5F5292929C329292929C3C3C3C3C3C3C3C3C3C3C3C3C3C3C3C3C3C3C3C3C329C32929292929292929F5F5F5F5F5F5F5F51C72727272721CF5F5F5
310
F5F5F5F5F5F5F5F5F5F5F5F5F5F5F5F5F5F5F5F5F5F5F5F5F5F5F5F5F5F5F5F5F5F5F5F5F5F5F5F5F5F5F5F5F5F5F5F5F5E9F5F5F5E2F5F5E2F5F5F5E2F5F5F5F5F5F5F5E9F5F5F5F5F5F5F5F5F5F5F5BEF5F5F52727BEF5F5F5F5F5F5F5C3F5F5F5F5F5F5D6F5F5F5F5F5F5F5F5F5F5F5F5F5F5F5F5F5F5D6F5F5F52929C3
310
29292929C329F5F5F5F5F5F5F5D6D6D6D6F5F5F5F5F5F5F5F529C329292929292929F5F5F5F5F5F5F5F5F5F57272727272F5F5F5F5F5F5F5F5F5F5F5F5F5F5F5F5F5F5F5F5F5F5F5F5F5F5F5F5F5F5F5F5F5F5F5F5F5F5F5F5F5F5F5F5F5F5F5F5F5F5F5F5F5E9F5F5F5E2F5F5E2F5F5F5E2F5F5F5F5F5F5F5E9F5F5F5F5F5
310
F5F5F5F5F5F5BEF5F5F5F5F5BEF5F5F5F5F5F5F5C3F5F5F5F5F5F5D6F5F5F5F5F5F5F5F5F5F5F5F5F5F5F5F5F5F5D6F5F5F52929C329292929C329F5F5F5F5F5F5F5D6D6D6D6D6F5F5F5F5F5F5F529C329292929292929F5F5F5F5F5F5F5F5F5F51C1C1C1C1CF5F5F5F5F5F5F5F5F5F5F5F5F5F5F5F5F5F5F5F5F5F5F5F5F5
310
F5F5F5F5F5F5F5F5F5F5F5F5F5F5F5F5F5F5F5F5F5F5F5F5F5F5F5F5E9F5F5F5E2F5F5E2F5F5F5E2F5F5F5F5F5F5F5E9F5F5F5F5F5F5F5F5F5F5F5BEF5F5F5F5F5BEF5F5F5F5F5F5F5C3F5F5F5F5F5F5D6F5F5F5F5F5F5F5F5F5D6F5F5F5F5F5F5F5F5D6F5F5F52929C329292929C3F5F5F5F5F5F5F5D6D6D6D6D6D6F5F5F5
310
F5F5F5F5F5C329292929292929F5F5F5F5F5F5F5F5F5F5F5F51CF5F5F5F5F5F5F5F5F5F5F5F5F5F5F5F5F5F5F5F5F5F5F5F5F5F5F5F5F5F5F5F5F5F5F5F5F5F5F5F5F5F5F5F5F5F5F5F5F5F5F5F5F5F5F5E9F5F5F5E2F5F5E2F5F5F5E2F5F5F5F5F5F5F5E9F5F5F5F5F5F5F5F5F5F5F5BEF5F5F5F5BEBEF5F5F5F5F5F5F5EC
310
E2BEE2E2E2BEBEBEBEBEBEBEBEBED6D6D6D6BEBEBEBEBEBEBEBEBEE2E2E2E2E2E2E2E2E2E2E2E2E2E2E2E2BED6D6D6D6D6D6D6BEE2E2E2E2E2E2E2E2E2E2E2E2E2E2E2E2E2BEBEBEBEBEBEBEBEBEECBEBEBEBEBEBEBEBEBEE2E2E2E2E2E2E2BEBEBEBEBEBEBEBEBEBEBEBEBEBEBEBEBEBEBEBEBEBEBEBEBEF5F5F5F5F5F5F5
310
F5F5F5F5F5F5F5E9F5F5F5E2F5F5E2F5F5F5E2F5F5F5F5F5F5F5E9F5F5F5F5F5F5F5F5F5F5F5BEF5F5F5F5BEBEF5F5F5F5F5F5F5EC6FBE6F6F6FE2D6F5F5F5F5F5F5D6D6D6D6D6D6F5F5F5F5F5F5D6E26F6F6F6F6F6F6F6F6F6F6F6F6F6F6F6FE2F5D6D6D6D6D6F5E26F6F6F6F6F6F6F6F6F6F6F6F6F6F6F6F6FE2F5F5F5F5
310
F5F5F5F51CF5F5F5F5F5F5F5F5E26F6F6F6F6F6F6FBEF5BE29BEBE29BEBE29BE29BE29BE29BEBEBEBEBE29BEBEBEF5F5F5F5F5F5F5F5F5F5F5F5F5F5E9F5F5F5E2F5F5E2F5F5F5E2F5F5F5F5F5F5F5E9F5F5F5F5F5F5F5F5F5F5F5BEF5F5F5F5F5BEF5F5F5F5F5F5F5ECE2BE171717E2DCDCDCDCDCDCDCD6D6D6D6D6D6DCDC
310
DCDCDCDCDCE217171717171717171717171717171717E2C3D6D6D6D6C3C3E21717171717171717171717171717171717E2C3C3C3C3C3C3C3C3C3C3C3C3C3C3C3C3C3E2171717171717E2BEF5BEBEBE29BE29BEBE29BE29BE29BEBE29BE29BEBEBEBEBEF5F5F5F5F5F5F5F5F5F5F5F5F5F5E9F5F5F5E2F5F5E2F5F5F5E2F5F5
310
F5F5F5F5F5E9F5F5F5F5F5F5F5F5F5F5F5BEF5F5F5F5F5BEF5F5F5F5F5F5F5ECE2BE525252E2D6BEBED6D6D6D6D6D6D6D6D6D6D6D6D6D6D6D6D6E252525217171752525252525252525252E2F5F5F5F5F5F5D6BE1717525252525252525252525252525252E2F5F5F5F5F5F5F5F51CF5F5F5F5F5F5F5F5E252F552525217E2
310
BEBE29BEBE29BEBE29BEBE29BEBEBEBE29BEBEBEBEBE29BEBEF5F5F5F5F5F5F5F5F5F5F5F5F5F5E9F5F5F5E2F5F5E2F5F5F5E2F5F5F5F5F5F5F5E9F5F5F5F5F5F5F5F5F5F5F5BEF5F5F5F5F5BEF5F5F5F5F5F5F5ECE2BEBEBEE2BEBEBEBEBEBEBEBEBED6D6D6D6BEBEBEBEBEBEBEBEBEE2E2E2E2ECE2E2E2E2E2E2E2E2E2E2
310
E2BEBEBEBEBEBEBEBEBE52E2E2E2E2E2E2E2E2E2E2E2E2E2E2E2E2BEBEBEBEBEBEBEBEBEECBEBEBEBEBEBEBEBEBEE2E2E2E25217E2BEBEBEBE29BE29BEBEBE29BEBEBEBEBEBEBEBEBEBEBEBE29BEF5F5F5F5F5F5F5F5F5F5F5F5F5F5E9F5F5F5E2F5F5E2F5F5F5E2F5F5F5F5F5F5F5E9F5F5F5F5F5F5F5F5F5F5F5BEF5F5F5
310
F5F5BEF5F5F5F5F5F5F5ECE21752E2F5F5D6BEF5F5F5F5F5F5F5D6D6F5F5F5F5F5F5F5F5D6F5F5F5F5C352DC3535BEF5F5353535F5F5D6D6F5F5F5F5F5D6E252E235F5F5F5F5F5BE35F5F5F5F5F5F53535F5F5F5F5F53535F51CF5F5F5F5F5F5F5F5F535F5F5E25217E2BEBEBEBEBEBEBEBEBEBEBEBEBEBEBEBEBEBEBEBE29
310
29BEBEBEF5F5F5F5F5F5F5F5F5F5F5F5F5F5E9F5F5F5E2F5F5E2F5F5F5E2F5F5F5F5F5F5F5E9F5F5F5F5F5F5F5F5F5F5F5BEF5F5F5F5F5BEF5F5F5F5F5F5F5ECE21752E2F5F5D6BEF5F5F5F5F5F5F5F5F5F5F5F5F5F5F5F5F5D6F5F5F5F5C352DCF5F5353535F5F535F5F5F5D6F5F5F5F5F5D6E252E2353535353535BE3535
310
3535353535353535353535353535F51CF5F5F57272727272F535F5F5E25217E2C3F53535353535353535F5F5F5F5F5F5F5F5BEBEBEBE29F5BEF5F5F5F5F5F5F5F5F5F5F5F5F5F5E9F5F5F5E2F5F5E2F5F5F5E2F5F5F5F5F5F5F5E9F5F5F5F5F5F5F5F5F5F5F5BEF5F5F5F5F5BEF5F5F5F5F5F5F5ECE21752E2BEBEBEBEBEBE
310
BEBEBEBEBEBEBEBEBEBEBEBEBEBEBEBEBEBEBEBEC3BEDCBEBE353535BEBE35BEBEBEBEBEBEBEBEBEBEE252E2BEBEBEBEBEBEBEBEBEBEBEBEBEBEBEBEBEBEBEBEBEBEBEBEBEBEBEBE72BE7272BEBEBEBEBEE25217E23535353535353535353535353535F5F5F5F5BEBEBEBEBEBEBEF5F5F5F5F5F5F5F5F5F5F5F5F5F5E9F5F5
310
F5E2F5F5E2F5F5F5E2F5F5F5F5F5F5F5E9F5F5F5F5F5F5F5F5F5F5F5BEF5F5F5F5F5BEF5F5F5F5F5F5F5ECE21752E2BEF5D6BEF5F5777777F5F527272727F5F5777777F5D6F5F5F5F5C352DC3535BEF5F5353535272727F5D6D6F5F5F5D6E252E2BEF535F5F5F5BE35F5F5F5F5F5F535F5F527272727F535F5F5F5F5F5F5F5
310
F5F5F5F535F5F5E25217E23535353535F5F5F5353535353535F5F5F5F5BE292929BEBEBEF5F5F5F5F5F5F5F5F5F5F5F5F5F5E9F5F5F5E2F5F5E2F5F5F5E2F5F5F5F5F5F5F5E9F5F5F5F5F5F5F5F5F5F5F5BEF5F5F5F5F5BEF5F5F5F5F5F5F5ECE21752E2F5F5D6BEF5F57777F5F5F527272727F5F5F57777F5D6F5F5F5C3C3
310
D6D63535353535353535272727F5F5D6D6F5F5D6E252E235F535F5F5F5BE35F5F5F5F5F5F535F5F527272727F535F5F5F5F5F5F5F5F5F5F5F535F5F5E25217E23535353535F5F5F5353535353535F5F5F5F5BEBEBEBE2929BEF5F5F5F5F5F5F5F5F5F5F5F5F5F5E9F5F5F5E2F5F5E2F5F5F5E2F5F5F5F5F5F5F5E9F5F5F5F5
310
F5F5F5F5F5F5F5BEF5F5F5F5F5BEF5F5F5F5F5F5F5ECE21752E2F5F5D6BEF5777777F5F5F5F5F5F5F5F5F5F57777F5D6F5F5F5C3C3D6D6D6D6D6F5F5F5F5F5F5F5F5F5F5F5F5D6D6D6E252E235F535F5F5F5BE35F5F5F5F5F5F535F5F5F5F5F535F535F5F5F5F5F5F5F5F5F5F5F535F5F5E25217E23535353535F5F5F53535
310
35353535F5F5F5F5BEBEBEBEBEBEBEF5F5F5F5F5F5F5F5F5F5F5F5F5F5E9F5F5F5E2F5F5E2F5F5F5E2F5F5F5F5F5F5F5E9F5F5F5F5F5F5F5F5F5F5F5BEF5F5F5F5F5BEF5F5F5F5F5F5F5ECE21752E2F5F5D6BEF577777777F5F5F5F5F5F5F5F5777777F5D6F5F5F5C3C3C3DC2727D6D6F527272727272727272727F5F5F5E2
310
52E235F535F5F5F5BE3535F5F5F5F5F53535F5F5F5F5353535F5F5F5F5F5F5F5F5F5F5F535F5F5E25217E23535353535F5F5F5353535353535F5F5F5F5BEBEBE2929F5BEF5F5F5F5F5F5F5F5F5F5F5F5F5F5E9F5F5F5E2F5F5E2F5F5F5F5F5F5F5F5F5F5F5E9F5F5F5F5F5F5F5F5F5F5F5BEF5F5F5F5F5BEF5F5F5F5F5F5F5
310
ECE21752E2F5F5D6BEF5777777777777777777777777777777F5D6F5F5F5C3C3C3DC2727BEF5D627F52727F5272727F527F5F5F5E252E235F535353535BE353535353535353535353535353535F5F5F5F5F5F5F5F5F5F5F5F53535F5E25217E23535353535F5F5F5353535353535F5F5F5F5BEBE29BEBEBEBEF5F5F5F5F5F5
310
F5F5F5F5F5F5F5F5E9F5F5F5F5F5F5E2F5F5F5F5F5F5F5F5F5F5F5E9F5F5F5F5F5F5F5F5F5F5F5BEF5F5F5F5F5BEF5F5F5F5F5F5F5ECE21752E2F5F5D6BEF5777777F5F5F5F5F5F5F5F5F5777777F5D6F5F5F5C3C3C3DCF5F5BEF5D6D6F527F527272727F527F5F5F5E252E235F535F5F5F5BEF535F5F5F5F5F5F5F5F5F5F5
310
F5F5F5F5F5F5F5F5F5F5F5F5F5F5F53535F5E25217E23535353535353535353535353535F5F5F5F5BE29BEBEBE29BEF5F5F5F5F5F5F5F5F5F5F5F5F5F5E9F5F5F5F5F5F5E2F5F5F5F5F5F5F5F5F5F5F5E9F5F5F5F5F5F5F5F5F5F5F5BEF5F5F5F5F5BEF5F5F5F5F5F5F5ECE21752E2F5F5D6BED6777777D6D6D6D6D6D6D6D6
310
D677777777D6F5F5F5C3C3C3DCF5F5BEF5F5D6272727272727272727F5F5F5E252E235F535F5F5F5BEF535F5F5F5F5F5F5F5F5F5F5F5F5F5F5F5F5F5F5F5F5F5F5F5F5F5353535E25217E2C3F53535353535353535F5F5F5F5F5F5F5F5BEBE292929BEBEF5F5F5F5F5F5F5F5F5F5F5F5F5F5E9F5F5F5F5F5F5E2F5F5F5F5F5
310
F5F5F5F5F5F5E9F5F5F5F5F5F5F5F5F5F5F5BEF5F5F5F5F5BEF5F5F5F5F5F5F5ECE21752E2F5F5F5BEF5777777F5F5F5F5F5F5F5F5F577F57777F5F5F5F5C3C3C3DCF5F5BEF5F5D6D6F5F5F5F5F5F5F5F5F5F5F5E252E2353535F5F5F5BEF535F5F5F5F5F5F5F5F5F5F5F5F5F5F5F5F5F5F5F5F5F5F5F5F5F5353535E25217
310
E23535353535353535353535353535F5F5F5F5BE29BEBEBEF5BEF5F5F5F5F5F5F5F5F5F5F5F5F5F5E9F5F5F5F5F5F5E2F5F5F5F5F5F5F5F5F5F5F5E9F5F5F5F5F5F5F5F5F5F5F5BEF5F5F5F5F5BEF5F5F5F5F5F5F5ECE21752E2F5F5F5BEF5777777F5BEBEF5F5F5F5F5F577F57777F5F5F5F5C3C3C3D6D6D6D6D6D6D6D6F5
310
F5F5F5F5F5D6D6D6F5F5E252E235F5F5F5F5F5BEF535F5F5F5F5F5F5F5F5F5F5F5F5F5F5F5F5F5F5F5F5F5F5F5F5F5353535E25217E23535353535F5F5F5353535353535F5F5F5F5BEBEBE2929BEBEF5F5F5F5F5F5F5F5F5F5F5F5F5F5E9F5F5F5F5F5F5E2F5F5F5F5F5F5F5F5F5F5F5E9F5F5F5F5F5F5F5F5F5F5F5BEF5F5
310
F5F5F5BEF5F5F5F5F5F5F5ECE21752E2F5F5F5BEF5777777F5BEBEF5F5F5F5F5F577777777F5F5F5F5C3C3D6D6D6D6D6D6D6D6D6F5F5F5F5F5BEBEBEBED6F5E252E235F5F5F5F5F5BEF535F5F5F5F5F5F5F5F5F5F5F5F5F5F5F5F5F5F5F5F5F5F5F5F5F5353535E25217E23535353535F5F5F5353535353535F5F5F5F5BEBE
310
BEBEBE29BEF5F5F5F5F5F5F5F5F5F5F5F5F5F5E9F5F5F5F5F5F5E2F5F5F5F5F5F5F5F5F5F5F5E9F5F5F5F5F5F5F5F5F5F5F5BEF5F5F5F5F5BEF5F5F5F5F5F5F5ECE21752E2F5F5F5BEF5777777F52727272727F5F5F577777777F5F5F5F5C3C352DC0D0D0DC30D0D0DE252E2E2D6BEBEBEBED6F5E252E235F5F5F5F5F5BEF5
310
35F5F5F5F5F5F5F5F5F5F5F5F5F5F5F5F5F5F5F5F5F5F5F5F5F5353535E25217E23535353535F5F5F5353535353535F5F5F5F5BE2929BE29BEBEF5F5F5F5F5F5F5F5F5F5F5F5F5F5E9F5F5F5F5F5F5E2F5F5F5F5F5F5F5F5F5F5F5E9F5F5F5F5F5F5F5F5F5F5F5BEF5F5F5F5F5BEF5F5F5F5F5F5F5ECE21752E2F5F5F5BEF5
310
777777F5F5F5272727F5F5F577777777F5F5F5F5F5C352DC3535BEC3C33535E25252E2D6BEBEBEBED6F55252E2353535353535BE35F5F5F5F5F5F5F5F5F5F5F5F5F5F5F5F5F5F5F5F5F5F5F5F5F5F5353535E25217E23535353535F5F5F5353535353535F5F5F5F5BEBEBE29BEBEBEF5F5F5F5F5F5F5F5F5F5F5F5F5F5E9F5
310
F5F5F5F5F5E2F5F5F5F5F5F5F5F5F5F5F5E9F5F5F5F5F5F5F5F5F5F5F5BEF5F5F5F5F5BEF5F5F5F5F5F5F5ECE21752E2F5F5F5BEF5777777F5F5F5F5F5F5F5F5F5777777F5F5F5F5F5F5C352DC0DBEBE0D0D0D0DE2E2E2E2D6D6BEBEBED6F5E2E2E2F5F5F5F5F5F5BEF5F5F5F5F5F5F5272727272727272727F5F5F5F5F5F5
310
F5F5F5F5F53535F5E25217E23535353535F5F5F5353535353535F5F5F5F5BEBE29BE29F5BEF5F5F5F5F5F5F5F5F5F5F5F5F5F5E9F5F5F5F5F5F5E2F5F5F5E2F5F5F5F5F5F5F5E9F5F5F5F5F5F5F5F5F5F5F5BEF5F5F5F5F5BEF5F5F5F5F5F5F5ECE21752E2F5F5F5BEF5777777F5F5F5F5F5F5F5F5F577F577F5F5F5F5F5F5
310
C352DCF5F5BE3535F5F5E2E2F5D6F5D6D6D6D6D6D60DF50DF5F5F5F5F5F5BEF5F5F5F5F5F5F527F527F52727272727F5F5F5F5F5F5F5F5F5F5F53535F5E25217E23535353535353535353535353535F5F5F5F5BEBEBEBEBEBEBEF5F5F5F5F5F5F5F5F5F5F5F5F5F5E9F5F5F5E2F5F5E2F5F5F5E2F5F5F5F5F5F5F5E9F5F5F5
310
F5F5F5F5F5F5F5F5BEF5F5F5F5F5BEF5F5F5F5F5F5F5ECE21752E2F5F5F5BEF5777777F5F5F5F5F5F5F5F5F577F577F5F5F5F5F5F5C352DC3535BEF5F53535E2E2F5D6F5F5F5F5F5F5D60DF50DF5F5F5F5F5F5BEF5BEBEBEF5F5F527F527F52727272727F5F5F5F5F5F5F5F5F5F5F53535F5E25217E2C3F535353535353535
310
35F5F5F5F5F5F5F5F5BE29BE29BE29BEF5F5F5F5F5F5F5F5F5F5F5F5F5F5E9F5F5F5E2F5F5E2F5F5F5E2F5F5F5F5F5F5F5E9F5F5F5F5F5F5F5F5F5F5F5BEF5F5F5F5F5BEF5F5F5F5F5F5F5ECE21752E2F5F5F5BEF5777777F5F5F5F5F5F5F5F5F577F577F5F5F5F5F5F5C352E2E2E2E2E2E2E2E2E2E2F5D6F5F5F5F5F5D6F5
310
0DF50DF5F5F5F5F5F5BEF5BEBEBEF5F5F5272727272727272727F5F5F5F5F5F5F5F5F5F5F5353535E25217E2C3F5F5F5F5F5F5F5F5F5F5F5F5F5F5F5F5F5BEBE29BE29BEBEF5F5F5F5F5F5F5F5F5F5F5F5F5F5E9F5F5F5E2F5F5E2F5F5F5E2F5F5F5F5F5F5F5E9F5F5F5F5F5F5F5F5F5F5F5BEF5F5F5F5F5BEF5F5F5F5F5F5
310
F5ECE21752E2F5F5F5BEF5777777F5F5F5F5F5F5F5F5F5777777F5F5F5F5F5F5C352DCF5D6BED6D6D6D6E2E2F5D6F5F5F5F5D6D6F50DF50DF5F5F5F5F5F5BEF5F527272727272727F5F5F5F5F5F5F5F5F5F5F5F5F5F5F5F5F5F5F5F5F5E2F517E2C3F5F5F5F5F5F5F5F5F5F5F5F5F5F5F5F529BEBEBE29BEF5BEF5F5F5F5F5
310
F5F5F5F5F5F5F5F5F5E9F5F5F5E2F5F5E2F5F5F5E2F5F5F5F5F5F5F5E9F5F5F5F5F5F5F5F5F5F5F5BEF5F5F5F5F5BEF5F5F5F5F5F5F5ECE21752E2F5F5F5BEF5777777F5F5F5F5F5F5F5F5F5777777F5F5F5F5F5F5C352DC2727BED6D6D6D6D6D6F5D6F5F5D6D6F5F5F50DF50DF5F5F5F5F5F5BEF5F527272727272727F5F5
310
F535353535F5F5F5F5F5F5F5F5F5F5F5F5F5F5E25217E2C3F5F5F5F5F5F5F5F5F5F5F5F5F5F5F5C3C3C3C3C3C3C3BEBEF5F5F5F5F5F5F5F5F5F5F5F5F5F5E9F5F5F5E2F5F5E2F5F5F5E2F5F5F5F5F5F5F5E9F5F5F5F5F5F5F5F5F5F5F5BEF5F5F5F5F5BEF5F5F5F5F5F5F5ECE21752E2F5F5F5BEF5777777F5F5F5F5F5F5F5
310
F5F5777777F5F5F5F5F5F5C352DC2727BEF5D6BEBEBEBED627272727272727270DF50DF5F5F5F5F5F5BEF5F527F527F52727F5F53535F5F5F53535F5F5F5F5F5F5F5F5F5F5F5F5F5E25217E2C3F5F5F5F5F5F5F5F5F5F5F5F5F5F5F5C3C3C3C3C3C3C329BEF5F5F5F5F5F5F5F5F5F5F5F5F5F5E9F5F5F5E2F5F5E2F5F5F5E2
310
F5F5F5F5F5F5F5E9F5F5F5F5F5F5F5F5F5F5F5BEF5F5F5F5F5BEF5F5F5F5F5F5F5ECE21752E2F5272727F577777727272727272727272727F577F5F5F5F5F5F5C352DC2727BEF5D6BEBEBEBED6F527F527272727270DF50DF5F5F5F5272727F5F5F5F5F5F5F5F5F5F535F5F5F5F5F53535F5F5F5F5F5F5F5F5F5F5F5F5BEE2
310
E2BEC3F5F5F5F5F5F5F5F5F5F5F5F5F5F5F5C32929BE29C3C3BEBEF5F5F5F5F5F5F5F5F5F5F5F5F5F5E9F5F5F5E2F5F5E2F5F5F5E2F5F5F5F5F5F5F5E9F5F5F5F5F5F5F5F5F5F5F5BEF5F5F5F5F5BEF5F5F5F5F5F5F5ECE21752E2F5272727F577777727F527F5272727272727F577F5F5F5F5F5F5C352DCF5F5BEF5D6BEBE
310
BED6D6F527F527272727270DF50DF5F5F5F5272727F5F5F5F5F5F5F5F5F5F535F5F5F5F5F5F535F5F5F5F5F5F5F5F5F5F5F5D6D6D6C3BEC3F5F5F5F5F5F5F5F5F5F5F5F5F5F5F5C32929BE29C3C3BEBEF5F5F5F5F5F5F5F5F5F5F5F5F5F5E9F5F5F5E2F5F5E2F5F5F5E2F5F5F5F5F5F5F5E9F5F5F5F5F5F5F5F5F5F5F5BEF5
310
F5F5F5F5BEF5F5F5F5F5F5F5ECE21752E2F5272727F577777727F527F52727272727277777F5F5F5F5F5F5C352DCF5F5BED6D6BEBEBED6D627272727272727270DF50DF5F5F5F5272727F5F5F5F5F5F53535F5F535F5F5F5F5F5F535F5F5F5F5F5F5F5F5F5F5D6D6D6D6D6D6C3F5F5F5F5F5F5F5F5F5F5F5F5F5F5F5C3F529
310
29BEC3C3F5BEF5F5F5F5F5F5F5F5F5F5F5F5F5F5E9F5F5F5E2F5F5E2F5F5F5E2F5F5F5F5F5F5F5E9F5F5F5F5F5F5F5F5F5F5F5BEF5F5F5F5F5BEF5F5F5F5F5F5F5ECE21752E2F5272727F5777777272727272727272727277777F5F5F5F5F5F5C352272727272727D6D6D6D6F5F5F5F5F5F5F5F5F50DF50DF5F5F5F5272727
310
F5F5F5F53535F53535F535F5F5F5F5F535F5F5F5F5F5F5F5F5F5F5F5D6D6D6D6D6D6C3F5F5F5F5F5F5F5F5F5F5F5F5F5F5F5C3F52929BEC3C3BEBEF5F5F5F5F5F5F5F5F5F5F5F5F5F5E9F5F5F5E2F5F5E2F5F5F5E2F5F5F5F5F5F5F5E9F5F5F5F5F5F5F5F5F5F5F5BEF5F5F5F5F5BEF5F5F5F5F5F5F5ECE21752E2F5F5F5BE
310
F5777777F5F57777777777F5F5F57777F5F5F5F5F5F5C35227F527BE2727272727D6F5F5F5F5F5F5F5F5F50DF50DF5F5F5F5F5F5BEF5353535F5F535F535F5F53535F5F53535F5F5F5F5F5F5F5F5F5F5F5D6D6D6D6D6D6C3F5F5F5F5F5F5F5F5F5F5F5F5F5F5F5C3C3C3C3C3C3C3BEBEF5F5F5F5F5F5F5F5F5F5F5F5F5F5E9
310
F5F5F5E2F5F5E2F5F5F5E2F5F5F5F5F5F5F5E9F5F5F5F5F5F5F5F5F5F5F5BEF5F5F5F5F5BEF5F5F5F5F5F5F5ECE21752E2F5F5F5BE77777777F5F5F5F5F5F5F5F5F5F577777777F5F5F5F5C3C3353535353535353535E2E2E2C3C3C3C3C3C3C3C3820DF5F5F5F5F5F5BE353535F53535F5F5F535F5F535353535F5F5353535
310
F5F5F5F5F5F5F5D6D6D6D6C3D6C3F5F5F5F5F5F5F5F5F5F5F5F5F5F5F5F5F5C3F5F5C3F5F5F5F5F5F5F5F5F5F5F5F5F5F5F5F5F5E9F5F5F5E2F5F5E2F5F5F5E2F5F5F5F5F5F5F5E9F5F5F5F5F5F5F5F5F5F5F5BEF5F5F5F5F5BEF5F5F5F5F5F5F5ECBEE2E2BEF5F5F5BE77777777F5F5F5F5F5F5F5F5F5F5777777F5F5F5F5
310
F5E2522727272735272727E2F552E21B1B1BD6F5F5F5C3820DF5F5F5F5F5F5BE35F53535F5F5F5F5F535F5F5F5F5F5F5353535F5F535F5F5F5F5F5F5F5D6D6D6D6BEC3F5F5F5F5F5F5F5F5F5F5F5F5F5F5F5F5F5C3F5F5C3F5F5F5F5F5F5F5F5F5F5F5F5F5F5F5F5F5E9F5F5F5E2F5F5E2F5F5F5E2F5F5F5F5F5F5F5E9F5F5
310
F5F5F5F5F5F5F5F5F5BEF5F5F5F5F5BEF5F5F5F5F5F5F5ECBEDC1CBEF5F5F5BEF57777F5F5F5F5F5F5F5F5F5F5F57777F5F5F5F5F5F5E252DCF5F5BE35F5F5F5E25252E21BF51BD6F5F5F5C3820DF5F5F5F5F5F5BEF535F535F5F5F5F5F53535F5F5F5F535F5F5F535F535F5F5F5F5F5F5F5F5BED6C3BEC3F5F5F5F5F5F5F5
310
F5F5F5F5F5F5F5F5F5F5C3F5F5C3F5F5F5F5F5F5F5F5F5F5F5F5F5F5F5F5F5E9F5F5F5E2F5F5E2F5F5F5E2F5F5F5F5F5F5F5E9F5F5F5F5F5F5F5F5F5F5F5BEF5F5F5F5F5BEF5F5F5F5F5F5F5ECBEDC1CBEF5F5F5BEF5777777F5F5F5F5F5F5F5F5F5777777F5F5F5F5F5F5E2523535353535353535355252E21B1B1BD6C4C4
310
C4C3820DF5F5F5F5F5F5BEF535F535F5F5F53535F535F5F53535F5F5F5F5F535F535F5F5D6D6D6D6D6BED6C3BEC3F5F5F5F5F5F5F5F5F5F5F5F5F5F5F5F5F5C3F5F5C3F5F5F5F5F5F5F5F5F5F5F5F5F5F5F5F5F5E9F5F5F5E2F5F5E2F5F5F5E2F5F5F5F5F5F5F5E9F5F5F5F5F5F5F5F5F5F5F5BEF5F5F5F5F5BEF5F5F5F5F5
310
F5F5ECBEDC1CBEF5F5F5BEF57777F577777777777777777777F577F5F5F5F5F5F5E252DCF5F5BE35F5F5F5E25252E21B1B1BD6F5F5F5C3C3C3F5F5F5F5F5F5BEF5F535F5353535F5F535F5F5F535F535F5F5F5F535F535F5F5D6D6D6D6D6BED6C3BEC3F5F5F5F5F5F5F5F5F5F5F5F5F5F5F5F5F5C3F5F5C3F5F5F5F5F5F5F5
310
F5F5F5F5F5F5F5F5F5F5E9F5F5F5E2F5F5E2F5F5F5F5F5F5F5F5F5F5F5E9F5F5F5F5F5F5F5F5F5F5F5BEF5F5F5F5F5BEF5F5F5F5F5F5F5ECBEDC1CBEF5F5F5BEF57777F5F5F577F5F5F5F577F5F5F57777F5F5F5F5F5E2523535353535353535355252E21BC41BD6C4C4C4C3C30DF5F5F5F5F5F5BEF5F5F535F535F53535F5
310
F5F5F5F535F535F5F5F5F5353535F5F5D6F5F5F5BED6C3BEC3F5F5F5F5F5F5F5F5F5F5F5F5F5F5F5F5F5C3F5F5C3F5F5F5F5F5F5F5F5F5F5F5F5F5F5F5F5F5E9F5F5F5F5F5F5E2F5F5F5F5F5F5F5F5F5F5F5E9F5F5F5F5F5F5F5F5F5F5F5BEF5F5F5F5F5BEF5F5F5F51C1C1CECBEDC1CBE72727272727277F5F5F577F5F5F5
310
F577F5F5F57777F5F5F5F5F5E252DCF5F5BE35F5F5F5E25252E21B1B1BD6F5F5F5C3820DF5F5F5F5F5F5BEF5F5F535353535F5F5F5F5F5F5F535F535F5F53535F5F535F5F5D6F5F5F5BED6D6BEC3F5F5F5F5F5F5F5F5F5F5F5F5F5F5F5F5F5C3F5F5C3F5F5F5F5F5F5F5F5F5F5F5F5F5F5F5F5F5E9F5F5F5F5F5F5E2F5F5F5
310
F5F5F5F5F5F5F5F5E9F5F5F5F5F5F5F5F5F5272727F5F5F5F5F5BEF5F5F51C7272721C1CDC1CBE72727272727277F5F5F577F5F5F5F577F5F577F577F5F5F5575757523535353535353535355252E21B1B1BD6F5F5F5C3820DF5F5F5F5F5F5BEF5F5F5F535F5F5F5F5F5F5F5F5F5F535F53535F5F53535F5F5F5F5D6F5F5D6
310
D6D6D6C3F5F5F5F5F5F5F5F5F5F5F5F5F5F5F5F5F5C3F5F5C3F5F5F5F5F5F5F5F5F5F5F5F5F5F5F5F5F5E9F5F5F5F5F5F5E2F5F5F5F5F5F5F5F5F5F5F5E9F5F5F5F5F5F5F5F5F5272727F5F5F52727BEF5F5F51C727272EC1CDC1CBEF5F5F5BEF57777F5F5F577F5F5F5F577F5F577F577F5F55757575752DCF5F5BE35F5F5
310
F5E25252E2C41B1BD6C4C4C4C3820DF5F5F5F5F5F5BEF5F5F5F5F5F5F5F5F5F5F5F5F5F5F5353535F53535F5F5F5F5F5F5D6D6D6D6D6D6D6D6F5F5F5F5F5F5F5F5F5F5F5F5F5F5F5F5F5C3F5F5C3F5F5F5F5F5F5F5F5F5F5F5F5F5F5F5F5F5E9F5F5F5F5F5F5E2F5F5F5F5F5F5F5F5F5F5F5E9F5F5F5F5F5F5F5F5F5272727
310
F5F5F52727BEF5F5F51C727272721CDC1CBE1C1CF5BEF57777F5F5F577F5F5F577F5F5F57777F5F5F55757575752DC2727BE35F5F5F5E25252E21B1BD6D6D6F5F5C3820DF5F5F5F5F5F5BEF5F5F5F5F5F5F5F5F5F5F5F5F5F5F5F5353535F5F5F5F5F5F5F5F5F5F5D6D6D6D6D6D6F5F5F5F5F5F5F5F5F5F5F5F5F5F5F5F5F5
310
C3F5F5C3F5F5F5F5F5F5F5F5F5F5F5F5F5F5F5F5F5E9F5F5F5F5F5F5E2F5F5F5F5F5F5F5F5F5F5F5E9F5F5F5F5F5F5F5F5F5272727F5F5F52727BEF5F5F51C727272721CDC1CBEF5F5F5BEF57777F5F5F577F5F5F577F5F5F57777F5F5F557575757523535353535353535355252E235351BD6C4C4C4C3820DF5F5F5F5F5F5
310
BEF5F5F5F5F5F5F5F5F5F5F5F5F5F5F5F5F5F5F5F5F5F5F5F5F5F5F5D6D6D6D6D6D6D6D6F5F5F5F5F5F5F5F5F5F5F5F5F5F5F5F5F5C3F5F5C3F5F5F5F5F5F5F5F5F5F5F5F5F5F5F5F5F5E9F5F5F5F5F5F5E2F5F5F5F5F5F5F5F5F5F5F5E9F5F5F5F5F5F5F5F5F5272727F5F5F5F5F5BEF5F5F51C727272721CDC1CBEF5F5F5
310
BEF5777777F5F577F5F5F577F5F5F57777F5F5F5F5F5F5E252DC2727BE35F5F5F5E25252E2F5F582828282F5C3820DF5F5F5F5F5F5BEF5F5F5F5F5F5F5F5F5F5F5F5F5F5F5F5F5F5F5F5F5F5F5F5F5F5D6D6F5F5D6D6D6D6C3F5F5F5F5F5F5F5F5F5F5F5F5F5F5F5F5F5C3F5F5C3F5F5F5F5F5F5F5F5F5F5F5F5F5F5F5F5F5
310
E9F5F5F5F5F5F5E2F5F5F5F5F5F5F5F5F5F5F5E9F5F5F5F5F5F5F5F5F5F5F5BEF5F5F5F5F5BEF5F5F5F5F51C1CECBEDC1CBEF5F5F5BEF5F57777F5F5F577F5F577F5F5F57777F5F5F5F5F5F5E252DC2727BE3535353535353535353535F5828282C3820DF5F5F5F5F5F5BEF5F5F5F5F5F5F5F5F5F5F5F5F5F5F5F5F5F5F5F5
310
F5F5F5F5F5F5D6F5F5F5BED6D6BEC3F5F5F5F5F5F5F5F5F5F5F5F5F5F5F5F5F5C3F5F5C3F5F5F5F5F5F5F5F5F5F5F5F5F5F5F5F5F5E9F5F5F5F5F5F5E2F5F5F5F5F5F5F5F5F5F5F5E9F5F5F5F5F5F5F5F5F5F5F5BEF5F5F5F5F5BEF5F5F5F5F5F5F5ECBEDC1CBEF5F5F5BEF5F5777777F5F577777777F5F5777777F5F5F566
310
666666523535353535F5F535F53535F535F5F535353582E2820DF5F5F5F5F5F5BEF5F5F5F5F5F5F5F5F5F5F5F5F5F5F5F5F5F5F5F5F5F5F5F5F5F5D6F5F5F5BED6C3BEC3F5F5F5F5F5F5F5F5F5F5F5F5F5F5F5F5F5C3F5F5C3F5F5F5F5F5F5F5F5F5F5F5F5F5F5F5F5F5E9F5F5F5F5F5F5E2F5F5F5E2F5F5F5F5F5F5F5E9F5
310
F5F5F5F5F5F5F5F5F5F5BEF5F5F5F5F5BEF5F5F5F5F5F5F5ECBEDC1CBEF5F5F5BEF5F577777777F577777777F5777777F5F517F56666666652DCF5F5BE353535F535F5F535F5353535F5F535E2E20DF5F5F5F5F5F5BEF5F5F5F5F5F5F5F5F5F5F5F5F5F5F5F5F5F5F5F5F5F5F5F5F5D6D6D6D6D6BED6C3BEC3F5F5F5F5F5F5
310
F5F5F5F5F5F5F5F5F5F5F5C3F5F5C3F5F5F5F5F5F5F5F5F5F5F5F5F5F5F5F5F5E9F5F5F5E2F5F5E2F5F5F5E2F5F5F5F5F5F5F5E9F5F5F5F5F5F5F5F5F5F5F5BEF5F5F5F5F5BEF5F5F5F5F5F5F5ECBEDC1CBEF5F5F5BEF5F5F5F5F5F5777777777777F5F5F5F51717176666666652DCF5F5BEF535F5F5352727352727352727
310
27F5E2E20DF5F5F5F5F5F5BEF5F5F5F5F5F5F5F5F5F5F5F5F5F5F5F5F5F5F5F5F5F5F5F5F5D6D6D6D6D6BED6C3BEC3F5F5F5F5F5F5F5F5F5F5F5F5F5F5F5F5F5C3F5F5C3F5F5F5F5F5F5F5F5F5F5F5F5F5F5F5F5F5E9F5F5F5E2F5F5E2F5F5F5E2F5F5F5F5F5F5F5E9F5F5F5F5F5F5F5F5F5F5F5BEF5F5F5F5F5BEF5F5F5F5
310
F5F5F5ECBEDC1CBEF5F5F5BEF5F5F5F5F5F5F5F5F5F5F5F5F5F5F5F5F5F5F56666666652DCF5F5BE35F5353535F5273535353535F527F5E2E20DF5F5F5F5F5F5BEF5F5F5F5F5F5F5F5F5F5F5F5F5F5F5F5F5F5F5F5F5F5F5F5F53535353535BED6C3BEC3F5F5F5F5F5F5F5F5F5F5F5F5F5F5F5F5F5C3F5F5C3F5F5F5F5F5F5
310
F5F5F5F5F5F5F5F5F5F5F5E9F5F5F5E2F5F5E2F5F5F5E2F5F5F5F5F5F5F5E9F5F5F5F5F5F5F5F5F5F5F5BEF5F5F5F5F5BEF5F5F5F5F5F5F5ECBEE2E2BEF5F5F5BEF5F5F5F5F5F5F5F5F5F5F5F5F5F5F5F5F5F5F56666666652DCF5F535F5F5F5353535353535272735F527F5E2E20DF5F5F5F5F5F5BEF5E2E23535353535E2
310
F5F5F5F5F5F5F5F5F5F5F5F5F5F5F5F535292929D6D6D6D6BEC3F5F5F5F5F5F5F5F5F5F5F5F5F5F5F5F5F5C3F5F5C3F5F5F5F5F5F5F5F5F5F5F5F5F5F5F5F5F5E9F5F5F5E2F5F5E2F5F5F5E2F5F5F5F5F5F5F5E9F5F5F5F5F5F5F5F5F5F5F5BEF5F5F5F5F5BEF5F5F5F5F5F5F5ECE21752E2F5F5F5BEF5F5F5F5F5F5F5F5F5
310
F5F5F5F5F5F5F5F5F5F56666666652DCF535BEF5F5F53527272727352727273527F5E2E20DF5F5F5F5F5F5BEF5E2E2F5F5F5F5F5E2F5F5F5F5F5F5F5F5F5F5F5F5F5F5F5F5352929D6D6D6D6D6D6C3F5F5F5F5F5F5F5F5F5F5F5F5F5F5F5F5F5C3F5F5C3F5F5F5F5F5F5F5F5F5F5F5F5F5F5F5F5F5E9F5F5F5E2F5F5E2F5F5
310
F5E2F5F5F5F5F5F5F5E9F5F5F5F5F5F5F5F5F5F5F5BEF5F5F5F5F5BEF5F5F5F5F5F5F5ECE21752E2F5F5F5BEF5F5F5F5F5F5F5F5F5F5F5F5F5F5F5F5F5F5F56666666652DC35F5BEF5F5F535F5F5F5F535F5F5F5F535F5E2E20DF5F5F5F5F5F5BEF5E2E2F5F5F5F5F5E2F5F5F5F5F5F5F5F5F5F5F5F5F5F5F529352929D6D6
310
D6D6D6D6C3F5F5F5F5F5F5F5F5F5F5F5F5F5F5F5C3C3C3C3C3C3C3F5F5F5F5F5F5F5F5F5F5F5F5F5F5F5F5E9F5F5F5E2F5F5E2F5F5F5E2F5F5F5F5F5F5F5E9F5F5F5F5F5F5F5F5F5F5F5BEF5F5F5F5F5BEF5F5F5F5F5F5F5ECE21752E2F5F5F5BEBEF5F5F5F5F5F5F5F5F5F5F5F5F5F5F5F5F5F5666666665235F5F5BEF5F5
310
F535F5F5F5F535F5F5F5F5F535E2E20DF5F5F5F5F5F5BEBEE2E2E2E2E2E2E2E2F5F5F5F5F5F5F5F5F5F5F5F5F5F5F529353535D6D6D6D6C3D6C3F5F5F5F5F5F5F5F5F5F5F5F5F5F5F5C3F5292929C3C3F5F5F5F5F5F5F5F5F5F5F5F5F5F5F5F5E9F5F5F5E2F5F5E2F5F5F5E2F5F5F5F5F5F5F5E9F5F5F5F5F5F5F5F5F5F5F5
310
BEF5F5F5F5F5BEF5F5F5F5F5F5F5ECE21717E2E2E2E2E2E2E2E2E2E2E2E2E2E2E2E2E2E2E2E2E2E2E2E2E2E2E2E2C3E2E2E2E2E2E2E235E2E2E2E235E2E2E2E2E2E235E20D0D0D0D0D0D0D0D0D0DE2E26666666666F5F5F5F5F5F5F5F5F5F5F5F5F5F5F5F5292929D6D6D6D6D6D6C3F5F5F5F5F5F5F5F5F5F5F5F5F5F5F5C3
310
F5292929C3C3F5F5F5F5F5F5F5F5F5F5F5F5F5F5F5F5E9F5F5F5E2F5F5E2F5F5F5E2F5F5F5F5F5F5F5E9F5F5F5F5F5F5F5F5F5F5F5BEF5F5F5F5F5BEF5F5F5F5F5F5F5ECE217175252525252525252525252525252525252525252525252525252525252DCF5F5BEF5F535F5F5C3C3F5F535F5F5F5F5F5E217E2BEBEBEC3C3
310
BEBEBEE252E26666666666171717F5F5F5F5F5F5F5F5F5F5F5F5F5F5F5F5F5D6D6D6C3BEC3F5F5F5F5F5F5F5F5F5F5F5F5F5F5F5C329292929C3C329F5F5F5F5F5F5F5F5F5F5F5F5F5F5F5E9F5F5F5E2F5F5E2F5F5F5E2F5F5F5F5F5F5F5E9F5F5F5F5F5F5F5F5F5F5F5BEF5F5F5F5F5BEF5F5F5F5F5F5F5ECE21717E2E2E2
310
E2E2E2E2E2E2E2E2E2E2E2E2E2E2E2E2E2E2E2E2E2E2E2E2D6D6E2E2E2E2E2E235E2E2E2E2E2E235E2E2E2E2E2E2E20D0D0D0D0D0D0D0D0D0DF5E26666666666F517F5F5F5F5F5F5F5F5F5F5F5F5F5F5F5F5F5F5F5BEE2E2BEC3F5F5F5F5F5F5F5F5F5F5F5F5F5F5F5C329292929C3C329F5F5F5F5F5F5F5F5F5F5F5F5F5F5
310
F5E9F5F5F5E2F5F5E2F5F5F5E2F5F5F5F5F5F5F5E9F5F5F5F5F5F5F5F5F5F5F5BEF5F5F5F5F5BEF5F5F5F5F5F5F5ECE21752E2575757BE575757575757575757F5F5F5F5F5F5F5F5F5F51717F5D6D6D6D6D6F5F5F5F5F5F5F5F5F5F5F5F5F5F5F5F5F5F5F5F5F527272727BEF5E252E26666666666F5F5F5F5F5F5F5353535
310
3535F5F5F5F5F5F5F5F5F5E25217E2C3F5F5F5F5F5F5F5F5F5F5F5F5F5F5F5C3C3C3C3C3C3C329F5F5F5F5F5F5F5F5F5F5F5F5F5F5F5E9F5F5F5E2F5F5E2F5F5F5E2F5F5F5F5F5F5F5E9F5F5F5F5F5F5F5F5F5F5F5BEF5F5F5F5F5BEF5F5F5F5F5F5F5ECE21752E257F5F5BE575757575757575757F5F5F5F5F5F5F5F5F5F5
310
17F5F5C3F5DCF5D6D6F5F5F5F5F5F5F5272727272727272727F5F5F5F5F5F5F5F5BEF5E252E235353535F5F5F5F5F5F5353535353535353535F5F5F5F5F5F5F5E25217E2C3F5F5F5F5F5F5F5F5F5F5F5F5F5F5F5C3C3C3C3C3C3C3F5F5F5F5F5F5F5F5F5F5F5F5F5F5F5F5E9F5F5F5E2F5F5E2F5F5F5E2F5F5F5F5F5F5F5E9
310
F5F5F5F5F5F5F5F5F5F5F5BEF5F5F5F5F5BEF5F5F5F5F5F5F5ECE21752E257F557BE5757F5F5F557575757F5F5F5F5F5F5F5F5F5F5F5F5F5C3F5DCF5F5F5D6F5F5F5F5F5F527F527F5272727F527F5F5F5F5F5F5272727F5E252E2F5F5F535F5F5F5F5F5F535F535F5F5F535F535F5F5F5F5F5F5F5E25217E2C3F5F5F5F5F5
310
F5F5F5F5F5F5F5F5F5F5F529C3F5F5C3F5F5F5F5F5F5F5F5F5F5F5F5F5F5F5F5F5E9F5F5F5E2F5F5E2F5F5F5E2F5F5F5F5F5F5F5E9F5F5F5F5F5F5F5F5F5F5F5BEF5F5F5F5F5BEF5F5F5F5F5F5F5ECE21752E257F557BEF5F5F5F5F5F55757F5F5F5F5F5F5F5F5F5F5F5F5F5F5C3F5DCF5F5F5F5D6F5F5F5F5F5272727F527
310
2727F527F5F5F5F5F5F5272727F5E252E2F5F5F535F5F5F5F5F5F535F53535F53535F535F5F5F5F5F5F5F5E25217E2C3F5F5F5F5F5F5F5F5F5F5F5F5F5F5F5F5F5C3F5F5C3F5F5F5F5F5F5F5F5F5F5F5F5F5F5F5F5F5E9F5F5F5E2F5F5E2F5F5F5E2F5F5F5F5F5F5F5E9F5F5F5F5F5F5F5F5F5F5F5BEF5F5F5F5F5BEF5F5F5
310
F5F5F5F5ECE21752E2575757BEF5F5F5F5F5F55757F5F5F5F5F5F5F5F5F5F5F5F5F5F5C3F5DCF5F5F5F5D6D6F5F5F5F5272727272727272727F5F5F5F5F5F5272727F5E252E235353535F5F5F5F5F53535353535353535353535F5F5F5F5F5F5E25217E2C3F5F5F5F5F5F5F5F5F5F5F5F5F5F5F5F5F5C3F5F5C3F5F5F5F5F5
310
F5F5F5F5F5F5F5F5F5F5F5F5E9F5F5F5E2F5F5E2F5F5F5E2F5F5F5F5F5F5F5E9F5F5F5F5F5F5F5F5F5F5F5BEF5F5F5F5F5BEF5F5F5F5F5F5F5ECE21752E2575757BEF5F5F5F5F5575757F5F5F5F5F5F5F5F5F5F5F5F5F5F5C3F5DCF5F5F5F5F5D6F5F5F5F5F5F5F5F5F5F5F5F5F5F5F5F5F5F5F5F527BEF5E252E235353535
310
F5F5F5F5F53535F535F5F5F535F5353535F5F5F5F5F5E25217E2C3F5F5F5F5F5F5F5F5F5F5F5F5F5F5F5F5F5C3F5F5C3F5F5F5F5F5F5F5F5F5F5F5F5F5F5F5F5F5E9F5F5F5E2F5F5E2F5F5F5F5F5F5F5F5F5F5F5E9F5F5F5F5F5F5F5F5F5F5F5BEF5F5F5F5F5BEF5F5F5F5F5F5F5ECE21752E25757F5BEF5F557F5575757F5
310
F5F5F5F5F5F5F5F5F5F5F5F5F5F5C3D6D6D6D6D6D6D6D6F5F5F5F5F5F5F5F5F5F5F5F5F5F5F5F5F5F5F5F5F5BEF5E252E2F5F5F535F5F5F5F5F53535F535F5F5F535F5353535F5F5F5F5F5E25217E2C3F5F5353535F5F5F5F5F5F5F5F5F5F5F5F5C3F5F5C3F5F5F5F5F5F5F5F5F5F5F5F5F5F5F5F5F5E9F5F5F5F5F5F5E2F5
310
F5F5F5F5F5F5F5F5F5F5E9F5F5F5F5F5F5F5F5F5F5F5BEF5F5F5F5F5BEF5F5F5F5F5F5F5ECE21752E25757F5BEF5F5F5575757F5F5F5F5F5F5F5F5F5F5F5F5F5D6D6D6D6D6D6D6D6D6D6D6D6F5F5F5F5F5F5F5F5F5F5F5F5F5F5F5F5F5F5F5F5F5BEBEE252E2F5F5F535F5F5F5F5F53535F535F5F5F535F5353535F5F5F5F5
310
F5E25217E2C3F53535353535F5F5F5F5F5F5F5F5F5F5F5C3F5F5C3F5F5F5F5F5F5F5F5F5F5F5F5F5F5F5F5F5E9F5F5F5F5F5F5E2F5F5F5F5F5F5F5F5F5F5F5E9F5F5F5F5F5F5F5F5F5F5F5BEF5F5F5F5F5BEF5F5F5F5F5F5F5ECE21752E25757F5BEF5F557575757F5F5F5F5F5F5F5F5F5F5F5D6D6D6F5D6C352E2E2E2E2E2
310
E2E2E2E2E2E2E2E2E2E2E2E2E2E2E2E2E2F5F5F5F5F5F5BEBEE252E235353535F5F5F5F5F535353535F5F5F535353535F5F5F5F5F5F5E25217E2C3F535353535F535F5F5F5F5F5F5F5F5F5F5C3F5F5C3F5F5F5F5F5F5F5F5F5F5F5F5F5F5F5F5F5E9F5F5F5F5F5F5E2F5F5F5F5F5F5F5F5F5F5F5E9F5F5F5F5F5F5F5F5F5F5
310
F5BEF5F5F5F5F5BEF5F5F5F5F5F5F5ECE21752E257272727F557575727272727272727272727F5F5D6D6F5F5F5D6C352E2E2E2E2E2E2E2E2E2E2E2E2E2E2E2E2E2E2E2E2E2E2F5F5F5F5F5F5BEBEE2E2E2F5F5F5F5F5F5F5F5F5F535F5F5F5F5F5F5F535F5F5F5F5F5F5F5E25217E2C3353535F5F53535F5F5F5F5F5F5F5F5
310
F5F5C3F5F5C3F5F5F5F5F5F5F5F5F5F5F5F5F5F5F5F5F5E9F5F5F5F5F5F5E2F5F5F5F5F5F5F5F5F5F5F5E9F5F5F5F5F5F5F5F5F5F5F5BEF5F5F5F5F5BEF5F5F5F5F5F5F5ECE21752E257272727575757F527F52727F52727272727F5F5D6F5F5F5F5D6C352DCF5F5DCF5DCF5F5666666F5F5F5F5F5F5F5F5F5F535F5F5F5F5
310
F5F5BEF50DF50DF5F5F5F5F5F5F5F5F535353535F5F5F535353535F5F5F5F5F5F5E25217E2C3F53535F5F535F5F5F5F5F5F5F5F5F5F5F5C3F5F5C3F5F5F5F5F5F5F5F5F5F5F5F5F5F5F5F5F5E9F5F5F5F5F5F5E2F5F5F5F5F5F5F5F5F5F5F5E9F5F5F5F5F5F5F5F5F5F5F5BEF5F5F5F5F5BEF5F5F5F5F5F5F5ECE21752E257
310
2727275757F5F527F527F5272727272727F5D6F5F5F5F5F5D6C352DCF5F5DCDCDCDCF517F517F5F5F5F5F5F5F5F5F5F535F5F5F5F5F5F5BEF50DF50D2727272727272727273535F535F5F5F535F5353535F5F5F5F5F5E25217E2C3F535F5353535353535F5F5F5F5F5F5F5F5C3F5F5C3F5F5F5F5F5F5F5F5F5F5F5F5F5F5F5
310
F5F5E9F5F5F5F5F5F5E2F5F5F5F5F5F5F5F5F5F5F5E9F5F5F5F5F5F5F5F5F5F5F5BEF5F5F5F5F5BEF5F5F5F5F5F5F5ECE21752E257272727F5F5F5F527272727272727272727F5D6F5F5F5F5F5D6C352DCF5DCDCDCDCDCDC171717F5F5F5F5F5F5F5F5F5F535F5F5F5F5F5F5BEF50DF50D27F5272727272727273535F535F5
310
F5F535F5353535F5F5F5F5F5E25217E2C3F5F53535F535F5F535F5F5F5F5F5F5F5F5C3F5F5C3F5F5F5F5F5F5F5F5F5F5F5F5F5F5F5F5F5E9F5F5F5F5F5F5E2F5F5F5F5F5F5F5F5F5F5F5E9F5F5F5F5F5F5F5F5F5F5F5BEF5F5F5F5F5BEF5F5F5F5F5F5F5ECE21752E2F5F5F5BEF5F5F5F5F5F5F5F5F5F5575757E2E2D65757
310
575757D6C352DCDCDCDCF5DCDCDC17F517F5F5F5F5F5F5F5F5F53535F5F5F5F5F5F5BEF50DF50D272727F5272727F52735353535F5F5F53535353535F5F5F5F5F5E25217E2C3F5F5F5353535F5F535F5F5F5F5F5F5F5F5C3F5F5C3F5F5F5F5F5F5F5F5F5F5F5F5F5F5F5F5F5E9F5F5F5F5F5F5E2F5F5F5E2F5F5F5F5F5F5F5
310
E9F5F5F5F5F5F5F5F5F5F5F5BEF5F5F5F5F5BEF5F5F5F5F5F5F5ECE21752E2F5F5F5BEF5F5F5F5F5F5F5F5F5F5575757E2E2F5F5F5F5F5F557C352DCF5DCDCDCDCDCDC35353535353535353535353535F5F5F5F5F5F5F5BEF50DF50D272727272727272727F535F53535353535F535F5F5F5F5F5F5F5E25217E2C3F53535F5
310
3535353535F5F5F5F5F5F5F5F5C3F5F5C3F5F5F5F5F5F5F5F5F5F5F5F5F5F5F5F5F5E9F5F5F5E2F5F5E2F5F5F5E2F5F5F5F5F5F5F5E9F5F5F5F5F5F5F5F5F5F5F5BEF5F5F5F5F5BEF5F5F5F5F5F5F5ECE21752E2F5F5F5BEF5F5F5F5F5F5F5F5F5F5575757E2E2F5F5F5F5F5F557C352DCF5F5DCDCDCDC35F5F5F5F5F5F5F5
310
F5F5F5F5F5F5F5F5F5F5F5F5F5BEF50DC3C3F5F5F5F5F5F5F5F5F5F535F535F5F5F535F535F5F5F5F5F5F5F5E25217E2C3353535F5F535F5F5F5F5F5F5F5F5F5F5F5C3F5F5C3F5F5F5F5F5F5F5F5F5F5F5F5F5F5F5F5F5E9F5F5F5E2F5F5E2F5F5F5E2F5F5F5F5F5F5F5E9F5F5F5F5F5F5F5F5F5F5F5BEF5F5F5F5F5BEF5F5
310
F5F5F5F5F5ECE21752E2575757BE57F5F5F5F5F5F5F5F557575757E2E2F5F5F5F5F5F557C352DCF5F5DCF5DCF5F5F5F5F5F5F5F5F5F5F5F5F5F5F5F5F5F5F5F5F5F5BEF50DC30DF5F5F5F5F5F5F5F5F5F5353535353535353535F5F5F5F5F5F5F5E25217E2C3353535F5F5F535F5F5F5F5F5F5F5F5F5F5C3F5F5C3F5F5F5F5
310
F5F5F5F5F5F5F5F5F5F5F5F5F5E9F5F5F5E2F5F5E2F5F5F5E2F5F5F5F5F5F5F5E9F5F5F5F5F5F5F5F5F5F5F5BEF5F5F5F5F5BEF5F5F5F5F5F5F5ECE21752E2BEBEBEBEBEBEBEBEBEBEBEBEBEBEBEBEBEE2E2BEBEBEBEBEBEBEC3BEDCBEBEBEBEBEBEBEBEBEBEBEBEBEBEBEBEBEBEBEBEBEBEBEBEBEBEBEBEBEBEBEBE353535
310
3535F5F5F5F5F5F5F53535353535F5F5F5F5F5F5F5F5BEE25217E2C3F5353535353535F5F5F5F5F5F5F5F5F5F5C3F5F5C3F5F5F5F5F5F5F5F5F5F5F5F5F5F5F5F5F5E9F5F5F5E2F5F5E2F5F5F5E2F5F5F5F5F5F5F5E9F5F5F5F5F5F5F5F5F5F5F5BEF5F5F5F5F5BEF5F5F5F5F5F5F5ECE21752E2BE57F5BEF557F5F5F5F5F5
310
272727275757E2E2F5F5F5F5F5F557C352575757575757F5F5F5F5F5F5F5F5272727F5F5F5F5F5F5F5F5F5272727F5BEBEBE35BE29293529BEBEBEBEBE27272727BEBEBEBEBEBEBEBEBEBEBEE25217E2C3F53535353535F5F5F5F5F5F5F5F5F5F5F5C3F5F5C3F5F5F5F5F5F5F5F5F5F5F5F5F5F5F5F5F5E9F5F5F5E2F5F5E2
310
F5F5F5E2F5F5F5F5F5F5F5E9F5F5F5F5F5F5F5F5F5F5F5BEF5F5F5F5F5BEF5F5F5F5F5F5F5ECE21752E2575757BE5757F5F5F5F5F527272727F5F5E2E2F5F5F5F5F5F557C35257F55757F557F5F5F5F5F5F5F5F5272727F5F5F5F5F5F5F5F5F5272727F5BEF50D35292929352929F5F5F5F5F5272727F5F5F5F5F5F5F5F5F5
310
F5F5E25217E2C3F5F5F5F5F5F5F5F5F5F5F5F5F5F5F5F5F5C3F5F5C3F5F5F5F5F5F5F5F5F5F5F5F5F5F5F5F5F5E9F5F5F5E2F5F5E2F5F5F5E2F5F5F5F5F5F5F5E9F5F5F5F5F5F5F5F5F5F5F5BEF5F5F5F5F5BEF5F5F5F5F5F5F5ECE21752E257F557BE57F5F5F5F5F5F51C7272727272E2E2F5F5F5F5F55757C35257F55757
310
F557F5F5F5F5F5F5F5F5F5F5F5F5F5F5F5F5F5F5F5F5272727F50DF50D35292929352929F5F5F5F527272727F5F5F57272727272F5F5F5E25217E2C3F5F5F5F5F5F5F5F5F5F5F5F5F5F5F5F5F5C3F5F5C3F5F5F5F5F5F5F5F5F5F5F5F5F5F5F5F5F5E9F5F5F5E2F5F5E2F5F5F5E2F5F5F5F5F5F5F5E9F5F5F5F5F5F5F5F5F5
310
F5F5BEF5F5F5F5F5BEF5F5F5F5F5F5F5ECE21752E2F5F5F5BEF5F5F5F5F5F5F51C7272727272E2E257575757575757C35257F55757F557F5F5F5F5F5272727272727272727F5F5F5F5F5F5272727F50DF50D3535353535F529F5F5F5F5F5F5F51CF5F5F57272727272F5F5F5E25217E2C3F5F5F5F5F5F5F5F5F5F5F5F5F5F5
310
F5F5F5C3F5F5C3F5F5F5F5F5F5F5F5F5F5F5F5F5F5F5F5F5E9F5F5F5E2F5F5E2F5F5F5E2F5F5F5F5F5F5F5E9F5F5F5F5F5F5F5F5F5F5F5BEF5F5F5F5F5BEF5F5F5F5F5F5F5ECE217BEBEE2E2E2E2E2E2E2BEBEBEBEBEBEBEBEBEE2BEBEE2E2E2E2E2E2E2E2EC575757575757F5F5F5F5F527F527F5272727F527F5F5F5F5F5
310
F5F5F5BEF5E2E2E2E2E2E2E2E2E2BEBEBEBEBEBEBEBEBEBEBEBEBEECBEBEBEE2E2E2E25217E2C3F5F5F5F5F5F5F5F5F5F5F5F5F5F5F5F5F5C3F5F5C3F5F5F5F5F5F5F5F5F5F5F5F5F5F5F5F5F5E9F5F5F5E2F5F5E2F5F5F5E2F5F5F5F5F5F5F5E9F5F5F5F5F5F5F5F5F5F5F5BEF5F5F5F5F5BEF5F5F5F5F5F5F5ECE217BE52
310
52525252525252E2F5F5F51CF5F5F5E2521717525252525252521717575757F5F557F5F5F5F5F5272727F5272727F527F5F5F5F5F5F5F5F5BEF5E21717F55252525252E2F5F5F5F5F5F5F51CF5F5F5F5F5F5F5E2525252525217E2C3C3C3C3C3C3C3C3C3C3C3C3C3C3C3C3C3C3C3F5F5C3F5F5F5F5F5F5F5F5F5F5F5F5F5F5
310
F5F5F5E9F5F5F5E2F5F5E2F5F5F5E2F5F5F5F5F5F5F5E9F5F5F5F5F5F5F5F5F5F5F5BEF5F5F5F5F5BEF5F5F5F5F5F5F5ECE217BE1717171717171717E2DCDCDCDCDCDCDCE21717171717171717171717DC575757F5F557F5F5F5F5F5272727272727272727F5F5F5F5F5F5F5F5BEF5E25217171717171717E2C3C3C3C3C3C3
310
C3C3C3C3C3C3C3C3C3E2171717171717E2C3F5F5F5F5F5F5F5F5F5F5F5F5F5F5F5F5F5F5F5F5C3F5F5F5F5F5F5F5F5F5F5F5F5F5F5F5F5F5E9F5F5F5E2F5F5E2F5F5F5E2F5F5F5F5F5F5F5E9F5F5F5F5F5F5F5F5F5F5F5BEF5F5F5F5F5BEF5F5F5F5F5F5F5EC6F6FBE6F6F6F6F6F6F6F6FE2F5F5F51CF5F5F5E26F6F6F6F6F
310
6F6F6F6F6F1752575757575757F5F5F5F5F5F5F5F5F5F5F5F5F5F5F5F5F5F5F5F5F5F5BEF5E252176F6F6F6F6F6FE2F5F5F5F5F5F5F51CF5F5F5F5F5F5F5E26F6F6F6F6F6F6FC3F5F5F5F5F5F5F5F5F5F5F5F5F5F5F5F5F5F5F5F5C3F5F5F5F5F5F5F5F5F5F5F5F5F5F5F5F5F5E9F5F5F5E2F5F5E2F5F5F5E2F5F5F5F5F5F5
310
F5E9F5F5F5F5F5F5F5F5F5F5F5BEF5F5F5F5BEBEF5F5F5F5F5F5F5ECE2E2BEE2E2E2E2E2E2E2E2BEBEBEBEBEBEBEBEBEE2E2E2E2E2E2E2E2E2E2175257575757575735353535353535353535353535353535353535353535BE35E25217E2E2E2E2E2E2BEBEBEBEBEBEBEBEBEBEBEBEBEECBEBEBEE2E2E2E2E2E2E2C3C3C3C3
310
C3C3C3C3C3C3C3C3C3C3C3C3C3C3C3C3C3C3F5F5F5F5F5F5F5F5F5F5F5F5F5F5F5F5F5E9F5F5F5E2F5F5E2F5F5F5E2F5F5F5F5F5F5F5E9F5F5F5F5F5F5F5F5F5F5F5BEF5F5F5F5F5BEF5F5F5F5F5F5F5F5F5F5F5F5F5F5F5F5F5F5F5F5F51C1C1C1CF5F5F5F5F5F5F5F5F5F5F5ECE21752575757575757F5F5F5F5F5F5F5F5
310
F5F5F5F5F5F5F5F5F5F5F535F535BEF5E25217E2ECF5F5F5F5F5F5F5F5F5F5F51C1C1CF5F5F5F5F5F5F5F5F5F5F5F5F5F5F5F5F5F5F5F5F5F5F5F5F5F5F5F5F5F5F5F5F5F5F5F5F5F5F5F5F5F5F5F5F5F5F5F5F5F5F5F5F5E9F5F5F5E2F5F5E2F5F5F5E2F5F5F5F5F5F5F5E9F5F5F5F5F5F5F5F5F5F5F5BEF5F5F527F5BEF5
310
F5F5F5F5F5F5F5F5F5F5F5F5F5F5F5F5F5F5F51C727272721CF5F5F5F5F5F5F5F5F5F5ECE21752575757575757F5F5F5F5F5F5F5F5F5F5F57272F5727272F5F535F535BEF5E25217E2ECF5F5F5F5F5F5F5F5F5F51C72727272F5F5F5F5F5F5F5F5F5F5F5F5F5F5F5F5F5F5F5F5F5F5F5F5F5F5F5F5F5F5F5F5F5F5F5F5F5F5
310
F5F5F5F5F5F5F5F5F5F5F5F5F5F5E9F5F5F5E2F5F5E2F5F5F5E2F5F5F5F5F5F5F5E9F5F5F5F5F5F5F5F5F5F5F5BEF5F5F52727BEF5F5F5F5F5F5F5F5F5F5F5F5F5F5F5F5F5F5F5F51C727272721CF5F5F5F5F5F5F5F5F5F5ECE21752575757575757F5F5F5F5F5F5F5F5F51CF5727272727272F5F535F535BEF5E25217E2EC
310
F5F5F5F5F5F5F5F5F5F572727272721CF5F5F5F5F5F5F5F5F5F5F5F5F5F5F5F5F5F5F5F5F5F5F5F5F5F5F5F5F5F5F5F5F5F5F5F5F5F5F5F5F5F5F5F5F5F5F5F5F5F5F5E9F5F5F5E2F5F5E2F5F5F5F5F5F5F5F5F5F5F5E9F5F5F5F5F5F5F5F5F5F5F5BEF5F5F52727BEF5F5F5F5F5F5F5F5F5F5F5F5F5F5F5F5F5F5F5F51CF5
310
7272721CF5F5F5F5F5F5F5F5F5F5ECE21752E2F5F5F5F5F5F51717171717171717171717171717171717F535F5F5BEBEE25217E2ECF5F5F5F5F5F5F5F5F5F51C727272721CF5F5F5F5F5F5F5F5F5F5F5F5F5F5F5F5F5F5F5F5F5F5F5F5F5F5F5F5F5F5F5F5F5F5F5F5F5F5F5F5F5F5F5F5F5F5F5F5F5F5F5E9F5F5F5F5F5F5
310
E2F5F5F5F5F5F5F5F5F5F5F5E9F5F5F5F5F5F5F5F5F5F5F5BEF5F5F52727BEF5F5F5F5F5F5F5F5F5F5F5F5F5F5F5F5F5F5F5F51C1C7272721CF5F5F5F5F5F5F5F5F5F5ECE21752E2E2E2E2E2E2E2BEBEBEBEBEBEBEBEBEBEBEBEBEBEBEBEBEE2E2E2E2E2E2E25217E2ECF5F5F5F5F5F5F5F5F5F572727272721CF5F5F5F5F5
310
F5F5F5F5F5F5F5F5F5F5F5F5F5F5F5F5F5F5F5F5F5F5F5F5F5F5F5F5F5F5F5F5F5F5F5F5F5F5F5F5F5F5F5F5F5F5E9F5F5F5F5F5F5E2F5F5F5F5F5F5F5F5F5F5F5E9F5F5F5F5F5F5F5F5F5F5F5BEF5F5F5F5F5BEF5F5F5F5F5F5F5F5F5F5F5F5F5F5F5F5F5F5F5F5F51C1C1C1CF5F5F5F5F5F5F5F5F5F5F5ECE21752525252
310
52525252E21C1C1C1C1C1C1C1C1C1C1C1C1C1C1CE2525252525252525217E2ECF5F5F5F5F5F5F5F5F5F51C1C1C1C1CF5F5F5F5F5F5F5F5F5F5F5F5F5F5F5F5F5F5F5F5F5F5F5F5F5F5F5F5F5F5F5F5F5F5F5F5F5F5F5F5F5F5F5F5F5F5F5F5F5F5F5F5E9F5F5F5F5F5F5E2F5F5F5F5F5F5F5F5F5F5F5E9F5F5F5F5F5F5F5F5
310
F5F5F5BEF5F5F5F5F5BEF5F5F5F5F5F5F5F5F5F5F5F5F5F5F5F5F5F5F5F5F5F5F5F5F5F5F5F5F5F5F5F5F5F5F5F5ECE2171717171717171717E2C3C3C3C3C3C3C3C3C3C3C3C3C3C3C3E2171717171717171717E2ECF5F5F5F5F5F5F5F5F5F5F5F5F5F5F5F5F5F5F5F5F5F5F5F5F5F5F5F5F5F5F5F5F5F5F5F5F5F5F5F5F5F5
310
F5F5F5F5F5F5F5F5F5F5F5F5F5F5F5F5F5F5F5F5F5F5F5F5F5E9F5F5F5F5F5F5E2F5F5F5F5F5F5F5F5F5F5F5E9F5F5F5F5F5F5F5F5F5F5F5BEBEF5F5F5BEBEF5F5F5F5F5F5F5F5F5F5F5F5F5F5F5F5F5F5F5F5F5F5F5F5F5F5F5F5F5F5F5F5F5F5F5F5ECE2E2E2E2E2E2E2E2E2E2BEBEBEBEBEBEBEBEBEBEBEBEBEBEBEBEBE
310
E2E2E2E2E2E2E2E2E2E2ECF5F5F5F5F5F5F5F5F5F5F5F5F5F5F5F5F5F5F5F5F5F5F5F5F5F5F5F5F5F5F5F5F5F5F5F5F5F5F5F5F5F5F5F5F5F5F5F5F5F5F5F5F5F5F5F5F5F5F5F5F5F5F5F5F5F5F5E9F5F5F5F5F5F5E2F5F5F5F5F5F5F5F5F5F5F5E9F5F5F5F5F5F5F5F5F5F5F5BEF5F5F5F5BEBEF5F5F5F5F5F5F5F5F5F5F5
310
F5F5F5F5F5F5F5F5F5F5F5F5F5F5F5F5F5F5F5F5F5F5F5F5F5ECECECECECECECECECECECECECECECECECEC1C1C1CECECECECECECECECECECECECECECECECECECF5F5F5F5F5F5F5F5F5F5F5F5F5F5F5F5F5F5F5F5F5F5F5F5F5F5F5F5F5F5F5F5F5F5F5F5F5F5F5F5F5F5F5F5F5F5F5F5F5F5F5F5F5F5F5F5F5F5F5F5F5F5F5
310
F5F5F5F5E9F5F5F5F5F5F5E2F5F5F5F5F5F5F5F5F5F5F5E9F5F5F5F5F5F5F5F5F5F5F5F5F5F5F5F5F5F5F5F5F5F5F5F5F5F5F5F5F5F5F5F5F5F5F5F5F5F5F5F5F5F5F5F5F5F5F5F5F5F5F5F5F5F5F5F5F5F5F5F5F5F5F5F5F5F5F5F5F5F5F51C7272721CF5F5F5F5F5F5F5F5F5F5F5F5F5F5F5F5F5F5F5F5F5F5F5F5F5F5F5
310
F5F5F5F5F5F5F5F5F5F5F5F5F5F5F5F5F5F5F5F5F5F5F5F5F5F5F5F5F5F5F5F5F5F5F5F5F5F5F5F5F5F5F5F5F5F5F5F5F5F5F5F5F5F5F5F5F5E9F5F5F5F5F5F5E2F5F5F5F5F5F5F5F5F5F5F5E9F5F5F5F5F5F5F5F5F5F5F5F5F5F5F5F5F5F5F5F5F5F5F5F5F5F5F5F5F5F5F5F5F5F5F5F5F5F5F5F5F5F5F5F5F5F5F5F5F5F5
310
F5F5F5F5F5F5F5F5F5F5F5F5F5F5F5F5F5F5F5F51C72727272721CF5F5F5F5F5F5F5F5F5F5F5F5F5F5F5F5F5F5F5F5F5F5F5F5F5F5F5F5F5F5F5F5F5F5F5F5F5F5F5F5F5F5F5F5F5F5F5F5F5F5F5F5F5F5F5F5F5F5F5F5F5F5F5F5F5F5F5F5F5F5F5F5F5F5F5F5F5F5F5F5F5F5F5E9F5F5F5F5F5F5E2F5F5F5F5F5F5F5F5F5
310
F5F5E9F5F5F5F5F5F5F5F5F5F5F5F5F5F5F5F5F5F5F5F5F5F5F5F5F5F5F5F5F5F5F5F5F5F5F5F5F5F5F5F5F5F5F5F5F5F5F5F5F5F5F5F5F5F5F5F5F5F5F5F5F5F5F5F5F5F5F5F5F5F51C1C727272721CF5F5F5F5F5F5F5F5F5F5F5F5F5F5F5F5F5F5F5F5F5F5F5F5F5F5F5F5F5F5F5F5F5F5F5F5F5F5F5F5F5F5F5F5F5F5F5
310
F5F5F5F5F5F5F5F5F5F5F5F5F5F5F5F5F5F5F5F5F5F5F5F5F5F5F5F5F5F5F5F5F5F5F5F5E9F5F5F5F5F5F5E2F5F5F5E2F5F5F5F5F5F5F5E9F5F5F5F5F5F5F5F5F5F5F5F5F5F5F5F5F5F5F5F5F5F5F5F5F5F5F5F5F5F5F5F5F5F5F5F5F5F5F5F5F5F5F5F5F5F5F5F5F5F5F5F5F5F5F5F5F5F5F5F5F5F5F5F5F5F5F5F5F5F5F5
310
72727272721CF5F5F5F5F5F5F5F5F5F5F5F5F5F5F5F5F5F5F5F5F5F5F5F5F5F5F5F5F5F5F5F5F5F5F5F5F5F5F5F5F5F5F5F5F5F5F5F5F5F5F5F5F5F5F5F5F5F5F5F5F5F5F5F5F5F5F5F5F5F5F5F5F5F5F5F5F5F5F5F5F5F5F5E9F5F5F5E2F5F5E2F5F5F5E2F5F5F5F5F5F5F5E9F5F5F5F5F5F5F5F5F5F5F5F5F5F5F5F5F5F5
310
F5F5F5F5F5F5F5F5F5F5F5F5F5F5F5F5F5F5F5F5F5F5F5F5F5F5F5F5F5F5F5F5F5F5F5F5F5F5F5F5F5F5F5F5F5F5F5F5F5F5F5F5F51C1C1C1C1CF5F5F5F5F5F5F5F5F5F5F5F5F5F5F5F5F5F5F5F5F5F5F5F5F5F5F5F5F5F5F5F5F5F5F5F5F5F5F5F5F5F5F5F5F5F5F5F5F5F5F5F5F5F5F5F5F5F5F5F5F5F5F5F5F5F5F5F5F5
310
F5F5F5F5F5F5F5F5F5F5F5F5F5F5F5E9F5F5F5E2F5F5E2F5F5F5E2F5F5F5F5F5F5F5E9F5F5F5F5F5F5F5F5F5F5F5F5F5F5F5F5F5F5F5F5F5F5F5F5F5F5F5F5F5F5F5F5F5F5F5F5F5F5F5F5F5F5F5F5F5F5F5F5F5F5F5F5F5F5F5F5F5F5F5F5F5F5F5F5F5F5F5F5F5F5F5F5F51CF5F5F5F5F5F5F5F5F5F5F5F5F5F5F5F5F5F5
310
F5F5F5F5F5F5F5F5F5F5F5F5F5F5F5F5F5F5F5F5F5F5F5F5F5F5F5F5F5F5F5F5F5F5F5F5F5F5F5F5F5F5F5F5F5F5F5F5F5F5F5F5F5F5F5F5F5F5F5F5F5F5F5F5F5F5F5F5E9F5F5F5E2F5F5E2F5F5F5E2F5F5F5F5F5F5F5E9F5F5F5F5F5F5F5F5F5F5F5F5F5F5F5F5F5F5F5F5F5F5F5F5F5BEBEF5F5F5F5F5F5F5F5F5F5F5F5
310
F5F5F5F5F5F5F5F5F5F5F5F5F5F5F5BEBEF5F5F5F5F5F5F5F5F5F5F5F5F5F5F5F5F5F5F5F5F5F5F5F5F5F5F5F5F5F5F5F5F5F5F5BEF5F5F5F5F5F5F5F5F5F5F5F5F5F5F5F5F5F5F5F5F5F5F5F5F5F5F5F5BEF5F5F5F5F5F5F5F5F5F5F5F5F5F5F5F5F5F5F5F5F5F5F5F5F5F5F5F5F5F5F5F5F5F5F5F5F5F5F5E9F5F5F5E2F5
310
F5E2F5F5F5E2F5F5F5F5F5F5F5E9F5F5F5F5F5F5F5F5F5F5F5F5F5F5F5F5F5F5F5F5F5F5F5F5F5BEBEBEBEBEBEBEBEBEBEBEBEBEBEBEBEBEBEBEBEBEBEBEBEBEBEBEBEBEBEBEBEBEBEBEBEBEBEBEBEBEBEBEBEBEBEBEBEBEBEBEBEBEBEBEBEBEBEBEBEBEBEBEBEBEBEBEBEBEBEBEBEBEBEBEBEBEBEBEBEBEBEBEBEBEBEBEBE
310
BEBEBEBEBEBEBEBEBEF5F5F5F5F5F5F5F5F5F5F5F5F5F5F5F5F5F5F5F5F5F5F5F5F5F5F5F5F5F5F5F5F5F5F5F5F5F5E9F5F5F5E2F5F5E2F5F5F5E2F5F5F5F5F5F5F5E9F5F5F5F5F5F5F5F5F5F5F5F5F5F5F5F5F5F5F5F5F5F5F5F5F5F5BEF5F5F5F5F5F5F5F5F5F5F5F5272727F5F5F5F5F5F5F5F5F5F5F5F5F5BEF5F5F5F5
310
F5F5F5F5F5F5F5F5F5F5F5F5272727F5F5F5F5F5F5F5F5F5F5F5F5F5F5F5F5BEBEF5F5F5F5F5F5F5F5F5F5F527272727F5F5F5F5F5F5F5F5F5F5F5F5BEBEF5F5F5F5F5F5F5F5F5F5F5F5F5F5F5F5F5F5F5F5F5F5F5F5F5F5F5F5F5F5F5F5F5F5F5F5F5F5E9F5F5F5E2F5F5E2F5F5F5E2F5F5F5F5F5F5F5E9F5F5F5F5F5F5F5
310
F5F5F5F5F5F5F5F5F5F5F5F5F5F5F5F5F5F5F5F5F5F5F5F5F5F5F5F5F5F5F5F5272727F5F5F5F5F5F5F5F5F5F5F5F5F5F5F5F5F5F5F5F5F5F5F5F5F5F5F5F5F5F5272727F5F5F5F5F5F5F5F5F5F5F5F5F5F5F5F5F5F5F5F5F5F5F5F5F5F5F5F5F527272727F5F5F5F5F5F5F5F5F5F5F5F5F5F5F5F5F5F5F5F5F5F5F5F5F5F5
310
F5F5F5F5F5F5F5F5F5F5F5F5F5F5F5F5F5F5F5F5F5F5F5F5F5F5E9F5F5F5E2F5F5E2F5F5F5E2F5F5F5F5F5F5F5E9F5F5F5F5F5F5F5F5F5F5F5F5F5F5F5F5F5F5F5F5F5F5F5F5F5BEBEBEBEBEBEBEBEBEBEBEBEBEBEBEBEBEBEBEBEBEBEBEBEBEBEBEBEBEBEBEBEBEBEBEBEBEBEBEBEBEBEBEBEBEBEBEBEBEBEBEBEBEBEBEBE
310
BEBEBEBEBEBEBEBEBEBEBEBEBEBEBEBEBEBEBEBEBEBEBEBEBEBEBEBEBEBEBEBEBEBEBEBEBEBEBEBEBEF5F5F5F5F5F5F5F5F5F5F5F5F5F5F5F5F5F5F5F5F5F5F5F5F5F5F5F5F5F5F5F5F5F5F5F5F5F5E9F5F5F5E2F5F5E2F5F5F5E2F5F5F5F5F5F5F5E9F5F5F5F5F5F5F5F5F5F5F5F5F5F5F5F5F5F5F5F5F5F5F5F5F5F5BEF5
310
F5F5F5F5F5F5F5F5F5F5F5F5F5F5F5F5F5F5F5F5F5F5F5F5F5F5F5F5F5F5F5F5F5F5F5F5F5F5F5F5F5F5F52727272727F5F5F5F5F5F5F5F5F5F5F5F5F5F5F5F5F5F5F5F5F5F5F5F5F5F5F5F5F5F5F5F5F5F5F5F5F5F5F5F5F5F5F5F5BEBEF5F5F5F5F5F5F5F5F5F5F5F5F5F5F5F5F5F5F5F5F5F5F5F5F5F5F5F5F5F5F5F5F5
310
F5F5F5F5F5E9F5F5F5E2F5F5E2F5F5F5E2F5F5F5F5F5F5F5E9F5F5F5F5F5F5F5F5F5F5F5F5F5F5F5F5F5F5F5F5F5F5F5F5F5F5F5F5F5F5F5F5F5F5F5F5F5F5F5F5F5F5F5F5F5F5F5F5F5F5F5F5F5F5F5F5F5F5F5F5F5F5F5F5F5F5F5F5F5F5F52727272727F5F5F5F5F5F5F5F5F5F5F5F5F5F5F5F5F5F5F5F5F5F5F5F5F5F5
310
F5F5F5F5F5F5F5F5F5F5F5F5F5F5F5F5F5F5F5F5F5F5F5F5F5F5F5F5F5F5F5F5F5F5F5F5F5F5F5F5F5F5F5F5F5F5F5F5F5F5F5F5F5F5F5F5F5F5E9F5F5F5E2F5F5E2F5F5F5E2F5F5F5F5F5F5F5E9F5F5F5F5F5F5F5F5F5F5F5F5F5F5F5F5F5F5F5F5F5F5F5F5F5F5F5F5F5F5F5F5F5F5F5F5F5F5F5F5F5F5F5F5F5F5F5F5F5
310
F5F5F5F5F5F5F5F5F5F5F5F5F5F5F5F5F5F5F5F5F5F5F5F5F5F5F5F5F5F5F5F5F5F5F5F5F5F5F5F5F5F5F5F5F5F5F5F5F5F5F5F5F5F5F5F5F5F5F5F5F5F5F5F5F5F5F5F5F5F5F5F5F5F5F5F5F5F5F5F5F5F5F5F5F5F5F5F5F5F5F5F5F5F5F5F5F5F5F5F5F5F5F5F5F5F5F5F5F5F5F5E9F5F5F5E2F5F5E2F5F5F5E2F5F5F5F5
310
F5F5F5E9F5F5F5F5F5F5F5F5F5F5F5F5F5F5F5F5F5F5F5F5F5F5F5F5F5F5F5F5F5F5F5F5F5F5F5F5F5F5F5F5F5F5F5F5F5F5F5F5F5F5F5F5F5F5F5F5F5F5F5F5F5F5F5F5F5F5F5F5F5F5F5F5F5F5F5F5F5F5F5F5F5F5F5F5F5F5F5F5F5F5F5F5F5F5F5F5F5F5F5F5F5F5F5F5F5F5F5F5F5F5F5F5F5F5F5F5F5F5F5F5F5F5F5
310
F5F5F5F5F5F5F5F5F5F5F5F5F5F5F5F5F5F5F5F5F5F5F5F5F5F5F5F5F5F5F5F5F5F5F5F5F5E9F5F5F5E2F5F5E2F5F5F5E2F5F5F5F5F5F5F5E9F5F5F5F5F5F5F5F5F5F5F5F5F5F5F5F5F5F5F5F5F5F5F5F5F5F5F5F5F5F5F5F5F5F5F5F5F5F5F5F5F5F5F5F5F5F5F5F5F5F5F5F5F5F5F5F5F5F5F5F5F5F5F5F5F5F5F5F5F5F5
310
F5F5F5F5F5F5F5F5F5F5F5F5F5F5F5F5F5F5F5F5F5F5F5F5F5F5F5F5F5F5F5F5F5F5F5F5F5F5F5F5F5F5F5F5F5F5F5F5F5F5F5F5F5F5F5F5F5F5F5F5F5F5F5F5F5F5F5F5F5F5F5F5F5F5F5F5F5F5F5F5F5F5F5F5F5F5F5F5F5F5E9F5F5F5E2F5F5E2F5F5F5E2F5F5F5F5F5F5F5E9F5F5F5F5F5F5F5F5F5F5F5F5F5F5F5F5F5
310
F5F5F5F5F5F5F5F5F5F5F5F5F5F5F5F5F5F5F5F5F5F5F5F5F5F5F5F5F5F5F5F5F5F5F5F5F5F5F5F5F5F5F5F5F5F5F5F5F5F5F5F5F5F5F5F5F5F5F5F5F5F5F5F5F5F5F5F5F5F5F5F5F5F5F5F5F5F5F5F5F5F5F5F5F5F5F5F5F5F5F5F5F5F5F5F5F5F5F5F5F5F5F5F5F5F5F5F5F5F5F5F5F5F5F5F5F5F5F5F5F5F5F5F5F5F5F5
310
F5F5F5F5F5F5F5F5F5F5F5F5F5F5F5F5E9F5F5F5E2F5F5E2F5F5F5E2F5F5F5F5F5F5F5E9F5F5F5F5F5F5F5F5F5F5F5F5F5F5F5F5F5F5F5F5F5F5F5F5F5F5F5F5F5F5F5F5F5F5F5F5F5F5F5F5F5F5F5F5F5F5F5F5F5F5F5F5F5F5F5F5F5F5F5F5F5F5F5F5F5F5F5F5F5F5F5F5F5F5F5F5F5F5F5F5F5F5F5F5F5F5F5F5F5F5F5
310
F5F5F5F5F5F5F5F5F5F5F5F5F5F5F5F5F5F5F5F5F5F5F5F5F5F5F5F5F5F5F5F5F5F5F5F5F5F5F5F5F5F5F5F5F5F5F5F5F5F5F5F5F5F5F5F5F5F5F5F5F5F5F5F5F5F5F5F5F5E9F5F5F5E2F5F5E2F5F5F5E2F5F5F5F5F5F5F5E9F5F5F5F5F5F5F5F5F5F5F5F5F5F5F5F5F5F5F5F5F5F5F5F5F5F5F5F5F5F5F5F5F5F5F5F5F5F5
310
F5F5F5F5F5F5F5F5F5F5F5F5F5F5F5F5F5F5F5F5F5F5F5F5F5F5F5F5F5F5F5F5F5F5F5F5F5F5F5F5F5F5F5F5F5F5F5F5F5F5F5F5F5F5F5F5F5F5F5F5F5F5F5F5F5F5F5F5F5F5F5F5F5F5F5F5F5F5F5F5F5F5F5F5F5F5F5F5F5F5F5F5F5F5F5F5F5F5F5F5F5F5F5F5F5F5F5F5F5F5F5F5F5F5F5F5F5F5F5F5F5F5E9F5F5F5E2
310
F5F5E2F5F5F5F5F5F5F5F5F5F5F5E9F5F5F5F5F5F5F5F5F5F5F5F5F5F5F5F5F5F5F5F5F5F5F5F5F5F5F5F5F5F5F5F5F5F5F5F5F5F5F5F5F5F5F5F5F5F5F5F5F5F5F5F5F5F5F5F5F5F5F5F5F5F5F5F5F5F5F5F5F5F5F5F5F5F5F5F5F5F5F5F5F5F5F5F5F5F5F5F5F5F5F5F5F5F5F5F5F5F5F5F5F5F5F5F5F5F5F5F5F5F5F5F5
310
F5F5F5F5F5F5F5F5F5F5F5F5F5F5F5F5F5F5F5F5F5F5F5F5F5F5F5F5F5F5F5F5F5F5F5F5F5F5F5F5F5F5F5F5F5F5F5F5E9F5F5F5F5F5F5E2F5F5F5F5F5F5F5F5F5F5F5E9F5F5F5F5F5F5F5F5F5F5F5F5F5F5F5F5F5F5F5F5F5F5F5F5F5F5F5F5F5F5F5F5F5F5F5F5F5F5F5F5F5F5F5F5F5F5F5F5F5F5F5F5F5F5F5F5F5F5F5
310
F5F5F5F5F5F5F5F5F5F5F5F5F5F5F5F5F5F5F5F5F5F5F5F5F5F5F5F5F5F5F5F5F5F5F5F5F5F5F5F5F5F5F5F5F5F5F5F5F5F5F5F5F5F5F5F5F5F5F5F5F5F5F5F5F5F5F5F5F5F5F5F5F5F5F5F5F5F5F5F5F5F5F5F5F5F5F5F5F5F5F5F5F5F5F5F5F5F5F5F5F5E9F5F5F5F5F5F5E2F5F5F5F5F5F5F5F5F5F5F5E9F5F5F5F5F5F5
310
F5F5F5F5F5F5F5F5F5F5F5F5F5F5F5F5F5F5F5F5F5F5F5F5F5F5F5F5F5F5F5F5F5F5F5F5F5F5F5F5F5F5F5F5F5F5F5F5F5F5F5F5F5F5F5F5F5F5F5F5F5F5F5F5F5F5F5F5F5F5F5F5F5F5F5F5F5F5F5F5F5F5F5F5F5F5F5F5F5F5F5F5F5F5F5F5F5F5F5F5F5F5F5F5F5F5F5F5F5F5F5F5F5F5F5F5F5F5F5F5F5F5F5F5F5F5F5
310
F5F5F5F5F5F5F5F5F5F5F5F5F5F5F5F5F5F5F5F5F5F5F5F5F5F5F5E9F5F5F5F5F5F5E2F5F5F5F5F5F5F5F5F5F5F5E9F5F5F5F5F5F5F5F5F5F5F5F5F5F5F5F5F5F5F5F5F5F5F5F5F5F5F5F5F5F5F5F5F5F5F5F5F5F5F5F5F5F5F5F5F5F5F5F5F5F5F5F5F5F5F5F5F5F5F5F5F5F5F5F5F5F5F5F5F5F5F5F5F5F5F5F5F5F5F5F5
310
F5F5F5F5F5F5F5F5F5F5F5F5F5F5F5F5F5F5F5F5F5F5F5F5F5F5F5F5F5F5F5F5F5F5F5F5F5F5F5F5F5F5F5F5F5F5F5F5F5F5F5F5F5F5F5F5F5F5F5F5F5F5F5F5F5F5F5F5F5F5F5F5F5F5F5F5F5F5F5F5E9F5F5F5F5F5F5E2F5F5F5F5F5F5F5F5F5F5F5E9F5F5F5F5F5F5F5F5F5F5F5F5F5F5F5F5F5F5F5F5F5F5F5F5F5F5F5
310
F5F5F5F5F5F5F5F5F5F5F5F5F5F5F5F5F5F5F5F5F5F5F5F5F5F5F5F5F5F5F5F5F5F5F5BEBEBEF5F5F5F5F5F5F5F5F5F5BEF5F5F5F5F5F5F5F5F5F5F5F5F5F5F5F5F5F5F5F5F5F5F5BEBEF5F5F5F5F5F5F5F5F5F5F5F5F5F5F5F5BEF5F5F5F5F5F5F5F5F5F5F5F5F5F5F5F5F5F5F5F5F5F5F5F5F5F5F5F5F5F5F5F5F5F5F5F5
310
F5F5F5F5F5F5E9F5F5F5F5F5F5E2F5F5F5F5F5F5F5F5F5F5F5E9F5F5F5F5F5F5F5F5F5F5F5F5F5F5F5F5F5F5F5F5F5F5F5F5F5F5F5F5F5F5F5BEF5F5BEF5F5BEF5BEF5BEF5F5F5BEF5F5F5F5F5BEF5F5BEF5BEBEF5BEF5BEF5BEBEF5BEBEBEF5F5BEBEBEBEBEBEF5F5BEF5F5F5F5F5BEBEF5BEF5BEBEBEBEBEF5F5F5BEBEBE
310
BEF5BEBEF5BEBEF5BEBEF5BEF5BEBEBEBEF5F5F5F5F5F5F5F5F5F5F5F5F5F5F5F5F5F5F5F5F5F5F5F5F5F5F5F5F5F5F5F5F5F5F5F5F5F5F5F5F5F5E9F5F5F5F5F5F5E2F5F5F5F5F5F5F5F5F5F5F5E9F5F5F5F5F5F5F5F5F5F5F5F5F5F5F5F5F5F5F5F5F5F5F5F5F5F5F5F5F5F5F5BEF5F5BEF5F5BEF5BEBEBEBEF5F5BEF5F5
310
F5F5F5BEF5F5BEF5BEBEBEBEF5BEF5BEBEF5BEBEBEF5BEBEBEF5BEF5BEF5F5BEF5F5F5F5BEBEBEF5BEF5BEBEF5BEF5F5F5F5BEF5BEBEBEBEBEF5BEBEF5BEBEBEBEBEBEBEBEBEF5F5F5F5F5F5F5F5F5F5F5F5F5F5F5F5F5F5F5F5F5F5F5F5F5F5F5F5F5F5F5F5F5F5F5F5F5F5F5F5F5F5E9F5F5F5F5F5F5E2F5F5F5F5F5F5F5
310
F5F5F5F5E9F5F5F5F5F5F5F5F5F5F5F5F5F5F5F5F5F5F5F5F5F5F5F5F5F5F5F5F5F5F5F5BEF5BEBEBEF5BEF5F5BEBEBEBEBEBEBEF5F5F5F5BEF5F5F5BEF5F5BEBEBEBEF5BEBEBEBEBEBEF5BEF5BEF5BEF5BEF5BEBEBEF5F5F5BEBEBEF5F5BEF5F5F5BEF5F5F5F5BEF5BEF5BEBEBEBEBEBEF5BEBEBEF5BEBEF5BEF5BEF5F5F5
310
F5F5F5F5F5F5F5F5F5F5F5F5F5F5F5F5F5F5F5F5F5F5F5F5F5F5F5F5F5F5F5F5F5F5F5F5F5F5E9F5F5F5F5F5F5E2F5F5F5F5F5F5F5F5F5F5F5E9F5F5F5F5F5F5F5F5F5F5F5F5F5F5F5F5F5F5F5F5F5F5F5F5F5F5F5F5F5F5F5BEF5F5BEF5F5BEF5F5BEF5BEF5F5BEF5F5F5F5F5BEF5F5F5BEF5F5BEBEF5BEF5BEBEF5BEBEBE
310
BEF5BEBEBEBEBEBEF5F5BEF5F5F5F5F5BEBEF5F5BEF5F5BEF5BEF5F5F5BEF5BEBEF5BEBEBEBEBEBEBEBEF5BEBEBEBEBEBEF5F5F5F5F5F5F5F5F5F5F5F5F5F5F5F5F5F5F5F5F5F5F5F5F5F5F5F5F5F5F5F5F5F5F5F5F5F5F5F5F5F5E9F5F5F5F5F5F5E2F5F5F5E2F5F5F5F5F5F5F5E9F5F5F5F5F5F5F5F5F5F5F5F5F5F5F5F5
310
F5F5F5F5F5F5F5F5F5F5F5F5F5F5BEBEF5F5BEF5BEBEF5F5BEBEBEF5F5BEF5F5F5F5F5BEF5BEBEBEF5F5BEBEF5BEF5F5F5F5F5F5F5F5F5F5F5F5BEF5BEF5F5BEF5F5F5F5F5BEBEBEBEBEF5F5BEBEBEF5F5F5BEF5F5F5F5BEF5F5F5F5F5F5BEF5F5F5F5F5F5BEF5F5F5F5F5F5F5F5F5F5F5F5F5F5F5F5F5F5F5F5F5F5F5F5F5
310
F5F5F5F5F5F5F5F5F5F5F5F5F5F5F5F5F5E9F5F5F5E2F5F5E2F5F5F5E2F5F5F5F5F5F5F5E9F5F5F5F5F5F5F5F5F5F5F5F5F5F5F5F5F5F5F5F5F5F5F5F5F5F5F5F5F5F5F5F5F5F5F5F5F5F5F5F5F5F5F5F5F5F5F5F5F5F5F5F5F5F5F5F5F5F5F5F5F5BEBEF5F5F5F5F5F5F5F5F5F5F5F5BEBEF5F5F5F5F5F5F5F5F5F5F5F5F5
310
F5F5F5F5F5F5F5F5F5BEF5F5F5F5F5F5F5F5F5F5F5F5F5F5F5F5F5BEF5F5F5F5F5F5F5F5F5F5F5F5F5F5F5F5F5F5F5F5F5F5F5F5F5F5F5F5F5F5F5F5F5F5F5F5F5F5F5F5F5F5E9F5F5F5E2F5F5E2F5F5F5E2F5F5F5F5F5F5F5E9F5F5F5F5F5F5F5F5F5F5F5F5F5F5F5F5F5F5F5F5F5F5F5F5F5F5F5F5F5F5F5F5F5F5F5F5F5
310
F5F5F5F5F5F5F5F5F5F5F5F5F5F5F5F5F5F5BEF5F5F5F5F5F5F5F5F5F5BEBEF5F5F5F5F5F5F5F5F5F5F5F5F5F5F5F5F5F5F5F5F5F5F5F5F5F5F5F5F5F5F5F5F5F5F5F5F5F5F5F5F5F5F5F5F5F5F5F5F5F5F5F5F5F5F5F5F5F5F5F5F5F5F5F5F5F5F5F5F5F5F5F5F5F5F5F5F5F5F5F5F5F5F5F5F5F5F5F5F5F5F5F5E9F5F5F5
310
E2F5F5E2F5F5F5E2F5F5F5F5F5F5F5E9F5F5F5F5F5F5F5F5F5F5F5F5F5F5F5F5F5F5F5F5F5F5F5F5F5F5F5F5F5F5F5F5F5F5F5F5F5F5F5F5F5F5F5F5F5F5F5F5F5F5F5F5F5F5F5BEF5F5F5F5F5F5F5F5F5F5F5BEF5F5F5F5F5F5F5F5F5F5F5F5F5F5BEBEBEBEF5F5F5BEBEBEF5F5F5F5F5F5F5F5F5F5F5F5F5F5F5F5F5F5F5
310
F5F5F5F5F5F5F5F5F5F5F5F5F5F5F5F5F5F5F5F5F5F5F5F5F5F5F5F5F5F5F5F5F5F5F5F5F5F5F5F5F5F5F5F5F5F5F5F5F5E9F5F5F5E2F5F5E2F5F5F5E2F5F5F5F5F5F5F5E9F5F5F5F5F5F5F5F5F5F5F5F5F5F5F5F5F5F5F5F5F5F5F5F5F5F5F5F5F5F5BEBEBEF5BEBEBEF5BEF5BEF5F5F5BEBEF5F5F5F5BEBEBEBEBEBEBEBE
310
BEBEBEBEF5BEBEBEBEBEF5BEBEBEBEBEBEBEBEBEBEBEF5BEF5F5F5F5BEF5F5F5F5F5BEF5BEF5F5F5F5F5F5F5F5F5F5F5F5F5F5F5F5F5F5F5F5F5F5F5F5F5F5F5F5F5F5F5F5F5F5F5F5F5F5F5F5F5F5F5F5F5F5F5F5F5F5F5F5F5F5F5F5F5F5F5F5F5F5F5F5F5E9F5F5F5E2F5F5E2F5F5F5E2F5F5F5F5F5F5F5E9F5F5F5F5F5
310
F5F5F5F5F5F5F5F5F5F5F5F5F5F5F5F5F5F5F5F5F5F5F5F5F5BEF5BEBEF5BEBEF5BEF5BEF5F5F5BEBEBEF5F5F5BEF5BEBEBEBEF5BEBEF5BEBEF5BEF5BEBEBEF5BEBEBEBEBEBEF5BEBEF5BEF5BEF5F5F5F5BEBEF5F5F5F5BEBEBEF5F5F5F5F5F5F5F5F5F5F5F5F5F5F5F5F5F5F5F5F5F5F5F5F5F5F5F5F5F5F5F5F5F5F5F5F5
310
F5F5F5F5F5F5F5F5F5F5F5F5F5F5F5F5F5F5F5F5F5F5F5F5F5F5F5F5E9F5F5F5E2F5F5E2F5F5F5E2F5F5F5F5F5F5F5E9F5F5F5F5F5F5F5F5F5F5F5F5F5F5F5F5F5F5F5F5F5F5F5F5F5F5F5F5F5F5BEF5BEF5BEBEBEBEBEBEF5F5F5F5BEBEBEF5F5F5BEBEBEBEBEBEBEBEBEBEBEBEBEBEBEBEBEBEF5BEBEBEBEBEBEBEBEBEBE
310
BEBEBEF5F5F5F5BEBEBEF5F5F5BEBEBEF5F5F5F5F5F5F5F5F5F5F5F5F5F5F5F5F5F5F5F5F5F5F5F5F5F5F5F5F5F5F5F5F5F5F5F5F5F5F5F5F5F5F5F5F5F5F5F5F5F5F5F5F5F5F5F5F5F5F5F5F5F5F5F5F5E9F5F5F5E2F5F5E2F5F5F5E2F5F5F5F5F5F5F5E9F5F5F5F5F5F5F5F5F5F5F5F5F5F5F5F5F5F5F5F5F5F5F5F5F5F5
310
F5F5F5F5BEBEBEF5F5F5F5F5F5F5F5F5F5F5F5F5F5F5F5F5F5F5F5F5F5F5F5F5F5F5F5F5F5F5F5F5F5F5F5F5F5F5F5F5F5F5F5F5F5BEF5F5F5F5F5F5BEBEBEF5F5F5BEF5BEF5F5F5F5F5F5F5F5F5F5F5F5F5F5F5F5F5F5F5F5F5F5F5F5F5F5F5F5F5F5F5F5F5F5F5F5F5F5F5F5F5F5F5F5F5F5F5F5F5F5F5F5F5F5F5F5F5F5
310
F5F5F5F5F5F5F5E9F5F5F5E2F5F5E2F5F5F5E2F5F5F5F5F5F5F5E9F5F5F5F5F5F5F5F5F5F5F5F5F5F5F5F5F5F5F5F5F5F5F5F5F5F5F5F5F5F5F5F5F5F5F5F5F5F5F5F5F5F5F5F5F5F5F5F5F5F5F5F5F5F5F5F5F5F5F5F5F5F5F5F5F5F5F5F5F5F5F5F5F5F5F5F5F5F5F5F5F5F5F5F5F5F5F5F5F5F5F5F5F5F5F5F5F5F5F5F5
310
F5F5F5F5F5F5F5F5F5F5F5F5F5F5F5F5F5F5F5F5F5F5F5F5F5F5F5F5F5F5F5F5F5F5F5F5F5F5F5F5F5F5F5F5F5F5F5F5F5F5F5F5F5F5F5F5F5F5F5F5E9F5F5F5E2F5F5E2F5F5F5E2F5F5F5F5F5F5F5E9F5F5F5F5F5F5F5F5F5F5F5F5F5F5F5F5F5F5F5F5F5F5F5F5F5F5F5F5F5F5F5F5F5F5F5F5F5F5F5F5F5F5F5F5F5F5F5
310
F5F5F5F5F5F5F5F5F5F5F5F5F5F5F5F5F5F5F5F5F5F5F5F5F5F5F5F5F5F5F5F5F5F5F5F5F5F5F5F5F5F5F5F5F5F5F5F5F5F5F5F5F5F5F5F5F5F5F5F5F5F5F5F5F5F5F5F5F5F5F5F5F5F5F5F5F5F5F5F5F5F5F5F5F5F5F5F5F5F5F5F5F5F5F5F5F5F5F5F5F5F5F5F5F5F5F5F5F5F5F5F5F5E9F5F5F5E2F5F5E2F5F5F5E2F5F5
310
F5F5F5F5F5E9F5F5F5F5F5F5F5F5F5F5F5F5F5F5F5F5F5F5F5F5F5F5F5F5F5F5F5F5F5F5F5F5F5F5F5F5F5F5F5F5F5F5F5F5F5F5F5F5F5F5F5F5F5F5F5F5F5F5F5F5F5F5F5F5F5F5F5F5F5F5F5F5F5F5F5F5F5F5F5F5F5F5F5F5F5F5F5F5F5F5F5F5F5F5F5F5F5F5F5F5F5F5F5F5F5F5F5F5F5F5F5F5F5F5F5F5F5F5F5F5F5
310
F5F5F5F5F5F5F5F5F5F5F5F5F5F5F5F5F5F5F5F5F5F5F5F5F5F5F5F5F5F5F5F5F5F5F5F5F5F5F5E9F5F5F5E2F5F5E2F5F5F5E2F5F5F5F5F5F5F5E9F5F5F5F5F5F5F5F5F5F5F5F5F5F5F5F5F5F5F5F5F5F5F5F5F5F5F5F5F5F5F5F5F5F5F5F5F5F5F5F5F5F5F5F5F5F5F5F5F5F5F5F5F5F5F5F5F5F5F5F5F5F5F5F5F5F5F5F5
310
F5F5F5F5F5F5F5F5F5F5F5F5F5F5F5F5F5F5F5F5F5F5F5F5F5F5F5F5F5F5F5F5F5F5F5F5F5F5F5F5F5F5F5F5F5F5F5F5F5F5F5F5F5F5F5F5F5F5F5F5F5F5F5F5F5F5F5F5F5F5F5F5F5F5F5F5F5F5F5F5F5F5F5F5F5F5F5F5F5F5F5F5E9F5F5F5E2F5F5E2F5F5F5E2F5F5F5F5F5F5F5E9F5F5F5F5F5F5F5F5F5F5F5F5F5F5F5
310
F5F5F5F5F5F5F5F5F5F5F5F5F5F5F5F5F5F5F5F5F5F5F5F5F5F5F5F5F5F5F5F5F5F5F5F5F5F5F5F5F5F5F5F5F5F5F5F5F5F5F5F5F5F5F5F5F5F5F5F5F5F5F5F5F5F5F5F5F5F5F5F5F5F5F5F5F5F5F5F5F5F5F5F5F5F5F5F5F5F5F5F5F5F5F5F5F5F5F5F5F5F5F5F5F5F5F5F5F5F5F5F5F5F5F5F5F5F5F5F5F5F5F5F5F5F5F5
310
F5F5F5F5F5F5F5F5F5F5F5F5F5F5F5F5F5F5E9F5F5F5E2F5F5E2F5F5F5E2F5F5F5F5F5F5F5E9F5F5F5F5F5F5F5F5F5F5F5F5F5F5F5F5F5F5F5F5F5F5F5F5F5F5F5F5F5F5F5F5F5F5F5F5F5F5F5F5F5F5F5F5F5F5F5F5F5F5F5F5F5F5F5F5F5F5F5F5F5F5F5F5F5F5F5F5F5F5F5F5F5F5F5F5F5F5F5F5F5F5F5F5F5F5F5F5F5
310
F5F5F5F5F5F5F5F5F5F5F5F5F5F5F5F5F5F5F5F5F5F5F5F5F5F5F5F5F5F5F5F5F5F5F5F5F5F5F5F5F5F5F5F5F5F5F5F5F5F5F5F5F5F5F5F5F5F5F5F5F5F5F5F5F5F5F5F5F5F5F5E9F5F5F5E2F5F5E2F5F5F5E2F5F5F5F5F5F5F5E9F5F5F5F5F5F5F5F5F5F5F5F5F5F5F5F5F5F5F5F5F5F5F5F5F5F5F5F5F5F5F5F5F5F5F5F5
310
F5F5F5F5F5F5F5F5F5F5F5F5F5F5F5F5F5F5F5F5F5F5F5F5F5F5F5F5F5F5F5F5F5F5F5F5F5F5F5F5F5F5F5F5F5F5F5F5F5F5F5F5F5F5F5F5F5F5F5F5F5F5F5F5F5F5F5F5F5F5F5F5F5F5F5F5F5F5F5F5F5F5F5F5F5F5F5F5F5F5F5F5F5F5F5F5F5F5F5F5F5F5F5F5F5F5F5F5F5F5F5F5F5F5F5F5F5F5F5F5F5F5F5F5E9F5F5
310
F5E2F5F5E2F5F5F5E2F5F5F5F5F5F5F5E9F5F5F5F5F5F5F5F5F5F5F5F5F5F5F5F5F5F5F5F5F5F5F5F5F5F5F5F5F5F5F5F5F5F5F5F5F5F5F5F5F5F5F5F5F5F5F5F5F5F5F5F5F5F5F5F5F5F5F5F5F5F5F5F5F5F5F5F5F5F5F5F5F5F5F5F5F5F5F5F5F5F5F5F5F5F5F5F5F5F5F5F5F5F5F5F5F5F5F5F5F5F5F5F5F5F5F5F5F5F5
310
F5F5F5F5F5F5F5F5F5F5F5F5F5F5F5F5F5F5F5F5F5F5F5F5F5F5F5F5F5F5F5F5F5F5F5F5F5F5F5F5F5F5F5F5F5F5F5F5F5F5E9F5F5F5E2F5F5E2F5F5F5F5F5F5F5F5F5F5F5E9F5F5F5F5F5F5F5F5F5F5F5F5F5F5F5F5F5F5F5F5F5F5F5F5F5F5F5F5F5F5F5F5F5F5F5F5F5F5F5F5F5F5F5F5F5F5F5F5F5F5F5F5F5F5F5F5F5
310
F5F5F5F5F5F5F5F5F5F5F5F5F5F5F5F5F5F5F5F5F5F5F5F5F5F5F5F5F5F5F5F5F5F5F5F5F5F5F5F5F5F5F5F5F5F5F5F5F5F5F5F5F5F5F5F5F5F5F5F5F5F5F5F5F5F5F5F5F5F5F5F5F5F5F5F5F5F5F5F5F5F5F5F5F5F5F5F5F5F5F5F5F5F5F5F5F5F5F5F5F5F5F5E9F5F5F5F5F5F5E2F5F5F5F5F5F5F5F5F5F5F5E9F5F5F5F5
310
F5F5F5F5F5F5F5F5F5F5F5F5F5F5F5F5F5F5F5F5F5F5F5F5F5F5F5F5F5F5F5F5F5F5F5F5F5F5F5F5F5F5F5F5F5F5F5F5F5F5F5F5F5F5F5F5F5F5F5F5F5F5F5F5F5F5F5F5F5F5F5F5F5F5F5F5F5F5F5F5F5F5F5F5F5F5F5F5F5F5F5F5F5F5F5F5F5F5F5F5F5F5F5F5F5F5F5F5F5F5F5F5F5F5F5F5F5F5F5F5F5F5F5F5F5F5F5
310
F5F5F5F5F5F5F5F5F5F5F5F5F5F5F5F5F5F5F5F5F5F5F5F5F5F5F5F5F5E9F5F5F5F5F5F5E2F5F5F5F5F5F5F5F5F5F5F5E9F5F5F5F5F5F5F5F5F5F5F5F5F5F5F5F5F5F5F5F5F5F5F5F5F5F5F5F5F5F5F5F5F5F5F5F5F5F5F5F5F5F5F5F5F5F5F5F5F5F5F5F5F5F5F5F5F5F5F5F5F5F5F5F5F5F5F5F5F5F5F5F5F5F5F5F5F5F5
310
F5F5F5F5F5F5F5F5F5F5F5F5F5F5F5F5F5F5F5F5F5F5F5F5F5F5F5F5F5F5F5F5F5F5F5F5F5F5F5F5F5F5F5F5F5F5F5F5F5F5F5F5F5F5F5F5F5F5F5F5F5F5F5F5F5F5F5F5F5F5F5F5F5F5F5F5F5F5F5F5F5F5E9F5F5F5F5F5F5E2F5F5F5F5F5F5F5F5F5F5F5E9F5F5F5F5F5F5F5F5F5F5F5F5F5F5F5F5F5F5F5F5F5F5F5F5F5
310
F5F5F5F5F5F5F5F5F5F5F5F5F5F5F5F5F5F5F5F5F5F5F5F5F5F5F5F5F5F5F5F5F5F5F5F5F5F5F5F5F5F5F5F5F5F5F5F5F5F5F5F5F5F5F5F5F5F5F5F5F5F5F5F5F5F5F5F5F5F5F5F5F5F5F5F5F5F5F5F5F5F5F5F5F5F5F5F5F5F5F5F5F5F5F5F5F5F5F5F5F5F5F5F5F5F5F5F5F5F5F5F5F5F5F5F5F5F5F5F5F5F5F5F5F5F5F5
310
F5F5F5F5F5F5F5F5E9F5F5F5F5F5F5E2F5F5F5F5F5F5F5F5F5F5F5E9F5F5F5F5F5F5F5F5F5F5F5F5F5F5F5F5F5F5F5F5F5F5F5F5F5F5F5F5F5F5F5F5F5F5F5F5F5F5F5F5F5F5F5F5F5F5F5F5F5F5F5F5F5F5F5F5F5F5F5F5F5F5F5F5F5F5F5F5272727272727272727272727272727272727F5F5F5F5F5F5F5F5F5F5F5F5F5
310
F5F5F5F5F5F5F5F5F5F5F5F5F5F5F5F5F5F5F5F5F5F5F5F5F5F5F5F5F5F5F5F5F5F5F5F5F5F5F5F5F5F5F5F5F5F5F5F5F5F5F5F5F5F5F5F5F5F5F5F5F5E9F5F5F5F5F5F5E2F5F5F5F5F5F5F5F5F5F5F5E9F5F5F5F5F5F5F5F5F5F5F5F5F5F5F5F5F5F5F5F5F5F5F5F5F5F5F5F5F5F5F5F5F5F5F5F5F5F5F5F5F5F5F5F5F5F5
310
F5F5F5F5F5F5F5F5F5F5F5F5F5F5F5F5F5F5F5F5F5F5272727272727272727272727272727272727F5F5F5F5F5F5F5F5F5F5F5F5F5F5F5F5F5F5F5F5F5F5F5F5F5F5F5F5F5F5F5F5F5F5F5F5F5F5F5F5F5F5F5F5F5F5F5F5F5F5F5F5F5F5F5F5F5F5F5F5F5F5F5F5F5F5F5F5F5F5F5F5F5F5E9F5F5F5F5F5F5E2F5F5F5F5F5
310
F5F5F5F5F5F5E9F5F5F5F5F5F5F5F5F5F5F5F5F5F5F5F5F5F5F5F5F5F5F5F5F5F5F5F5F5F5F5F5F5F5F5F5F5F5F5F5F5F5F5F5F5F5F5F5F5F5F5F5F5F5F5F5F5F5F5F5F5F5F5F5F5F5F5F5F5F5F5F5F5F5F5F5F5F5F5F5F5F5F5F5F5F5F5F5F5F5F5F5F5F5F5F5F5F5F5F5F5F5F5F5F5F5F5F5F5F5F5F5F5F5F5F5F5F5F5F5
310
F5F5F5F5F5F5F5F5F5F5F5F5F5F5F5F5F5F5F5F5F5F5F5F5F5F5F5F5F5F5F5F5F5F5F5F5F5F5F5F5E9F5F5F5F5F5F5E2F5F5F5F5F5F5F5F5F5F5F5E9F5F5F5F5F5F5F5F5F5F5F5F5F5F5F5F5F5F5F5F5F5F5F5F5F5F5F5F5F5F5F5F5F5F5F5F5F5F5F5F5F5F5F5F5F5F5F5F5F5F5F5F5F5F5F5F5F5F5F5F5F5F5F5F5F5F5F5
310
F5F5F5F5F5F5F5F5F5F5F5F5F5F5F5F5F5F5F5F5F5F5F5F5F5F5F5F5F5F5F5F5F5F5F5F5F5F5F5F5F5F5F5F5F5F5F5F5F5F5F5F5F5F5F5F5F5F5F5F5F5F5F5F5F5F5F5F5F5F5F5F5F5F5F5F5F5F5F5F5F5F5F5F5F5F5F5F5F5F5F5F5F5E9F5F5F5F5F5F5E2F5F5F5F5F5F5F5F5F5F5F5E9F5F5F5F5F5F5F5F5F5F5F5F5F5F5
310
F5F5F5F5F5F5F5F5F5F5F5F5F5F5F5F5F5F5F5F5F5F5F5F5F5F5F5F5F5F5F5F5F5F5F5F5F5F5F5F5F5F5F5F5F5F5F5F5F5F5F5F5F52727272727272727272727272727272727F5F5F5F5F5F5F5F5F5F5F5F5F5F5F5F5F5F5F5F5F5F5F5F5F5F5F5F5F5F5F5F5F5F5F5F5F5F5F5F5F5F5F5F5F5F5F5F5F5F5F5F5F5F5F5F5F5
310
F5F5F5F5F5F5F5F5F5F5F5F5F5F5F5F5F5F5F5E9F5F5F5F5F5F5E2F5F5F5E2F5F5F5F5F5F5F5E9F5F5F5F5F5F5F5F5F5F5F5F5F5F5F5F5F5F5F5F5F5F5F5F5F5F5F5F5F5F5F5F5F5F5F5F5F5F5F5F5F5F5F5F5F5F5F5F5F5F5F5F5F5F5F5F5F5F5F5F5F5F5F5F5F5F5F52727272727272727272727272727272727F5F5F5F5
310
F5F5F5F5F5F5F5F5F5F5F5F5F5F5F5F5F5F5F5F5F5F5F5F5F5F5F5F5F5F5F5F5F5F5F5F5F5F5F5F5F5F5F5F5F5F5F5F5F5F5F5F5F5F5F5F5F5F5F5F5F5F5F5F5F5F5F5F5F5F5F5F5E9F5F5F5E2F5F5E2F5F5F5E2F5F5F5F5F5F5F5E9F5F5F5F5F5F5F5F5F5F5F5F5F5F5F5F5F5F5F5F5F5F5F5F5F5F5F5F5F5F5F5F5F5F5F5
310
F5F5F5F5F5F5F5F5F5F5F5F5F5F5F5F5F5F5F5F5F5F5F5F5F5F5F5F5F5F5F5F52727272727272727272727272727272727F5F5F5F5F5F5F5F5F5F5F5F5F5F5F5F5F5F5F5F5F5F5F5F5F5F5F5F5F5F5F5F5F5F5F5F5F5F5F5F5F5F5F5F5F5F5F5F5F5F5F5F5F5F5F5F5F5F5F5F5F5F5F5F5F5F5F5F5F5F5F5F5F5F5F5F5E9F5
310
F5F5E2F5F5E2F5F5F5E2F5F5F5F5F5F5F5E9F5F5F5F5F5F5F5F5F5F5F5F5F5F5F5F5F5F5F5F5F5F5F5F5F5F5F5F5F5F5F5F5F5F5F5F5F5F5F5F5F5F5F5F5F5F5F5F5F5F5F5F5F5F5F5F5F5F5F5F5F5F5F5F5F5F5F52727272727272727272727272727272727F5F5F5F5F5F5F5F5F5F5F5F5F5F5F5F5F5F5F5F5F5F5F5F5F5
310
F5F5F5F5F5F5F5F5F5F5F5F5F5F5F5F5F5F5F5F5F5F5F5F5F5F5F5F5F5F5F5F5F5F5F5F5F5F5F5F5F5F5F5F5F5F5F5F5F5F5F5E9F5F5F5E2F5F5E2F5F5F5E2F5F5F5F5F5F5F5E9E9E9E9E9E9E9E9E9E9E9E9E9E9E9E9E9E9E9E9E9E9E9E9E9E9E9E9E9E9E9E9E9E9E9E9E9E9E9E9E9E9E9E9E9E9E9E9E9E9E9E9E9E9E9E9E9
310
E9E9E9E9E9E9E9E9E9E9E9E9E9E9E9E9E9E9E9E9E9E9E9E9E9E9E9E9E9E9E9E9E9E9E9E9E9E9E9E9E9E9E9E9E9E9E9E9E9E9E9E9E9E9E9E9E9E9E9E9E9E9E9E9E9E9E9E9E9E9E9E9E9E9E9E9E9E9E9E9E9E9E9E9E9E9E9E9E9E9E9E9E9E9E9E9E9E9E9E9E9E9E9E9E9F5F5F5E2F5F5E2F5F5F5E2F5F5F5F5F5F5F5F5F5F5F5
310
F5F5F5F5F5F5F5F5F5F5F5F5F5F5F5F5F5F5F5F5F5F5F5F5F5F5F5F5F5F5F5F5F5F5F5F5F5F5F5F5F5F5F5F5F5F5F5F5F5F5F5F5F5F5F5F5F5F5F5F5F5F5F5F5F5F5F5F5F5F5F5F5F5F5F5F5F5F5F5F5F5F5F5F5F5F5F5F5F5F5F5F5F5F5F5F5F5F5F5F5F5F5F5F5F5F5F5F5F5F5F5F5F5F5F5F5F5F5F5F5F5F5F5F5F5F5F5
310
F5F5F5F5F5F5F5F5F5F5F5F5F5F5F5F5F5F5F5F5F5F5F5F5F5F5F5F5F5F5F5F5F5F5E2F5F5E2F5F5F5E2F5F5F5F5F5F5F5F5F5F5F5F5F5F5F5F5F5F5F5F5F5F5F5F5F5F5F5F5F5F5F5F5F5F5F5F5F5F5F5F5F5F5F5F5F5F5F5F5F5F5F5F5F5F5F5F5F5F5F5F5F5F5F5F5F5F5F5F5F5F5F5F5F5F5F5F5F5F5F5F5F5F5F5F5F5
310
F5F5F5F5F5F5F5F5F5F5F5F5F5F5F5F5F5F5F5F5F5F5F5F5F5F5F5F5F5F5F5F5F5F5F5F5F5F5F5F5F5F5F5F5F5F5F5F5F5F5F5F5F5F5F5F5F5F5F5F5F5F5F5F5F5F5F5F5F5F5F5F5F5F5F5F5F5F5F5F5F5F5F5F5F5F5F5E2F5F5E2F5F5F5E2F5F5F5F5F5F5F5F5F5F5F5F5F5F5F5F5F5F5F5F5F5F5F5F5F5F5F5F5F5F5F5F5
310
F5F5F5F5F5F5F5F5F5F5F5F5F5F5F5F5F5F5F5F5F5F5F5F5F5F5F5F5F5F5F5F5F5F5F5F5F5F5F5F5F5F5F5F5F5F5F5F5F5F5F5F5F5F5F5F5F5F5F5F5F5F5F5F5F5F5F5F5F5F5F5F5F5F5F5F5F5F5F5F5F5F5F5F5F5F5F5F5F5F5F5F5F5F5F5F5F5F5F5F5F5F5F5F5F5F5F5F5F5F5F5F5F5F5F5F5F5F5F5F5F5F5F5F5F5F5F5
310
F5F5F5F5F5F5F5F5F5F5F5F5F5E2F5F5E2F5F5F5E2E2E2E2E2E2E2E2F5F5F5F5F5F5F5F5F5E2E2E2E2E2E2E2E2E2E2E2E2E2E2E2E2F5F5F5F5F5F5F5F5F5E2E2E2E2E2E2E2E2E2E2E2E2E2E2E2E2F5F5F5F5F5F5F5F5F5E2E2E2E2E2E2E2E2E2E2E2E2E2E2E2E2F5F5F5F5F5F5F5F5E2E2E2E2E2E2E2E2E2E2E2E2E2E2E2E2
310
F5F5F5F5F5F5F5F5F5E2E2E2E2E2E2E2E2E2E2E2E2E2E2E2E2F5F5F5F5F5F5F5F5F5E2E2E2E2E2E2E2E2E2E2E2E2E2E2E2E2F5F5F5F5F5F5F5F5F5E2E2E2E2E2E2E2E2F5F5E2F5F5F5F5F5F5F5F5F5F5F5F5F5F5F5F5F5F5F5F5F5F5F5F5F5F5F5F5F5F5F5F5F5F5F5F5F5F5F5F5F5F5F5F5F5F5F5F5F5F5F5F5F5F5F5F5F5
310
F5F5F5F5F5F5F5F5F5F5F5F5F5F5F5F5F5F5F5F5F5F5F5F5F5F5F5F5F5F5F5F5F5F5F5F5F5F5F5F5F5F5F5F5F5F5F5F5F5F5F5F5F5F5F5F5F5F5F5F5F5F5F5F5F5F5F5F5F5F5F5F5F5F5F5F5F5F5F5F5F5F5F5F5F5F5F5F5F5F5F5F5F5F5F5F5F5F5F5F5F5F5F5F5F5F5F5F5F5F5F5F5F5F5F5F5F5F5F5F5F5F5E2F5F5F5F5
310
F5F5F5F5F5F5F5F5F5F5F5F5F5F5F5F5F5F5F5F5F5F5F5F5F5F5F5F5F5F5F5F5F5F5F5F5F5F5F5F5F5F5F5F5F5F5F5F5F5F5F5F5F5F5F5F5F5F5F5F5F5F5F5F5F5F5F5F5F5F5F5F5F5F5F5F5F5F5F5F5F5F5F5F5F5F5F5F5F5F5F5F5F5F5F5F5F5F5F5F5F5F5F5F5F5F5F5F5F5F5F5F5F5F5F5F5F5F5F5F5F5F5F5F5F5F5F5
310
F5F5F5F5F5F5F5F5F5F5F5F5F5F5F5F5F5F5F5F5F5F5F5F5F5F5F5F5F5F5F5F5F5F5F5F5F5F5F5F5F5F5F5F5F5F5F5F5E2F5F5F5F5F5F5F5F5F5F5F5F5F5F5F5F5F5F5F5F5F5F5F5F5F5F5F5F5F5F5F5F5F5F5F5F5F5F5F5F5F5F5F5F5F5F5F5F5F5F5F5F5F5F5F5F5F5F5F5F5F5F5F5F5F5F5F5F5F5F5F5F5F5F5F5F5F5F5
310
F5F5F5F5F5F5F5F5F5F5F5F5F5F5F5F5F5F5F5F5F5F5F5F5F5F5F5F5F5F5F5F5F5F5F5F5F5F5F5F5F5F5F5F5F5F5F5F5F5F5F5F5F5F5F5F5F5F5F5F5F5F5F5F5F5F5F5F5F5F5F5F5F5F5F5F5F5F5F5F5F5F5F5F5F5F5F5F5F5F5F5F5F5F5F5F5F5F5F5F5F5E2E2E2E2E2E2E2E2E2E2E2E2E2E2E2E2E2E2E2E2E2E2E2E2E2E2
310
E2E2E2E2E2E2E2E2E2E2E2E2E2E2E2E2E2E2E2E2E2E2E2E2E2E2E2E2E2E2E2E2E2E2E2E2E2E2E2E2E2E2E2E2E2E2E2E2E2E2E2E2E2E2E2E2E2E2E2E2E2E2E2E2E2E2E2E2E2E2E2E2E2E2E2E2E2E2E2E2E2E2E2E2E2E2E2E2E2E2E2E2E2E2E2E2E2E2E2E2E2E2E2E2E2E2E2E2E2E2E2E2E2E2E2E2E2E2E2E2E2E2E2E2E2E2E2
310
E2E2E2E2E2E2E2E2E2E2E2E2E2E2E2E2E2E2E2E2E2E2E2E2E2E2E2
  0
XRECORD
  5
294
102
{ACAD_REACTORS
330
293
102
}
330
293
100
AcDbXrecord
280
     1
102
SHADEPLOT
 70
     1
102
SHADEPLOTRESLEVEL
 70
     2
102
SHADEPLOTCUSTOMDPI
 70
   300
  0
XRECORD
  5
299
102
{ACAD_REACTORS
330
298
102
}
330
298
100
AcDbXrecord
280
     1
102
MATERIAL
148
0.0
149
0.0
149
0.0
 93
        0
 94
       63
282
     0
 72
     1
 77
     1
171
     1
175
     1
179
     1
273
     0
  0
XRECORD
  5
297
102
{ACAD_REACTORS
330
296
102
}
330
296
100
AcDbXrecord
280
     1
102
MATERIAL
148
0.0
149
0.0
149
0.0
 93
        0
 94
       63
282
     0
 72
     1
 77
     1
171
     1
175
     1
179
     1
273
     0
  0
XRECORD
  5
28E
102
{ACAD_REACTORS
330
28D
102
}
330
28D
100
AcDbXrecord
280
     1
102
MATERIAL
148
0.0
149
0.0
149
0.0
 93
        0
 94
       63
282
     0
 72
     1
 77
     1
171
     1
175
     1
179
     1
273
     0
  0
CELLSTYLEMAP
  5
28A
102
{ACAD_REACTORS
330
1F4
102
}
330
1F4
100
AcDbCellStyleMap
 90
        3
300
CELLSTYLE
  1
TABLEFORMAT_BEGIN
 90
        5
170
     1
 91
        0
 92
    32768
 62
   257
 93
        1
300
CONTENTFORMAT
  1
CONTENTFORMAT_BEGIN
 90
        0
 91
        0
 92
      512
 93
        0
300

 40
0.0
140
1.0
 94
        5
 62
     0
340
1D0
144
6.0
309
CONTENTFORMAT_END
171
     1
301
MARGIN
  1
CELLMARGIN_BEGIN
 40
1.5
 40
1.5
 40
1.5
 40
1.5
 40
0.18
 40
0.18
309
CELLMARGIN_END
 94
        6
 95
        1
302
GRIDFORMAT
  1
GRIDFORMAT_BEGIN
 90
        0
 91
        1
 62
     0
 92
       -2
340
0
 93
        0
 40
0.045
309
GRIDFORMAT_END
 95
        2
302
GRIDFORMAT
  1
GRIDFORMAT_BEGIN
 90
        0
 91
        1
 62
     0
 92
       -2
340
0
 93
        0
 40
0.045
309
GRIDFORMAT_END
 95
        4
302
GRIDFORMAT
  1
GRIDFORMAT_BEGIN
 90
        0
 91
        1
 62
     0
 92
       -2
340
0
 93
        0
 40
0.045
309
GRIDFORMAT_END
 95
        8
302
GRIDFORMAT
  1
GRIDFORMAT_BEGIN
 90
        0
 91
        1
 62
     0
 92
       -2
340
0
 93
        0
 40
0.045
309
GRIDFORMAT_END
 95
       16
302
GRIDFORMAT
  1
GRIDFORMAT_BEGIN
 90
        0
 91
        1
 62
     0
 92
       -2
340
0
 93
        0
 40
0.045
309
GRIDFORMAT_END
 95
       32
302
GRIDFORMAT
  1
GRIDFORMAT_BEGIN
 90
        0
 91
        1
 62
     0
 92
       -2
340
0
 93
        0
 40
0.045
309
GRIDFORMAT_END
309
TABLEFORMAT_END
  1
CELLSTYLE_BEGIN
 90
        1
 91
        1
300
_TITLE
309
CELLSTYLE_END
300
CELLSTYLE
  1
TABLEFORMAT_BEGIN
 90
        5
170
     1
 91
        0
 92
        0
 62
   257
 93
        1
300
CONTENTFORMAT
  1
CONTENTFORMAT_BEGIN
 90
        0
 91
        0
 92
      512
 93
        0
300

 40
0.0
140
1.0
 94
        5
 62
     0
340
1D0
144
4.5
309
CONTENTFORMAT_END
171
     1
301
MARGIN
  1
CELLMARGIN_BEGIN
 40
1.5
 40
1.5
 40
1.5
 40
1.5
 40
0.18
 40
0.18
309
CELLMARGIN_END
 94
        6
 95
        1
302
GRIDFORMAT
  1
GRIDFORMAT_BEGIN
 90
        0
 91
        1
 62
     0
 92
       -2
340
0
 93
        0
 40
0.045
309
GRIDFORMAT_END
 95
        2
302
GRIDFORMAT
  1
GRIDFORMAT_BEGIN
 90
        0
 91
        1
 62
     0
 92
       -2
340
0
 93
        0
 40
0.045
309
GRIDFORMAT_END
 95
        4
302
GRIDFORMAT
  1
GRIDFORMAT_BEGIN
 90
        0
 91
        1
 62
     0
 92
       -2
340
0
 93
        0
 40
0.045
309
GRIDFORMAT_END
 95
        8
302
GRIDFORMAT
  1
GRIDFORMAT_BEGIN
 90
        0
 91
        1
 62
     0
 92
       -2
340
0
 93
        0
 40
0.045
309
GRIDFORMAT_END
 95
       16
302
GRIDFORMAT
  1
GRIDFORMAT_BEGIN
 90
        0
 91
        1
 62
     0
 92
       -2
340
0
 93
        0
 40
0.045
309
GRIDFORMAT_END
 95
       32
302
GRIDFORMAT
  1
GRIDFORMAT_BEGIN
 90
        0
 91
        1
 62
     0
 92
       -2
340
0
 93
        0
 40
0.045
309
GRIDFORMAT_END
309
TABLEFORMAT_END
  1
CELLSTYLE_BEGIN
 90
        2
 91
        1
300
_HEADER
309
CELLSTYLE_END
300
CELLSTYLE
  1
TABLEFORMAT_BEGIN
 90
        5
170
     1
 91
        0
 92
        0
 62
   257
 93
        1
300
CONTENTFORMAT
  1
CONTENTFORMAT_BEGIN
 90
        0
 91
        0
 92
      512
 93
        0
300

 40
0.0
140
1.0
 94
        2
 62
     0
340
1D0
144
4.5
309
CONTENTFORMAT_END
171
     1
301
MARGIN
  1
CELLMARGIN_BEGIN
 40
1.5
 40
1.5
 40
1.5
 40
1.5
 40
0.18
 40
0.18
309
CELLMARGIN_END
 94
        6
 95
        1
302
GRIDFORMAT
  1
GRIDFORMAT_BEGIN
 90
        0
 91
        1
 62
     0
 92
       -2
340
0
 93
        0
 40
0.045
309
GRIDFORMAT_END
 95
        2
302
GRIDFORMAT
  1
GRIDFORMAT_BEGIN
 90
        0
 91
        1
 62
     0
 92
       -2
340
0
 93
        0
 40
0.045
309
GRIDFORMAT_END
 95
        4
302
GRIDFORMAT
  1
GRIDFORMAT_BEGIN
 90
        0
 91
        1
 62
     0
 92
       -2
340
0
 93
        0
 40
0.045
309
GRIDFORMAT_END
 95
        8
302
GRIDFORMAT
  1
GRIDFORMAT_BEGIN
 90
        0
 91
        1
 62
     0
 92
       -2
340
0
 93
        0
 40
0.045
309
GRIDFORMAT_END
 95
       16
302
GRIDFORMAT
  1
GRIDFORMAT_BEGIN
 90
        0
 91
        1
 62
     0
 92
       -2
340
0
 93
        0
 40
0.045
309
GRIDFORMAT_END
 95
       32
302
GRIDFORMAT
  1
GRIDFORMAT_BEGIN
 90
        0
 91
        1
 62
     0
 92
       -2
340
0
 93
        0
 40
0.045
309
GRIDFORMAT_END
309
TABLEFORMAT_END
  1
CELLSTYLE_BEGIN
 90
        3
 91
        2
300
_DATA
309
CELLSTYLE_END
  0
XRECORD
  5
29A
102
{ACAD_REACTORS
330
1F4
102
}
330
1F4
100
AcDbXrecord
280
     1
102
ACAD_ROUNDTRIP_PRE2007_TABLESTYLE
 90
      512
 91
        0
  1

 92
      512
 93
        0
  2

 94
      512
 95
        0
  3

  0
ENDSEC
  0
EOF
