  0
SECTION
  2
HEADER
  9
$ACADVER
  1
AC1015
  9
$ACADMAINTVER
 70
    20
  9
$DWGCODEPAGE
  3
ANSI_1250
  9
$INSBASE
 10
9677.351579171606
 20
1189.596440029025
 30
0.0000000000031697
  9
$EXTMIN
 10
66712.51425469166
 20
-12830.83167067901
 30
-0.0015258207003583
  9
$EXTMAX
 10
76918.05100066567
 20
1190.024042212615
 30
0.0000000349246037
  9
$LIMMIN
 10
0.0
 20
0.0
  9
$LIMMAX
 10
12.0
 20
9.0
  9
$ORTHOMODE
 70
     1
  9
$REGENMODE
 70
     1
  9
$FILLMODE
 70
     1
  9
$QTEXTMODE
 70
     0
  9
$MIRRTEXT
 70
     0
  9
$LTSCALE
 40
75.0
  9
$ATTMODE
 70
     1
  9
$TEXTSIZE
 40
0.2
  9
$TRACEWID
 40
40.0
  9
$TEXTSTYLE
  7
STANDARD
  9
$CLAYER
  8
0Wymiary-PL
  9
$CELTYPE
  6
BYLAYER
  9
$CECOLOR
 62
   256
  9
$CELTSCALE
 40
4.0
  9
$DISPSILH
 70
     0
  9
$DIMSCALE
 40
1.0
  9
$DIMASZ
 40
30.0
  9
$DIMEXO
 40
43.0
  9
$DIMDLI
 40
0.0
  9
$DIMRND
 40
0.5
  9
$DIMDLE
 40
12.0
  9
$DIMEXE
 40
13.0
  9
$DIMTP
 40
0.0
  9
$DIMTM
 40
0.0
  9
$DIMTXT
 40
80.0
  9
$DIMCEN
 40
0.0
  9
$DIMTSZ
 40
0.0
  9
$DIMTOL
 70
     0
  9
$DIMLIM
 70
     0
  9
$DIMTIH
 70
     0
  9
$DIMTOH
 70
     0
  9
$DIMSE1
 70
     1
  9
$DIMSE2
 70
     1
  9
$DIMTAD
 70
     0
  9
$DIMZIN
 70
    12
  9
$DIMBLK
  1
B-DIM
  9
$DIMASO
 70
     1
  9
$DIMSHO
 70
     1
  9
$DIMPOST
  1

  9
$DIMAPOST
  1

  9
$DIMALT
 70
     0
  9
$DIMALTD
 70
     2
  9
$DIMALTF
 40
25.4
  9
$DIMLFAC
 40
1.0
  9
$DIMTOFL
 70
     1
  9
$DIMTVP
 40
1.0
  9
$DIMTIX
 70
     1
  9
$DIMSOXD
 70
     0
  9
$DIMSAH
 70
     0
  9
$DIMBLK1
  1

  9
$DIMBLK2
  1

  9
$DIMSTYLE
  2
500
  9
$DIMCLRD
 70
     1
  9
$DIMCLRE
 70
     1
  9
$DIMCLRT
 70
   140
  9
$DIMTFAC
 40
1.0
  9
$DIMGAP
 40
0.0
  9
$DIMJUST
 70
     0
  9
$DIMSD1
 70
     0
  9
$DIMSD2
 70
     0
  9
$DIMTOLJ
 70
     1
  9
$DIMTZIN
 70
     0
  9
$DIMALTZ
 70
     0
  9
$DIMALTTZ
 70
     0
  9
$DIMUPT
 70
     0
  9
$DIMDEC
 70
     1
  9
$DIMTDEC
 70
     1
  9
$DIMALTU
 70
     2
  9
$DIMALTTD
 70
     2
  9
$DIMTXSTY
  7
ROMANS
  9
$DIMAUNIT
 70
     0
  9
$DIMADEC
 70
     0
  9
$DIMALTRND
 40
0.0
  9
$DIMAZIN
 70
     0
  9
$DIMDSEP
 70
    46
  9
$DIMATFIT
 70
     3
  9
$DIMFRAC
 70
     0
  9
$DIMLDRBLK
  1
B-DIM
  9
$DIMLUNIT
 70
     2
  9
$DIMLWD
 70
    -2
  9
$DIMLWE
 70
    -2
  9
$DIMTMOVE
 70
     2
  9
$LUNITS
 70
     2
  9
$LUPREC
 70
     2
  9
$SKETCHINC
 40
0.1
  9
$FILLETRAD
 40
0.0
  9
$AUNITS
 70
     0
  9
$AUPREC
 70
     1
  9
$MENU
  1
acad
  9
$ELEVATION
 40
0.0
  9
$PELEVATION
 40
0.0
  9
$THICKNESS
 40
0.0
  9
$LIMCHECK
 70
     0
  9
$CHAMFERA
 40
30.0
  9
$CHAMFERB
 40
30.0
  9
$CHAMFERC
 40
0.0
  9
$CHAMFERD
 40
0.0
  9
$SKPOLY
 70
     0
  9
$TDCREATE
 40
2450817.525937848
  9
$TDUCREATE
 40
2450817.442604514
  9
$TDUPDATE
 40
2454967.514850799
  9
$TDUUPDATE
 40
2454967.431517466
  9
$TDINDWG
 40
21.7433410069
  9
$TDUSRTIMER
 40
21.7433410069
  9
$USRTIMER
 70
     1
  9
$ANGBASE
 50
0.0
  9
$ANGDIR
 70
     0
  9
$PDMODE
 70
     3
  9
$PDSIZE
 40
10.0
  9
$PLINEWID
 40
60.0
  9
$SPLFRAME
 70
     0
  9
$SPLINETYPE
 70
     6
  9
$SPLINESEGS
 70
     8
  9
$HANDSEED
  5
218A
  9
$SURFTAB1
 70
     6
  9
$SURFTAB2
 70
     6
  9
$SURFTYPE
 70
     6
  9
$SURFU
 70
     6
  9
$SURFV
 70
     6
  9
$UCSBASE
  2

  9
$UCSNAME
  2

  9
$UCSORG
 10
0.0
 20
0.0
 30
0.0
  9
$UCSXDIR
 10
1.0
 20
0.0
 30
0.0
  9
$UCSYDIR
 10
0.0
 20
1.0
 30
0.0
  9
$UCSORTHOREF
  2

  9
$UCSORTHOVIEW
 70
     0
  9
$UCSORGTOP
 10
0.0
 20
0.0
 30
0.0
  9
$UCSORGBOTTOM
 10
0.0
 20
0.0
 30
0.0
  9
$UCSORGLEFT
 10
0.0
 20
0.0
 30
0.0
  9
$UCSORGRIGHT
 10
0.0
 20
0.0
 30
0.0
  9
$UCSORGFRONT
 10
0.0
 20
0.0
 30
0.0
  9
$UCSORGBACK
 10
0.0
 20
0.0
 30
0.0
  9
$PUCSBASE
  2

  9
$PUCSNAME
  2

  9
$PUCSORG
 10
0.0
 20
0.0
 30
0.0
  9
$PUCSXDIR
 10
1.0
 20
0.0
 30
0.0
  9
$PUCSYDIR
 10
0.0
 20
1.0
 30
0.0
  9
$PUCSORTHOREF
  2

  9
$PUCSORTHOVIEW
 70
     0
  9
$PUCSORGTOP
 10
0.0
 20
0.0
 30
0.0
  9
$PUCSORGBOTTOM
 10
0.0
 20
0.0
 30
0.0
  9
$PUCSORGLEFT
 10
0.0
 20
0.0
 30
0.0
  9
$PUCSORGRIGHT
 10
0.0
 20
0.0
 30
0.0
  9
$PUCSORGFRONT
 10
0.0
 20
0.0
 30
0.0
  9
$PUCSORGBACK
 10
0.0
 20
0.0
 30
0.0
  9
$USERI1
 70
     0
  9
$USERI2
 70
     0
  9
$USERI3
 70
     0
  9
$USERI4
 70
     0
  9
$USERI5
 70
     0
  9
$USERR1
 40
0.0
  9
$USERR2
 40
0.0
  9
$USERR3
 40
0.0
  9
$USERR4
 40
0.0
  9
$USERR5
 40
0.0
  9
$WORLDVIEW
 70
     1
  9
$SHADEDGE
 70
     3
  9
$SHADEDIF
 70
    70
  9
$TILEMODE
 70
     1
  9
$MAXACTVP
 70
    16
  9
$PINSBASE
 10
0.0
 20
0.0
 30
0.0
  9
$PLIMCHECK
 70
     0
  9
$PEXTMIN
 10
0.0
 20
0.0
 30
0.0
  9
$PEXTMAX
 10
0.0
 20
0.0
 30
0.0
  9
$PLIMMIN
 10
0.0
 20
0.0
  9
$PLIMMAX
 10
12.0
 20
9.0
  9
$UNITMODE
 70
     0
  9
$VISRETAIN
 70
     0
  9
$PLINEGEN
 70
     0
  9
$PSLTSCALE
 70
     1
  9
$TREEDEPTH
 70
  3020
  9
$CMLSTYLE
  2
STANDARD
  9
$CMLJUST
 70
     0
  9
$CMLSCALE
 40
1.0
  9
$PROXYGRAPHICS
 70
     1
  9
$MEASUREMENT
 70
     0
  9
$CELWEIGHT
370
    -1
  9
$ENDCAPS
280
     0
  9
$JOINSTYLE
280
     0
  9
$LWDISPLAY
290
     0
  9
$INSUNITS
 70
     0
  9
$HYPERLINKBASE
  1

  9
$STYLESHEET
  1
monochrome_140.ctb
  9
$XEDIT
290
     1
  9
$CEPSNTYPE
380
     0
  9
$PSTYLEMODE
290
     1
  9
$FINGERPRINTGUID
  2
{2D5E65A9-1F91-4A53-BA94-481E1C74241D}
  9
$VERSIONGUID
  2
{C43DFBB7-2C24-4F00-81EA-75868750677F}
  9
$EXTNAMES
290
     1
  9
$PSVPSCALE
 40
0.0
  9
$OLESTARTUP
290
     0
  0
ENDSEC
  0
SECTION
  2
CLASSES
  0
CLASS
  1
DICTIONARYVAR
  2
AcDbDictionaryVar
  3
ObjectDBX Classes
 90
        0
280
     0
281
     0
  0
CLASS
  1
ACDBDICTIONARYWDFLT
  2
AcDbDictionaryWithDefault
  3
ObjectDBX Classes
 90
        0
280
     0
281
     0
  0
CLASS
  1
ACDBPLACEHOLDER
  2
AcDbPlaceHolder
  3
ObjectDBX Classes
 90
        0
280
     0
281
     0
  0
CLASS
  1
LAYOUT
  2
AcDbLayout
  3
ObjectDBX Classes
 90
        0
280
     0
281
     0
  0
CLASS
  1
AEC_VARS_DWG_SETUP
  2
AecDbVarsDwgSetup
  3
AecBase50|Product Desc: Autodesk Architectural Desktop 2007 |Company: Autodesk,Inc. |WEB Address: www.autodesk.com
 90
    32897
280
     0
281
     0
  0
CLASS
  1
AEC_DISP_REP_CONFIG
  2
AecDbDispRepConfig
  3
AecBase50|Product Desc: Autodesk Architectural Desktop 2007 |Company: Autodesk,Inc. |WEB Address: www.autodesk.com
 90
    32897
280
     0
281
     0
  0
CLASS
  1
AEC_DISP_REP_SET
  2
AecDbDispRepSet
  3
AecBase50|Product Desc: Autodesk Architectural Desktop 2007 |Company: Autodesk,Inc. |WEB Address: www.autodesk.com
 90
    32897
280
     0
281
     0
  0
CLASS
  1
AEC_DISP_REP_2D_SECTION
  2
AecDbDispRep2dSection
  3
AecBase50|Product Desc: Autodesk Architectural Desktop 2007 |Company: Autodesk,Inc. |WEB Address: www.autodesk.com
 90
    32897
280
     0
281
     0
  0
CLASS
  1
AEC_DISP_REP_ANCHOR_BUB_TO_GRID
  2
AecDbDispRepAnchorBubToGrid
  3
AecStructureBase50|Product Desc: Autodesk Architectural Desktop 2007 |Company: Autodesk,Inc. |WEB Address: www.autodesk.com
 90
    32897
280
     0
281
     0
  0
CLASS
  1
AEC_DISP_REP_ANCHOR_BUB_TO_GRID_MODEL
  2
AecDbDispRepAnchorBubToGridMdl
  3
AecStructureBase50|Product Desc: Autodesk Architectural Desktop 2007 |Company: Autodesk,Inc. |WEB Address: www.autodesk.com
 90
    32897
280
     0
281
     0
  0
CLASS
  1
AEC_DISP_REP_ANCHOR_ENT_TO_NODE
  2
AecDbDispRepAnchorEntToNode
  3
AecBase50|Product Desc: Autodesk Architectural Desktop 2007 |Company: Autodesk,Inc. |WEB Address: www.autodesk.com
 90
    32897
280
     0
281
     0
  0
CLASS
  1
AEC_DISP_REP_ANCHOR_TAG_TO_ENT
  2
AecDbDispRepAnchorTagToEnt
  3
AecScheduleData50|Product Desc: Autodesk Architectural Desktop 2007 |Company: Autodesk,Inc. |WEB Address: www.autodesk.com
 90
    32897
280
     0
281
     0
  0
CLASS
  1
AEC_DISP_REP_AREA
  2
AecDbDispRepArea
  3
AecAreaCalculationBase50|Product Desc: Autodesk Architectural Desktop 2007 |Company: Autodesk,Inc. |WEB Address: www.autodesk.com
 90
    32897
280
     0
281
     0
  0
CLASS
  1
AEC_DISP_REP_AREA_DECOMPOSED
  2
AecDbDispRepAreaDecomposed
  3
AecAreaCalculationBase50|Product Desc: Autodesk Architectural Desktop 2007 |Company: Autodesk,Inc. |WEB Address: www.autodesk.com
 90
    32897
280
     0
281
     0
  0
CLASS
  1
AEC_DISP_REP_AREAGROUP
  2
AecDbDispRepAreaGroup
  3
AecAreaCalculationBase50|Product Desc: Autodesk Architectural Desktop 2007 |Company: Autodesk,Inc. |WEB Address: www.autodesk.com
 90
    32897
280
     0
281
     0
  0
CLASS
  1
AEC_DISP_REP_BDG_ELEVLINE_MODEL
  2
AecDbDispRepBdgElevLineModel
  3
AecArchBase50|Product Desc: Autodesk Architectural Desktop 2007 |Company: Autodesk,Inc. |WEB Address: www.autodesk.com
 90
    32897
280
     0
281
     0
  0
CLASS
  1
AEC_DISP_REP_BDG_SECTIONLINE_PLAN
  2
AecDbDispRepBdgElevLinePlan
  3
AecArchBase50|Product Desc: Autodesk Architectural Desktop 2007 |Company: Autodesk,Inc. |WEB Address: www.autodesk.com
 90
    32897
280
     0
281
     0
  0
CLASS
  1
AEC_DISP_REP_BDG_SECTIONLINE_MODEL
  2
AecDbDispRepBdgSectionLineModel
  3
AecArchBase50|Product Desc: Autodesk Architectural Desktop 2007 |Company: Autodesk,Inc. |WEB Address: www.autodesk.com
 90
    32897
280
     0
281
     0
  0
CLASS
  1
AEC_DISP_REP_BDG_SECTIONLINE_PLAN
  2
AecDbDispRepBdgSectionLinePlan
  3
AecArchBase50|Product Desc: Autodesk Architectural Desktop 2007 |Company: Autodesk,Inc. |WEB Address: www.autodesk.com
 90
    32897
280
     0
281
     0
  0
CLASS
  1
AEC_DISP_REP_BDG_SECTION_SUBDIV
  2
AecDbDispRepBdgSectionSubDiv
  3
AecArchBase50|Product Desc: Autodesk Architectural Desktop 2007 |Company: Autodesk,Inc. |WEB Address: www.autodesk.com
 90
    32897
280
     0
281
     0
  0
CLASS
  1
AEC_DISP_REP_CAMERA
  2
AecDbDispRepCamera
  3
AecBase50|Product Desc: Autodesk Architectural Desktop 2007 |Company: Autodesk,Inc. |WEB Address: www.autodesk.com
 90
    32897
280
     0
281
     0
  0
CLASS
  1
AEC_DISP_REP_CEILING_GRID
  2
AecDbDispRepCeilingGrid
  3
AecArchBase50|Product Desc: Autodesk Architectural Desktop 2007 |Company: Autodesk,Inc. |WEB Address: www.autodesk.com
 90
    33661
280
     0
281
     0
  0
CLASS
  1
AEC_DISP_REP_CEILING_GRID_MODEL
  2
AecDbDispRepCeilingGridModel
  3
AecArchBase50|Product Desc: Autodesk Architectural Desktop 2007 |Company: Autodesk,Inc. |WEB Address: www.autodesk.com
 90
    32897
280
     0
281
     0
  0
CLASS
  1
AEC_DISP_REP_CEILING_GRID_RCP
  2
AecDbDispRepCeilingGridRcp
  3
AecArchBase50|Product Desc: Autodesk Architectural Desktop 2007 |Company: Autodesk,Inc. |WEB Address: www.autodesk.com
 90
    32897
280
     0
281
     0
  0
CLASS
  1
AEC_DISP_REP_CLIP_VOLUME_MODEL
  2
AecDbDispRepClipVolModel
  3
AecBase50|Product Desc: Autodesk Architectural Desktop 2007 |Company: Autodesk,Inc. |WEB Address: www.autodesk.com
 90
    32897
280
     0
281
     0
  0
CLASS
  1
AEC_DISP_REP_CLIP_VOLUME_PLAN
  2
AecDbDispRepClipVolPlan
  3
AecBase50|Product Desc: Autodesk Architectural Desktop 2007 |Company: Autodesk,Inc. |WEB Address: www.autodesk.com
 90
    32897
280
     0
281
     0
  0
CLASS
  1
AEC_DISP_REP_CLIP_VOLUME_RESULT_SUBDIV
  2
AecDbDispRepClipVolResSubDiv
  3
AecBase50|Product Desc: Autodesk Architectural Desktop 2007 |Company: Autodesk,Inc. |WEB Address: www.autodesk.com
 90
    32897
280
     0
281
     0
  0
CLASS
  1
AEC_DISP_REP_CLIP_VOLUME_RESULT
  2
AecDbDispRepClipVolResult
  3
AecBase50|Product Desc: Autodesk Architectural Desktop 2007 |Company: Autodesk,Inc. |WEB Address: www.autodesk.com
 90
    32897
280
     0
281
     0
  0
CLASS
  1
AEC_DISP_REP_COLUMN_GRID
  2
AecDbDispRepColumnGrid
  3
AecStructureBase50|Product Desc: Autodesk Architectural Desktop 2007 |Company: Autodesk,Inc. |WEB Address: www.autodesk.com
 90
    32897
280
     0
281
     0
  0
CLASS
  1
AEC_DISP_REP_COLUMN_GRID_MODEL
  2
AecDbDispRepColumnGridModel
  3
AecStructureBase50|Product Desc: Autodesk Architectural Desktop 2007 |Company: Autodesk,Inc. |WEB Address: www.autodesk.com
 90
    32897
280
     0
281
     0
  0
CLASS
  1
AEC_DISP_REP_CURTAIN_WALL_LAYOUT_MODEL
  2
AecDbDispRepCurtainWallLayoutModel
  3
AecArchBase50|Product Desc: Autodesk Architectural Desktop 2007 |Company: Autodesk,Inc. |WEB Address: www.autodesk.com
 90
    32897
280
     0
281
     0
  0
CLASS
  1
AEC_DISP_REP_CURTAIN_WALL_LAYOUT_PLAN
  2
AecDbDispRepCurtainWallLayoutPlan
  3
AecArchBase50|Product Desc: Autodesk Architectural Desktop 2007 |Company: Autodesk,Inc. |WEB Address: www.autodesk.com
 90
    32897
280
     0
281
     0
  0
CLASS
  1
AEC_DISP_REP_CURTAIN_WALL_UNIT_MODEL
  2
AecDbDispRepCurtainWallUnitModel
  3
AecArchBase50|Product Desc: Autodesk Architectural Desktop 2007 |Company: Autodesk,Inc. |WEB Address: www.autodesk.com
 90
    32897
280
     0
281
     0
  0
CLASS
  1
AEC_DISP_REP_CURTAIN_WALL_UNIT_PLAN
  2
AecDbDispRepCurtainWallUnitPlan
  3
AecArchBase50|Product Desc: Autodesk Architectural Desktop 2007 |Company: Autodesk,Inc. |WEB Address: www.autodesk.com
 90
    32897
280
     0
281
     0
  0
CLASS
  1
AEC_DB_DISP_REP_DIM_GROUP_PLAN
  2
AecDbDispRepDimGroupPlan
  3
AecArchDACHBase50|Product Desc: Autodesk Architectural Desktop 2007 |Company: Autodesk,Inc. |WEB Address: www.autodesk.com
 90
    32897
280
     0
281
     0
  0
CLASS
  1
AEC_DISP_REP_DOOR_MODEL
  2
AecDbDispRepDoorModel
  3
AecArchBase50|Product Desc: Autodesk Architectural Desktop 2007 |Company: Autodesk,Inc. |WEB Address: www.autodesk.com
 90
    32897
280
     0
281
     0
  0
CLASS
  1
AEC_DISP_REP_DOOR_NOMINAL
  2
AecDbDispRepDoorNominal
  3
AecArchBase50|Product Desc: Autodesk Architectural Desktop 2007 |Company: Autodesk,Inc. |WEB Address: www.autodesk.com
 90
    32897
280
     0
281
     0
  0
CLASS
  1
AEC_DISP_REP_DOOR_PLAN
  2
AecDbDispRepDoorPlan
  3
AecArchBase50|Product Desc: Autodesk Architectural Desktop 2007 |Company: Autodesk,Inc. |WEB Address: www.autodesk.com
 90
    32897
280
     0
281
     0
  0
CLASS
  1
AEC_DISP_REP_EDITINPLACEPROFILE
  2
AecDbDispRepEditInPlaceProfile
  3
AecBase50|Product Desc: Autodesk Architectural Desktop 2007 |Company: Autodesk,Inc. |WEB Address: www.autodesk.com
 90
    32897
280
     0
281
     0
  0
CLASS
  1
AEC_DISP_REP_ENT_REF
  2
AecDbDispRepEntRef
  3
AecBase50|Product Desc: Autodesk Architectural Desktop 2007 |Company: Autodesk,Inc. |WEB Address: www.autodesk.com
 90
    32897
280
     0
281
     0
  0
CLASS
  1
AEC_DISP_REP_LAYOUT_CURVE
  2
AecDbDispRepLayoutCurve
  3
AecBase50|Product Desc: Autodesk Architectural Desktop 2007 |Company: Autodesk,Inc. |WEB Address: www.autodesk.com
 90
    32897
280
     0
281
     0
  0
CLASS
  1
AEC_DISP_REP_LAYOUT_GRID2D
  2
AecDbDispRepLayoutGrid2d
  3
AecBase50|Product Desc: Autodesk Architectural Desktop 2007 |Company: Autodesk,Inc. |WEB Address: www.autodesk.com
 90
    32897
280
     0
281
     0
  0
CLASS
  1
AEC_DISP_REP_LAYOUT_GRID3D
  2
AecDbDispRepLayoutGrid3d
  3
AecBase50|Product Desc: Autodesk Architectural Desktop 2007 |Company: Autodesk,Inc. |WEB Address: www.autodesk.com
 90
    32897
280
     0
281
     0
  0
CLASS
  1
AEC_DISP_REP_MASKBLOCK_REF
  2
AecDbDispRepMaskBlockRef
  3
AecBase50|Product Desc: Autodesk Architectural Desktop 2007 |Company: Autodesk,Inc. |WEB Address: www.autodesk.com
 90
    32897
280
     0
281
     0
  0
CLASS
  1
AEC_DISP_REP_MASKBLOCK_REF_RCP
  2
AecDbDispRepMaskBlockRefRcp
  3
AecArchBase50|Product Desc: Autodesk Architectural Desktop 2007 |Company: Autodesk,Inc. |WEB Address: www.autodesk.com
 90
    32897
280
     0
281
     0
  0
CLASS
  1
AEC_DISP_REP_MASS_ELEM_MODEL
  2
AecDbDispRepMassElemModel
  3
AecBaseEx50|Product Desc: Autodesk Architectural Desktop 2007 |Company: Autodesk,Inc. |WEB Address: www.autodesk.com
 90
    32897
280
     0
281
     0
  0
CLASS
  1
AEC_DISP_REP_MASS_ELEM_SCHEM
  2
AecDbDispRepMassElemSchem
  3
AecBaseEx50|Product Desc: Autodesk Architectural Desktop 2007 |Company: Autodesk,Inc. |WEB Address: www.autodesk.com
 90
    32897
280
     0
281
     0
  0
CLASS
  1
AEC_DISP_REP_MASS_GROUP_MODEL
  2
AecDbDispRepMassGroupModel
  3
AecBaseEx50|Product Desc: Autodesk Architectural Desktop 2007 |Company: Autodesk,Inc. |WEB Address: www.autodesk.com
 90
    32897
280
     0
281
     0
  0
CLASS
  1
AEC_DISP_REP_MASS_GROUP_PLAN
  2
AecDbDispRepMassGroupPlan
  3
AecBaseEx50|Product Desc: Autodesk Architectural Desktop 2007 |Company: Autodesk,Inc. |WEB Address: www.autodesk.com
 90
    32897
280
     0
281
     0
  0
CLASS
  1
AEC_DISP_REP_MATERIAL
  2
AecDbDispRepMaterial
  3
AecBase50|Product Desc: Autodesk Architectural Desktop 2007 |Company: Autodesk,Inc. |WEB Address: www.autodesk.com
 90
    32897
280
     0
281
     0
  0
CLASS
  1
AEC_DISP_REP_MVBLOCK_REF
  2
AecDbDispRepMvBlockRef
  3
AecBase50|Product Desc: Autodesk Architectural Desktop 2007 |Company: Autodesk,Inc. |WEB Address: www.autodesk.com
 90
    32897
280
     0
281
     0
  0
CLASS
  1
AEC_DISP_REP_MVBLOCK_REF_MODEL
  2
AecDbDispRepMvBlockRefModel
  3
AecBase50|Product Desc: Autodesk Architectural Desktop 2007 |Company: Autodesk,Inc. |WEB Address: www.autodesk.com
 90
    32897
280
     0
281
     0
  0
CLASS
  1
AEC_DISP_REP_OPENING
  2
AecDbDispRepOpening
  3
AecArchBase50|Product Desc: Autodesk Architectural Desktop 2007 |Company: Autodesk,Inc. |WEB Address: www.autodesk.com
 90
    32897
280
     0
281
     0
  0
CLASS
  1
AEC_DISP_REP_OPENING_MODEL
  2
AecDbDispRepOpeningModel
  3
AecArchBase50|Product Desc: Autodesk Architectural Desktop 2007 |Company: Autodesk,Inc. |WEB Address: www.autodesk.com
 90
    32897
280
     0
281
     0
  0
CLASS
  1
AEC_DISP_REP_POLYGON_MODEL
  2
AecDbDispRepPolygonModel
  3
AecBase50|Product Desc: Autodesk Architectural Desktop 2007 |Company: Autodesk,Inc. |WEB Address: www.autodesk.com
 90
    32897
280
     0
281
     0
  0
CLASS
  1
AEC_DISP_REP_RAILING_MODEL
  2
AecDbDispRepRailingModel
  3
AecArchBase50|Product Desc: Autodesk Architectural Desktop 2007 |Company: Autodesk,Inc. |WEB Address: www.autodesk.com
 90
    32897
280
     0
281
     0
  0
CLASS
  1
AEC_DISP_REP_RAILING_PLAN
  2
AecDbDispRepRailingPlan
  3
AecArchBase50|Product Desc: Autodesk Architectural Desktop 2007 |Company: Autodesk,Inc. |WEB Address: www.autodesk.com
 90
    32897
280
     0
281
     0
  0
CLASS
  1
AEC_DISP_REP_ROOF_MODEL
  2
AecDbDispRepRoofModel
  3
AecArchBase50|Product Desc: Autodesk Architectural Desktop 2007 |Company: Autodesk,Inc. |WEB Address: www.autodesk.com
 90
    32897
280
     0
281
     0
  0
CLASS
  1
AEC_DISP_REP_ROOF_PLAN
  2
AecDbDispRepRoofPlan
  3
AecArchBase50|Product Desc: Autodesk Architectural Desktop 2007 |Company: Autodesk,Inc. |WEB Address: www.autodesk.com
 90
    32897
280
     0
281
     0
  0
CLASS
  1
AEC_DISP_REP_ROOFSLAB_MODEL
  2
AecDbDispRepRoofSlabModel
  3
AecArchBase50|Product Desc: Autodesk Architectural Desktop 2007 |Company: Autodesk,Inc. |WEB Address: www.autodesk.com
 90
    32897
280
     0
281
     0
  0
CLASS
  1
AEC_DISP_REP_ROOFSLAB_PLAN
  2
AecDbDispRepRoofSlabPlan
  3
AecArchBase50|Product Desc: Autodesk Architectural Desktop 2007 |Company: Autodesk,Inc. |WEB Address: www.autodesk.com
 90
    32897
280
     0
281
     0
  0
CLASS
  1
AEC_DISP_REP_SCHEDULE_TABLE
  2
AecDbDispRepScheduleTable
  3
AecSchedule50|Product Desc: Autodesk Architectural Desktop 2007 |Company: Autodesk,Inc. |WEB Address: www.autodesk.com
 90
    32897
280
     0
281
     0
  0
CLASS
  1
AEC_DISP_REP_SLAB_MODEL
  2
AecDbDispRepSlabModel
  3
AecArchBase50|Product Desc: Autodesk Architectural Desktop 2007 |Company: Autodesk,Inc. |WEB Address: www.autodesk.com
 90
    32897
280
     0
281
     0
  0
CLASS
  1
AEC_DISP_REP_SLAB_PLAN
  2
AecDbDispRepSlabPlan
  3
AecArchBase50|Product Desc: Autodesk Architectural Desktop 2007 |Company: Autodesk,Inc. |WEB Address: www.autodesk.com
 90
    32897
280
     0
281
     0
  0
CLASS
  1
AEC_DISP_REP_SLICE
  2
AecDbDispRepSlice
  3
AecBase50|Product Desc: Autodesk Architectural Desktop 2007 |Company: Autodesk,Inc. |WEB Address: www.autodesk.com
 90
    32897
280
     0
281
     0
  0
CLASS
  1
AEC_DISP_REP_SPACE_BOUNDARY_MODEL
  2
AecDbDispRepSpaceBoundaryModel
  3
AecArchBase50|Product Desc: Autodesk Architectural Desktop 2007 |Company: Autodesk,Inc. |WEB Address: www.autodesk.com
 90
    32897
280
     0
281
     0
  0
CLASS
  1
AEC_DISP_REP_SPACE_BOUNDARY_PLAN
  2
AecDbDispRepSpaceBoundaryPlan
  3
AecArchBase50|Product Desc: Autodesk Architectural Desktop 2007 |Company: Autodesk,Inc. |WEB Address: www.autodesk.com
 90
    32897
280
     0
281
     0
  0
CLASS
  1
AEC_DISP_REP_SPACE_BOUNDARY_SCHEM
  2
AecDbDispRepSpaceBoundarySketch
  3
AecArchBase50|Product Desc: Autodesk Architectural Desktop 2007 |Company: Autodesk,Inc. |WEB Address: www.autodesk.com
 90
    32897
280
     0
281
     0
  0
CLASS
  1
AEC_DISP_REP_SPACE_MODEL
  2
AecDbDispRepSpaceModel
  3
AecArchBase50|Product Desc: Autodesk Architectural Desktop 2007 |Company: Autodesk,Inc. |WEB Address: www.autodesk.com
 90
    32897
280
     0
281
     0
  0
CLASS
  1
AEC_DISP_REP_SPACE_PLAN
  2
AecDbDispRepSpacePlan
  3
AecArchBase50|Product Desc: Autodesk Architectural Desktop 2007 |Company: Autodesk,Inc. |WEB Address: www.autodesk.com
 90
    32897
280
     0
281
     0
  0
CLASS
  1
AEC_DISP_REP_STAIR_MODEL
  2
AecDbDispRepStairModel
  3
AecArchBase50|Product Desc: Autodesk Architectural Desktop 2007 |Company: Autodesk,Inc. |WEB Address: www.autodesk.com
 90
    32897
280
     0
281
     0
  0
CLASS
  1
AEC_DISP_REP_STAIR_PLAN
  2
AecDbDispRepStairPlan
  3
AecArchBase50|Product Desc: Autodesk Architectural Desktop 2007 |Company: Autodesk,Inc. |WEB Address: www.autodesk.com
 90
    32897
280
     0
281
     0
  0
CLASS
  1
AEC_DISP_REP_WALL_GRAPH
  2
AecDbDispRepWallGraph
  3
AecArchBase50|Product Desc: Autodesk Architectural Desktop 2007 |Company: Autodesk,Inc. |WEB Address: www.autodesk.com
 90
    32897
280
     0
281
     0
  0
CLASS
  1
AEC_DISP_REP_WALL_MODEL
  2
AecDbDispRepWallModel
  3
AecArchBase50|Product Desc: Autodesk Architectural Desktop 2007 |Company: Autodesk,Inc. |WEB Address: www.autodesk.com
 90
    32897
280
     0
281
     0
  0
CLASS
  1
AEC_DISP_REP_WALL_PLAN
  2
AecDbDispRepWallPlan
  3
AecArchBase50|Product Desc: Autodesk Architectural Desktop 2007 |Company: Autodesk,Inc. |WEB Address: www.autodesk.com
 90
    32897
280
     0
281
     0
  0
CLASS
  1
AEC_DISP_REP_WALL_SCHEM
  2
AecDbDispRepWallSchem
  3
AecArchBase50|Product Desc: Autodesk Architectural Desktop 2007 |Company: Autodesk,Inc. |WEB Address: www.autodesk.com
 90
    32897
280
     0
281
     0
  0
CLASS
  1
AEC_DISP_REP_WINDOW_ASSEMBLY_MODEL
  2
AecDbDispRepWindowAssemblyModel
  3
AecArchBase50|Product Desc: Autodesk Architectural Desktop 2007 |Company: Autodesk,Inc. |WEB Address: www.autodesk.com
 90
    32897
280
     0
281
     0
  0
CLASS
  1
AEC_DISP_REP_WINDOW_ASSEMBLY_PLAN
  2
AecDbDispRepWindowAssemblyPlan
  3
AecArchBase50|Product Desc: Autodesk Architectural Desktop 2007 |Company: Autodesk,Inc. |WEB Address: www.autodesk.com
 90
    32897
280
     0
281
     0
  0
CLASS
  1
AEC_AECDBDISPREPWINDOWASSEMBLYPLAN100
  2
AecDbDispRepWindowAssemblyPlan100
  3
AecArchDACHBase50|Product Desc: Autodesk Architectural Desktop 2007 |Company: Autodesk,Inc. |WEB Address: www.autodesk.com
 90
    32897
280
     0
281
     0
  0
CLASS
  1
AEC_DISP_REP_WINDOW_MODEL
  2
AecDbDispRepWindowModel
  3
AecArchBase50|Product Desc: Autodesk Architectural Desktop 2007 |Company: Autodesk,Inc. |WEB Address: www.autodesk.com
 90
    32897
280
     0
281
     0
  0
CLASS
  1
AEC_DISP_REP_WINDOW_NOMINAL
  2
AecDbDispRepWindowNominal
  3
AecArchBase50|Product Desc: Autodesk Architectural Desktop 2007 |Company: Autodesk,Inc. |WEB Address: www.autodesk.com
 90
    32897
280
     0
281
     0
  0
CLASS
  1
AEC_DISP_REP_WINDOW_PLAN
  2
AecDbDispRepWindowPlan
  3
AecArchBase50|Product Desc: Autodesk Architectural Desktop 2007 |Company: Autodesk,Inc. |WEB Address: www.autodesk.com
 90
    32897
280
     0
281
     0
  0
CLASS
  1
AECS_DISP_REP_MEMBER_LOGICAL
  2
AecsDbDispRepMemberLogical
  3
AecStructureBase50|Product Desc: Autodesk Architectural Desktop 2007 |Company: Autodesk,Inc. |WEB Address: www.autodesk.com
 90
    32897
280
     0
281
     0
  0
CLASS
  1
AECS_DISP_REP_MEMBER_MODEL_DESIGN
  2
AecsDbDispRepMemberModelDesign
  3
AecStructureBase50|Product Desc: Autodesk Architectural Desktop 2007 |Company: Autodesk,Inc. |WEB Address: www.autodesk.com
 90
    32897
280
     0
281
     0
  0
CLASS
  1
AECS_DISP_REP_MEMBER_PLAN_DESIGN
  2
AecsDbDispRepMemberPlanDesign
  3
AecStructureBase50|Product Desc: Autodesk Architectural Desktop 2007 |Company: Autodesk,Inc. |WEB Address: www.autodesk.com
 90
    32897
280
     0
281
     0
  0
CLASS
  1
AEC_DISP_PROPS_ENT
  2
AecDbDispPropsEnt
  3
AecBase50|Product Desc: Autodesk Architectural Desktop 2007 |Company: Autodesk,Inc. |WEB Address: www.autodesk.com
 90
    32897
280
     0
281
     0
  0
CLASS
  1
AEC_DISP_PROPS_CLIP_VOLUME
  2
AecDbDispPropsClipVol
  3
AecBase50|Product Desc: Autodesk Architectural Desktop 2007 |Company: Autodesk,Inc. |WEB Address: www.autodesk.com
 90
    32897
280
     0
281
     0
  0
CLASS
  1
AEC_DISP_PROPS_SLICE
  2
AecDbDispPropsSlice
  3
AecBase50|Product Desc: Autodesk Architectural Desktop 2007 |Company: Autodesk,Inc. |WEB Address: www.autodesk.com
 90
    32897
280
     0
281
     0
  0
CLASS
  1
AEC_DISP_PROPS_ROOFSLAB_PLAN
  2
AecDbDispPropsRoofSlabPlan
  3
AecArchBase50|Product Desc: Autodesk Architectural Desktop 2007 |Company: Autodesk,Inc. |WEB Address: www.autodesk.com
 90
    32897
280
     0
281
     0
  0
CLASS
  1
AEC_DISP_PROPS_GRID_ASSEMBLY_MODEL
  2
AecDbDispPropsGridAssemblyModel
  3
AecArchBase50|Product Desc: Autodesk Architectural Desktop 2007 |Company: Autodesk,Inc. |WEB Address: www.autodesk.com
 90
    32897
280
     0
281
     0
  0
CLASS
  1
AEC_DISP_PROPS_ROOF
  2
AecDbDispPropsRoof
  3
AecArchBase50|Product Desc: Autodesk Architectural Desktop 2007 |Company: Autodesk,Inc. |WEB Address: www.autodesk.com
 90
    32897
280
     0
281
     0
  0
CLASS
  1
AEC_DISP_PROPS_SPACE_MODEL
  2
AecDbDispPropsSpaceModel
  3
AecArchBase50|Product Desc: Autodesk Architectural Desktop 2007 |Company: Autodesk,Inc. |WEB Address: www.autodesk.com
 90
    32897
280
     0
281
     0
  0
CLASS
  1
AEC_DISP_PROPS_EDITINPLACEPROFILE_MODEL
  2
AecDbDispPropsEditInPlaceProfile
  3
AecBase50|Product Desc: Autodesk Architectural Desktop 2007 |Company: Autodesk,Inc. |WEB Address: www.autodesk.com
 90
    32897
280
     0
281
     0
  0
CLASS
  1
AEC_DISP_PROPS_DOOR
  2
AecDbDispPropsDoor
  3
AecArchBase50|Product Desc: Autodesk Architectural Desktop 2007 |Company: Autodesk,Inc. |WEB Address: www.autodesk.com
 90
    32897
280
     0
281
     0
  0
CLASS
  1
AEC_DISP_PROPS_MASKBLOCK
  2
AecDbDispPropsMaskBlock
  3
AecBase50|Product Desc: Autodesk Architectural Desktop 2007 |Company: Autodesk,Inc. |WEB Address: www.autodesk.com
 90
    32897
280
     0
281
     0
  0
CLASS
  1
AEC_DISP_PROPS_SPACE_PLAN
  2
AecDbDispPropsSpacePlan
  3
AecArchBase50|Product Desc: Autodesk Architectural Desktop 2007 |Company: Autodesk,Inc. |WEB Address: www.autodesk.com
 90
    32897
280
     0
281
     0
  0
CLASS
  1
AEC_DISP_PROPS_RAILING_PLAN
  2
AecDbDispPropsRailingPlan
  3
AecArchBase50|Product Desc: Autodesk Architectural Desktop 2007 |Company: Autodesk,Inc. |WEB Address: www.autodesk.com
 90
    32897
280
     0
281
     0
  0
CLASS
  1
AEC_DISP_PROPS_LAYOUT_GRID2D
  2
AecDbDispPropsLayoutGrid2d
  3
AecBase50|Product Desc: Autodesk Architectural Desktop 2007 |Company: Autodesk,Inc. |WEB Address: www.autodesk.com
 90
    32897
280
     0
281
     0
  0
CLASS
  1
AEC_DISP_PROPS_CLIP_VOLUME_RESULT
  2
AecDbDispPropsClipVolResSubDiv
  3
AecBase50|Product Desc: Autodesk Architectural Desktop 2007 |Company: Autodesk,Inc. |WEB Address: www.autodesk.com
 90
    32897
280
     0
281
     0
  0
CLASS
  1
AEC_DISP_PROPS_STAIR_MODEL
  2
AecDbDispPropsStairModel
  3
AecArchBase50|Product Desc: Autodesk Architectural Desktop 2007 |Company: Autodesk,Inc. |WEB Address: www.autodesk.com
 90
    32897
280
     0
281
     0
  0
CLASS
  1
AEC_DISP_PROPS_LAYOUT_CURVE
  2
AecDbDispPropsLayoutCurve
  3
AecBase50|Product Desc: Autodesk Architectural Desktop 2007 |Company: Autodesk,Inc. |WEB Address: www.autodesk.com
 90
    32897
280
     0
281
     0
  0
CLASS
  1
AEC_DISP_PROPS_POLYGON_MODEL
  2
AecDbDispPropsPolygonModel
  3
AecBase50|Product Desc: Autodesk Architectural Desktop 2007 |Company: Autodesk,Inc. |WEB Address: www.autodesk.com
 90
    32897
280
     0
281
     0
  0
CLASS
  1
AEC_DISP_PROPS_MASS_GROUP
  2
AecDbDispPropsMassGroup
  3
AecBaseEx50|Product Desc: Autodesk Architectural Desktop 2007 |Company: Autodesk,Inc. |WEB Address: www.autodesk.com
 90
    32897
280
     0
281
     0
  0
CLASS
  1
AEC_DISP_PROPS_STAIR_PLAN
  2
AecDbDispPropsStairPlan
  3
AecArchBase50|Product Desc: Autodesk Architectural Desktop 2007 |Company: Autodesk,Inc. |WEB Address: www.autodesk.com
 90
    32897
280
     0
281
     0
  0
CLASS
  1
AEC_DISP_PROPS_OPENING
  2
AecDbDispPropsOpening
  3
AecArchBase50|Product Desc: Autodesk Architectural Desktop 2007 |Company: Autodesk,Inc. |WEB Address: www.autodesk.com
 90
    32897
280
     0
281
     0
  0
CLASS
  1
AEC_DISP_PROPS_WALL_GRAPH
  2
AecDbDispPropsWallGraph
  3
AecArchBase50|Product Desc: Autodesk Architectural Desktop 2007 |Company: Autodesk,Inc. |WEB Address: www.autodesk.com
 90
    32897
280
     0
281
     0
  0
CLASS
  1
AEC_DISP_PROPS_DOOR_NOMINAL
  2
AecDbDispPropsDoorNominal
  3
AecArchBase50|Product Desc: Autodesk Architectural Desktop 2007 |Company: Autodesk,Inc. |WEB Address: www.autodesk.com
 90
    32897
280
     0
281
     0
  0
CLASS
  1
AEC_DISP_PROPS_SLAB
  2
AecDbDispPropsSlab
  3
AecArchBase50|Product Desc: Autodesk Architectural Desktop 2007 |Company: Autodesk,Inc. |WEB Address: www.autodesk.com
 90
    32897
280
     0
281
     0
  0
CLASS
  1
AEC_DISP_PROPS_WALL_MODEL
  2
AecDbDispPropsWallModel
  3
AecArchBase50|Product Desc: Autodesk Architectural Desktop 2007 |Company: Autodesk,Inc. |WEB Address: www.autodesk.com
 90
    32897
280
     0
281
     0
  0
CLASS
  1
AEC_DISP_PROPS_MATERIAL
  2
AecDbDispPropsMaterial
  3
AecBase50|Product Desc: Autodesk Architectural Desktop 2007 |Company: Autodesk,Inc. |WEB Address: www.autodesk.com
 90
    32897
280
     0
281
     0
  0
CLASS
  1
AEC_DISP_PROPS_WINDOW
  2
AecDbDispPropsWindow
  3
AecArchBase50|Product Desc: Autodesk Architectural Desktop 2007 |Company: Autodesk,Inc. |WEB Address: www.autodesk.com
 90
    32897
280
     0
281
     0
  0
CLASS
  1
AEC_DISP_PROPS_LAYOUT_GRID3D
  2
AecDbDispPropsLayoutGrid3d
  3
AecBase50|Product Desc: Autodesk Architectural Desktop 2007 |Company: Autodesk,Inc. |WEB Address: www.autodesk.com
 90
    32897
280
     0
281
     0
  0
CLASS
  1
AEC_DISP_PROPS_GRID_ASSEMBLY_PLAN
  2
AecDbDispPropsGridAssemblyPlan
  3
AecArchBase50|Product Desc: Autodesk Architectural Desktop 2007 |Company: Autodesk,Inc. |WEB Address: www.autodesk.com
 90
    32897
280
     0
281
     0
  0
CLASS
  1
AEC_DISP_PROPS_WALL_SCHEM
  2
AecDbDispPropsWallSchem
  3
AecArchBase50|Product Desc: Autodesk Architectural Desktop 2007 |Company: Autodesk,Inc. |WEB Address: www.autodesk.com
 90
    32897
280
     0
281
     0
  0
CLASS
  1
AEC_DISP_PROPS_WALL_PLAN
  2
AecDbDispPropsWallPlan
  3
AecArchBase50|Product Desc: Autodesk Architectural Desktop 2007 |Company: Autodesk,Inc. |WEB Address: www.autodesk.com
 90
    32897
280
     0
281
     0
  0
CLASS
  1
AEC_DISP_PROPS_SPACE_BOUNDARY
  2
AecDbDispPropsSpaceBoundary
  3
AecArchBase50|Product Desc: Autodesk Architectural Desktop 2007 |Company: Autodesk,Inc. |WEB Address: www.autodesk.com
 90
    32897
280
     0
281
     0
  0
CLASS
  1
AEC_DISP_PROPS_SLAB_PLAN
  2
AecDbDispPropsSlabPlan
  3
AecArchBase50|Product Desc: Autodesk Architectural Desktop 2007 |Company: Autodesk,Inc. |WEB Address: www.autodesk.com
 90
    32897
280
     0
281
     0
  0
CLASS
  1
AEC_DISP_PROPS_RAILING_MODEL
  2
AecDbDispPropsRailingModel
  3
AecArchBase50|Product Desc: Autodesk Architectural Desktop 2007 |Company: Autodesk,Inc. |WEB Address: www.autodesk.com
 90
    32897
280
     0
281
     0
  0
CLASS
  1
AEC_DISP_PROPS_MASS_ELEM_MODEL
  2
AecDbDispPropsMassElem
  3
AecBaseEx50|Product Desc: Autodesk Architectural Desktop 2007 |Company: Autodesk,Inc. |WEB Address: www.autodesk.com
 90
    32897
280
     0
281
     0
  0
CLASS
  1
AEC_DISP_PROPS_DIM
  2
AecDbDispPropsDimGroup
  3
AecArchDACHBase50|Product Desc: Autodesk Architectural Desktop 2007 |Company: Autodesk,Inc. |WEB Address: www.autodesk.com
 90
    32897
280
     0
281
     0
  0
CLASS
  1
AEC_DISP_PROPS_ROOFSLAB
  2
AecDbDispPropsRoofSlab
  3
AecArchBase50|Product Desc: Autodesk Architectural Desktop 2007 |Company: Autodesk,Inc. |WEB Address: www.autodesk.com
 90
    32897
280
     0
281
     0
  0
CLASS
  1
AEC_DISP_PROPS_ENT_REF
  2
AecDbDispPropsEntRef
  3
AecBase50|Product Desc: Autodesk Architectural Desktop 2007 |Company: Autodesk,Inc. |WEB Address: www.autodesk.com
 90
    32897
280
     0
281
     0
  0
CLASS
  1
AEC_DISP_PROPS_2D_SECTION
  2
AecDbDispProps2dSection
  3
AecBase50|Product Desc: Autodesk Architectural Desktop 2007 |Company: Autodesk,Inc. |WEB Address: www.autodesk.com
 90
    32897
280
     0
281
     0
  0
CLASS
  1
AECS_DISP_PROPS_MEMBER_LOGICAL
  2
AecsDbDispPropsMemberLogical
  3
AecStructureBase50|Product Desc: Autodesk Architectural Desktop 2007 |Company: Autodesk,Inc. |WEB Address: www.autodesk.com
 90
    32897
280
     0
281
     0
  0
CLASS
  1
AEC_DISP_PROPS_AREA_DECOMPOSED
  2
AecDbDispPropsAreaDecomposed
  3
AecAreaCalculationBase50|Product Desc: Autodesk Architectural Desktop 2007 |Company: Autodesk,Inc. |WEB Address: www.autodesk.com
 90
    32897
280
     0
281
     0
  0
CLASS
  1
AEC_DISP_PROPS_CAMERA
  2
AecDbDispPropsCamera
  3
AecBase50|Product Desc: Autodesk Architectural Desktop 2007 |Company: Autodesk,Inc. |WEB Address: www.autodesk.com
 90
    32897
280
     0
281
     0
  0
CLASS
  1
AECS_DISP_PROPS_MEMBER
  2
AecsDbDispPropsMember
  3
AecStructureBase50|Product Desc: Autodesk Architectural Desktop 2007 |Company: Autodesk,Inc. |WEB Address: www.autodesk.com
 90
    32897
280
     0
281
     0
  0
CLASS
  1
AECS_DISP_PROPS_MEMBER_PLAN
  2
AecsDbDispPropsMemberPlan
  3
AecStructureBase50|Product Desc: Autodesk Architectural Desktop 2007 |Company: Autodesk,Inc. |WEB Address: www.autodesk.com
 90
    32897
280
     0
281
     0
  0
CLASS
  1
AEC_DISP_PROPS_AREAGROUP
  2
AecDbDispPropsAreaGroup
  3
AecAreaCalculationBase50|Product Desc: Autodesk Architectural Desktop 2007 |Company: Autodesk,Inc. |WEB Address: www.autodesk.com
 90
    32897
280
     0
281
     0
  0
CLASS
  1
AEC_DISP_PROPS_WINDOW_NOMINAL
  2
AecDbDispPropsWindowNominal
  3
AecArchBase50|Product Desc: Autodesk Architectural Desktop 2007 |Company: Autodesk,Inc. |WEB Address: www.autodesk.com
 90
    32897
280
     0
281
     0
  0
CLASS
  1
AEC_DISP_PROPS_AREA
  2
AecDbDispPropsArea
  3
AecAreaCalculationBase50|Product Desc: Autodesk Architectural Desktop 2007 |Company: Autodesk,Inc. |WEB Address: www.autodesk.com
 90
    32897
280
     0
281
     0
  0
CLASS
  1
AEC_DISP_PROPS_SCHEDULE_TABLE
  2
AecDbDispPropsScheduleTable
  3
AecSchedule50|Product Desc: Autodesk Architectural Desktop 2007 |Company: Autodesk,Inc. |WEB Address: www.autodesk.com
 90
    32897
280
     0
281
     0
  0
CLASS
  1
AEC_LAYERKEY_STYLE
  2
AecDbLayerKeyStyle
  3
AecBase50|Product Desc: Autodesk Architectural Desktop 2007 |Company: Autodesk,Inc. |WEB Address: www.autodesk.com
 90
    32897
280
     0
281
     0
  0
CLASS
  1
AEC_VARS_ARCHBASE
  2
AecDbVarsArchBase
  3
AecArchBase50|Product Desc: Autodesk Architectural Desktop 2007 |Company: Autodesk,Inc. |WEB Address: www.autodesk.com
 90
    32897
280
     0
281
     0
  0
CLASS
  1
AEC_VARS_MUNICH
  2
AecDbVarsMunich
  3
AecArchDACHBase50|Product Desc: Autodesk Architectural Desktop 2007 |Company: Autodesk,Inc. |WEB Address: www.autodesk.com
 90
    32897
280
     0
281
     0
  0
CLASS
  1
AEC_NOTIFICATION_TRACKER
  2
AecDbNotificationTracker
  3
AecBase50|Product Desc: Autodesk Architectural Desktop 2007 |Company: Autodesk,Inc. |WEB Address: www.autodesk.com
 90
    32897
280
     0
281
     0
  0
CLASS
  1
AEC_DISP_REP_ANCHOR
  2
AecDbDispRepAnchor
  3
AecBase50|Product Desc: Autodesk Architectural Desktop 2007 |Company: Autodesk,Inc. |WEB Address: www.autodesk.com
 90
    32897
280
     0
281
     0
  0
CLASS
  1
AEC_DISP_REP_POLYGON_TRUECOLOUR
  2
AecDbDispRepPolygonTrueColour
  3
AecBase50|Product Desc: Autodesk Architectural Desktop 2007 |Company: Autodesk,Inc. |WEB Address: www.autodesk.com
 90
    32897
280
     0
281
     0
  0
CLASS
  1
AEC_DISP_PROPS_POLYGON_TRUECOLOUR
  2
AecDbDispPropsPolygonTrueColour
  3
AecBase50|Product Desc: Autodesk Architectural Desktop 2007 |Company: Autodesk,Inc. |WEB Address: www.autodesk.com
 90
    32897
280
     0
281
     0
  0
CLASS
  1
AEC_DISP_REP_BDG_ELEVLINE_RCP
  2
AecDbDispRepBdgElevLineRcp
  3
AecArchBase50|Product Desc: Autodesk Architectural Desktop 2007 |Company: Autodesk,Inc. |WEB Address: www.autodesk.com
 90
    32897
280
     0
281
     0
  0
CLASS
  1
AEC_DISP_REP_BDG_SECTIONLINE_RCP
  2
AecDbDispRepBdgSectionLineRcp
  3
AecArchBase50|Product Desc: Autodesk Architectural Desktop 2007 |Company: Autodesk,Inc. |WEB Address: www.autodesk.com
 90
    32897
280
     0
281
     0
  0
CLASS
  1
AEC_DISP_REP_BDG_SECTION_MODEL
  2
AecDbDispRepBdgSectionModel
  3
AecArchBase50|Product Desc: Autodesk Architectural Desktop 2007 |Company: Autodesk,Inc. |WEB Address: www.autodesk.com
 90
    32897
280
     0
281
     0
  0
CLASS
  1
AEC_DISP_REP_DOOR_ELEV
  2
AecDbDispRepDoorElev
  3
AecArchBase50|Product Desc: Autodesk Architectural Desktop 2007 |Company: Autodesk,Inc. |WEB Address: www.autodesk.com
 90
    32897
280
     0
281
     0
  0
CLASS
  1
AEC_DISP_REP_DOOR_RCP
  2
AecDbDispRepDoorRcp
  3
AecArchBase50|Product Desc: Autodesk Architectural Desktop 2007 |Company: Autodesk,Inc. |WEB Address: www.autodesk.com
 90
    32897
280
     0
281
     0
  0
CLASS
  1
AEC_DISP_REP_DOOR_THRESHOLD_PLAN
  2
AecDbDispRepDoorThresholdPlan
  3
AecArchBase50|Product Desc: Autodesk Architectural Desktop 2007 |Company: Autodesk,Inc. |WEB Address: www.autodesk.com
 90
    32897
280
     0
281
     0
  0
CLASS
  1
AEC_DISP_PROPS_DOOR_THRESHOLD_PLAN
  2
AecDbDispPropsDoorThresholdPlan
  3
AecArchBase50|Product Desc: Autodesk Architectural Desktop 2007 |Company: Autodesk,Inc. |WEB Address: www.autodesk.com
 90
    32897
280
     0
281
     0
  0
CLASS
  1
AEC_DISP_REP_MASS_ELEM_RCP
  2
AecDbDispRepMassElemRcp
  3
AecArchBase50|Product Desc: Autodesk Architectural Desktop 2007 |Company: Autodesk,Inc. |WEB Address: www.autodesk.com
 90
    32897
280
     0
281
     0
  0
CLASS
  1
AEC_DISP_REP_MASS_GROUP_RCP
  2
AecDbDispRepMassGroupRcp
  3
AecArchBase50|Product Desc: Autodesk Architectural Desktop 2007 |Company: Autodesk,Inc. |WEB Address: www.autodesk.com
 90
    32897
280
     0
281
     0
  0
CLASS
  1
AEC_DISP_REP_MVBLOCK_REF_RCP
  2
AecDbDispRepMvBlockRefRcp
  3
AecArchBase50|Product Desc: Autodesk Architectural Desktop 2007 |Company: Autodesk,Inc. |WEB Address: www.autodesk.com
 90
    32897
280
     0
281
     0
  0
CLASS
  1
AEC_DISP_REP_ROOF_RCP
  2
AecDbDispRepRoofRcp
  3
AecArchBase50|Product Desc: Autodesk Architectural Desktop 2007 |Company: Autodesk,Inc. |WEB Address: www.autodesk.com
 90
    32897
280
     0
281
     0
  0
CLASS
  1
AEC_DISP_REP_SPACE_BOUNDARY_DIAGRAM
  2
AecDbDispRepSpaceBoundaryDgrm
  3
AecArchBase50|Product Desc: Autodesk Architectural Desktop 2007 |Company: Autodesk,Inc. |WEB Address: www.autodesk.com
 90
    32897
280
     0
281
     0
  0
CLASS
  1
AEC_DISP_REP_SPACE_RCP
  2
AecDbDispRepSpaceRcp
  3
AecArchBase50|Product Desc: Autodesk Architectural Desktop 2007 |Company: Autodesk,Inc. |WEB Address: www.autodesk.com
 90
    32897
280
     0
281
     0
  0
CLASS
  1
AEC_DISP_REP_SPACE_VOLUME
  2
AecDbDispRepSpaceVolume
  3
AecArchBase50|Product Desc: Autodesk Architectural Desktop 2007 |Company: Autodesk,Inc. |WEB Address: www.autodesk.com
 90
    32897
280
     0
281
     0
  0
CLASS
  1
AEC_DISP_REP_STAIR_PLAN_OVERLAPPING
  2
AecDbDispRepStairPlanOverlapping
  3
AecArchBase50|Product Desc: Autodesk Architectural Desktop 2007 |Company: Autodesk,Inc. |WEB Address: www.autodesk.com
 90
    32897
280
     0
281
     0
  0
CLASS
  1
AEC_DISP_PROPS_STAIR_PLAN_OVERLAPPING
  2
AecDbDispPropsStairPlanOverlapping
  3
AecArchBase50|Product Desc: Autodesk Architectural Desktop 2007 |Company: Autodesk,Inc. |WEB Address: www.autodesk.com
 90
    32897
280
     0
281
     0
  0
CLASS
  1
AEC_DISP_REP_STAIR_RCP
  2
AecDbDispRepStairRcp
  3
AecArchBase50|Product Desc: Autodesk Architectural Desktop 2007 |Company: Autodesk,Inc. |WEB Address: www.autodesk.com
 90
    32897
280
     0
281
     0
  0
CLASS
  1
AEC_DISP_REP_WALL_RCP
  2
AecDbDispRepWallRcp
  3
AecArchBase50|Product Desc: Autodesk Architectural Desktop 2007 |Company: Autodesk,Inc. |WEB Address: www.autodesk.com
 90
    32897
280
     0
281
     0
  0
CLASS
  1
AEC_DISP_REP_WINDOWASSEMBLY_SILL_PLAN
  2
AecDbDispRepWindowAssemblySillPlan
  3
AecArchBase50|Product Desc: Autodesk Architectural Desktop 2007 |Company: Autodesk,Inc. |WEB Address: www.autodesk.com
 90
    32897
280
     0
281
     0
  0
CLASS
  1
AEC_DISP_PROPS_WINDOW_ASSEMBLY_SILL_PLAN
  2
AecDbDispPropsWindowAssemblySillPlan
  3
AecArchBase50|Product Desc: Autodesk Architectural Desktop 2007 |Company: Autodesk,Inc. |WEB Address: www.autodesk.com
 90
    32897
280
     0
281
     0
  0
CLASS
  1
AEC_DISP_REP_WINDOW_ELEV
  2
AecDbDispRepWindowElev
  3
AecArchBase50|Product Desc: Autodesk Architectural Desktop 2007 |Company: Autodesk,Inc. |WEB Address: www.autodesk.com
 90
    32897
280
     0
281
     0
  0
CLASS
  1
AEC_DISP_REP_WINDOW_RCP
  2
AecDbDispRepWindowRcp
  3
AecArchBase50|Product Desc: Autodesk Architectural Desktop 2007 |Company: Autodesk,Inc. |WEB Address: www.autodesk.com
 90
    32897
280
     0
281
     0
  0
CLASS
  1
AEC_DISP_REP_WINDOW_SILL_PLAN
  2
AecDbDispRepWindowSillPlan
  3
AecArchBase50|Product Desc: Autodesk Architectural Desktop 2007 |Company: Autodesk,Inc. |WEB Address: www.autodesk.com
 90
    32897
280
     0
281
     0
  0
CLASS
  1
AEC_DISP_PROPS_WINDOW_SILL_PLAN
  2
AecDbDispPropsWindowSillPlan
  3
AecArchBase50|Product Desc: Autodesk Architectural Desktop 2007 |Company: Autodesk,Inc. |WEB Address: www.autodesk.com
 90
    32897
280
     0
281
     0
  0
CLASS
  1
AEC_DISP_REP_ANCHOR_BUB_TO_GRID_RCP
  2
AecDbDispRepAnchorBubToGridRcp
  3
AecStructureBase50|Product Desc: Autodesk Architectural Desktop 2007 |Company: Autodesk,Inc. |WEB Address: www.autodesk.com
 90
    32897
280
     0
281
     0
  0
CLASS
  1
AEC_DISP_REP_COLUMN_GRID_RCP
  2
AecDbDispRepColumnGridRcp
  3
AecStructureBase50|Product Desc: Autodesk Architectural Desktop 2007 |Company: Autodesk,Inc. |WEB Address: www.autodesk.com
 90
    32897
280
     0
281
     0
  0
CLASS
  1
AECS_DISP_REP_MEMBER_ELEVATION_DESIGN
  2
AecsDbDispRepMemberElevationDesign
  3
AecStructureBase50|Product Desc: Autodesk Architectural Desktop 2007 |Company: Autodesk,Inc. |WEB Address: www.autodesk.com
 90
    32897
280
     0
281
     0
  0
CLASS
  1
AECS_DISP_PROPS_MEMBER_PROJECTED
  2
AecsDbDispPropsMemberProjected
  3
AecStructureBase50|Product Desc: Autodesk Architectural Desktop 2007 |Company: Autodesk,Inc. |WEB Address: www.autodesk.com
 90
    32897
280
     0
281
     0
  0
CLASS
  1
AECS_DISP_REP_MEMBER_ELEVATION_DETAIL
  2
AecsDbDispRepMemberElevationDetail
  3
AecStructureBase50|Product Desc: Autodesk Architectural Desktop 2007 |Company: Autodesk,Inc. |WEB Address: www.autodesk.com
 90
    32897
280
     0
281
     0
  0
CLASS
  1
AECS_DISP_REP_MEMBER_MODEL_DETAIL
  2
AecsDbDispRepMemberModelDetail
  3
AecStructureBase50|Product Desc: Autodesk Architectural Desktop 2007 |Company: Autodesk,Inc. |WEB Address: www.autodesk.com
 90
    32897
280
     0
281
     0
  0
CLASS
  1
AECS_DISP_REP_MEMBER_PLAN_DETAIL
  2
AecsDbDispRepMemberPlanDetail
  3
AecStructureBase50|Product Desc: Autodesk Architectural Desktop 2007 |Company: Autodesk,Inc. |WEB Address: www.autodesk.com
 90
    32897
280
     0
281
     0
  0
CLASS
  1
AECS_DISP_REP_MEMBER_PLAN_SKETCH
  2
AecsDbDispRepMemberPlanSketch
  3
AecStructureBase50|Product Desc: Autodesk Architectural Desktop 2007 |Company: Autodesk,Inc. |WEB Address: www.autodesk.com
 90
    32897
280
     0
281
     0
  0
CLASS
  1
AECS_DISP_PROPS_MEMBER_PLAN_SKETCH
  2
AecsDbDispPropsMemberPlanSketch
  3
AecStructureBase50|Product Desc: Autodesk Architectural Desktop 2007 |Company: Autodesk,Inc. |WEB Address: www.autodesk.com
 90
    32897
280
     0
281
     0
  0
CLASS
  1
AEC_AECDBDISPREPAREA100
  2
AecDbDispRepArea100
  3
AecArchDACHBase50|Product Desc: Autodesk Architectural Desktop 2007 |Company: Autodesk,Inc. |WEB Address: www.autodesk.com
 90
    32897
280
     0
281
     0
  0
CLASS
  1
AEC_AECDBDISPREPAREAGROUP100
  2
AecDbDispRepAreaGroup100
  3
AecArchDACHBase50|Product Desc: Autodesk Architectural Desktop 2007 |Company: Autodesk,Inc. |WEB Address: www.autodesk.com
 90
    32897
280
     0
281
     0
  0
CLASS
  1
AEC_AECDBDISPREPBDGELEVLINEPLAN100
  2
AecDbDispRepBdgElevLinePlan100
  3
AecArchDACHBase50|Product Desc: Autodesk Architectural Desktop 2007 |Company: Autodesk,Inc. |WEB Address: www.autodesk.com
 90
    32897
280
     0
281
     0
  0
CLASS
  1
AEC_AECDBDISPREPBDGSECTIONLINEPLAN100
  2
AecDbDispRepBdgSectionLinePlan100
  3
AecArchDACHBase50|Product Desc: Autodesk Architectural Desktop 2007 |Company: Autodesk,Inc. |WEB Address: www.autodesk.com
 90
    32897
280
     0
281
     0
  0
CLASS
  1
AEC_AECDBDISPREPCEILINGGRIDPLAN100
  2
AecDbDispRepCeilingGridPlan100
  3
AecArchDACHBase50|Product Desc: Autodesk Architectural Desktop 2007 |Company: Autodesk,Inc. |WEB Address: www.autodesk.com
 90
    32897
280
     0
281
     0
  0
CLASS
  1
AEC_AECDBDISPREPCOLUMNGRIDPLAN100
  2
AecDbDispRepColumnGridPlan100
  3
AecArchDACHBase50|Product Desc: Autodesk Architectural Desktop 2007 |Company: Autodesk,Inc. |WEB Address: www.autodesk.com
 90
    32897
280
     0
281
     0
  0
CLASS
  1
AEC_AECDBDISPREPCURTAINWALLLAYOUTPLAN100
  2
AecDbDispRepCurtainWallLayoutPlan100
  3
AecArchDACHBase50|Product Desc: Autodesk Architectural Desktop 2007 |Company: Autodesk,Inc. |WEB Address: www.autodesk.com
 90
    32897
280
     0
281
     0
  0
CLASS
  1
AEC_AECDBDISPREPCURTAINWALLUNITPLAN100
  2
AecDbDispRepCurtainWallUnitPlan100
  3
AecArchDACHBase50|Product Desc: Autodesk Architectural Desktop 2007 |Company: Autodesk,Inc. |WEB Address: www.autodesk.com
 90
    32897
280
     0
281
     0
  0
CLASS
  1
AEC_AECDBDISPREPMVBLOCKREFPLAN100
  2
AecDbDispRepMvBlockRefPlan100
  3
AecArchDACHBase50|Product Desc: Autodesk Architectural Desktop 2007 |Company: Autodesk,Inc. |WEB Address: www.autodesk.com
 90
    32897
280
     0
281
     0
  0
CLASS
  1
AEC_AECDBDISPREPROOFPLAN100
  2
AecDbDispRepRoofPlan100
  3
AecArchDACHBase50|Product Desc: Autodesk Architectural Desktop 2007 |Company: Autodesk,Inc. |WEB Address: www.autodesk.com
 90
    32897
280
     0
281
     0
  0
CLASS
  1
AEC_AECDBDISPREPROOFSLABPLAN100
  2
AecDbDispRepRoofSlabPlan100
  3
AecArchDACHBase50|Product Desc: Autodesk Architectural Desktop 2007 |Company: Autodesk,Inc. |WEB Address: www.autodesk.com
 90
    32897
280
     0
281
     0
  0
CLASS
  1
AEC_AECDBDISPREPSLABPLAN100
  2
AecDbDispRepSlabPlan100
  3
AecArchDACHBase50|Product Desc: Autodesk Architectural Desktop 2007 |Company: Autodesk,Inc. |WEB Address: www.autodesk.com
 90
    32897
280
     0
281
     0
  0
CLASS
  1
AEC_AECDBDISPREPSPACEBOUNDARYPLAN100
  2
AecDbDispRepSpaceBoundaryPlan100
  3
AecArchDACHBase50|Product Desc: Autodesk Architectural Desktop 2007 |Company: Autodesk,Inc. |WEB Address: www.autodesk.com
 90
    32897
280
     0
281
     0
  0
CLASS
  1
AEC_AECDBDISPREPSPACEPLAN100
  2
AecDbDispRepSpacePlan100
  3
AecArchDACHBase50|Product Desc: Autodesk Architectural Desktop 2007 |Company: Autodesk,Inc. |WEB Address: www.autodesk.com
 90
    32897
280
     0
281
     0
  0
CLASS
  1
AEC_AECDBDISPREPWALLPLAN100
  2
AecDbDispRepWallPlan100
  3
AecArchDACHBase50|Product Desc: Autodesk Architectural Desktop 2007 |Company: Autodesk,Inc. |WEB Address: www.autodesk.com
 90
    32897
280
     0
281
     0
  0
CLASS
  1
AEC_AECDBDISPREPAREA50
  2
AecDbDispRepArea50
  3
AecArchDACHBase50|Product Desc: Autodesk Architectural Desktop 2007 |Company: Autodesk,Inc. |WEB Address: www.autodesk.com
 90
    32897
280
     0
281
     0
  0
CLASS
  1
AEC_AECDBDISPREPAREAGROUP50
  2
AecDbDispRepAreaGroup50
  3
AecArchDACHBase50|Product Desc: Autodesk Architectural Desktop 2007 |Company: Autodesk,Inc. |WEB Address: www.autodesk.com
 90
    32897
280
     0
281
     0
  0
CLASS
  1
AEC_AECDBDISPREPBDGELEVLINEPLAN50
  2
AecDbDispRepBdgElevLinePlan50
  3
AecArchDACHBase50|Product Desc: Autodesk Architectural Desktop 2007 |Company: Autodesk,Inc. |WEB Address: www.autodesk.com
 90
    32897
280
     0
281
     0
  0
CLASS
  1
AEC_AECDBDISPREPBDGSECTIONLINEPLAN50
  2
AecDbDispRepBdgSectionLinePlan50
  3
AecArchDACHBase50|Product Desc: Autodesk Architectural Desktop 2007 |Company: Autodesk,Inc. |WEB Address: www.autodesk.com
 90
    32897
280
     0
281
     0
  0
CLASS
  1
AEC_AECDBDISPREPCEILINGGRIDPLAN50
  2
AecDbDispRepCeilingGridPlan50
  3
AecArchDACHBase50|Product Desc: Autodesk Architectural Desktop 2007 |Company: Autodesk,Inc. |WEB Address: www.autodesk.com
 90
    32897
280
     0
281
     0
  0
CLASS
  1
AEC_AECDBDISPREPCOLUMNGRIDPLAN50
  2
AecDbDispRepColumnGridPlan50
  3
AecArchDACHBase50|Product Desc: Autodesk Architectural Desktop 2007 |Company: Autodesk,Inc. |WEB Address: www.autodesk.com
 90
    32897
280
     0
281
     0
  0
CLASS
  1
AEC_AECDBDISPREPCURTAINWALLLAYOUTPLAN50
  2
AecDbDispRepCurtainWallLayoutPlan50
  3
AecArchDACHBase50|Product Desc: Autodesk Architectural Desktop 2007 |Company: Autodesk,Inc. |WEB Address: www.autodesk.com
 90
    32897
280
     0
281
     0
  0
CLASS
  1
AEC_AECDBDISPREPCURTAINWALLUNITPLAN50
  2
AecDbDispRepCurtainWallUnitPlan50
  3
AecArchDACHBase50|Product Desc: Autodesk Architectural Desktop 2007 |Company: Autodesk,Inc. |WEB Address: www.autodesk.com
 90
    32897
280
     0
281
     0
  0
CLASS
  1
AEC_AECDBDISPREPMVBLOCKREFPLAN50
  2
AecDbDispRepMvBlockRefPlan50
  3
AecArchDACHBase50|Product Desc: Autodesk Architectural Desktop 2007 |Company: Autodesk,Inc. |WEB Address: www.autodesk.com
 90
    32897
280
     0
281
     0
  0
CLASS
  1
AEC_AECDBDISPREPROOFPLAN50
  2
AecDbDispRepRoofPlan50
  3
AecArchDACHBase50|Product Desc: Autodesk Architectural Desktop 2007 |Company: Autodesk,Inc. |WEB Address: www.autodesk.com
 90
    32897
280
     0
281
     0
  0
CLASS
  1
AEC_AECDBDISPREPROOFSLABPLAN50
  2
AecDbDispRepRoofSlabPlan50
  3
AecArchDACHBase50|Product Desc: Autodesk Architectural Desktop 2007 |Company: Autodesk,Inc. |WEB Address: www.autodesk.com
 90
    32897
280
     0
281
     0
  0
CLASS
  1
AEC_AECDBDISPREPSLABPLAN50
  2
AecDbDispRepSlabPlan50
  3
AecArchDACHBase50|Product Desc: Autodesk Architectural Desktop 2007 |Company: Autodesk,Inc. |WEB Address: www.autodesk.com
 90
    32897
280
     0
281
     0
  0
CLASS
  1
AEC_AECDBDISPREPSPACEBOUNDARYPLAN50
  2
AecDbDispRepSpaceBoundaryPlan50
  3
AecArchDACHBase50|Product Desc: Autodesk Architectural Desktop 2007 |Company: Autodesk,Inc. |WEB Address: www.autodesk.com
 90
    32897
280
     0
281
     0
  0
CLASS
  1
AEC_AECDBDISPREPSPACEPLAN50
  2
AecDbDispRepSpacePlan50
  3
AecArchDACHBase50|Product Desc: Autodesk Architectural Desktop 2007 |Company: Autodesk,Inc. |WEB Address: www.autodesk.com
 90
    32897
280
     0
281
     0
  0
CLASS
  1
AEC_AECDBDISPREPWALLPLAN50
  2
AecDbDispRepWallPlan50
  3
AecArchDACHBase50|Product Desc: Autodesk Architectural Desktop 2007 |Company: Autodesk,Inc. |WEB Address: www.autodesk.com
 90
    32897
280
     0
281
     0
  0
CLASS
  1
AEC_AECDBDISPREPWINDOWASSEMBLYPLAN50
  2
AecDbDispRepWindowAssemblyPlan50
  3
AecArchDACHBase50|Product Desc: Autodesk Architectural Desktop 2007 |Company: Autodesk,Inc. |WEB Address: www.autodesk.com
 90
    32897
280
     0
281
     0
  0
CLASS
  1
AEC_DB_DISP_REP_DIM_GROUP_PLAN100
  2
AecDbDispRepDimGroupPlan100
  3
AecArchDACHBase50|Product Desc: Autodesk Architectural Desktop 2007 |Company: Autodesk,Inc. |WEB Address: www.autodesk.com
 90
    32897
280
     0
281
     0
  0
CLASS
  1
AEC_DB_DISP_REP_DIM_GROUP_PLAN50
  2
AecDbDispRepDimGroupPlan50
  3
AecArchDACHBase50|Product Desc: Autodesk Architectural Desktop 2007 |Company: Autodesk,Inc. |WEB Address: www.autodesk.com
 90
    32897
280
     0
281
     0
  0
CLASS
  1
AEC_DISP_REP_DOOR_PLAN_50
  2
AecDbDispRepDoorPlan50
  3
AecArchDACHBase50|Product Desc: Autodesk Architectural Desktop 2007 |Company: Autodesk,Inc. |WEB Address: www.autodesk.com
 90
    32897
280
     0
281
     0
  0
CLASS
  1
AEC_DISP_PROPS_DOOR_PLAN_50
  2
AecDbDispPropsDoorPlan50
  3
AecArchDACHBase50|Product Desc: Autodesk Architectural Desktop 2007 |Company: Autodesk,Inc. |WEB Address: www.autodesk.com
 90
    32897
280
     0
281
     0
  0
CLASS
  1
AEC_DISP_REP_DOOR_PLAN_HEKTO
  2
AecDbDispRepDoorPlanHekto
  3
AecArchDACHBase50|Product Desc: Autodesk Architectural Desktop 2007 |Company: Autodesk,Inc. |WEB Address: www.autodesk.com
 90
    32897
280
     0
281
     0
  0
CLASS
  1
AEC_DISP_PROPS_DOOR_PLAN_100
  2
AecDbDispPropsDoorPlan100
  3
AecArchDACHBase50|Product Desc: Autodesk Architectural Desktop 2007 |Company: Autodesk,Inc. |WEB Address: www.autodesk.com
 90
    32897
280
     0
281
     0
  0
CLASS
  1
AEC_DISP_REP_DOOR_THRESHOLD_SYMBOL_PLAN
  2
AecDbDispRepDoorThresholdSymbolPlan
  3
AecArchDACHBase50|Product Desc: Autodesk Architectural Desktop 2007 |Company: Autodesk,Inc. |WEB Address: www.autodesk.com
 90
    32897
280
     0
281
     0
  0
CLASS
  1
AEC_DISP_PROPS_DOOR_THRESHOLD_SYMBOL_PLAN
  2
AecDbDispPropsDoorThresholdSymbolPlan
  3
AecArchDACHBase50|Product Desc: Autodesk Architectural Desktop 2007 |Company: Autodesk,Inc. |WEB Address: www.autodesk.com
 90
    32897
280
     0
281
     0
  0
CLASS
  1
AEC_DISPREPAECDBDISPREPMASSELEMPLAN100
  2
AecDbDispRepMassElemPlan100
  3
AecArchDACHBase50|Product Desc: Autodesk Architectural Desktop 2007 |Company: Autodesk,Inc. |WEB Address: www.autodesk.com
 90
    32897
280
     0
281
     0
  0
CLASS
  1
AEC_DISPROPSMASSELEMPLANCOMMON
  2
AecDbDispPropsMassElemPlanCommon
  3
AecArchDACHBase50|Product Desc: Autodesk Architectural Desktop 2007 |Company: Autodesk,Inc. |WEB Address: www.autodesk.com
 90
    32897
280
     0
281
     0
  0
CLASS
  1
AEC_DISPREPAECDBDISPREPMASSELEMPLAN50
  2
AecDbDispRepMassElemPlan50
  3
AecArchDACHBase50|Product Desc: Autodesk Architectural Desktop 2007 |Company: Autodesk,Inc. |WEB Address: www.autodesk.com
 90
    32897
280
     0
281
     0
  0
CLASS
  1
AEC_DISPREPAECDBDISPREPMASSGROUPPLAN100
  2
AecDbDispRepMassGroupPlan100
  3
AecArchDACHBase50|Product Desc: Autodesk Architectural Desktop 2007 |Company: Autodesk,Inc. |WEB Address: www.autodesk.com
 90
    32897
280
     0
281
     0
  0
CLASS
  1
AEC_DISPROPSMASSGROUPPLANCOMMON
  2
AecDbDispPropsMassGroupPlanCommon
  3
AecArchDACHBase50|Product Desc: Autodesk Architectural Desktop 2007 |Company: Autodesk,Inc. |WEB Address: www.autodesk.com
 90
    32897
280
     0
281
     0
  0
CLASS
  1
AEC_DISPREPAECDBDISPREPMASSGROUPPLAN50
  2
AecDbDispRepMassGroupPlan50
  3
AecArchDACHBase50|Product Desc: Autodesk Architectural Desktop 2007 |Company: Autodesk,Inc. |WEB Address: www.autodesk.com
 90
    32897
280
     0
281
     0
  0
CLASS
  1
AEC_DISPREPAECDBDISPREPOPENINGPLAN100
  2
AecDbDispRepOpeningPlan100
  3
AecArchDACHBase50|Product Desc: Autodesk Architectural Desktop 2007 |Company: Autodesk,Inc. |WEB Address: www.autodesk.com
 90
    32897
280
     0
281
     0
  0
CLASS
  1
AEC_DISPROPSOPENINGPLANCOMMONHATCHED
  2
AecDbDispPropsOpeningPlanCommonHatched
  3
AecArchDACHBase50|Product Desc: Autodesk Architectural Desktop 2007 |Company: Autodesk,Inc. |WEB Address: www.autodesk.com
 90
    32897
280
     0
281
     0
  0
CLASS
  1
AEC_DISPREPAECDBDISPREPOPENINGPLAN50
  2
AecDbDispRepOpeningPlan50
  3
AecArchDACHBase50|Product Desc: Autodesk Architectural Desktop 2007 |Company: Autodesk,Inc. |WEB Address: www.autodesk.com
 90
    32897
280
     0
281
     0
  0
CLASS
  1
AEC_DISPREPAECDBDISPREPOPENINGPLANREFLECTED
  2
AecDbDispRepOpeningPlanReflected
  3
AecArchDACHBase50|Product Desc: Autodesk Architectural Desktop 2007 |Company: Autodesk,Inc. |WEB Address: www.autodesk.com
 90
    32897
280
     0
281
     0
  0
CLASS
  1
AEC_DISPROPSOPENINGPLANCOMMON
  2
AecDbDispPropsOpeningPlanCommon
  3
AecArchDACHBase50|Product Desc: Autodesk Architectural Desktop 2007 |Company: Autodesk,Inc. |WEB Address: www.autodesk.com
 90
    32897
280
     0
281
     0
  0
CLASS
  1
AEC_DISPREPAECDBDISPREPOPENINGSILLPLAN
  2
AecDbDispRepOpeningSillPlan
  3
AecArchDACHBase50|Product Desc: Autodesk Architectural Desktop 2007 |Company: Autodesk,Inc. |WEB Address: www.autodesk.com
 90
    32897
280
     0
281
     0
  0
CLASS
  1
AEC_DISPROPSOPENINGSILLPLAN
  2
AecDbDispPropsOpeningSillPlan
  3
AecArchDACHBase50|Product Desc: Autodesk Architectural Desktop 2007 |Company: Autodesk,Inc. |WEB Address: www.autodesk.com
 90
    32897
280
     0
281
     0
  0
CLASS
  1
AEC_DISP_REP_RAILING_PLAN_100
  2
AecDbDispRepRailingPlan100
  3
AecArchDACHBase50|Product Desc: Autodesk Architectural Desktop 2007 |Company: Autodesk,Inc. |WEB Address: www.autodesk.com
 90
    32897
280
     0
281
     0
  0
CLASS
  1
AEC_DISP_ROPS_RAILING_PLAN_100
  2
AecDbDispPropsRailingPlan100
  3
AecArchDACHBase50|Product Desc: Autodesk Architectural Desktop 2007 |Company: Autodesk,Inc. |WEB Address: www.autodesk.com
 90
    32897
280
     0
281
     0
  0
CLASS
  1
AEC_DISP_REP_RAILING_PLAN_50
  2
AecDbDispRepRailingPlan50
  3
AecArchDACHBase50|Product Desc: Autodesk Architectural Desktop 2007 |Company: Autodesk,Inc. |WEB Address: www.autodesk.com
 90
    32897
280
     0
281
     0
  0
CLASS
  1
AEC_DISP_ROPS_RAILING_PLAN_50
  2
AecDbDispPropsRailingPlan50
  3
AecArchDACHBase50|Product Desc: Autodesk Architectural Desktop 2007 |Company: Autodesk,Inc. |WEB Address: www.autodesk.com
 90
    32897
280
     0
281
     0
  0
CLASS
  1
AEC_DISP_REP_STAIR_PLAN_100
  2
AecDbDispRepStairPlan100
  3
AecArchDACHBase50|Product Desc: Autodesk Architectural Desktop 2007 |Company: Autodesk,Inc. |WEB Address: www.autodesk.com
 90
    32897
280
     0
281
     0
  0
CLASS
  1
AEC_DISP_ROPS_STAIR_PLAN_100
  2
AecDbDispPropsStairPlan100
  3
AecArchDACHBase50|Product Desc: Autodesk Architectural Desktop 2007 |Company: Autodesk,Inc. |WEB Address: www.autodesk.com
 90
    32897
280
     0
281
     0
  0
CLASS
  1
AEC_DISP_REP_STAIR_PLAN_50
  2
AecDbDispRepStairPlan50
  3
AecArchDACHBase50|Product Desc: Autodesk Architectural Desktop 2007 |Company: Autodesk,Inc. |WEB Address: www.autodesk.com
 90
    32897
280
     0
281
     0
  0
CLASS
  1
AEC_DISP_ROPS_STAIR_PLAN_50
  2
AecDbDispPropsStairPlan50
  3
AecArchDACHBase50|Product Desc: Autodesk Architectural Desktop 2007 |Company: Autodesk,Inc. |WEB Address: www.autodesk.com
 90
    32897
280
     0
281
     0
  0
CLASS
  1
AEC_DISP_REP_WINDOW_PLAN_100
  2
AecDbDispRepWindowPlan100
  3
AecArchDACHBase50|Product Desc: Autodesk Architectural Desktop 2007 |Company: Autodesk,Inc. |WEB Address: www.autodesk.com
 90
    32897
280
     0
281
     0
  0
CLASS
  1
AEC_DISP_PROPS_WINDOW_PLAN_100
  2
AecDbDispPropsWindowPlan100
  3
AecArchDACHBase50|Product Desc: Autodesk Architectural Desktop 2007 |Company: Autodesk,Inc. |WEB Address: www.autodesk.com
 90
    32897
280
     0
281
     0
  0
CLASS
  1
AEC_DISP_REP_WINDOW_PLAN_50
  2
AecDbDispRepWindowPlan50
  3
AecArchDACHBase50|Product Desc: Autodesk Architectural Desktop 2007 |Company: Autodesk,Inc. |WEB Address: www.autodesk.com
 90
    32897
280
     0
281
     0
  0
CLASS
  1
AEC_DISP_PROPS_WINDOW_PLAN_50
  2
AecDbDispPropsWindowPlan50
  3
AecArchDACHBase50|Product Desc: Autodesk Architectural Desktop 2007 |Company: Autodesk,Inc. |WEB Address: www.autodesk.com
 90
    32897
280
     0
281
     0
  0
CLASS
  1
BINRECORD
  2
AcAecBinRecord
  3
AecBase50|Product Desc: Autodesk Architectural Desktop 2007 |Company: Autodesk,Inc. |WEB Address: www.autodesk.com
 90
    32897
280
     0
281
     0
  0
CLASS
  1
SORTENTSTABLE
  2
AcDbSortentsTable
  3
ObjectDBX Classes
 90
        0
280
     0
281
     0
  0
CLASS
  1
AEC_MASS_ELEM
  2
AecDbMassElem
  3
AecBaseEx50|Product Desc: Autodesk Architectural Desktop 2007 |Company: Autodesk,Inc. |WEB Address: www.autodesk.com
 90
    33661
280
     0
281
     1
  0
CLASS
  1
MATERIAL
  2
AcDbMaterial
  3
ObjectDBX Classes
 90
     1153
280
     0
281
     0
  0
CLASS
  1
AECS_MEMBER
  2
AecsDbMember
  3
AecStructureBase50|Product Desc: Autodesk Architectural Desktop 2007 |Company: Autodesk,Inc. |WEB Address: www.autodesk.com
 90
    33661
280
     0
281
     1
  0
CLASS
  1
AEC_WALL
  2
AecDbWall
  3
AecArchBase50|Product Desc: Autodesk Architectural Desktop 2007 |Company: Autodesk,Inc. |WEB Address: www.autodesk.com
 90
    33661
280
     0
281
     1
  0
CLASS
  1
AEC_DOOR
  2
AecDbDoor
  3
AecArchBase50|Product Desc: Autodesk Architectural Desktop 2007 |Company: Autodesk,Inc. |WEB Address: www.autodesk.com
 90
    33661
280
     0
281
     1
  0
CLASS
  1
AEC_ANCHOR_OPENINGBASE_TO_WALL
  2
AecDbAnchorOpeningBaseToWall
  3
AecArchBase50|Product Desc: Autodesk Architectural Desktop 2007 |Company: Autodesk,Inc. |WEB Address: www.autodesk.com
 90
    32897
280
     0
281
     0
  0
CLASS
  1
AEC_SPACE_BOUNDARY
  2
AecDbSpaceBoundary
  3
AecArchBase50|Product Desc: Autodesk Architectural Desktop 2007 |Company: Autodesk,Inc. |WEB Address: www.autodesk.com
 90
    33661
280
     0
281
     1
  0
CLASS
  1
AEC_SPACE
  2
AecDbSpace
  3
AecArchBase50|Product Desc: Autodesk Architectural Desktop 2007 |Company: Autodesk,Inc. |WEB Address: www.autodesk.com
 90
    33661
280
     0
281
     1
  0
CLASS
  1
AecDbPropertySet
  2
AecDbPropertySet
  3
AecScheduleData50|Product Desc: Autodesk Architectural Desktop 2007 |Company: Autodesk,Inc. |WEB Address: www.autodesk.com
 90
    32897
280
     0
281
     0
  0
CLASS
  1
AEC_MVBLOCK_REF
  2
AecDbMvBlockRef
  3
AecBase50|Product Desc: Autodesk Architectural Desktop 2007 |Company: Autodesk,Inc. |WEB Address: www.autodesk.com
 90
    33661
280
     0
281
     1
  0
CLASS
  1
AEC_ANCHOR_TAG_TO_ENT
  2
AecDbAnchorTagToEnt
  3
AecScheduleData50|Product Desc: Autodesk Architectural Desktop 2007 |Company: Autodesk,Inc. |WEB Address: www.autodesk.com
 90
    32897
280
     0
281
     0
  0
CLASS
  1
AEC_WINDOW
  2
AecDbWindow
  3
AecArchBase50|Product Desc: Autodesk Architectural Desktop 2007 |Company: Autodesk,Inc. |WEB Address: www.autodesk.com
 90
    33661
280
     0
281
     1
  0
CLASS
  1
AEC_OPENING
  2
AecDbOpening
  3
AecArchBase50|Product Desc: Autodesk Architectural Desktop 2007 |Company: Autodesk,Inc. |WEB Address: www.autodesk.com
 90
    33661
280
     0
281
     1
  0
CLASS
  1
AEC_CLASSIFICATION_SYSTEM_DEF
  2
AecDbClassificationSystemDef
  3
AecBase50|Product Desc: Autodesk Architectural Desktop 2007 |Company: Autodesk,Inc. |WEB Address: www.autodesk.com
 90
    32897
280
     0
281
     0
  0
CLASS
  1
AEC_CLASSIFICATION_DEF
  2
AecDbClassificationDef
  3
AecBase50|Product Desc: Autodesk Architectural Desktop 2007 |Company: Autodesk,Inc. |WEB Address: www.autodesk.com
 90
    32897
280
     0
281
     0
  0
CLASS
  1
AEC_CLEANUP_GROUP_DEF
  2
AecDbCleanupGroupDef
  3
AecArchBase50|Product Desc: Autodesk Architectural Desktop 2007 |Company: Autodesk,Inc. |WEB Address: www.autodesk.com
 90
    32897
280
     0
281
     0
  0
CLASS
  1
AEC_DOOR_STYLE
  2
AecDbDoorStyle
  3
AecArchBase50|Product Desc: Autodesk Architectural Desktop 2007 |Company: Autodesk,Inc. |WEB Address: www.autodesk.com
 90
    32897
280
     0
281
     0
  0
CLASS
  1
AEC_STDSIZE_OPENINGS
  2
AecDbStdSizeOpeningList
  3
AecArchBase50|Product Desc: Autodesk Architectural Desktop 2007 |Company: Autodesk,Inc. |WEB Address: www.autodesk.com
 90
    32897
280
     0
281
     0
  0
CLASS
  1
AEC_ENDCAP_STYLE
  2
AecDbEndcapStyle
  3
AecArchBase50|Product Desc: Autodesk Architectural Desktop 2007 |Company: Autodesk,Inc. |WEB Address: www.autodesk.com
 90
    32897
280
     0
281
     0
  0
CLASS
  1
AEC_MASS_ELEM_STYLE
  2
AecDbMassElemStyle
  3
AecBaseEx50|Product Desc: Autodesk Architectural Desktop 2007 |Company: Autodesk,Inc. |WEB Address: www.autodesk.com
 90
    32897
280
     0
281
     0
  0
CLASS
  1
AEC_MATERIAL_DEF
  2
AecDbMaterialDef
  3
AecBase50|Product Desc: Autodesk Architectural Desktop 2007 |Company: Autodesk,Inc. |WEB Address: www.autodesk.com
 90
    32897
280
     0
281
     0
  0
CLASS
  1
AEC_MVBLOCK_DEF
  2
AecDbMvBlockDef
  3
AecBase50|Product Desc: Autodesk Architectural Desktop 2007 |Company: Autodesk,Inc. |WEB Address: www.autodesk.com
 90
    32897
280
     0
281
     0
  0
CLASS
  1
AEC_FRAME_DEF
  2
AecDbOpeningEndcapStyle
  3
AecArchBase50|Product Desc: Autodesk Architectural Desktop 2007 |Company: Autodesk,Inc. |WEB Address: www.autodesk.com
 90
    32897
280
     0
281
     0
  0
CLASS
  1
AEC_PROFILE_DEF
  2
AecDbProfileDef
  3
AecBase50|Product Desc: Autodesk Architectural Desktop 2007 |Company: Autodesk,Inc. |WEB Address: www.autodesk.com
 90
    32897
280
     0
281
     0
  0
CLASS
  1
AEC_SCHEDULE_DATA_FORMAT
  2
AecDbScheduleDataFormat
  3
AecScheduleData50|Product Desc: Autodesk Architectural Desktop 2007 |Company: Autodesk,Inc. |WEB Address: www.autodesk.com
 90
    32897
280
     0
281
     0
  0
CLASS
  1
AEC_PROPERTY_SET_DEF
  2
AecDbPropertySetDef
  3
AecScheduleData50|Product Desc: Autodesk Architectural Desktop 2007 |Company: Autodesk,Inc. |WEB Address: www.autodesk.com
 90
    32897
280
     0
281
     0
  0
CLASS
  1
AEC_SPACE_STYLES
  2
AecDbSpaceStyle
  3
AecArchBase50|Product Desc: Autodesk Architectural Desktop 2007 |Company: Autodesk,Inc. |WEB Address: www.autodesk.com
 90
    32897
280
     0
281
     0
  0
CLASS
  1
AEC_TEXT_NOTE
  2
AecDbTextNote
  3
AecBase50|Product Desc: Autodesk Architectural Desktop 2007 |Company: Autodesk,Inc. |WEB Address: www.autodesk.com
 90
    32897
280
     0
281
     0
  0
CLASS
  1
AECS_MEMBER_STYLE
  2
AecsDbMemberStyle
  3
AecStructureBase50|Product Desc: Autodesk Architectural Desktop 2007 |Company: Autodesk,Inc. |WEB Address: www.autodesk.com
 90
    32897
280
     0
281
     0
  0
CLASS
  1
AEC_VARS_STRUCTUREBASE
  2
AecsDbVarsStructureBase
  3
AecStructureBase50|Product Desc: Autodesk Architectural Desktop 2007 |Company: Autodesk,Inc. |WEB Address: www.autodesk.com
 90
    32897
280
     0
281
     0
  0
CLASS
  1
AEC_WALL_STYLE
  2
AecDbWallStyle
  3
AecArchBase50|Product Desc: Autodesk Architectural Desktop 2007 |Company: Autodesk,Inc. |WEB Address: www.autodesk.com
 90
    32897
280
     0
281
     0
  0
CLASS
  1
AEC_WINDOW_STYLE
  2
AecDbWindowStyle
  3
AecArchBase50|Product Desc: Autodesk Architectural Desktop 2007 |Company: Autodesk,Inc. |WEB Address: www.autodesk.com
 90
    32897
280
     0
281
     0
  0
CLASS
  1
AECS_MEMBER_NODE_SHAPE
  2
AecsDbMemberNodeShape
  3
AecStructureBase50|Product Desc: Autodesk Architectural Desktop 2007 |Company: Autodesk,Inc. |WEB Address: www.autodesk.com
 90
    32897
280
     0
281
     0
  0
CLASS
  1
AEC_SCHEDULE_TABLE
  2
AecDbScheduleTable
  3
AecSchedule50|Product Desc: Autodesk Architectural Desktop 2007 |Company: Autodesk,Inc. |WEB Address: www.autodesk.com
 90
    33661
280
     0
281
     1
  0
CLASS
  1
AEC_SCHEDULE_TABLE_STYLE
  2
AecDbScheduleTableStyle
  3
AecSchedule50|Product Desc: Autodesk Architectural Desktop 2007 |Company: Autodesk,Inc. |WEB Address: www.autodesk.com
 90
    32897
280
     0
281
     0
  0
CLASS
  1
AEC_ANCHOR_MVB_TO_UCS
  2
AecDbAnchorMVBToUCS
  3
AecBase50|Product Desc: Autodesk Architectural Desktop 2007 |Company: Autodesk,Inc. |WEB Address: www.autodesk.com
 90
    32897
280
     0
281
     0
  0
CLASS
  1
IMAGEDEF
  2
AcDbRasterImageDef
  3
ISM
 90
    32768
280
     0
281
     0
  0
CLASS
  1
AEC_ANCHOR_ENT_TO_GRID_ASSEMBLY
  2
AecDbAnchorEntToGridAssembly
  3
AecBase50|Product Desc: Autodesk Architectural Desktop 2007 |Company: Autodesk,Inc. |WEB Address: www.autodesk.com
 90
    32897
280
     0
281
     0
  0
CLASS
  1
AEC_WINDOW_ASSEMBLY
  2
AecDbWindowAssembly
  3
AecArchBase50|Product Desc: Autodesk Architectural Desktop 2007 |Company: Autodesk,Inc. |WEB Address: www.autodesk.com
 90
    33661
280
     0
281
     1
  0
CLASS
  1
AEC_ANCHOR_WINASSEMBLY_TO_WALL
  2
AecDbAnchorWinAssemblyToWall
  3
AecArchBase50|Product Desc: Autodesk Architectural Desktop 2007 |Company: Autodesk,Inc. |WEB Address: www.autodesk.com
 90
    32897
280
     0
281
     0
  0
CLASS
  1
AEC_STAIR
  2
AecDbStair
  3
AecArchBase50|Product Desc: Autodesk Architectural Desktop 2007 |Company: Autodesk,Inc. |WEB Address: www.autodesk.com
 90
    33661
280
     0
281
     1
  0
CLASS
  1
AEC_RAILING
  2
AecDbRailing
  3
AecArchBase50|Product Desc: Autodesk Architectural Desktop 2007 |Company: Autodesk,Inc. |WEB Address: www.autodesk.com
 90
    33661
280
     0
281
     1
  0
CLASS
  1
AEC_ANCHOR_RAILING_TO_STAIR
  2
AecDbAnchorRailingToStair
  3
AecArchBase50|Product Desc: Autodesk Architectural Desktop 2007 |Company: Autodesk,Inc. |WEB Address: www.autodesk.com
 90
    32897
280
     0
281
     0
  0
CLASS
  1
AEC_RAILING_STYLE
  2
AecDbRailingStyle
  3
AecArchBase50|Product Desc: Autodesk Architectural Desktop 2007 |Company: Autodesk,Inc. |WEB Address: www.autodesk.com
 90
    32897
280
     0
281
     0
  0
CLASS
  1
AEC_STAIR_STYLE
  2
AecDbStairStyle
  3
AecArchBase50|Product Desc: Autodesk Architectural Desktop 2007 |Company: Autodesk,Inc. |WEB Address: www.autodesk.com
 90
    32897
280
     0
281
     0
  0
CLASS
  1
AEC_STAIR_WINDER_STYLE
  2
AecDbStairWinderStyle
  3
AecArchBase50|Product Desc: Autodesk Architectural Desktop 2007 |Company: Autodesk,Inc. |WEB Address: www.autodesk.com
 90
    32897
280
     0
281
     0
  0
CLASS
  1
AEC_STAIR_WINDER_TYPE_SINGLE_POINT
  2
AecDbStairWinderTypeSinglePoint
  3
AecArchBase50|Product Desc: Autodesk Architectural Desktop 2007 |Company: Autodesk,Inc. |WEB Address: www.autodesk.com
 90
    32897
280
     0
281
     0
  0
CLASS
  1
AEC_WINDOW_ASSEMBLY_STYLE
  2
AecDbWindowAssemblyStyle
  3
AecArchBase50|Product Desc: Autodesk Architectural Desktop 2007 |Company: Autodesk,Inc. |WEB Address: www.autodesk.com
 90
    32897
280
     0
281
     0
  0
CLASS
  1
AEC_AECDBAREASTYLE
  2
AecDbAreaStyle
  3
AecAreaCalculationBase50|Product Desc: Autodesk Architectural Desktop 2007 |Company: Autodesk,Inc. |WEB Address: www.autodesk.com
 90
    32897
280
     0
281
     0
  0
CLASS
  1
AEC_AECDBAREAPROPOSALNAMES
  2
AecDbAreaProposalNames
  3
AecAreaCalculationBase50|Product Desc: Autodesk Architectural Desktop 2007 |Company: Autodesk,Inc. |WEB Address: www.autodesk.com
 90
    32897
280
     0
281
     0
  0
CLASS
  1
AEC_AREA
  2
AecDbArea
  3
AecAreaCalculationBase50|Product Desc: Autodesk Architectural Desktop 2007 |Company: Autodesk,Inc. |WEB Address: www.autodesk.com
 90
    33661
280
     0
281
     1
  0
CLASS
  1
OBJECT_PTR
  2
CAseDLPNTableRecord
  3
ASE-LPNTableRecord
 90
    32769
280
     1
281
     0
  0
CLASS
  1
TABLESTYLE
  2
AcDbTableStyle
  3
ObjectDBX Classes
 90
     4095
280
     0
281
     0
  0
CLASS
  1
AEC_DISP_REP_DISPLAYTHEME
  2
AecDbDispRepDisplayTheme
  3
AecBase50|Product Desc: Autodesk Architectural Desktop 2007 |Company: Autodesk,Inc. |WEB Address: www.autodesk.com
 90
    32897
280
     0
281
     0
  0
CLASS
  1
AEC_DISP_PROPS_DISPLAYTHEME
  2
AecDbDispPropsDisplayTheme
  3
AecBase50|Product Desc: Autodesk Architectural Desktop 2007 |Company: Autodesk,Inc. |WEB Address: www.autodesk.com
 90
    32897
280
     0
281
     0
  0
CLASS
  1
AEC_DISP_REP_ANCHOR_EXT_TAG_TO_ENT
  2
AecDbDispRepAnchorExtendedTagToEnt
  3
AecScheduleData50|Product Desc: Autodesk Architectural Desktop 2007 |Company: Autodesk,Inc. |WEB Address: www.autodesk.com
 90
    32897
280
     0
281
     0
  0
CLASS
  1
VISUALSTYLE
  2
AcDbVisualStyle
  3
ObjectDBX Classes
 90
     4095
280
     0
281
     0
  0
CLASS
  1
AEC_AECDBDISPREPZONE100
  2
AecDbDispRepZonePlan100
  3
AecArchDACHBase50|Product Desc: Autodesk Architectural Desktop 2007 |Company: Autodesk,Inc. |WEB Address: www.autodesk.com
 90
    32897
280
     0
281
     0
  0
CLASS
  1
AEC_DISP_PROPS_ZONE
  2
AecDbDispPropsZone
  3
AecArchBase50|Product Desc: Autodesk Architectural Desktop 2007 |Company: Autodesk,Inc. |WEB Address: www.autodesk.com
 90
    32897
280
     0
281
     0
  0
CLASS
  1
AEC_AECDBDISPREPZONE50
  2
AecDbDispRepZonePlan50
  3
AecArchDACHBase50|Product Desc: Autodesk Architectural Desktop 2007 |Company: Autodesk,Inc. |WEB Address: www.autodesk.com
 90
    32897
280
     0
281
     0
  0
CLASS
  1
AEC_DISP_REP_SPACE_DECOMPOSED
  2
AecDbDispRepSpaceDecomposed
  3
AecArchBase50|Product Desc: Autodesk Architectural Desktop 2007 |Company: Autodesk,Inc. |WEB Address: www.autodesk.com
 90
    32897
280
     0
281
     0
  0
CLASS
  1
AEC_DISP_PROPS_SPACE_DECOMPOSED
  2
AecDbDispPropsSpaceDecomposed
  3
AecArchBase50|Product Desc: Autodesk Architectural Desktop 2007 |Company: Autodesk,Inc. |WEB Address: www.autodesk.com
 90
    32897
280
     0
281
     0
  0
CLASS
  1
AEC_DISP_REP_ZONE
  2
AecDbDispRepZone
  3
AecArchBase50|Product Desc: Autodesk Architectural Desktop 2007 |Company: Autodesk,Inc. |WEB Address: www.autodesk.com
 90
    32897
280
     0
281
     0
  0
CLASS
  1
AEC_LIST_DEF
  2
AecDbListDefinition
  3
AecBase50|Product Desc: Autodesk Architectural Desktop 2007 |Company: Autodesk,Inc. |WEB Address: www.autodesk.com
 90
    32897
280
     0
281
     0
  0
CLASS
  1
EXACXREFPANELOBJECT
  2
ExAcXREFPanelObject
  3
EXAC_ESW
 90
    33793
280
     1
281
     0
  0
CLASS
  1
NPOCOLLECTION
  2
AcDbImpNonPersistentObjectsCollection
  3
ObjectDBX Classes
 90
    33921
280
     0
281
     0
  0
CLASS
  1
ACAD_EVALUATION_GRAPH
  2
AcDbEvalGraph
  3
ObjectDBX Classes
 90
    33921
280
     0
281
     0
  0
CLASS
  1
BLOCKLINEARPARAMETER
  2
AcDbBlockLinearParameter
  3
ObjectDBX Classes
 90
    33921
280
     0
281
     0
  0
CLASS
  1
BLOCKLINEARGRIP
  2
AcDbBlockLinearGrip
  3
ObjectDBX Classes
 90
    33921
280
     0
281
     0
  0
CLASS
  1
BLOCKGRIPLOCATIONCOMPONENT
  2
AcDbBlockGripExpr
  3
ObjectDBX Classes
 90
    33921
280
     0
281
     0
  0
CLASS
  1
BLOCKSTRETCHACTION
  2
AcDbBlockStretchAction
  3
ObjectDBX Classes
 90
    33921
280
     0
281
     0
  0
CLASS
  1
BLOCKFLIPPARAMETER
  2
AcDbBlockFlipParameter
  3
ObjectDBX Classes
 90
    33921
280
     0
281
     0
  0
CLASS
  1
BLOCKFLIPGRIP
  2
AcDbBlockFlipGrip
  3
ObjectDBX Classes
 90
    33921
280
     0
281
     0
  0
CLASS
  1
BLOCKFLIPACTION
  2
AcDbBlockFlipAction
  3
ObjectDBX Classes
 90
    33921
280
     0
281
     0
  0
CLASS
  1
ACDB_DYNAMICBLOCKPURGEPREVENTER_VERSION
  2
AcDbDynamicBlockPurgePreventer
  3
ObjectDBX Classes
 90
    33921
280
     0
281
     0
  0
CLASS
  1
ACDB_BLOCKREPRESENTATION_DATA
  2
AcDbBlockRepresentationData
  3
ObjectDBX Classes
 90
    33921
280
     0
281
     0
  0
CLASS
  1
AEC_SLAB
  2
AecDbSlab
  3
AecArchBase50|Product Desc: Autodesk Architectural Desktop 2007 |Company: Autodesk,Inc. |WEB Address: www.autodesk.com
 90
    33661
280
     0
281
     1
  0
CLASS
  1
AEC_LIST_DEF
  2
AecDbListItem
  3
AecBase50|Product Desc: Autodesk Architectural Desktop 2007 |Company: Autodesk,Inc. |WEB Address: www.autodesk.com
 90
    32897
280
     0
281
     0
  0
CLASS
  1
AEC_ROOFSLAB_STYLE
  2
AecDbRoofSlabStyle
  3
AecArchBase50|Product Desc: Autodesk Architectural Desktop 2007 |Company: Autodesk,Inc. |WEB Address: www.autodesk.com
 90
    32897
280
     0
281
     0
  0
CLASS
  1
AEC_ROOFSLABEDGE_STYLE
  2
AecDbRoofSlabEdgeStyle
  3
AecArchBase50|Product Desc: Autodesk Architectural Desktop 2007 |Company: Autodesk,Inc. |WEB Address: www.autodesk.com
 90
    32897
280
     0
281
     0
  0
CLASS
  1
AEC_SLAB_STYLE
  2
AecDbSlabStyle
  3
AecArchBase50|Product Desc: Autodesk Architectural Desktop 2007 |Company: Autodesk,Inc. |WEB Address: www.autodesk.com
 90
    32897
280
     0
281
     0
  0
CLASS
  1
AEC_SLABEDGE_STYLE
  2
AecDbSlabEdgeStyle
  3
AecArchBase50|Product Desc: Autodesk Architectural Desktop 2007 |Company: Autodesk,Inc. |WEB Address: www.autodesk.com
 90
    32897
280
     0
281
     0
  0
CLASS
  1
EXACTERMXREFMAP
  2
ExAcTermXrefMap
  3
EXAC_SERVICE
 90
    33793
280
     1
281
     0
  0
CLASS
  1
AEC_AECDBZONESTYLE
  2
AecDbZoneStyle
  3
AecArchBase50|Product Desc: Autodesk Architectural Desktop 2007 |Company: Autodesk,Inc. |WEB Address: www.autodesk.com
 90
    32897
280
     0
281
     0
  0
CLASS
  1
AEC_ZONE
  2
AecDbZone
  3
AecArchBase50|Product Desc: Autodesk Architectural Desktop 2007 |Company: Autodesk,Inc. |WEB Address: www.autodesk.com
 90
    33661
280
     0
281
     1
  0
CLASS
  1
ACAD_TABLE
  2
AcDbTable
  3
ObjectDBX Classes
 90
    33793
280
     0
281
     1
  0
CLASS
  1
AEC_DISPLAYTHEME_STYLE
  2
AecDbDisplayThemeStyle
  3
AecBase50|Product Desc: Autodesk Architectural Desktop 2007 |Company: Autodesk,Inc. |WEB Address: www.autodesk.com
 90
    32897
280
     0
281
     0
  0
CLASS
  1
DIMASSOC
  2
AcDbDimAssoc
  3
"AcDbDimAssoc|Product Desc:     AcDim ARX App For Dimension|Company:          Autodesk, Inc.|WEB Address:      www.autodesk.com"
 90
    32768
280
     0
281
     0
  0
CLASS
  1
AEC_MASS_GROUP
  2
AecDbMassGroup
  3
AecBaseEx50|Product Desc: Autodesk Architectural Desktop 2007 |Company: Autodesk,Inc. |WEB Address: www.autodesk.com
 90
    33661
280
     0
281
     1
  0
CLASS
  1
AEC_ANCHOR_ENT_TO_ENT
  2
AecDbAnchorEntToEnt
  3
AecBase50|Product Desc: Autodesk Architectural Desktop 2007 |Company: Autodesk,Inc. |WEB Address: www.autodesk.com
 90
    32897
280
     0
281
     0
  0
CLASS
  1
AEC_2D_SECTION
  2
AecDb2dSection
  3
AecBase50|Product Desc: Autodesk Architectural Desktop 2007 |Company: Autodesk,Inc. |WEB Address: www.autodesk.com
 90
    33661
280
     0
281
     1
  0
CLASS
  1
AEC_2DSECTION_STYLE
  2
AecDb2dSectionStyle
  3
AecBase50|Product Desc: Autodesk Architectural Desktop 2007 |Company: Autodesk,Inc. |WEB Address: www.autodesk.com
 90
    32897
280
     0
281
     0
  0
CLASS
  1
SCALE
  2
AcDbScale
  3
ObjectDBX Classes
 90
     1153
280
     0
281
     0
  0
CLASS
  1
MLEADERSTYLE
  2
AcDbMLeaderStyle
  3
ACDB_MLEADERSTYLE_CLASS
 90
     4095
280
     0
281
     0
  0
CLASS
  1
AEC_REFEDIT_STATUS_TRACKER
  2
AecDbRefEditStatusTracker
  3
AecArchBase50|Product Desc: Autodesk Architectural Desktop 2007 |Company: Autodesk,Inc. |WEB Address: www.autodesk.com
 90
    32897
280
     0
281
     0
  0
CLASS
  1
CELLSTYLEMAP
  2
AcDbCellStyleMap
  3
ObjectDBX Classes
 90
     1152
280
     0
281
     0
  0
CLASS
  1
BLOCKARRAYACTION
  2
AcDbBlockArrayAction
  3
ObjectDBX Classes
 90
    33921
280
     0
281
     0
  0
CLASS
  1
BLOCKBASEPOINTPARAMETER
  2
AcDbBlockBasepointParameter
  3
ObjectDBX Classes
 90
    33921
280
     0
281
     0
  0
CLASS
  1
SOLID_BACKGROUND
  2
AcDbSolidBackground
  3
SCENEOE
 90
    36863
280
     0
281
     0
  0
ENDSEC
  0
SECTION
  2
TABLES
  0
TABLE
  2
VPORT
  5
28
330
0
100
AcDbSymbolTable
 70
     1
  0
VPORT
  5
29
330
28
100
AcDbSymbolTableRecord
100
AcDbViewportTableRecord
  2
*Active
 70
     0
 10
0.0
 20
0.0
 11
1.0
 21
1.0
 12
72180.74326249535
 22
-6517.684230415977
 13
-3534.953416816247
 23
4038.000000000049
 14
1.0
 24
1.0
 15
1.0
 25
1.0
 16
0.0
 26
0.0
 36
1.0
 17
0.0
 27
0.0
 37
0.0
 40
29967.90974801878
 41
1.612947658402203
 42
50.0
 43
0.0
 44
0.0
 50
0.0
 51
0.0
 71
     0
 72
  2000
 73
     1
 74
     1
 75
     0
 76
     0
 77
     0
 78
     0
281
     0
 65
     1
110
0.0
120
0.0
130
0.0
111
1.0
121
0.0
131
0.0
112
0.0
122
1.0
132
0.0
 79
     0
146
0.0
  0
ENDTAB
  0
TABLE
  2
LTYPE
  5
23
330
0
100
AcDbSymbolTable
 70
     4
  0
LTYPE
  5
24
330
23
100
AcDbSymbolTableRecord
100
AcDbLinetypeTableRecord
  2
BYBLOCK
 70
     0
  3

 72
    65
 73
     0
 40
0.0
  0
LTYPE
  5
25
330
23
100
AcDbSymbolTableRecord
100
AcDbLinetypeTableRecord
  2
BYLAYER
 70
     0
  3

 72
    65
 73
     0
 40
0.0
  0
LTYPE
  5
E
330
23
100
AcDbSymbolTableRecord
100
AcDbLinetypeTableRecord
  2
CONTINUOUS
 70
     0
  3
Solid line
 72
    65
 73
     0
 40
0.0
  0
LTYPE
  5
77
330
23
100
AcDbSymbolTableRecord
100
AcDbLinetypeTableRecord
  2
DASHED
 70
     0
  3
Dashed __ __ __ __ __ __ __ __ __ __ __ __ __ _
 72
    65
 73
     2
 40
0.75
 49
0.5
 74
     0
 49
-0.25
 74
     0
  0
ENDTAB
  0
TABLE
  2
LAYER
  5
1D
102
{ACAD_XDICTIONARY
360
1E
102
}
330
0
100
AcDbSymbolTable
 70
    11
  0
LAYER
  5
6
102
{ACAD_XDICTIONARY
360
7
102
}
330
1D
100
AcDbSymbolTableRecord
100
AcDbLayerTableRecord
  2
0
 70
     0
 62
     7
  6
CONTINUOUS
370
    -3
390
9
1001
RAK
1000
{ACET-LAYISO
1070
     0
1070
     7
1000
CONTINUOUS
1070
     1
1071
       -3
1071
        1
1005
9
1000
ACET-LAYISO}
  0
LAYER
  5
74
102
{ACAD_XDICTIONARY
360
75
102
}
330
1D
100
AcDbSymbolTableRecord
100
AcDbLayerTableRecord
  2
NAPISY
 70
     0
 62
   140
  6
CONTINUOUS
370
    -3
390
9
1001
RAK
1000
{ACET-LAYISO
1070
     0
1070
   140
1000
CONTINUOUS
1071
       -3
1071
        1
1005
9
1000
ACET-LAYISO}
  0
LAYER
  5
3B5
330
1D
100
AcDbSymbolTableRecord
100
AcDbLayerTableRecord
  2
Defpoints
 70
     0
 62
     7
  6
CONTINUOUS
290
     0
370
    -3
390
9
1001
RAK
1000
{ACET-LAYISO
1070
     0
1070
     7
1000
CONTINUOUS
1071
       -3
1071
        0
1005
9
1000
ACET-LAYISO}
  0
LAYER
  5
56
102
{ACAD_XDICTIONARY
360
57
102
}
330
1D
100
AcDbSymbolTableRecord
100
AcDbLayerTableRecord
  2
0Wymiary-PL
 70
     0
 62
     1
  6
CONTINUOUS
370
     5
390
9
  0
LAYER
  5
3A3
102
{ACAD_XDICTIONARY
360
3A4
102
}
330
1D
100
AcDbSymbolTableRecord
100
AcDbLayerTableRecord
  2
0Hatch
 70
     0
 62
   122
  6
CONTINUOUS
370
     5
390
9
  0
LAYER
  5
7E
102
{ACAD_XDICTIONARY
360
7F
102
}
330
1D
100
AcDbSymbolTableRecord
100
AcDbLayerTableRecord
  2
RAMKI-A4
 70
     0
 62
     2
  6
CONTINUOUS
290
     0
370
    -3
390
9
1001
RAK
1000
{ACET-LAYISO
1070
     0
1070
     2
1000
Continuous
1071
       -3
1071
        0
1005
9
1000
ACET-LAYISO}
  0
LAYER
  5
1326
330
1D
100
AcDbSymbolTableRecord
100
AcDbLayerTableRecord
  2
TEREN$0$A-MassElement-G
 70
     0
 62
   210
  6
CONTINUOUS
370
     9
390
9
1001
AcAecLayerStandard
1000
BS1192 - Descriptive
1001
RAK
1000
{ACET-LAYISO
1070
     0
1070
   210
1000
Continuous
1071
        9
1071
        1
1005
9
1000
ACET-LAYISO}
  0
LAYER
  5
1A18
102
{ACAD_XDICTIONARY
360
1A19
102
}
330
1D
100
AcDbSymbolTableRecord
100
AcDbLayerTableRecord
  2
WYMIARY
 70
     0
 62
     1
  6
CONTINUOUS
370
    -3
390
9
  0
ENDTAB
  0
TABLE
  2
STYLE
  5
20
330
0
100
AcDbSymbolTable
 70
     5
  0
STYLE
  5
21
330
20
100
AcDbSymbolTableRecord
100
AcDbTextStyleTableRecord
  2
STANDARD
 70
     0
 40
0.0
 41
1.0
 50
0.0
 71
     0
 42
0.2
  3
txt
  4

  0
STYLE
  5
2E
330
20
100
AcDbSymbolTableRecord
100
AcDbTextStyleTableRecord
  2
ROMANS
 70
     0
 40
0.0
 41
0.9
 50
0.0
 71
     0
 42
5.0
  3
romans.shx
  4

  0
STYLE
  5
79
330
20
100
AcDbSymbolTableRecord
100
AcDbTextStyleTableRecord
  2
AVA
 70
     0
 40
0.0
 41
1.0
 50
0.0
 71
     0
 42
20.0
  3
ARIAL.TTF
  4

1001
ACAD
1000
Arial CE
1071
    60962
  0
ENDTAB
  0
TABLE
  2
VIEW
  5
26
330
0
100
AcDbSymbolTable
 70
     1
  0
VIEW
  5
13
330
26
100
AcDbSymbolTableRecord
100
AcDbViewTableRecord
  2
10-ele
 70
     0
 40
2040.000000000001
 10
597.6361962217097
 20
4133.999999999996
 41
2803.999999999998
 11
0.0
 21
0.0
 31
1.0
 12
0.0
 22
0.0
 32
0.0
 42
50.0
 43
0.0
 44
0.0
 50
0.0
 71
     0
281
     0
 72
     1
110
0.0
120
0.0
130
0.0
111
1.0
121
0.0
131
0.0
112
0.0
122
1.0
132
0.0
 79
     0
146
0.0
  0
ENDTAB
  0
TABLE
  2
UCS
  5
27
330
0
100
AcDbSymbolTable
 70
     0
  0
ENDTAB
  0
TABLE
  2
APPID
  5
2A
330
0
100
AcDbSymbolTable
 70
     6
  0
APPID
  5
2B
330
2A
100
AcDbSymbolTableRecord
100
AcDbRegAppTableRecord
  2
ACAD
 70
     0
  0
APPID
  5
F
330
2A
100
AcDbSymbolTableRecord
100
AcDbRegAppTableRecord
  2
RAK
 70
     0
  0
APPID
  5
16
330
2A
100
AcDbSymbolTableRecord
100
AcDbRegAppTableRecord
  2
ACAD_PSEXT
 70
     0
  0
APPID
  5
7AA
330
2A
100
AcDbSymbolTableRecord
100
AcDbRegAppTableRecord
  2
ACAD_MLEADERVER
 70
     0
  0
APPID
  5
B8E
330
2A
100
AcDbSymbolTableRecord
100
AcDbRegAppTableRecord
  2
ACAD_EXEMPT_FROM_CAD_STANDARDS
 70
     0
  0
APPID
  5
132A
330
2A
100
AcDbSymbolTableRecord
100
AcDbRegAppTableRecord
  2
AcAecLayerStandard
 70
     0
  0
ENDTAB
  0
TABLE
  2
DIMSTYLE
  5
2C
330
0
100
AcDbSymbolTable
 70
     4
100
AcDbDimStyleTable
 71
     2
340
2D
340
4C
  0
DIMSTYLE
105
4C
330
2C
100
AcDbSymbolTableRecord
100
AcDbDimStyleTableRecord
  2
Standard
 70
     0
340
21
  0
DIMSTYLE
105
2D
102
{ACAD_REACTORS
330
1E26
330
1E39
330
1E3A
330
1E3B
330
1E3C
330
1E3D
330
1E3E
330
1E3F
330
1E40
330
1E41
330
1E42
330
1E43
330
2087
330
208E
330
208F
330
2090
330
2091
330
2092
330
2093
330
2094
330
2095
330
2096
330
2097
330
2098
102
}
330
2C
100
AcDbSymbolTableRecord
100
AcDbDimStyleTableRecord
  2
500
 70
     0
 41
30.0
 42
43.0
 43
0.0
 44
13.0
 45
0.5
 46
12.0
 73
     0
 74
     0
 75
     1
 76
     1
 78
    12
140
80.0
141
0.0
145
1.0
147
0.0
172
     1
174
     1
176
     1
177
     1
178
   140
271
     1
272
     1
279
     2
340
2E
341
2F
342
2F
  0
ENDTAB
  0
TABLE
  2
BLOCK_RECORD
  5
1
330
0
100
AcDbSymbolTable
 70
    82
  0
BLOCK_RECORD
  5
2
102
{ACAD_XDICTIONARY
360
3
102
}
330
1
100
AcDbSymbolTableRecord
100
AcDbBlockTableRecord
  2
*MODEL_SPACE
340
11
  0
BLOCK_RECORD
  5
1942
330
1
100
AcDbSymbolTableRecord
100
AcDbBlockTableRecord
  2
*Paper_Space
340
1943
  0
BLOCK_RECORD
  5
2F
102
{ACAD_XDICTIONARY
360
30
102
}
330
1
100
AcDbSymbolTableRecord
100
AcDbBlockTableRecord
  2
B-DIM
340
0
102
{BLKREFS
331
1BB3
331
1BB4
331
1BBA
331
1BBB
331
1BC1
331
1BC2
331
1BCF
331
1BD0
331
1BD6
331
1BD7
331
1BDD
331
1BDE
331
1BE6
331
1BE7
331
1BF6
331
1BF7
331
1BFD
331
1BFE
331
1C04
331
1C05
331
1C0B
331
1C0C
331
1C14
331
1C15
331
1C22
331
1C23
331
1C29
331
1C2A
331
1C34
331
1C35
331
1C3D
331
1C3E
331
1C46
331
1C47
331
1C4D
331
1C4E
331
1C6E
331
1C6F
331
1C78
331
1C79
331
1C82
331
1C83
331
1C8C
331
1C8D
331
1C96
331
1C97
331
1CA0
331
1CA1
331
1CAA
331
1CAB
331
1CB4
331
1CB5
331
1CBE
331
1CBF
331
1CCA
331
1CCB
331
1CD6
331
1CD7
331
1CE0
331
1CE1
331
1D46
331
1D47
331
1D52
331
1D53
331
1CEA
331
1CEB
331
1CFE
331
1CFF
331
1D5C
331
1D5D
331
1CF4
331
1CF5
331
1D08
331
1D09
331
1D1C
331
1D1D
331
1D12
331
1D13
331
1D3A
331
1D3B
331
1D26
331
1D27
331
1D30
331
1D31
331
1F83
331
1F84
331
1F8A
331
1F8B
331
1FA6
331
1FA7
331
1FAD
331
1FAE
331
1FB4
331
1FB5
331
1FBB
331
1FBC
331
1FDD
331
1FDE
331
1FE6
331
1FE7
331
1FED
331
1FEE
331
1FF4
331
1FF5
331
1FFB
331
1FFC
331
2002
331
2003
331
2009
331
200A
331
2010
331
2011
331
2017
331
2018
331
201E
331
201F
331
2025
331
2026
331
202C
331
202D
331
2040
331
2041
331
2047
331
2048
331
204E
331
204F
331
2055
331
2056
331
205E
331
205F
331
2067
331
2068
331
2118
331
2119
331
211F
331
2120
331
2126
331
2127
331
212D
331
212E
331
2134
331
2135
331
213B
331
213C
331
2142
331
2143
331
2149
331
214A
331
2150
331
2151
331
2159
331
215A
331
2162
331
2163
331
2169
331
216A
102
}
  0
BLOCK_RECORD
  5
1E8A
330
1
100
AcDbSymbolTableRecord
100
AcDbBlockTableRecord
  2
*D44
340
0
  0
BLOCK_RECORD
  5
1E94
330
1
100
AcDbSymbolTableRecord
100
AcDbBlockTableRecord
  2
*D45
340
0
  0
BLOCK_RECORD
  5
1E9E
330
1
100
AcDbSymbolTableRecord
100
AcDbBlockTableRecord
  2
*D46
340
0
  0
BLOCK_RECORD
  5
1EA8
330
1
100
AcDbSymbolTableRecord
100
AcDbBlockTableRecord
  2
*D47
340
0
  0
BLOCK_RECORD
  5
1EB2
330
1
100
AcDbSymbolTableRecord
100
AcDbBlockTableRecord
  2
*D48
340
0
  0
BLOCK_RECORD
  5
1EBC
330
1
100
AcDbSymbolTableRecord
100
AcDbBlockTableRecord
  2
*D49
340
0
  0
BLOCK_RECORD
  5
1EC6
330
1
100
AcDbSymbolTableRecord
100
AcDbBlockTableRecord
  2
*D50
340
0
  0
BLOCK_RECORD
  5
1ED0
330
1
100
AcDbSymbolTableRecord
100
AcDbBlockTableRecord
  2
*D51
340
0
  0
BLOCK_RECORD
  5
1EDA
330
1
100
AcDbSymbolTableRecord
100
AcDbBlockTableRecord
  2
*D52
340
0
  0
BLOCK_RECORD
  5
1EE4
330
1
100
AcDbSymbolTableRecord
100
AcDbBlockTableRecord
  2
*D53
340
0
  0
BLOCK_RECORD
  5
1EF0
330
1
100
AcDbSymbolTableRecord
100
AcDbBlockTableRecord
  2
*D54
340
0
  0
BLOCK_RECORD
  5
1EFC
330
1
100
AcDbSymbolTableRecord
100
AcDbBlockTableRecord
  2
*D55
340
0
  0
BLOCK_RECORD
  5
209B
330
1
100
AcDbSymbolTableRecord
100
AcDbBlockTableRecord
  2
*D69
340
0
  0
BLOCK_RECORD
  5
20A5
330
1
100
AcDbSymbolTableRecord
100
AcDbBlockTableRecord
  2
*D70
340
0
  0
BLOCK_RECORD
  5
20AF
330
1
100
AcDbSymbolTableRecord
100
AcDbBlockTableRecord
  2
*D71
340
0
  0
BLOCK_RECORD
  5
20B9
330
1
100
AcDbSymbolTableRecord
100
AcDbBlockTableRecord
  2
*D72
340
0
  0
BLOCK_RECORD
  5
20C3
330
1
100
AcDbSymbolTableRecord
100
AcDbBlockTableRecord
  2
*D73
340
0
  0
BLOCK_RECORD
  5
20CD
330
1
100
AcDbSymbolTableRecord
100
AcDbBlockTableRecord
  2
*D74
340
0
  0
BLOCK_RECORD
  5
20D7
330
1
100
AcDbSymbolTableRecord
100
AcDbBlockTableRecord
  2
*D75
340
0
  0
BLOCK_RECORD
  5
20E1
330
1
100
AcDbSymbolTableRecord
100
AcDbBlockTableRecord
  2
*D76
340
0
  0
BLOCK_RECORD
  5
20EB
330
1
100
AcDbSymbolTableRecord
100
AcDbBlockTableRecord
  2
*D77
340
0
  0
BLOCK_RECORD
  5
20F5
330
1
100
AcDbSymbolTableRecord
100
AcDbBlockTableRecord
  2
*D78
340
0
  0
BLOCK_RECORD
  5
2101
330
1
100
AcDbSymbolTableRecord
100
AcDbBlockTableRecord
  2
*D79
340
0
  0
BLOCK_RECORD
  5
210D
330
1
100
AcDbSymbolTableRecord
100
AcDbBlockTableRecord
  2
*D80
340
0
  0
ENDTAB
  0
ENDSEC
  0
SECTION
  2
BLOCKS
  0
BLOCK
  5
5
330
2
100
AcDbEntity
  8
0
100
AcDbBlockBegin
  2
*MODEL_SPACE
 70
     0
 10
0.0
 20
0.0
 30
0.0
  3
*MODEL_SPACE
  1

  0
ENDBLK
  5
10
330
2
100
AcDbEntity
  8
0
100
AcDbBlockEnd
  0
BLOCK
  5
1944
330
1942
100
AcDbEntity
 67
     1
  8
0
 48
4.0
100
AcDbBlockBegin
  2
*Paper_Space
 70
     0
 10
0.0
 20
0.0
 30
0.0
  3
*Paper_Space
  1

  0
ENDBLK
  5
1945
330
1942
100
AcDbEntity
 67
     1
  8
0
 48
4.0
100
AcDbBlockEnd
  0
BLOCK
  5
32
330
2F
100
AcDbEntity
  8
0
100
AcDbBlockBegin
  2
B-DIM
 70
     0
 10
0.0
 20
0.0
 30
0.0
  3
B-DIM
  1

  0
LINE
  5
33
330
2F
100
AcDbEntity
  8
0
 62
     1
100
AcDbLine
 10
0.000000000000091
 20
-1.1
 30
0.0
 11
0.000000000000091
 21
1.1
 31
0.0
  0
LWPOLYLINE
  5
34
330
2F
100
AcDbEntity
  8
0
 62
     1
100
AcDbPolyline
 90
        2
 70
     0
 43
0.3
 10
-0.7071067811864851
 20
-0.7071067811864851
 10
0.707106781186576
 20
0.707106781186576
  0
LINE
  5
35
330
2F
100
AcDbEntity
  8
0
 62
     1
100
AcDbLine
 10
1.20000000000009
 20
0.0
 30
0.0
 11
-1.199999999999909
 21
0.0
 31
0.0
  0
ENDBLK
  5
36
330
2F
100
AcDbEntity
  8
0
100
AcDbBlockEnd
  0
BLOCK
  5
1E8B
330
1E8A
100
AcDbEntity
  8
0
 48
4.0
100
AcDbBlockBegin
  2
*D44
 70
     1
 10
0.0
 20
0.0
 30
0.0
  3
*D44
  1

  0
LINE
  5
1F82
330
1E8A
100
AcDbEntity
  8
WYMIARY
 62
     1
370
    -2
100
AcDbLine
 10
68127.19483500099
 20
-4589.275307062489
 30
0.0
 11
68127.19483500099
 21
-3729.27530706249
 31
0.0
  0
INSERT
  5
1F83
330
1E8A
100
AcDbEntity
  8
WYMIARY
 62
     1
370
    -2
100
AcDbBlockReference
  2
B-DIM
 10
68127.19483500099
 20
-4619.27530706249
 30
0.0
 41
30.0
 42
30.0
 43
30.0
 50
270.0
  0
INSERT
  5
1F84
330
1E8A
100
AcDbEntity
  8
WYMIARY
 62
     1
370
    -2
100
AcDbBlockReference
  2
B-DIM
 10
68127.19483500099
 20
-3699.275307062489
 30
0.0
 41
30.0
 42
30.0
 43
30.0
 50
90.0
  0
MTEXT
  5
1F85
330
1E8A
100
AcDbEntity
  8
WYMIARY
 62
   140
100
AcDbMText
 10
68047.19483500099
 20
-4159.275307062478
 30
0.0
 40
80.0
 41
0.0
 71
     5
 72
     1
  1
\A1;920
  7
ROMANS
 11
0.0000000000000001
 21
1.0
 31
0.0
 73
     1
 44
1.0
1001
ACAD
1000
MTEXTBEGIN
1070
    73
1070
     1
1070
    44
1040
1.0
1070
    74
1070
     0
1000
MTEXTEND
  0
POINT
  5
1F86
330
1E8A
100
AcDbEntity
  8
Defpoints
 62
     0
100
AcDbPoint
 10
68564.01015155026
 20
-4619.27530706249
 30
0.0
  0
POINT
  5
1F87
330
1E8A
100
AcDbEntity
  8
Defpoints
 62
     0
100
AcDbPoint
 10
68564.01015155026
 20
-3699.275307062489
 30
0.0
  0
POINT
  5
1F88
330
1E8A
100
AcDbEntity
  8
Defpoints
 62
     0
100
AcDbPoint
 10
68127.19483500099
 20
-3699.275307062489
 30
0.0
  0
ENDBLK
  5
1E8C
330
1E8A
100
AcDbEntity
  8
0
 48
4.0
100
AcDbBlockEnd
  0
BLOCK
  5
1E95
330
1E94
100
AcDbEntity
  8
0
 48
4.0
100
AcDbBlockBegin
  2
*D45
 70
     1
 10
0.0
 20
0.0
 30
0.0
  3
*D45
  1

  0
LINE
  5
1F89
330
1E94
100
AcDbEntity
  8
WYMIARY
 62
     1
370
    -2
100
AcDbLine
 10
68127.19483500099
 20
-4649.275307062489
 30
0.0
 11
68127.19483500099
 21
-5099.275307062489
 31
0.0
  0
INSERT
  5
1F8A
330
1E94
100
AcDbEntity
  8
WYMIARY
 62
     1
370
    -2
100
AcDbBlockReference
  2
B-DIM
 10
68127.19483500099
 20
-4619.27530706249
 30
0.0
 41
30.0
 42
30.0
 43
30.0
 50
90.0
  0
INSERT
  5
1F8B
330
1E94
100
AcDbEntity
  8
WYMIARY
 62
     1
370
    -2
100
AcDbBlockReference
  2
B-DIM
 10
68127.19483500099
 20
-5129.275307062489
 30
0.0
 41
30.0
 42
30.0
 43
30.0
 50
270.0
  0
MTEXT
  5
1F8C
330
1E94
100
AcDbEntity
  8
WYMIARY
 62
   140
100
AcDbMText
 10
68047.19483500099
 20
-4874.275307062479
 30
0.0
 40
80.0
 41
0.0
 71
     5
 72
     1
  1
\A1;510
  7
ROMANS
 11
0.0000000000000001
 21
1.0
 31
0.0
 73
     1
 44
1.0
1001
ACAD
1000
MTEXTBEGIN
1070
    73
1070
     1
1070
    44
1040
1.0
1070
    74
1070
     0
1000
MTEXTEND
  0
POINT
  5
1F8D
330
1E94
100
AcDbEntity
  8
Defpoints
 62
     0
100
AcDbPoint
 10
68564.01015155026
 20
-4619.27530706249
 30
0.0
  0
POINT
  5
1F8E
330
1E94
100
AcDbEntity
  8
Defpoints
 62
     0
100
AcDbPoint
 10
69204.01015155026
 20
-5129.275307062489
 30
0.0
  0
POINT
  5
1F8F
330
1E94
100
AcDbEntity
  8
Defpoints
 62
     0
100
AcDbPoint
 10
68127.19483500099
 20
-5129.275307062489
 30
0.0
  0
ENDBLK
  5
1E96
330
1E94
100
AcDbEntity
  8
0
 48
4.0
100
AcDbBlockEnd
  0
BLOCK
  5
1E9F
330
1E9E
100
AcDbEntity
  8
0
 48
4.0
100
AcDbBlockBegin
  2
*D46
 70
     1
 10
0.0
 20
0.0
 30
0.0
  3
*D46
  1

  0
LINE
  5
204D
330
1E9E
100
AcDbEntity
  8
0Hatch
 62
     1
370
    -2
100
AcDbLine
 10
70419.49837772417
 20
-3729.27530706249
 30
0.0
 11
70419.49837772417
 21
-5099.275307062489
 31
0.0
  0
INSERT
  5
204E
330
1E9E
100
AcDbEntity
  8
0Hatch
 62
     1
370
    -2
100
AcDbBlockReference
  2
B-DIM
 10
70419.49837772417
 20
-3699.275307062489
 30
0.0
 41
30.0
 42
30.0
 43
30.0
 50
90.0
  0
INSERT
  5
204F
330
1E9E
100
AcDbEntity
  8
0Hatch
 62
     1
370
    -2
100
AcDbBlockReference
  2
B-DIM
 10
70419.49837772417
 20
-5129.275307062489
 30
0.0
 41
30.0
 42
30.0
 43
30.0
 50
270.0
  0
MTEXT
  5
2050
330
1E9E
100
AcDbEntity
  8
0Hatch
 62
   140
100
AcDbMText
 10
70339.49837772417
 20
-4414.275307062478
 30
0.0
 40
80.0
 41
0.0
 71
     5
 72
     1
  1
\A1;1430
  7
ROMANS
 11
0.0000000000000001
 21
1.0
 31
0.0
 73
     1
 44
1.0
1001
ACAD
1000
MTEXTBEGIN
1070
    73
1070
     1
1070
    44
1040
1.0
1070
    74
1070
     0
1000
MTEXTEND
  0
POINT
  5
2051
330
1E9E
100
AcDbEntity
  8
Defpoints
 62
     0
100
AcDbPoint
 10
69864.01015155026
 20
-3699.275307062489
 30
0.0
  0
POINT
  5
2052
330
1E9E
100
AcDbEntity
  8
Defpoints
 62
     0
100
AcDbPoint
 10
69864.01015155026
 20
-5129.275307062489
 30
0.0
  0
POINT
  5
2053
330
1E9E
100
AcDbEntity
  8
Defpoints
 62
     0
100
AcDbPoint
 10
70419.49837772417
 20
-5129.275307062489
 30
0.0
  0
ENDBLK
  5
1EA0
330
1E9E
100
AcDbEntity
  8
0
 48
4.0
100
AcDbBlockEnd
  0
BLOCK
  5
1EA9
330
1EA8
100
AcDbEntity
  8
0
 48
4.0
100
AcDbBlockBegin
  2
*D47
 70
     1
 10
0.0
 20
0.0
 30
0.0
  3
*D47
  1

  0
LINE
  5
2046
330
1EA8
100
AcDbEntity
  8
0Hatch
 62
     1
370
    -2
100
AcDbLine
 10
68594.01015155026
 20
-5624.680405939231
 30
0.0
 11
69834.01015155026
 21
-5624.680405939231
 31
0.0
  0
INSERT
  5
2047
330
1EA8
100
AcDbEntity
  8
0Hatch
 62
     1
370
    -2
100
AcDbBlockReference
  2
B-DIM
 10
68564.01015155026
 20
-5624.680405939231
 30
0.0
 41
30.0
 42
30.0
 43
30.0
 50
180.0
  0
INSERT
  5
2048
330
1EA8
100
AcDbEntity
  8
0Hatch
 62
     1
370
    -2
100
AcDbBlockReference
  2
B-DIM
 10
69864.01015155026
 20
-5624.680405939231
 30
0.0
 41
30.0
 42
30.0
 43
30.0
  0
MTEXT
  5
2049
330
1EA8
100
AcDbEntity
  8
0Hatch
 62
   140
100
AcDbMText
 10
69214.01015155026
 20
-5544.680405939231
 30
0.0
 40
80.0
 41
0.0
 71
     5
 72
     1
  1
\A1;1300
  7
ROMANS
 73
     1
 44
1.0
1001
ACAD
1000
MTEXTBEGIN
1070
    73
1070
     1
1070
    44
1040
1.0
1070
    74
1070
     0
1000
MTEXTEND
  0
POINT
  5
204A
330
1EA8
100
AcDbEntity
  8
Defpoints
 62
     0
100
AcDbPoint
 10
68564.01015155026
 20
-4554.689412805965
 30
0.0
  0
POINT
  5
204B
330
1EA8
100
AcDbEntity
  8
Defpoints
 62
     0
100
AcDbPoint
 10
69864.01015155026
 20
-4968.1377766316
 30
0.0
  0
POINT
  5
204C
330
1EA8
100
AcDbEntity
  8
Defpoints
 62
     0
100
AcDbPoint
 10
69864.01015155026
 20
-5624.680405939231
 30
0.0
  0
ENDBLK
  5
1EAA
330
1EA8
100
AcDbEntity
  8
0
 48
4.0
100
AcDbBlockEnd
  0
BLOCK
  5
1EB3
330
1EB2
100
AcDbEntity
  8
0
 48
4.0
100
AcDbBlockBegin
  2
*D48
 70
     1
 10
0.0
 20
0.0
 30
0.0
  3
*D48
  1

  0
LINE
  5
203F
330
1EB2
100
AcDbEntity
  8
0Hatch
 62
     1
370
    -2
100
AcDbLine
 10
69834.01015155026
 20
-5404.459910117744
 30
0.0
 11
69234.01015155026
 21
-5404.459910117744
 31
0.0
  0
INSERT
  5
2040
330
1EB2
100
AcDbEntity
  8
0Hatch
 62
     1
370
    -2
100
AcDbBlockReference
  2
B-DIM
 10
69864.01015155026
 20
-5404.459910117744
 30
0.0
 41
30.0
 42
30.0
 43
30.0
  0
INSERT
  5
2041
330
1EB2
100
AcDbEntity
  8
0Hatch
 62
     1
370
    -2
100
AcDbBlockReference
  2
B-DIM
 10
69204.01015155026
 20
-5404.459910117744
 30
0.0
 41
30.0
 42
30.0
 43
30.0
 50
180.0
  0
MTEXT
  5
2042
330
1EB2
100
AcDbEntity
  8
0Hatch
 62
   140
100
AcDbMText
 10
69534.01015155026
 20
-5324.459910117745
 30
0.0
 40
80.0
 41
0.0
 71
     5
 72
     1
  1
\A1;660
  7
ROMANS
 73
     1
 44
1.0
1001
ACAD
1000
MTEXTBEGIN
1070
    73
1070
     1
1070
    44
1040
1.0
1070
    74
1070
     0
1000
MTEXTEND
  0
POINT
  5
2043
330
1EB2
100
AcDbEntity
  8
Defpoints
 62
     0
100
AcDbPoint
 10
69864.01015155026
 20
-5097.132824104556
 30
0.0
  0
POINT
  5
2044
330
1EB2
100
AcDbEntity
  8
Defpoints
 62
     0
100
AcDbPoint
 10
69204.01015155026
 20
-5097.132824104556
 30
0.0
  0
POINT
  5
2045
330
1EB2
100
AcDbEntity
  8
Defpoints
 62
     0
100
AcDbPoint
 10
69204.01015155026
 20
-5404.459910117744
 30
0.0
  0
ENDBLK
  5
1EB4
330
1EB2
100
AcDbEntity
  8
0
 48
4.0
100
AcDbBlockEnd
  0
BLOCK
  5
1EBD
330
1EBC
100
AcDbEntity
  8
0
 48
4.0
100
AcDbBlockBegin
  2
*D49
 70
     1
 10
0.0
 20
0.0
 30
0.0
  3
*D49
  1

  0
LINE
  5
1FA5
330
1EBC
100
AcDbEntity
  8
WYMIARY
 62
     1
370
    -2
100
AcDbLine
 10
69174.01015155026
 20
-5404.459910117744
 30
0.0
 11
68594.01015155026
 21
-5404.459910117744
 31
0.0
  0
INSERT
  5
1FA6
330
1EBC
100
AcDbEntity
  8
WYMIARY
 62
     1
370
    -2
100
AcDbBlockReference
  2
B-DIM
 10
69204.01015155026
 20
-5404.459910117744
 30
0.0
 41
30.0
 42
30.0
 43
30.0
  0
INSERT
  5
1FA7
330
1EBC
100
AcDbEntity
  8
WYMIARY
 62
     1
370
    -2
100
AcDbBlockReference
  2
B-DIM
 10
68564.01015155026
 20
-5404.459910117744
 30
0.0
 41
30.0
 42
30.0
 43
30.0
 50
180.0
  0
MTEXT
  5
1FA8
330
1EBC
100
AcDbEntity
  8
WYMIARY
 62
   140
100
AcDbMText
 10
68884.01015155026
 20
-5324.459910117745
 30
0.0
 40
80.0
 41
0.0
 71
     5
 72
     1
  1
\A1;640
  7
ROMANS
 73
     1
 44
1.0
1001
ACAD
1000
MTEXTBEGIN
1070
    73
1070
     1
1070
    44
1040
1.0
1070
    74
1070
     0
1000
MTEXTEND
  0
POINT
  5
1FA9
330
1EBC
100
AcDbEntity
  8
Defpoints
 62
     0
100
AcDbPoint
 10
69204.01015155026
 20
-5097.132824104556
 30
0.0
  0
POINT
  5
1FAA
330
1EBC
100
AcDbEntity
  8
Defpoints
 62
     0
100
AcDbPoint
 10
68564.01015155026
 20
-4587.132824104556
 30
0.0
  0
POINT
  5
1FAB
330
1EBC
100
AcDbEntity
  8
Defpoints
 62
     0
100
AcDbPoint
 10
68564.01015155026
 20
-5404.459910117744
 30
0.0
  0
ENDBLK
  5
1EBE
330
1EBC
100
AcDbEntity
  8
0
 48
4.0
100
AcDbBlockEnd
  0
BLOCK
  5
1EC7
330
1EC6
100
AcDbEntity
  8
0
 48
4.0
100
AcDbBlockBegin
  2
*D50
 70
     1
 10
0.0
 20
0.0
 30
0.0
  3
*D50
  1

  0
LINE
  5
1FAC
330
1EC6
100
AcDbEntity
  8
WYMIARY
 62
     1
370
    -2
100
AcDbLine
 10
68594.01015155026
 20
-3180.701481030526
 30
0.0
 11
69069.01015155026
 21
-3180.701481030526
 31
0.0
  0
INSERT
  5
1FAD
330
1EC6
100
AcDbEntity
  8
WYMIARY
 62
     1
370
    -2
100
AcDbBlockReference
  2
B-DIM
 10
68564.01015155026
 20
-3180.701481030526
 30
0.0
 41
30.0
 42
30.0
 43
30.0
 50
180.0
  0
INSERT
  5
1FAE
330
1EC6
100
AcDbEntity
  8
WYMIARY
 62
     1
370
    -2
100
AcDbBlockReference
  2
B-DIM
 10
69099.01015155026
 20
-3180.701481030526
 30
0.0
 41
30.0
 42
30.0
 43
30.0
  0
MTEXT
  5
1FAF
330
1EC6
100
AcDbEntity
  8
WYMIARY
 62
   140
100
AcDbMText
 10
68831.51015155026
 20
-3100.701481030526
 30
0.0
 40
80.0
 41
0.0
 71
     5
 72
     1
  1
\A1;535
  7
ROMANS
 73
     1
 44
1.0
1001
ACAD
1000
MTEXTBEGIN
1070
    73
1070
     1
1070
    44
1040
1.0
1070
    74
1070
     0
1000
MTEXTEND
  0
POINT
  5
1FB0
330
1EC6
100
AcDbEntity
  8
Defpoints
 62
     0
100
AcDbPoint
 10
68564.01015155026
 20
-3699.275307062489
 30
0.0
  0
POINT
  5
1FB1
330
1EC6
100
AcDbEntity
  8
Defpoints
 62
     0
100
AcDbPoint
 10
69099.01015155026
 20
-3699.275307062493
 30
0.0
  0
POINT
  5
1FB2
330
1EC6
100
AcDbEntity
  8
Defpoints
 62
     0
100
AcDbPoint
 10
69099.01015155026
 20
-3180.701481030526
 30
0.0
  0
ENDBLK
  5
1EC8
330
1EC6
100
AcDbEntity
  8
0
 48
4.0
100
AcDbBlockEnd
  0
BLOCK
  5
1ED1
330
1ED0
100
AcDbEntity
  8
0
 48
4.0
100
AcDbBlockBegin
  2
*D51
 70
     1
 10
0.0
 20
0.0
 30
0.0
  3
*D51
  1

  0
LINE
  5
1FB3
330
1ED0
100
AcDbEntity
  8
WYMIARY
 62
     1
370
    -2
100
AcDbLine
 10
69129.01015155026
 20
-3180.701481030526
 30
0.0
 11
69429.01015155026
 21
-3180.701481030526
 31
0.0
  0
INSERT
  5
1FB4
330
1ED0
100
AcDbEntity
  8
WYMIARY
 62
     1
370
    -2
100
AcDbBlockReference
  2
B-DIM
 10
69099.01015155026
 20
-3180.701481030526
 30
0.0
 41
30.0
 42
30.0
 43
30.0
 50
180.0
  0
INSERT
  5
1FB5
330
1ED0
100
AcDbEntity
  8
WYMIARY
 62
     1
370
    -2
100
AcDbBlockReference
  2
B-DIM
 10
69459.01015155026
 20
-3180.701481030526
 30
0.0
 41
30.0
 42
30.0
 43
30.0
  0
MTEXT
  5
1FB6
330
1ED0
100
AcDbEntity
  8
WYMIARY
 62
   140
100
AcDbMText
 10
69279.01015155026
 20
-3100.701481030526
 30
0.0
 40
80.0
 41
0.0
 71
     5
 72
     1
  1
\A1;360
  7
ROMANS
 73
     1
 44
1.0
1001
ACAD
1000
MTEXTBEGIN
1070
    73
1070
     1
1070
    44
1040
1.0
1070
    74
1070
     0
1000
MTEXTEND
  0
POINT
  5
1FB7
330
1ED0
100
AcDbEntity
  8
Defpoints
 62
     0
100
AcDbPoint
 10
69099.01015155026
 20
-3699.275307062493
 30
0.0
  0
POINT
  5
1FB8
330
1ED0
100
AcDbEntity
  8
Defpoints
 62
     0
100
AcDbPoint
 10
69459.01015155026
 20
-3679.275307062366
 30
0.0
  0
POINT
  5
1FB9
330
1ED0
100
AcDbEntity
  8
Defpoints
 62
     0
100
AcDbPoint
 10
69459.01015155026
 20
-3180.701481030526
 30
0.0
  0
ENDBLK
  5
1ED2
330
1ED0
100
AcDbEntity
  8
0
 48
4.0
100
AcDbBlockEnd
  0
BLOCK
  5
1EDB
330
1EDA
100
AcDbEntity
  8
0
 48
4.0
100
AcDbBlockBegin
  2
*D52
 70
     1
 10
0.0
 20
0.0
 30
0.0
  3
*D52
  1

  0
LINE
  5
1FBA
330
1EDA
100
AcDbEntity
  8
WYMIARY
 62
     1
370
    -2
100
AcDbLine
 10
69489.01015155026
 20
-3180.701481030526
 30
0.0
 11
69834.01015155026
 21
-3180.701481030526
 31
0.0
  0
INSERT
  5
1FBB
330
1EDA
100
AcDbEntity
  8
WYMIARY
 62
     1
370
    -2
100
AcDbBlockReference
  2
B-DIM
 10
69459.01015155026
 20
-3180.701481030526
 30
0.0
 41
30.0
 42
30.0
 43
30.0
 50
180.0
  0
INSERT
  5
1FBC
330
1EDA
100
AcDbEntity
  8
WYMIARY
 62
     1
370
    -2
100
AcDbBlockReference
  2
B-DIM
 10
69864.01015155026
 20
-3180.701481030526
 30
0.0
 41
30.0
 42
30.0
 43
30.0
  0
MTEXT
  5
1FBD
330
1EDA
100
AcDbEntity
  8
WYMIARY
 62
   140
100
AcDbMText
 10
69661.51015155026
 20
-3100.701481030526
 30
0.0
 40
80.0
 41
0.0
 71
     5
 72
     1
  1
\A1;405
  7
ROMANS
 73
     1
 44
1.0
1001
ACAD
1000
MTEXTBEGIN
1070
    73
1070
     1
1070
    44
1040
1.0
1070
    74
1070
     0
1000
MTEXTEND
  0
POINT
  5
1FBE
330
1EDA
100
AcDbEntity
  8
Defpoints
 62
     0
100
AcDbPoint
 10
69459.01015155026
 20
-3679.275307062366
 30
0.0
  0
POINT
  5
1FBF
330
1EDA
100
AcDbEntity
  8
Defpoints
 62
     0
100
AcDbPoint
 10
69864.01015155026
 20
-3699.275307062489
 30
0.0
  0
POINT
  5
1FC0
330
1EDA
100
AcDbEntity
  8
Defpoints
 62
     0
100
AcDbPoint
 10
69864.01015155026
 20
-3180.701481030526
 30
0.0
  0
ENDBLK
  5
1EDC
330
1EDA
100
AcDbEntity
  8
0
 48
4.0
100
AcDbBlockEnd
  0
BLOCK
  5
1EE5
330
1EE4
100
AcDbEntity
  8
0
 48
4.0
100
AcDbBlockBegin
  2
*D53
 70
     1
 10
0.0
 20
0.0
 30
0.0
  3
*D53
  1

  0
LINE
  5
2064
330
1EE4
100
AcDbEntity
  8
0Hatch
 62
     1
370
    -2
100
AcDbLine
 10
70419.49837772417
 20
-3729.27530706249
 30
0.0
 11
70419.49837772417
 21
-3759.27530706249
 31
0.0
  0
LINE
  5
2065
330
1EE4
100
AcDbEntity
  8
0Hatch
 62
     1
370
    -2
100
AcDbLine
 10
70419.49837772417
 20
-3549.275307062489
 30
0.0
 11
70419.49837772417
 21
-3519.27530706249
 31
0.0
  0
LINE
  5
2066
330
1EE4
100
AcDbEntity
  8
0Hatch
 62
     1
370
    -2
100
AcDbLine
 10
70419.49837772417
 20
-3699.275307062489
 30
0.0
 11
70419.49837772417
 21
-3579.27530706249
 31
0.0
  0
INSERT
  5
2067
330
1EE4
100
AcDbEntity
  8
0Hatch
 62
     1
370
    -2
100
AcDbBlockReference
  2
B-DIM
 10
70419.49837772417
 20
-3699.275307062489
 30
0.0
 41
30.0
 42
30.0
 43
30.0
 50
90.0
  0
INSERT
  5
2068
330
1EE4
100
AcDbEntity
  8
0Hatch
 62
     1
370
    -2
100
AcDbBlockReference
  2
B-DIM
 10
70419.49837772417
 20
-3579.27530706249
 30
0.0
 41
30.0
 42
30.0
 43
30.0
 50
270.0
  0
MTEXT
  5
2069
330
1EE4
100
AcDbEntity
  8
0Hatch
 62
   140
100
AcDbMText
 10
70339.49837772417
 20
-3639.275307062479
 30
0.0
 40
80.0
 41
0.0
 71
     5
 72
     1
  1
\A1;120
  7
ROMANS
 11
0.0000000000000001
 21
1.0
 31
0.0
 73
     1
 44
1.0
1001
ACAD
1000
MTEXTBEGIN
1070
    73
1070
     1
1070
    44
1040
1.0
1070
    74
1070
     0
1000
MTEXTEND
  0
POINT
  5
206A
330
1EE4
100
AcDbEntity
  8
Defpoints
 62
     0
100
AcDbPoint
 10
69864.01015155026
 20
-3699.275307062489
 30
0.0
  0
POINT
  5
206B
330
1EE4
100
AcDbEntity
  8
Defpoints
 62
     0
100
AcDbPoint
 10
69359.01015155026
 20
-3579.27530706249
 30
0.0
  0
POINT
  5
206C
330
1EE4
100
AcDbEntity
  8
Defpoints
 62
     0
100
AcDbPoint
 10
70419.49837772417
 20
-3579.27530706249
 30
0.0
  0
ENDBLK
  5
1EE6
330
1EE4
100
AcDbEntity
  8
0
 48
4.0
100
AcDbBlockEnd
  0
BLOCK
  5
1EF1
330
1EF0
100
AcDbEntity
  8
0
 48
4.0
100
AcDbBlockBegin
  2
*D54
 70
     1
 10
0.0
 20
0.0
 30
0.0
  3
*D54
  1

  0
LINE
  5
205B
330
1EF0
100
AcDbEntity
  8
0Hatch
 62
     1
370
    -2
100
AcDbLine
 10
68127.19483500099
 20
-3729.27530706249
 30
0.0
 11
68127.19483500099
 21
-3759.27530706249
 31
0.0
  0
LINE
  5
205C
330
1EF0
100
AcDbEntity
  8
0Hatch
 62
     1
370
    -2
100
AcDbLine
 10
68127.19483500099
 20
-3549.275307062489
 30
0.0
 11
68127.19483500099
 21
-3519.275307062489
 31
0.0
  0
LINE
  5
205D
330
1EF0
100
AcDbEntity
  8
0Hatch
 62
     1
370
    -2
100
AcDbLine
 10
68127.19483500099
 20
-3699.275307062489
 30
0.0
 11
68127.19483500099
 21
-3579.275307062489
 31
0.0
  0
INSERT
  5
205E
330
1EF0
100
AcDbEntity
  8
0Hatch
 62
     1
370
    -2
100
AcDbBlockReference
  2
B-DIM
 10
68127.19483500099
 20
-3699.275307062489
 30
0.0
 41
30.0
 42
30.0
 43
30.0
 50
90.0
  0
INSERT
  5
205F
330
1EF0
100
AcDbEntity
  8
0Hatch
 62
     1
370
    -2
100
AcDbBlockReference
  2
B-DIM
 10
68127.19483500099
 20
-3579.275307062489
 30
0.0
 41
30.0
 42
30.0
 43
30.0
 50
270.0
  0
MTEXT
  5
2060
330
1EF0
100
AcDbEntity
  8
0Hatch
 62
   140
100
AcDbMText
 10
68047.19483500099
 20
-3639.275307062479
 30
0.0
 40
80.0
 41
0.0
 71
     5
 72
     1
  1
\A1;120
  7
ROMANS
 11
0.0000000000000001
 21
1.0
 31
0.0
 73
     1
 44
1.0
1001
ACAD
1000
MTEXTBEGIN
1070
    73
1070
     1
1070
    44
1040
1.0
1070
    74
1070
     0
1000
MTEXTEND
  0
POINT
  5
2061
330
1EF0
100
AcDbEntity
  8
Defpoints
 62
     0
100
AcDbPoint
 10
68564.01015155026
 20
-3699.275307062489
 30
0.0
  0
POINT
  5
2062
330
1EF0
100
AcDbEntity
  8
Defpoints
 62
     0
100
AcDbPoint
 10
69359.01015155026
 20
-3579.27530706249
 30
0.0
  0
POINT
  5
2063
330
1EF0
100
AcDbEntity
  8
Defpoints
 62
     0
100
AcDbPoint
 10
68127.19483500099
 20
-3579.275307062489
 30
0.0
  0
ENDBLK
  5
1EF2
330
1EF0
100
AcDbEntity
  8
0
 48
4.0
100
AcDbBlockEnd
  0
BLOCK
  5
1EFD
330
1EFC
100
AcDbEntity
  8
0
 48
4.0
100
AcDbBlockBegin
  2
*D55
 70
     1
 10
0.0
 20
0.0
 30
0.0
  3
*D55
  1

  0
LINE
  5
2054
330
1EFC
100
AcDbEntity
  8
0Hatch
 62
     1
370
    -2
100
AcDbLine
 10
70582.77912227783
 20
-3609.275307062489
 30
0.0
 11
70582.77912227783
 21
-5099.275307062489
 31
0.0
  0
INSERT
  5
2055
330
1EFC
100
AcDbEntity
  8
0Hatch
 62
     1
370
    -2
100
AcDbBlockReference
  2
B-DIM
 10
70582.77912227783
 20
-3579.27530706249
 30
0.0
 41
30.0
 42
30.0
 43
30.0
 50
90.0
  0
INSERT
  5
2056
330
1EFC
100
AcDbEntity
  8
0Hatch
 62
     1
370
    -2
100
AcDbBlockReference
  2
B-DIM
 10
70582.77912227783
 20
-5129.275307062489
 30
0.0
 41
30.0
 42
30.0
 43
30.0
 50
270.0
  0
MTEXT
  5
2057
330
1EFC
100
AcDbEntity
  8
0Hatch
 62
   140
100
AcDbMText
 10
70502.77912227783
 20
-4354.275307062478
 30
0.0
 40
80.0
 41
0.0
 71
     5
 72
     1
  1
\A1;1550
  7
ROMANS
 11
0.0000000000000001
 21
1.0
 31
0.0
 73
     1
 44
1.0
1001
ACAD
1000
MTEXTBEGIN
1070
    73
1070
     1
1070
    44
1040
1.0
1070
    74
1070
     0
1000
MTEXTEND
  0
POINT
  5
2058
330
1EFC
100
AcDbEntity
  8
Defpoints
 62
     0
100
AcDbPoint
 10
69359.01015155026
 20
-3579.27530706249
 30
0.0
  0
POINT
  5
2059
330
1EFC
100
AcDbEntity
  8
Defpoints
 62
     0
100
AcDbPoint
 10
69825.20626046834
 20
-5129.275307062489
 30
0.0
  0
POINT
  5
205A
330
1EFC
100
AcDbEntity
  8
Defpoints
 62
     0
100
AcDbPoint
 10
70582.77912227783
 20
-5129.275307062489
 30
0.0
  0
ENDBLK
  5
1EFE
330
1EFC
100
AcDbEntity
  8
0
 48
4.0
100
AcDbBlockEnd
  0
BLOCK
  5
209C
330
209B
100
AcDbEntity
  8
0
 48
4.0
100
AcDbBlockBegin
  2
*D69
 70
     1
 10
0.0
 20
0.0
 30
0.0
  3
*D69
  1

  0
LINE
  5
2117
330
209B
100
AcDbEntity
  8
WYMIARY
 62
     1
370
    -2
100
AcDbLine
 10
75730.39329315233
 20
-4589.275307062489
 30
0.0
 11
75730.39329315233
 21
-3729.27530706249
 31
0.0
  0
INSERT
  5
2118
330
209B
100
AcDbEntity
  8
WYMIARY
 62
     1
370
    -2
100
AcDbBlockReference
  2
B-DIM
 10
75730.39329315233
 20
-4619.27530706249
 30
0.0
 41
30.0
 42
30.0
 43
30.0
 50
270.0
  0
INSERT
  5
2119
330
209B
100
AcDbEntity
  8
WYMIARY
 62
     1
370
    -2
100
AcDbBlockReference
  2
B-DIM
 10
75730.39329315233
 20
-3699.275307062489
 30
0.0
 41
30.0
 42
30.0
 43
30.0
 50
90.0
  0
MTEXT
  5
211A
330
209B
100
AcDbEntity
  8
WYMIARY
 62
   140
100
AcDbMText
 10
75650.39329315233
 20
-4159.275307062477
 30
0.0
 40
80.0
 41
0.0
 71
     5
 72
     1
  1
\A1;920
  7
ROMANS
 11
0.0000000000000001
 21
1.0
 31
0.0
 73
     1
 44
1.0
1001
ACAD
1000
MTEXTBEGIN
1070
    73
1070
     1
1070
    44
1040
1.0
1070
    74
1070
     0
1000
MTEXTEND
  0
POINT
  5
211B
330
209B
100
AcDbEntity
  8
Defpoints
 62
     0
100
AcDbPoint
 10
75293.57797660306
 20
-4619.27530706249
 30
0.0
  0
POINT
  5
211C
330
209B
100
AcDbEntity
  8
Defpoints
 62
     0
100
AcDbPoint
 10
75293.57797660306
 20
-3699.275307062489
 30
0.0
  0
POINT
  5
211D
330
209B
100
AcDbEntity
  8
Defpoints
 62
     0
100
AcDbPoint
 10
75730.39329315233
 20
-3699.275307062489
 30
0.0
  0
ENDBLK
  5
209D
330
209B
100
AcDbEntity
  8
0
 48
4.0
100
AcDbBlockEnd
  0
BLOCK
  5
20A6
330
20A5
100
AcDbEntity
  8
0
 48
4.0
100
AcDbBlockBegin
  2
*D70
 70
     1
 10
0.0
 20
0.0
 30
0.0
  3
*D70
  1

  0
LINE
  5
211E
330
20A5
100
AcDbEntity
  8
WYMIARY
 62
     1
370
    -2
100
AcDbLine
 10
75730.39329315233
 20
-4649.275307062489
 30
0.0
 11
75730.39329315233
 21
-5099.275307062489
 31
0.0
  0
INSERT
  5
211F
330
20A5
100
AcDbEntity
  8
WYMIARY
 62
     1
370
    -2
100
AcDbBlockReference
  2
B-DIM
 10
75730.39329315233
 20
-4619.27530706249
 30
0.0
 41
30.0
 42
30.0
 43
30.0
 50
90.0
  0
INSERT
  5
2120
330
20A5
100
AcDbEntity
  8
WYMIARY
 62
     1
370
    -2
100
AcDbBlockReference
  2
B-DIM
 10
75730.39329315233
 20
-5129.275307062489
 30
0.0
 41
30.0
 42
30.0
 43
30.0
 50
270.0
  0
MTEXT
  5
2121
330
20A5
100
AcDbEntity
  8
WYMIARY
 62
   140
100
AcDbMText
 10
75650.39329315233
 20
-4874.275307062478
 30
0.0
 40
80.0
 41
0.0
 71
     5
 72
     1
  1
\A1;510
  7
ROMANS
 11
0.0000000000000001
 21
1.0
 31
0.0
 73
     1
 44
1.0
1001
ACAD
1000
MTEXTBEGIN
1070
    73
1070
     1
1070
    44
1040
1.0
1070
    74
1070
     0
1000
MTEXTEND
  0
POINT
  5
2122
330
20A5
100
AcDbEntity
  8
Defpoints
 62
     0
100
AcDbPoint
 10
75293.57797660306
 20
-4619.27530706249
 30
0.0
  0
POINT
  5
2123
330
20A5
100
AcDbEntity
  8
Defpoints
 62
     0
100
AcDbPoint
 10
74653.57797660306
 20
-5129.275307062489
 30
0.0
  0
POINT
  5
2124
330
20A5
100
AcDbEntity
  8
Defpoints
 62
     0
100
AcDbPoint
 10
75730.39329315233
 20
-5129.275307062489
 30
0.0
  0
ENDBLK
  5
20A7
330
20A5
100
AcDbEntity
  8
0
 48
4.0
100
AcDbBlockEnd
  0
BLOCK
  5
20B0
330
20AF
100
AcDbEntity
  8
0
 48
4.0
100
AcDbBlockBegin
  2
*D71
 70
     1
 10
0.0
 20
0.0
 30
0.0
  3
*D71
  1

  0
LINE
  5
2125
330
20AF
100
AcDbEntity
  8
0Hatch
 62
     1
370
    -2
100
AcDbLine
 10
73438.08975042914
 20
-3729.27530706249
 30
0.0
 11
73438.08975042914
 21
-5099.275307062489
 31
0.0
  0
INSERT
  5
2126
330
20AF
100
AcDbEntity
  8
0Hatch
 62
     1
370
    -2
100
AcDbBlockReference
  2
B-DIM
 10
73438.08975042914
 20
-3699.275307062489
 30
0.0
 41
30.0
 42
30.0
 43
30.0
 50
90.0
  0
INSERT
  5
2127
330
20AF
100
AcDbEntity
  8
0Hatch
 62
     1
370
    -2
100
AcDbBlockReference
  2
B-DIM
 10
73438.08975042914
 20
-5129.275307062489
 30
0.0
 41
30.0
 42
30.0
 43
30.0
 50
270.0
  0
MTEXT
  5
2128
330
20AF
100
AcDbEntity
  8
0Hatch
 62
   140
100
AcDbMText
 10
73358.08975042914
 20
-4414.275307062477
 30
0.0
 40
80.0
 41
0.0
 71
     5
 72
     1
  1
\A1;1430
  7
ROMANS
 11
0.0000000000000001
 21
1.0
 31
0.0
 73
     1
 44
1.0
1001
ACAD
1000
MTEXTBEGIN
1070
    73
1070
     1
1070
    44
1040
1.0
1070
    74
1070
     0
1000
MTEXTEND
  0
POINT
  5
2129
330
20AF
100
AcDbEntity
  8
Defpoints
 62
     0
100
AcDbPoint
 10
73993.57797660306
 20
-3699.275307062489
 30
0.0
  0
POINT
  5
212A
330
20AF
100
AcDbEntity
  8
Defpoints
 62
     0
100
AcDbPoint
 10
73993.57797660306
 20
-5129.275307062489
 30
0.0
  0
POINT
  5
212B
330
20AF
100
AcDbEntity
  8
Defpoints
 62
     0
100
AcDbPoint
 10
73438.08975042914
 20
-5129.275307062489
 30
0.0
  0
ENDBLK
  5
20B1
330
20AF
100
AcDbEntity
  8
0
 48
4.0
100
AcDbBlockEnd
  0
BLOCK
  5
20BA
330
20B9
100
AcDbEntity
  8
0
 48
4.0
100
AcDbBlockBegin
  2
*D72
 70
     1
 10
0.0
 20
0.0
 30
0.0
  3
*D72
  1

  0
LINE
  5
212C
330
20B9
100
AcDbEntity
  8
0Hatch
 62
     1
370
    -2
100
AcDbLine
 10
75263.57797660306
 20
-5624.680405939231
 30
0.0
 11
74023.57797660306
 21
-5624.680405939231
 31
0.0
  0
INSERT
  5
212D
330
20B9
100
AcDbEntity
  8
0Hatch
 62
     1
370
    -2
100
AcDbBlockReference
  2
B-DIM
 10
75293.57797660306
 20
-5624.680405939231
 30
0.0
 41
30.0
 42
30.0
 43
30.0
  0
INSERT
  5
212E
330
20B9
100
AcDbEntity
  8
0Hatch
 62
     1
370
    -2
100
AcDbBlockReference
  2
B-DIM
 10
73993.57797660306
 20
-5624.680405939231
 30
0.0
 41
30.0
 42
30.0
 43
30.0
 50
180.0
  0
MTEXT
  5
212F
330
20B9
100
AcDbEntity
  8
0Hatch
 62
   140
100
AcDbMText
 10
74643.57797660306
 20
-5544.680405939231
 30
0.0
 40
80.0
 41
0.0
 71
     5
 72
     1
  1
\A1;1300
  7
ROMANS
 73
     1
 44
1.0
1001
ACAD
1000
MTEXTBEGIN
1070
    73
1070
     1
1070
    44
1040
1.0
1070
    74
1070
     0
1000
MTEXTEND
  0
POINT
  5
2130
330
20B9
100
AcDbEntity
  8
Defpoints
 62
     0
100
AcDbPoint
 10
75293.57797660306
 20
-4554.689412805965
 30
0.0
  0
POINT
  5
2131
330
20B9
100
AcDbEntity
  8
Defpoints
 62
     0
100
AcDbPoint
 10
73993.57797660306
 20
-4968.1377766316
 30
0.0
  0
POINT
  5
2132
330
20B9
100
AcDbEntity
  8
Defpoints
 62
     0
100
AcDbPoint
 10
73993.57797660306
 20
-5624.680405939231
 30
0.0
  0
ENDBLK
  5
20BB
330
20B9
100
AcDbEntity
  8
0
 48
4.0
100
AcDbBlockEnd
  0
BLOCK
  5
20C4
330
20C3
100
AcDbEntity
  8
0
 48
4.0
100
AcDbBlockBegin
  2
*D73
 70
     1
 10
0.0
 20
0.0
 30
0.0
  3
*D73
  1

  0
LINE
  5
2133
330
20C3
100
AcDbEntity
  8
0Hatch
 62
     1
370
    -2
100
AcDbLine
 10
74023.57797660306
 20
-5404.459910117744
 30
0.0
 11
74623.57797660306
 21
-5404.459910117744
 31
0.0
  0
INSERT
  5
2134
330
20C3
100
AcDbEntity
  8
0Hatch
 62
     1
370
    -2
100
AcDbBlockReference
  2
B-DIM
 10
73993.57797660306
 20
-5404.459910117744
 30
0.0
 41
30.0
 42
30.0
 43
30.0
 50
180.0
  0
INSERT
  5
2135
330
20C3
100
AcDbEntity
  8
0Hatch
 62
     1
370
    -2
100
AcDbBlockReference
  2
B-DIM
 10
74653.57797660306
 20
-5404.459910117744
 30
0.0
 41
30.0
 42
30.0
 43
30.0
  0
MTEXT
  5
2136
330
20C3
100
AcDbEntity
  8
0Hatch
 62
   140
100
AcDbMText
 10
74323.57797660306
 20
-5324.459910117745
 30
0.0
 40
80.0
 41
0.0
 71
     5
 72
     1
  1
\A1;660
  7
ROMANS
 73
     1
 44
1.0
1001
ACAD
1000
MTEXTBEGIN
1070
    73
1070
     1
1070
    44
1040
1.0
1070
    74
1070
     0
1000
MTEXTEND
  0
POINT
  5
2137
330
20C3
100
AcDbEntity
  8
Defpoints
 62
     0
100
AcDbPoint
 10
73993.57797660306
 20
-5097.132824104556
 30
0.0
  0
POINT
  5
2138
330
20C3
100
AcDbEntity
  8
Defpoints
 62
     0
100
AcDbPoint
 10
74653.57797660306
 20
-5097.132824104556
 30
0.0
  0
POINT
  5
2139
330
20C3
100
AcDbEntity
  8
Defpoints
 62
     0
100
AcDbPoint
 10
74653.57797660306
 20
-5404.459910117744
 30
0.0
  0
ENDBLK
  5
20C5
330
20C3
100
AcDbEntity
  8
0
 48
4.0
100
AcDbBlockEnd
  0
BLOCK
  5
20CE
330
20CD
100
AcDbEntity
  8
0
 48
4.0
100
AcDbBlockBegin
  2
*D74
 70
     1
 10
0.0
 20
0.0
 30
0.0
  3
*D74
  1

  0
LINE
  5
213A
330
20CD
100
AcDbEntity
  8
WYMIARY
 62
     1
370
    -2
100
AcDbLine
 10
74683.57797660306
 20
-5404.459910117744
 30
0.0
 11
75263.57797660306
 21
-5404.459910117744
 31
0.0
  0
INSERT
  5
213B
330
20CD
100
AcDbEntity
  8
WYMIARY
 62
     1
370
    -2
100
AcDbBlockReference
  2
B-DIM
 10
74653.57797660306
 20
-5404.459910117744
 30
0.0
 41
30.0
 42
30.0
 43
30.0
 50
180.0
  0
INSERT
  5
213C
330
20CD
100
AcDbEntity
  8
WYMIARY
 62
     1
370
    -2
100
AcDbBlockReference
  2
B-DIM
 10
75293.57797660306
 20
-5404.459910117744
 30
0.0
 41
30.0
 42
30.0
 43
30.0
  0
MTEXT
  5
213D
330
20CD
100
AcDbEntity
  8
WYMIARY
 62
   140
100
AcDbMText
 10
74973.57797660306
 20
-5324.459910117745
 30
0.0
 40
80.0
 41
0.0
 71
     5
 72
     1
  1
\A1;640
  7
ROMANS
 73
     1
 44
1.0
1001
ACAD
1000
MTEXTBEGIN
1070
    73
1070
     1
1070
    44
1040
1.0
1070
    74
1070
     0
1000
MTEXTEND
  0
POINT
  5
213E
330
20CD
100
AcDbEntity
  8
Defpoints
 62
     0
100
AcDbPoint
 10
74653.57797660306
 20
-5097.132824104556
 30
0.0
  0
POINT
  5
213F
330
20CD
100
AcDbEntity
  8
Defpoints
 62
     0
100
AcDbPoint
 10
75293.57797660306
 20
-4587.132824104556
 30
0.0
  0
POINT
  5
2140
330
20CD
100
AcDbEntity
  8
Defpoints
 62
     0
100
AcDbPoint
 10
75293.57797660306
 20
-5404.459910117744
 30
0.0
  0
ENDBLK
  5
20CF
330
20CD
100
AcDbEntity
  8
0
 48
4.0
100
AcDbBlockEnd
  0
BLOCK
  5
20D8
330
20D7
100
AcDbEntity
  8
0
 48
4.0
100
AcDbBlockBegin
  2
*D75
 70
     1
 10
0.0
 20
0.0
 30
0.0
  3
*D75
  1

  0
LINE
  5
2141
330
20D7
100
AcDbEntity
  8
WYMIARY
 62
     1
370
    -2
100
AcDbLine
 10
75263.57797660306
 20
-3180.701481030526
 30
0.0
 11
74788.57797660306
 21
-3180.701481030526
 31
0.0
  0
INSERT
  5
2142
330
20D7
100
AcDbEntity
  8
WYMIARY
 62
     1
370
    -2
100
AcDbBlockReference
  2
B-DIM
 10
75293.57797660306
 20
-3180.701481030526
 30
0.0
 41
30.0
 42
30.0
 43
30.0
  0
INSERT
  5
2143
330
20D7
100
AcDbEntity
  8
WYMIARY
 62
     1
370
    -2
100
AcDbBlockReference
  2
B-DIM
 10
74758.57797660306
 20
-3180.701481030526
 30
0.0
 41
30.0
 42
30.0
 43
30.0
 50
180.0
  0
MTEXT
  5
2144
330
20D7
100
AcDbEntity
  8
WYMIARY
 62
   140
100
AcDbMText
 10
75026.07797660306
 20
-3100.701481030526
 30
0.0
 40
80.0
 41
0.0
 71
     5
 72
     1
  1
\A1;535
  7
ROMANS
 73
     1
 44
1.0
1001
ACAD
1000
MTEXTBEGIN
1070
    73
1070
     1
1070
    44
1040
1.0
1070
    74
1070
     0
1000
MTEXTEND
  0
POINT
  5
2145
330
20D7
100
AcDbEntity
  8
Defpoints
 62
     0
100
AcDbPoint
 10
75293.57797660306
 20
-3699.275307062489
 30
0.0
  0
POINT
  5
2146
330
20D7
100
AcDbEntity
  8
Defpoints
 62
     0
100
AcDbPoint
 10
74758.57797660306
 20
-3699.275307062493
 30
0.0
  0
POINT
  5
2147
330
20D7
100
AcDbEntity
  8
Defpoints
 62
     0
100
AcDbPoint
 10
74758.57797660306
 20
-3180.701481030526
 30
0.0
  0
ENDBLK
  5
20D9
330
20D7
100
AcDbEntity
  8
0
 48
4.0
100
AcDbBlockEnd
  0
BLOCK
  5
20E2
330
20E1
100
AcDbEntity
  8
0
 48
4.0
100
AcDbBlockBegin
  2
*D76
 70
     1
 10
0.0
 20
0.0
 30
0.0
  3
*D76
  1

  0
LINE
  5
2148
330
20E1
100
AcDbEntity
  8
WYMIARY
 62
     1
370
    -2
100
AcDbLine
 10
74728.57797660306
 20
-3180.701481030526
 30
0.0
 11
74428.57797660306
 21
-3180.701481030526
 31
0.0
  0
INSERT
  5
2149
330
20E1
100
AcDbEntity
  8
WYMIARY
 62
     1
370
    -2
100
AcDbBlockReference
  2
B-DIM
 10
74758.57797660306
 20
-3180.701481030526
 30
0.0
 41
30.0
 42
30.0
 43
30.0
  0
INSERT
  5
214A
330
20E1
100
AcDbEntity
  8
WYMIARY
 62
     1
370
    -2
100
AcDbBlockReference
  2
B-DIM
 10
74398.57797660306
 20
-3180.701481030526
 30
0.0
 41
30.0
 42
30.0
 43
30.0
 50
180.0
  0
MTEXT
  5
214B
330
20E1
100
AcDbEntity
  8
WYMIARY
 62
   140
100
AcDbMText
 10
74578.57797660306
 20
-3100.701481030526
 30
0.0
 40
80.0
 41
0.0
 71
     5
 72
     1
  1
\A1;360
  7
ROMANS
 73
     1
 44
1.0
1001
ACAD
1000
MTEXTBEGIN
1070
    73
1070
     1
1070
    44
1040
1.0
1070
    74
1070
     0
1000
MTEXTEND
  0
POINT
  5
214C
330
20E1
100
AcDbEntity
  8
Defpoints
 62
     0
100
AcDbPoint
 10
74758.57797660306
 20
-3699.275307062493
 30
0.0
  0
POINT
  5
214D
330
20E1
100
AcDbEntity
  8
Defpoints
 62
     0
100
AcDbPoint
 10
74398.57797660306
 20
-3679.275307062366
 30
0.0
  0
POINT
  5
214E
330
20E1
100
AcDbEntity
  8
Defpoints
 62
     0
100
AcDbPoint
 10
74398.57797660306
 20
-3180.701481030526
 30
0.0
  0
ENDBLK
  5
20E3
330
20E1
100
AcDbEntity
  8
0
 48
4.0
100
AcDbBlockEnd
  0
BLOCK
  5
20EC
330
20EB
100
AcDbEntity
  8
0
 48
4.0
100
AcDbBlockBegin
  2
*D77
 70
     1
 10
0.0
 20
0.0
 30
0.0
  3
*D77
  1

  0
LINE
  5
214F
330
20EB
100
AcDbEntity
  8
WYMIARY
 62
     1
370
    -2
100
AcDbLine
 10
74368.57797660306
 20
-3180.701481030526
 30
0.0
 11
74023.57797660306
 21
-3180.701481030526
 31
0.0
  0
INSERT
  5
2150
330
20EB
100
AcDbEntity
  8
WYMIARY
 62
     1
370
    -2
100
AcDbBlockReference
  2
B-DIM
 10
74398.57797660306
 20
-3180.701481030526
 30
0.0
 41
30.0
 42
30.0
 43
30.0
  0
INSERT
  5
2151
330
20EB
100
AcDbEntity
  8
WYMIARY
 62
     1
370
    -2
100
AcDbBlockReference
  2
B-DIM
 10
73993.57797660306
 20
-3180.701481030526
 30
0.0
 41
30.0
 42
30.0
 43
30.0
 50
180.0
  0
MTEXT
  5
2152
330
20EB
100
AcDbEntity
  8
WYMIARY
 62
   140
100
AcDbMText
 10
74196.07797660306
 20
-3100.701481030526
 30
0.0
 40
80.0
 41
0.0
 71
     5
 72
     1
  1
\A1;405
  7
ROMANS
 73
     1
 44
1.0
1001
ACAD
1000
MTEXTBEGIN
1070
    73
1070
     1
1070
    44
1040
1.0
1070
    74
1070
     0
1000
MTEXTEND
  0
POINT
  5
2153
330
20EB
100
AcDbEntity
  8
Defpoints
 62
     0
100
AcDbPoint
 10
74398.57797660306
 20
-3679.275307062366
 30
0.0
  0
POINT
  5
2154
330
20EB
100
AcDbEntity
  8
Defpoints
 62
     0
100
AcDbPoint
 10
73993.57797660306
 20
-3699.275307062489
 30
0.0
  0
POINT
  5
2155
330
20EB
100
AcDbEntity
  8
Defpoints
 62
     0
100
AcDbPoint
 10
73993.57797660306
 20
-3180.701481030526
 30
0.0
  0
ENDBLK
  5
20ED
330
20EB
100
AcDbEntity
  8
0
 48
4.0
100
AcDbBlockEnd
  0
BLOCK
  5
20F6
330
20F5
100
AcDbEntity
  8
0
 48
4.0
100
AcDbBlockBegin
  2
*D78
 70
     1
 10
0.0
 20
0.0
 30
0.0
  3
*D78
  1

  0
LINE
  5
2156
330
20F5
100
AcDbEntity
  8
0Hatch
 62
     1
370
    -2
100
AcDbLine
 10
73438.08975042914
 20
-3729.27530706249
 30
0.0
 11
73438.08975042914
 21
-3759.27530706249
 31
0.0
  0
LINE
  5
2157
330
20F5
100
AcDbEntity
  8
0Hatch
 62
     1
370
    -2
100
AcDbLine
 10
73438.08975042914
 20
-3549.275307062489
 30
0.0
 11
73438.08975042914
 21
-3519.27530706249
 31
0.0
  0
LINE
  5
2158
330
20F5
100
AcDbEntity
  8
0Hatch
 62
     1
370
    -2
100
AcDbLine
 10
73438.08975042914
 20
-3699.275307062489
 30
0.0
 11
73438.08975042914
 21
-3579.27530706249
 31
0.0
  0
INSERT
  5
2159
330
20F5
100
AcDbEntity
  8
0Hatch
 62
     1
370
    -2
100
AcDbBlockReference
  2
B-DIM
 10
73438.08975042914
 20
-3699.275307062489
 30
0.0
 41
30.0
 42
30.0
 43
30.0
 50
90.0
  0
INSERT
  5
215A
330
20F5
100
AcDbEntity
  8
0Hatch
 62
     1
370
    -2
100
AcDbBlockReference
  2
B-DIM
 10
73438.08975042914
 20
-3579.27530706249
 30
0.0
 41
30.0
 42
30.0
 43
30.0
 50
270.0
  0
MTEXT
  5
215B
330
20F5
100
AcDbEntity
  8
0Hatch
 62
   140
100
AcDbMText
 10
73358.08975042914
 20
-3639.275307062478
 30
0.0
 40
80.0
 41
0.0
 71
     5
 72
     1
  1
\A1;120
  7
ROMANS
 11
0.0000000000000001
 21
1.0
 31
0.0
 73
     1
 44
1.0
1001
ACAD
1000
MTEXTBEGIN
1070
    73
1070
     1
1070
    44
1040
1.0
1070
    74
1070
     0
1000
MTEXTEND
  0
POINT
  5
215C
330
20F5
100
AcDbEntity
  8
Defpoints
 62
     0
100
AcDbPoint
 10
73993.57797660306
 20
-3699.275307062489
 30
0.0
  0
POINT
  5
215D
330
20F5
100
AcDbEntity
  8
Defpoints
 62
     0
100
AcDbPoint
 10
74498.57797660306
 20
-3579.27530706249
 30
0.0
  0
POINT
  5
215E
330
20F5
100
AcDbEntity
  8
Defpoints
 62
     0
100
AcDbPoint
 10
73438.08975042914
 20
-3579.27530706249
 30
0.0
  0
ENDBLK
  5
20F7
330
20F5
100
AcDbEntity
  8
0
 48
4.0
100
AcDbBlockEnd
  0
BLOCK
  5
2102
330
2101
100
AcDbEntity
  8
0
 48
4.0
100
AcDbBlockBegin
  2
*D79
 70
     1
 10
0.0
 20
0.0
 30
0.0
  3
*D79
  1

  0
LINE
  5
215F
330
2101
100
AcDbEntity
  8
0Hatch
 62
     1
370
    -2
100
AcDbLine
 10
75730.39329315233
 20
-3729.27530706249
 30
0.0
 11
75730.39329315233
 21
-3759.27530706249
 31
0.0
  0
LINE
  5
2160
330
2101
100
AcDbEntity
  8
0Hatch
 62
     1
370
    -2
100
AcDbLine
 10
75730.39329315233
 20
-3549.27530706249
 30
0.0
 11
75730.39329315233
 21
-3519.27530706249
 31
0.0
  0
LINE
  5
2161
330
2101
100
AcDbEntity
  8
0Hatch
 62
     1
370
    -2
100
AcDbLine
 10
75730.39329315233
 20
-3699.275307062489
 30
0.0
 11
75730.39329315233
 21
-3579.27530706249
 31
0.0
  0
INSERT
  5
2162
330
2101
100
AcDbEntity
  8
0Hatch
 62
     1
370
    -2
100
AcDbBlockReference
  2
B-DIM
 10
75730.39329315233
 20
-3699.275307062489
 30
0.0
 41
30.0
 42
30.0
 43
30.0
 50
90.0
  0
INSERT
  5
2163
330
2101
100
AcDbEntity
  8
0Hatch
 62
     1
370
    -2
100
AcDbBlockReference
  2
B-DIM
 10
75730.39329315233
 20
-3579.27530706249
 30
0.0
 41
30.0
 42
30.0
 43
30.0
 50
270.0
  0
MTEXT
  5
2164
330
2101
100
AcDbEntity
  8
0Hatch
 62
   140
100
AcDbMText
 10
75650.39329315233
 20
-3639.275307062478
 30
0.0
 40
80.0
 41
0.0
 71
     5
 72
     1
  1
\A1;120
  7
ROMANS
 11
0.0000000000000001
 21
1.0
 31
0.0
 73
     1
 44
1.0
1001
ACAD
1000
MTEXTBEGIN
1070
    73
1070
     1
1070
    44
1040
1.0
1070
    74
1070
     0
1000
MTEXTEND
  0
POINT
  5
2165
330
2101
100
AcDbEntity
  8
Defpoints
 62
     0
100
AcDbPoint
 10
75293.57797660306
 20
-3699.275307062489
 30
0.0
  0
POINT
  5
2166
330
2101
100
AcDbEntity
  8
Defpoints
 62
     0
100
AcDbPoint
 10
74498.57797660306
 20
-3579.27530706249
 30
0.0
  0
POINT
  5
2167
330
2101
100
AcDbEntity
  8
Defpoints
 62
     0
100
AcDbPoint
 10
75730.39329315233
 20
-3579.27530706249
 30
0.0
  0
ENDBLK
  5
2103
330
2101
100
AcDbEntity
  8
0
 48
4.0
100
AcDbBlockEnd
  0
BLOCK
  5
210E
330
210D
100
AcDbEntity
  8
0
 48
4.0
100
AcDbBlockBegin
  2
*D80
 70
     1
 10
0.0
 20
0.0
 30
0.0
  3
*D80
  1

  0
LINE
  5
2168
330
210D
100
AcDbEntity
  8
0Hatch
 62
     1
370
    -2
100
AcDbLine
 10
73274.80900587548
 20
-3609.275307062489
 30
0.0
 11
73274.80900587548
 21
-5099.275307062489
 31
0.0
  0
INSERT
  5
2169
330
210D
100
AcDbEntity
  8
0Hatch
 62
     1
370
    -2
100
AcDbBlockReference
  2
B-DIM
 10
73274.80900587548
 20
-3579.27530706249
 30
0.0
 41
30.0
 42
30.0
 43
30.0
 50
90.0
  0
INSERT
  5
216A
330
210D
100
AcDbEntity
  8
0Hatch
 62
     1
370
    -2
100
AcDbBlockReference
  2
B-DIM
 10
73274.80900587548
 20
-5129.275307062489
 30
0.0
 41
30.0
 42
30.0
 43
30.0
 50
270.0
  0
MTEXT
  5
216B
330
210D
100
AcDbEntity
  8
0Hatch
 62
   140
100
AcDbMText
 10
73194.80900587548
 20
-4354.275307062478
 30
0.0
 40
80.0
 41
0.0
 71
     5
 72
     1
  1
\A1;1550
  7
ROMANS
 11
0.0000000000000001
 21
1.0
 31
0.0
 73
     1
 44
1.0
1001
ACAD
1000
MTEXTBEGIN
1070
    73
1070
     1
1070
    44
1040
1.0
1070
    74
1070
     0
1000
MTEXTEND
  0
POINT
  5
216C
330
210D
100
AcDbEntity
  8
Defpoints
 62
     0
100
AcDbPoint
 10
74498.57797660306
 20
-3579.27530706249
 30
0.0
  0
POINT
  5
216D
330
210D
100
AcDbEntity
  8
Defpoints
 62
     0
100
AcDbPoint
 10
74032.38186768498
 20
-5129.275307062489
 30
0.0
  0
POINT
  5
216E
330
210D
100
AcDbEntity
  8
Defpoints
 62
     0
100
AcDbPoint
 10
73274.80900587548
 20
-5129.275307062489
 30
0.0
  0
ENDBLK
  5
210F
330
210D
100
AcDbEntity
  8
0
 48
4.0
100
AcDbBlockEnd
  0
ENDSEC
  0
SECTION
  2
ENTITIES
  0
TEXT
  5
1DFF
330
2
100
AcDbEntity
  8
NAPISY
100
AcDbText
 10
68271.66987159182
 20
298.5174969083673
 30
0.0
 40
150.0
  1
MOŻNA WKLEIĆ DO PROJEKTU ZAGOSPODAROWANIA TERENU
  7
AVA
100
AcDbText
  0
LWPOLYLINE
  5
1E00
330
2
100
AcDbEntity
  8
RAMKI-A4
100
AcDbPolyline
 90
        4
 70
     1
 43
0.0
 10
66716.10487379897
 20
-12830.40384687606
 10
66716.10487379897
 20
1189.596153123944
 10
76916.10487379898
 20
1189.596153123944
 10
76916.10487379898
 20
-12830.40384687606
  0
LINE
  5
1E01
330
2
100
AcDbEntity
  8
NAPISY
  6
DASHED
 62
     1
 48
25.0
370
     5
100
AcDbLine
 10
71928.79406407666
 20
-7160.405732240367
 30
0.0
 11
71928.79406407666
 21
-2357.948674763022
 31
0.0
  0
TEXT
  5
1E02
330
2
100
AcDbEntity
  8
NAPISY
100
AcDbText
 10
68175.45682566065
 20
-12164.84776397352
 30
0.0
 40
100.0
  1
   O B R Y S   B U D Y N K U           S K A L A   1 : 5 0 0 
  7
AVA
100
AcDbText
  0
TEXT
  5
1E03
330
2
100
AcDbEntity
  8
NAPISY
100
AcDbText
 10
71869.27288708337
 20
-6078.758569419843
 30
0.0
 40
100.0
  1
OŚ ODBICIA LUSTRZANEGO
 50
90.0
  7
AVA
100
AcDbText
  0
LINE
  5
1E05
330
2
100
AcDbEntity
  8
TEREN$0$A-MassElement-G
  6
Continuous
 62
   210
370
     5
100
AcDbLine
 10
68849.01015155026
 20
-4804.275307062489
 30
0.0
 11
69204.01015155026
 21
-4804.275307062489
 31
0.0
  0
LWPOLYLINE
  5
1E06
330
2
100
AcDbEntity
  8
0Hatch
100
AcDbPolyline
 90
        4
 70
     1
 43
0.0
 10
68919.01015155026
 20
-4709.275307062489
 10
68944.01015155026
 20
-4709.275307062489
 10
68944.01015155026
 20
-4734.275307062489
 10
68919.01015155026
 20
-4734.275307062489
  0
LINE
  5
1E07
330
2
100
AcDbEntity
  8
TEREN$0$A-MassElement-G
  6
Continuous
 62
   210
370
     5
100
AcDbLine
 10
68879.01015155026
 20
-4774.275307062489
 30
0.0
 11
68879.01015155026
 21
-4619.27530706249
 31
0.0
  0
LINE
  5
1E08
330
2
100
AcDbEntity
  8
TEREN$0$A-MassElement-G
  6
Continuous
 62
   210
370
     5
100
AcDbLine
 10
68879.01015155026
 20
-4774.275307062489
 30
0.0
 11
69204.01015155026
 21
-4774.275307062489
 31
0.0
  0
LINE
  5
1E09
330
2
100
AcDbEntity
  8
TEREN$0$A-MassElement-G
  6
Continuous
 62
   210
370
     5
100
AcDbLine
 10
69081.98071429875
 20
-3469.27530706249
 30
0.0
 11
68501.58374467908
 21
-3469.27530706249
 31
0.0
  0
LINE
  5
1E0A
330
2
100
AcDbEntity
  8
TEREN$0$A-MassElement-G
  6
Continuous
 62
   210
370
     5
100
AcDbLine
 10
69069.55430742755
 20
-3499.27530706249
 30
0.0
 11
68514.01015155026
 21
-3499.27530706249
 31
0.0
  0
LINE
  5
1E0B
330
2
100
AcDbEntity
  8
TEREN$0$A-MassElement-G
  6
Continuous
 62
   210
370
     5
100
AcDbLine
 10
68394.01015155026
 20
-3619.27530706249
 30
0.0
 11
68394.01015155026
 21
-4259.275307062489
 31
0.0
  0
LINE
  5
1E0C
330
2
100
AcDbEntity
  8
TEREN$0$A-MassElement-G
  6
Continuous
 62
   210
370
     5
100
AcDbLine
 10
68364.01015155026
 20
-3606.848900191295
 30
0.0
 11
68364.01015155026
 21
-4289.27530706249
 31
0.0
  0
LINE
  5
1E0D
330
2
100
AcDbEntity
  8
TEREN$0$A-MassElement-G
  6
Continuous
 62
   210
370
     5
100
AcDbLine
 10
68564.01015155026
 20
-4259.275307062489
 30
0.0
 11
68394.01015155026
 21
-4259.275307062489
 31
0.0
  0
LINE
  5
1E0E
330
2
100
AcDbEntity
  8
TEREN$0$A-MassElement-G
  6
Continuous
 62
   210
370
     5
100
AcDbLine
 10
68564.01015155026
 20
-4289.27530706249
 30
0.0
 11
68364.01015155026
 21
-4289.27530706249
 31
0.0
  0
LINE
  5
1E0F
330
2
100
AcDbEntity
  8
TEREN$0$A-MassElement-G
  6
Continuous
 62
   210
370
     5
100
AcDbLine
 10
68394.01015155026
 20
-3619.27530706249
 30
0.0
 11
68514.01015155026
 21
-3499.27530706249
 31
0.0
  0
LINE
  5
1E10
330
2
100
AcDbEntity
  8
TEREN$0$A-MassElement-G
  6
Continuous
 62
   210
370
     5
100
AcDbLine
 10
68364.01015155026
 20
-3606.848900191295
 30
0.0
 11
68501.58374467908
 21
-3469.27530706249
 31
0.0
  0
LINE
  5
1E11
330
2
100
AcDbEntity
  8
TEREN$0$A-MassElement-G
  6
Continuous
 62
   210
370
     5
100
AcDbLine
 10
69174.28222948892
 20
-3604.003229123843
 30
0.0
 11
69069.55430742755
 21
-3499.27530706249
 31
0.0
  0
LINE
  5
1E12
330
2
100
AcDbEntity
  8
TEREN$0$A-MassElement-G
  6
Continuous
 62
   210
370
     5
100
AcDbLine
 10
69195.4954329245
 20
-3582.790025688246
 30
0.0
 11
69081.98071429875
 21
-3469.27530706249
 31
0.0
  0
LINE
  5
1E13
330
2
100
AcDbEntity
  8
TEREN$0$A-MassElement-G
  6
Continuous
 62
   210
370
     5
100
AcDbLine
 10
69638.01015155026
 20
-3699.275307062489
 30
0.0
 11
69638.01015155026
 21
-3579.27530706249
 31
0.0
  0
LINE
  5
1E14
330
2
100
AcDbEntity
  8
TEREN$0$A-MassElement-G
  6
Continuous
 62
   210
370
     5
100
AcDbLine
 10
69668.01015155032
 20
-3699.275307062489
 30
0.0
 11
69668.01015155029
 21
-3609.275307062489
 31
0.0
  0
LINE
  5
1E15
330
2
100
AcDbEntity
  8
TEREN$0$A-MassElement-G
  6
Continuous
 62
   210
370
     5
100
AcDbLine
 10
69808.01015155026
 20
-3699.275307062489
 30
0.0
 11
69808.01015155026
 21
-3609.275307062489
 31
0.0
  0
LINE
  5
1E16
330
2
100
AcDbEntity
  8
TEREN$0$A-MassElement-G
  6
Continuous
 62
   210
370
     5
100
AcDbLine
 10
69838.01015155026
 20
-3699.275307062489
 30
0.0
 11
69838.01015155026
 21
-3579.27530706249
 31
0.0
  0
LINE
  5
1E17
330
2
100
AcDbEntity
  8
TEREN$0$A-MassElement-G
  6
Continuous
 62
   210
370
     5
100
AcDbLine
 10
69638.01015155026
 20
-3579.27530706249
 30
0.0
 11
69838.01015155026
 21
-3579.27530706249
 31
0.0
  0
LINE
  5
1E18
330
2
100
AcDbEntity
  8
TEREN$0$A-MassElement-G
  6
Continuous
 62
   210
370
     5
100
AcDbLine
 10
69668.01015155029
 20
-3609.275307062489
 30
0.0
 11
69808.01015155026
 21
-3609.275307062489
 31
0.0
  0
LINE
  5
1E19
330
2
100
AcDbEntity
  8
TEREN$0$A-MassElement-G
  6
Continuous
 62
   210
370
     5
100
AcDbLine
 10
68879.01015155029
 20
-4719.275307062489
 30
0.0
 11
68879.01015155029
 21
-4769.275307062489
 31
0.0
  0
HATCH
  5
1E24
330
2
100
AcDbEntity
  8
0Hatch
100
AcDbHatch
 10
0.0
 20
0.0
 30
0.0
210
0.0
220
0.0
230
1.0
  2
SOLID
 70
     1
 71
     0
 91
        1
 92
        7
 72
     0
 73
     1
 93
        4
 10
68919.01015155026
 20
-4734.275307062489
 10
68944.01015155026
 20
-4734.275307062489
 10
68944.01015155026
 20
-4709.275307062489
 10
68919.01015155026
 20
-4709.275307062489
 97
        0
 75
     0
 76
     1
 47
2.072916675524019
 98
        1
 10
68925.47819675333
 20
-4726.621073152062
  0
LINE
  5
1E25
330
2
100
AcDbEntity
  8
TEREN$0$A-MassElement-G
  6
Continuous
 62
   210
370
     5
100
AcDbLine
 10
68849.01015155026
 20
-4804.275307062489
 30
0.0
 11
68849.01015155023
 21
-4619.27530706249
 31
0.0
  0
DIMENSION
  5
1E26
330
2
100
AcDbEntity
  8
WYMIARY
100
AcDbDimension
  2
*D44
 10
68127.19483500099
 20
-3699.275307062489
 30
0.0
 11
68047.19483500099
 21
-4159.275307062478
 31
0.0
 70
    32
 71
     5
 42
919.9999999999995
  3
500
100
AcDbAlignedDimension
 13
68564.01015155026
 23
-4619.27530706249
 33
0.0
 14
68564.01015155026
 24
-3699.275307062489
 34
0.0
 50
90.0
100
AcDbRotatedDimension
  0
LWPOLYLINE
  5
1E2D
330
2
100
AcDbEntity
  8
0Hatch
100
AcDbPolyline
 90
       14
 70
     1
 43
0.0
 10
69324.01015155026
 20
-5129.275307062489
 10
69864.01015155026
 20
-5129.275307062489
 10
69864.01015155026
 20
-3699.275307062489
 10
69459.01015155026
 20
-3699.275307062489
 10
69459.01015155026
 20
-3679.275307062366
 10
69359.01015155026
 20
-3579.27530706249
 10
69199.01015155026
 20
-3579.27530706249
 10
69099.01015155026
 20
-3679.275307062515
 10
69099.01015155026
 20
-3699.275307062493
 10
68564.01015155026
 20
-3699.275307062489
 10
68564.01015155026
 20
-4619.27530706249
 10
69129.01015155026
 20
-4619.27530706249
 10
69204.01015155024
 20
-4619.27530706249
 10
69204.01015155026
 20
-5129.275307062489
  0
LWPOLYLINE
  5
1E33
330
2
100
AcDbEntity
  8
0Hatch
100
AcDbPolyline
 90
       15
 70
     1
 43
0.0
 10
69264.01015155025
 20
-4559.275307062489
 10
69264.01015155026
 20
-5069.27530706249
 10
69324.01015155026
 20
-5069.27530706249
 10
69804.01015155026
 20
-5069.27530706249
 10
69804.01015155026
 20
-4484.100473256025
 10
69804.01015155026
 20
-3759.27530706249
 10
69399.01015155026
 20
-3759.27530706249
 10
69399.01015155026
 20
-3704.128120804771
 10
69334.1573378079
 20
-3639.275307062494
 10
69223.86296529264
 20
-3639.27530706249
 10
69159.01015155026
 20
-3704.128120804889
 10
69159.01015155026
 20
-3759.275307062493
 10
68624.01015155026
 20
-3759.27530706249
 10
68624.01015155026
 20
-4559.275307062489
 10
69129.01015155026
 20
-4559.275307062489
  0
LINE
  5
1E35
330
2
100
AcDbEntity
  8
0Hatch
100
AcDbLine
 10
69129.01015155026
 20
-4619.27530706249
 30
0.0
 11
69129.01015155026
 21
-4559.275307062489
 31
0.0
  0
LINE
  5
1E36
330
2
100
AcDbEntity
  8
0Hatch
100
AcDbLine
 10
69019.01015155026
 20
-4619.27530706249
 30
0.0
 11
69019.01015155026
 21
-4559.275307062489
 31
0.0
  0
LINE
  5
1E37
330
2
100
AcDbEntity
  8
0Hatch
100
AcDbLine
 10
69324.01015155026
 20
-5129.275307062489
 30
0.0
 11
69324.01015155026
 21
-5069.27530706249
 31
0.0
  0
LINE
  5
1E38
330
2
100
AcDbEntity
  8
0Hatch
100
AcDbLine
 10
69744.01015155026
 20
-5129.275307062489
 30
0.0
 11
69744.01015155026
 21
-5069.27530706249
 31
0.0
  0
DIMENSION
  5
1E39
330
2
100
AcDbEntity
  8
WYMIARY
100
AcDbDimension
  2
*D45
 10
68127.19483500099
 20
-5129.275307062489
 30
0.0
 11
68047.19483500099
 21
-4874.275307062479
 31
0.0
 70
    32
 71
     5
 42
510.0
  3
500
100
AcDbAlignedDimension
 13
68564.01015155026
 23
-4619.27530706249
 33
0.0
 14
69204.01015155026
 24
-5129.275307062489
 34
0.0
 50
90.0
100
AcDbRotatedDimension
  0
DIMENSION
  5
1E3A
330
2
100
AcDbEntity
  8
0Hatch
100
AcDbDimension
  2
*D46
 10
70419.49837772417
 20
-5129.275307062489
 30
0.0
 11
70339.49837772417
 21
-4414.275307062478
 31
0.0
 70
    32
 71
     5
 42
1430.0
  3
500
100
AcDbAlignedDimension
 13
69864.01015155026
 23
-3699.275307062489
 33
0.0
 14
69864.01015155026
 24
-5129.275307062489
 34
0.0
 50
90.0
100
AcDbRotatedDimension
  0
DIMENSION
  5
1E3B
330
2
100
AcDbEntity
  8
0Hatch
100
AcDbDimension
  2
*D47
 10
69864.01015155026
 20
-5624.680405939231
 30
0.0
 11
69214.01015155026
 21
-5544.680405939231
 31
0.0
 70
    32
 71
     5
 42
1300.0
  3
500
100
AcDbAlignedDimension
 13
68564.01015155026
 23
-4554.689412805965
 33
0.0
 14
69864.01015155026
 24
-4968.1377766316
 34
0.0
100
AcDbRotatedDimension
  0
DIMENSION
  5
1E3C
330
2
100
AcDbEntity
  8
0Hatch
100
AcDbDimension
  2
*D48
 10
69204.01015155026
 20
-5404.459910117744
 30
0.0
 11
69534.01015155026
 21
-5324.459910117745
 31
0.0
 70
    32
 71
     5
 42
660.0
  3
500
100
AcDbAlignedDimension
 13
69864.01015155026
 23
-5097.132824104556
 33
0.0
 14
69204.01015155026
 24
-5097.132824104556
 34
0.0
100
AcDbRotatedDimension
  0
DIMENSION
  5
1E3D
330
2
100
AcDbEntity
  8
WYMIARY
100
AcDbDimension
  2
*D49
 10
68564.01015155026
 20
-5404.459910117744
 30
0.0
 11
68884.01015155026
 21
-5324.459910117745
 31
0.0
 70
    32
 71
     5
 42
640.0
  3
500
100
AcDbAlignedDimension
 13
69204.01015155026
 23
-5097.132824104556
 33
0.0
 14
68564.01015155026
 24
-4587.132824104556
 34
0.0
100
AcDbRotatedDimension
  0
DIMENSION
  5
1E3E
330
2
100
AcDbEntity
  8
WYMIARY
100
AcDbDimension
  2
*D50
 10
69099.01015155026
 20
-3180.701481030526
 30
0.0
 11
68831.51015155026
 21
-3100.701481030526
 31
0.0
 70
    32
 71
     5
 42
535.0
  3
500
100
AcDbAlignedDimension
 13
68564.01015155026
 23
-3699.275307062489
 33
0.0
 14
69099.01015155026
 24
-3699.275307062493
 34
0.0
100
AcDbRotatedDimension
  0
DIMENSION
  5
1E3F
330
2
100
AcDbEntity
  8
WYMIARY
100
AcDbDimension
  2
*D51
 10
69459.01015155026
 20
-3180.701481030526
 30
0.0
 11
69279.01015155026
 21
-3100.701481030526
 31
0.0
 70
    32
 71
     5
 42
360.0
  3
500
100
AcDbAlignedDimension
 13
69099.01015155026
 23
-3699.275307062493
 33
0.0
 14
69459.01015155026
 24
-3679.275307062366
 34
0.0
100
AcDbRotatedDimension
  0
DIMENSION
  5
1E40
330
2
100
AcDbEntity
  8
WYMIARY
100
AcDbDimension
  2
*D52
 10
69864.01015155026
 20
-3180.701481030526
 30
0.0
 11
69661.51015155026
 21
-3100.701481030526
 31
0.0
 70
    32
 71
     5
 42
405.0
  3
500
100
AcDbAlignedDimension
 13
69459.01015155026
 23
-3679.275307062366
 33
0.0
 14
69864.01015155026
 24
-3699.275307062489
 34
0.0
100
AcDbRotatedDimension
  0
DIMENSION
  5
1E41
330
2
100
AcDbEntity
  8
0Hatch
100
AcDbDimension
  2
*D53
 10
70419.49837772417
 20
-3579.27530706249
 30
0.0
 11
70339.49837772417
 21
-3639.275307062479
 31
0.0
 70
    32
 71
     5
 42
120.0
  3
500
100
AcDbAlignedDimension
 13
69864.01015155026
 23
-3699.275307062489
 33
0.0
 14
69359.01015155026
 24
-3579.27530706249
 34
0.0
 50
90.0
100
AcDbRotatedDimension
  0
DIMENSION
  5
1E42
330
2
100
AcDbEntity
  8
0Hatch
100
AcDbDimension
  2
*D54
 10
68127.19483500099
 20
-3579.275307062489
 30
0.0
 11
68047.19483500099
 21
-3639.275307062479
 31
0.0
 70
    32
 71
     5
 42
120.0000000000004
  3
500
100
AcDbAlignedDimension
 13
68564.01015155026
 23
-3699.275307062489
 33
0.0
 14
69359.01015155026
 24
-3579.27530706249
 34
0.0
 50
90.0
100
AcDbRotatedDimension
  0
DIMENSION
  5
1E43
330
2
100
AcDbEntity
  8
0Hatch
100
AcDbDimension
  2
*D55
 10
70582.77912227783
 20
-5129.275307062489
 30
0.0
 11
70502.77912227783
 21
-4354.275307062478
 31
0.0
 70
    32
 71
     5
 42
1550.0
  3
500
100
AcDbAlignedDimension
 13
69359.01015155026
 23
-3579.27530706249
 33
0.0
 14
69825.20626046834
 24
-5129.275307062489
 34
0.0
 50
90.0
100
AcDbRotatedDimension
  0
TEXT
  5
1E44
330
2
100
AcDbEntity
  8
NAPISY
100
AcDbText
 10
68281.68813518044
 20
628.3859742711065
 30
0.0
 40
150.0
  1
"D O M  P O D  G R A B A M I"
  7
AVA
100
AcDbText
  0
LWPOLYLINE
  5
206E
330
2
100
AcDbEntity
  8
0Hatch
100
AcDbPolyline
 90
        4
 70
     0
 43
60.0
 10
69129.01015155026
 20
-4589.275307062489
 10
69234.01015155024
 20
-4589.275307062489
 10
69234.01015155024
 20
-5099.275307062489
 10
69324.01015155026
 20
-5099.275307062489
  0
LWPOLYLINE
  5
206F
330
2
100
AcDbEntity
  8
0Hatch
100
AcDbPolyline
 90
       12
 70
     0
 43
60.0
 10
69744.01015155026
 20
-5099.275307062489
 10
69834.01015155026
 20
-5099.275307062489
 10
69834.01015155026
 20
-3729.27530706249
 10
69429.01015155026
 20
-3729.27530706249
 10
69429.01015155026
 20
-3691.70171393357
 10
69346.58374467907
 20
-3609.275307062489
 10
69211.43655842145
 20
-3609.275307062489
 10
69129.01015155026
 20
-3691.701713933706
 10
69129.01015155026
 20
-3729.275307062493
 10
68594.01015155026
 20
-3729.27530706249
 10
68594.01015155026
 20
-4589.275307062489
 10
69019.01015155026
 20
-4589.275307062489
  0
LINE
  5
2070
330
2
100
AcDbEntity
  8
TEREN$0$A-MassElement-G
  6
Continuous
 62
   210
370
     5
100
AcDbLine
 10
75008.57797660306
 20
-4804.275307062489
 30
0.0
 11
74653.57797660306
 21
-4804.275307062489
 31
0.0
  0
LWPOLYLINE
  5
2071
330
2
100
AcDbEntity
  8
0Hatch
100
AcDbPolyline
 90
        4
 70
     1
 43
0.0
 10
74938.57797660306
 20
-4709.275307062489
 10
74913.57797660306
 20
-4709.275307062489
 10
74913.57797660306
 20
-4734.275307062489
 10
74938.57797660306
 20
-4734.275307062489
  0
LINE
  5
2072
330
2
100
AcDbEntity
  8
TEREN$0$A-MassElement-G
  6
Continuous
 62
   210
370
     5
100
AcDbLine
 10
74978.57797660306
 20
-4774.275307062489
 30
0.0
 11
74978.57797660306
 21
-4619.27530706249
 31
0.0
  0
LINE
  5
2073
330
2
100
AcDbEntity
  8
TEREN$0$A-MassElement-G
  6
Continuous
 62
   210
370
     5
100
AcDbLine
 10
74978.57797660306
 20
-4774.275307062489
 30
0.0
 11
74653.57797660306
 21
-4774.275307062489
 31
0.0
  0
LINE
  5
2074
330
2
100
AcDbEntity
  8
TEREN$0$A-MassElement-G
  6
Continuous
 62
   210
370
     5
100
AcDbLine
 10
74775.60741385456
 20
-3469.27530706249
 30
0.0
 11
75356.00438347424
 21
-3469.27530706249
 31
0.0
  0
LINE
  5
2075
330
2
100
AcDbEntity
  8
TEREN$0$A-MassElement-G
  6
Continuous
 62
   210
370
     5
100
AcDbLine
 10
74788.03382072578
 20
-3499.27530706249
 30
0.0
 11
75343.57797660306
 21
-3499.27530706249
 31
0.0
  0
LINE
  5
2076
330
2
100
AcDbEntity
  8
TEREN$0$A-MassElement-G
  6
Continuous
 62
   210
370
     5
100
AcDbLine
 10
75463.57797660306
 20
-3619.27530706249
 30
0.0
 11
75463.57797660306
 21
-4259.275307062489
 31
0.0
  0
LINE
  5
2077
330
2
100
AcDbEntity
  8
TEREN$0$A-MassElement-G
  6
Continuous
 62
   210
370
     5
100
AcDbLine
 10
75493.57797660306
 20
-3606.848900191295
 30
0.0
 11
75493.57797660306
 21
-4289.27530706249
 31
0.0
  0
LINE
  5
2078
330
2
100
AcDbEntity
  8
TEREN$0$A-MassElement-G
  6
Continuous
 62
   210
370
     5
100
AcDbLine
 10
75293.57797660306
 20
-4259.275307062489
 30
0.0
 11
75463.57797660306
 21
-4259.275307062489
 31
0.0
  0
LINE
  5
2079
330
2
100
AcDbEntity
  8
TEREN$0$A-MassElement-G
  6
Continuous
 62
   210
370
     5
100
AcDbLine
 10
75293.57797660306
 20
-4289.27530706249
 30
0.0
 11
75493.57797660306
 21
-4289.27530706249
 31
0.0
  0
LINE
  5
207A
330
2
100
AcDbEntity
  8
TEREN$0$A-MassElement-G
  6
Continuous
 62
   210
370
     5
100
AcDbLine
 10
75463.57797660306
 20
-3619.27530706249
 30
0.0
 11
75343.57797660306
 21
-3499.27530706249
 31
0.0
  0
LINE
  5
207B
330
2
100
AcDbEntity
  8
TEREN$0$A-MassElement-G
  6
Continuous
 62
   210
370
     5
100
AcDbLine
 10
75493.57797660306
 20
-3606.848900191295
 30
0.0
 11
75356.00438347424
 21
-3469.27530706249
 31
0.0
  0
LINE
  5
207C
330
2
100
AcDbEntity
  8
TEREN$0$A-MassElement-G
  6
Continuous
 62
   210
370
     5
100
AcDbLine
 10
74683.3058986644
 20
-3604.003229123843
 30
0.0
 11
74788.03382072578
 21
-3499.27530706249
 31
0.0
  0
LINE
  5
207D
330
2
100
AcDbEntity
  8
TEREN$0$A-MassElement-G
  6
Continuous
 62
   210
370
     5
100
AcDbLine
 10
74662.09269522881
 20
-3582.790025688246
 30
0.0
 11
74775.60741385456
 21
-3469.27530706249
 31
0.0
  0
LINE
  5
207E
330
2
100
AcDbEntity
  8
TEREN$0$A-MassElement-G
  6
Continuous
 62
   210
370
     5
100
AcDbLine
 10
74219.57797660306
 20
-3699.275307062489
 30
0.0
 11
74219.57797660306
 21
-3579.27530706249
 31
0.0
  0
LINE
  5
207F
330
2
100
AcDbEntity
  8
TEREN$0$A-MassElement-G
  6
Continuous
 62
   210
370
     5
100
AcDbLine
 10
74189.577976603
 20
-3699.275307062489
 30
0.0
 11
74189.57797660303
 21
-3609.275307062489
 31
0.0
  0
LINE
  5
2080
330
2
100
AcDbEntity
  8
TEREN$0$A-MassElement-G
  6
Continuous
 62
   210
370
     5
100
AcDbLine
 10
74049.57797660306
 20
-3699.275307062489
 30
0.0
 11
74049.57797660306
 21
-3609.275307062489
 31
0.0
  0
LINE
  5
2081
330
2
100
AcDbEntity
  8
TEREN$0$A-MassElement-G
  6
Continuous
 62
   210
370
     5
100
AcDbLine
 10
74019.57797660306
 20
-3699.275307062489
 30
0.0
 11
74019.57797660306
 21
-3579.27530706249
 31
0.0
  0
LINE
  5
2082
330
2
100
AcDbEntity
  8
TEREN$0$A-MassElement-G
  6
Continuous
 62
   210
370
     5
100
AcDbLine
 10
74219.57797660306
 20
-3579.27530706249
 30
0.0
 11
74019.57797660306
 21
-3579.27530706249
 31
0.0
  0
LINE
  5
2083
330
2
100
AcDbEntity
  8
TEREN$0$A-MassElement-G
  6
Continuous
 62
   210
370
     5
100
AcDbLine
 10
74189.57797660303
 20
-3609.275307062489
 30
0.0
 11
74049.57797660306
 21
-3609.275307062489
 31
0.0
  0
LINE
  5
2084
330
2
100
AcDbEntity
  8
TEREN$0$A-MassElement-G
  6
Continuous
 62
   210
370
     5
100
AcDbLine
 10
74978.57797660303
 20
-4719.275307062489
 30
0.0
 11
74978.57797660303
 21
-4769.275307062489
 31
0.0
  0
HATCH
  5
2085
330
2
100
AcDbEntity
  8
0Hatch
100
AcDbHatch
 10
0.0
 20
0.0
 30
0.0
210
0.0
220
0.0
230
1.0
  2
SOLID
 70
     1
 71
     0
 91
        1
 92
        7
 72
     0
 73
     1
 93
        4
 10
74938.57797660306
 20
-4734.275307062489
 10
74913.57797660306
 20
-4734.275307062489
 10
74913.57797660306
 20
-4709.275307062489
 10
74938.57797660306
 20
-4709.275307062489
 97
        0
 75
     0
 76
     1
 47
2.072916675524019
 98
        1
 10
74932.10993139999
 20
-4726.621073152062
  0
LINE
  5
2086
330
2
100
AcDbEntity
  8
TEREN$0$A-MassElement-G
  6
Continuous
 62
   210
370
     5
100
AcDbLine
 10
75008.57797660306
 20
-4804.275307062489
 30
0.0
 11
75008.57797660309
 21
-4619.27530706249
 31
0.0
  0
DIMENSION
  5
2087
330
2
100
AcDbEntity
  8
WYMIARY
100
AcDbDimension
  2
*D69
 10
75730.39329315233
 20
-3699.275307062489
 30
0.0
 11
75650.39329315233
 21
-4159.275307062477
 31
0.0
 70
    32
 71
     5
 42
920.0000000000004
  3
500
100
AcDbAlignedDimension
 13
75293.57797660306
 23
-4619.27530706249
 33
0.0
 14
75293.57797660306
 24
-3699.275307062489
 34
0.0
 50
90.0
100
AcDbRotatedDimension
  0
LWPOLYLINE
  5
2088
330
2
100
AcDbEntity
  8
0Hatch
100
AcDbPolyline
 90
       14
 70
     1
 43
0.0
 10
74533.57797660306
 20
-5129.275307062489
 10
73993.57797660306
 20
-5129.275307062489
 10
73993.57797660306
 20
-3699.275307062489
 10
74398.57797660306
 20
-3699.275307062489
 10
74398.57797660306
 20
-3679.275307062366
 10
74498.57797660306
 20
-3579.27530706249
 10
74658.57797660306
 20
-3579.27530706249
 10
74758.57797660306
 20
-3679.275307062515
 10
74758.57797660306
 20
-3699.275307062493
 10
75293.57797660306
 20
-3699.275307062489
 10
75293.57797660306
 20
-4619.27530706249
 10
74728.57797660306
 20
-4619.27530706249
 10
74653.57797660307
 20
-4619.27530706249
 10
74653.57797660306
 20
-5129.275307062489
  0
LWPOLYLINE
  5
2089
330
2
100
AcDbEntity
  8
0Hatch
100
AcDbPolyline
 90
       15
 70
     1
 43
0.0
 10
74593.57797660308
 20
-4559.275307062489
 10
74593.57797660306
 20
-5069.27530706249
 10
74533.57797660306
 20
-5069.27530706249
 10
74053.57797660306
 20
-5069.27530706249
 10
74053.57797660306
 20
-4484.100473256025
 10
74053.57797660306
 20
-3759.27530706249
 10
74458.57797660306
 20
-3759.27530706249
 10
74458.57797660306
 20
-3704.128120804771
 10
74523.43079034542
 20
-3639.275307062494
 10
74633.72516286067
 20
-3639.27530706249
 10
74698.57797660306
 20
-3704.128120804889
 10
74698.57797660306
 20
-3759.275307062493
 10
75233.57797660306
 20
-3759.27530706249
 10
75233.57797660306
 20
-4559.275307062489
 10
74728.57797660306
 20
-4559.275307062489
  0
LINE
  5
208A
330
2
100
AcDbEntity
  8
0Hatch
100
AcDbLine
 10
74728.57797660306
 20
-4619.27530706249
 30
0.0
 11
74728.57797660306
 21
-4559.275307062489
 31
0.0
  0
LINE
  5
208B
330
2
100
AcDbEntity
  8
0Hatch
100
AcDbLine
 10
74838.57797660306
 20
-4619.27530706249
 30
0.0
 11
74838.57797660306
 21
-4559.275307062489
 31
0.0
  0
LINE
  5
208C
330
2
100
AcDbEntity
  8
0Hatch
100
AcDbLine
 10
74533.57797660306
 20
-5129.275307062489
 30
0.0
 11
74533.57797660306
 21
-5069.27530706249
 31
0.0
  0
LINE
  5
208D
330
2
100
AcDbEntity
  8
0Hatch
100
AcDbLine
 10
74113.57797660306
 20
-5129.275307062489
 30
0.0
 11
74113.57797660306
 21
-5069.27530706249
 31
0.0
  0
DIMENSION
  5
208E
330
2
100
AcDbEntity
  8
WYMIARY
100
AcDbDimension
  2
*D70
 10
75730.39329315233
 20
-5129.275307062489
 30
0.0
 11
75650.39329315233
 21
-4874.275307062478
 31
0.0
 70
    32
 71
     5
 42
510.0
  3
500
100
AcDbAlignedDimension
 13
75293.57797660306
 23
-4619.27530706249
 33
0.0
 14
74653.57797660306
 24
-5129.275307062489
 34
0.0
 50
90.0
100
AcDbRotatedDimension
  0
DIMENSION
  5
208F
330
2
100
AcDbEntity
  8
0Hatch
100
AcDbDimension
  2
*D71
 10
73438.08975042914
 20
-5129.275307062489
 30
0.0
 11
73358.08975042914
 21
-4414.275307062477
 31
0.0
 70
    32
 71
     5
 42
1430.0
  3
500
100
AcDbAlignedDimension
 13
73993.57797660306
 23
-3699.275307062489
 33
0.0
 14
73993.57797660306
 24
-5129.275307062489
 34
0.0
 50
90.0
100
AcDbRotatedDimension
  0
DIMENSION
  5
2090
330
2
100
AcDbEntity
  8
0Hatch
100
AcDbDimension
  2
*D72
 10
73993.57797660306
 20
-5624.680405939231
 30
0.0
 11
74643.57797660306
 21
-5544.680405939231
 31
0.0
 70
    32
 71
     5
 42
1300.0
  3
500
100
AcDbAlignedDimension
 13
75293.57797660306
 23
-4554.689412805965
 33
0.0
 14
73993.57797660306
 24
-4968.1377766316
 34
0.0
 50
180.0
100
AcDbRotatedDimension
  0
DIMENSION
  5
2091
330
2
100
AcDbEntity
  8
0Hatch
100
AcDbDimension
  2
*D73
 10
74653.57797660306
 20
-5404.459910117744
 30
0.0
 11
74323.57797660306
 21
-5324.459910117745
 31
0.0
 70
    32
 71
     5
 42
660.0
  3
500
100
AcDbAlignedDimension
 13
73993.57797660306
 23
-5097.132824104556
 33
0.0
 14
74653.57797660306
 24
-5097.132824104556
 34
0.0
 50
180.0
100
AcDbRotatedDimension
  0
DIMENSION
  5
2092
330
2
100
AcDbEntity
  8
WYMIARY
100
AcDbDimension
  2
*D74
 10
75293.57797660306
 20
-5404.459910117744
 30
0.0
 11
74973.57797660306
 21
-5324.459910117745
 31
0.0
 70
    32
 71
     5
 42
640.0
  3
500
100
AcDbAlignedDimension
 13
74653.57797660306
 23
-5097.132824104556
 33
0.0
 14
75293.57797660306
 24
-4587.132824104556
 34
0.0
 50
180.0
100
AcDbRotatedDimension
  0
DIMENSION
  5
2093
330
2
100
AcDbEntity
  8
WYMIARY
100
AcDbDimension
  2
*D75
 10
74758.57797660306
 20
-3180.701481030526
 30
0.0
 11
75026.07797660306
 21
-3100.701481030526
 31
0.0
 70
    32
 71
     5
 42
535.0
  3
500
100
AcDbAlignedDimension
 13
75293.57797660306
 23
-3699.275307062489
 33
0.0
 14
74758.57797660306
 24
-3699.275307062493
 34
0.0
 50
180.0
100
AcDbRotatedDimension
  0
DIMENSION
  5
2094
330
2
100
AcDbEntity
  8
WYMIARY
100
AcDbDimension
  2
*D76
 10
74398.57797660306
 20
-3180.701481030526
 30
0.0
 11
74578.57797660306
 21
-3100.701481030526
 31
0.0
 70
    32
 71
     5
 42
360.0
  3
500
100
AcDbAlignedDimension
 13
74758.57797660306
 23
-3699.275307062493
 33
0.0
 14
74398.57797660306
 24
-3679.275307062366
 34
0.0
 50
180.0
100
AcDbRotatedDimension
  0
DIMENSION
  5
2095
330
2
100
AcDbEntity
  8
WYMIARY
100
AcDbDimension
  2
*D77
 10
73993.57797660306
 20
-3180.701481030526
 30
0.0
 11
74196.07797660306
 21
-3100.701481030526
 31
0.0
 70
    32
 71
     5
 42
405.0
  3
500
100
AcDbAlignedDimension
 13
74398.57797660306
 23
-3679.275307062366
 33
0.0
 14
73993.57797660306
 24
-3699.275307062489
 34
0.0
 50
180.0
100
AcDbRotatedDimension
  0
DIMENSION
  5
2096
330
2
100
AcDbEntity
  8
0Hatch
100
AcDbDimension
  2
*D78
 10
73438.08975042914
 20
-3579.27530706249
 30
0.0
 11
73358.08975042914
 21
-3639.275307062478
 31
0.0
 70
    32
 71
     5
 42
120.0
  3
500
100
AcDbAlignedDimension
 13
73993.57797660306
 23
-3699.275307062489
 33
0.0
 14
74498.57797660306
 24
-3579.27530706249
 34
0.0
 50
90.0
100
AcDbRotatedDimension
  0
DIMENSION
  5
2097
330
2
100
AcDbEntity
  8
0Hatch
100
AcDbDimension
  2
*D79
 10
75730.39329315233
 20
-3579.27530706249
 30
0.0
 11
75650.39329315233
 21
-3639.275307062478
 31
0.0
 70
    32
 71
     5
 42
119.9999999999995
  3
500
100
AcDbAlignedDimension
 13
75293.57797660306
 23
-3699.275307062489
 33
0.0
 14
74498.57797660306
 24
-3579.27530706249
 34
0.0
 50
90.0
100
AcDbRotatedDimension
  0
DIMENSION
  5
2098
330
2
100
AcDbEntity
  8
0Hatch
100
AcDbDimension
  2
*D80
 10
73274.80900587548
 20
-5129.275307062489
 30
0.0
 11
73194.80900587548
 21
-4354.275307062478
 31
0.0
 70
    32
 71
     5
 42
1550.0
  3
500
100
AcDbAlignedDimension
 13
74498.57797660306
 23
-3579.27530706249
 33
0.0
 14
74032.38186768498
 24
-5129.275307062489
 34
0.0
 50
90.0
100
AcDbRotatedDimension
  0
LWPOLYLINE
  5
2099
330
2
100
AcDbEntity
  8
0Hatch
100
AcDbPolyline
 90
        4
 70
     0
 43
60.0
 10
74728.57797660306
 20
-4589.275307062489
 10
74623.57797660307
 20
-4589.275307062489
 10
74623.57797660307
 20
-5099.275307062489
 10
74533.57797660306
 20
-5099.275307062489
  0
LWPOLYLINE
  5
209A
330
2
100
AcDbEntity
  8
0Hatch
100
AcDbPolyline
 90
       12
 70
     0
 43
60.0
 10
74113.57797660306
 20
-5099.275307062489
 10
74023.57797660306
 20
-5099.275307062489
 10
74023.57797660306
 20
-3729.27530706249
 10
74428.57797660306
 20
-3729.27530706249
 10
74428.57797660306
 20
-3691.70171393357
 10
74511.00438347425
 20
-3609.275307062489
 10
74646.15156973187
 20
-3609.275307062489
 10
74728.57797660306
 20
-3691.701713933706
 10
74728.57797660306
 20
-3729.275307062493
 10
75263.57797660306
 20
-3729.27530706249
 10
75263.57797660306
 20
-4589.275307062489
 10
74838.57797660306
 20
-4589.275307062489
  0
ENDSEC
  0
SECTION
  2
OBJECTS
  0
DICTIONARY
  5
B
330
0
100
AcDbDictionary
281
     1
  3
ACAD_COLOR
350
53
  3
ACAD_GROUP
350
4E
  3
ACAD_LAYOUT
350
12
  3
ACAD_MATERIAL
350
D
  3
ACAD_MLEADERSTYLE
350
7A8
  3
ACAD_MLINESTYLE
350
4F
  3
ACAD_PLOTSETTINGS
350
50
  3
ACAD_PLOTSTYLENAME
350
A
  3
ACAD_SCALELIST
350
54
  3
ACAD_TABLESTYLE
350
55
  3
ACAD_VISUALSTYLE
350
15
  3
ACDB_RECOMPOSE_DATA
350
794
  3
AcDbVariableDictionary
350
795
  3
AEC_PROPERTY_SET_DEFS
350
952
  3
DWGPROPS
350
217E
  0
DICTIONARY
  5
1E
330
1D
100
AcDbDictionary
280
     1
281
     1
  3
ACAD_LAYERSTATES
360
1F
  0
DICTIONARY
  5
7
330
6
100
AcDbDictionary
280
     1
281
     1
  3
ADSK_XREC_LAYER_RECONCILED
360
8
  0
DICTIONARY
  5
75
330
74
100
AcDbDictionary
280
     1
281
     1
  3
ADSK_XREC_LAYER_RECONCILED
360
76
  0
DICTIONARY
  5
57
330
56
100
AcDbDictionary
280
     1
281
     1
  3
ADSK_XREC_LAYER_RECONCILED
360
58
  0
DICTIONARY
  5
3A4
330
3A3
100
AcDbDictionary
280
     1
281
     1
  3
ADSK_XREC_LAYER_RECONCILED
360
3A5
  0
DICTIONARY
  5
7F
330
7E
100
AcDbDictionary
280
     1
281
     1
  3
ADSK_XREC_LAYER_RECONCILED
360
80
  0
DICTIONARY
  5
1A19
330
1A18
100
AcDbDictionary
280
     1
281
     1
  0
DICTIONARY
  5
3
330
2
100
AcDbDictionary
280
     1
281
     1
  3
ACAD_SORTENTS
360
790
  0
DICTIONARY
  5
30
330
2F
100
AcDbDictionary
280
     1
281
     1
  3
ACAD_SORTENTS
360
78F
  0
DICTIONARY
  5
53
102
{ACAD_REACTORS
330
B
102
}
330
B
100
AcDbDictionary
281
     1
  0
DICTIONARY
  5
4E
102
{ACAD_REACTORS
330
B
102
}
330
B
100
AcDbDictionary
281
     1
  0
DICTIONARY
  5
12
102
{ACAD_REACTORS
330
B
102
}
330
B
100
AcDbDictionary
281
     1
  3
Layout1
350
1943
  3
Model
350
11
  0
DICTIONARY
  5
D
102
{ACAD_REACTORS
330
B
102
}
330
B
100
AcDbDictionary
281
     1
  3
ByBlock
350
52
  3
ByLayer
350
51
  3
Global
350
C
  0
DICTIONARY
  5
7A8
102
{ACAD_REACTORS
330
B
102
}
330
B
100
AcDbDictionary
281
     1
  3
Standard
350
7A9
  0
DICTIONARY
  5
4F
102
{ACAD_REACTORS
330
B
102
}
330
B
100
AcDbDictionary
281
     1
  3
STANDARD
350
59
  0
DICTIONARY
  5
50
102
{ACAD_REACTORS
330
B
102
}
330
B
100
AcDbDictionary
281
     1
  0
ACDBDICTIONARYWDFLT
  5
A
102
{ACAD_REACTORS
330
B
102
}
330
B
100
AcDbDictionary
281
     1
  3
Normal
350
9
100
AcDbDictionaryWithDefault
340
9
  0
DICTIONARY
  5
54
102
{ACAD_REACTORS
330
B
102
}
330
B
100
AcDbDictionary
281
     1
  3
*A1
350
85B
  3
*A10
350
132C
  3
*A11
350
132D
  3
*A12
350
86F
  3
*A13
350
132E
  3
*A14
350
873
  3
*A15
350
132F
  3
*A16
350
869
  3
*A17
350
1330
  3
*A18
350
1331
  3
*A19
350
1332
  3
*A2
350
876
  3
*A20
350
1333
  3
*A21
350
879
  3
*A22
350
87B
  3
*A23
350
870
  3
*A24
350
1334
  3
*A25
350
1335
  3
*A26
350
1336
  3
*A27
350
1337
  3
*A28
350
87F
  3
*A29
350
881
  3
*A3
350
877
  3
*A30
350
1338
  3
*A31
350
87C
  3
*A32
350
87D
  3
*A33
350
865
  3
*A34
350
860
  3
*A35
350
862
  3
*A36
350
87E
  3
*A37
350
168F
  3
*A38
350
1690
  3
*A39
350
1691
  3
*A4
350
868
  3
*A40
350
86A
  3
*A41
350
1692
  3
*A42
350
1693
  3
*A43
350
85E
  3
*A44
350
1694
  3
*A45
350
871
  3
*A46
350
1695
  3
*A47
350
882
  3
*A48
350
866
  3
*A49
350
86D
  3
*A5
350
85D
  3
*A50
350
85F
  3
*A51
350
863
  3
*A52
350
85C
  3
*A53
350
874
  3
*A54
350
867
  3
*A55
350
1A1C
  3
*A56
350
864
  3
*A57
350
1A1D
  3
*A58
350
1A1E
  3
*A59
350
1A1F
  3
*A6
350
86C
  3
*A60
350
1A20
  3
*A61
350
1A21
  3
*A62
350
1A22
  3
*A63
350
86B
  3
*A64
350
87A
  3
*A65
350
86E
  3
*A66
350
872
  3
*A67
350
880
  3
*A68
350
875
  3
*A69
350
1D69
  3
*A7
350
878
  3
*A70
350
1D6A
  3
*A71
350
1D6B
  3
*A72
350
1D6C
  3
*A73
350
1D6D
  3
*A74
350
1D6E
  3
*A75
350
1D6F
  3
*A8
350
861
  3
*A9
350
132B
  3
A0
350
5E
  3
A1
350
5F
  3
A2
350
60
  3
A3
350
61
  3
A4
350
62
  3
A5
350
63
  3
A6
350
64
  3
A7
350
65
  3
A8
350
66
  3
A9
350
67
  3
B0
350
68
  3
B1
350
69
  3
B2
350
6A
  3
B3
350
6B
  3
B4
350
6C
  3
B5
350
6D
  3
B6
350
6E
  3
B7
350
6F
  3
B8
350
70
  3
B9
350
71
  3
C0
350
72
  0
DICTIONARY
  5
55
102
{ACAD_REACTORS
330
B
102
}
330
B
100
AcDbDictionary
281
     1
  3
Standard
350
5A
  0
DICTIONARY
  5
15
102
{ACAD_REACTORS
330
B
102
}
330
B
100
AcDbDictionary
281
     1
  3
2dWireframe
350
14
  3
3D Hidden
350
7A0
  3
3dWireframe
350
5D
  3
Basic
350
79F
  3
Brighten
350
7A3
  3
ColorChange
350
7A7
  3
Conceptual
350
7A1
  3
Dim
350
7A2
  3
Facepattern
350
7A6
  3
Flat
350
79B
  3
FlatWithEdges
350
79C
  3
Gouraud
350
79D
  3
GouraudWithEdges
350
79E
  3
Linepattern
350
7A5
  3
Phong
350
7B1
  3
PhongWithEdges
350
7B2
  3
Realistic
350
5C
  3
Thicken
350
7A4
  0
XRECORD
  5
794
102
{ACAD_REACTORS
330
B
102
}
330
B
100
AcDbXrecord
280
     1
 90
        1
330
5A
  0
DICTIONARY
  5
795
102
{ACAD_REACTORS
330
B
102
}
330
B
100
AcDbDictionary
281
     1
  3
CANNOSCALE
350
798
  3
CMLEADERSTYLE
350
797
  3
CTABLESTYLE
350
796
  3
DIMASSOC
350
217C
  3
HIDETEXT
350
217B
  3
INDEXCTL
350
217A
  3
LIGHTINGUNITS
350
799
  3
MSLTSCALE
350
2178
  3
SORTENTS
350
2179
  0
DICTIONARY
  5
952
102
{ACAD_REACTORS
330
B
102
}
330
B
100
AcDbDictionary
281
     1
  0
XRECORD
  5
217E
102
{ACAD_REACTORS
330
B
102
}
330
B
100
AcDbXrecord
280
     1
  1
DWGPROPS COOKIE
  2

  3

  4

  6

  7

  8
beata.rzonca
  9

300
=
301
=
302
=
303
=
304
=
305
=
306
=
307
=
308
=
309
=
 40
21.74334082175926
 41
2450817.525937848
 42
2454967.514850799
  1

 90
        0
  0
DICTIONARY
  5
1F
102
{ACAD_REACTORS
330
1E
102
}
330
1E
100
AcDbDictionary
281
     1
  0
XRECORD
  5
8
102
{ACAD_REACTORS
330
7
102
}
330
7
100
AcDbXrecord
280
     1
290
     1
  0
XRECORD
  5
76
102
{ACAD_REACTORS
330
75
102
}
330
75
100
AcDbXrecord
280
     1
290
     1
  0
XRECORD
  5
58
102
{ACAD_REACTORS
330
57
102
}
330
57
100
AcDbXrecord
280
     1
290
     1
  0
XRECORD
  5
3A5
102
{ACAD_REACTORS
330
3A4
102
}
330
3A4
100
AcDbXrecord
280
     1
290
     1
  0
XRECORD
  5
80
102
{ACAD_REACTORS
330
7F
102
}
330
7F
100
AcDbXrecord
280
     1
290
     1
  0
SORTENTSTABLE
  5
790
102
{ACAD_REACTORS
330
3
102
}
330
3
100
AcDbSortentsTable
330
2
331
1E36
  5
1E37
331
1E18
  5
1E18
331
1E13
  5
1E13
331
1E3B
  5
1E3C
331
1E40
  5
1E41
331
1E0C
  5
1E0C
331
1E07
  5
1E07
331
1E02
  5
1E02
331
1E33
  5
1E35
331
1E15
  5
1E15
331
1E10
  5
1E10
331
1E38
  5
1E39
331
1E3D
  5
1E3E
331
1E42
  5
1E43
331
1E24
  5
1E24
331
1E0E
  5
1E0E
331
1E09
  5
1E09
331
1DFF
  5
1DFF
331
1E35
  5
1E36
331
1E17
  5
1E17
331
1E12
  5
1E12
331
1E3A
  5
1E3B
331
1E3F
  5
1E40
331
1E44
  5
1E48
331
1E26
  5
1E26
331
1E0B
  5
1E0B
331
1E06
  5
1E06
331
1E01
  5
1E01
331
1E37
  5
1E38
331
1E19
  5
1E19
331
1E14
  5
1E14
331
1E3C
  5
1E3D
331
1E41
  5
1E42
331
1E2D
  5
1E2D
331
1E0D
  5
1E0D
331
1E08
  5
1E08
331
1E03
  5
1E03
331
1E16
  5
1E16
331
1E11
  5
1E11
331
1E39
  5
1E3A
331
1E3E
  5
1E3F
331
1E43
  5
1E44
331
1E25
  5
1E25
331
1E0F
  5
1E0F
331
1E0A
  5
1E0A
331
1E05
  5
1E05
331
1E00
  5
1E00
  0
SORTENTSTABLE
  5
78F
102
{ACAD_REACTORS
330
30
102
}
330
30
100
AcDbSortentsTable
330
2F
  0
LAYOUT
  5
1943
102
{ACAD_XDICTIONARY
360
2188
102
}
102
{ACAD_REACTORS
330
12
102
}
330
12
100
AcDbPlotSettings
  1

  2
CutePDF Writer
  4

  6

 40
0.0
 41
0.0
 42
0.0
 43
0.0
 44
0.0
 45
0.0
 46
0.0
 47
0.0
 48
0.0
 49
0.0
140
0.0
141
0.0
142
1.0
143
1.0
 70
   688
 72
     0
 73
     0
 74
     5
  7

 75
    16
147
1.0
148
0.0
149
0.0
100
AcDbLayout
  1
Layout1
 70
     1
 71
     1
 10
0.0
 20
0.0
 11
12.0
 21
9.0
 12
0.0
 22
0.0
 32
0.0
 14
0.0
 24
0.0
 34
0.0
 15
0.0
 25
0.0
 35
0.0
146
0.0
 13
0.0
 23
0.0
 33
0.0
 16
1.0
 26
0.0
 36
0.0
 17
0.0
 27
1.0
 37
0.0
 76
     0
330
1942
  0
LAYOUT
  5
11
102
{ACAD_XDICTIONARY
360
2181
102
}
102
{ACAD_REACTORS
330
12
102
}
330
12
100
AcDbPlotSettings
  1

  2
RICOH Aficio AP610N PCL 5e
  4
A4
  6
10-ele
 40
6.805083274841308
 41
5.027085781097412
 42
6.974411010742187
 43
5.027069091796875
 44
209.9733276367187
 45
296.9259948730469
 46
-3.903083324432671
 47
3.235920000076276
 48
67057.75918130524
 49
-45526.33714755503
140
77257.75918130527
141
-31506.33714755504
142
1.0
143
50.0
 70
 11940
 72
     1
 73
     0
 74
     4
  7
monochrome_140.ctb
 75
     0
147
0.0192346895442289
148
-67057.75918130524
149
45526.33714755503
100
AcDbLayout
  1
Model
 70
     1
 71
     0
 10
0.0
 20
0.0
 11
12.0
 21
9.0
 12
0.0
 22
0.0
 32
0.0
 14
0.0
 24
0.0
 34
0.0
 15
0.0
 25
0.0
 35
0.0
146
0.0
 13
0.0
 23
0.0
 33
0.0
 16
1.0
 26
0.0
 36
0.0
 17
0.0
 27
1.0
 37
0.0
 76
     0
330
2
331
29
1001
ACAD_PSEXT
1000
RICOH Aficio AP610N PCL 5e
1000
RICOH Aficio AP610N PCL 5e
1000
IP_192.168.0.252_tech
1000

1070
     0
  0
MATERIAL
  5
52
102
{ACAD_XDICTIONARY
360
2185
102
}
102
{ACAD_REACTORS
330
D
102
}
330
D
100
AcDbMaterial
  1
ByBlock
 73
     1
 78
     1
172
     1
176
     1
270
     1
274
     1
  0
MATERIAL
  5
51
102
{ACAD_XDICTIONARY
360
2183
102
}
102
{ACAD_REACTORS
330
D
102
}
330
D
100
AcDbMaterial
  1
ByLayer
 73
     1
 78
     1
172
     1
176
     1
270
     1
274
     1
  0
MATERIAL
  5
C
102
{ACAD_XDICTIONARY
360
217F
102
}
102
{ACAD_REACTORS
330
D
102
}
330
D
100
AcDbMaterial
  1
Global
 73
     1
 78
     1
172
     1
176
     1
270
     1
274
     1
  0
MLEADERSTYLE
  5
7A9
102
{ACAD_REACTORS
330
7A8
102
}
330
7A8
100
AcDbMLeaderStyle
170
     2
171
     1
172
     0
 90
        2
 40
0.0
 41
0.0
173
     1
 91
-1056964608
340
24
 92
       -2
290
     1
 42
0.09
291
     1
 43
0.36
  3
Standard
 44
0.18
300

342
21
174
     1
178
     6
175
     1
176
     0
 93
-1056964608
 45
0.18
292
     0
297
     0
 46
0.18
 94
-1056964608
 47
1.0
 49
1.0
140
1.0
293
     1
141
0.0
294
     1
177
     0
142
1.0
295
     0
296
     0
143
0.125
1001
ACAD_MLEADERVER
1070
     2
  0
MLINESTYLE
  5
59
102
{ACAD_REACTORS
330
4F
102
}
330
4F
100
AcDbMlineStyle
  2
STANDARD
 70
     0
  3

 62
     0
 51
90.0
 52
90.0
 71
     2
 49
0.5
 62
   256
  6
BYLAYER
 49
-0.5
 62
   256
  6
BYLAYER
  0
ACDBPLACEHOLDER
  5
9
102
{ACAD_REACTORS
330
A
102
}
330
A
  0
SCALE
  5
85B
102
{ACAD_REACTORS
330
54
102
}
330
54
100
AcDbScale
 70
     0
300
1:1_2
140
1.0
141
1.0
290
     0
  0
SCALE
  5
132C
102
{ACAD_REACTORS
330
54
102
}
330
54
100
AcDbScale
 70
     0
300
1:10_3
140
1.0
141
1.0
290
     0
  0
SCALE
  5
132D
102
{ACAD_REACTORS
330
54
102
}
330
54
100
AcDbScale
 70
     0
300
1:20_3
140
1.0
141
2.0
290
     0
  0
SCALE
  5
86F
102
{ACAD_REACTORS
330
54
102
}
330
54
100
AcDbScale
 70
     0
300
4:1
140
4.0
141
1.0
290
     0
  0
SCALE
  5
132E
102
{ACAD_REACTORS
330
54
102
}
330
54
100
AcDbScale
 70
     0
300
1:50_3
140
1.0
141
5.0
290
     0
  0
SCALE
  5
873
102
{ACAD_REACTORS
330
54
102
}
330
54
100
AcDbScale
 70
     0
300
1/128" = 1'-0"
140
0.0078125
141
12.0
290
     0
  0
SCALE
  5
132F
102
{ACAD_REACTORS
330
54
102
}
330
54
100
AcDbScale
 70
     0
300
1:100_3
140
1.0
141
10.0
290
     0
  0
SCALE
  5
869
102
{ACAD_REACTORS
330
54
102
}
330
54
100
AcDbScale
 70
     0
300
1:20_1
140
1.0
141
20.0
290
     0
  0
SCALE
  5
1330
102
{ACAD_REACTORS
330
54
102
}
330
54
100
AcDbScale
 70
     0
300
1:1_3
140
1.0
141
0.1
290
     0
  0
SCALE
  5
1331
102
{ACAD_REACTORS
330
54
102
}
330
54
100
AcDbScale
 70
     0
300
1:2_3
140
1.0
141
0.2
290
     0
  0
SCALE
  5
1332
102
{ACAD_REACTORS
330
54
102
}
330
54
100
AcDbScale
 70
     0
300
1:1_4
140
1.0
141
1.0
290
     0
  0
SCALE
  5
876
102
{ACAD_REACTORS
330
54
102
}
330
54
100
AcDbScale
 70
     0
300
1/16" = 1'-0"
140
0.0625
141
12.0
290
     0
  0
SCALE
  5
1333
102
{ACAD_REACTORS
330
54
102
}
330
54
100
AcDbScale
 70
     0
300
1:2_4
140
1.0
141
2.0
290
     0
  0
SCALE
  5
879
102
{ACAD_REACTORS
330
54
102
}
330
54
100
AcDbScale
 70
     0
300
3/16" = 1'-0"
140
0.1875
141
12.0
290
     0
  0
SCALE
  5
87B
102
{ACAD_REACTORS
330
54
102
}
330
54
100
AcDbScale
 70
     0
300
3/8" = 1'-0"
140
0.375
141
12.0
290
     0
  0
SCALE
  5
870
102
{ACAD_REACTORS
330
54
102
}
330
54
100
AcDbScale
 70
     0
300
8:1
140
8.0
141
1.0
290
     0
  0
SCALE
  5
1334
102
{ACAD_REACTORS
330
54
102
}
330
54
100
AcDbScale
 70
     0
300
1:5_4
140
1.0
141
5.0
290
     0
  0
SCALE
  5
1335
102
{ACAD_REACTORS
330
54
102
}
330
54
100
AcDbScale
 70
     0
300
1:10_4
140
1.0
141
10.0
290
     0
  0
SCALE
  5
1336
102
{ACAD_REACTORS
330
54
102
}
330
54
100
AcDbScale
 70
     0
300
1:20_4
140
1.0
141
20.0
290
     0
  0
SCALE
  5
1337
102
{ACAD_REACTORS
330
54
102
}
330
54
100
AcDbScale
 70
     0
300
1:50_4
140
1.0
141
50.0
290
     0
  0
SCALE
  5
87F
102
{ACAD_REACTORS
330
54
102
}
330
54
100
AcDbScale
 70
     0
300
1-1/2" = 1'-0"
140
1.5
141
12.0
290
     0
  0
SCALE
  5
881
102
{ACAD_REACTORS
330
54
102
}
330
54
100
AcDbScale
 70
     0
300
6" = 1'-0"
140
6.0
141
12.0
290
     0
  0
SCALE
  5
877
102
{ACAD_REACTORS
330
54
102
}
330
54
100
AcDbScale
 70
     0
300
3/32" = 1'-0"
140
0.09375
141
12.0
290
     0
  0
SCALE
  5
1338
102
{ACAD_REACTORS
330
54
102
}
330
54
100
AcDbScale
 70
     0
300
1:100_4
140
1.0
141
100.0
290
     0
  0
SCALE
  5
87C
102
{ACAD_REACTORS
330
54
102
}
330
54
100
AcDbScale
 70
     0
300
1/2" = 1'-0"
140
0.5
141
12.0
290
     0
  0
SCALE
  5
87D
102
{ACAD_REACTORS
330
54
102
}
330
54
100
AcDbScale
 70
     0
300
3/4" = 1'-0"
140
0.75
141
12.0
290
     0
  0
SCALE
  5
865
102
{ACAD_REACTORS
330
54
102
}
330
54
100
AcDbScale
 70
     0
300
1:5_1
140
1.0
141
5.0
290
     0
  0
SCALE
  5
860
102
{ACAD_REACTORS
330
54
102
}
330
54
100
AcDbScale
 70
     0
300
1:50_2
140
1.0
141
50.0
290
     0
  0
SCALE
  5
862
102
{ACAD_REACTORS
330
54
102
}
330
54
100
AcDbScale
 70
     0
300
1:1_1
140
1.0
141
1.0
290
     0
  0
SCALE
  5
87E
102
{ACAD_REACTORS
330
54
102
}
330
54
100
AcDbScale
 70
     0
300
1" = 1'-0"
140
1.0
141
12.0
290
     0
  0
SCALE
  5
168F
102
{ACAD_REACTORS
330
54
102
}
330
54
100
AcDbScale
 70
     0
300
1:1_3_1
140
1.0
141
1.0
290
     0
  0
SCALE
  5
1690
102
{ACAD_REACTORS
330
54
102
}
330
54
100
AcDbScale
 70
     0
300
1:2_3_1
140
1.0
141
2.0
290
     0
  0
SCALE
  5
1691
102
{ACAD_REACTORS
330
54
102
}
330
54
100
AcDbScale
 70
     0
300
1:5_3_1
140
1.0
141
5.0
290
     0
  0
SCALE
  5
868
102
{ACAD_REACTORS
330
54
102
}
330
54
100
AcDbScale
 70
     0
300
1:16
140
1.0
141
16.0
290
     0
  0
SCALE
  5
86A
102
{ACAD_REACTORS
330
54
102
}
330
54
100
AcDbScale
 70
     0
300
1:30
140
1.0
141
30.0
290
     0
  0
SCALE
  5
1692
102
{ACAD_REACTORS
330
54
102
}
330
54
100
AcDbScale
 70
     0
300
1:10_3_1
140
1.0
141
10.0
290
     0
  0
SCALE
  5
1693
102
{ACAD_REACTORS
330
54
102
}
330
54
100
AcDbScale
 70
     0
300
1:20_3_1
140
1.0
141
20.0
290
     0
  0
SCALE
  5
85E
102
{ACAD_REACTORS
330
54
102
}
330
54
100
AcDbScale
 70
     0
300
1:10_2
140
1.0
141
10.0
290
     0
  0
SCALE
  5
1694
102
{ACAD_REACTORS
330
54
102
}
330
54
100
AcDbScale
 70
     0
300
1:50_3_1
140
1.0
141
50.0
290
     0
  0
SCALE
  5
871
102
{ACAD_REACTORS
330
54
102
}
330
54
100
AcDbScale
 70
     0
300
10:1
140
10.0
141
1.0
290
     0
  0
SCALE
  5
1695
102
{ACAD_REACTORS
330
54
102
}
330
54
100
AcDbScale
 70
     0
300
1:100_3_1
140
1.0
141
100.0
290
     0
  0
SCALE
  5
882
102
{ACAD_REACTORS
330
54
102
}
330
54
100
AcDbScale
 70
     0
300
1'-0" = 1'-0"
140
12.0
141
12.0
290
     0
  0
SCALE
  5
866
102
{ACAD_REACTORS
330
54
102
}
330
54
100
AcDbScale
 70
     0
300
1:8
140
1.0
141
8.0
290
     0
  0
SCALE
  5
86D
102
{ACAD_REACTORS
330
54
102
}
330
54
100
AcDbScale
 70
     0
300
1:100_1
140
1.0
141
100.0
290
     0
  0
SCALE
  5
85D
102
{ACAD_REACTORS
330
54
102
}
330
54
100
AcDbScale
 70
     0
300
1:5_2
140
1.0
141
5.0
290
     0
  0
SCALE
  5
85F
102
{ACAD_REACTORS
330
54
102
}
330
54
100
AcDbScale
 70
     0
300
1:20_2
140
1.0
141
20.0
290
     0
  0
SCALE
  5
863
102
{ACAD_REACTORS
330
54
102
}
330
54
100
AcDbScale
 70
     0
300
1:2_1
140
1.0
141
2.0
290
     0
  0
SCALE
  5
85C
102
{ACAD_REACTORS
330
54
102
}
330
54
100
AcDbScale
 70
     0
300
1:2_2
140
1.0
141
2.0
290
     0
  0
SCALE
  5
874
102
{ACAD_REACTORS
330
54
102
}
330
54
100
AcDbScale
 70
     0
300
1/64" = 1'-0"
140
0.015625
141
12.0
290
     0
  0
SCALE
  5
867
102
{ACAD_REACTORS
330
54
102
}
330
54
100
AcDbScale
 70
     0
300
1:10_1
140
1.0
141
10.0
290
     0
  0
SCALE
  5
1A1C
102
{ACAD_REACTORS
330
54
102
}
330
54
100
AcDbScale
 70
     0
300
1:1_5
140
1.0
141
1.0
290
     0
  0
SCALE
  5
864
102
{ACAD_REACTORS
330
54
102
}
330
54
100
AcDbScale
 70
     0
300
1:4
140
1.0
141
4.0
290
     0
  0
SCALE
  5
1A1D
102
{ACAD_REACTORS
330
54
102
}
330
54
100
AcDbScale
 70
     0
300
1:2_5
140
1.0
141
2.0
290
     0
  0
SCALE
  5
1A1E
102
{ACAD_REACTORS
330
54
102
}
330
54
100
AcDbScale
 70
     0
300
1:5_5
140
1.0
141
5.0
290
     0
  0
SCALE
  5
1A1F
102
{ACAD_REACTORS
330
54
102
}
330
54
100
AcDbScale
 70
     0
300
1:10_5
140
1.0
141
10.0
290
     0
  0
SCALE
  5
86C
102
{ACAD_REACTORS
330
54
102
}
330
54
100
AcDbScale
 70
     0
300
1:50_1
140
1.0
141
50.0
290
     0
  0
SCALE
  5
1A20
102
{ACAD_REACTORS
330
54
102
}
330
54
100
AcDbScale
 70
     0
300
1:20_5
140
1.0
141
20.0
290
     0
  0
SCALE
  5
1A21
102
{ACAD_REACTORS
330
54
102
}
330
54
100
AcDbScale
 70
     0
300
1:50_5
140
1.0
141
50.0
290
     0
  0
SCALE
  5
1A22
102
{ACAD_REACTORS
330
54
102
}
330
54
100
AcDbScale
 70
     0
300
1:100_5
140
1.0
141
100.0
290
     0
  0
SCALE
  5
86B
102
{ACAD_REACTORS
330
54
102
}
330
54
100
AcDbScale
 70
     0
300
1:40
140
1.0
141
40.0
290
     0
  0
SCALE
  5
87A
102
{ACAD_REACTORS
330
54
102
}
330
54
100
AcDbScale
 70
     0
300
1/4" = 1'-0"
140
0.25
141
12.0
290
     0
  0
SCALE
  5
86E
102
{ACAD_REACTORS
330
54
102
}
330
54
100
AcDbScale
 70
     0
300
2:1
140
2.0
141
1.0
290
     0
  0
SCALE
  5
872
102
{ACAD_REACTORS
330
54
102
}
330
54
100
AcDbScale
 70
     0
300
100:1
140
100.0
141
1.0
290
     0
  0
SCALE
  5
880
102
{ACAD_REACTORS
330
54
102
}
330
54
100
AcDbScale
 70
     0
300
3" = 1'-0"
140
3.0
141
12.0
290
     0
  0
SCALE
  5
875
102
{ACAD_REACTORS
330
54
102
}
330
54
100
AcDbScale
 70
     0
300
1/32" = 1'-0"
140
0.03125
141
12.0
290
     0
  0
SCALE
  5
1D69
102
{ACAD_REACTORS
330
54
102
}
330
54
100
AcDbScale
 70
     0
300
1:1_6
140
1.0
141
1.0
290
     0
  0
SCALE
  5
878
102
{ACAD_REACTORS
330
54
102
}
330
54
100
AcDbScale
 70
     0
300
1/8" = 1'-0"
140
0.125
141
12.0
290
     0
  0
SCALE
  5
1D6A
102
{ACAD_REACTORS
330
54
102
}
330
54
100
AcDbScale
 70
     0
300
1:2_6
140
1.0
141
2.0
290
     0
  0
SCALE
  5
1D6B
102
{ACAD_REACTORS
330
54
102
}
330
54
100
AcDbScale
 70
     0
300
1:5_6
140
1.0
141
5.0
290
     0
  0
SCALE
  5
1D6C
102
{ACAD_REACTORS
330
54
102
}
330
54
100
AcDbScale
 70
     0
300
1:10_6
140
1.0
141
10.0
290
     0
  0
SCALE
  5
1D6D
102
{ACAD_REACTORS
330
54
102
}
330
54
100
AcDbScale
 70
     0
300
1:20_6
140
1.0
141
20.0
290
     0
  0
SCALE
  5
1D6E
102
{ACAD_REACTORS
330
54
102
}
330
54
100
AcDbScale
 70
     0
300
1:50_6
140
1.0
141
50.0
290
     0
  0
SCALE
  5
1D6F
102
{ACAD_REACTORS
330
54
102
}
330
54
100
AcDbScale
 70
     0
300
1:100_6
140
1.0
141
100.0
290
     0
  0
SCALE
  5
861
102
{ACAD_REACTORS
330
54
102
}
330
54
100
AcDbScale
 70
     0
300
1:100_2
140
1.0
141
100.0
290
     0
  0
SCALE
  5
132B
102
{ACAD_REACTORS
330
54
102
}
330
54
100
AcDbScale
 70
     0
300
1:5_3
140
1.0
141
0.5
290
     0
  0
SCALE
  5
5E
102
{ACAD_REACTORS
330
54
102
}
330
54
100
AcDbScale
 70
     0
300
1:1
140
1.0
141
0.1
290
     0
  0
SCALE
  5
5F
102
{ACAD_REACTORS
330
54
102
}
330
54
100
AcDbScale
 70
     0
300
1:2
140
1.0
141
0.2
290
     0
  0
SCALE
  5
60
102
{ACAD_REACTORS
330
54
102
}
330
54
100
AcDbScale
 70
     0
300
1:2.5
140
1.0
141
0.25
290
     0
  0
SCALE
  5
61
102
{ACAD_REACTORS
330
54
102
}
330
54
100
AcDbScale
 70
     0
300
1:5
140
1.0
141
0.5
290
     0
  0
SCALE
  5
62
102
{ACAD_REACTORS
330
54
102
}
330
54
100
AcDbScale
 70
     0
300
1:7.5
140
1.0
141
0.75
290
     0
  0
SCALE
  5
63
102
{ACAD_REACTORS
330
54
102
}
330
54
100
AcDbScale
 70
     0
300
1:10
140
1.0
141
1.0
290
     1
  0
SCALE
  5
64
102
{ACAD_REACTORS
330
54
102
}
330
54
100
AcDbScale
 70
     0
300
1:20
140
1.0
141
2.0
290
     0
  0
SCALE
  5
65
102
{ACAD_REACTORS
330
54
102
}
330
54
100
AcDbScale
 70
     0
300
1:25
140
1.0
141
2.5
290
     0
  0
SCALE
  5
66
102
{ACAD_REACTORS
330
54
102
}
330
54
100
AcDbScale
 70
     0
300
1:50
140
1.0
141
5.0
290
     0
  0
SCALE
  5
67
102
{ACAD_REACTORS
330
54
102
}
330
54
100
AcDbScale
 70
     0
300
1:75
140
1.0
141
7.5
290
     0
  0
SCALE
  5
68
102
{ACAD_REACTORS
330
54
102
}
330
54
100
AcDbScale
 70
     0
300
1:100
140
1.0
141
10.0
290
     0
  0
SCALE
  5
69
102
{ACAD_REACTORS
330
54
102
}
330
54
100
AcDbScale
 70
     0
300
1:150
140
1.0
141
15.0
290
     0
  0
SCALE
  5
6A
102
{ACAD_REACTORS
330
54
102
}
330
54
100
AcDbScale
 70
     0
300
1:200
140
1.0
141
20.0
290
     0
  0
SCALE
  5
6B
102
{ACAD_REACTORS
330
54
102
}
330
54
100
AcDbScale
 70
     0
300
1:250
140
1.0
141
25.0
290
     0
  0
SCALE
  5
6C
102
{ACAD_REACTORS
330
54
102
}
330
54
100
AcDbScale
 70
     0
300
1:500
140
1.0
141
50.0
290
     0
  0
SCALE
  5
6D
102
{ACAD_REACTORS
330
54
102
}
330
54
100
AcDbScale
 70
     0
300
1:750
140
1.0
141
75.0
290
     0
  0
SCALE
  5
6E
102
{ACAD_REACTORS
330
54
102
}
330
54
100
AcDbScale
 70
     0
300
1:1000
140
1.0
141
100.0
290
     0
  0
SCALE
  5
6F
102
{ACAD_REACTORS
330
54
102
}
330
54
100
AcDbScale
 70
     0
300
1:1250
140
1.0
141
125.0
290
     0
  0
SCALE
  5
70
102
{ACAD_REACTORS
330
54
102
}
330
54
100
AcDbScale
 70
     0
300
1:2000
140
1.0
141
200.0
290
     0
  0
SCALE
  5
71
102
{ACAD_REACTORS
330
54
102
}
330
54
100
AcDbScale
 70
     0
300
1:2500
140
1.0
141
250.0
290
     0
  0
SCALE
  5
72
102
{ACAD_REACTORS
330
54
102
}
330
54
100
AcDbScale
 70
     0
300
1:5000
140
1.0
141
500.0
290
     0
  0
TABLESTYLE
  5
5A
102
{ACAD_XDICTIONARY
360
5B
102
}
102
{ACAD_REACTORS
330
55
102
}
330
55
100
AcDbTableStyle
  3
Standard
 70
     0
 71
     0
 40
0.06
 41
0.06
280
     0
281
     0
  7
STANDARD
140
0.18
170
     2
 62
     0
 63
     7
283
     0
274
    -2
284
     1
 64
     0
275
    -2
285
     1
 65
     0
276
    -2
286
     1
 66
     0
277
    -2
287
     1
 67
     0
278
    -2
288
     1
 68
     0
279
    -2
289
     1
 69
     0
  7
STANDARD
140
0.25
170
     5
 62
     0
 63
     7
283
     0
274
    -2
284
     1
 64
     0
275
    -2
285
     1
 65
     0
276
    -2
286
     1
 66
     0
277
    -2
287
     1
 67
     0
278
    -2
288
     1
 68
     0
279
    -2
289
     1
 69
     0
  7
STANDARD
140
0.18
170
     5
 62
     0
 63
     7
283
     0
274
    -2
284
     1
 64
     0
275
    -2
285
     1
 65
     0
276
    -2
286
     1
 66
     0
277
    -2
287
     1
 67
     0
278
    -2
288
     1
 68
     0
279
    -2
289
     1
 69
     0
  0
VISUALSTYLE
  5
14
102
{ACAD_REACTORS
330
15
102
}
330
15
100
AcDbVisualStyle
  2
2dWireframe
 70
     4
 71
     0
 72
     2
 73
     0
 90
        0
 40
-0.6
 41
-30.0
 62
     5
 63
     7
 74
     1
 91
        4
 64
     7
 65
   257
 75
     1
175
     1
 42
1.0
 92
        0
 66
   257
 43
1.0
 76
     1
 77
     6
 78
     2
 67
     7
 79
     5
170
     0
171
     0
290
     0
174
     0
 93
        1
 44
0.0
173
     0
291
     0
 45
0.0
1001
ACAD
1000
AcDbSavedByObjectVersion
1070
     0
  0
VISUALSTYLE
  5
7A0
102
{ACAD_REACTORS
330
15
102
}
330
15
100
AcDbVisualStyle
  2
3D Hidden
 70
     6
 71
     1
 72
     2
 73
     2
 90
        0
 40
-0.6
 41
-30.0
 62
     5
 63
     7
 74
     2
 91
        2
 64
     7
 65
   257
 75
     2
175
     1
 42
40.0
 92
        0
 66
   257
 43
1.0
 76
     1
 77
     6
 78
     2
 67
     7
 79
     3
170
     0
171
     0
290
     0
174
     0
 93
        1
 44
0.0
173
     0
291
     0
 45
0.0
1001
ACAD
1000
AcDbSavedByObjectVersion
1070
     0
  0
VISUALSTYLE
  5
5D
102
{ACAD_REACTORS
330
15
102
}
330
15
100
AcDbVisualStyle
  2
3dWireframe
 70
     5
 71
     0
 72
     2
 73
     0
 90
        0
 40
-0.6
 41
-30.0
 62
     5
 63
     7
 74
     1
 91
        4
 64
     7
 65
   257
 75
     1
175
     1
 42
1.0
 92
        0
 66
   257
 43
1.0
 76
     1
 77
     6
 78
     2
 67
     7
 79
     5
170
     0
171
     0
290
     0
174
     0
 93
        1
 44
0.0
173
     0
291
     0
 45
0.0
1001
ACAD
1000
AcDbSavedByObjectVersion
1070
     0
  0
VISUALSTYLE
  5
79F
102
{ACAD_REACTORS
330
15
102
}
330
15
100
AcDbVisualStyle
  2
Basic
 70
     7
 71
     1
 72
     0
 73
     1
 90
        0
 40
-0.6
 41
-30.0
 62
     5
 63
     7
 74
     0
 91
        4
 64
     7
 65
   257
 75
     1
175
     1
 42
1.0
 92
        8
 66
     7
 43
1.0
 76
     1
 77
     6
 78
     2
 67
     7
 79
     5
170
     0
171
     0
290
     0
174
     0
 93
        1
 44
0.0
173
     0
291
     1
 45
0.0
1001
ACAD
1000
AcDbSavedByObjectVersion
1070
     0
  0
VISUALSTYLE
  5
7A3
102
{ACAD_REACTORS
330
15
102
}
330
15
100
AcDbVisualStyle
  2
Brighten
 70
    12
 71
     2
 72
     2
 73
     0
 90
        0
 40
-0.6
 41
-30.0
 62
     5
 63
     7
 74
     1
 91
        4
 64
     7
 65
   257
 75
     1
175
     1
 42
1.0
 92
        8
 66
     7
 43
1.0
 76
     1
 77
     6
 78
     2
 67
     7
 79
     5
170
     0
171
     0
290
     0
174
     0
 93
        1
 44
50.0
173
     0
291
     1
 45
0.0
1001
ACAD
1000
AcDbSavedByObjectVersion
1070
     0
  0
VISUALSTYLE
  5
7A7
102
{ACAD_REACTORS
330
15
102
}
330
15
100
AcDbVisualStyle
  2
ColorChange
 70
    16
 71
     2
 72
     2
 73
     3
 90
        0
 40
-0.6
 41
-30.0
 62
     5
 63
     8
 74
     1
 91
        4
 64
     7
 65
   257
 75
     1
175
     1
 42
1.0
 92
        8
 66
     8
 43
1.0
 76
     1
 77
     6
 78
     2
 67
     7
 79
     5
170
     0
171
     0
290
     0
174
     0
 93
        1
 44
0.0
173
     0
291
     1
 45
0.0
1001
ACAD
1000
AcDbSavedByObjectVersion
1070
     0
  0
VISUALSTYLE
  5
7A1
102
{ACAD_REACTORS
330
15
102
}
330
15
100
AcDbVisualStyle
  2
Conceptual
 70
     9
 71
     3
 72
     2
 73
     0
 90
        0
 40
-0.6
 41
-30.0
 62
     5
 63
     7
 74
     2
 91
        2
 64
     7
 65
   257
 75
     1
175
     1
 42
40.0
 92
        8
 66
     7
 43
1.0
 76
     1
 77
     6
 78
     2
 67
     7
 79
     3
170
     0
171
     0
290
     0
174
     0
 93
        1
 44
0.0
173
     0
291
     0
 45
0.0
1001
ACAD
1000
AcDbSavedByObjectVersion
1070
     0
  0
VISUALSTYLE
  5
7A2
102
{ACAD_REACTORS
330
15
102
}
330
15
100
AcDbVisualStyle
  2
Dim
 70
    11
 71
     2
 72
     2
 73
     0
 90
        0
 40
-0.6
 41
-30.0
 62
     5
 63
     7
 74
     1
 91
        4
 64
     7
 65
   257
 75
     1
175
     1
 42
1.0
 92
        8
 66
     7
 43
1.0
 76
     1
 77
     6
 78
     2
 67
     7
 79
     5
170
     0
171
     0
290
     0
174
     0
 93
        1
 44
-50.0
173
     0
291
     1
 45
0.0
1001
ACAD
1000
AcDbSavedByObjectVersion
1070
     0
  0
VISUALSTYLE
  5
7A6
102
{ACAD_REACTORS
330
15
102
}
330
15
100
AcDbVisualStyle
  2
Facepattern
 70
    15
 71
     2
 72
     2
 73
     0
 90
        0
 40
-0.6
 41
-30.0
 62
     5
 63
     7
 74
     1
 91
        4
 64
     7
 65
   257
 75
     1
175
     1
 42
1.0
 92
        8
 66
     7
 43
1.0
 76
     1
 77
     6
 78
     2
 67
     7
 79
     5
170
     0
171
     0
290
     0
174
     0
 93
        1
 44
0.0
173
     0
291
     1
 45
0.0
1001
ACAD
1000
AcDbSavedByObjectVersion
1070
     0
  0
VISUALSTYLE
  5
79B
102
{ACAD_REACTORS
330
15
102
}
330
15
100
AcDbVisualStyle
  2
Flat
 70
     0
 71
     2
 72
     1
 73
     1
 90
        2
 40
-0.6
 41
30.0
 62
     5
 63
     7
 74
     0
 91
        4
 64
     7
 65
   257
 75
     1
175
     1
 42
1.0
 92
        8
 66
     7
 43
1.0
 76
     1
 77
     6
 78
     2
 67
     7
 79
     5
170
     0
171
     0
290
     0
174
     0
 93
       13
 44
0.0
173
     0
291
     0
 45
0.0
1001
ACAD
1000
AcDbSavedByObjectVersion
1070
     0
  0
VISUALSTYLE
  5
79C
102
{ACAD_REACTORS
330
15
102
}
330
15
100
AcDbVisualStyle
  2
FlatWithEdges
 70
     1
 71
     2
 72
     1
 73
     1
 90
        2
 40
-0.6
 41
30.0
 62
     5
 63
     7
 74
     1
 91
        4
 64
     7
 65
   257
 75
     1
175
     1
 42
1.0
 92
        0
 66
   257
 43
1.0
 76
     1
 77
     6
 78
     2
 67
     7
 79
     5
170
     0
171
     0
290
     0
174
     0
 93
       13
 44
0.0
173
     0
291
     0
 45
0.0
1001
ACAD
1000
AcDbSavedByObjectVersion
1070
     0
  0
VISUALSTYLE
  5
79D
102
{ACAD_REACTORS
330
15
102
}
330
15
100
AcDbVisualStyle
  2
Gouraud
 70
     2
 71
     2
 72
     2
 73
     1
 90
        2
 40
-0.6
 41
30.0
 62
     5
 63
     7
 74
     0
 91
        4
 64
     7
 65
   257
 75
     1
175
     1
 42
1.0
 92
        0
 66
     7
 43
1.0
 76
     1
 77
     6
 78
     2
 67
     7
 79
     5
170
     0
171
     0
290
     0
174
     0
 93
       13
 44
0.0
173
     0
291
     0
 45
0.0
1001
ACAD
1000
AcDbSavedByObjectVersion
1070
     0
  0
VISUALSTYLE
  5
79E
102
{ACAD_REACTORS
330
15
102
}
330
15
100
AcDbVisualStyle
  2
GouraudWithEdges
 70
     3
 71
     2
 72
     2
 73
     1
 90
        2
 40
-0.6
 41
30.0
 62
     5
 63
     7
 74
     1
 91
        4
 64
     7
 65
   257
 75
     1
175
     1
 42
1.0
 92
        0
 66
   257
 43
1.0
 76
     1
 77
     6
 78
     2
 67
     7
 79
     5
170
     0
171
     0
290
     0
174
     0
 93
       13
 44
0.0
173
     0
291
     0
 45
0.0
1001
ACAD
1000
AcDbSavedByObjectVersion
1070
     0
  0
VISUALSTYLE
  5
7A5
102
{ACAD_REACTORS
330
15
102
}
330
15
100
AcDbVisualStyle
  2
Linepattern
 70
    14
 71
     2
 72
     2
 73
     0
 90
        0
 40
-0.6
 41
-30.0
 62
     5
 63
     7
 74
     1
 91
        4
 64
     7
 65
   257
 75
     7
175
     7
 42
1.0
 92
        8
 66
     7
 43
1.0
 76
     1
 77
     6
 78
     2
 67
     7
 79
     5
170
     0
171
     0
290
     0
174
     0
 93
        1
 44
0.0
173
     0
291
     1
 45
0.0
1001
ACAD
1000
AcDbSavedByObjectVersion
1070
     0
  0
VISUALSTYLE
  5
7B1
102
{ACAD_REACTORS
330
15
102
}
330
15
100
AcDbVisualStyle
  2

 70
     8
 71
     2
 72
     2
 73
     0
 90
        0
 40
-0.6
 41
-30.0
 62
     5
 63
     7
 74
     0
 91
        0
 64
     7
 65
   257
 75
     1
175
     1
 42
1.0
 92
        8
 66
     8
 43
1.0
 76
     1
 77
     6
 78
     2
 67
     7
 79
     5
170
     0
171
     0
290
     0
174
     0
 93
       13
 44
0.0
173
     0
291
     0
 45
0.0
1001
ACAD
1000
AcDbSavedByObjectVersion
1070
     0
  0
VISUALSTYLE
  5
7B2
102
{ACAD_REACTORS
330
15
102
}
330
15
100
AcDbVisualStyle
  2

 70
     8
 71
     2
 72
     2
 73
     0
 90
        0
 40
-0.6
 41
-30.0
 62
     5
 63
     7
 74
     1
 91
        0
 64
     7
 65
   257
 75
     1
175
     1
 42
1.0
 92
        8
 66
     8
 43
1.0
 76
     1
 77
     6
 78
     2
 67
     7
 79
     5
170
     0
171
     0
290
     0
174
     0
 93
       13
 44
0.0
173
     0
291
     0
 45
0.0
1001
ACAD
1000
AcDbSavedByObjectVersion
1070
     0
  0
VISUALSTYLE
  5
5C
102
{ACAD_REACTORS
330
15
102
}
330
15
100
AcDbVisualStyle
  2
Realistic
 70
     8
 71
     2
 72
     2
 73
     0
 90
        0
 40
-0.6
 41
-30.0
 62
     5
 63
     7
 74
     1
 91
        0
 64
     7
 65
   257
 75
     1
175
     1
 42
1.0
 92
        8
 66
     8
 43
1.0
 76
     1
 77
     6
 78
     2
 67
     7
 79
     5
170
     0
171
     0
290
     0
174
     0
 93
       13
 44
0.0
173
     0
291
     0
 45
0.0
1001
ACAD
1000
AcDbSavedByObjectVersion
1070
     0
  0
VISUALSTYLE
  5
7A4
102
{ACAD_REACTORS
330
15
102
}
330
15
100
AcDbVisualStyle
  2
Thicken
 70
    13
 71
     2
 72
     2
 73
     0
 90
        0
 40
-0.6
 41
-30.0
 62
     5
 63
     7
 74
     1
 91
        4
 64
     7
 65
   257
 75
     1
175
     1
 42
1.0
 92
       12
 66
     7
 43
1.0
 76
     1
 77
     6
 78
     2
 67
     7
 79
     5
170
     0
171
     0
290
     0
174
     0
 93
        1
 44
0.0
173
     0
291
     1
 45
0.0
1001
ACAD
1000
AcDbSavedByObjectVersion
1070
     0
  0
DICTIONARYVAR
  5
798
102
{ACAD_REACTORS
330
795
102
}
330
795
100
DictionaryVariables
280
     0
  1
1:1
  0
DICTIONARYVAR
  5
797
102
{ACAD_REACTORS
330
795
102
}
330
795
100
DictionaryVariables
280
     0
  1
STANDARD
  0
DICTIONARYVAR
  5
796
102
{ACAD_REACTORS
330
795
102
}
330
795
100
DictionaryVariables
280
     0
  1
STANDARD
  0
DICTIONARYVAR
  5
217C
102
{ACAD_REACTORS
330
795
102
}
330
795
100
DictionaryVariables
280
     0
  1
1
  0
DICTIONARYVAR
  5
217B
102
{ACAD_REACTORS
330
795
102
}
330
795
100
DictionaryVariables
280
     0
  1
1
  0
DICTIONARYVAR
  5
217A
102
{ACAD_REACTORS
330
795
102
}
330
795
100
DictionaryVariables
280
     0
  1
0
  0
DICTIONARYVAR
  5
799
102
{ACAD_REACTORS
330
795
102
}
330
795
100
DictionaryVariables
280
     0
  1
0
  0
DICTIONARYVAR
  5
2178
102
{ACAD_REACTORS
330
795
102
}
330
795
100
DictionaryVariables
280
     0
  1
1
  0
DICTIONARYVAR
  5
2179
102
{ACAD_REACTORS
330
795
102
}
330
795
100
DictionaryVariables
280
     0
  1
127
  0
DICTIONARY
  5
2188
330
1943
100
AcDbDictionary
280
     1
281
     1
  3
ACAD_XREC_ROUNDTRIP
360
2189
  0
DICTIONARY
  5
2181
330
11
100
AcDbDictionary
280
     1
281
     1
  3
ACAD_XREC_ROUNDTRIP
360
2182
  0
DICTIONARY
  5
2185
330
52
100
AcDbDictionary
280
     1
281
     1
  3
ACAD_XREC_ROUNDTRIP
360
2186
  0
DICTIONARY
  5
2183
330
51
100
AcDbDictionary
280
     1
281
     1
  3
ACAD_XREC_ROUNDTRIP
360
2184
  0
DICTIONARY
  5
217F
330
C
100
AcDbDictionary
280
     1
281
     1
  3
ACAD_XREC_ROUNDTRIP
360
2180
  0
DICTIONARY
  5
5B
330
5A
100
AcDbDictionary
280
     1
281
     1
  3
ACAD_ROUNDTRIP_2008_TABLESTYLE_CELLSTYLEMAP
360
217D
  3
ACAD_XREC_ROUNDTRIP
360
2187
  0
XRECORD
  5
2189
102
{ACAD_REACTORS
330
2188
102
}
330
2188
100
AcDbXrecord
280
     1
102
SHADEPLOT
 70
     0
102
SHADEPLOTRESLEVEL
 70
     2
102
SHADEPLOTCUSTOMDPI
 70
   300
  0
XRECORD
  5
2182
102
{ACAD_REACTORS
330
2181
102
}
330
2181
100
AcDbXrecord
280
     1
102
SHADEPLOT
 70
     1
102
SHADEPLOTRESLEVEL
 70
     2
102
SHADEPLOTCUSTOMDPI
 70
   300
  0
XRECORD
  5
2186
102
{ACAD_REACTORS
330
2185
102
}
330
2185
100
AcDbXrecord
280
     1
102
MATERIAL
148
0.0
149
0.0
149
0.0
 93
        0
 94
       63
282
     0
 72
     1
 77
     1
171
     1
175
     1
179
     1
273
     0
  0
XRECORD
  5
2184
102
{ACAD_REACTORS
330
2183
102
}
330
2183
100
AcDbXrecord
280
     1
102
MATERIAL
148
0.0
149
0.0
149
0.0
 93
        0
 94
       63
282
     0
 72
     1
 77
     1
171
     1
175
     1
179
     1
273
     0
  0
XRECORD
  5
2180
102
{ACAD_REACTORS
330
217F
102
}
330
217F
100
AcDbXrecord
280
     1
102
MATERIAL
148
0.0
149
0.0
149
0.0
 93
        0
 94
       63
282
     0
 72
     1
 77
     1
171
     1
175
     1
179
     1
273
     0
  0
CELLSTYLEMAP
  5
217D
102
{ACAD_REACTORS
330
5B
102
}
330
5B
100
AcDbCellStyleMap
 90
        3
300
CELLSTYLE
  1
TABLEFORMAT_BEGIN
 90
        5
170
     1
 91
        0
 92
    32768
 62
   257
 93
        1
300
CONTENTFORMAT
  1
CONTENTFORMAT_BEGIN
 90
        0
 91
        0
 92
        4
 93
        0
300

 40
0.0
140
1.0
 94
        5
 62
     0
340
21
144
0.25
309
CONTENTFORMAT_END
171
     0
 94
        6
 95
        1
302
GRIDFORMAT
  1
GRIDFORMAT_BEGIN
 90
        0
 91
        1
 62
     0
 92
       -2
340
0
 93
        0
 40
0.045
309
GRIDFORMAT_END
 95
        2
302
GRIDFORMAT
  1
GRIDFORMAT_BEGIN
 90
        0
 91
        1
 62
     0
 92
       -2
340
0
 93
        0
 40
0.045
309
GRIDFORMAT_END
 95
        4
302
GRIDFORMAT
  1
GRIDFORMAT_BEGIN
 90
        0
 91
        1
 62
     0
 92
       -2
340
0
 93
        0
 40
0.045
309
GRIDFORMAT_END
 95
        8
302
GRIDFORMAT
  1
GRIDFORMAT_BEGIN
 90
        0
 91
        1
 62
     0
 92
       -2
340
0
 93
        0
 40
0.045
309
GRIDFORMAT_END
 95
       16
302
GRIDFORMAT
  1
GRIDFORMAT_BEGIN
 90
        0
 91
        1
 62
     0
 92
       -2
340
0
 93
        0
 40
0.045
309
GRIDFORMAT_END
 95
       32
302
GRIDFORMAT
  1
GRIDFORMAT_BEGIN
 90
        0
 91
        1
 62
     0
 92
       -2
340
0
 93
        0
 40
0.045
309
GRIDFORMAT_END
309
TABLEFORMAT_END
  1
CELLSTYLE_BEGIN
 90
        1
 91
        1
300
_TITLE
309
CELLSTYLE_END
300
CELLSTYLE
  1
TABLEFORMAT_BEGIN
 90
        5
170
     1
 91
        0
 92
        0
 62
   257
 93
        1
300
CONTENTFORMAT
  1
CONTENTFORMAT_BEGIN
 90
        0
 91
        0
 92
        4
 93
        0
300

 40
0.0
140
1.0
 94
        5
 62
     0
340
21
144
0.18
309
CONTENTFORMAT_END
171
     0
 94
        6
 95
        1
302
GRIDFORMAT
  1
GRIDFORMAT_BEGIN
 90
        0
 91
        1
 62
     0
 92
       -2
340
0
 93
        0
 40
0.045
309
GRIDFORMAT_END
 95
        2
302
GRIDFORMAT
  1
GRIDFORMAT_BEGIN
 90
        0
 91
        1
 62
     0
 92
       -2
340
0
 93
        0
 40
0.045
309
GRIDFORMAT_END
 95
        4
302
GRIDFORMAT
  1
GRIDFORMAT_BEGIN
 90
        0
 91
        1
 62
     0
 92
       -2
340
0
 93
        0
 40
0.045
309
GRIDFORMAT_END
 95
        8
302
GRIDFORMAT
  1
GRIDFORMAT_BEGIN
 90
        0
 91
        1
 62
     0
 92
       -2
340
0
 93
        0
 40
0.045
309
GRIDFORMAT_END
 95
       16
302
GRIDFORMAT
  1
GRIDFORMAT_BEGIN
 90
        0
 91
        1
 62
     0
 92
       -2
340
0
 93
        0
 40
0.045
309
GRIDFORMAT_END
 95
       32
302
GRIDFORMAT
  1
GRIDFORMAT_BEGIN
 90
        0
 91
        1
 62
     0
 92
       -2
340
0
 93
        0
 40
0.045
309
GRIDFORMAT_END
309
TABLEFORMAT_END
  1
CELLSTYLE_BEGIN
 90
        2
 91
        1
300
_HEADER
309
CELLSTYLE_END
300
CELLSTYLE
  1
TABLEFORMAT_BEGIN
 90
        5
170
     1
 91
        0
 92
        0
 62
   257
 93
        1
300
CONTENTFORMAT
  1
CONTENTFORMAT_BEGIN
 90
        0
 91
        0
 92
        4
 93
        0
300

 40
0.0
140
1.0
 94
        2
 62
     0
340
21
144
0.18
309
CONTENTFORMAT_END
171
     0
 94
        6
 95
        1
302
GRIDFORMAT
  1
GRIDFORMAT_BEGIN
 90
        0
 91
        1
 62
     0
 92
       -2
340
0
 93
        0
 40
0.045
309
GRIDFORMAT_END
 95
        2
302
GRIDFORMAT
  1
GRIDFORMAT_BEGIN
 90
        0
 91
        1
 62
     0
 92
       -2
340
0
 93
        0
 40
0.045
309
GRIDFORMAT_END
 95
        4
302
GRIDFORMAT
  1
GRIDFORMAT_BEGIN
 90
        0
 91
        1
 62
     0
 92
       -2
340
0
 93
        0
 40
0.045
309
GRIDFORMAT_END
 95
        8
302
GRIDFORMAT
  1
GRIDFORMAT_BEGIN
 90
        0
 91
        1
 62
     0
 92
       -2
340
0
 93
        0
 40
0.045
309
GRIDFORMAT_END
 95
       16
302
GRIDFORMAT
  1
GRIDFORMAT_BEGIN
 90
        0
 91
        1
 62
     0
 92
       -2
340
0
 93
        0
 40
0.045
309
GRIDFORMAT_END
 95
       32
302
GRIDFORMAT
  1
GRIDFORMAT_BEGIN
 90
        0
 91
        1
 62
     0
 92
       -2
340
0
 93
        0
 40
0.045
309
GRIDFORMAT_END
309
TABLEFORMAT_END
  1
CELLSTYLE_BEGIN
 90
        3
 91
        2
300
_DATA
309
CELLSTYLE_END
  0
XRECORD
  5
2187
102
{ACAD_REACTORS
330
5B
102
}
330
5B
100
AcDbXrecord
280
     1
102
ACAD_ROUNDTRIP_PRE2007_TABLESTYLE
 90
        4
 91
        0
  1

 92
        4
 93
        0
  2

 94
        4
 95
        0
  3

  0
ENDSEC
  0
EOF
