  0
SECTION
  2
HEADER
  9
$ACADVER
  1
AC1015
  9
$ACADMAINTVER
 70
    20
  9
$DWGCODEPAGE
  3
ANSI_1250
  9
$INSBASE
 10
9677.351579171606
 20
1189.596440029025
 30
0.0000000000031697
  9
$EXTMIN
 10
55951.78007733638
 20
-12830.83167067901
 30
-0.0015258207003583
  9
$EXTMAX
 10
66157.31682331039
 20
1190.024042212615
 30
0.0000000349246037
  9
$LIMMIN
 10
0.0
 20
0.0
  9
$LIMMAX
 10
12.0
 20
9.0
  9
$ORTHOMODE
 70
     1
  9
$REGENMODE
 70
     1
  9
$FILLMODE
 70
     1
  9
$QTEXTMODE
 70
     0
  9
$MIRRTEXT
 70
     0
  9
$LTSCALE
 40
75.0
  9
$ATTMODE
 70
     1
  9
$TEXTSIZE
 40
0.2
  9
$TRACEWID
 40
40.0
  9
$TEXTSTYLE
  7
STANDARD
  9
$CLAYER
  8
0Wymiary-PL
  9
$CELTYPE
  6
BYLAYER
  9
$CECOLOR
 62
   256
  9
$CELTSCALE
 40
4.0
  9
$DISPSILH
 70
     0
  9
$DIMSCALE
 40
1.0
  9
$DIMASZ
 40
30.0
  9
$DIMEXO
 40
43.0
  9
$DIMDLI
 40
0.0
  9
$DIMRND
 40
0.5
  9
$DIMDLE
 40
12.0
  9
$DIMEXE
 40
13.0
  9
$DIMTP
 40
0.0
  9
$DIMTM
 40
0.0
  9
$DIMTXT
 40
80.0
  9
$DIMCEN
 40
0.0
  9
$DIMTSZ
 40
0.0
  9
$DIMTOL
 70
     0
  9
$DIMLIM
 70
     0
  9
$DIMTIH
 70
     0
  9
$DIMTOH
 70
     0
  9
$DIMSE1
 70
     1
  9
$DIMSE2
 70
     1
  9
$DIMTAD
 70
     0
  9
$DIMZIN
 70
    12
  9
$DIMBLK
  1
B-DIM
  9
$DIMASO
 70
     1
  9
$DIMSHO
 70
     1
  9
$DIMPOST
  1

  9
$DIMAPOST
  1

  9
$DIMALT
 70
     0
  9
$DIMALTD
 70
     2
  9
$DIMALTF
 40
25.4
  9
$DIMLFAC
 40
1.0
  9
$DIMTOFL
 70
     1
  9
$DIMTVP
 40
1.0
  9
$DIMTIX
 70
     1
  9
$DIMSOXD
 70
     0
  9
$DIMSAH
 70
     0
  9
$DIMBLK1
  1

  9
$DIMBLK2
  1

  9
$DIMSTYLE
  2
500
  9
$DIMCLRD
 70
     1
  9
$DIMCLRE
 70
     1
  9
$DIMCLRT
 70
   140
  9
$DIMTFAC
 40
1.0
  9
$DIMGAP
 40
0.0
  9
$DIMJUST
 70
     0
  9
$DIMSD1
 70
     0
  9
$DIMSD2
 70
     0
  9
$DIMTOLJ
 70
     1
  9
$DIMTZIN
 70
     0
  9
$DIMALTZ
 70
     0
  9
$DIMALTTZ
 70
     0
  9
$DIMUPT
 70
     0
  9
$DIMDEC
 70
     1
  9
$DIMTDEC
 70
     1
  9
$DIMALTU
 70
     2
  9
$DIMALTTD
 70
     2
  9
$DIMTXSTY
  7
ROMANS
  9
$DIMAUNIT
 70
     0
  9
$DIMADEC
 70
     0
  9
$DIMALTRND
 40
0.0
  9
$DIMAZIN
 70
     0
  9
$DIMDSEP
 70
    46
  9
$DIMATFIT
 70
     3
  9
$DIMFRAC
 70
     0
  9
$DIMLDRBLK
  1
B-DIM
  9
$DIMLUNIT
 70
     2
  9
$DIMLWD
 70
    -2
  9
$DIMLWE
 70
    -2
  9
$DIMTMOVE
 70
     2
  9
$LUNITS
 70
     2
  9
$LUPREC
 70
     2
  9
$SKETCHINC
 40
0.1
  9
$FILLETRAD
 40
0.0
  9
$AUNITS
 70
     0
  9
$AUPREC
 70
     1
  9
$MENU
  1
acad
  9
$ELEVATION
 40
0.0
  9
$PELEVATION
 40
0.0
  9
$THICKNESS
 40
0.0
  9
$LIMCHECK
 70
     0
  9
$CHAMFERA
 40
30.0
  9
$CHAMFERB
 40
30.0
  9
$CHAMFERC
 40
0.0
  9
$CHAMFERD
 40
0.0
  9
$SKPOLY
 70
     0
  9
$TDCREATE
 40
2450817.525937848
  9
$TDUCREATE
 40
2450817.442604514
  9
$TDUPDATE
 40
2454967.626648762
  9
$TDUUPDATE
 40
2454967.543315428
  9
$TDINDWG
 40
21.7614412269
  9
$TDUSRTIMER
 40
21.7614412269
  9
$USRTIMER
 70
     1
  9
$ANGBASE
 50
0.0
  9
$ANGDIR
 70
     0
  9
$PDMODE
 70
     3
  9
$PDSIZE
 40
10.0
  9
$PLINEWID
 40
60.0
  9
$SPLFRAME
 70
     0
  9
$SPLINETYPE
 70
     6
  9
$SPLINESEGS
 70
     8
  9
$HANDSEED
  5
2044
  9
$SURFTAB1
 70
     6
  9
$SURFTAB2
 70
     6
  9
$SURFTYPE
 70
     6
  9
$SURFU
 70
     6
  9
$SURFV
 70
     6
  9
$UCSBASE
  2

  9
$UCSNAME
  2

  9
$UCSORG
 10
0.0
 20
0.0
 30
0.0
  9
$UCSXDIR
 10
1.0
 20
0.0
 30
0.0
  9
$UCSYDIR
 10
0.0
 20
1.0
 30
0.0
  9
$UCSORTHOREF
  2

  9
$UCSORTHOVIEW
 70
     0
  9
$UCSORGTOP
 10
0.0
 20
0.0
 30
0.0
  9
$UCSORGBOTTOM
 10
0.0
 20
0.0
 30
0.0
  9
$UCSORGLEFT
 10
0.0
 20
0.0
 30
0.0
  9
$UCSORGRIGHT
 10
0.0
 20
0.0
 30
0.0
  9
$UCSORGFRONT
 10
0.0
 20
0.0
 30
0.0
  9
$UCSORGBACK
 10
0.0
 20
0.0
 30
0.0
  9
$PUCSBASE
  2

  9
$PUCSNAME
  2

  9
$PUCSORG
 10
0.0
 20
0.0
 30
0.0
  9
$PUCSXDIR
 10
1.0
 20
0.0
 30
0.0
  9
$PUCSYDIR
 10
0.0
 20
1.0
 30
0.0
  9
$PUCSORTHOREF
  2

  9
$PUCSORTHOVIEW
 70
     0
  9
$PUCSORGTOP
 10
0.0
 20
0.0
 30
0.0
  9
$PUCSORGBOTTOM
 10
0.0
 20
0.0
 30
0.0
  9
$PUCSORGLEFT
 10
0.0
 20
0.0
 30
0.0
  9
$PUCSORGRIGHT
 10
0.0
 20
0.0
 30
0.0
  9
$PUCSORGFRONT
 10
0.0
 20
0.0
 30
0.0
  9
$PUCSORGBACK
 10
0.0
 20
0.0
 30
0.0
  9
$USERI1
 70
     0
  9
$USERI2
 70
     0
  9
$USERI3
 70
     0
  9
$USERI4
 70
     0
  9
$USERI5
 70
     0
  9
$USERR1
 40
0.0
  9
$USERR2
 40
0.0
  9
$USERR3
 40
0.0
  9
$USERR4
 40
0.0
  9
$USERR5
 40
0.0
  9
$WORLDVIEW
 70
     1
  9
$SHADEDGE
 70
     3
  9
$SHADEDIF
 70
    70
  9
$TILEMODE
 70
     1
  9
$MAXACTVP
 70
    16
  9
$PINSBASE
 10
0.0
 20
0.0
 30
0.0
  9
$PLIMCHECK
 70
     0
  9
$PEXTMIN
 10
0.0
 20
0.0
 30
0.0
  9
$PEXTMAX
 10
0.0
 20
0.0
 30
0.0
  9
$PLIMMIN
 10
0.0
 20
0.0
  9
$PLIMMAX
 10
12.0
 20
9.0
  9
$UNITMODE
 70
     0
  9
$VISRETAIN
 70
     0
  9
$PLINEGEN
 70
     0
  9
$PSLTSCALE
 70
     1
  9
$TREEDEPTH
 70
  3020
  9
$CMLSTYLE
  2
STANDARD
  9
$CMLJUST
 70
     0
  9
$CMLSCALE
 40
1.0
  9
$PROXYGRAPHICS
 70
     1
  9
$MEASUREMENT
 70
     0
  9
$CELWEIGHT
370
    -1
  9
$ENDCAPS
280
     0
  9
$JOINSTYLE
280
     0
  9
$LWDISPLAY
290
     0
  9
$INSUNITS
 70
     0
  9
$HYPERLINKBASE
  1

  9
$STYLESHEET
  1
monochrome_140.ctb
  9
$XEDIT
290
     1
  9
$CEPSNTYPE
380
     0
  9
$PSTYLEMODE
290
     1
  9
$FINGERPRINTGUID
  2
{2D5E65A9-1F91-4A53-BA94-481E1C74241D}
  9
$VERSIONGUID
  2
{89E854C8-5D92-433E-AFC2-4EA2FB145037}
  9
$EXTNAMES
290
     1
  9
$PSVPSCALE
 40
0.0
  9
$OLESTARTUP
290
     0
  0
ENDSEC
  0
SECTION
  2
CLASSES
  0
CLASS
  1
DICTIONARYVAR
  2
AcDbDictionaryVar
  3
ObjectDBX Classes
 90
        0
280
     0
281
     0
  0
CLASS
  1
ACDBDICTIONARYWDFLT
  2
AcDbDictionaryWithDefault
  3
ObjectDBX Classes
 90
        0
280
     0
281
     0
  0
CLASS
  1
ACDBPLACEHOLDER
  2
AcDbPlaceHolder
  3
ObjectDBX Classes
 90
        0
280
     0
281
     0
  0
CLASS
  1
LAYOUT
  2
AcDbLayout
  3
ObjectDBX Classes
 90
        0
280
     0
281
     0
  0
CLASS
  1
AEC_VARS_DWG_SETUP
  2
AecDbVarsDwgSetup
  3
AecBase50|Product Desc: Autodesk Architectural Desktop 2007 |Company: Autodesk,Inc. |WEB Address: www.autodesk.com
 90
    32897
280
     0
281
     0
  0
CLASS
  1
AEC_DISP_REP_CONFIG
  2
AecDbDispRepConfig
  3
AecBase50|Product Desc: Autodesk Architectural Desktop 2007 |Company: Autodesk,Inc. |WEB Address: www.autodesk.com
 90
    32897
280
     0
281
     0
  0
CLASS
  1
AEC_DISP_REP_SET
  2
AecDbDispRepSet
  3
AecBase50|Product Desc: Autodesk Architectural Desktop 2007 |Company: Autodesk,Inc. |WEB Address: www.autodesk.com
 90
    32897
280
     0
281
     0
  0
CLASS
  1
AEC_DISP_REP_2D_SECTION
  2
AecDbDispRep2dSection
  3
AecBase50|Product Desc: Autodesk Architectural Desktop 2007 |Company: Autodesk,Inc. |WEB Address: www.autodesk.com
 90
    32897
280
     0
281
     0
  0
CLASS
  1
AEC_DISP_REP_ANCHOR_BUB_TO_GRID
  2
AecDbDispRepAnchorBubToGrid
  3
AecStructureBase50|Product Desc: Autodesk Architectural Desktop 2007 |Company: Autodesk,Inc. |WEB Address: www.autodesk.com
 90
    32897
280
     0
281
     0
  0
CLASS
  1
AEC_DISP_REP_ANCHOR_BUB_TO_GRID_MODEL
  2
AecDbDispRepAnchorBubToGridMdl
  3
AecStructureBase50|Product Desc: Autodesk Architectural Desktop 2007 |Company: Autodesk,Inc. |WEB Address: www.autodesk.com
 90
    32897
280
     0
281
     0
  0
CLASS
  1
AEC_DISP_REP_ANCHOR_ENT_TO_NODE
  2
AecDbDispRepAnchorEntToNode
  3
AecBase50|Product Desc: Autodesk Architectural Desktop 2007 |Company: Autodesk,Inc. |WEB Address: www.autodesk.com
 90
    32897
280
     0
281
     0
  0
CLASS
  1
AEC_DISP_REP_ANCHOR_TAG_TO_ENT
  2
AecDbDispRepAnchorTagToEnt
  3
AecScheduleData50|Product Desc: Autodesk Architectural Desktop 2007 |Company: Autodesk,Inc. |WEB Address: www.autodesk.com
 90
    32897
280
     0
281
     0
  0
CLASS
  1
AEC_DISP_REP_AREA
  2
AecDbDispRepArea
  3
AecAreaCalculationBase50|Product Desc: Autodesk Architectural Desktop 2007 |Company: Autodesk,Inc. |WEB Address: www.autodesk.com
 90
    32897
280
     0
281
     0
  0
CLASS
  1
AEC_DISP_REP_AREA_DECOMPOSED
  2
AecDbDispRepAreaDecomposed
  3
AecAreaCalculationBase50|Product Desc: Autodesk Architectural Desktop 2007 |Company: Autodesk,Inc. |WEB Address: www.autodesk.com
 90
    32897
280
     0
281
     0
  0
CLASS
  1
AEC_DISP_REP_AREAGROUP
  2
AecDbDispRepAreaGroup
  3
AecAreaCalculationBase50|Product Desc: Autodesk Architectural Desktop 2007 |Company: Autodesk,Inc. |WEB Address: www.autodesk.com
 90
    32897
280
     0
281
     0
  0
CLASS
  1
AEC_DISP_REP_BDG_ELEVLINE_MODEL
  2
AecDbDispRepBdgElevLineModel
  3
AecArchBase50|Product Desc: Autodesk Architectural Desktop 2007 |Company: Autodesk,Inc. |WEB Address: www.autodesk.com
 90
    32897
280
     0
281
     0
  0
CLASS
  1
AEC_DISP_REP_BDG_SECTIONLINE_PLAN
  2
AecDbDispRepBdgElevLinePlan
  3
AecArchBase50|Product Desc: Autodesk Architectural Desktop 2007 |Company: Autodesk,Inc. |WEB Address: www.autodesk.com
 90
    32897
280
     0
281
     0
  0
CLASS
  1
AEC_DISP_REP_BDG_SECTIONLINE_MODEL
  2
AecDbDispRepBdgSectionLineModel
  3
AecArchBase50|Product Desc: Autodesk Architectural Desktop 2007 |Company: Autodesk,Inc. |WEB Address: www.autodesk.com
 90
    32897
280
     0
281
     0
  0
CLASS
  1
AEC_DISP_REP_BDG_SECTIONLINE_PLAN
  2
AecDbDispRepBdgSectionLinePlan
  3
AecArchBase50|Product Desc: Autodesk Architectural Desktop 2007 |Company: Autodesk,Inc. |WEB Address: www.autodesk.com
 90
    32897
280
     0
281
     0
  0
CLASS
  1
AEC_DISP_REP_BDG_SECTION_SUBDIV
  2
AecDbDispRepBdgSectionSubDiv
  3
AecArchBase50|Product Desc: Autodesk Architectural Desktop 2007 |Company: Autodesk,Inc. |WEB Address: www.autodesk.com
 90
    32897
280
     0
281
     0
  0
CLASS
  1
AEC_DISP_REP_CAMERA
  2
AecDbDispRepCamera
  3
AecBase50|Product Desc: Autodesk Architectural Desktop 2007 |Company: Autodesk,Inc. |WEB Address: www.autodesk.com
 90
    32897
280
     0
281
     0
  0
CLASS
  1
AEC_DISP_REP_CEILING_GRID
  2
AecDbDispRepCeilingGrid
  3
AecArchBase50|Product Desc: Autodesk Architectural Desktop 2007 |Company: Autodesk,Inc. |WEB Address: www.autodesk.com
 90
    33661
280
     0
281
     0
  0
CLASS
  1
AEC_DISP_REP_CEILING_GRID_MODEL
  2
AecDbDispRepCeilingGridModel
  3
AecArchBase50|Product Desc: Autodesk Architectural Desktop 2007 |Company: Autodesk,Inc. |WEB Address: www.autodesk.com
 90
    32897
280
     0
281
     0
  0
CLASS
  1
AEC_DISP_REP_CEILING_GRID_RCP
  2
AecDbDispRepCeilingGridRcp
  3
AecArchBase50|Product Desc: Autodesk Architectural Desktop 2007 |Company: Autodesk,Inc. |WEB Address: www.autodesk.com
 90
    32897
280
     0
281
     0
  0
CLASS
  1
AEC_DISP_REP_CLIP_VOLUME_MODEL
  2
AecDbDispRepClipVolModel
  3
AecBase50|Product Desc: Autodesk Architectural Desktop 2007 |Company: Autodesk,Inc. |WEB Address: www.autodesk.com
 90
    32897
280
     0
281
     0
  0
CLASS
  1
AEC_DISP_REP_CLIP_VOLUME_PLAN
  2
AecDbDispRepClipVolPlan
  3
AecBase50|Product Desc: Autodesk Architectural Desktop 2007 |Company: Autodesk,Inc. |WEB Address: www.autodesk.com
 90
    32897
280
     0
281
     0
  0
CLASS
  1
AEC_DISP_REP_CLIP_VOLUME_RESULT_SUBDIV
  2
AecDbDispRepClipVolResSubDiv
  3
AecBase50|Product Desc: Autodesk Architectural Desktop 2007 |Company: Autodesk,Inc. |WEB Address: www.autodesk.com
 90
    32897
280
     0
281
     0
  0
CLASS
  1
AEC_DISP_REP_CLIP_VOLUME_RESULT
  2
AecDbDispRepClipVolResult
  3
AecBase50|Product Desc: Autodesk Architectural Desktop 2007 |Company: Autodesk,Inc. |WEB Address: www.autodesk.com
 90
    32897
280
     0
281
     0
  0
CLASS
  1
AEC_DISP_REP_COLUMN_GRID
  2
AecDbDispRepColumnGrid
  3
AecStructureBase50|Product Desc: Autodesk Architectural Desktop 2007 |Company: Autodesk,Inc. |WEB Address: www.autodesk.com
 90
    32897
280
     0
281
     0
  0
CLASS
  1
AEC_DISP_REP_COLUMN_GRID_MODEL
  2
AecDbDispRepColumnGridModel
  3
AecStructureBase50|Product Desc: Autodesk Architectural Desktop 2007 |Company: Autodesk,Inc. |WEB Address: www.autodesk.com
 90
    32897
280
     0
281
     0
  0
CLASS
  1
AEC_DISP_REP_CURTAIN_WALL_LAYOUT_MODEL
  2
AecDbDispRepCurtainWallLayoutModel
  3
AecArchBase50|Product Desc: Autodesk Architectural Desktop 2007 |Company: Autodesk,Inc. |WEB Address: www.autodesk.com
 90
    32897
280
     0
281
     0
  0
CLASS
  1
AEC_DISP_REP_CURTAIN_WALL_LAYOUT_PLAN
  2
AecDbDispRepCurtainWallLayoutPlan
  3
AecArchBase50|Product Desc: Autodesk Architectural Desktop 2007 |Company: Autodesk,Inc. |WEB Address: www.autodesk.com
 90
    32897
280
     0
281
     0
  0
CLASS
  1
AEC_DISP_REP_CURTAIN_WALL_UNIT_MODEL
  2
AecDbDispRepCurtainWallUnitModel
  3
AecArchBase50|Product Desc: Autodesk Architectural Desktop 2007 |Company: Autodesk,Inc. |WEB Address: www.autodesk.com
 90
    32897
280
     0
281
     0
  0
CLASS
  1
AEC_DISP_REP_CURTAIN_WALL_UNIT_PLAN
  2
AecDbDispRepCurtainWallUnitPlan
  3
AecArchBase50|Product Desc: Autodesk Architectural Desktop 2007 |Company: Autodesk,Inc. |WEB Address: www.autodesk.com
 90
    32897
280
     0
281
     0
  0
CLASS
  1
AEC_DB_DISP_REP_DIM_GROUP_PLAN
  2
AecDbDispRepDimGroupPlan
  3
AecArchDACHBase50|Product Desc: Autodesk Architectural Desktop 2007 |Company: Autodesk,Inc. |WEB Address: www.autodesk.com
 90
    32897
280
     0
281
     0
  0
CLASS
  1
AEC_DISP_REP_DOOR_MODEL
  2
AecDbDispRepDoorModel
  3
AecArchBase50|Product Desc: Autodesk Architectural Desktop 2007 |Company: Autodesk,Inc. |WEB Address: www.autodesk.com
 90
    32897
280
     0
281
     0
  0
CLASS
  1
AEC_DISP_REP_DOOR_NOMINAL
  2
AecDbDispRepDoorNominal
  3
AecArchBase50|Product Desc: Autodesk Architectural Desktop 2007 |Company: Autodesk,Inc. |WEB Address: www.autodesk.com
 90
    32897
280
     0
281
     0
  0
CLASS
  1
AEC_DISP_REP_DOOR_PLAN
  2
AecDbDispRepDoorPlan
  3
AecArchBase50|Product Desc: Autodesk Architectural Desktop 2007 |Company: Autodesk,Inc. |WEB Address: www.autodesk.com
 90
    32897
280
     0
281
     0
  0
CLASS
  1
AEC_DISP_REP_EDITINPLACEPROFILE
  2
AecDbDispRepEditInPlaceProfile
  3
AecBase50|Product Desc: Autodesk Architectural Desktop 2007 |Company: Autodesk,Inc. |WEB Address: www.autodesk.com
 90
    32897
280
     0
281
     0
  0
CLASS
  1
AEC_DISP_REP_ENT_REF
  2
AecDbDispRepEntRef
  3
AecBase50|Product Desc: Autodesk Architectural Desktop 2007 |Company: Autodesk,Inc. |WEB Address: www.autodesk.com
 90
    32897
280
     0
281
     0
  0
CLASS
  1
AEC_DISP_REP_LAYOUT_CURVE
  2
AecDbDispRepLayoutCurve
  3
AecBase50|Product Desc: Autodesk Architectural Desktop 2007 |Company: Autodesk,Inc. |WEB Address: www.autodesk.com
 90
    32897
280
     0
281
     0
  0
CLASS
  1
AEC_DISP_REP_LAYOUT_GRID2D
  2
AecDbDispRepLayoutGrid2d
  3
AecBase50|Product Desc: Autodesk Architectural Desktop 2007 |Company: Autodesk,Inc. |WEB Address: www.autodesk.com
 90
    32897
280
     0
281
     0
  0
CLASS
  1
AEC_DISP_REP_LAYOUT_GRID3D
  2
AecDbDispRepLayoutGrid3d
  3
AecBase50|Product Desc: Autodesk Architectural Desktop 2007 |Company: Autodesk,Inc. |WEB Address: www.autodesk.com
 90
    32897
280
     0
281
     0
  0
CLASS
  1
AEC_DISP_REP_MASKBLOCK_REF
  2
AecDbDispRepMaskBlockRef
  3
AecBase50|Product Desc: Autodesk Architectural Desktop 2007 |Company: Autodesk,Inc. |WEB Address: www.autodesk.com
 90
    32897
280
     0
281
     0
  0
CLASS
  1
AEC_DISP_REP_MASKBLOCK_REF_RCP
  2
AecDbDispRepMaskBlockRefRcp
  3
AecArchBase50|Product Desc: Autodesk Architectural Desktop 2007 |Company: Autodesk,Inc. |WEB Address: www.autodesk.com
 90
    32897
280
     0
281
     0
  0
CLASS
  1
AEC_DISP_REP_MASS_ELEM_MODEL
  2
AecDbDispRepMassElemModel
  3
AecBaseEx50|Product Desc: Autodesk Architectural Desktop 2007 |Company: Autodesk,Inc. |WEB Address: www.autodesk.com
 90
    32897
280
     0
281
     0
  0
CLASS
  1
AEC_DISP_REP_MASS_ELEM_SCHEM
  2
AecDbDispRepMassElemSchem
  3
AecBaseEx50|Product Desc: Autodesk Architectural Desktop 2007 |Company: Autodesk,Inc. |WEB Address: www.autodesk.com
 90
    32897
280
     0
281
     0
  0
CLASS
  1
AEC_DISP_REP_MASS_GROUP_MODEL
  2
AecDbDispRepMassGroupModel
  3
AecBaseEx50|Product Desc: Autodesk Architectural Desktop 2007 |Company: Autodesk,Inc. |WEB Address: www.autodesk.com
 90
    32897
280
     0
281
     0
  0
CLASS
  1
AEC_DISP_REP_MASS_GROUP_PLAN
  2
AecDbDispRepMassGroupPlan
  3
AecBaseEx50|Product Desc: Autodesk Architectural Desktop 2007 |Company: Autodesk,Inc. |WEB Address: www.autodesk.com
 90
    32897
280
     0
281
     0
  0
CLASS
  1
AEC_DISP_REP_MATERIAL
  2
AecDbDispRepMaterial
  3
AecBase50|Product Desc: Autodesk Architectural Desktop 2007 |Company: Autodesk,Inc. |WEB Address: www.autodesk.com
 90
    32897
280
     0
281
     0
  0
CLASS
  1
AEC_DISP_REP_MVBLOCK_REF
  2
AecDbDispRepMvBlockRef
  3
AecBase50|Product Desc: Autodesk Architectural Desktop 2007 |Company: Autodesk,Inc. |WEB Address: www.autodesk.com
 90
    32897
280
     0
281
     0
  0
CLASS
  1
AEC_DISP_REP_MVBLOCK_REF_MODEL
  2
AecDbDispRepMvBlockRefModel
  3
AecBase50|Product Desc: Autodesk Architectural Desktop 2007 |Company: Autodesk,Inc. |WEB Address: www.autodesk.com
 90
    32897
280
     0
281
     0
  0
CLASS
  1
AEC_DISP_REP_OPENING
  2
AecDbDispRepOpening
  3
AecArchBase50|Product Desc: Autodesk Architectural Desktop 2007 |Company: Autodesk,Inc. |WEB Address: www.autodesk.com
 90
    32897
280
     0
281
     0
  0
CLASS
  1
AEC_DISP_REP_OPENING_MODEL
  2
AecDbDispRepOpeningModel
  3
AecArchBase50|Product Desc: Autodesk Architectural Desktop 2007 |Company: Autodesk,Inc. |WEB Address: www.autodesk.com
 90
    32897
280
     0
281
     0
  0
CLASS
  1
AEC_DISP_REP_POLYGON_MODEL
  2
AecDbDispRepPolygonModel
  3
AecBase50|Product Desc: Autodesk Architectural Desktop 2007 |Company: Autodesk,Inc. |WEB Address: www.autodesk.com
 90
    32897
280
     0
281
     0
  0
CLASS
  1
AEC_DISP_REP_RAILING_MODEL
  2
AecDbDispRepRailingModel
  3
AecArchBase50|Product Desc: Autodesk Architectural Desktop 2007 |Company: Autodesk,Inc. |WEB Address: www.autodesk.com
 90
    32897
280
     0
281
     0
  0
CLASS
  1
AEC_DISP_REP_RAILING_PLAN
  2
AecDbDispRepRailingPlan
  3
AecArchBase50|Product Desc: Autodesk Architectural Desktop 2007 |Company: Autodesk,Inc. |WEB Address: www.autodesk.com
 90
    32897
280
     0
281
     0
  0
CLASS
  1
AEC_DISP_REP_ROOF_MODEL
  2
AecDbDispRepRoofModel
  3
AecArchBase50|Product Desc: Autodesk Architectural Desktop 2007 |Company: Autodesk,Inc. |WEB Address: www.autodesk.com
 90
    32897
280
     0
281
     0
  0
CLASS
  1
AEC_DISP_REP_ROOF_PLAN
  2
AecDbDispRepRoofPlan
  3
AecArchBase50|Product Desc: Autodesk Architectural Desktop 2007 |Company: Autodesk,Inc. |WEB Address: www.autodesk.com
 90
    32897
280
     0
281
     0
  0
CLASS
  1
AEC_DISP_REP_ROOFSLAB_MODEL
  2
AecDbDispRepRoofSlabModel
  3
AecArchBase50|Product Desc: Autodesk Architectural Desktop 2007 |Company: Autodesk,Inc. |WEB Address: www.autodesk.com
 90
    32897
280
     0
281
     0
  0
CLASS
  1
AEC_DISP_REP_ROOFSLAB_PLAN
  2
AecDbDispRepRoofSlabPlan
  3
AecArchBase50|Product Desc: Autodesk Architectural Desktop 2007 |Company: Autodesk,Inc. |WEB Address: www.autodesk.com
 90
    32897
280
     0
281
     0
  0
CLASS
  1
AEC_DISP_REP_SCHEDULE_TABLE
  2
AecDbDispRepScheduleTable
  3
AecSchedule50|Product Desc: Autodesk Architectural Desktop 2007 |Company: Autodesk,Inc. |WEB Address: www.autodesk.com
 90
    32897
280
     0
281
     0
  0
CLASS
  1
AEC_DISP_REP_SLAB_MODEL
  2
AecDbDispRepSlabModel
  3
AecArchBase50|Product Desc: Autodesk Architectural Desktop 2007 |Company: Autodesk,Inc. |WEB Address: www.autodesk.com
 90
    32897
280
     0
281
     0
  0
CLASS
  1
AEC_DISP_REP_SLAB_PLAN
  2
AecDbDispRepSlabPlan
  3
AecArchBase50|Product Desc: Autodesk Architectural Desktop 2007 |Company: Autodesk,Inc. |WEB Address: www.autodesk.com
 90
    32897
280
     0
281
     0
  0
CLASS
  1
AEC_DISP_REP_SLICE
  2
AecDbDispRepSlice
  3
AecBase50|Product Desc: Autodesk Architectural Desktop 2007 |Company: Autodesk,Inc. |WEB Address: www.autodesk.com
 90
    32897
280
     0
281
     0
  0
CLASS
  1
AEC_DISP_REP_SPACE_BOUNDARY_MODEL
  2
AecDbDispRepSpaceBoundaryModel
  3
AecArchBase50|Product Desc: Autodesk Architectural Desktop 2007 |Company: Autodesk,Inc. |WEB Address: www.autodesk.com
 90
    32897
280
     0
281
     0
  0
CLASS
  1
AEC_DISP_REP_SPACE_BOUNDARY_PLAN
  2
AecDbDispRepSpaceBoundaryPlan
  3
AecArchBase50|Product Desc: Autodesk Architectural Desktop 2007 |Company: Autodesk,Inc. |WEB Address: www.autodesk.com
 90
    32897
280
     0
281
     0
  0
CLASS
  1
AEC_DISP_REP_SPACE_BOUNDARY_SCHEM
  2
AecDbDispRepSpaceBoundarySketch
  3
AecArchBase50|Product Desc: Autodesk Architectural Desktop 2007 |Company: Autodesk,Inc. |WEB Address: www.autodesk.com
 90
    32897
280
     0
281
     0
  0
CLASS
  1
AEC_DISP_REP_SPACE_MODEL
  2
AecDbDispRepSpaceModel
  3
AecArchBase50|Product Desc: Autodesk Architectural Desktop 2007 |Company: Autodesk,Inc. |WEB Address: www.autodesk.com
 90
    32897
280
     0
281
     0
  0
CLASS
  1
AEC_DISP_REP_SPACE_PLAN
  2
AecDbDispRepSpacePlan
  3
AecArchBase50|Product Desc: Autodesk Architectural Desktop 2007 |Company: Autodesk,Inc. |WEB Address: www.autodesk.com
 90
    32897
280
     0
281
     0
  0
CLASS
  1
AEC_DISP_REP_STAIR_MODEL
  2
AecDbDispRepStairModel
  3
AecArchBase50|Product Desc: Autodesk Architectural Desktop 2007 |Company: Autodesk,Inc. |WEB Address: www.autodesk.com
 90
    32897
280
     0
281
     0
  0
CLASS
  1
AEC_DISP_REP_STAIR_PLAN
  2
AecDbDispRepStairPlan
  3
AecArchBase50|Product Desc: Autodesk Architectural Desktop 2007 |Company: Autodesk,Inc. |WEB Address: www.autodesk.com
 90
    32897
280
     0
281
     0
  0
CLASS
  1
AEC_DISP_REP_WALL_GRAPH
  2
AecDbDispRepWallGraph
  3
AecArchBase50|Product Desc: Autodesk Architectural Desktop 2007 |Company: Autodesk,Inc. |WEB Address: www.autodesk.com
 90
    32897
280
     0
281
     0
  0
CLASS
  1
AEC_DISP_REP_WALL_MODEL
  2
AecDbDispRepWallModel
  3
AecArchBase50|Product Desc: Autodesk Architectural Desktop 2007 |Company: Autodesk,Inc. |WEB Address: www.autodesk.com
 90
    32897
280
     0
281
     0
  0
CLASS
  1
AEC_DISP_REP_WALL_PLAN
  2
AecDbDispRepWallPlan
  3
AecArchBase50|Product Desc: Autodesk Architectural Desktop 2007 |Company: Autodesk,Inc. |WEB Address: www.autodesk.com
 90
    32897
280
     0
281
     0
  0
CLASS
  1
AEC_DISP_REP_WALL_SCHEM
  2
AecDbDispRepWallSchem
  3
AecArchBase50|Product Desc: Autodesk Architectural Desktop 2007 |Company: Autodesk,Inc. |WEB Address: www.autodesk.com
 90
    32897
280
     0
281
     0
  0
CLASS
  1
AEC_DISP_REP_WINDOW_ASSEMBLY_MODEL
  2
AecDbDispRepWindowAssemblyModel
  3
AecArchBase50|Product Desc: Autodesk Architectural Desktop 2007 |Company: Autodesk,Inc. |WEB Address: www.autodesk.com
 90
    32897
280
     0
281
     0
  0
CLASS
  1
AEC_DISP_REP_WINDOW_ASSEMBLY_PLAN
  2
AecDbDispRepWindowAssemblyPlan
  3
AecArchBase50|Product Desc: Autodesk Architectural Desktop 2007 |Company: Autodesk,Inc. |WEB Address: www.autodesk.com
 90
    32897
280
     0
281
     0
  0
CLASS
  1
AEC_AECDBDISPREPWINDOWASSEMBLYPLAN100
  2
AecDbDispRepWindowAssemblyPlan100
  3
AecArchDACHBase50|Product Desc: Autodesk Architectural Desktop 2007 |Company: Autodesk,Inc. |WEB Address: www.autodesk.com
 90
    32897
280
     0
281
     0
  0
CLASS
  1
AEC_DISP_REP_WINDOW_MODEL
  2
AecDbDispRepWindowModel
  3
AecArchBase50|Product Desc: Autodesk Architectural Desktop 2007 |Company: Autodesk,Inc. |WEB Address: www.autodesk.com
 90
    32897
280
     0
281
     0
  0
CLASS
  1
AEC_DISP_REP_WINDOW_NOMINAL
  2
AecDbDispRepWindowNominal
  3
AecArchBase50|Product Desc: Autodesk Architectural Desktop 2007 |Company: Autodesk,Inc. |WEB Address: www.autodesk.com
 90
    32897
280
     0
281
     0
  0
CLASS
  1
AEC_DISP_REP_WINDOW_PLAN
  2
AecDbDispRepWindowPlan
  3
AecArchBase50|Product Desc: Autodesk Architectural Desktop 2007 |Company: Autodesk,Inc. |WEB Address: www.autodesk.com
 90
    32897
280
     0
281
     0
  0
CLASS
  1
AECS_DISP_REP_MEMBER_LOGICAL
  2
AecsDbDispRepMemberLogical
  3
AecStructureBase50|Product Desc: Autodesk Architectural Desktop 2007 |Company: Autodesk,Inc. |WEB Address: www.autodesk.com
 90
    32897
280
     0
281
     0
  0
CLASS
  1
AECS_DISP_REP_MEMBER_MODEL_DESIGN
  2
AecsDbDispRepMemberModelDesign
  3
AecStructureBase50|Product Desc: Autodesk Architectural Desktop 2007 |Company: Autodesk,Inc. |WEB Address: www.autodesk.com
 90
    32897
280
     0
281
     0
  0
CLASS
  1
AECS_DISP_REP_MEMBER_PLAN_DESIGN
  2
AecsDbDispRepMemberPlanDesign
  3
AecStructureBase50|Product Desc: Autodesk Architectural Desktop 2007 |Company: Autodesk,Inc. |WEB Address: www.autodesk.com
 90
    32897
280
     0
281
     0
  0
CLASS
  1
AEC_DISP_PROPS_ENT
  2
AecDbDispPropsEnt
  3
AecBase50|Product Desc: Autodesk Architectural Desktop 2007 |Company: Autodesk,Inc. |WEB Address: www.autodesk.com
 90
    32897
280
     0
281
     0
  0
CLASS
  1
AEC_DISP_PROPS_CLIP_VOLUME
  2
AecDbDispPropsClipVol
  3
AecBase50|Product Desc: Autodesk Architectural Desktop 2007 |Company: Autodesk,Inc. |WEB Address: www.autodesk.com
 90
    32897
280
     0
281
     0
  0
CLASS
  1
AEC_DISP_PROPS_SLICE
  2
AecDbDispPropsSlice
  3
AecBase50|Product Desc: Autodesk Architectural Desktop 2007 |Company: Autodesk,Inc. |WEB Address: www.autodesk.com
 90
    32897
280
     0
281
     0
  0
CLASS
  1
AEC_DISP_PROPS_ROOFSLAB_PLAN
  2
AecDbDispPropsRoofSlabPlan
  3
AecArchBase50|Product Desc: Autodesk Architectural Desktop 2007 |Company: Autodesk,Inc. |WEB Address: www.autodesk.com
 90
    32897
280
     0
281
     0
  0
CLASS
  1
AEC_DISP_PROPS_GRID_ASSEMBLY_MODEL
  2
AecDbDispPropsGridAssemblyModel
  3
AecArchBase50|Product Desc: Autodesk Architectural Desktop 2007 |Company: Autodesk,Inc. |WEB Address: www.autodesk.com
 90
    32897
280
     0
281
     0
  0
CLASS
  1
AEC_DISP_PROPS_ROOF
  2
AecDbDispPropsRoof
  3
AecArchBase50|Product Desc: Autodesk Architectural Desktop 2007 |Company: Autodesk,Inc. |WEB Address: www.autodesk.com
 90
    32897
280
     0
281
     0
  0
CLASS
  1
AEC_DISP_PROPS_SPACE_MODEL
  2
AecDbDispPropsSpaceModel
  3
AecArchBase50|Product Desc: Autodesk Architectural Desktop 2007 |Company: Autodesk,Inc. |WEB Address: www.autodesk.com
 90
    32897
280
     0
281
     0
  0
CLASS
  1
AEC_DISP_PROPS_EDITINPLACEPROFILE_MODEL
  2
AecDbDispPropsEditInPlaceProfile
  3
AecBase50|Product Desc: Autodesk Architectural Desktop 2007 |Company: Autodesk,Inc. |WEB Address: www.autodesk.com
 90
    32897
280
     0
281
     0
  0
CLASS
  1
AEC_DISP_PROPS_DOOR
  2
AecDbDispPropsDoor
  3
AecArchBase50|Product Desc: Autodesk Architectural Desktop 2007 |Company: Autodesk,Inc. |WEB Address: www.autodesk.com
 90
    32897
280
     0
281
     0
  0
CLASS
  1
AEC_DISP_PROPS_MASKBLOCK
  2
AecDbDispPropsMaskBlock
  3
AecBase50|Product Desc: Autodesk Architectural Desktop 2007 |Company: Autodesk,Inc. |WEB Address: www.autodesk.com
 90
    32897
280
     0
281
     0
  0
CLASS
  1
AEC_DISP_PROPS_SPACE_PLAN
  2
AecDbDispPropsSpacePlan
  3
AecArchBase50|Product Desc: Autodesk Architectural Desktop 2007 |Company: Autodesk,Inc. |WEB Address: www.autodesk.com
 90
    32897
280
     0
281
     0
  0
CLASS
  1
AEC_DISP_PROPS_RAILING_PLAN
  2
AecDbDispPropsRailingPlan
  3
AecArchBase50|Product Desc: Autodesk Architectural Desktop 2007 |Company: Autodesk,Inc. |WEB Address: www.autodesk.com
 90
    32897
280
     0
281
     0
  0
CLASS
  1
AEC_DISP_PROPS_LAYOUT_GRID2D
  2
AecDbDispPropsLayoutGrid2d
  3
AecBase50|Product Desc: Autodesk Architectural Desktop 2007 |Company: Autodesk,Inc. |WEB Address: www.autodesk.com
 90
    32897
280
     0
281
     0
  0
CLASS
  1
AEC_DISP_PROPS_CLIP_VOLUME_RESULT
  2
AecDbDispPropsClipVolResSubDiv
  3
AecBase50|Product Desc: Autodesk Architectural Desktop 2007 |Company: Autodesk,Inc. |WEB Address: www.autodesk.com
 90
    32897
280
     0
281
     0
  0
CLASS
  1
AEC_DISP_PROPS_STAIR_MODEL
  2
AecDbDispPropsStairModel
  3
AecArchBase50|Product Desc: Autodesk Architectural Desktop 2007 |Company: Autodesk,Inc. |WEB Address: www.autodesk.com
 90
    32897
280
     0
281
     0
  0
CLASS
  1
AEC_DISP_PROPS_LAYOUT_CURVE
  2
AecDbDispPropsLayoutCurve
  3
AecBase50|Product Desc: Autodesk Architectural Desktop 2007 |Company: Autodesk,Inc. |WEB Address: www.autodesk.com
 90
    32897
280
     0
281
     0
  0
CLASS
  1
AEC_DISP_PROPS_POLYGON_MODEL
  2
AecDbDispPropsPolygonModel
  3
AecBase50|Product Desc: Autodesk Architectural Desktop 2007 |Company: Autodesk,Inc. |WEB Address: www.autodesk.com
 90
    32897
280
     0
281
     0
  0
CLASS
  1
AEC_DISP_PROPS_MASS_GROUP
  2
AecDbDispPropsMassGroup
  3
AecBaseEx50|Product Desc: Autodesk Architectural Desktop 2007 |Company: Autodesk,Inc. |WEB Address: www.autodesk.com
 90
    32897
280
     0
281
     0
  0
CLASS
  1
AEC_DISP_PROPS_STAIR_PLAN
  2
AecDbDispPropsStairPlan
  3
AecArchBase50|Product Desc: Autodesk Architectural Desktop 2007 |Company: Autodesk,Inc. |WEB Address: www.autodesk.com
 90
    32897
280
     0
281
     0
  0
CLASS
  1
AEC_DISP_PROPS_OPENING
  2
AecDbDispPropsOpening
  3
AecArchBase50|Product Desc: Autodesk Architectural Desktop 2007 |Company: Autodesk,Inc. |WEB Address: www.autodesk.com
 90
    32897
280
     0
281
     0
  0
CLASS
  1
AEC_DISP_PROPS_WALL_GRAPH
  2
AecDbDispPropsWallGraph
  3
AecArchBase50|Product Desc: Autodesk Architectural Desktop 2007 |Company: Autodesk,Inc. |WEB Address: www.autodesk.com
 90
    32897
280
     0
281
     0
  0
CLASS
  1
AEC_DISP_PROPS_DOOR_NOMINAL
  2
AecDbDispPropsDoorNominal
  3
AecArchBase50|Product Desc: Autodesk Architectural Desktop 2007 |Company: Autodesk,Inc. |WEB Address: www.autodesk.com
 90
    32897
280
     0
281
     0
  0
CLASS
  1
AEC_DISP_PROPS_SLAB
  2
AecDbDispPropsSlab
  3
AecArchBase50|Product Desc: Autodesk Architectural Desktop 2007 |Company: Autodesk,Inc. |WEB Address: www.autodesk.com
 90
    32897
280
     0
281
     0
  0
CLASS
  1
AEC_DISP_PROPS_WALL_MODEL
  2
AecDbDispPropsWallModel
  3
AecArchBase50|Product Desc: Autodesk Architectural Desktop 2007 |Company: Autodesk,Inc. |WEB Address: www.autodesk.com
 90
    32897
280
     0
281
     0
  0
CLASS
  1
AEC_DISP_PROPS_MATERIAL
  2
AecDbDispPropsMaterial
  3
AecBase50|Product Desc: Autodesk Architectural Desktop 2007 |Company: Autodesk,Inc. |WEB Address: www.autodesk.com
 90
    32897
280
     0
281
     0
  0
CLASS
  1
AEC_DISP_PROPS_WINDOW
  2
AecDbDispPropsWindow
  3
AecArchBase50|Product Desc: Autodesk Architectural Desktop 2007 |Company: Autodesk,Inc. |WEB Address: www.autodesk.com
 90
    32897
280
     0
281
     0
  0
CLASS
  1
AEC_DISP_PROPS_LAYOUT_GRID3D
  2
AecDbDispPropsLayoutGrid3d
  3
AecBase50|Product Desc: Autodesk Architectural Desktop 2007 |Company: Autodesk,Inc. |WEB Address: www.autodesk.com
 90
    32897
280
     0
281
     0
  0
CLASS
  1
AEC_DISP_PROPS_GRID_ASSEMBLY_PLAN
  2
AecDbDispPropsGridAssemblyPlan
  3
AecArchBase50|Product Desc: Autodesk Architectural Desktop 2007 |Company: Autodesk,Inc. |WEB Address: www.autodesk.com
 90
    32897
280
     0
281
     0
  0
CLASS
  1
AEC_DISP_PROPS_WALL_SCHEM
  2
AecDbDispPropsWallSchem
  3
AecArchBase50|Product Desc: Autodesk Architectural Desktop 2007 |Company: Autodesk,Inc. |WEB Address: www.autodesk.com
 90
    32897
280
     0
281
     0
  0
CLASS
  1
AEC_DISP_PROPS_WALL_PLAN
  2
AecDbDispPropsWallPlan
  3
AecArchBase50|Product Desc: Autodesk Architectural Desktop 2007 |Company: Autodesk,Inc. |WEB Address: www.autodesk.com
 90
    32897
280
     0
281
     0
  0
CLASS
  1
AEC_DISP_PROPS_SPACE_BOUNDARY
  2
AecDbDispPropsSpaceBoundary
  3
AecArchBase50|Product Desc: Autodesk Architectural Desktop 2007 |Company: Autodesk,Inc. |WEB Address: www.autodesk.com
 90
    32897
280
     0
281
     0
  0
CLASS
  1
AEC_DISP_PROPS_SLAB_PLAN
  2
AecDbDispPropsSlabPlan
  3
AecArchBase50|Product Desc: Autodesk Architectural Desktop 2007 |Company: Autodesk,Inc. |WEB Address: www.autodesk.com
 90
    32897
280
     0
281
     0
  0
CLASS
  1
AEC_DISP_PROPS_RAILING_MODEL
  2
AecDbDispPropsRailingModel
  3
AecArchBase50|Product Desc: Autodesk Architectural Desktop 2007 |Company: Autodesk,Inc. |WEB Address: www.autodesk.com
 90
    32897
280
     0
281
     0
  0
CLASS
  1
AEC_DISP_PROPS_MASS_ELEM_MODEL
  2
AecDbDispPropsMassElem
  3
AecBaseEx50|Product Desc: Autodesk Architectural Desktop 2007 |Company: Autodesk,Inc. |WEB Address: www.autodesk.com
 90
    32897
280
     0
281
     0
  0
CLASS
  1
AEC_DISP_PROPS_DIM
  2
AecDbDispPropsDimGroup
  3
AecArchDACHBase50|Product Desc: Autodesk Architectural Desktop 2007 |Company: Autodesk,Inc. |WEB Address: www.autodesk.com
 90
    32897
280
     0
281
     0
  0
CLASS
  1
AEC_DISP_PROPS_ROOFSLAB
  2
AecDbDispPropsRoofSlab
  3
AecArchBase50|Product Desc: Autodesk Architectural Desktop 2007 |Company: Autodesk,Inc. |WEB Address: www.autodesk.com
 90
    32897
280
     0
281
     0
  0
CLASS
  1
AEC_DISP_PROPS_ENT_REF
  2
AecDbDispPropsEntRef
  3
AecBase50|Product Desc: Autodesk Architectural Desktop 2007 |Company: Autodesk,Inc. |WEB Address: www.autodesk.com
 90
    32897
280
     0
281
     0
  0
CLASS
  1
AEC_DISP_PROPS_2D_SECTION
  2
AecDbDispProps2dSection
  3
AecBase50|Product Desc: Autodesk Architectural Desktop 2007 |Company: Autodesk,Inc. |WEB Address: www.autodesk.com
 90
    32897
280
     0
281
     0
  0
CLASS
  1
AECS_DISP_PROPS_MEMBER_LOGICAL
  2
AecsDbDispPropsMemberLogical
  3
AecStructureBase50|Product Desc: Autodesk Architectural Desktop 2007 |Company: Autodesk,Inc. |WEB Address: www.autodesk.com
 90
    32897
280
     0
281
     0
  0
CLASS
  1
AEC_DISP_PROPS_AREA_DECOMPOSED
  2
AecDbDispPropsAreaDecomposed
  3
AecAreaCalculationBase50|Product Desc: Autodesk Architectural Desktop 2007 |Company: Autodesk,Inc. |WEB Address: www.autodesk.com
 90
    32897
280
     0
281
     0
  0
CLASS
  1
AEC_DISP_PROPS_CAMERA
  2
AecDbDispPropsCamera
  3
AecBase50|Product Desc: Autodesk Architectural Desktop 2007 |Company: Autodesk,Inc. |WEB Address: www.autodesk.com
 90
    32897
280
     0
281
     0
  0
CLASS
  1
AECS_DISP_PROPS_MEMBER
  2
AecsDbDispPropsMember
  3
AecStructureBase50|Product Desc: Autodesk Architectural Desktop 2007 |Company: Autodesk,Inc. |WEB Address: www.autodesk.com
 90
    32897
280
     0
281
     0
  0
CLASS
  1
AECS_DISP_PROPS_MEMBER_PLAN
  2
AecsDbDispPropsMemberPlan
  3
AecStructureBase50|Product Desc: Autodesk Architectural Desktop 2007 |Company: Autodesk,Inc. |WEB Address: www.autodesk.com
 90
    32897
280
     0
281
     0
  0
CLASS
  1
AEC_DISP_PROPS_AREAGROUP
  2
AecDbDispPropsAreaGroup
  3
AecAreaCalculationBase50|Product Desc: Autodesk Architectural Desktop 2007 |Company: Autodesk,Inc. |WEB Address: www.autodesk.com
 90
    32897
280
     0
281
     0
  0
CLASS
  1
AEC_DISP_PROPS_WINDOW_NOMINAL
  2
AecDbDispPropsWindowNominal
  3
AecArchBase50|Product Desc: Autodesk Architectural Desktop 2007 |Company: Autodesk,Inc. |WEB Address: www.autodesk.com
 90
    32897
280
     0
281
     0
  0
CLASS
  1
AEC_DISP_PROPS_AREA
  2
AecDbDispPropsArea
  3
AecAreaCalculationBase50|Product Desc: Autodesk Architectural Desktop 2007 |Company: Autodesk,Inc. |WEB Address: www.autodesk.com
 90
    32897
280
     0
281
     0
  0
CLASS
  1
AEC_DISP_PROPS_SCHEDULE_TABLE
  2
AecDbDispPropsScheduleTable
  3
AecSchedule50|Product Desc: Autodesk Architectural Desktop 2007 |Company: Autodesk,Inc. |WEB Address: www.autodesk.com
 90
    32897
280
     0
281
     0
  0
CLASS
  1
AEC_LAYERKEY_STYLE
  2
AecDbLayerKeyStyle
  3
AecBase50|Product Desc: Autodesk Architectural Desktop 2007 |Company: Autodesk,Inc. |WEB Address: www.autodesk.com
 90
    32897
280
     0
281
     0
  0
CLASS
  1
AEC_VARS_ARCHBASE
  2
AecDbVarsArchBase
  3
AecArchBase50|Product Desc: Autodesk Architectural Desktop 2007 |Company: Autodesk,Inc. |WEB Address: www.autodesk.com
 90
    32897
280
     0
281
     0
  0
CLASS
  1
AEC_VARS_MUNICH
  2
AecDbVarsMunich
  3
AecArchDACHBase50|Product Desc: Autodesk Architectural Desktop 2007 |Company: Autodesk,Inc. |WEB Address: www.autodesk.com
 90
    32897
280
     0
281
     0
  0
CLASS
  1
AEC_NOTIFICATION_TRACKER
  2
AecDbNotificationTracker
  3
AecBase50|Product Desc: Autodesk Architectural Desktop 2007 |Company: Autodesk,Inc. |WEB Address: www.autodesk.com
 90
    32897
280
     0
281
     0
  0
CLASS
  1
AEC_DISP_REP_ANCHOR
  2
AecDbDispRepAnchor
  3
AecBase50|Product Desc: Autodesk Architectural Desktop 2007 |Company: Autodesk,Inc. |WEB Address: www.autodesk.com
 90
    32897
280
     0
281
     0
  0
CLASS
  1
AEC_DISP_REP_POLYGON_TRUECOLOUR
  2
AecDbDispRepPolygonTrueColour
  3
AecBase50|Product Desc: Autodesk Architectural Desktop 2007 |Company: Autodesk,Inc. |WEB Address: www.autodesk.com
 90
    32897
280
     0
281
     0
  0
CLASS
  1
AEC_DISP_PROPS_POLYGON_TRUECOLOUR
  2
AecDbDispPropsPolygonTrueColour
  3
AecBase50|Product Desc: Autodesk Architectural Desktop 2007 |Company: Autodesk,Inc. |WEB Address: www.autodesk.com
 90
    32897
280
     0
281
     0
  0
CLASS
  1
AEC_DISP_REP_BDG_ELEVLINE_RCP
  2
AecDbDispRepBdgElevLineRcp
  3
AecArchBase50|Product Desc: Autodesk Architectural Desktop 2007 |Company: Autodesk,Inc. |WEB Address: www.autodesk.com
 90
    32897
280
     0
281
     0
  0
CLASS
  1
AEC_DISP_REP_BDG_SECTIONLINE_RCP
  2
AecDbDispRepBdgSectionLineRcp
  3
AecArchBase50|Product Desc: Autodesk Architectural Desktop 2007 |Company: Autodesk,Inc. |WEB Address: www.autodesk.com
 90
    32897
280
     0
281
     0
  0
CLASS
  1
AEC_DISP_REP_BDG_SECTION_MODEL
  2
AecDbDispRepBdgSectionModel
  3
AecArchBase50|Product Desc: Autodesk Architectural Desktop 2007 |Company: Autodesk,Inc. |WEB Address: www.autodesk.com
 90
    32897
280
     0
281
     0
  0
CLASS
  1
AEC_DISP_REP_DOOR_ELEV
  2
AecDbDispRepDoorElev
  3
AecArchBase50|Product Desc: Autodesk Architectural Desktop 2007 |Company: Autodesk,Inc. |WEB Address: www.autodesk.com
 90
    32897
280
     0
281
     0
  0
CLASS
  1
AEC_DISP_REP_DOOR_RCP
  2
AecDbDispRepDoorRcp
  3
AecArchBase50|Product Desc: Autodesk Architectural Desktop 2007 |Company: Autodesk,Inc. |WEB Address: www.autodesk.com
 90
    32897
280
     0
281
     0
  0
CLASS
  1
AEC_DISP_REP_DOOR_THRESHOLD_PLAN
  2
AecDbDispRepDoorThresholdPlan
  3
AecArchBase50|Product Desc: Autodesk Architectural Desktop 2007 |Company: Autodesk,Inc. |WEB Address: www.autodesk.com
 90
    32897
280
     0
281
     0
  0
CLASS
  1
AEC_DISP_PROPS_DOOR_THRESHOLD_PLAN
  2
AecDbDispPropsDoorThresholdPlan
  3
AecArchBase50|Product Desc: Autodesk Architectural Desktop 2007 |Company: Autodesk,Inc. |WEB Address: www.autodesk.com
 90
    32897
280
     0
281
     0
  0
CLASS
  1
AEC_DISP_REP_MASS_ELEM_RCP
  2
AecDbDispRepMassElemRcp
  3
AecArchBase50|Product Desc: Autodesk Architectural Desktop 2007 |Company: Autodesk,Inc. |WEB Address: www.autodesk.com
 90
    32897
280
     0
281
     0
  0
CLASS
  1
AEC_DISP_REP_MASS_GROUP_RCP
  2
AecDbDispRepMassGroupRcp
  3
AecArchBase50|Product Desc: Autodesk Architectural Desktop 2007 |Company: Autodesk,Inc. |WEB Address: www.autodesk.com
 90
    32897
280
     0
281
     0
  0
CLASS
  1
AEC_DISP_REP_MVBLOCK_REF_RCP
  2
AecDbDispRepMvBlockRefRcp
  3
AecArchBase50|Product Desc: Autodesk Architectural Desktop 2007 |Company: Autodesk,Inc. |WEB Address: www.autodesk.com
 90
    32897
280
     0
281
     0
  0
CLASS
  1
AEC_DISP_REP_ROOF_RCP
  2
AecDbDispRepRoofRcp
  3
AecArchBase50|Product Desc: Autodesk Architectural Desktop 2007 |Company: Autodesk,Inc. |WEB Address: www.autodesk.com
 90
    32897
280
     0
281
     0
  0
CLASS
  1
AEC_DISP_REP_SPACE_BOUNDARY_DIAGRAM
  2
AecDbDispRepSpaceBoundaryDgrm
  3
AecArchBase50|Product Desc: Autodesk Architectural Desktop 2007 |Company: Autodesk,Inc. |WEB Address: www.autodesk.com
 90
    32897
280
     0
281
     0
  0
CLASS
  1
AEC_DISP_REP_SPACE_RCP
  2
AecDbDispRepSpaceRcp
  3
AecArchBase50|Product Desc: Autodesk Architectural Desktop 2007 |Company: Autodesk,Inc. |WEB Address: www.autodesk.com
 90
    32897
280
     0
281
     0
  0
CLASS
  1
AEC_DISP_REP_SPACE_VOLUME
  2
AecDbDispRepSpaceVolume
  3
AecArchBase50|Product Desc: Autodesk Architectural Desktop 2007 |Company: Autodesk,Inc. |WEB Address: www.autodesk.com
 90
    32897
280
     0
281
     0
  0
CLASS
  1
AEC_DISP_REP_STAIR_PLAN_OVERLAPPING
  2
AecDbDispRepStairPlanOverlapping
  3
AecArchBase50|Product Desc: Autodesk Architectural Desktop 2007 |Company: Autodesk,Inc. |WEB Address: www.autodesk.com
 90
    32897
280
     0
281
     0
  0
CLASS
  1
AEC_DISP_PROPS_STAIR_PLAN_OVERLAPPING
  2
AecDbDispPropsStairPlanOverlapping
  3
AecArchBase50|Product Desc: Autodesk Architectural Desktop 2007 |Company: Autodesk,Inc. |WEB Address: www.autodesk.com
 90
    32897
280
     0
281
     0
  0
CLASS
  1
AEC_DISP_REP_STAIR_RCP
  2
AecDbDispRepStairRcp
  3
AecArchBase50|Product Desc: Autodesk Architectural Desktop 2007 |Company: Autodesk,Inc. |WEB Address: www.autodesk.com
 90
    32897
280
     0
281
     0
  0
CLASS
  1
AEC_DISP_REP_WALL_RCP
  2
AecDbDispRepWallRcp
  3
AecArchBase50|Product Desc: Autodesk Architectural Desktop 2007 |Company: Autodesk,Inc. |WEB Address: www.autodesk.com
 90
    32897
280
     0
281
     0
  0
CLASS
  1
AEC_DISP_REP_WINDOWASSEMBLY_SILL_PLAN
  2
AecDbDispRepWindowAssemblySillPlan
  3
AecArchBase50|Product Desc: Autodesk Architectural Desktop 2007 |Company: Autodesk,Inc. |WEB Address: www.autodesk.com
 90
    32897
280
     0
281
     0
  0
CLASS
  1
AEC_DISP_PROPS_WINDOW_ASSEMBLY_SILL_PLAN
  2
AecDbDispPropsWindowAssemblySillPlan
  3
AecArchBase50|Product Desc: Autodesk Architectural Desktop 2007 |Company: Autodesk,Inc. |WEB Address: www.autodesk.com
 90
    32897
280
     0
281
     0
  0
CLASS
  1
AEC_DISP_REP_WINDOW_ELEV
  2
AecDbDispRepWindowElev
  3
AecArchBase50|Product Desc: Autodesk Architectural Desktop 2007 |Company: Autodesk,Inc. |WEB Address: www.autodesk.com
 90
    32897
280
     0
281
     0
  0
CLASS
  1
AEC_DISP_REP_WINDOW_RCP
  2
AecDbDispRepWindowRcp
  3
AecArchBase50|Product Desc: Autodesk Architectural Desktop 2007 |Company: Autodesk,Inc. |WEB Address: www.autodesk.com
 90
    32897
280
     0
281
     0
  0
CLASS
  1
AEC_DISP_REP_WINDOW_SILL_PLAN
  2
AecDbDispRepWindowSillPlan
  3
AecArchBase50|Product Desc: Autodesk Architectural Desktop 2007 |Company: Autodesk,Inc. |WEB Address: www.autodesk.com
 90
    32897
280
     0
281
     0
  0
CLASS
  1
AEC_DISP_PROPS_WINDOW_SILL_PLAN
  2
AecDbDispPropsWindowSillPlan
  3
AecArchBase50|Product Desc: Autodesk Architectural Desktop 2007 |Company: Autodesk,Inc. |WEB Address: www.autodesk.com
 90
    32897
280
     0
281
     0
  0
CLASS
  1
AEC_DISP_REP_ANCHOR_BUB_TO_GRID_RCP
  2
AecDbDispRepAnchorBubToGridRcp
  3
AecStructureBase50|Product Desc: Autodesk Architectural Desktop 2007 |Company: Autodesk,Inc. |WEB Address: www.autodesk.com
 90
    32897
280
     0
281
     0
  0
CLASS
  1
AEC_DISP_REP_COLUMN_GRID_RCP
  2
AecDbDispRepColumnGridRcp
  3
AecStructureBase50|Product Desc: Autodesk Architectural Desktop 2007 |Company: Autodesk,Inc. |WEB Address: www.autodesk.com
 90
    32897
280
     0
281
     0
  0
CLASS
  1
AECS_DISP_REP_MEMBER_ELEVATION_DESIGN
  2
AecsDbDispRepMemberElevationDesign
  3
AecStructureBase50|Product Desc: Autodesk Architectural Desktop 2007 |Company: Autodesk,Inc. |WEB Address: www.autodesk.com
 90
    32897
280
     0
281
     0
  0
CLASS
  1
AECS_DISP_PROPS_MEMBER_PROJECTED
  2
AecsDbDispPropsMemberProjected
  3
AecStructureBase50|Product Desc: Autodesk Architectural Desktop 2007 |Company: Autodesk,Inc. |WEB Address: www.autodesk.com
 90
    32897
280
     0
281
     0
  0
CLASS
  1
AECS_DISP_REP_MEMBER_ELEVATION_DETAIL
  2
AecsDbDispRepMemberElevationDetail
  3
AecStructureBase50|Product Desc: Autodesk Architectural Desktop 2007 |Company: Autodesk,Inc. |WEB Address: www.autodesk.com
 90
    32897
280
     0
281
     0
  0
CLASS
  1
AECS_DISP_REP_MEMBER_MODEL_DETAIL
  2
AecsDbDispRepMemberModelDetail
  3
AecStructureBase50|Product Desc: Autodesk Architectural Desktop 2007 |Company: Autodesk,Inc. |WEB Address: www.autodesk.com
 90
    32897
280
     0
281
     0
  0
CLASS
  1
AECS_DISP_REP_MEMBER_PLAN_DETAIL
  2
AecsDbDispRepMemberPlanDetail
  3
AecStructureBase50|Product Desc: Autodesk Architectural Desktop 2007 |Company: Autodesk,Inc. |WEB Address: www.autodesk.com
 90
    32897
280
     0
281
     0
  0
CLASS
  1
AECS_DISP_REP_MEMBER_PLAN_SKETCH
  2
AecsDbDispRepMemberPlanSketch
  3
AecStructureBase50|Product Desc: Autodesk Architectural Desktop 2007 |Company: Autodesk,Inc. |WEB Address: www.autodesk.com
 90
    32897
280
     0
281
     0
  0
CLASS
  1
AECS_DISP_PROPS_MEMBER_PLAN_SKETCH
  2
AecsDbDispPropsMemberPlanSketch
  3
AecStructureBase50|Product Desc: Autodesk Architectural Desktop 2007 |Company: Autodesk,Inc. |WEB Address: www.autodesk.com
 90
    32897
280
     0
281
     0
  0
CLASS
  1
AEC_AECDBDISPREPAREA100
  2
AecDbDispRepArea100
  3
AecArchDACHBase50|Product Desc: Autodesk Architectural Desktop 2007 |Company: Autodesk,Inc. |WEB Address: www.autodesk.com
 90
    32897
280
     0
281
     0
  0
CLASS
  1
AEC_AECDBDISPREPAREAGROUP100
  2
AecDbDispRepAreaGroup100
  3
AecArchDACHBase50|Product Desc: Autodesk Architectural Desktop 2007 |Company: Autodesk,Inc. |WEB Address: www.autodesk.com
 90
    32897
280
     0
281
     0
  0
CLASS
  1
AEC_AECDBDISPREPBDGELEVLINEPLAN100
  2
AecDbDispRepBdgElevLinePlan100
  3
AecArchDACHBase50|Product Desc: Autodesk Architectural Desktop 2007 |Company: Autodesk,Inc. |WEB Address: www.autodesk.com
 90
    32897
280
     0
281
     0
  0
CLASS
  1
AEC_AECDBDISPREPBDGSECTIONLINEPLAN100
  2
AecDbDispRepBdgSectionLinePlan100
  3
AecArchDACHBase50|Product Desc: Autodesk Architectural Desktop 2007 |Company: Autodesk,Inc. |WEB Address: www.autodesk.com
 90
    32897
280
     0
281
     0
  0
CLASS
  1
AEC_AECDBDISPREPCEILINGGRIDPLAN100
  2
AecDbDispRepCeilingGridPlan100
  3
AecArchDACHBase50|Product Desc: Autodesk Architectural Desktop 2007 |Company: Autodesk,Inc. |WEB Address: www.autodesk.com
 90
    32897
280
     0
281
     0
  0
CLASS
  1
AEC_AECDBDISPREPCOLUMNGRIDPLAN100
  2
AecDbDispRepColumnGridPlan100
  3
AecArchDACHBase50|Product Desc: Autodesk Architectural Desktop 2007 |Company: Autodesk,Inc. |WEB Address: www.autodesk.com
 90
    32897
280
     0
281
     0
  0
CLASS
  1
AEC_AECDBDISPREPCURTAINWALLLAYOUTPLAN100
  2
AecDbDispRepCurtainWallLayoutPlan100
  3
AecArchDACHBase50|Product Desc: Autodesk Architectural Desktop 2007 |Company: Autodesk,Inc. |WEB Address: www.autodesk.com
 90
    32897
280
     0
281
     0
  0
CLASS
  1
AEC_AECDBDISPREPCURTAINWALLUNITPLAN100
  2
AecDbDispRepCurtainWallUnitPlan100
  3
AecArchDACHBase50|Product Desc: Autodesk Architectural Desktop 2007 |Company: Autodesk,Inc. |WEB Address: www.autodesk.com
 90
    32897
280
     0
281
     0
  0
CLASS
  1
AEC_AECDBDISPREPMVBLOCKREFPLAN100
  2
AecDbDispRepMvBlockRefPlan100
  3
AecArchDACHBase50|Product Desc: Autodesk Architectural Desktop 2007 |Company: Autodesk,Inc. |WEB Address: www.autodesk.com
 90
    32897
280
     0
281
     0
  0
CLASS
  1
AEC_AECDBDISPREPROOFPLAN100
  2
AecDbDispRepRoofPlan100
  3
AecArchDACHBase50|Product Desc: Autodesk Architectural Desktop 2007 |Company: Autodesk,Inc. |WEB Address: www.autodesk.com
 90
    32897
280
     0
281
     0
  0
CLASS
  1
AEC_AECDBDISPREPROOFSLABPLAN100
  2
AecDbDispRepRoofSlabPlan100
  3
AecArchDACHBase50|Product Desc: Autodesk Architectural Desktop 2007 |Company: Autodesk,Inc. |WEB Address: www.autodesk.com
 90
    32897
280
     0
281
     0
  0
CLASS
  1
AEC_AECDBDISPREPSLABPLAN100
  2
AecDbDispRepSlabPlan100
  3
AecArchDACHBase50|Product Desc: Autodesk Architectural Desktop 2007 |Company: Autodesk,Inc. |WEB Address: www.autodesk.com
 90
    32897
280
     0
281
     0
  0
CLASS
  1
AEC_AECDBDISPREPSPACEBOUNDARYPLAN100
  2
AecDbDispRepSpaceBoundaryPlan100
  3
AecArchDACHBase50|Product Desc: Autodesk Architectural Desktop 2007 |Company: Autodesk,Inc. |WEB Address: www.autodesk.com
 90
    32897
280
     0
281
     0
  0
CLASS
  1
AEC_AECDBDISPREPSPACEPLAN100
  2
AecDbDispRepSpacePlan100
  3
AecArchDACHBase50|Product Desc: Autodesk Architectural Desktop 2007 |Company: Autodesk,Inc. |WEB Address: www.autodesk.com
 90
    32897
280
     0
281
     0
  0
CLASS
  1
AEC_AECDBDISPREPWALLPLAN100
  2
AecDbDispRepWallPlan100
  3
AecArchDACHBase50|Product Desc: Autodesk Architectural Desktop 2007 |Company: Autodesk,Inc. |WEB Address: www.autodesk.com
 90
    32897
280
     0
281
     0
  0
CLASS
  1
AEC_AECDBDISPREPAREA50
  2
AecDbDispRepArea50
  3
AecArchDACHBase50|Product Desc: Autodesk Architectural Desktop 2007 |Company: Autodesk,Inc. |WEB Address: www.autodesk.com
 90
    32897
280
     0
281
     0
  0
CLASS
  1
AEC_AECDBDISPREPAREAGROUP50
  2
AecDbDispRepAreaGroup50
  3
AecArchDACHBase50|Product Desc: Autodesk Architectural Desktop 2007 |Company: Autodesk,Inc. |WEB Address: www.autodesk.com
 90
    32897
280
     0
281
     0
  0
CLASS
  1
AEC_AECDBDISPREPBDGELEVLINEPLAN50
  2
AecDbDispRepBdgElevLinePlan50
  3
AecArchDACHBase50|Product Desc: Autodesk Architectural Desktop 2007 |Company: Autodesk,Inc. |WEB Address: www.autodesk.com
 90
    32897
280
     0
281
     0
  0
CLASS
  1
AEC_AECDBDISPREPBDGSECTIONLINEPLAN50
  2
AecDbDispRepBdgSectionLinePlan50
  3
AecArchDACHBase50|Product Desc: Autodesk Architectural Desktop 2007 |Company: Autodesk,Inc. |WEB Address: www.autodesk.com
 90
    32897
280
     0
281
     0
  0
CLASS
  1
AEC_AECDBDISPREPCEILINGGRIDPLAN50
  2
AecDbDispRepCeilingGridPlan50
  3
AecArchDACHBase50|Product Desc: Autodesk Architectural Desktop 2007 |Company: Autodesk,Inc. |WEB Address: www.autodesk.com
 90
    32897
280
     0
281
     0
  0
CLASS
  1
AEC_AECDBDISPREPCOLUMNGRIDPLAN50
  2
AecDbDispRepColumnGridPlan50
  3
AecArchDACHBase50|Product Desc: Autodesk Architectural Desktop 2007 |Company: Autodesk,Inc. |WEB Address: www.autodesk.com
 90
    32897
280
     0
281
     0
  0
CLASS
  1
AEC_AECDBDISPREPCURTAINWALLLAYOUTPLAN50
  2
AecDbDispRepCurtainWallLayoutPlan50
  3
AecArchDACHBase50|Product Desc: Autodesk Architectural Desktop 2007 |Company: Autodesk,Inc. |WEB Address: www.autodesk.com
 90
    32897
280
     0
281
     0
  0
CLASS
  1
AEC_AECDBDISPREPCURTAINWALLUNITPLAN50
  2
AecDbDispRepCurtainWallUnitPlan50
  3
AecArchDACHBase50|Product Desc: Autodesk Architectural Desktop 2007 |Company: Autodesk,Inc. |WEB Address: www.autodesk.com
 90
    32897
280
     0
281
     0
  0
CLASS
  1
AEC_AECDBDISPREPMVBLOCKREFPLAN50
  2
AecDbDispRepMvBlockRefPlan50
  3
AecArchDACHBase50|Product Desc: Autodesk Architectural Desktop 2007 |Company: Autodesk,Inc. |WEB Address: www.autodesk.com
 90
    32897
280
     0
281
     0
  0
CLASS
  1
AEC_AECDBDISPREPROOFPLAN50
  2
AecDbDispRepRoofPlan50
  3
AecArchDACHBase50|Product Desc: Autodesk Architectural Desktop 2007 |Company: Autodesk,Inc. |WEB Address: www.autodesk.com
 90
    32897
280
     0
281
     0
  0
CLASS
  1
AEC_AECDBDISPREPROOFSLABPLAN50
  2
AecDbDispRepRoofSlabPlan50
  3
AecArchDACHBase50|Product Desc: Autodesk Architectural Desktop 2007 |Company: Autodesk,Inc. |WEB Address: www.autodesk.com
 90
    32897
280
     0
281
     0
  0
CLASS
  1
AEC_AECDBDISPREPSLABPLAN50
  2
AecDbDispRepSlabPlan50
  3
AecArchDACHBase50|Product Desc: Autodesk Architectural Desktop 2007 |Company: Autodesk,Inc. |WEB Address: www.autodesk.com
 90
    32897
280
     0
281
     0
  0
CLASS
  1
AEC_AECDBDISPREPSPACEBOUNDARYPLAN50
  2
AecDbDispRepSpaceBoundaryPlan50
  3
AecArchDACHBase50|Product Desc: Autodesk Architectural Desktop 2007 |Company: Autodesk,Inc. |WEB Address: www.autodesk.com
 90
    32897
280
     0
281
     0
  0
CLASS
  1
AEC_AECDBDISPREPSPACEPLAN50
  2
AecDbDispRepSpacePlan50
  3
AecArchDACHBase50|Product Desc: Autodesk Architectural Desktop 2007 |Company: Autodesk,Inc. |WEB Address: www.autodesk.com
 90
    32897
280
     0
281
     0
  0
CLASS
  1
AEC_AECDBDISPREPWALLPLAN50
  2
AecDbDispRepWallPlan50
  3
AecArchDACHBase50|Product Desc: Autodesk Architectural Desktop 2007 |Company: Autodesk,Inc. |WEB Address: www.autodesk.com
 90
    32897
280
     0
281
     0
  0
CLASS
  1
AEC_AECDBDISPREPWINDOWASSEMBLYPLAN50
  2
AecDbDispRepWindowAssemblyPlan50
  3
AecArchDACHBase50|Product Desc: Autodesk Architectural Desktop 2007 |Company: Autodesk,Inc. |WEB Address: www.autodesk.com
 90
    32897
280
     0
281
     0
  0
CLASS
  1
AEC_DB_DISP_REP_DIM_GROUP_PLAN100
  2
AecDbDispRepDimGroupPlan100
  3
AecArchDACHBase50|Product Desc: Autodesk Architectural Desktop 2007 |Company: Autodesk,Inc. |WEB Address: www.autodesk.com
 90
    32897
280
     0
281
     0
  0
CLASS
  1
AEC_DB_DISP_REP_DIM_GROUP_PLAN50
  2
AecDbDispRepDimGroupPlan50
  3
AecArchDACHBase50|Product Desc: Autodesk Architectural Desktop 2007 |Company: Autodesk,Inc. |WEB Address: www.autodesk.com
 90
    32897
280
     0
281
     0
  0
CLASS
  1
AEC_DISP_REP_DOOR_PLAN_50
  2
AecDbDispRepDoorPlan50
  3
AecArchDACHBase50|Product Desc: Autodesk Architectural Desktop 2007 |Company: Autodesk,Inc. |WEB Address: www.autodesk.com
 90
    32897
280
     0
281
     0
  0
CLASS
  1
AEC_DISP_PROPS_DOOR_PLAN_50
  2
AecDbDispPropsDoorPlan50
  3
AecArchDACHBase50|Product Desc: Autodesk Architectural Desktop 2007 |Company: Autodesk,Inc. |WEB Address: www.autodesk.com
 90
    32897
280
     0
281
     0
  0
CLASS
  1
AEC_DISP_REP_DOOR_PLAN_HEKTO
  2
AecDbDispRepDoorPlanHekto
  3
AecArchDACHBase50|Product Desc: Autodesk Architectural Desktop 2007 |Company: Autodesk,Inc. |WEB Address: www.autodesk.com
 90
    32897
280
     0
281
     0
  0
CLASS
  1
AEC_DISP_PROPS_DOOR_PLAN_100
  2
AecDbDispPropsDoorPlan100
  3
AecArchDACHBase50|Product Desc: Autodesk Architectural Desktop 2007 |Company: Autodesk,Inc. |WEB Address: www.autodesk.com
 90
    32897
280
     0
281
     0
  0
CLASS
  1
AEC_DISP_REP_DOOR_THRESHOLD_SYMBOL_PLAN
  2
AecDbDispRepDoorThresholdSymbolPlan
  3
AecArchDACHBase50|Product Desc: Autodesk Architectural Desktop 2007 |Company: Autodesk,Inc. |WEB Address: www.autodesk.com
 90
    32897
280
     0
281
     0
  0
CLASS
  1
AEC_DISP_PROPS_DOOR_THRESHOLD_SYMBOL_PLAN
  2
AecDbDispPropsDoorThresholdSymbolPlan
  3
AecArchDACHBase50|Product Desc: Autodesk Architectural Desktop 2007 |Company: Autodesk,Inc. |WEB Address: www.autodesk.com
 90
    32897
280
     0
281
     0
  0
CLASS
  1
AEC_DISPREPAECDBDISPREPMASSELEMPLAN100
  2
AecDbDispRepMassElemPlan100
  3
AecArchDACHBase50|Product Desc: Autodesk Architectural Desktop 2007 |Company: Autodesk,Inc. |WEB Address: www.autodesk.com
 90
    32897
280
     0
281
     0
  0
CLASS
  1
AEC_DISPROPSMASSELEMPLANCOMMON
  2
AecDbDispPropsMassElemPlanCommon
  3
AecArchDACHBase50|Product Desc: Autodesk Architectural Desktop 2007 |Company: Autodesk,Inc. |WEB Address: www.autodesk.com
 90
    32897
280
     0
281
     0
  0
CLASS
  1
AEC_DISPREPAECDBDISPREPMASSELEMPLAN50
  2
AecDbDispRepMassElemPlan50
  3
AecArchDACHBase50|Product Desc: Autodesk Architectural Desktop 2007 |Company: Autodesk,Inc. |WEB Address: www.autodesk.com
 90
    32897
280
     0
281
     0
  0
CLASS
  1
AEC_DISPREPAECDBDISPREPMASSGROUPPLAN100
  2
AecDbDispRepMassGroupPlan100
  3
AecArchDACHBase50|Product Desc: Autodesk Architectural Desktop 2007 |Company: Autodesk,Inc. |WEB Address: www.autodesk.com
 90
    32897
280
     0
281
     0
  0
CLASS
  1
AEC_DISPROPSMASSGROUPPLANCOMMON
  2
AecDbDispPropsMassGroupPlanCommon
  3
AecArchDACHBase50|Product Desc: Autodesk Architectural Desktop 2007 |Company: Autodesk,Inc. |WEB Address: www.autodesk.com
 90
    32897
280
     0
281
     0
  0
CLASS
  1
AEC_DISPREPAECDBDISPREPMASSGROUPPLAN50
  2
AecDbDispRepMassGroupPlan50
  3
AecArchDACHBase50|Product Desc: Autodesk Architectural Desktop 2007 |Company: Autodesk,Inc. |WEB Address: www.autodesk.com
 90
    32897
280
     0
281
     0
  0
CLASS
  1
AEC_DISPREPAECDBDISPREPOPENINGPLAN100
  2
AecDbDispRepOpeningPlan100
  3
AecArchDACHBase50|Product Desc: Autodesk Architectural Desktop 2007 |Company: Autodesk,Inc. |WEB Address: www.autodesk.com
 90
    32897
280
     0
281
     0
  0
CLASS
  1
AEC_DISPROPSOPENINGPLANCOMMONHATCHED
  2
AecDbDispPropsOpeningPlanCommonHatched
  3
AecArchDACHBase50|Product Desc: Autodesk Architectural Desktop 2007 |Company: Autodesk,Inc. |WEB Address: www.autodesk.com
 90
    32897
280
     0
281
     0
  0
CLASS
  1
AEC_DISPREPAECDBDISPREPOPENINGPLAN50
  2
AecDbDispRepOpeningPlan50
  3
AecArchDACHBase50|Product Desc: Autodesk Architectural Desktop 2007 |Company: Autodesk,Inc. |WEB Address: www.autodesk.com
 90
    32897
280
     0
281
     0
  0
CLASS
  1
AEC_DISPREPAECDBDISPREPOPENINGPLANREFLECTED
  2
AecDbDispRepOpeningPlanReflected
  3
AecArchDACHBase50|Product Desc: Autodesk Architectural Desktop 2007 |Company: Autodesk,Inc. |WEB Address: www.autodesk.com
 90
    32897
280
     0
281
     0
  0
CLASS
  1
AEC_DISPROPSOPENINGPLANCOMMON
  2
AecDbDispPropsOpeningPlanCommon
  3
AecArchDACHBase50|Product Desc: Autodesk Architectural Desktop 2007 |Company: Autodesk,Inc. |WEB Address: www.autodesk.com
 90
    32897
280
     0
281
     0
  0
CLASS
  1
AEC_DISPREPAECDBDISPREPOPENINGSILLPLAN
  2
AecDbDispRepOpeningSillPlan
  3
AecArchDACHBase50|Product Desc: Autodesk Architectural Desktop 2007 |Company: Autodesk,Inc. |WEB Address: www.autodesk.com
 90
    32897
280
     0
281
     0
  0
CLASS
  1
AEC_DISPROPSOPENINGSILLPLAN
  2
AecDbDispPropsOpeningSillPlan
  3
AecArchDACHBase50|Product Desc: Autodesk Architectural Desktop 2007 |Company: Autodesk,Inc. |WEB Address: www.autodesk.com
 90
    32897
280
     0
281
     0
  0
CLASS
  1
AEC_DISP_REP_RAILING_PLAN_100
  2
AecDbDispRepRailingPlan100
  3
AecArchDACHBase50|Product Desc: Autodesk Architectural Desktop 2007 |Company: Autodesk,Inc. |WEB Address: www.autodesk.com
 90
    32897
280
     0
281
     0
  0
CLASS
  1
AEC_DISP_ROPS_RAILING_PLAN_100
  2
AecDbDispPropsRailingPlan100
  3
AecArchDACHBase50|Product Desc: Autodesk Architectural Desktop 2007 |Company: Autodesk,Inc. |WEB Address: www.autodesk.com
 90
    32897
280
     0
281
     0
  0
CLASS
  1
AEC_DISP_REP_RAILING_PLAN_50
  2
AecDbDispRepRailingPlan50
  3
AecArchDACHBase50|Product Desc: Autodesk Architectural Desktop 2007 |Company: Autodesk,Inc. |WEB Address: www.autodesk.com
 90
    32897
280
     0
281
     0
  0
CLASS
  1
AEC_DISP_ROPS_RAILING_PLAN_50
  2
AecDbDispPropsRailingPlan50
  3
AecArchDACHBase50|Product Desc: Autodesk Architectural Desktop 2007 |Company: Autodesk,Inc. |WEB Address: www.autodesk.com
 90
    32897
280
     0
281
     0
  0
CLASS
  1
AEC_DISP_REP_STAIR_PLAN_100
  2
AecDbDispRepStairPlan100
  3
AecArchDACHBase50|Product Desc: Autodesk Architectural Desktop 2007 |Company: Autodesk,Inc. |WEB Address: www.autodesk.com
 90
    32897
280
     0
281
     0
  0
CLASS
  1
AEC_DISP_ROPS_STAIR_PLAN_100
  2
AecDbDispPropsStairPlan100
  3
AecArchDACHBase50|Product Desc: Autodesk Architectural Desktop 2007 |Company: Autodesk,Inc. |WEB Address: www.autodesk.com
 90
    32897
280
     0
281
     0
  0
CLASS
  1
AEC_DISP_REP_STAIR_PLAN_50
  2
AecDbDispRepStairPlan50
  3
AecArchDACHBase50|Product Desc: Autodesk Architectural Desktop 2007 |Company: Autodesk,Inc. |WEB Address: www.autodesk.com
 90
    32897
280
     0
281
     0
  0
CLASS
  1
AEC_DISP_ROPS_STAIR_PLAN_50
  2
AecDbDispPropsStairPlan50
  3
AecArchDACHBase50|Product Desc: Autodesk Architectural Desktop 2007 |Company: Autodesk,Inc. |WEB Address: www.autodesk.com
 90
    32897
280
     0
281
     0
  0
CLASS
  1
AEC_DISP_REP_WINDOW_PLAN_100
  2
AecDbDispRepWindowPlan100
  3
AecArchDACHBase50|Product Desc: Autodesk Architectural Desktop 2007 |Company: Autodesk,Inc. |WEB Address: www.autodesk.com
 90
    32897
280
     0
281
     0
  0
CLASS
  1
AEC_DISP_PROPS_WINDOW_PLAN_100
  2
AecDbDispPropsWindowPlan100
  3
AecArchDACHBase50|Product Desc: Autodesk Architectural Desktop 2007 |Company: Autodesk,Inc. |WEB Address: www.autodesk.com
 90
    32897
280
     0
281
     0
  0
CLASS
  1
AEC_DISP_REP_WINDOW_PLAN_50
  2
AecDbDispRepWindowPlan50
  3
AecArchDACHBase50|Product Desc: Autodesk Architectural Desktop 2007 |Company: Autodesk,Inc. |WEB Address: www.autodesk.com
 90
    32897
280
     0
281
     0
  0
CLASS
  1
AEC_DISP_PROPS_WINDOW_PLAN_50
  2
AecDbDispPropsWindowPlan50
  3
AecArchDACHBase50|Product Desc: Autodesk Architectural Desktop 2007 |Company: Autodesk,Inc. |WEB Address: www.autodesk.com
 90
    32897
280
     0
281
     0
  0
CLASS
  1
BINRECORD
  2
AcAecBinRecord
  3
AecBase50|Product Desc: Autodesk Architectural Desktop 2007 |Company: Autodesk,Inc. |WEB Address: www.autodesk.com
 90
    32897
280
     0
281
     0
  0
CLASS
  1
SORTENTSTABLE
  2
AcDbSortentsTable
  3
ObjectDBX Classes
 90
        0
280
     0
281
     0
  0
CLASS
  1
AEC_MASS_ELEM
  2
AecDbMassElem
  3
AecBaseEx50|Product Desc: Autodesk Architectural Desktop 2007 |Company: Autodesk,Inc. |WEB Address: www.autodesk.com
 90
    33661
280
     0
281
     1
  0
CLASS
  1
MATERIAL
  2
AcDbMaterial
  3
ObjectDBX Classes
 90
     1153
280
     0
281
     0
  0
CLASS
  1
AECS_MEMBER
  2
AecsDbMember
  3
AecStructureBase50|Product Desc: Autodesk Architectural Desktop 2007 |Company: Autodesk,Inc. |WEB Address: www.autodesk.com
 90
    33661
280
     0
281
     1
  0
CLASS
  1
AEC_WALL
  2
AecDbWall
  3
AecArchBase50|Product Desc: Autodesk Architectural Desktop 2007 |Company: Autodesk,Inc. |WEB Address: www.autodesk.com
 90
    33661
280
     0
281
     1
  0
CLASS
  1
AEC_DOOR
  2
AecDbDoor
  3
AecArchBase50|Product Desc: Autodesk Architectural Desktop 2007 |Company: Autodesk,Inc. |WEB Address: www.autodesk.com
 90
    33661
280
     0
281
     1
  0
CLASS
  1
AEC_ANCHOR_OPENINGBASE_TO_WALL
  2
AecDbAnchorOpeningBaseToWall
  3
AecArchBase50|Product Desc: Autodesk Architectural Desktop 2007 |Company: Autodesk,Inc. |WEB Address: www.autodesk.com
 90
    32897
280
     0
281
     0
  0
CLASS
  1
AEC_SPACE_BOUNDARY
  2
AecDbSpaceBoundary
  3
AecArchBase50|Product Desc: Autodesk Architectural Desktop 2007 |Company: Autodesk,Inc. |WEB Address: www.autodesk.com
 90
    33661
280
     0
281
     1
  0
CLASS
  1
AEC_SPACE
  2
AecDbSpace
  3
AecArchBase50|Product Desc: Autodesk Architectural Desktop 2007 |Company: Autodesk,Inc. |WEB Address: www.autodesk.com
 90
    33661
280
     0
281
     1
  0
CLASS
  1
AecDbPropertySet
  2
AecDbPropertySet
  3
AecScheduleData50|Product Desc: Autodesk Architectural Desktop 2007 |Company: Autodesk,Inc. |WEB Address: www.autodesk.com
 90
    32897
280
     0
281
     0
  0
CLASS
  1
AEC_MVBLOCK_REF
  2
AecDbMvBlockRef
  3
AecBase50|Product Desc: Autodesk Architectural Desktop 2007 |Company: Autodesk,Inc. |WEB Address: www.autodesk.com
 90
    33661
280
     0
281
     1
  0
CLASS
  1
AEC_ANCHOR_TAG_TO_ENT
  2
AecDbAnchorTagToEnt
  3
AecScheduleData50|Product Desc: Autodesk Architectural Desktop 2007 |Company: Autodesk,Inc. |WEB Address: www.autodesk.com
 90
    32897
280
     0
281
     0
  0
CLASS
  1
AEC_WINDOW
  2
AecDbWindow
  3
AecArchBase50|Product Desc: Autodesk Architectural Desktop 2007 |Company: Autodesk,Inc. |WEB Address: www.autodesk.com
 90
    33661
280
     0
281
     1
  0
CLASS
  1
AEC_OPENING
  2
AecDbOpening
  3
AecArchBase50|Product Desc: Autodesk Architectural Desktop 2007 |Company: Autodesk,Inc. |WEB Address: www.autodesk.com
 90
    33661
280
     0
281
     1
  0
CLASS
  1
AEC_CLASSIFICATION_SYSTEM_DEF
  2
AecDbClassificationSystemDef
  3
AecBase50|Product Desc: Autodesk Architectural Desktop 2007 |Company: Autodesk,Inc. |WEB Address: www.autodesk.com
 90
    32897
280
     0
281
     0
  0
CLASS
  1
AEC_CLASSIFICATION_DEF
  2
AecDbClassificationDef
  3
AecBase50|Product Desc: Autodesk Architectural Desktop 2007 |Company: Autodesk,Inc. |WEB Address: www.autodesk.com
 90
    32897
280
     0
281
     0
  0
CLASS
  1
AEC_CLEANUP_GROUP_DEF
  2
AecDbCleanupGroupDef
  3
AecArchBase50|Product Desc: Autodesk Architectural Desktop 2007 |Company: Autodesk,Inc. |WEB Address: www.autodesk.com
 90
    32897
280
     0
281
     0
  0
CLASS
  1
AEC_DOOR_STYLE
  2
AecDbDoorStyle
  3
AecArchBase50|Product Desc: Autodesk Architectural Desktop 2007 |Company: Autodesk,Inc. |WEB Address: www.autodesk.com
 90
    32897
280
     0
281
     0
  0
CLASS
  1
AEC_STDSIZE_OPENINGS
  2
AecDbStdSizeOpeningList
  3
AecArchBase50|Product Desc: Autodesk Architectural Desktop 2007 |Company: Autodesk,Inc. |WEB Address: www.autodesk.com
 90
    32897
280
     0
281
     0
  0
CLASS
  1
AEC_ENDCAP_STYLE
  2
AecDbEndcapStyle
  3
AecArchBase50|Product Desc: Autodesk Architectural Desktop 2007 |Company: Autodesk,Inc. |WEB Address: www.autodesk.com
 90
    32897
280
     0
281
     0
  0
CLASS
  1
AEC_MASS_ELEM_STYLE
  2
AecDbMassElemStyle
  3
AecBaseEx50|Product Desc: Autodesk Architectural Desktop 2007 |Company: Autodesk,Inc. |WEB Address: www.autodesk.com
 90
    32897
280
     0
281
     0
  0
CLASS
  1
AEC_MATERIAL_DEF
  2
AecDbMaterialDef
  3
AecBase50|Product Desc: Autodesk Architectural Desktop 2007 |Company: Autodesk,Inc. |WEB Address: www.autodesk.com
 90
    32897
280
     0
281
     0
  0
CLASS
  1
AEC_MVBLOCK_DEF
  2
AecDbMvBlockDef
  3
AecBase50|Product Desc: Autodesk Architectural Desktop 2007 |Company: Autodesk,Inc. |WEB Address: www.autodesk.com
 90
    32897
280
     0
281
     0
  0
CLASS
  1
AEC_FRAME_DEF
  2
AecDbOpeningEndcapStyle
  3
AecArchBase50|Product Desc: Autodesk Architectural Desktop 2007 |Company: Autodesk,Inc. |WEB Address: www.autodesk.com
 90
    32897
280
     0
281
     0
  0
CLASS
  1
AEC_PROFILE_DEF
  2
AecDbProfileDef
  3
AecBase50|Product Desc: Autodesk Architectural Desktop 2007 |Company: Autodesk,Inc. |WEB Address: www.autodesk.com
 90
    32897
280
     0
281
     0
  0
CLASS
  1
AEC_SCHEDULE_DATA_FORMAT
  2
AecDbScheduleDataFormat
  3
AecScheduleData50|Product Desc: Autodesk Architectural Desktop 2007 |Company: Autodesk,Inc. |WEB Address: www.autodesk.com
 90
    32897
280
     0
281
     0
  0
CLASS
  1
AEC_PROPERTY_SET_DEF
  2
AecDbPropertySetDef
  3
AecScheduleData50|Product Desc: Autodesk Architectural Desktop 2007 |Company: Autodesk,Inc. |WEB Address: www.autodesk.com
 90
    32897
280
     0
281
     0
  0
CLASS
  1
AEC_SPACE_STYLES
  2
AecDbSpaceStyle
  3
AecArchBase50|Product Desc: Autodesk Architectural Desktop 2007 |Company: Autodesk,Inc. |WEB Address: www.autodesk.com
 90
    32897
280
     0
281
     0
  0
CLASS
  1
AEC_TEXT_NOTE
  2
AecDbTextNote
  3
AecBase50|Product Desc: Autodesk Architectural Desktop 2007 |Company: Autodesk,Inc. |WEB Address: www.autodesk.com
 90
    32897
280
     0
281
     0
  0
CLASS
  1
AECS_MEMBER_STYLE
  2
AecsDbMemberStyle
  3
AecStructureBase50|Product Desc: Autodesk Architectural Desktop 2007 |Company: Autodesk,Inc. |WEB Address: www.autodesk.com
 90
    32897
280
     0
281
     0
  0
CLASS
  1
AEC_VARS_STRUCTUREBASE
  2
AecsDbVarsStructureBase
  3
AecStructureBase50|Product Desc: Autodesk Architectural Desktop 2007 |Company: Autodesk,Inc. |WEB Address: www.autodesk.com
 90
    32897
280
     0
281
     0
  0
CLASS
  1
AEC_WALL_STYLE
  2
AecDbWallStyle
  3
AecArchBase50|Product Desc: Autodesk Architectural Desktop 2007 |Company: Autodesk,Inc. |WEB Address: www.autodesk.com
 90
    32897
280
     0
281
     0
  0
CLASS
  1
AEC_WINDOW_STYLE
  2
AecDbWindowStyle
  3
AecArchBase50|Product Desc: Autodesk Architectural Desktop 2007 |Company: Autodesk,Inc. |WEB Address: www.autodesk.com
 90
    32897
280
     0
281
     0
  0
CLASS
  1
AECS_MEMBER_NODE_SHAPE
  2
AecsDbMemberNodeShape
  3
AecStructureBase50|Product Desc: Autodesk Architectural Desktop 2007 |Company: Autodesk,Inc. |WEB Address: www.autodesk.com
 90
    32897
280
     0
281
     0
  0
CLASS
  1
AEC_SCHEDULE_TABLE
  2
AecDbScheduleTable
  3
AecSchedule50|Product Desc: Autodesk Architectural Desktop 2007 |Company: Autodesk,Inc. |WEB Address: www.autodesk.com
 90
    33661
280
     0
281
     1
  0
CLASS
  1
AEC_SCHEDULE_TABLE_STYLE
  2
AecDbScheduleTableStyle
  3
AecSchedule50|Product Desc: Autodesk Architectural Desktop 2007 |Company: Autodesk,Inc. |WEB Address: www.autodesk.com
 90
    32897
280
     0
281
     0
  0
CLASS
  1
AEC_ANCHOR_MVB_TO_UCS
  2
AecDbAnchorMVBToUCS
  3
AecBase50|Product Desc: Autodesk Architectural Desktop 2007 |Company: Autodesk,Inc. |WEB Address: www.autodesk.com
 90
    32897
280
     0
281
     0
  0
CLASS
  1
IMAGEDEF
  2
AcDbRasterImageDef
  3
ISM
 90
    32768
280
     0
281
     0
  0
CLASS
  1
AEC_ANCHOR_ENT_TO_GRID_ASSEMBLY
  2
AecDbAnchorEntToGridAssembly
  3
AecBase50|Product Desc: Autodesk Architectural Desktop 2007 |Company: Autodesk,Inc. |WEB Address: www.autodesk.com
 90
    32897
280
     0
281
     0
  0
CLASS
  1
AEC_WINDOW_ASSEMBLY
  2
AecDbWindowAssembly
  3
AecArchBase50|Product Desc: Autodesk Architectural Desktop 2007 |Company: Autodesk,Inc. |WEB Address: www.autodesk.com
 90
    33661
280
     0
281
     1
  0
CLASS
  1
AEC_ANCHOR_WINASSEMBLY_TO_WALL
  2
AecDbAnchorWinAssemblyToWall
  3
AecArchBase50|Product Desc: Autodesk Architectural Desktop 2007 |Company: Autodesk,Inc. |WEB Address: www.autodesk.com
 90
    32897
280
     0
281
     0
  0
CLASS
  1
AEC_STAIR
  2
AecDbStair
  3
AecArchBase50|Product Desc: Autodesk Architectural Desktop 2007 |Company: Autodesk,Inc. |WEB Address: www.autodesk.com
 90
    33661
280
     0
281
     1
  0
CLASS
  1
AEC_RAILING
  2
AecDbRailing
  3
AecArchBase50|Product Desc: Autodesk Architectural Desktop 2007 |Company: Autodesk,Inc. |WEB Address: www.autodesk.com
 90
    33661
280
     0
281
     1
  0
CLASS
  1
AEC_ANCHOR_RAILING_TO_STAIR
  2
AecDbAnchorRailingToStair
  3
AecArchBase50|Product Desc: Autodesk Architectural Desktop 2007 |Company: Autodesk,Inc. |WEB Address: www.autodesk.com
 90
    32897
280
     0
281
     0
  0
CLASS
  1
AEC_RAILING_STYLE
  2
AecDbRailingStyle
  3
AecArchBase50|Product Desc: Autodesk Architectural Desktop 2007 |Company: Autodesk,Inc. |WEB Address: www.autodesk.com
 90
    32897
280
     0
281
     0
  0
CLASS
  1
AEC_STAIR_STYLE
  2
AecDbStairStyle
  3
AecArchBase50|Product Desc: Autodesk Architectural Desktop 2007 |Company: Autodesk,Inc. |WEB Address: www.autodesk.com
 90
    32897
280
     0
281
     0
  0
CLASS
  1
AEC_STAIR_WINDER_STYLE
  2
AecDbStairWinderStyle
  3
AecArchBase50|Product Desc: Autodesk Architectural Desktop 2007 |Company: Autodesk,Inc. |WEB Address: www.autodesk.com
 90
    32897
280
     0
281
     0
  0
CLASS
  1
AEC_STAIR_WINDER_TYPE_SINGLE_POINT
  2
AecDbStairWinderTypeSinglePoint
  3
AecArchBase50|Product Desc: Autodesk Architectural Desktop 2007 |Company: Autodesk,Inc. |WEB Address: www.autodesk.com
 90
    32897
280
     0
281
     0
  0
CLASS
  1
AEC_WINDOW_ASSEMBLY_STYLE
  2
AecDbWindowAssemblyStyle
  3
AecArchBase50|Product Desc: Autodesk Architectural Desktop 2007 |Company: Autodesk,Inc. |WEB Address: www.autodesk.com
 90
    32897
280
     0
281
     0
  0
CLASS
  1
AEC_AECDBAREASTYLE
  2
AecDbAreaStyle
  3
AecAreaCalculationBase50|Product Desc: Autodesk Architectural Desktop 2007 |Company: Autodesk,Inc. |WEB Address: www.autodesk.com
 90
    32897
280
     0
281
     0
  0
CLASS
  1
AEC_AECDBAREAPROPOSALNAMES
  2
AecDbAreaProposalNames
  3
AecAreaCalculationBase50|Product Desc: Autodesk Architectural Desktop 2007 |Company: Autodesk,Inc. |WEB Address: www.autodesk.com
 90
    32897
280
     0
281
     0
  0
CLASS
  1
AEC_AREA
  2
AecDbArea
  3
AecAreaCalculationBase50|Product Desc: Autodesk Architectural Desktop 2007 |Company: Autodesk,Inc. |WEB Address: www.autodesk.com
 90
    33661
280
     0
281
     1
  0
CLASS
  1
OBJECT_PTR
  2
CAseDLPNTableRecord
  3
ASE-LPNTableRecord
 90
    32769
280
     1
281
     0
  0
CLASS
  1
TABLESTYLE
  2
AcDbTableStyle
  3
ObjectDBX Classes
 90
     4095
280
     0
281
     0
  0
CLASS
  1
AEC_DISP_REP_DISPLAYTHEME
  2
AecDbDispRepDisplayTheme
  3
AecBase50|Product Desc: Autodesk Architectural Desktop 2007 |Company: Autodesk,Inc. |WEB Address: www.autodesk.com
 90
    32897
280
     0
281
     0
  0
CLASS
  1
AEC_DISP_PROPS_DISPLAYTHEME
  2
AecDbDispPropsDisplayTheme
  3
AecBase50|Product Desc: Autodesk Architectural Desktop 2007 |Company: Autodesk,Inc. |WEB Address: www.autodesk.com
 90
    32897
280
     0
281
     0
  0
CLASS
  1
AEC_DISP_REP_ANCHOR_EXT_TAG_TO_ENT
  2
AecDbDispRepAnchorExtendedTagToEnt
  3
AecScheduleData50|Product Desc: Autodesk Architectural Desktop 2007 |Company: Autodesk,Inc. |WEB Address: www.autodesk.com
 90
    32897
280
     0
281
     0
  0
CLASS
  1
VISUALSTYLE
  2
AcDbVisualStyle
  3
ObjectDBX Classes
 90
     4095
280
     0
281
     0
  0
CLASS
  1
AEC_AECDBDISPREPZONE100
  2
AecDbDispRepZonePlan100
  3
AecArchDACHBase50|Product Desc: Autodesk Architectural Desktop 2007 |Company: Autodesk,Inc. |WEB Address: www.autodesk.com
 90
    32897
280
     0
281
     0
  0
CLASS
  1
AEC_DISP_PROPS_ZONE
  2
AecDbDispPropsZone
  3
AecArchBase50|Product Desc: Autodesk Architectural Desktop 2007 |Company: Autodesk,Inc. |WEB Address: www.autodesk.com
 90
    32897
280
     0
281
     0
  0
CLASS
  1
AEC_AECDBDISPREPZONE50
  2
AecDbDispRepZonePlan50
  3
AecArchDACHBase50|Product Desc: Autodesk Architectural Desktop 2007 |Company: Autodesk,Inc. |WEB Address: www.autodesk.com
 90
    32897
280
     0
281
     0
  0
CLASS
  1
AEC_DISP_REP_SPACE_DECOMPOSED
  2
AecDbDispRepSpaceDecomposed
  3
AecArchBase50|Product Desc: Autodesk Architectural Desktop 2007 |Company: Autodesk,Inc. |WEB Address: www.autodesk.com
 90
    32897
280
     0
281
     0
  0
CLASS
  1
AEC_DISP_PROPS_SPACE_DECOMPOSED
  2
AecDbDispPropsSpaceDecomposed
  3
AecArchBase50|Product Desc: Autodesk Architectural Desktop 2007 |Company: Autodesk,Inc. |WEB Address: www.autodesk.com
 90
    32897
280
     0
281
     0
  0
CLASS
  1
AEC_DISP_REP_ZONE
  2
AecDbDispRepZone
  3
AecArchBase50|Product Desc: Autodesk Architectural Desktop 2007 |Company: Autodesk,Inc. |WEB Address: www.autodesk.com
 90
    32897
280
     0
281
     0
  0
CLASS
  1
AEC_LIST_DEF
  2
AecDbListDefinition
  3
AecBase50|Product Desc: Autodesk Architectural Desktop 2007 |Company: Autodesk,Inc. |WEB Address: www.autodesk.com
 90
    32897
280
     0
281
     0
  0
CLASS
  1
EXACXREFPANELOBJECT
  2
ExAcXREFPanelObject
  3
EXAC_ESW
 90
    33793
280
     1
281
     0
  0
CLASS
  1
NPOCOLLECTION
  2
AcDbImpNonPersistentObjectsCollection
  3
ObjectDBX Classes
 90
    33921
280
     0
281
     0
  0
CLASS
  1
ACAD_EVALUATION_GRAPH
  2
AcDbEvalGraph
  3
ObjectDBX Classes
 90
    33921
280
     0
281
     0
  0
CLASS
  1
BLOCKLINEARPARAMETER
  2
AcDbBlockLinearParameter
  3
ObjectDBX Classes
 90
    33921
280
     0
281
     0
  0
CLASS
  1
BLOCKLINEARGRIP
  2
AcDbBlockLinearGrip
  3
ObjectDBX Classes
 90
    33921
280
     0
281
     0
  0
CLASS
  1
BLOCKGRIPLOCATIONCOMPONENT
  2
AcDbBlockGripExpr
  3
ObjectDBX Classes
 90
    33921
280
     0
281
     0
  0
CLASS
  1
BLOCKSTRETCHACTION
  2
AcDbBlockStretchAction
  3
ObjectDBX Classes
 90
    33921
280
     0
281
     0
  0
CLASS
  1
BLOCKFLIPPARAMETER
  2
AcDbBlockFlipParameter
  3
ObjectDBX Classes
 90
    33921
280
     0
281
     0
  0
CLASS
  1
BLOCKFLIPGRIP
  2
AcDbBlockFlipGrip
  3
ObjectDBX Classes
 90
    33921
280
     0
281
     0
  0
CLASS
  1
BLOCKFLIPACTION
  2
AcDbBlockFlipAction
  3
ObjectDBX Classes
 90
    33921
280
     0
281
     0
  0
CLASS
  1
ACDB_DYNAMICBLOCKPURGEPREVENTER_VERSION
  2
AcDbDynamicBlockPurgePreventer
  3
ObjectDBX Classes
 90
    33921
280
     0
281
     0
  0
CLASS
  1
ACDB_BLOCKREPRESENTATION_DATA
  2
AcDbBlockRepresentationData
  3
ObjectDBX Classes
 90
    33921
280
     0
281
     0
  0
CLASS
  1
AEC_SLAB
  2
AecDbSlab
  3
AecArchBase50|Product Desc: Autodesk Architectural Desktop 2007 |Company: Autodesk,Inc. |WEB Address: www.autodesk.com
 90
    33661
280
     0
281
     1
  0
CLASS
  1
AEC_LIST_DEF
  2
AecDbListItem
  3
AecBase50|Product Desc: Autodesk Architectural Desktop 2007 |Company: Autodesk,Inc. |WEB Address: www.autodesk.com
 90
    32897
280
     0
281
     0
  0
CLASS
  1
AEC_ROOFSLAB_STYLE
  2
AecDbRoofSlabStyle
  3
AecArchBase50|Product Desc: Autodesk Architectural Desktop 2007 |Company: Autodesk,Inc. |WEB Address: www.autodesk.com
 90
    32897
280
     0
281
     0
  0
CLASS
  1
AEC_ROOFSLABEDGE_STYLE
  2
AecDbRoofSlabEdgeStyle
  3
AecArchBase50|Product Desc: Autodesk Architectural Desktop 2007 |Company: Autodesk,Inc. |WEB Address: www.autodesk.com
 90
    32897
280
     0
281
     0
  0
CLASS
  1
AEC_SLAB_STYLE
  2
AecDbSlabStyle
  3
AecArchBase50|Product Desc: Autodesk Architectural Desktop 2007 |Company: Autodesk,Inc. |WEB Address: www.autodesk.com
 90
    32897
280
     0
281
     0
  0
CLASS
  1
AEC_SLABEDGE_STYLE
  2
AecDbSlabEdgeStyle
  3
AecArchBase50|Product Desc: Autodesk Architectural Desktop 2007 |Company: Autodesk,Inc. |WEB Address: www.autodesk.com
 90
    32897
280
     0
281
     0
  0
CLASS
  1
EXACTERMXREFMAP
  2
ExAcTermXrefMap
  3
EXAC_SERVICE
 90
    33793
280
     1
281
     0
  0
CLASS
  1
AEC_AECDBZONESTYLE
  2
AecDbZoneStyle
  3
AecArchBase50|Product Desc: Autodesk Architectural Desktop 2007 |Company: Autodesk,Inc. |WEB Address: www.autodesk.com
 90
    32897
280
     0
281
     0
  0
CLASS
  1
AEC_ZONE
  2
AecDbZone
  3
AecArchBase50|Product Desc: Autodesk Architectural Desktop 2007 |Company: Autodesk,Inc. |WEB Address: www.autodesk.com
 90
    33661
280
     0
281
     1
  0
CLASS
  1
ACAD_TABLE
  2
AcDbTable
  3
ObjectDBX Classes
 90
    33793
280
     0
281
     1
  0
CLASS
  1
AEC_DISPLAYTHEME_STYLE
  2
AecDbDisplayThemeStyle
  3
AecBase50|Product Desc: Autodesk Architectural Desktop 2007 |Company: Autodesk,Inc. |WEB Address: www.autodesk.com
 90
    32897
280
     0
281
     0
  0
CLASS
  1
DIMASSOC
  2
AcDbDimAssoc
  3
"AcDbDimAssoc|Product Desc:     AcDim ARX App For Dimension|Company:          Autodesk, Inc.|WEB Address:      www.autodesk.com"
 90
    32768
280
     0
281
     0
  0
CLASS
  1
AEC_MASS_GROUP
  2
AecDbMassGroup
  3
AecBaseEx50|Product Desc: Autodesk Architectural Desktop 2007 |Company: Autodesk,Inc. |WEB Address: www.autodesk.com
 90
    33661
280
     0
281
     1
  0
CLASS
  1
AEC_ANCHOR_ENT_TO_ENT
  2
AecDbAnchorEntToEnt
  3
AecBase50|Product Desc: Autodesk Architectural Desktop 2007 |Company: Autodesk,Inc. |WEB Address: www.autodesk.com
 90
    32897
280
     0
281
     0
  0
CLASS
  1
AEC_2D_SECTION
  2
AecDb2dSection
  3
AecBase50|Product Desc: Autodesk Architectural Desktop 2007 |Company: Autodesk,Inc. |WEB Address: www.autodesk.com
 90
    33661
280
     0
281
     1
  0
CLASS
  1
AEC_2DSECTION_STYLE
  2
AecDb2dSectionStyle
  3
AecBase50|Product Desc: Autodesk Architectural Desktop 2007 |Company: Autodesk,Inc. |WEB Address: www.autodesk.com
 90
    32897
280
     0
281
     0
  0
CLASS
  1
SCALE
  2
AcDbScale
  3
ObjectDBX Classes
 90
     1153
280
     0
281
     0
  0
CLASS
  1
MLEADERSTYLE
  2
AcDbMLeaderStyle
  3
ACDB_MLEADERSTYLE_CLASS
 90
     4095
280
     0
281
     0
  0
CLASS
  1
AEC_REFEDIT_STATUS_TRACKER
  2
AecDbRefEditStatusTracker
  3
AecArchBase50|Product Desc: Autodesk Architectural Desktop 2007 |Company: Autodesk,Inc. |WEB Address: www.autodesk.com
 90
    32897
280
     0
281
     0
  0
CLASS
  1
CELLSTYLEMAP
  2
AcDbCellStyleMap
  3
ObjectDBX Classes
 90
     1152
280
     0
281
     0
  0
CLASS
  1
BLOCKARRAYACTION
  2
AcDbBlockArrayAction
  3
ObjectDBX Classes
 90
    33921
280
     0
281
     0
  0
CLASS
  1
BLOCKBASEPOINTPARAMETER
  2
AcDbBlockBasepointParameter
  3
ObjectDBX Classes
 90
    33921
280
     0
281
     0
  0
CLASS
  1
SOLID_BACKGROUND
  2
AcDbSolidBackground
  3
SCENEOE
 90
    36863
280
     0
281
     0
  0
ENDSEC
  0
SECTION
  2
TABLES
  0
TABLE
  2
VPORT
  5
28
330
0
100
AcDbSymbolTable
 70
     1
  0
VPORT
  5
29
330
28
100
AcDbSymbolTableRecord
100
AcDbViewportTableRecord
  2
*Active
 70
     0
 10
0.0
 20
0.0
 11
1.0
 21
1.0
 12
62793.5087215711
 22
-4882.673595227812
 13
-3534.953416816247
 23
4038.000000000049
 14
1.0
 24
1.0
 15
1.0
 25
1.0
 16
0.0
 26
0.0
 36
1.0
 17
0.0
 27
0.0
 37
0.0
 40
21291.59950404431
 41
1.612947658402203
 42
50.0
 43
0.0
 44
0.0
 50
0.0
 51
0.0
 71
     0
 72
  2000
 73
     1
 74
     1
 75
     0
 76
     0
 77
     0
 78
     0
281
     0
 65
     1
110
0.0
120
0.0
130
0.0
111
1.0
121
0.0
131
0.0
112
0.0
122
1.0
132
0.0
 79
     0
146
0.0
  0
ENDTAB
  0
TABLE
  2
LTYPE
  5
23
330
0
100
AcDbSymbolTable
 70
     3
  0
LTYPE
  5
24
330
23
100
AcDbSymbolTableRecord
100
AcDbLinetypeTableRecord
  2
BYBLOCK
 70
     0
  3

 72
    65
 73
     0
 40
0.0
  0
LTYPE
  5
25
330
23
100
AcDbSymbolTableRecord
100
AcDbLinetypeTableRecord
  2
BYLAYER
 70
     0
  3

 72
    65
 73
     0
 40
0.0
  0
LTYPE
  5
E
330
23
100
AcDbSymbolTableRecord
100
AcDbLinetypeTableRecord
  2
CONTINUOUS
 70
     0
  3
Solid line
 72
    65
 73
     0
 40
0.0
  0
LTYPE
  5
77
330
23
100
AcDbSymbolTableRecord
100
AcDbLinetypeTableRecord
  2
DASHED
 70
     0
  3
Dashed __ __ __ __ __ __ __ __ __ __ __ __ __ _
 72
    65
 73
     2
 40
0.75
 49
0.5
 74
     0
 49
-0.25
 74
     0
  0
ENDTAB
  0
TABLE
  2
LAYER
  5
1D
102
{ACAD_XDICTIONARY
360
1E
102
}
330
0
100
AcDbSymbolTable
 70
    11
  0
LAYER
  5
6
102
{ACAD_XDICTIONARY
360
7
102
}
330
1D
100
AcDbSymbolTableRecord
100
AcDbLayerTableRecord
  2
0
 70
     0
 62
     7
  6
CONTINUOUS
370
    -3
390
9
1001
RAK
1000
{ACET-LAYISO
1070
     0
1070
     7
1000
CONTINUOUS
1070
     1
1071
       -3
1071
        1
1005
9
1000
ACET-LAYISO}
  0
LAYER
  5
74
102
{ACAD_XDICTIONARY
360
75
102
}
330
1D
100
AcDbSymbolTableRecord
100
AcDbLayerTableRecord
  2
NAPISY
 70
     0
 62
   140
  6
CONTINUOUS
370
    -3
390
9
1001
RAK
1000
{ACET-LAYISO
1070
     0
1070
   140
1000
CONTINUOUS
1071
       -3
1071
        1
1005
9
1000
ACET-LAYISO}
  0
LAYER
  5
3B5
330
1D
100
AcDbSymbolTableRecord
100
AcDbLayerTableRecord
  2
Defpoints
 70
     0
 62
     7
  6
CONTINUOUS
290
     0
370
    -3
390
9
1001
RAK
1000
{ACET-LAYISO
1070
     0
1070
     7
1000
CONTINUOUS
1071
       -3
1071
        0
1005
9
1000
ACET-LAYISO}
  0
LAYER
  5
56
102
{ACAD_XDICTIONARY
360
57
102
}
330
1D
100
AcDbSymbolTableRecord
100
AcDbLayerTableRecord
  2
0Wymiary-PL
 70
     0
 62
     1
  6
CONTINUOUS
370
     5
390
9
  0
LAYER
  5
3A3
102
{ACAD_XDICTIONARY
360
3A4
102
}
330
1D
100
AcDbSymbolTableRecord
100
AcDbLayerTableRecord
  2
0Hatch
 70
     0
 62
   122
  6
CONTINUOUS
370
     5
390
9
  0
LAYER
  5
7E
102
{ACAD_XDICTIONARY
360
7F
102
}
330
1D
100
AcDbSymbolTableRecord
100
AcDbLayerTableRecord
  2
RAMKI-A4
 70
     0
 62
     2
  6
CONTINUOUS
290
     0
370
    -3
390
9
1001
RAK
1000
{ACET-LAYISO
1070
     0
1070
     2
1000
Continuous
1071
       -3
1071
        0
1005
9
1000
ACET-LAYISO}
  0
LAYER
  5
1C74
330
1D
100
AcDbSymbolTableRecord
100
AcDbLayerTableRecord
  2
A-MassElement-G
 70
     0
 62
   210
  6
CONTINUOUS
370
    -3
390
9
  0
ENDTAB
  0
TABLE
  2
STYLE
  5
20
330
0
100
AcDbSymbolTable
 70
     5
  0
STYLE
  5
21
330
20
100
AcDbSymbolTableRecord
100
AcDbTextStyleTableRecord
  2
STANDARD
 70
     0
 40
0.0
 41
1.0
 50
0.0
 71
     0
 42
0.2
  3
txt
  4

  0
STYLE
  5
2E
330
20
100
AcDbSymbolTableRecord
100
AcDbTextStyleTableRecord
  2
ROMANS
 70
     0
 40
0.0
 41
0.9
 50
0.0
 71
     0
 42
5.0
  3
romans.shx
  4

  0
STYLE
  5
79
330
20
100
AcDbSymbolTableRecord
100
AcDbTextStyleTableRecord
  2
AVA
 70
     0
 40
0.0
 41
1.0
 50
0.0
 71
     0
 42
20.0
  3
ARIAL.TTF
  4

1001
ACAD
1000
Arial CE
1071
    60962
  0
ENDTAB
  0
TABLE
  2
VIEW
  5
26
330
0
100
AcDbSymbolTable
 70
     1
  0
VIEW
  5
13
330
26
100
AcDbSymbolTableRecord
100
AcDbViewTableRecord
  2
10-ele
 70
     0
 40
2040.000000000001
 10
597.6361962217097
 20
4133.999999999996
 41
2803.999999999998
 11
0.0
 21
0.0
 31
1.0
 12
0.0
 22
0.0
 32
0.0
 42
50.0
 43
0.0
 44
0.0
 50
0.0
 71
     0
281
     0
 72
     1
110
0.0
120
0.0
130
0.0
111
1.0
121
0.0
131
0.0
112
0.0
122
1.0
132
0.0
 79
     0
146
0.0
  0
ENDTAB
  0
TABLE
  2
UCS
  5
27
330
0
100
AcDbSymbolTable
 70
     0
  0
ENDTAB
  0
TABLE
  2
APPID
  5
2A
330
0
100
AcDbSymbolTable
 70
     6
  0
APPID
  5
2B
330
2A
100
AcDbSymbolTableRecord
100
AcDbRegAppTableRecord
  2
ACAD
 70
     0
  0
APPID
  5
F
330
2A
100
AcDbSymbolTableRecord
100
AcDbRegAppTableRecord
  2
RAK
 70
     0
  0
APPID
  5
16
330
2A
100
AcDbSymbolTableRecord
100
AcDbRegAppTableRecord
  2
ACAD_PSEXT
 70
     0
  0
APPID
  5
7AA
330
2A
100
AcDbSymbolTableRecord
100
AcDbRegAppTableRecord
  2
ACAD_MLEADERVER
 70
     0
  0
APPID
  5
B8E
330
2A
100
AcDbSymbolTableRecord
100
AcDbRegAppTableRecord
  2
ACAD_EXEMPT_FROM_CAD_STANDARDS
 70
     0
  0
APPID
  5
132A
330
2A
100
AcDbSymbolTableRecord
100
AcDbRegAppTableRecord
  2
AcAecLayerStandard
 70
     0
  0
ENDTAB
  0
TABLE
  2
DIMSTYLE
  5
2C
330
0
100
AcDbSymbolTable
 70
     7
100
AcDbDimStyleTable
 71
     2
340
2D
340
4C
  0
DIMSTYLE
105
4C
330
2C
100
AcDbSymbolTableRecord
100
AcDbDimStyleTableRecord
  2
Standard
 70
     0
340
21
  0
DIMSTYLE
105
2D
102
{ACAD_REACTORS
330
1D55
330
1D67
330
1D72
330
1D7D
330
1D88
330
1DA1
330
1DBA
330
1DC5
330
1DD7
330
1DE9
330
1DF4
330
1E1C
330
1E2E
330
1E39
330
1F2E
330
1F2F
330
1F30
330
1F31
330
1F32
330
1F33
330
1F34
330
1F35
330
1F36
330
1F29
330
1F2A
330
1F2B
330
1F2C
330
1F2D
102
}
330
2C
100
AcDbSymbolTableRecord
100
AcDbDimStyleTableRecord
  2
500
 70
     0
 41
30.0
 42
43.0
 43
0.0
 44
13.0
 45
0.5
 46
12.0
 73
     0
 74
     0
 75
     1
 76
     1
 78
    12
140
80.0
141
0.0
145
1.0
147
0.0
172
     1
174
     1
176
     1
177
     1
178
   140
271
     1
272
     1
279
     2
340
2E
341
2F
342
2F
  0
ENDTAB
  0
TABLE
  2
BLOCK_RECORD
  5
1
330
0
100
AcDbSymbolTable
 70
    54
  0
BLOCK_RECORD
  5
2
102
{ACAD_XDICTIONARY
360
3
102
}
330
1
100
AcDbSymbolTableRecord
100
AcDbBlockTableRecord
  2
*MODEL_SPACE
340
11
  0
BLOCK_RECORD
  5
1942
330
1
100
AcDbSymbolTableRecord
100
AcDbBlockTableRecord
  2
*Paper_Space
340
1943
  0
BLOCK_RECORD
  5
2F
102
{ACAD_XDICTIONARY
360
30
102
}
330
1
100
AcDbSymbolTableRecord
100
AcDbBlockTableRecord
  2
B-DIM
340
0
102
{BLKREFS
331
1BB3
331
1BB4
331
1BBA
331
1BBB
331
1BC1
331
1BC2
331
1BCF
331
1BD0
331
1BD6
331
1BD7
331
1BDD
331
1BDE
331
1BE6
331
1BE7
331
1BF6
331
1BF7
331
1BFD
331
1BFE
331
1C04
331
1C05
331
1C0B
331
1C0C
331
1C14
331
1C15
331
1C22
331
1C23
331
1C29
331
1C2A
331
1C34
331
1C35
331
1C3D
331
1C3E
331
1C46
331
1C47
331
1C4D
331
1C4E
331
1E57
331
1E58
331
1E5E
331
1E5F
331
1E65
331
1E66
331
1E6C
331
1E6D
331
1E73
331
1E74
331
1E7A
331
1E7B
331
1E81
331
1E82
331
1E88
331
1E89
331
1E8F
331
1E90
331
1E96
331
1E97
331
1E9F
331
1EA0
331
1EA6
331
1EA7
331
1EAD
331
1EAE
331
1EB4
331
1EB5
331
1EBB
331
1EBC
331
1EC2
331
1EC3
331
1FC6
331
1FC7
331
1FCD
331
1FCE
331
1FD4
331
1FD5
331
1FDB
331
1FDC
331
1FE2
331
1FE3
331
1FEB
331
1FEC
331
1FF2
331
1FF3
331
1FF9
331
1FFA
331
2000
331
2001
331
2007
331
2008
331
200E
331
200F
331
2015
331
2016
331
201C
331
201D
331
2023
331
2024
102
}
  0
BLOCK_RECORD
  5
1D56
330
1
100
AcDbSymbolTableRecord
100
AcDbBlockTableRecord
  2
*D23
340
0
  0
BLOCK_RECORD
  5
1D68
330
1
100
AcDbSymbolTableRecord
100
AcDbBlockTableRecord
  2
*D24
340
0
  0
BLOCK_RECORD
  5
1D73
330
1
100
AcDbSymbolTableRecord
100
AcDbBlockTableRecord
  2
*D25
340
0
  0
BLOCK_RECORD
  5
1D7E
330
1
100
AcDbSymbolTableRecord
100
AcDbBlockTableRecord
  2
*D26
340
0
  0
BLOCK_RECORD
  5
1D89
330
1
100
AcDbSymbolTableRecord
100
AcDbBlockTableRecord
  2
*D27
340
0
  0
BLOCK_RECORD
  5
1DA2
330
1
100
AcDbSymbolTableRecord
100
AcDbBlockTableRecord
  2
*D28
340
0
  0
BLOCK_RECORD
  5
1DBB
330
1
100
AcDbSymbolTableRecord
100
AcDbBlockTableRecord
  2
*D29
340
0
  0
BLOCK_RECORD
  5
1DC6
330
1
100
AcDbSymbolTableRecord
100
AcDbBlockTableRecord
  2
*D30
340
0
  0
BLOCK_RECORD
  5
1DD8
330
1
100
AcDbSymbolTableRecord
100
AcDbBlockTableRecord
  2
*D31
340
0
  0
BLOCK_RECORD
  5
1DEA
330
1
100
AcDbSymbolTableRecord
100
AcDbBlockTableRecord
  2
*D32
340
0
  0
BLOCK_RECORD
  5
1DF5
330
1
100
AcDbSymbolTableRecord
100
AcDbBlockTableRecord
  2
*D33
340
0
  0
BLOCK_RECORD
  5
1E1D
330
1
100
AcDbSymbolTableRecord
100
AcDbBlockTableRecord
  2
*D35
340
0
  0
BLOCK_RECORD
  5
1E2F
330
1
100
AcDbSymbolTableRecord
100
AcDbBlockTableRecord
  2
*D36
340
0
  0
BLOCK_RECORD
  5
1E3A
330
1
100
AcDbSymbolTableRecord
100
AcDbBlockTableRecord
  2
*D37
340
0
  0
BLOCK_RECORD
  5
1F37
330
1
100
AcDbSymbolTableRecord
100
AcDbBlockTableRecord
  2
*D39
340
0
  0
BLOCK_RECORD
  5
1F41
330
1
100
AcDbSymbolTableRecord
100
AcDbBlockTableRecord
  2
*D40
340
0
  0
BLOCK_RECORD
  5
1F4B
330
1
100
AcDbSymbolTableRecord
100
AcDbBlockTableRecord
  2
*D41
340
0
  0
BLOCK_RECORD
  5
1F55
330
1
100
AcDbSymbolTableRecord
100
AcDbBlockTableRecord
  2
*D42
340
0
  0
BLOCK_RECORD
  5
1F5F
330
1
100
AcDbSymbolTableRecord
100
AcDbBlockTableRecord
  2
*D43
340
0
  0
BLOCK_RECORD
  5
1F69
330
1
100
AcDbSymbolTableRecord
100
AcDbBlockTableRecord
  2
*D44
340
0
  0
BLOCK_RECORD
  5
1F75
330
1
100
AcDbSymbolTableRecord
100
AcDbBlockTableRecord
  2
*D45
340
0
  0
BLOCK_RECORD
  5
1F7F
330
1
100
AcDbSymbolTableRecord
100
AcDbBlockTableRecord
  2
*D46
340
0
  0
BLOCK_RECORD
  5
1F89
330
1
100
AcDbSymbolTableRecord
100
AcDbBlockTableRecord
  2
*D47
340
0
  0
BLOCK_RECORD
  5
1F93
330
1
100
AcDbSymbolTableRecord
100
AcDbBlockTableRecord
  2
*D48
340
0
  0
BLOCK_RECORD
  5
1F9D
330
1
100
AcDbSymbolTableRecord
100
AcDbBlockTableRecord
  2
*D49
340
0
  0
BLOCK_RECORD
  5
1FA7
330
1
100
AcDbSymbolTableRecord
100
AcDbBlockTableRecord
  2
*D50
340
0
  0
BLOCK_RECORD
  5
1FB1
330
1
100
AcDbSymbolTableRecord
100
AcDbBlockTableRecord
  2
*D51
340
0
  0
BLOCK_RECORD
  5
1FBB
330
1
100
AcDbSymbolTableRecord
100
AcDbBlockTableRecord
  2
*D52
340
0
  0
ENDTAB
  0
ENDSEC
  0
SECTION
  2
BLOCKS
  0
BLOCK
  5
5
330
2
100
AcDbEntity
  8
0
100
AcDbBlockBegin
  2
*MODEL_SPACE
 70
     0
 10
0.0
 20
0.0
 30
0.0
  3
*MODEL_SPACE
  1

  0
ENDBLK
  5
10
330
2
100
AcDbEntity
  8
0
100
AcDbBlockEnd
  0
BLOCK
  5
1944
330
1942
100
AcDbEntity
 67
     1
  8
0
 48
4.0
100
AcDbBlockBegin
  2
*Paper_Space
 70
     0
 10
0.0
 20
0.0
 30
0.0
  3
*Paper_Space
  1

  0
ENDBLK
  5
1945
330
1942
100
AcDbEntity
 67
     1
  8
0
 48
4.0
100
AcDbBlockEnd
  0
BLOCK
  5
32
330
2F
100
AcDbEntity
  8
0
100
AcDbBlockBegin
  2
B-DIM
 70
     0
 10
0.0
 20
0.0
 30
0.0
  3
B-DIM
  1

  0
LINE
  5
33
330
2F
100
AcDbEntity
  8
0
 62
     1
100
AcDbLine
 10
0.000000000000091
 20
-1.1
 30
0.0
 11
0.000000000000091
 21
1.1
 31
0.0
  0
LWPOLYLINE
  5
34
330
2F
100
AcDbEntity
  8
0
 62
     1
100
AcDbPolyline
 90
        2
 70
     0
 43
0.3
 10
-0.7071067811864851
 20
-0.7071067811864851
 10
0.707106781186576
 20
0.707106781186576
  0
LINE
  5
35
330
2F
100
AcDbEntity
  8
0
 62
     1
100
AcDbLine
 10
1.20000000000009
 20
0.0
 30
0.0
 11
-1.199999999999909
 21
0.0
 31
0.0
  0
ENDBLK
  5
36
330
2F
100
AcDbEntity
  8
0
100
AcDbBlockEnd
  0
BLOCK
  5
1D57
330
1D56
100
AcDbEntity
  8
0
 48
4.0
100
AcDbBlockBegin
  2
*D23
 70
     1
 10
0.0
 20
0.0
 30
0.0
  3
*D23
  1

  0
LINE
  5
1E56
330
1D56
100
AcDbEntity
  8
0Wymiary-PL
 62
     1
 48
4.0
370
    -2
100
AcDbLine
 10
57933.50767328862
 20
-2725.308451184729
 30
0.0
 11
58140.51101170009
 21
-2725.308451184729
 31
0.0
  0
INSERT
  5
1E57
330
1D56
100
AcDbEntity
  8
0Wymiary-PL
 62
     1
 48
4.0
370
    -2
100
AcDbBlockReference
  2
B-DIM
 10
57903.50767328862
 20
-2725.308451184729
 30
0.0
 41
30.0
 42
30.0
 43
30.0
 50
180.0
  0
INSERT
  5
1E58
330
1D56
100
AcDbEntity
  8
0Wymiary-PL
 62
     1
 48
4.0
370
    -2
100
AcDbBlockReference
  2
B-DIM
 10
58170.51101170009
 20
-2725.308451184729
 30
0.0
 41
30.0
 42
30.0
 43
30.0
  0
MTEXT
  5
1E59
330
1D56
100
AcDbEntity
  8
0Wymiary-PL
 62
   140
 48
4.0
100
AcDbMText
 10
58037.00934249436
 20
-2645.308451184729
 30
0.0
 40
80.0
 41
0.0
 71
     5
 72
     1
  1
\A1;267
  7
ROMANS
 73
     1
 44
1.0
1001
ACAD
1000
MTEXTBEGIN
1070
    73
1070
     1
1070
    44
1040
1.0
1070
    74
1070
     0
1000
MTEXTEND
  0
POINT
  5
1E5A
330
1D56
100
AcDbEntity
  8
Defpoints
 62
     0
 48
4.0
100
AcDbPoint
 10
57903.50767328862
 20
-3701.688566810978
 30
0.0
  0
POINT
  5
1E5B
330
1D56
100
AcDbEntity
  8
Defpoints
 62
     0
 48
4.0
100
AcDbPoint
 10
58170.51101170009
 20
-3701.688566810978
 30
0.0
  0
POINT
  5
1E5C
330
1D56
100
AcDbEntity
  8
Defpoints
 62
     0
 48
4.0
100
AcDbPoint
 10
58170.51101170009
 20
-2725.308451184729
 30
0.0
  0
ENDBLK
  5
1D58
330
1D56
100
AcDbEntity
  8
0
 48
4.0
100
AcDbBlockEnd
  0
BLOCK
  5
1D69
330
1D68
100
AcDbEntity
  8
0
 48
4.0
100
AcDbBlockBegin
  2
*D24
 70
     1
 10
0.0
 20
0.0
 30
0.0
  3
*D24
  1

  0
LINE
  5
1E5D
330
1D68
100
AcDbEntity
  8
0Wymiary-PL
 62
     1
 48
4.0
370
    -2
100
AcDbLine
 10
58200.51101170009
 20
-2725.308451184729
 30
0.0
 11
58551.50767328862
 21
-2725.308451184729
 31
0.0
  0
INSERT
  5
1E5E
330
1D68
100
AcDbEntity
  8
0Wymiary-PL
 62
     1
 48
4.0
370
    -2
100
AcDbBlockReference
  2
B-DIM
 10
58170.51101170009
 20
-2725.308451184729
 30
0.0
 41
30.0
 42
30.0
 43
30.0
 50
180.0
  0
INSERT
  5
1E5F
330
1D68
100
AcDbEntity
  8
0Wymiary-PL
 62
     1
 48
4.0
370
    -2
100
AcDbBlockReference
  2
B-DIM
 10
58581.50767328862
 20
-2725.308451184729
 30
0.0
 41
30.0
 42
30.0
 43
30.0
  0
MTEXT
  5
1E60
330
1D68
100
AcDbEntity
  8
0Wymiary-PL
 62
   140
 48
4.0
100
AcDbMText
 10
58376.00934249436
 20
-2645.308451184729
 30
0.0
 40
80.0
 41
0.0
 71
     5
 72
     1
  1
\A1;411
  7
ROMANS
 73
     1
 44
1.0
1001
ACAD
1000
MTEXTBEGIN
1070
    73
1070
     1
1070
    44
1040
1.0
1070
    74
1070
     0
1000
MTEXTEND
  0
POINT
  5
1E61
330
1D68
100
AcDbEntity
  8
Defpoints
 62
     0
 48
4.0
100
AcDbPoint
 10
58170.51101170009
 20
-3701.688566810978
 30
0.0
  0
POINT
  5
1E62
330
1D68
100
AcDbEntity
  8
Defpoints
 62
     0
 48
4.0
100
AcDbPoint
 10
58581.50767328862
 20
-3369.688566810977
 30
0.0
  0
POINT
  5
1E63
330
1D68
100
AcDbEntity
  8
Defpoints
 62
     0
 48
4.0
100
AcDbPoint
 10
58581.50767328862
 20
-2725.308451184729
 30
0.0
  0
ENDBLK
  5
1D6A
330
1D68
100
AcDbEntity
  8
0
 48
4.0
100
AcDbBlockEnd
  0
BLOCK
  5
1D74
330
1D73
100
AcDbEntity
  8
0
 48
4.0
100
AcDbBlockBegin
  2
*D25
 70
     1
 10
0.0
 20
0.0
 30
0.0
  3
*D25
  1

  0
LINE
  5
1E64
330
1D73
100
AcDbEntity
  8
0Wymiary-PL
 62
     1
 48
4.0
370
    -2
100
AcDbLine
 10
58611.50767328862
 20
-2725.308451184729
 30
0.0
 11
59071.38068956656
 21
-2725.308451184729
 31
0.0
  0
INSERT
  5
1E65
330
1D73
100
AcDbEntity
  8
0Wymiary-PL
 62
     1
 48
4.0
370
    -2
100
AcDbBlockReference
  2
B-DIM
 10
58581.50767328862
 20
-2725.308451184729
 30
0.0
 41
30.0
 42
30.0
 43
30.0
 50
180.0
  0
INSERT
  5
1E66
330
1D73
100
AcDbEntity
  8
0Wymiary-PL
 62
     1
 48
4.0
370
    -2
100
AcDbBlockReference
  2
B-DIM
 10
59101.38068956656
 20
-2725.308451184729
 30
0.0
 41
30.0
 42
30.0
 43
30.0
  0
MTEXT
  5
1E67
330
1D73
100
AcDbEntity
  8
0Wymiary-PL
 62
   140
 48
4.0
100
AcDbMText
 10
58841.44418142759
 20
-2645.308451184729
 30
0.0
 40
80.0
 41
0.0
 71
     5
 72
     1
  1
\A1;520
  7
ROMANS
 73
     1
 44
1.0
1001
ACAD
1000
MTEXTBEGIN
1070
    73
1070
     1
1070
    44
1040
1.0
1070
    74
1070
     0
1000
MTEXTEND
  0
POINT
  5
1E68
330
1D73
100
AcDbEntity
  8
Defpoints
 62
     0
 48
4.0
100
AcDbPoint
 10
58581.50767328862
 20
-3369.688566810977
 30
0.0
  0
POINT
  5
1E69
330
1D73
100
AcDbEntity
  8
Defpoints
 62
     0
 48
4.0
100
AcDbPoint
 10
59101.38068956656
 20
-3478.688566810975
 30
0.0
  0
POINT
  5
1E6A
330
1D73
100
AcDbEntity
  8
Defpoints
 62
     0
 48
4.0
100
AcDbPoint
 10
59101.38068956656
 20
-2725.308451184729
 30
0.0
  0
ENDBLK
  5
1D75
330
1D73
100
AcDbEntity
  8
0
 48
4.0
100
AcDbBlockEnd
  0
BLOCK
  5
1D7F
330
1D7E
100
AcDbEntity
  8
0
 48
4.0
100
AcDbBlockBegin
  2
*D26
 70
     1
 10
0.0
 20
0.0
 30
0.0
  3
*D26
  1

  0
LINE
  5
1E6B
330
1D7E
100
AcDbEntity
  8
0Wymiary-PL
 62
     1
 48
4.0
370
    -2
100
AcDbLine
 10
59131.38068956656
 20
-2725.308451184729
 30
0.0
 11
59491.50767328886
 21
-2725.308451184729
 31
0.0
  0
INSERT
  5
1E6C
330
1D7E
100
AcDbEntity
  8
0Wymiary-PL
 62
     1
 48
4.0
370
    -2
100
AcDbBlockReference
  2
B-DIM
 10
59101.38068956656
 20
-2725.308451184729
 30
0.0
 41
30.0
 42
30.0
 43
30.0
 50
180.0
  0
INSERT
  5
1E6D
330
1D7E
100
AcDbEntity
  8
0Wymiary-PL
 62
     1
 48
4.0
370
    -2
100
AcDbBlockReference
  2
B-DIM
 10
59521.50767328886
 20
-2725.308451184729
 30
0.0
 41
30.0
 42
30.0
 43
30.0
  0
MTEXT
  5
1E6E
330
1D7E
100
AcDbEntity
  8
0Wymiary-PL
 62
   140
 48
4.0
100
AcDbMText
 10
59311.4441814277
 20
-2645.308451184729
 30
0.0
 40
80.0
 41
0.0
 71
     5
 72
     1
  1
\A1;420
  7
ROMANS
 73
     1
 44
1.0
1001
ACAD
1000
MTEXTBEGIN
1070
    73
1070
     1
1070
    44
1040
1.0
1070
    74
1070
     0
1000
MTEXTEND
  0
POINT
  5
1E6F
330
1D7E
100
AcDbEntity
  8
Defpoints
 62
     0
 48
4.0
100
AcDbPoint
 10
59101.38068956656
 20
-3478.688566810975
 30
0.0
  0
POINT
  5
1E70
330
1D7E
100
AcDbEntity
  8
Defpoints
 62
     0
 48
4.0
100
AcDbPoint
 10
59521.50767328886
 20
-3498.561583089178
 30
0.0
  0
POINT
  5
1E71
330
1D7E
100
AcDbEntity
  8
Defpoints
 62
     0
 48
4.0
100
AcDbPoint
 10
59521.50767328886
 20
-2725.308451184729
 30
0.0
  0
ENDBLK
  5
1D80
330
1D7E
100
AcDbEntity
  8
0
 48
4.0
100
AcDbBlockEnd
  0
BLOCK
  5
1D8A
330
1D89
100
AcDbEntity
  8
0
 48
4.0
100
AcDbBlockBegin
  2
*D27
 70
     1
 10
0.0
 20
0.0
 30
0.0
  3
*D27
  1

  0
LINE
  5
1E72
330
1D89
100
AcDbEntity
  8
0Wymiary-PL
 62
     1
 48
4.0
370
    -2
100
AcDbLine
 10
57933.50767328862
 20
-2525.308451184729
 30
0.0
 11
59491.50767328879
 21
-2525.308451184729
 31
0.0
  0
INSERT
  5
1E73
330
1D89
100
AcDbEntity
  8
0Wymiary-PL
 62
     1
 48
4.0
370
    -2
100
AcDbBlockReference
  2
B-DIM
 10
57903.50767328862
 20
-2525.308451184729
 30
0.0
 41
30.0
 42
30.0
 43
30.0
 50
180.0
  0
INSERT
  5
1E74
330
1D89
100
AcDbEntity
  8
0Wymiary-PL
 62
     1
 48
4.0
370
    -2
100
AcDbBlockReference
  2
B-DIM
 10
59521.50767328879
 20
-2525.308451184729
 30
0.0
 41
30.0
 42
30.0
 43
30.0
  0
MTEXT
  5
1E75
330
1D89
100
AcDbEntity
  8
0Wymiary-PL
 62
   140
 48
4.0
100
AcDbMText
 10
58712.50767328871
 20
-2445.308451184728
 30
0.0
 40
80.0
 41
0.0
 71
     5
 72
     1
  1
\A1;1618
  7
ROMANS
 73
     1
 44
1.0
1001
ACAD
1000
MTEXTBEGIN
1070
    73
1070
     1
1070
    44
1040
1.0
1070
    74
1070
     0
1000
MTEXTEND
  0
POINT
  5
1E76
330
1D89
100
AcDbEntity
  8
Defpoints
 62
     0
 48
4.0
100
AcDbPoint
 10
57903.50767328862
 20
-3701.688566810978
 30
0.0
  0
POINT
  5
1E77
330
1D89
100
AcDbEntity
  8
Defpoints
 62
     0
 48
4.0
100
AcDbPoint
 10
59521.50767328879
 20
-3680.815550533345
 30
0.0
  0
POINT
  5
1E78
330
1D89
100
AcDbEntity
  8
Defpoints
 62
     0
 48
4.0
100
AcDbPoint
 10
59521.50767328879
 20
-2525.308451184729
 30
0.0
  0
ENDBLK
  5
1D8B
330
1D89
100
AcDbEntity
  8
0
 48
4.0
100
AcDbBlockEnd
  0
BLOCK
  5
1DA3
330
1DA2
100
AcDbEntity
  8
0
 48
4.0
100
AcDbBlockBegin
  2
*D28
 70
     1
 10
0.0
 20
0.0
 30
0.0
  3
*D28
  1

  0
LINE
  5
1E79
330
1DA2
100
AcDbEntity
  8
0Wymiary-PL
 62
     1
 48
4.0
370
    -2
100
AcDbLine
 10
57703.50767328862
 20
-3399.688566810976
 30
0.0
 11
57703.50767328862
 21
-3671.700589692188
 31
0.0
  0
INSERT
  5
1E7A
330
1DA2
100
AcDbEntity
  8
0Wymiary-PL
 62
     1
 48
4.0
370
    -2
100
AcDbBlockReference
  2
B-DIM
 10
57703.50767328862
 20
-3369.688566810975
 30
0.0
 41
30.0
 42
30.0
 43
30.0
 50
90.0
  0
INSERT
  5
1E7B
330
1DA2
100
AcDbEntity
  8
0Wymiary-PL
 62
     1
 48
4.0
370
    -2
100
AcDbBlockReference
  2
B-DIM
 10
57703.50767328862
 20
-3701.700589692188
 30
0.0
 41
30.0
 42
30.0
 43
30.0
 50
270.0
  0
MTEXT
  5
1E7C
330
1DA2
100
AcDbEntity
  8
0Wymiary-PL
 62
   140
 48
4.0
100
AcDbMText
 10
57623.50767328862
 20
-3535.694578251573
 30
0.0
 40
80.0
 41
0.0
 71
     5
 72
     1
  1
\A1;332
  7
ROMANS
 11
0.0000000000000001
 21
1.0
 31
0.0
 73
     1
 44
1.0
1001
ACAD
1000
MTEXTBEGIN
1070
    73
1070
     1
1070
    44
1040
1.0
1070
    74
1070
     0
1000
MTEXTEND
  0
POINT
  5
1E7D
330
1DA2
100
AcDbEntity
  8
Defpoints
 62
     0
 48
4.0
100
AcDbPoint
 10
58170.51101170009
 20
-3369.688566810975
 30
0.0
  0
POINT
  5
1E7E
330
1DA2
100
AcDbEntity
  8
Defpoints
 62
     0
 48
4.0
100
AcDbPoint
 10
58170.49606070859
 20
-3701.700589692188
 30
0.0
  0
POINT
  5
1E7F
330
1DA2
100
AcDbEntity
  8
Defpoints
 62
     0
 48
4.0
100
AcDbPoint
 10
57703.50767328862
 20
-3701.700589692188
 30
0.0
  0
ENDBLK
  5
1DA4
330
1DA2
100
AcDbEntity
  8
0
 48
4.0
100
AcDbBlockEnd
  0
BLOCK
  5
1DBC
330
1DBB
100
AcDbEntity
  8
0
 48
4.0
100
AcDbBlockBegin
  2
*D29
 70
     1
 10
0.0
 20
0.0
 30
0.0
  3
*D29
  1

  0
LINE
  5
1E80
330
1DBB
100
AcDbEntity
  8
0Wymiary-PL
 62
     1
 48
4.0
370
    -2
100
AcDbLine
 10
57703.50767328862
 20
-3731.700589692188
 30
0.0
 11
57703.50767328862
 21
-4668.688566810977
 31
0.0
  0
INSERT
  5
1E81
330
1DBB
100
AcDbEntity
  8
0Wymiary-PL
 62
     1
 48
4.0
370
    -2
100
AcDbBlockReference
  2
B-DIM
 10
57703.50767328862
 20
-3701.700589692188
 30
0.0
 41
30.0
 42
30.0
 43
30.0
 50
90.0
  0
INSERT
  5
1E82
330
1DBB
100
AcDbEntity
  8
0Wymiary-PL
 62
     1
 48
4.0
370
    -2
100
AcDbBlockReference
  2
B-DIM
 10
57703.50767328862
 20
-4698.688566810977
 30
0.0
 41
30.0
 42
30.0
 43
30.0
 50
270.0
  0
MTEXT
  5
1E83
330
1DBB
100
AcDbEntity
  8
0Wymiary-PL
 62
   140
 48
4.0
100
AcDbMText
 10
57623.50767328862
 20
-4200.194578251574
 30
0.0
 40
80.0
 41
0.0
 71
     5
 72
     1
  1
\A1;997
  7
ROMANS
 11
0.0000000000000001
 21
1.0
 31
0.0
 73
     1
 44
1.0
1001
ACAD
1000
MTEXTBEGIN
1070
    73
1070
     1
1070
    44
1040
1.0
1070
    74
1070
     0
1000
MTEXTEND
  0
POINT
  5
1E84
330
1DBB
100
AcDbEntity
  8
Defpoints
 62
     0
 48
4.0
100
AcDbPoint
 10
58170.49606070859
 20
-3701.700589692188
 30
0.0
  0
POINT
  5
1E85
330
1DBB
100
AcDbEntity
  8
Defpoints
 62
     0
 48
4.0
100
AcDbPoint
 10
57903.50767328862
 20
-4698.688566810977
 30
0.0
  0
POINT
  5
1E86
330
1DBB
100
AcDbEntity
  8
Defpoints
 62
     0
 48
4.0
100
AcDbPoint
 10
57703.50767328862
 20
-4698.688566810977
 30
0.0
  0
ENDBLK
  5
1DBD
330
1DBB
100
AcDbEntity
  8
0
 48
4.0
100
AcDbBlockEnd
  0
BLOCK
  5
1DC7
330
1DC6
100
AcDbEntity
  8
0
 48
4.0
100
AcDbBlockBegin
  2
*D30
 70
     1
 10
0.0
 20
0.0
 30
0.0
  3
*D30
  1

  0
LINE
  5
1E87
330
1DC6
100
AcDbEntity
  8
0Wymiary-PL
 62
     1
 48
4.0
370
    -2
100
AcDbLine
 10
57503.50767328862
 20
-3399.688566810976
 30
0.0
 11
57503.50767328862
 21
-4668.688566810977
 31
0.0
  0
INSERT
  5
1E88
330
1DC6
100
AcDbEntity
  8
0Wymiary-PL
 62
     1
 48
4.0
370
    -2
100
AcDbBlockReference
  2
B-DIM
 10
57503.50767328862
 20
-3369.688566810975
 30
0.0
 41
30.0
 42
30.0
 43
30.0
 50
90.0
  0
INSERT
  5
1E89
330
1DC6
100
AcDbEntity
  8
0Wymiary-PL
 62
     1
 48
4.0
370
    -2
100
AcDbBlockReference
  2
B-DIM
 10
57503.50767328862
 20
-4698.688566810977
 30
0.0
 41
30.0
 42
30.0
 43
30.0
 50
270.0
  0
MTEXT
  5
1E8A
330
1DC6
100
AcDbEntity
  8
0Wymiary-PL
 62
   140
 48
4.0
100
AcDbMText
 10
57423.50767328862
 20
-4034.188566810967
 30
0.0
 40
80.0
 41
0.0
 71
     5
 72
     1
  1
\A1;1329
  7
ROMANS
 11
0.0000000000000001
 21
1.0
 31
0.0
 73
     1
 44
1.0
1001
ACAD
1000
MTEXTBEGIN
1070
    73
1070
     1
1070
    44
1040
1.0
1070
    74
1070
     0
1000
MTEXTEND
  0
POINT
  5
1E8B
330
1DC6
100
AcDbEntity
  8
Defpoints
 62
     0
 48
4.0
100
AcDbPoint
 10
58170.51101170009
 20
-3369.688566810975
 30
0.0
  0
POINT
  5
1E8C
330
1DC6
100
AcDbEntity
  8
Defpoints
 62
     0
 48
4.0
100
AcDbPoint
 10
58170.51101170009
 20
-4698.688566810977
 30
0.0
  0
POINT
  5
1E8D
330
1DC6
100
AcDbEntity
  8
Defpoints
 62
     0
 48
4.0
100
AcDbPoint
 10
57503.50767328862
 20
-4698.688566810977
 30
0.0
  0
ENDBLK
  5
1DC8
330
1DC6
100
AcDbEntity
  8
0
 48
4.0
100
AcDbBlockEnd
  0
BLOCK
  5
1DD9
330
1DD8
100
AcDbEntity
  8
0
 48
4.0
100
AcDbBlockBegin
  2
*D31
 70
     1
 10
0.0
 20
0.0
 30
0.0
  3
*D31
  1

  0
LINE
  5
1E8E
330
1DD8
100
AcDbEntity
  8
0Wymiary-PL
 62
     1
 48
4.0
370
    -2
100
AcDbLine
 10
57933.50767328862
 20
-4898.688566810977
 30
0.0
 11
58531.50767328862
 21
-4898.688566810977
 31
0.0
  0
INSERT
  5
1E8F
330
1DD8
100
AcDbEntity
  8
0Wymiary-PL
 62
     1
 48
4.0
370
    -2
100
AcDbBlockReference
  2
B-DIM
 10
57903.50767328862
 20
-4898.688566810977
 30
0.0
 41
30.0
 42
30.0
 43
30.0
 50
180.0
  0
INSERT
  5
1E90
330
1DD8
100
AcDbEntity
  8
0Wymiary-PL
 62
     1
 48
4.0
370
    -2
100
AcDbBlockReference
  2
B-DIM
 10
58561.50767328863
 20
-4898.688566810977
 30
0.0
 41
30.0
 42
30.0
 43
30.0
  0
MTEXT
  5
1E91
330
1DD8
100
AcDbEntity
  8
0Wymiary-PL
 62
   140
 48
4.0
100
AcDbMText
 10
58232.50767328862
 20
-4818.688566810977
 30
0.0
 40
80.0
 41
0.0
 71
     5
 72
     1
  1
\A1;658
  7
ROMANS
 73
     1
 44
1.0
1001
ACAD
1000
MTEXTBEGIN
1070
    73
1070
     1
1070
    44
1040
1.0
1070
    74
1070
     0
1000
MTEXTEND
  0
POINT
  5
1E92
330
1DD8
100
AcDbEntity
  8
Defpoints
 62
     0
 48
4.0
100
AcDbPoint
 10
57903.50767328862
 20
-4706.009111174951
 30
0.0
  0
POINT
  5
1E93
330
1DD8
100
AcDbEntity
  8
Defpoints
 62
     0
 48
4.0
100
AcDbPoint
 10
58561.50767328863
 20
-4706.009111174927
 30
0.0
  0
POINT
  5
1E94
330
1DD8
100
AcDbEntity
  8
Defpoints
 62
     0
 48
4.0
100
AcDbPoint
 10
58561.50767328863
 20
-4898.688566810977
 30
0.0
  0
ENDBLK
  5
1DDA
330
1DD8
100
AcDbEntity
  8
0
 48
4.0
100
AcDbBlockEnd
  0
BLOCK
  5
1DEB
330
1DEA
100
AcDbEntity
  8
0
 48
4.0
100
AcDbBlockBegin
  2
*D32
 70
     1
 10
0.0
 20
0.0
 30
0.0
  3
*D32
  1

  0
LINE
  5
1E95
330
1DEA
100
AcDbEntity
  8
0Wymiary-PL
 62
     1
 48
4.0
370
    -2
100
AcDbLine
 10
58591.50767328863
 20
-4898.688566810977
 30
0.0
 11
59382.5076732886
 21
-4898.688566810977
 31
0.0
  0
INSERT
  5
1E96
330
1DEA
100
AcDbEntity
  8
0Wymiary-PL
 62
     1
 48
4.0
370
    -2
100
AcDbBlockReference
  2
B-DIM
 10
58561.50767328863
 20
-4898.688566810977
 30
0.0
 41
30.0
 42
30.0
 43
30.0
 50
180.0
  0
INSERT
  5
1E97
330
1DEA
100
AcDbEntity
  8
0Wymiary-PL
 62
     1
 48
4.0
370
    -2
100
AcDbBlockReference
  2
B-DIM
 10
59412.50767328861
 20
-4898.688566810977
 30
0.0
 41
30.0
 42
30.0
 43
30.0
  0
MTEXT
  5
1E98
330
1DEA
100
AcDbEntity
  8
0Wymiary-PL
 62
   140
 48
4.0
100
AcDbMText
 10
58987.00767328862
 20
-4818.688566810977
 30
0.0
 40
80.0
 41
0.0
 71
     5
 72
     1
  1
\A1;851
  7
ROMANS
 73
     1
 44
1.0
1001
ACAD
1000
MTEXTBEGIN
1070
    73
1070
     1
1070
    44
1040
1.0
1070
    74
1070
     0
1000
MTEXTEND
  0
POINT
  5
1E99
330
1DEA
100
AcDbEntity
  8
Defpoints
 62
     0
 48
4.0
100
AcDbPoint
 10
58561.50767328863
 20
-4706.009111174927
 30
0.0
  0
POINT
  5
1E9A
330
1DEA
100
AcDbEntity
  8
Defpoints
 62
     0
 48
4.0
100
AcDbPoint
 10
59412.50767328861
 20
-4280.688566810897
 30
0.0
  0
POINT
  5
1E9B
330
1DEA
100
AcDbEntity
  8
Defpoints
 62
     0
 48
4.0
100
AcDbPoint
 10
59412.50767328861
 20
-4898.688566810977
 30
0.0
  0
ENDBLK
  5
1DEC
330
1DEA
100
AcDbEntity
  8
0
 48
4.0
100
AcDbBlockEnd
  0
BLOCK
  5
1DF6
330
1DF5
100
AcDbEntity
  8
0
 48
4.0
100
AcDbBlockBegin
  2
*D33
 70
     1
 10
0.0
 20
0.0
 30
0.0
  3
*D33
  1

  0
LINE
  5
1E9C
330
1DF5
100
AcDbEntity
  8
0Wymiary-PL
 62
     1
 48
4.0
370
    -2
100
AcDbLine
 10
59382.5076732886
 20
-4898.688566810977
 30
0.0
 11
59352.5076732886
 21
-4898.688566810977
 31
0.0
  0
LINE
  5
1E9D
330
1DF5
100
AcDbEntity
  8
0Wymiary-PL
 62
     1
 48
4.0
370
    -2
100
AcDbLine
 10
59551.50767328881
 20
-4898.688566810977
 30
0.0
 11
59581.50767328882
 21
-4898.688566810977
 31
0.0
  0
LINE
  5
1E9E
330
1DF5
100
AcDbEntity
  8
0Wymiary-PL
 62
     1
 48
4.0
370
    -2
100
AcDbLine
 10
59412.50767328861
 20
-4898.688566810977
 30
0.0
 11
59521.50767328881
 21
-4898.688566810977
 31
0.0
  0
INSERT
  5
1E9F
330
1DF5
100
AcDbEntity
  8
0Wymiary-PL
 62
     1
 48
4.0
370
    -2
100
AcDbBlockReference
  2
B-DIM
 10
59412.50767328861
 20
-4898.688566810977
 30
0.0
 41
30.0
 42
30.0
 43
30.0
  0
INSERT
  5
1EA0
330
1DF5
100
AcDbEntity
  8
0Wymiary-PL
 62
     1
 48
4.0
370
    -2
100
AcDbBlockReference
  2
B-DIM
 10
59521.50767328881
 20
-4898.688566810977
 30
0.0
 41
30.0
 42
30.0
 43
30.0
 50
180.0
  0
MTEXT
  5
1EA1
330
1DF5
100
AcDbEntity
  8
0Wymiary-PL
 62
   140
 48
4.0
100
AcDbMText
 10
59467.00767328871
 20
-4818.688566810977
 30
0.0
 40
80.0
 41
0.0
 71
     5
 72
     1
  1
\A1;109
  7
ROMANS
 73
     1
 44
1.0
1001
ACAD
1000
MTEXTBEGIN
1070
    73
1070
     1
1070
    44
1040
1.0
1070
    74
1070
     0
1000
MTEXTEND
  0
POINT
  5
1EA2
330
1DF5
100
AcDbEntity
  8
Defpoints
 62
     0
 48
4.0
100
AcDbPoint
 10
59412.50767328861
 20
-4280.688566810897
 30
0.0
  0
POINT
  5
1EA3
330
1DF5
100
AcDbEntity
  8
Defpoints
 62
     0
 48
4.0
100
AcDbPoint
 10
59521.50767328881
 20
-3599.076707370548
 30
0.0
  0
POINT
  5
1EA4
330
1DF5
100
AcDbEntity
  8
Defpoints
 62
     0
 48
4.0
100
AcDbPoint
 10
59521.50767328881
 20
-4898.688566810977
 30
0.0
  0
ENDBLK
  5
1DF7
330
1DF5
100
AcDbEntity
  8
0
 48
4.0
100
AcDbBlockEnd
  0
BLOCK
  5
1E1E
330
1E1D
100
AcDbEntity
  8
0
 48
4.0
100
AcDbBlockBegin
  2
*D35
 70
     1
 10
0.0
 20
0.0
 30
0.0
  3
*D35
  1

  0
LINE
  5
1EAC
330
1E1D
100
AcDbEntity
  8
0Wymiary-PL
 62
     1
 48
4.0
370
    -2
100
AcDbLine
 10
59751.50767328879
 20
-3399.688566810993
 30
0.0
 11
59751.50767328879
 21
-3759.815550533449
 31
0.0
  0
INSERT
  5
1EAD
330
1E1D
100
AcDbEntity
  8
0Wymiary-PL
 62
     1
 48
4.0
370
    -2
100
AcDbBlockReference
  2
B-DIM
 10
59751.50767328879
 20
-3369.688566810993
 30
0.0
 41
30.0
 42
30.0
 43
30.0
 50
90.0
  0
INSERT
  5
1EAE
330
1E1D
100
AcDbEntity
  8
0Wymiary-PL
 62
     1
 48
4.0
370
    -2
100
AcDbBlockReference
  2
B-DIM
 10
59751.50767328879
 20
-3789.815550533449
 30
0.0
 41
30.0
 42
30.0
 43
30.0
 50
270.0
  0
MTEXT
  5
1EAF
330
1E1D
100
AcDbEntity
  8
0Wymiary-PL
 62
   140
 48
4.0
100
AcDbMText
 10
59671.50767328879
 20
-3579.752058672212
 30
0.0
 40
80.0
 41
0.0
 71
     5
 72
     1
  1
\A1;420
  7
ROMANS
 11
0.0000000000000001
 21
1.0
 31
0.0
 73
     1
 44
1.0
1001
ACAD
1000
MTEXTBEGIN
1070
    73
1070
     1
1070
    44
1040
1.0
1070
    74
1070
     0
1000
MTEXTEND
  0
POINT
  5
1EB0
330
1E1D
100
AcDbEntity
  8
Defpoints
 62
     0
 48
4.0
100
AcDbPoint
 10
59325.13860474508
 20
-3369.688566810993
 30
0.0
  0
POINT
  5
1EB1
330
1E1D
100
AcDbEntity
  8
Defpoints
 62
     0
 48
4.0
100
AcDbPoint
 10
59412.5076732886
 20
-3789.815550533449
 30
0.0
  0
POINT
  5
1EB2
330
1E1D
100
AcDbEntity
  8
Defpoints
 62
     0
 48
4.0
100
AcDbPoint
 10
59751.50767328879
 20
-3789.815550533449
 30
0.0
  0
ENDBLK
  5
1E1F
330
1E1D
100
AcDbEntity
  8
0
 48
4.0
100
AcDbBlockEnd
  0
BLOCK
  5
1E30
330
1E2F
100
AcDbEntity
  8
0
 48
4.0
100
AcDbBlockBegin
  2
*D36
 70
     1
 10
0.0
 20
0.0
 30
0.0
  3
*D36
  1

  0
LINE
  5
1EB3
330
1E2F
100
AcDbEntity
  8
0Wymiary-PL
 62
     1
 48
4.0
370
    -2
100
AcDbLine
 10
59751.50767328879
 20
-3819.815550533449
 30
0.0
 11
59751.50767328879
 21
-4250.688566810897
 31
0.0
  0
INSERT
  5
1EB4
330
1E2F
100
AcDbEntity
  8
0Wymiary-PL
 62
     1
 48
4.0
370
    -2
100
AcDbBlockReference
  2
B-DIM
 10
59751.50767328879
 20
-3789.815550533449
 30
0.0
 41
30.0
 42
30.0
 43
30.0
 50
90.0
  0
INSERT
  5
1EB5
330
1E2F
100
AcDbEntity
  8
0Wymiary-PL
 62
     1
 48
4.0
370
    -2
100
AcDbBlockReference
  2
B-DIM
 10
59751.50767328879
 20
-4280.688566810897
 30
0.0
 41
30.0
 42
30.0
 43
30.0
 50
270.0
  0
MTEXT
  5
1EB6
330
1E2F
100
AcDbEntity
  8
0Wymiary-PL
 62
   140
 48
4.0
100
AcDbMText
 10
59671.50767328879
 20
-4035.252058672162
 30
0.0
 40
80.0
 41
0.0
 71
     5
 72
     1
  1
\A1;491
  7
ROMANS
 11
0.0000000000000001
 21
1.0
 31
0.0
 73
     1
 44
1.0
1001
ACAD
1000
MTEXTBEGIN
1070
    73
1070
     1
1070
    44
1040
1.0
1070
    74
1070
     0
1000
MTEXTEND
  0
POINT
  5
1EB7
330
1E2F
100
AcDbEntity
  8
Defpoints
 62
     0
 48
4.0
100
AcDbPoint
 10
59412.5076732886
 20
-3789.815550533449
 30
0.0
  0
POINT
  5
1EB8
330
1E2F
100
AcDbEntity
  8
Defpoints
 62
     0
 48
4.0
100
AcDbPoint
 10
59412.50767328861
 20
-4280.688566810897
 30
0.0
  0
POINT
  5
1EB9
330
1E2F
100
AcDbEntity
  8
Defpoints
 62
     0
 48
4.0
100
AcDbPoint
 10
59751.50767328879
 20
-4280.688566810897
 30
0.0
  0
ENDBLK
  5
1E31
330
1E2F
100
AcDbEntity
  8
0
 48
4.0
100
AcDbBlockEnd
  0
BLOCK
  5
1E3B
330
1E3A
100
AcDbEntity
  8
0
 48
4.0
100
AcDbBlockBegin
  2
*D37
 70
     1
 10
0.0
 20
0.0
 30
0.0
  3
*D37
  1

  0
LINE
  5
1EBA
330
1E3A
100
AcDbEntity
  8
0Wymiary-PL
 62
     1
 48
4.0
370
    -2
100
AcDbLine
 10
59751.50767328879
 20
-4310.688566810897
 30
0.0
 11
59751.50767328879
 21
-4668.688566810978
 31
0.0
  0
INSERT
  5
1EBB
330
1E3A
100
AcDbEntity
  8
0Wymiary-PL
 62
     1
 48
4.0
370
    -2
100
AcDbBlockReference
  2
B-DIM
 10
59751.50767328879
 20
-4280.688566810897
 30
0.0
 41
30.0
 42
30.0
 43
30.0
 50
90.0
  0
INSERT
  5
1EBC
330
1E3A
100
AcDbEntity
  8
0Wymiary-PL
 62
     1
 48
4.0
370
    -2
100
AcDbBlockReference
  2
B-DIM
 10
59751.50767328879
 20
-4698.688566810978
 30
0.0
 41
30.0
 42
30.0
 43
30.0
 50
270.0
  0
MTEXT
  5
1EBD
330
1E3A
100
AcDbEntity
  8
0Wymiary-PL
 62
   140
 48
4.0
100
AcDbMText
 10
59671.50767328879
 20
-4489.688566810928
 30
0.0
 40
80.0
 41
0.0
 71
     5
 72
     1
  1
\A1;418
  7
ROMANS
 11
0.0000000000000001
 21
1.0
 31
0.0
 73
     1
 44
1.0
1001
ACAD
1000
MTEXTBEGIN
1070
    73
1070
     1
1070
    44
1040
1.0
1070
    74
1070
     0
1000
MTEXTEND
  0
POINT
  5
1EBE
330
1E3A
100
AcDbEntity
  8
Defpoints
 62
     0
 48
4.0
100
AcDbPoint
 10
59412.50767328861
 20
-4280.688566810897
 30
0.0
  0
POINT
  5
1EBF
330
1E3A
100
AcDbEntity
  8
Defpoints
 62
     0
 48
4.0
100
AcDbPoint
 10
58561.50767328863
 20
-4698.688566810977
 30
0.0
  0
POINT
  5
1EC0
330
1E3A
100
AcDbEntity
  8
Defpoints
 62
     0
 48
4.0
100
AcDbPoint
 10
59751.50767328879
 20
-4698.688566810978
 30
0.0
  0
ENDBLK
  5
1E3C
330
1E3A
100
AcDbEntity
  8
0
 48
4.0
100
AcDbBlockEnd
  0
BLOCK
  5
1F38
330
1F37
100
AcDbEntity
  8
0
 48
4.0
100
AcDbBlockBegin
  2
*D39
 70
     1
 10
0.0
 20
0.0
 30
0.0
  3
*D39
  1

  0
LINE
  5
1FC5
330
1F37
100
AcDbEntity
  8
0Wymiary-PL
 62
     1
 48
4.0
370
    -2
100
AcDbLine
 10
64632.46624688706
 20
-3399.688566810976
 30
0.0
 11
64632.46624688706
 21
-3671.700589692189
 31
0.0
  0
INSERT
  5
1FC6
330
1F37
100
AcDbEntity
  8
0Wymiary-PL
 62
     1
 48
4.0
370
    -2
100
AcDbBlockReference
  2
B-DIM
 10
64632.46624688706
 20
-3369.688566810976
 30
0.0
 41
30.0
 42
30.0
 43
30.0
 50
90.0
  0
INSERT
  5
1FC7
330
1F37
100
AcDbEntity
  8
0Wymiary-PL
 62
     1
 48
4.0
370
    -2
100
AcDbBlockReference
  2
B-DIM
 10
64632.46624688706
 20
-3701.700589692189
 30
0.0
 41
30.0
 42
30.0
 43
30.0
 50
270.0
  0
MTEXT
  5
1FC8
330
1F37
100
AcDbEntity
  8
0Wymiary-PL
 62
   140
 48
4.0
100
AcDbMText
 10
64552.46624688706
 20
-3535.694578251572
 30
0.0
 40
80.0
 41
0.0
 71
     5
 72
     1
  1
\A1;332
  7
ROMANS
 11
0.0000000000000001
 21
1.0
 31
0.0
 73
     1
 44
1.0
1001
ACAD
1000
MTEXTBEGIN
1070
    73
1070
     1
1070
    44
1040
1.0
1070
    74
1070
     0
1000
MTEXTEND
  0
POINT
  5
1FC9
330
1F37
100
AcDbEntity
  8
Defpoints
 62
     0
 48
4.0
100
AcDbPoint
 10
64165.46290847559
 20
-3369.688566810975
 30
0.0
  0
POINT
  5
1FCA
330
1F37
100
AcDbEntity
  8
Defpoints
 62
     0
 48
4.0
100
AcDbPoint
 10
64165.47785946709
 20
-3701.700589692188
 30
0.0
  0
POINT
  5
1FCB
330
1F37
100
AcDbEntity
  8
Defpoints
 62
     0
 48
4.0
100
AcDbPoint
 10
64632.46624688706
 20
-3701.700589692189
 30
0.0
  0
ENDBLK
  5
1F39
330
1F37
100
AcDbEntity
  8
0
 48
4.0
100
AcDbBlockEnd
  0
BLOCK
  5
1F42
330
1F41
100
AcDbEntity
  8
0
 48
4.0
100
AcDbBlockBegin
  2
*D40
 70
     1
 10
0.0
 20
0.0
 30
0.0
  3
*D40
  1

  0
LINE
  5
1FCC
330
1F41
100
AcDbEntity
  8
0Wymiary-PL
 62
     1
 48
4.0
370
    -2
100
AcDbLine
 10
64632.46624688706
 20
-3731.700589692189
 30
0.0
 11
64632.46624688706
 21
-4668.688566810977
 31
0.0
  0
INSERT
  5
1FCD
330
1F41
100
AcDbEntity
  8
0Wymiary-PL
 62
     1
 48
4.0
370
    -2
100
AcDbBlockReference
  2
B-DIM
 10
64632.46624688706
 20
-3701.700589692189
 30
0.0
 41
30.0
 42
30.0
 43
30.0
 50
90.0
  0
INSERT
  5
1FCE
330
1F41
100
AcDbEntity
  8
0Wymiary-PL
 62
     1
 48
4.0
370
    -2
100
AcDbBlockReference
  2
B-DIM
 10
64632.46624688706
 20
-4698.688566810977
 30
0.0
 41
30.0
 42
30.0
 43
30.0
 50
270.0
  0
MTEXT
  5
1FCF
330
1F41
100
AcDbEntity
  8
0Wymiary-PL
 62
   140
 48
4.0
100
AcDbMText
 10
64552.46624688706
 20
-4200.194578251572
 30
0.0
 40
80.0
 41
0.0
 71
     5
 72
     1
  1
\A1;997
  7
ROMANS
 11
0.0000000000000001
 21
1.0
 31
0.0
 73
     1
 44
1.0
1001
ACAD
1000
MTEXTBEGIN
1070
    73
1070
     1
1070
    44
1040
1.0
1070
    74
1070
     0
1000
MTEXTEND
  0
POINT
  5
1FD0
330
1F41
100
AcDbEntity
  8
Defpoints
 62
     0
 48
4.0
100
AcDbPoint
 10
64165.47785946709
 20
-3701.700589692188
 30
0.0
  0
POINT
  5
1FD1
330
1F41
100
AcDbEntity
  8
Defpoints
 62
     0
 48
4.0
100
AcDbPoint
 10
64432.46624688707
 20
-4698.688566810977
 30
0.0
  0
POINT
  5
1FD2
330
1F41
100
AcDbEntity
  8
Defpoints
 62
     0
 48
4.0
100
AcDbPoint
 10
64632.46624688706
 20
-4698.688566810977
 30
0.0
  0
ENDBLK
  5
1F43
330
1F41
100
AcDbEntity
  8
0
 48
4.0
100
AcDbBlockEnd
  0
BLOCK
  5
1F4C
330
1F4B
100
AcDbEntity
  8
0
 48
4.0
100
AcDbBlockBegin
  2
*D41
 70
     1
 10
0.0
 20
0.0
 30
0.0
  3
*D41
  1

  0
LINE
  5
1FD3
330
1F4B
100
AcDbEntity
  8
0Wymiary-PL
 62
     1
 48
4.0
370
    -2
100
AcDbLine
 10
64832.46624688707
 20
-3399.688566810976
 30
0.0
 11
64832.46624688707
 21
-4668.688566810977
 31
0.0
  0
INSERT
  5
1FD4
330
1F4B
100
AcDbEntity
  8
0Wymiary-PL
 62
     1
 48
4.0
370
    -2
100
AcDbBlockReference
  2
B-DIM
 10
64832.46624688707
 20
-3369.688566810976
 30
0.0
 41
30.0
 42
30.0
 43
30.0
 50
90.0
  0
INSERT
  5
1FD5
330
1F4B
100
AcDbEntity
  8
0Wymiary-PL
 62
     1
 48
4.0
370
    -2
100
AcDbBlockReference
  2
B-DIM
 10
64832.46624688707
 20
-4698.688566810977
 30
0.0
 41
30.0
 42
30.0
 43
30.0
 50
270.0
  0
MTEXT
  5
1FD6
330
1F4B
100
AcDbEntity
  8
0Wymiary-PL
 62
   140
 48
4.0
100
AcDbMText
 10
64752.46624688707
 20
-4034.188566810966
 30
0.0
 40
80.0
 41
0.0
 71
     5
 72
     1
  1
\A1;1329
  7
ROMANS
 11
0.0000000000000001
 21
1.0
 31
0.0
 73
     1
 44
1.0
1001
ACAD
1000
MTEXTBEGIN
1070
    73
1070
     1
1070
    44
1040
1.0
1070
    74
1070
     0
1000
MTEXTEND
  0
POINT
  5
1FD7
330
1F4B
100
AcDbEntity
  8
Defpoints
 62
     0
 48
4.0
100
AcDbPoint
 10
64165.46290847559
 20
-3369.688566810975
 30
0.0
  0
POINT
  5
1FD8
330
1F4B
100
AcDbEntity
  8
Defpoints
 62
     0
 48
4.0
100
AcDbPoint
 10
64165.46290847559
 20
-4698.688566810977
 30
0.0
  0
POINT
  5
1FD9
330
1F4B
100
AcDbEntity
  8
Defpoints
 62
     0
 48
4.0
100
AcDbPoint
 10
64832.46624688707
 20
-4698.688566810977
 30
0.0
  0
ENDBLK
  5
1F4D
330
1F4B
100
AcDbEntity
  8
0
 48
4.0
100
AcDbBlockEnd
  0
BLOCK
  5
1F56
330
1F55
100
AcDbEntity
  8
0
 48
4.0
100
AcDbBlockBegin
  2
*D42
 70
     1
 10
0.0
 20
0.0
 30
0.0
  3
*D42
  1

  0
LINE
  5
1FDA
330
1F55
100
AcDbEntity
  8
0Wymiary-PL
 62
     1
 48
4.0
370
    -2
100
AcDbLine
 10
64402.46624688707
 20
-4898.688566810977
 30
0.0
 11
63804.46624688706
 21
-4898.688566810977
 31
0.0
  0
INSERT
  5
1FDB
330
1F55
100
AcDbEntity
  8
0Wymiary-PL
 62
     1
 48
4.0
370
    -2
100
AcDbBlockReference
  2
B-DIM
 10
64432.46624688707
 20
-4898.688566810977
 30
0.0
 41
30.0
 42
30.0
 43
30.0
  0
INSERT
  5
1FDC
330
1F55
100
AcDbEntity
  8
0Wymiary-PL
 62
     1
 48
4.0
370
    -2
100
AcDbBlockReference
  2
B-DIM
 10
63774.46624688706
 20
-4898.688566810977
 30
0.0
 41
30.0
 42
30.0
 43
30.0
 50
180.0
  0
MTEXT
  5
1FDD
330
1F55
100
AcDbEntity
  8
0Wymiary-PL
 62
   140
 48
4.0
100
AcDbMText
 10
64103.46624688706
 20
-4818.688566810977
 30
0.0
 40
80.0
 41
0.0
 71
     5
 72
     1
  1
\A1;658
  7
ROMANS
 73
     1
 44
1.0
1001
ACAD
1000
MTEXTBEGIN
1070
    73
1070
     1
1070
    44
1040
1.0
1070
    74
1070
     0
1000
MTEXTEND
  0
POINT
  5
1FDE
330
1F55
100
AcDbEntity
  8
Defpoints
 62
     0
 48
4.0
100
AcDbPoint
 10
64432.46624688707
 20
-4706.009111174951
 30
0.0
  0
POINT
  5
1FDF
330
1F55
100
AcDbEntity
  8
Defpoints
 62
     0
 48
4.0
100
AcDbPoint
 10
63774.46624688706
 20
-4706.009111174927
 30
0.0
  0
POINT
  5
1FE0
330
1F55
100
AcDbEntity
  8
Defpoints
 62
     0
 48
4.0
100
AcDbPoint
 10
63774.46624688706
 20
-4898.688566810977
 30
0.0
  0
ENDBLK
  5
1F57
330
1F55
100
AcDbEntity
  8
0
 48
4.0
100
AcDbBlockEnd
  0
BLOCK
  5
1F60
330
1F5F
100
AcDbEntity
  8
0
 48
4.0
100
AcDbBlockBegin
  2
*D43
 70
     1
 10
0.0
 20
0.0
 30
0.0
  3
*D43
  1

  0
LINE
  5
1FE1
330
1F5F
100
AcDbEntity
  8
0Wymiary-PL
 62
     1
 48
4.0
370
    -2
100
AcDbLine
 10
63744.46624688705
 20
-4898.688566810977
 30
0.0
 11
62953.46624688708
 21
-4898.688566810977
 31
0.0
  0
INSERT
  5
1FE2
330
1F5F
100
AcDbEntity
  8
0Wymiary-PL
 62
     1
 48
4.0
370
    -2
100
AcDbBlockReference
  2
B-DIM
 10
63774.46624688706
 20
-4898.688566810977
 30
0.0
 41
30.0
 42
30.0
 43
30.0
  0
INSERT
  5
1FE3
330
1F5F
100
AcDbEntity
  8
0Wymiary-PL
 62
     1
 48
4.0
370
    -2
100
AcDbBlockReference
  2
B-DIM
 10
62923.46624688708
 20
-4898.688566810977
 30
0.0
 41
30.0
 42
30.0
 43
30.0
 50
180.0
  0
MTEXT
  5
1FE4
330
1F5F
100
AcDbEntity
  8
0Wymiary-PL
 62
   140
 48
4.0
100
AcDbMText
 10
63348.96624688706
 20
-4818.688566810977
 30
0.0
 40
80.0
 41
0.0
 71
     5
 72
     1
  1
\A1;851
  7
ROMANS
 73
     1
 44
1.0
1001
ACAD
1000
MTEXTBEGIN
1070
    73
1070
     1
1070
    44
1040
1.0
1070
    74
1070
     0
1000
MTEXTEND
  0
POINT
  5
1FE5
330
1F5F
100
AcDbEntity
  8
Defpoints
 62
     0
 48
4.0
100
AcDbPoint
 10
63774.46624688706
 20
-4706.009111174927
 30
0.0
  0
POINT
  5
1FE6
330
1F5F
100
AcDbEntity
  8
Defpoints
 62
     0
 48
4.0
100
AcDbPoint
 10
62923.46624688708
 20
-4280.688566810897
 30
0.0
  0
POINT
  5
1FE7
330
1F5F
100
AcDbEntity
  8
Defpoints
 62
     0
 48
4.0
100
AcDbPoint
 10
62923.46624688708
 20
-4898.688566810977
 30
0.0
  0
ENDBLK
  5
1F61
330
1F5F
100
AcDbEntity
  8
0
 48
4.0
100
AcDbBlockEnd
  0
BLOCK
  5
1F6A
330
1F69
100
AcDbEntity
  8
0
 48
4.0
100
AcDbBlockBegin
  2
*D44
 70
     1
 10
0.0
 20
0.0
 30
0.0
  3
*D44
  1

  0
LINE
  5
1FE8
330
1F69
100
AcDbEntity
  8
0Wymiary-PL
 62
     1
 48
4.0
370
    -2
100
AcDbLine
 10
62953.46624688708
 20
-4898.688566810977
 30
0.0
 11
62983.46624688708
 21
-4898.688566810977
 31
0.0
  0
LINE
  5
1FE9
330
1F69
100
AcDbEntity
  8
0Wymiary-PL
 62
     1
 48
4.0
370
    -2
100
AcDbLine
 10
62784.46624688687
 20
-4898.688566810977
 30
0.0
 11
62754.46624688687
 21
-4898.688566810977
 31
0.0
  0
LINE
  5
1FEA
330
1F69
100
AcDbEntity
  8
0Wymiary-PL
 62
     1
 48
4.0
370
    -2
100
AcDbLine
 10
62923.46624688708
 20
-4898.688566810977
 30
0.0
 11
62814.46624688687
 21
-4898.688566810977
 31
0.0
  0
INSERT
  5
1FEB
330
1F69
100
AcDbEntity
  8
0Wymiary-PL
 62
     1
 48
4.0
370
    -2
100
AcDbBlockReference
  2
B-DIM
 10
62923.46624688708
 20
-4898.688566810977
 30
0.0
 41
30.0
 42
30.0
 43
30.0
 50
180.0
  0
INSERT
  5
1FEC
330
1F69
100
AcDbEntity
  8
0Wymiary-PL
 62
     1
 48
4.0
370
    -2
100
AcDbBlockReference
  2
B-DIM
 10
62814.46624688687
 20
-4898.688566810977
 30
0.0
 41
30.0
 42
30.0
 43
30.0
  0
MTEXT
  5
1FED
330
1F69
100
AcDbEntity
  8
0Wymiary-PL
 62
   140
 48
4.0
100
AcDbMText
 10
62868.96624688698
 20
-4818.688566810977
 30
0.0
 40
80.0
 41
0.0
 71
     5
 72
     1
  1
\A1;109
  7
ROMANS
 73
     1
 44
1.0
1001
ACAD
1000
MTEXTBEGIN
1070
    73
1070
     1
1070
    44
1040
1.0
1070
    74
1070
     0
1000
MTEXTEND
  0
POINT
  5
1FEE
330
1F69
100
AcDbEntity
  8
Defpoints
 62
     0
 48
4.0
100
AcDbPoint
 10
62923.46624688708
 20
-4280.688566810897
 30
0.0
  0
POINT
  5
1FEF
330
1F69
100
AcDbEntity
  8
Defpoints
 62
     0
 48
4.0
100
AcDbPoint
 10
62814.46624688687
 20
-3599.076707370548
 30
0.0
  0
POINT
  5
1FF0
330
1F69
100
AcDbEntity
  8
Defpoints
 62
     0
 48
4.0
100
AcDbPoint
 10
62814.46624688687
 20
-4898.688566810977
 30
0.0
  0
ENDBLK
  5
1F6B
330
1F69
100
AcDbEntity
  8
0
 48
4.0
100
AcDbBlockEnd
  0
BLOCK
  5
1F76
330
1F75
100
AcDbEntity
  8
0
 48
4.0
100
AcDbBlockBegin
  2
*D45
 70
     1
 10
0.0
 20
0.0
 30
0.0
  3
*D45
  1

  0
LINE
  5
1FF1
330
1F75
100
AcDbEntity
  8
0Wymiary-PL
 62
     1
 48
4.0
370
    -2
100
AcDbLine
 10
62584.4662468869
 20
-3399.688566810993
 30
0.0
 11
62584.4662468869
 21
-3759.815550533449
 31
0.0
  0
INSERT
  5
1FF2
330
1F75
100
AcDbEntity
  8
0Wymiary-PL
 62
     1
 48
4.0
370
    -2
100
AcDbBlockReference
  2
B-DIM
 10
62584.4662468869
 20
-3369.688566810993
 30
0.0
 41
30.0
 42
30.0
 43
30.0
 50
90.0
  0
INSERT
  5
1FF3
330
1F75
100
AcDbEntity
  8
0Wymiary-PL
 62
     1
 48
4.0
370
    -2
100
AcDbBlockReference
  2
B-DIM
 10
62584.4662468869
 20
-3789.815550533449
 30
0.0
 41
30.0
 42
30.0
 43
30.0
 50
270.0
  0
MTEXT
  5
1FF4
330
1F75
100
AcDbEntity
  8
0Wymiary-PL
 62
   140
 48
4.0
100
AcDbMText
 10
62504.4662468869
 20
-3579.75205867221
 30
0.0
 40
80.0
 41
0.0
 71
     5
 72
     1
  1
\A1;420
  7
ROMANS
 11
0.0000000000000001
 21
1.0
 31
0.0
 73
     1
 44
1.0
1001
ACAD
1000
MTEXTBEGIN
1070
    73
1070
     1
1070
    44
1040
1.0
1070
    74
1070
     0
1000
MTEXTEND
  0
POINT
  5
1FF5
330
1F75
100
AcDbEntity
  8
Defpoints
 62
     0
 48
4.0
100
AcDbPoint
 10
63010.83531543061
 20
-3369.688566810993
 30
0.0
  0
POINT
  5
1FF6
330
1F75
100
AcDbEntity
  8
Defpoints
 62
     0
 48
4.0
100
AcDbPoint
 10
62923.46624688708
 20
-3789.815550533449
 30
0.0
  0
POINT
  5
1FF7
330
1F75
100
AcDbEntity
  8
Defpoints
 62
     0
 48
4.0
100
AcDbPoint
 10
62584.4662468869
 20
-3789.815550533449
 30
0.0
  0
ENDBLK
  5
1F77
330
1F75
100
AcDbEntity
  8
0
 48
4.0
100
AcDbBlockEnd
  0
BLOCK
  5
1F80
330
1F7F
100
AcDbEntity
  8
0
 48
4.0
100
AcDbBlockBegin
  2
*D46
 70
     1
 10
0.0
 20
0.0
 30
0.0
  3
*D46
  1

  0
LINE
  5
1FF8
330
1F7F
100
AcDbEntity
  8
0Wymiary-PL
 62
     1
 48
4.0
370
    -2
100
AcDbLine
 10
62584.4662468869
 20
-3819.815550533449
 30
0.0
 11
62584.4662468869
 21
-4250.688566810897
 31
0.0
  0
INSERT
  5
1FF9
330
1F7F
100
AcDbEntity
  8
0Wymiary-PL
 62
     1
 48
4.0
370
    -2
100
AcDbBlockReference
  2
B-DIM
 10
62584.4662468869
 20
-3789.815550533449
 30
0.0
 41
30.0
 42
30.0
 43
30.0
 50
90.0
  0
INSERT
  5
1FFA
330
1F7F
100
AcDbEntity
  8
0Wymiary-PL
 62
     1
 48
4.0
370
    -2
100
AcDbBlockReference
  2
B-DIM
 10
62584.4662468869
 20
-4280.688566810897
 30
0.0
 41
30.0
 42
30.0
 43
30.0
 50
270.0
  0
MTEXT
  5
1FFB
330
1F7F
100
AcDbEntity
  8
0Wymiary-PL
 62
   140
 48
4.0
100
AcDbMText
 10
62504.4662468869
 20
-4035.252058672162
 30
0.0
 40
80.0
 41
0.0
 71
     5
 72
     1
  1
\A1;491
  7
ROMANS
 11
0.0000000000000001
 21
1.0
 31
0.0
 73
     1
 44
1.0
1001
ACAD
1000
MTEXTBEGIN
1070
    73
1070
     1
1070
    44
1040
1.0
1070
    74
1070
     0
1000
MTEXTEND
  0
POINT
  5
1FFC
330
1F7F
100
AcDbEntity
  8
Defpoints
 62
     0
 48
4.0
100
AcDbPoint
 10
62923.46624688708
 20
-3789.815550533449
 30
0.0
  0
POINT
  5
1FFD
330
1F7F
100
AcDbEntity
  8
Defpoints
 62
     0
 48
4.0
100
AcDbPoint
 10
62923.46624688708
 20
-4280.688566810897
 30
0.0
  0
POINT
  5
1FFE
330
1F7F
100
AcDbEntity
  8
Defpoints
 62
     0
 48
4.0
100
AcDbPoint
 10
62584.4662468869
 20
-4280.688566810897
 30
0.0
  0
ENDBLK
  5
1F81
330
1F7F
100
AcDbEntity
  8
0
 48
4.0
100
AcDbBlockEnd
  0
BLOCK
  5
1F8A
330
1F89
100
AcDbEntity
  8
0
 48
4.0
100
AcDbBlockBegin
  2
*D47
 70
     1
 10
0.0
 20
0.0
 30
0.0
  3
*D47
  1

  0
LINE
  5
1FFF
330
1F89
100
AcDbEntity
  8
0Wymiary-PL
 62
     1
 48
4.0
370
    -2
100
AcDbLine
 10
62584.4662468869
 20
-4310.688566810897
 30
0.0
 11
62584.4662468869
 21
-4668.688566810976
 31
0.0
  0
INSERT
  5
2000
330
1F89
100
AcDbEntity
  8
0Wymiary-PL
 62
     1
 48
4.0
370
    -2
100
AcDbBlockReference
  2
B-DIM
 10
62584.4662468869
 20
-4280.688566810897
 30
0.0
 41
30.0
 42
30.0
 43
30.0
 50
90.0
  0
INSERT
  5
2001
330
1F89
100
AcDbEntity
  8
0Wymiary-PL
 62
     1
 48
4.0
370
    -2
100
AcDbBlockReference
  2
B-DIM
 10
62584.4662468869
 20
-4698.688566810976
 30
0.0
 41
30.0
 42
30.0
 43
30.0
 50
270.0
  0
MTEXT
  5
2002
330
1F89
100
AcDbEntity
  8
0Wymiary-PL
 62
   140
 48
4.0
100
AcDbMText
 10
62504.4662468869
 20
-4489.688566810926
 30
0.0
 40
80.0
 41
0.0
 71
     5
 72
     1
  1
\A1;418
  7
ROMANS
 11
0.0000000000000001
 21
1.0
 31
0.0
 73
     1
 44
1.0
1001
ACAD
1000
MTEXTBEGIN
1070
    73
1070
     1
1070
    44
1040
1.0
1070
    74
1070
     0
1000
MTEXTEND
  0
POINT
  5
2003
330
1F89
100
AcDbEntity
  8
Defpoints
 62
     0
 48
4.0
100
AcDbPoint
 10
62923.46624688708
 20
-4280.688566810897
 30
0.0
  0
POINT
  5
2004
330
1F89
100
AcDbEntity
  8
Defpoints
 62
     0
 48
4.0
100
AcDbPoint
 10
63774.46624688706
 20
-4698.688566810977
 30
0.0
  0
POINT
  5
2005
330
1F89
100
AcDbEntity
  8
Defpoints
 62
     0
 48
4.0
100
AcDbPoint
 10
62584.4662468869
 20
-4698.688566810976
 30
0.0
  0
ENDBLK
  5
1F8B
330
1F89
100
AcDbEntity
  8
0
 48
4.0
100
AcDbBlockEnd
  0
BLOCK
  5
1F94
330
1F93
100
AcDbEntity
  8
0
 48
4.0
100
AcDbBlockBegin
  2
*D48
 70
     1
 10
0.0
 20
0.0
 30
0.0
  3
*D48
  1

  0
LINE
  5
2006
330
1F93
100
AcDbEntity
  8
0Wymiary-PL
 62
     1
 48
4.0
370
    -2
100
AcDbLine
 10
64402.46624688707
 20
-2725.308451184729
 30
0.0
 11
64195.46290847559
 21
-2725.308451184729
 31
0.0
  0
INSERT
  5
2007
330
1F93
100
AcDbEntity
  8
0Wymiary-PL
 62
     1
 48
4.0
370
    -2
100
AcDbBlockReference
  2
B-DIM
 10
64432.46624688707
 20
-2725.308451184729
 30
0.0
 41
30.0
 42
30.0
 43
30.0
  0
INSERT
  5
2008
330
1F93
100
AcDbEntity
  8
0Wymiary-PL
 62
     1
 48
4.0
370
    -2
100
AcDbBlockReference
  2
B-DIM
 10
64165.46290847559
 20
-2725.308451184729
 30
0.0
 41
30.0
 42
30.0
 43
30.0
 50
180.0
  0
MTEXT
  5
2009
330
1F93
100
AcDbEntity
  8
0Wymiary-PL
 62
   140
 48
4.0
100
AcDbMText
 10
64298.96457768133
 20
-2645.308451184729
 30
0.0
 40
80.0
 41
0.0
 71
     5
 72
     1
  1
\A1;267
  7
ROMANS
 73
     1
 44
1.0
1001
ACAD
1000
MTEXTBEGIN
1070
    73
1070
     1
1070
    44
1040
1.0
1070
    74
1070
     0
1000
MTEXTEND
  0
POINT
  5
200A
330
1F93
100
AcDbEntity
  8
Defpoints
 62
     0
 48
4.0
100
AcDbPoint
 10
64432.46624688707
 20
-3701.688566810978
 30
0.0
  0
POINT
  5
200B
330
1F93
100
AcDbEntity
  8
Defpoints
 62
     0
 48
4.0
100
AcDbPoint
 10
64165.46290847559
 20
-3701.688566810978
 30
0.0
  0
POINT
  5
200C
330
1F93
100
AcDbEntity
  8
Defpoints
 62
     0
 48
4.0
100
AcDbPoint
 10
64165.46290847559
 20
-2725.308451184729
 30
0.0
  0
ENDBLK
  5
1F95
330
1F93
100
AcDbEntity
  8
0
 48
4.0
100
AcDbBlockEnd
  0
BLOCK
  5
1F9E
330
1F9D
100
AcDbEntity
  8
0
 48
4.0
100
AcDbBlockBegin
  2
*D49
 70
     1
 10
0.0
 20
0.0
 30
0.0
  3
*D49
  1

  0
LINE
  5
200D
330
1F9D
100
AcDbEntity
  8
0Wymiary-PL
 62
     1
 48
4.0
370
    -2
100
AcDbLine
 10
64135.46290847559
 20
-2725.308451184729
 30
0.0
 11
63784.46624688707
 21
-2725.308451184729
 31
0.0
  0
INSERT
  5
200E
330
1F9D
100
AcDbEntity
  8
0Wymiary-PL
 62
     1
 48
4.0
370
    -2
100
AcDbBlockReference
  2
B-DIM
 10
64165.46290847559
 20
-2725.308451184729
 30
0.0
 41
30.0
 42
30.0
 43
30.0
  0
INSERT
  5
200F
330
1F9D
100
AcDbEntity
  8
0Wymiary-PL
 62
     1
 48
4.0
370
    -2
100
AcDbBlockReference
  2
B-DIM
 10
63754.46624688707
 20
-2725.308451184729
 30
0.0
 41
30.0
 42
30.0
 43
30.0
 50
180.0
  0
MTEXT
  5
2010
330
1F9D
100
AcDbEntity
  8
0Wymiary-PL
 62
   140
 48
4.0
100
AcDbMText
 10
63959.96457768132
 20
-2645.308451184729
 30
0.0
 40
80.0
 41
0.0
 71
     5
 72
     1
  1
\A1;411
  7
ROMANS
 73
     1
 44
1.0
1001
ACAD
1000
MTEXTBEGIN
1070
    73
1070
     1
1070
    44
1040
1.0
1070
    74
1070
     0
1000
MTEXTEND
  0
POINT
  5
2011
330
1F9D
100
AcDbEntity
  8
Defpoints
 62
     0
 48
4.0
100
AcDbPoint
 10
64165.46290847559
 20
-3701.688566810978
 30
0.0
  0
POINT
  5
2012
330
1F9D
100
AcDbEntity
  8
Defpoints
 62
     0
 48
4.0
100
AcDbPoint
 10
63754.46624688707
 20
-3369.688566810977
 30
0.0
  0
POINT
  5
2013
330
1F9D
100
AcDbEntity
  8
Defpoints
 62
     0
 48
4.0
100
AcDbPoint
 10
63754.46624688707
 20
-2725.308451184729
 30
0.0
  0
ENDBLK
  5
1F9F
330
1F9D
100
AcDbEntity
  8
0
 48
4.0
100
AcDbBlockEnd
  0
BLOCK
  5
1FA8
330
1FA7
100
AcDbEntity
  8
0
 48
4.0
100
AcDbBlockBegin
  2
*D50
 70
     1
 10
0.0
 20
0.0
 30
0.0
  3
*D50
  1

  0
LINE
  5
2014
330
1FA7
100
AcDbEntity
  8
0Wymiary-PL
 62
     1
 48
4.0
370
    -2
100
AcDbLine
 10
63724.46624688707
 20
-2725.308451184729
 30
0.0
 11
63264.59323060912
 21
-2725.308451184729
 31
0.0
  0
INSERT
  5
2015
330
1FA7
100
AcDbEntity
  8
0Wymiary-PL
 62
     1
 48
4.0
370
    -2
100
AcDbBlockReference
  2
B-DIM
 10
63754.46624688707
 20
-2725.308451184729
 30
0.0
 41
30.0
 42
30.0
 43
30.0
  0
INSERT
  5
2016
330
1FA7
100
AcDbEntity
  8
0Wymiary-PL
 62
     1
 48
4.0
370
    -2
100
AcDbBlockReference
  2
B-DIM
 10
63234.59323060912
 20
-2725.308451184729
 30
0.0
 41
30.0
 42
30.0
 43
30.0
 50
180.0
  0
MTEXT
  5
2017
330
1FA7
100
AcDbEntity
  8
0Wymiary-PL
 62
   140
 48
4.0
100
AcDbMText
 10
63494.52973874809
 20
-2645.308451184729
 30
0.0
 40
80.0
 41
0.0
 71
     5
 72
     1
  1
\A1;520
  7
ROMANS
 73
     1
 44
1.0
1001
ACAD
1000
MTEXTBEGIN
1070
    73
1070
     1
1070
    44
1040
1.0
1070
    74
1070
     0
1000
MTEXTEND
  0
POINT
  5
2018
330
1FA7
100
AcDbEntity
  8
Defpoints
 62
     0
 48
4.0
100
AcDbPoint
 10
63754.46624688707
 20
-3369.688566810977
 30
0.0
  0
POINT
  5
2019
330
1FA7
100
AcDbEntity
  8
Defpoints
 62
     0
 48
4.0
100
AcDbPoint
 10
63234.59323060912
 20
-3478.688566810975
 30
0.0
  0
POINT
  5
201A
330
1FA7
100
AcDbEntity
  8
Defpoints
 62
     0
 48
4.0
100
AcDbPoint
 10
63234.59323060912
 20
-2725.308451184729
 30
0.0
  0
ENDBLK
  5
1FA9
330
1FA7
100
AcDbEntity
  8
0
 48
4.0
100
AcDbBlockEnd
  0
BLOCK
  5
1FB2
330
1FB1
100
AcDbEntity
  8
0
 48
4.0
100
AcDbBlockBegin
  2
*D51
 70
     1
 10
0.0
 20
0.0
 30
0.0
  3
*D51
  1

  0
LINE
  5
201B
330
1FB1
100
AcDbEntity
  8
0Wymiary-PL
 62
     1
 48
4.0
370
    -2
100
AcDbLine
 10
63204.59323060912
 20
-2725.308451184729
 30
0.0
 11
62844.46624688682
 21
-2725.308451184729
 31
0.0
  0
INSERT
  5
201C
330
1FB1
100
AcDbEntity
  8
0Wymiary-PL
 62
     1
 48
4.0
370
    -2
100
AcDbBlockReference
  2
B-DIM
 10
63234.59323060912
 20
-2725.308451184729
 30
0.0
 41
30.0
 42
30.0
 43
30.0
  0
INSERT
  5
201D
330
1FB1
100
AcDbEntity
  8
0Wymiary-PL
 62
     1
 48
4.0
370
    -2
100
AcDbBlockReference
  2
B-DIM
 10
62814.46624688682
 20
-2725.308451184729
 30
0.0
 41
30.0
 42
30.0
 43
30.0
 50
180.0
  0
MTEXT
  5
201E
330
1FB1
100
AcDbEntity
  8
0Wymiary-PL
 62
   140
 48
4.0
100
AcDbMText
 10
63024.52973874798
 20
-2645.308451184729
 30
0.0
 40
80.0
 41
0.0
 71
     5
 72
     1
  1
\A1;420
  7
ROMANS
 73
     1
 44
1.0
1001
ACAD
1000
MTEXTBEGIN
1070
    73
1070
     1
1070
    44
1040
1.0
1070
    74
1070
     0
1000
MTEXTEND
  0
POINT
  5
201F
330
1FB1
100
AcDbEntity
  8
Defpoints
 62
     0
 48
4.0
100
AcDbPoint
 10
63234.59323060912
 20
-3478.688566810975
 30
0.0
  0
POINT
  5
2020
330
1FB1
100
AcDbEntity
  8
Defpoints
 62
     0
 48
4.0
100
AcDbPoint
 10
62814.46624688682
 20
-3498.561583089178
 30
0.0
  0
POINT
  5
2021
330
1FB1
100
AcDbEntity
  8
Defpoints
 62
     0
 48
4.0
100
AcDbPoint
 10
62814.46624688682
 20
-2725.308451184729
 30
0.0
  0
ENDBLK
  5
1FB3
330
1FB1
100
AcDbEntity
  8
0
 48
4.0
100
AcDbBlockEnd
  0
BLOCK
  5
1FBC
330
1FBB
100
AcDbEntity
  8
0
 48
4.0
100
AcDbBlockBegin
  2
*D52
 70
     1
 10
0.0
 20
0.0
 30
0.0
  3
*D52
  1

  0
LINE
  5
2022
330
1FBB
100
AcDbEntity
  8
0Wymiary-PL
 62
     1
 48
4.0
370
    -2
100
AcDbLine
 10
64402.46624688707
 20
-2525.308451184729
 30
0.0
 11
62844.4662468869
 21
-2525.308451184729
 31
0.0
  0
INSERT
  5
2023
330
1FBB
100
AcDbEntity
  8
0Wymiary-PL
 62
     1
 48
4.0
370
    -2
100
AcDbBlockReference
  2
B-DIM
 10
64432.46624688707
 20
-2525.308451184729
 30
0.0
 41
30.0
 42
30.0
 43
30.0
  0
INSERT
  5
2024
330
1FBB
100
AcDbEntity
  8
0Wymiary-PL
 62
     1
 48
4.0
370
    -2
100
AcDbBlockReference
  2
B-DIM
 10
62814.46624688689
 20
-2525.308451184729
 30
0.0
 41
30.0
 42
30.0
 43
30.0
 50
180.0
  0
MTEXT
  5
2025
330
1FBB
100
AcDbEntity
  8
0Wymiary-PL
 62
   140
 48
4.0
100
AcDbMText
 10
63623.46624688698
 20
-2445.308451184728
 30
0.0
 40
80.0
 41
0.0
 71
     5
 72
     1
  1
\A1;1618
  7
ROMANS
 73
     1
 44
1.0
1001
ACAD
1000
MTEXTBEGIN
1070
    73
1070
     1
1070
    44
1040
1.0
1070
    74
1070
     0
1000
MTEXTEND
  0
POINT
  5
2026
330
1FBB
100
AcDbEntity
  8
Defpoints
 62
     0
 48
4.0
100
AcDbPoint
 10
64432.46624688707
 20
-3701.688566810978
 30
0.0
  0
POINT
  5
2027
330
1FBB
100
AcDbEntity
  8
Defpoints
 62
     0
 48
4.0
100
AcDbPoint
 10
62814.46624688689
 20
-3680.815550533345
 30
0.0
  0
POINT
  5
2028
330
1FBB
100
AcDbEntity
  8
Defpoints
 62
     0
 48
4.0
100
AcDbPoint
 10
62814.46624688689
 20
-2525.308451184729
 30
0.0
  0
ENDBLK
  5
1FBD
330
1FBB
100
AcDbEntity
  8
0
 48
4.0
100
AcDbBlockEnd
  0
ENDSEC
  0
SECTION
  2
ENTITIES
  0
LWPOLYLINE
  5
1A8A
330
2
100
AcDbEntity
  8
RAMKI-A4
100
AcDbPolyline
 90
        4
 70
     1
 43
0.0
 10
55955.29776981013
 20
-12830.40384687605
 10
55955.29776981013
 20
1189.596153123944
 10
66155.29776981015
 20
1189.596153123944
 10
66155.29776981015
 20
-12830.40384687605
  0
TEXT
  5
1A8B
330
2
100
AcDbEntity
  8
NAPISY
100
AcDbText
 10
57414.64971648511
 20
-12164.84776397352
 30
0.0
 40
100.0
  1
   O B R Y S   B U D Y N K U           S K A L A   1 : 5 0 0 
  7
AVA
100
AcDbText
  0
TEXT
  5
1A9E
330
2
100
AcDbEntity
  8
NAPISY
100
AcDbText
 10
57510.86276760301
 20
298.5174969083455
 30
0.0
 40
150.0
  1
MOŻNA WKLEIĆ DO PROJEKTU ZAGOSPODAROWANIA TERENU
  7
AVA
100
AcDbText
  0
TEXT
  5
1AA0
330
2
100
AcDbEntity
  8
NAPISY
100
AcDbText
 10
61108.46578309452
 20
-5735.609631506609
 30
0.0
 40
100.0
  1
OŚ ODBICIA LUSTRZANEGO
 50
90.0
  7
AVA
100
AcDbText
  0
LINE
  5
1AA1
330
2
100
AcDbEntity
  8
NAPISY
  6
DASHED
 62
     1
 48
25.0
370
     5
100
AcDbLine
 10
61167.98696008785
 20
-6817.256794327143
 30
0.0
 11
61167.98696008785
 21
-2014.79973684976
 31
0.0
  0
TEXT
  5
1AA2
330
2
100
AcDbEntity
  8
NAPISY
100
AcDbText
 10
57434.52749696787
 20
628.3859742711065
 30
0.0
 40
150.0
  1
"DOM W HIBISKUSIE"
  7
AVA
100
AcDbText
  0
LINE
  5
1CDB
330
2
100
AcDbEntity
  8
A-MassElement-G
  6
Continuous
 62
   210
370
    -3
100
AcDbLine
 10
58551.50767328862
 20
-3089.144218767911
 30
0.0
 11
58491.50767328862
 21
-3089.144218767911
 31
0.0
  0
LINE
  5
1CDC
330
2
100
AcDbEntity
  8
A-MassElement-G
  6
Continuous
 62
   210
370
    -3
100
AcDbLine
 10
58491.50767328862
 20
-3089.144218767911
 30
0.0
 11
58491.50767328862
 21
-3369.688566810975
 31
0.0
  0
LINE
  5
1CDD
330
2
100
AcDbEntity
  8
A-MassElement-G
  6
Continuous
 62
   210
370
    -3
100
AcDbLine
 10
58551.50767328862
 20
-3114.688566810977
 30
0.0
 11
58522.50767328862
 21
-3114.688566810977
 31
0.0
  0
LINE
  5
1CDE
330
2
100
AcDbEntity
  8
A-MassElement-G
  6
Continuous
 62
   210
370
    -3
100
AcDbLine
 10
58491.50767328862
 20
-3144.688566810977
 30
0.0
 11
58551.50767328862
 21
-3144.688566810977
 31
0.0
  0
LINE
  5
1CDF
330
2
100
AcDbEntity
  8
A-MassElement-G
  6
Continuous
 62
   210
370
    -3
100
AcDbLine
 10
58551.50767328862
 20
-3174.688566810977
 30
0.0
 11
58522.50767328862
 21
-3174.688566810977
 31
0.0
  0
LINE
  5
1CE0
330
2
100
AcDbEntity
  8
A-MassElement-G
  6
Continuous
 62
   210
370
    -3
100
AcDbLine
 10
58491.50767328862
 20
-3204.688566810978
 30
0.0
 11
58551.50767328862
 21
-3204.688566810978
 31
0.0
  0
LINE
  5
1CE1
330
2
100
AcDbEntity
  8
A-MassElement-G
  6
Continuous
 62
   210
370
    -3
100
AcDbLine
 10
58551.50767328862
 20
-3234.688566810977
 30
0.0
 11
58522.50767328862
 21
-3234.688566810977
 31
0.0
  0
ARC
  5
1CE2
330
2
100
AcDbEntity
  8
A-MassElement-G
  6
Continuous
 62
   210
370
    -3
100
AcDbCircle
 10
-58581.50767328862
 20
-3009.688566810977
 30
0.0
 40
144.9305635675496
210
0.0
220
0.0
230
-1.0
100
AcDbArc
 50
182.2222807616132
 51
270.0
  0
ARC
  5
1CE3
330
2
100
AcDbEntity
  8
A-MassElement-G
  6
Continuous
 62
   210
370
    -3
100
AcDbCircle
 10
58581.50767328862
 20
-3009.688566810977
 30
0.0
 40
144.9305635675495
100
AcDbArc
 50
270.0
 51
357.7777192383868
  0
ARC
  5
1CE4
330
2
100
AcDbEntity
  8
A-MassElement-G
  6
Continuous
 62
   210
370
    -3
100
AcDbCircle
 10
-58581.50767328862
 20
-3009.688566810977
 30
0.0
 40
114.9305635675501
210
0.0
220
0.0
230
-1.0
100
AcDbArc
 50
182.8027715231967
 51
270.0
  0
ARC
  5
1CE5
330
2
100
AcDbEntity
  8
A-MassElement-G
  6
Continuous
 62
   210
370
    -3
100
AcDbCircle
 10
58581.50767328862
 20
-3009.688566810976
 30
0.0
 40
114.9305635675519
100
AcDbArc
 50
270.0
 51
357.1972284768033
  0
ARC
  5
1CE6
330
2
100
AcDbEntity
  8
A-MassElement-G
  6
Continuous
 62
   210
370
    -3
100
AcDbCircle
 10
-58581.50767328862
 20
-3009.688566810977
 30
0.0
 40
84.93056356754898
210
0.0
220
0.0
230
-1.0
100
AcDbArc
 50
183.794053444458
 51
270.0
  0
ARC
  5
1CE7
330
2
100
AcDbEntity
  8
A-MassElement-G
  6
Continuous
 62
   210
370
    -3
100
AcDbCircle
 10
59321.42724403458
 20
-3332.167588756242
 30
0.0
 40
190.0639140577543
100
AcDbArc
 50
322.1995690277527
 51
120.000000000018
  0
ARC
  5
1CE8
330
2
100
AcDbEntity
  8
A-MassElement-G
  6
Continuous
 62
   210
370
    -3
100
AcDbCircle
 10
-58581.51019802781
 20
-3009.69117400667
 30
0.0
 40
174.9279563900752
210
0.0
220
0.0
230
-1.0
100
AcDbArc
 50
181.8401953604223
 51
270.0008269510632
  0
LINE
  5
1CE9
330
2
100
AcDbEntity
  8
A-MassElement-G
  6
Continuous
 62
   210
370
    -3
100
AcDbLine
 10
58581.50767328862
 20
-3478.688566810975
 30
0.0
 11
58581.50767328862
 21
-3094.619130378525
 31
0.0
  0
ARC
  5
1CEA
330
2
100
AcDbEntity
  8
A-MassElement-G
  6
Continuous
 62
   210
370
    -3
100
AcDbCircle
 10
59321.42724403458
 20
-3332.167588756242
 30
0.0
 40
250.0639140577562
100
AcDbArc
 50
320.4660125461776
 51
113.1096675215535
  0
ARC
  5
1CEB
330
2
100
AcDbEntity
  8
A-MassElement-G
  6
Continuous
 62
   210
370
    -3
100
AcDbCircle
 10
-59321.42724403458
 20
-3332.16758875624
 30
0.0
 40
220.0639140577564
210
0.0
220
0.0
230
-1.0
100
AcDbArc
 50
67.8351891937994
 51
218.7860814242559
  0
ARC
  5
1CEC
330
2
100
AcDbEntity
  8
A-MassElement-G
  6
Continuous
 62
   210
370
    -3
100
AcDbCircle
 10
59321.42724403458
 20
-3332.16758875624
 30
0.0
 40
280.063914057756
100
AcDbArc
 50
325.4893272882741
 51
113.8507692392945
  0
ARC
  5
1CED
330
2
100
AcDbEntity
  8
A-MassElement-G
  6
Continuous
 62
   210
370
    -3
100
AcDbCircle
 10
-59321.42724403458
 20
-3332.16758875624
 30
0.0
 40
250.0639140577558
210
0.0
220
0.0
230
-1.0
100
AcDbArc
 50
66.89033247844649
 51
219.5339874538224
  0
LINE
  5
1CEE
330
2
100
AcDbEntity
  8
A-MassElement-G
  6
Continuous
 62
   210
370
    -3
100
AcDbLine
 10
59155.80904373817
 20
-2985.308451184728
 30
0.0
 11
59253.56732809889
 21
-3154.630766558267
 31
0.0
  0
LINE
  5
1CEF
330
2
100
AcDbEntity
  8
A-MassElement-G
  6
Continuous
 62
   210
370
    -3
100
AcDbLine
 10
59155.80904373817
 20
-2985.308451184728
 30
0.0
 11
58662.86374614094
 21
-2985.308451184728
 31
0.0
  0
LINE
  5
1CF0
330
2
100
AcDbEntity
  8
A-MassElement-G
  6
Continuous
 62
   210
370
    -3
100
AcDbLine
 10
58662.86374614094
 20
-2985.308451184728
 30
0.0
 11
58666.2520980464
 21
-3015.308451184728
 31
0.0
  0
LINE
  5
1CF1
330
2
100
AcDbEntity
  8
A-MassElement-G
  6
Continuous
 62
   210
370
    -3
100
AcDbLine
 10
58666.2520980464
 20
-3015.308451184728
 30
0.0
 11
59138.48853566248
 21
-3015.308451184728
 31
0.0
  0
LINE
  5
1CF2
330
2
100
AcDbEntity
  8
A-MassElement-G
  6
Continuous
 62
   210
370
    -3
100
AcDbLine
 10
59138.48853566248
 20
-3015.308451184728
 30
0.0
 11
59226.39528700571
 21
-3167.567410839522
 31
0.0
  0
LINE
  5
1CF3
330
2
100
AcDbEntity
  8
A-MassElement-G
  6
Continuous
 62
   210
370
    -3
100
AcDbLine
 10
58581.50767328862
 20
-3094.619130378525
 30
0.0
 11
58551.50767328862
 21
-3089.144218767911
 31
0.0
  0
LINE
  5
1CF4
330
2
100
AcDbEntity
  8
A-MassElement-G
  6
Continuous
 62
   210
370
    -3
100
AcDbLine
 10
58551.50767328862
 20
-3089.144218767911
 30
0.0
 11
58551.50767328862
 21
-3369.688566810977
 31
0.0
  0
ARC
  5
1CF5
330
2
100
AcDbEntity
  8
A-MassElement-G
  6
Continuous
 62
   210
370
    -3
100
AcDbCircle
 10
59321.42724403458
 20
-3332.16758875624
 30
0.0
 40
220.0639140577563
100
AcDbArc
 50
321.2139185757441
 51
112.1648108062006
  0
ARC
  5
1CF6
330
2
100
AcDbEntity
  8
A-MassElement-G
  6
Continuous
 62
   210
370
    -3
100
AcDbCircle
 10
-59321.42724403458
 20
-3332.16758875624
 30
0.0
 40
190.0639140577557
210
0.0
220
0.0
230
-1.0
100
AcDbArc
 50
69.08163945971603
 51
217.8004309722473
  0
LINE
  5
1CF7
330
2
100
AcDbEntity
  8
A-MassElement-G
  6
Continuous
 62
   210
370
    -3
100
AcDbLine
 10
58551.50767328862
 20
-3294.688566810977
 30
0.0
 11
58522.50767328862
 21
-3294.688566810977
 31
0.0
  0
LINE
  5
1CF8
330
2
100
AcDbEntity
  8
A-MassElement-G
  6
Continuous
 62
   210
370
    -3
100
AcDbLine
 10
58491.50767328862
 20
-3264.688566810978
 30
0.0
 11
58551.50767328862
 21
-3264.688566810978
 31
0.0
  0
LINE
  5
1CF9
330
2
100
AcDbEntity
  8
A-MassElement-G
  6
Continuous
 62
   210
370
    -3
100
AcDbLine
 10
58491.50767328862
 20
-3324.688566810977
 30
0.0
 11
58551.50767328862
 21
-3324.688566810977
 31
0.0
  0
LINE
  5
1CFA
330
2
100
AcDbEntity
  8
A-MassElement-G
  6
Continuous
 62
   210
370
    -3
100
AcDbLine
 10
58551.50767328862
 20
-3354.688566810978
 30
0.0
 11
58522.50767328862
 21
-3354.688566810978
 31
0.0
  0
LINE
  5
1CFB
330
2
100
AcDbEntity
  8
A-MassElement-G
  6
Continuous
 62
   210
370
    -3
100
AcDbLine
 10
58692.61666778744
 20
-4495.688566810897
 30
0.0
 11
59080.50767328862
 21
-4495.688566810897
 31
0.0
  0
ARC
  5
1CFC
330
2
100
AcDbEntity
  8
A-MassElement-G
  6
Continuous
 62
   210
370
    -3
100
AcDbCircle
 10
59080.50767328862
 20
-4280.688566810897
 30
0.0
 40
215.0000000000015
100
AcDbArc
 50
270.0
 51
358.1342262867025
  0
LINE
  5
1CFD
330
2
100
AcDbEntity
  8
A-MassElement-G
  6
Continuous
 62
   210
370
    -3
100
AcDbLine
 10
58709.21700030772
 20
-4465.688566810896
 30
0.0
 11
59080.50767328862
 21
-4465.688566810896
 31
0.0
  0
ARC
  5
1CFE
330
2
100
AcDbEntity
  8
A-MassElement-G
  6
Continuous
 62
   210
370
    -3
100
AcDbCircle
 10
59080.50767328862
 20
-4280.688566810897
 30
0.0
 40
185.0000000000009
100
AcDbArc
 50
270.0
 51
357.8315339431173
  0
LINE
  5
1CFF
330
2
100
AcDbEntity
  8
A-MassElement-G
  6
Continuous
 62
   210
370
    -3
100
AcDbLine
 10
58719.11427198482
 20
-4435.688566810897
 30
0.0
 11
59080.50767328862
 21
-4435.688566810897
 31
0.0
  0
ARC
  5
1D00
330
2
100
AcDbEntity
  8
A-MassElement-G
  6
Continuous
 62
   210
370
    -3
100
AcDbCircle
 10
59080.50767328862
 20
-4280.688566810897
 30
0.0
 40
155.0000000000001
100
AcDbArc
 50
270.0
 51
357.4115682889094
  0
ARC
  5
1D01
330
2
100
AcDbEntity
  8
A-MassElement-G
  6
Continuous
 62
   210
370
    -3
100
AcDbCircle
 10
-58554.18305917419
 20
-4395.931230645377
 30
0.0
 40
149.3201073109363
210
0.0
220
0.0
230
-1.0
100
AcDbArc
 50
181.6543476204575
 51
267.1883360703103
  0
ARC
  5
1D02
330
2
100
AcDbEntity
  8
A-MassElement-G
  6
Continuous
 62
   210
370
    -3
100
AcDbCircle
 10
58554.24830701513
 20
-4395.959125076451
 30
0.0
 40
169.254090683736
100
AcDbArc
 50
272.4581897937484
 51
358.4538062924328
  0
LINE
  5
1D03
330
2
100
AcDbEntity
  8
A-MassElement-G
  6
Continuous
 62
   210
370
    -3
100
AcDbLine
 10
58723.44077150301
 20
-4400.52609055689
 30
0.0
 11
58723.50767515851
 21
-4280.68186775005
 31
0.0
  0
LINE
  5
1D04
330
2
100
AcDbEntity
  8
A-MassElement-G
  6
Continuous
 62
   210
370
    -3
100
AcDbLine
 10
58703.50767827499
 20
-4280.670702648635
 30
0.0
 11
58703.4409269411
 21
-4400.242072445802
 31
0.0
  0
LINE
  5
1D05
330
2
100
AcDbEntity
  8
A-MassElement-G
  6
Continuous
 62
   210
370
    -3
100
AcDbLine
 10
59412.5076732886
 20
-3832.241957404624
 30
0.0
 11
59551.50767328879
 21
-3693.241957404545
 31
0.0
  0
LINE
  5
1D06
330
2
100
AcDbEntity
  8
A-MassElement-G
  6
Continuous
 62
   210
370
    -3
100
AcDbLine
 10
59551.50767328879
 20
-3693.241957404545
 30
0.0
 11
59551.50767328879
 21
-3491.688566810977
 31
0.0
  0
LINE
  5
1D07
330
2
100
AcDbEntity
  8
A-MassElement-G
100
AcDbLine
 10
58732.50767328862
 20
-4405.688566810918
 30
0.0
 11
58780.50767328862
 21
-4405.688566810918
 31
0.0
  0
LINE
  5
1D08
330
2
100
AcDbEntity
  8
A-MassElement-G
100
AcDbLine
 10
58780.50767328862
 20
-4405.688566810918
 30
0.0
 11
58780.50767328862
 21
-4357.688566810919
 31
0.0
  0
LINE
  5
1D09
330
2
100
AcDbEntity
  8
A-MassElement-G
100
AcDbLine
 10
58780.50767328862
 20
-4357.688566810919
 30
0.0
 11
58732.50767328862
 21
-4357.688566810919
 31
0.0
  0
LINE
  5
1D0A
330
2
100
AcDbEntity
  8
A-MassElement-G
100
AcDbLine
 10
58732.50767328862
 20
-4357.688566810919
 30
0.0
 11
58732.50767328862
 21
-4405.688566810918
 31
0.0
  0
LINE
  5
1D0B
330
2
100
AcDbEntity
  8
0Hatch
100
AcDbLine
 10
58775.50767328862
 20
-4400.688566810919
 30
0.0
 11
58737.5076732885
 21
-4400.688566810919
 31
0.0
  0
LINE
  5
1D0C
330
2
100
AcDbEntity
  8
0Hatch
100
AcDbLine
 10
58737.5076732885
 20
-4400.688566810919
 30
0.0
 11
58737.5076732885
 21
-4362.688566810977
 31
0.0
  0
LINE
  5
1D0D
330
2
100
AcDbEntity
  8
0Hatch
100
AcDbLine
 10
58737.5076732885
 20
-4362.688566810977
 30
0.0
 11
58775.50767328862
 21
-4362.688566810977
 31
0.0
  0
LINE
  5
1D0E
330
2
100
AcDbEntity
  8
0Hatch
100
AcDbLine
 10
58775.50767328862
 20
-4362.688566810977
 30
0.0
 11
58775.50767328862
 21
-4400.688566810919
 31
0.0
  0
LINE
  5
1D0F
330
2
100
AcDbEntity
  8
A-MassElement-G
100
AcDbLine
 10
59000.50767328862
 20
-4405.688566810918
 30
0.0
 11
59000.50767328862
 21
-4357.688566810919
 31
0.0
  0
LINE
  5
1D10
330
2
100
AcDbEntity
  8
A-MassElement-G
100
AcDbLine
 10
59000.50767328862
 20
-4357.688566810919
 30
0.0
 11
59048.50767328862
 21
-4357.688566810919
 31
0.0
  0
LINE
  5
1D11
330
2
100
AcDbEntity
  8
A-MassElement-G
100
AcDbLine
 10
59048.50767328862
 20
-4357.688566810919
 30
0.0
 11
59048.50767328862
 21
-4405.688566810918
 31
0.0
  0
LINE
  5
1D12
330
2
100
AcDbEntity
  8
0Hatch
100
AcDbLine
 10
59005.50767328862
 20
-4400.688566810919
 30
0.0
 11
59043.50767328873
 21
-4400.688566810919
 31
0.0
  0
LINE
  5
1D13
330
2
100
AcDbEntity
  8
0Hatch
100
AcDbLine
 10
59043.50767328873
 20
-4400.688566810919
 30
0.0
 11
59043.50767328873
 21
-4362.688566810977
 31
0.0
  0
LINE
  5
1D14
330
2
100
AcDbEntity
  8
0Hatch
100
AcDbLine
 10
59043.50767328873
 20
-4362.688566810977
 30
0.0
 11
59005.50767328861
 21
-4362.688566810977
 31
0.0
  0
LINE
  5
1D15
330
2
100
AcDbEntity
  8
0Hatch
100
AcDbLine
 10
59005.50767328861
 20
-4362.688566810977
 30
0.0
 11
59005.50767328862
 21
-4400.688566810919
 31
0.0
  0
LINE
  5
1D16
330
2
100
AcDbEntity
  8
A-MassElement-G
  6
Continuous
 62
   210
370
    -3
100
AcDbLine
 10
58780.50767328862
 20
-4405.688566810918
 30
0.0
 11
58732.50767328862
 21
-4405.688566810918
 31
0.0
  0
LINE
  5
1D17
330
2
100
AcDbEntity
  8
A-MassElement-G
  6
Continuous
 62
   210
370
    -3
100
AcDbLine
 10
59000.50767328862
 20
-4405.688566810918
 30
0.0
 11
59048.50767328862
 21
-4405.688566810918
 31
0.0
  0
LINE
  5
1D18
330
2
100
AcDbEntity
  8
0Hatch
100
AcDbLine
 10
58980.50767328862
 20
-4220.68856681091
 30
0.0
 11
58980.50767328862
 21
-4280.688566810909
 31
0.0
  0
LINE
  5
1D19
330
2
100
AcDbEntity
  8
0Hatch
100
AcDbLine
 10
58800.50767328862
 20
-4280.688566810915
 30
0.0
 11
58800.50767328862
 21
-4220.688566810913
 31
0.0
  0
LINE
  5
1D1A
330
2
100
AcDbEntity
  8
0Hatch
100
AcDbLine
 10
58491.50767328862
 20
-4638.688566810979
 30
0.0
 11
58491.50767328862
 21
-4698.688566810977
 31
0.0
  0
LINE
  5
1D1B
330
2
100
AcDbEntity
  8
0Hatch
100
AcDbLine
 10
58251.50767328862
 20
-4698.688566810977
 30
0.0
 11
58251.50767328862
 21
-4638.688566810979
 31
0.0
  0
LINE
  5
1D1C
330
2
100
AcDbEntity
  8
0Hatch
100
AcDbLine
 10
58213.50767328862
 20
-4638.688566810976
 30
0.0
 11
58213.50767328862
 21
-4698.688566810977
 31
0.0
  0
LINE
  5
1D1D
330
2
100
AcDbEntity
  8
0Hatch
100
AcDbLine
 10
57973.50767328862
 20
-4698.688566810977
 30
0.0
 11
57973.50767328862
 21
-4638.688566810976
 31
0.0
  0
LINE
  5
1D1E
330
2
100
AcDbEntity
  8
A-MassElement-G
  6
Continuous
 62
   210
370
    -3
100
AcDbLine
 10
58662.86374614094
 20
-2985.308451184728
 30
0.0
 11
58662.86374614094
 21
-2925.308451184728
 31
0.0
  0
LINE
  5
1D1F
330
2
100
AcDbEntity
  8
A-MassElement-G
  6
Continuous
 62
   210
370
    -3
100
AcDbLine
 10
58662.86374614094
 20
-2925.308451184728
 30
0.0
 11
59190.45005988954
 21
-2925.308451184728
 31
0.0
  0
LINE
  5
1D20
330
2
100
AcDbEntity
  8
A-MassElement-G
  6
Continuous
 62
   210
370
    -3
100
AcDbLine
 10
59190.45005988954
 20
-2925.308451184728
 30
0.0
 11
59266.76504708243
 21
-3057.489886381776
 31
0.0
  0
LINE
  5
1D21
330
2
100
AcDbEntity
  8
A-MassElement-G
  6
Continuous
 62
   210
370
    -3
100
AcDbLine
 10
58752.86374614094
 20
-2985.308451184728
 30
0.0
 11
58752.86374614094
 21
-2956.308451184732
 31
0.0
  0
LINE
  5
1D22
330
2
100
AcDbEntity
  8
A-MassElement-G
  6
Continuous
 62
   210
370
    -3
100
AcDbLine
 10
58722.86374614094
 20
-2925.308451184728
 30
0.0
 11
58722.86374614094
 21
-2985.308451184728
 31
0.0
  0
LINE
  5
1D23
330
2
100
AcDbEntity
  8
A-MassElement-G
  6
Continuous
 62
   210
370
    -3
100
AcDbLine
 10
58692.86374614094
 20
-2985.308451184728
 30
0.0
 11
58692.86374614094
 21
-2956.308451184732
 31
0.0
  0
LINE
  5
1D24
330
2
100
AcDbEntity
  8
A-MassElement-G
  6
Continuous
 62
   210
370
    -3
100
AcDbLine
 10
58662.86374614094
 20
-2925.308451184728
 30
0.0
 11
58662.86374614094
 21
-2985.308451184728
 31
0.0
  0
LINE
  5
1D25
330
2
100
AcDbEntity
  8
A-MassElement-G
  6
Continuous
 62
   210
370
    -3
100
AcDbLine
 10
58812.86374614093
 20
-2985.308451184728
 30
0.0
 11
58812.86374614093
 21
-2956.308451184732
 31
0.0
  0
LINE
  5
1D26
330
2
100
AcDbEntity
  8
A-MassElement-G
  6
Continuous
 62
   210
370
    -3
100
AcDbLine
 10
58782.86374614093
 20
-2925.308451184728
 30
0.0
 11
58782.86374614093
 21
-2985.308451184728
 31
0.0
  0
LINE
  5
1D27
330
2
100
AcDbEntity
  8
A-MassElement-G
  6
Continuous
 62
   210
370
    -3
100
AcDbLine
 10
58872.86374614093
 20
-2985.308451184728
 30
0.0
 11
58872.86374614093
 21
-2956.308451184732
 31
0.0
  0
LINE
  5
1D28
330
2
100
AcDbEntity
  8
A-MassElement-G
  6
Continuous
 62
   210
370
    -3
100
AcDbLine
 10
58842.86374614093
 20
-2925.308451184728
 30
0.0
 11
58842.86374614093
 21
-2985.308451184728
 31
0.0
  0
LINE
  5
1D29
330
2
100
AcDbEntity
  8
A-MassElement-G
  6
Continuous
 62
   210
370
    -3
100
AcDbLine
 10
58932.86374614094
 20
-2985.308451184728
 30
0.0
 11
58932.86374614094
 21
-2956.308451184732
 31
0.0
  0
LINE
  5
1D2A
330
2
100
AcDbEntity
  8
A-MassElement-G
  6
Continuous
 62
   210
370
    -3
100
AcDbLine
 10
58902.86374614094
 20
-2925.308451184728
 30
0.0
 11
58902.86374614094
 21
-2985.308451184728
 31
0.0
  0
LINE
  5
1D2B
330
2
100
AcDbEntity
  8
A-MassElement-G
  6
Continuous
 62
   210
370
    -3
100
AcDbLine
 10
58992.86374614094
 20
-2985.308451184728
 30
0.0
 11
58992.86374614094
 21
-2956.308451184732
 31
0.0
  0
LINE
  5
1D2C
330
2
100
AcDbEntity
  8
A-MassElement-G
  6
Continuous
 62
   210
370
    -3
100
AcDbLine
 10
58962.86374614094
 20
-2925.308451184728
 30
0.0
 11
58962.86374614094
 21
-2985.308451184728
 31
0.0
  0
LINE
  5
1D2D
330
2
100
AcDbEntity
  8
A-MassElement-G
  6
Continuous
 62
   210
370
    -3
100
AcDbLine
 10
59052.86374614093
 20
-2985.308451184728
 30
0.0
 11
59052.86374614093
 21
-2956.308451184732
 31
0.0
  0
LINE
  5
1D2E
330
2
100
AcDbEntity
  8
A-MassElement-G
  6
Continuous
 62
   210
370
    -3
100
AcDbLine
 10
59022.86374614093
 20
-2925.308451184728
 30
0.0
 11
59022.86374614093
 21
-2985.308451184728
 31
0.0
  0
LINE
  5
1D2F
330
2
100
AcDbEntity
  8
A-MassElement-G
  6
Continuous
 62
   210
370
    -3
100
AcDbLine
 10
59112.86374614094
 20
-2985.308451184728
 30
0.0
 11
59112.86374614094
 21
-2956.308451184732
 31
0.0
  0
LINE
  5
1D30
330
2
100
AcDbEntity
  8
A-MassElement-G
  6
Continuous
 62
   210
370
    -3
100
AcDbLine
 10
59082.86374614093
 20
-2925.308451184728
 30
0.0
 11
59082.86374614093
 21
-2985.308451184728
 31
0.0
  0
LINE
  5
1D31
330
2
100
AcDbEntity
  8
A-MassElement-G
  6
Continuous
 62
   210
370
    -3
100
AcDbLine
 10
59142.86374614094
 20
-2925.308451184728
 30
0.0
 11
59142.86374614094
 21
-2985.308451184728
 31
0.0
  0
LINE
  5
1D32
330
2
100
AcDbEntity
  8
A-MassElement-G
  6
Continuous
 62
   210
370
    -3
100
AcDbLine
 10
59155.80904373817
 20
-2985.308451184728
 30
0.0
 11
59207.77056796524
 21
-2955.308451184727
 31
0.0
  0
LINE
  5
1D33
330
2
100
AcDbEntity
  8
A-MassElement-G
  6
Continuous
 62
   210
370
    -3
100
AcDbLine
 10
59170.80904373817
 20
-3011.289213298262
 30
0.0
 11
59196.7898058517
 21
-2996.289213298262
 31
0.0
  0
LINE
  5
1D34
330
2
100
AcDbEntity
  8
A-MassElement-G
  6
Continuous
 62
   210
370
    -3
100
AcDbLine
 10
59185.80904373817
 20
-3037.269975411795
 30
0.0
 11
59237.77056796524
 21
-3007.269975411795
 31
0.0
  0
LINE
  5
1D35
330
2
100
AcDbEntity
  8
A-MassElement-G
  6
Continuous
 62
   210
370
    -3
100
AcDbLine
 10
59200.80904373817
 20
-3063.250737525328
 30
0.0
 11
59226.7898058517
 21
-3048.250737525328
 31
0.0
  0
LWPOLYLINE
  5
1D36
330
2
100
AcDbEntity
  8
0Hatch
100
AcDbPolyline
 90
       17
 70
     0
 43
0.0
 10
58170.51101170009
 20
-3369.688566810975
 10
58581.50767328862
 20
-3369.688566810977
 10
58581.50767328862
 20
-3477.616551438746
 10
58581.50767328862
 20
-3478.688566810975
 10
59101.38068956656
 20
-3478.688566810975
 10
59210.38068956659
 20
-3369.688566810975
 10
59392.63465701059
 20
-3369.688566811003
 10
59521.50767328886
 20
-3498.561583089178
 10
59521.50767328879
 20
-3680.815550533345
 10
59412.5076732886
 20
-3789.815550533449
 10
59412.50767328861
 20
-4280.688566810897
 10
58561.50767328862
 20
-4280.688566810922
 10
58561.50767328863
 20
-4698.688566810977
 10
57903.50767328862
 20
-4698.688566810977
 10
57903.50767328862
 20
-3701.688566810978
 10
58170.51101170009
 20
-3701.700590365454
 10
58170.51101170009
 20
-3369.688566810975
  0
LWPOLYLINE
  5
1D3D
330
2
100
AcDbEntity
  8
0Hatch
100
AcDbPolyline
 90
        4
 70
     0
 43
60.0
 10
58491.50767328862
 20
-4668.688566810978
 10
58531.50767328862
 20
-4668.688566810978
 10
58531.50767328862
 20
-4250.688566810922
 10
58800.50767328862
 20
-4250.688566810922
  0
LWPOLYLINE
  5
1D3F
330
2
100
AcDbEntity
  8
0Hatch
100
AcDbPolyline
 90
        2
 70
     0
 43
60.0
 10
58213.50767328862
 20
-4668.688566810977
 10
58251.50767328862
 20
-4668.688566810978
  0
HATCH
  5
1D48
330
2
100
AcDbEntity
  8
0Hatch
100
AcDbHatch
 10
0.0
 20
0.0
 30
0.0
210
0.0
220
0.0
230
1.0
  2
SOLID
 70
     1
 71
     0
 91
        2
 92
        7
 72
     0
 73
     1
 93
        4
 10
58737.5076732885
 20
-4400.688566810919
 10
58775.50767328862
 20
-4400.688566810919
 10
58775.50767328862
 20
-4362.688566810977
 10
58737.5076732885
 20
-4362.688566810977
 97
        0
 92
        7
 72
     0
 73
     1
 93
        4
 10
59043.50767328874
 20
-4400.688566810919
 10
59043.50767328872
 20
-4362.688566810977
 10
59005.50767328861
 20
-4362.688566810976
 10
59005.5076732886
 20
-4400.688566810919
 97
        0
 75
     0
 76
     1
 47
0.4917822010453288
 98
        2
 10
58740.84273248605
 20
-4385.893970971885
 10
59022.34656024031
 20
-4386.920483440351
1001
ACAD
1010
0.0
1020
0.0
1030
0.0
  0
LWPOLYLINE
  5
1D53
330
2
100
AcDbEntity
  8
0Hatch
100
AcDbPolyline
 90
       16
 70
     1
 43
0.0
 10
58230.51101170009
 20
-3429.688566810976
 10
58521.50767328862
 20
-3429.688566810977
 10
58521.50767328862
 20
-3477.616551438746
 10
58521.50767328862
 20
-3538.688566810975
 10
59126.23350330894
 20
-3538.688566810975
 10
59235.23350330897
 20
-3429.688566810979
 10
59367.7818432682
 20
-3429.688566810999
 10
59461.50767328885
 20
-3523.414396831568
 10
59461.5076732888
 20
-3655.962736790935
 10
59352.5076732886
 20
-3764.96273679105
 10
59352.5076732886
 20
-4220.688566810898
 10
58501.50767328861
 20
-4220.688566810923
 10
58501.50767328862
 20
-4638.688566810979
 10
57963.50767328862
 20
-4638.688566810976
 10
57963.50767328862
 20
-3761.691268760384
 10
58230.51101170009
 20
-3761.70329231486
  0
LWPOLYLINE
  5
1D54
330
2
100
AcDbEntity
  8
0Hatch
100
AcDbPolyline
 90
       15
 70
     0
 43
60.0
 10
58980.50767328862
 20
-4250.68856681091
 10
59382.5076732886
 20
-4250.688566810904
 10
59382.5076732886
 20
-3777.38914366225
 10
59491.50767328879
 20
-3668.38914366214
 10
59491.50767328886
 20
-3510.987989960373
 10
59380.20825013939
 20
-3399.688566811001
 10
59222.80709643779
 20
-3399.688566810977
 10
59113.80709643776
 20
-3508.688566810975
 10
58551.50767328862
 20
-3508.688566810975
 10
58551.50767328862
 20
-3399.688566810977
 10
58200.51101170009
 20
-3399.688566810976
 10
58200.49606064775
 20
-3731.701940666889
 10
57933.50767328862
 20
-3731.701940666889
 10
57933.50767328862
 20
-4668.688566810977
 10
57973.50767328862
 20
-4668.688566810977
  0
DIMENSION
  5
1D55
330
2
100
AcDbEntity
  8
0Wymiary-PL
 48
4.0
100
AcDbDimension
  2
*D23
 10
58170.51101170009
 20
-2725.308451184729
 30
0.0
 11
58037.00934249436
 21
-2645.308451184729
 31
0.0
 70
    32
 71
     5
 42
267.0033384114722
  3
500
100
AcDbAlignedDimension
 13
57903.50767328862
 23
-3701.688566810978
 33
0.0
 14
58170.51101170009
 24
-3701.688566810978
 34
0.0
100
AcDbRotatedDimension
  0
DIMENSION
  5
1D67
330
2
100
AcDbEntity
  8
0Wymiary-PL
 48
4.0
100
AcDbDimension
  2
*D24
 10
58581.50767328862
 20
-2725.308451184729
 30
0.0
 11
58376.00934249436
 21
-2645.308451184729
 31
0.0
 70
    32
 71
     5
 42
410.9966615885277
  3
500
100
AcDbAlignedDimension
 13
58170.51101170009
 23
-3701.688566810978
 33
0.0
 14
58581.50767328862
 24
-3369.688566810977
 34
0.0
100
AcDbRotatedDimension
  0
DIMENSION
  5
1D72
330
2
100
AcDbEntity
  8
0Wymiary-PL
 48
4.0
100
AcDbDimension
  2
*D25
 10
59101.38068956656
 20
-2725.308451184729
 30
0.0
 11
58841.44418142759
 21
-2645.308451184729
 31
0.0
 70
    32
 71
     5
 42
519.8730162779392
  3
500
100
AcDbAlignedDimension
 13
58581.50767328862
 23
-3369.688566810977
 33
0.0
 14
59101.38068956656
 24
-3478.688566810975
 34
0.0
100
AcDbRotatedDimension
  0
DIMENSION
  5
1D7D
330
2
100
AcDbEntity
  8
0Wymiary-PL
 48
4.0
100
AcDbDimension
  2
*D26
 10
59521.50767328886
 20
-2725.308451184729
 30
0.0
 11
59311.4441814277
 21
-2645.308451184729
 31
0.0
 70
    32
 71
     5
 42
420.1269837223008
  3
500
100
AcDbAlignedDimension
 13
59101.38068956656
 23
-3478.688566810975
 33
0.0
 14
59521.50767328886
 24
-3498.561583089178
 34
0.0
100
AcDbRotatedDimension
  0
DIMENSION
  5
1D88
330
2
100
AcDbEntity
  8
0Wymiary-PL
 48
4.0
100
AcDbDimension
  2
*D27
 10
59521.50767328879
 20
-2525.308451184729
 30
0.0
 11
58712.50767328871
 21
-2445.308451184728
 31
0.0
 70
    32
 71
     5
 42
1618.000000000167
  3
500
100
AcDbAlignedDimension
 13
57903.50767328862
 23
-3701.688566810978
 33
0.0
 14
59521.50767328879
 24
-3680.815550533345
 34
0.0
100
AcDbRotatedDimension
  0
DIMENSION
  5
1DA1
330
2
100
AcDbEntity
  8
0Wymiary-PL
 48
4.0
100
AcDbDimension
  2
*D28
 10
57703.50767328862
 20
-3701.700589692188
 30
0.0
 11
57623.50767328862
 21
-3535.694578251573
 31
0.0
 70
    32
 71
     5
 42
332.0120228812129
  3
500
100
AcDbAlignedDimension
 13
58170.51101170009
 23
-3369.688566810975
 33
0.0
 14
58170.49606070859
 24
-3701.700589692188
 34
0.0
 50
90.0
100
AcDbRotatedDimension
  0
DIMENSION
  5
1DBA
330
2
100
AcDbEntity
  8
0Wymiary-PL
 48
4.0
100
AcDbDimension
  2
*D29
 10
57703.50767328862
 20
-4698.688566810977
 30
0.0
 11
57623.50767328862
 21
-4200.194578251574
 31
0.0
 70
    32
 71
     5
 42
996.9879771187889
  3
500
100
AcDbAlignedDimension
 13
58170.49606070859
 23
-3701.700589692188
 33
0.0
 14
57903.50767328862
 24
-4698.688566810977
 34
0.0
 50
90.0
100
AcDbRotatedDimension
  0
DIMENSION
  5
1DC5
330
2
100
AcDbEntity
  8
0Wymiary-PL
 48
4.0
100
AcDbDimension
  2
*D30
 10
57503.50767328862
 20
-4698.688566810977
 30
0.0
 11
57423.50767328862
 21
-4034.188566810967
 31
0.0
 70
    32
 71
     5
 42
1329.000000000002
  3
500
100
AcDbAlignedDimension
 13
58170.51101170009
 23
-3369.688566810975
 33
0.0
 14
58170.51101170009
 24
-4698.688566810977
 34
0.0
 50
90.0
100
AcDbRotatedDimension
  0
DIMENSION
  5
1DD7
330
2
100
AcDbEntity
  8
0Wymiary-PL
 48
4.0
100
AcDbDimension
  2
*D31
 10
58561.50767328863
 20
-4898.688566810977
 30
0.0
 11
58232.50767328862
 21
-4818.688566810977
 31
0.0
 70
    32
 71
     5
 42
658.0000000000072
  3
500
100
AcDbAlignedDimension
 13
57903.50767328862
 23
-4706.009111174951
 33
0.0
 14
58561.50767328863
 24
-4706.009111174927
 34
0.0
100
AcDbRotatedDimension
  0
DIMENSION
  5
1DE9
330
2
100
AcDbEntity
  8
0Wymiary-PL
 48
4.0
100
AcDbDimension
  2
*D32
 10
59412.50767328861
 20
-4898.688566810977
 30
0.0
 11
58987.00767328862
 21
-4818.688566810977
 31
0.0
 70
    32
 71
     5
 42
850.9999999999781
  3
500
100
AcDbAlignedDimension
 13
58561.50767328863
 23
-4706.009111174927
 33
0.0
 14
59412.50767328861
 24
-4280.688566810897
 34
0.0
100
AcDbRotatedDimension
  0
DIMENSION
  5
1DF4
330
2
100
AcDbEntity
  8
0Wymiary-PL
 48
4.0
100
AcDbDimension
  2
*D33
 10
59521.50767328881
 20
-4898.688566810977
 30
0.0
 11
59467.00767328871
 21
-4818.688566810977
 31
0.0
 70
    32
 71
     5
 42
109.000000000211
  3
500
100
AcDbAlignedDimension
 13
59412.50767328861
 23
-4280.688566810897
 33
0.0
 14
59521.50767328881
 24
-3599.076707370548
 34
0.0
100
AcDbRotatedDimension
  0
DIMENSION
  5
1E1C
330
2
100
AcDbEntity
  8
0Wymiary-PL
 48
4.0
100
AcDbDimension
  2
*D35
 10
59751.50767328879
 20
-3789.815550533449
 30
0.0
 11
59671.50767328879
 21
-3579.752058672212
 31
0.0
 70
    32
 71
     5
 42
420.1269837224563
  3
500
100
AcDbAlignedDimension
 13
59325.13860474508
 23
-3369.688566810993
 33
0.0
 14
59412.5076732886
 24
-3789.815550533449
 34
0.0
 50
90.0
100
AcDbRotatedDimension
  0
DIMENSION
  5
1E2E
330
2
100
AcDbEntity
  8
0Wymiary-PL
 48
4.0
100
AcDbDimension
  2
*D36
 10
59751.50767328879
 20
-4280.688566810897
 30
0.0
 11
59671.50767328879
 21
-4035.252058672162
 31
0.0
 70
    32
 71
     5
 42
490.8730162774477
  3
500
100
AcDbAlignedDimension
 13
59412.5076732886
 23
-3789.815550533449
 33
0.0
 14
59412.50767328861
 24
-4280.688566810897
 34
0.0
 50
90.0
100
AcDbRotatedDimension
  0
DIMENSION
  5
1E39
330
2
100
AcDbEntity
  8
0Wymiary-PL
 48
4.0
100
AcDbDimension
  2
*D37
 10
59751.50767328879
 20
-4698.688566810978
 30
0.0
 11
59671.50767328879
 21
-4489.688566810928
 31
0.0
 70
    32
 71
     5
 42
418.0000000000809
  3
500
100
AcDbAlignedDimension
 13
59412.50767328861
 23
-4280.688566810897
 33
0.0
 14
58561.50767328863
 24
-4698.688566810977
 34
0.0
 50
90.0
100
AcDbRotatedDimension
  0
LINE
  5
1EC8
330
2
100
AcDbEntity
  8
A-MassElement-G
  6
Continuous
 62
   210
370
    -3
100
AcDbLine
 10
63784.46624688707
 20
-3089.144218767911
 30
0.0
 11
63844.46624688706
 21
-3089.144218767911
 31
0.0
  0
LINE
  5
1EC9
330
2
100
AcDbEntity
  8
A-MassElement-G
  6
Continuous
 62
   210
370
    -3
100
AcDbLine
 10
63844.46624688706
 20
-3089.144218767911
 30
0.0
 11
63844.46624688706
 21
-3369.688566810975
 31
0.0
  0
LINE
  5
1ECA
330
2
100
AcDbEntity
  8
A-MassElement-G
  6
Continuous
 62
   210
370
    -3
100
AcDbLine
 10
63784.46624688707
 20
-3114.688566810977
 30
0.0
 11
63813.46624688706
 21
-3114.688566810977
 31
0.0
  0
LINE
  5
1ECB
330
2
100
AcDbEntity
  8
A-MassElement-G
  6
Continuous
 62
   210
370
    -3
100
AcDbLine
 10
63844.46624688706
 20
-3144.688566810977
 30
0.0
 11
63784.46624688707
 21
-3144.688566810977
 31
0.0
  0
LINE
  5
1ECC
330
2
100
AcDbEntity
  8
A-MassElement-G
  6
Continuous
 62
   210
370
    -3
100
AcDbLine
 10
63784.46624688707
 20
-3174.688566810977
 30
0.0
 11
63813.46624688706
 21
-3174.688566810977
 31
0.0
  0
LINE
  5
1ECD
330
2
100
AcDbEntity
  8
A-MassElement-G
  6
Continuous
 62
   210
370
    -3
100
AcDbLine
 10
63844.46624688706
 20
-3204.688566810978
 30
0.0
 11
63784.46624688707
 21
-3204.688566810978
 31
0.0
  0
LINE
  5
1ECE
330
2
100
AcDbEntity
  8
A-MassElement-G
  6
Continuous
 62
   210
370
    -3
100
AcDbLine
 10
63784.46624688707
 20
-3234.688566810977
 30
0.0
 11
63813.46624688706
 21
-3234.688566810977
 31
0.0
  0
ARC
  5
1ECF
330
2
100
AcDbEntity
  8
A-MassElement-G
  6
Continuous
 62
   210
370
    -3
100
AcDbCircle
 10
-63754.46624688707
 20
-3009.688566810977
 30
0.0
 40
144.9305635675496
210
0.0
220
0.0
230
-1.0
100
AcDbArc
 50
270.0
 51
357.7777192383831
  0
ARC
  5
1ED0
330
2
100
AcDbEntity
  8
A-MassElement-G
  6
Continuous
 62
   210
370
    -3
100
AcDbCircle
 10
63754.46624688707
 20
-3009.688566810977
 30
0.0
 40
144.9305635675495
100
AcDbArc
 50
182.2222807616169
 51
270.0
  0
ARC
  5
1ED1
330
2
100
AcDbEntity
  8
A-MassElement-G
  6
Continuous
 62
   210
370
    -3
100
AcDbCircle
 10
-63754.46624688707
 20
-3009.688566810977
 30
0.0
 40
114.9305635675501
210
0.0
220
0.0
230
-1.0
100
AcDbArc
 50
270.0
 51
357.1972284767882
  0
ARC
  5
1ED2
330
2
100
AcDbEntity
  8
A-MassElement-G
  6
Continuous
 62
   210
370
    -3
100
AcDbCircle
 10
63754.46624688707
 20
-3009.688566810976
 30
0.0
 40
114.9305635675519
100
AcDbArc
 50
182.8027715232118
 51
270.0
  0
ARC
  5
1ED3
330
2
100
AcDbEntity
  8
A-MassElement-G
  6
Continuous
 62
   210
370
    -3
100
AcDbCircle
 10
-63754.46624688707
 20
-3009.688566810977
 30
0.0
 40
84.93056356754898
210
0.0
220
0.0
230
-1.0
100
AcDbArc
 50
270.0
 51
356.2059465555443
  0
ARC
  5
1ED4
330
2
100
AcDbEntity
  8
A-MassElement-G
  6
Continuous
 62
   210
370
    -3
100
AcDbCircle
 10
63014.5466761411
 20
-3332.167588756242
 30
0.0
 40
190.0639140577543
100
AcDbArc
 50
59.99999999999549
 51
217.8004309720453
  0
ARC
  5
1ED5
330
2
100
AcDbEntity
  8
A-MassElement-G
  6
Continuous
 62
   210
370
    -3
100
AcDbCircle
 10
-63754.46372214788
 20
-3009.69117400667
 30
0.0
 40
174.9279563900752
210
0.0
220
0.0
230
-1.0
100
AcDbArc
 50
269.9991730493537
 51
358.1598046395849
  0
LINE
  5
1ED6
330
2
100
AcDbEntity
  8
A-MassElement-G
  6
Continuous
 62
   210
370
    -3
100
AcDbLine
 10
63754.46624688707
 20
-3478.688566810975
 30
0.0
 11
63754.46624688707
 21
-3094.619130378525
 31
0.0
  0
ARC
  5
1ED7
330
2
100
AcDbEntity
  8
A-MassElement-G
  6
Continuous
 62
   210
370
    -3
100
AcDbCircle
 10
63014.54667614111
 20
-3332.167588756242
 30
0.0
 40
250.0639140577562
100
AcDbArc
 50
66.8903324784505
 51
219.5339874540794
  0
ARC
  5
1ED8
330
2
100
AcDbEntity
  8
A-MassElement-G
  6
Continuous
 62
   210
370
    -3
100
AcDbCircle
 10
-63014.54667614111
 20
-3332.16758875624
 30
0.0
 40
220.0639140577564
210
0.0
220
0.0
230
-1.0
100
AcDbArc
 50
321.2139185757696
 51
112.1648108062073
  0
ARC
  5
1ED9
330
2
100
AcDbEntity
  8
A-MassElement-G
  6
Continuous
 62
   210
370
    -3
100
AcDbCircle
 10
63014.54667614111
 20
-3332.16758875624
 30
0.0
 40
280.063914057756
100
AcDbArc
 50
66.14923076108367
 51
214.5106727115332
  0
ARC
  5
1EDA
330
2
100
AcDbEntity
  8
A-MassElement-G
  6
Continuous
 62
   210
370
    -3
100
AcDbCircle
 10
-63014.54667614111
 20
-3332.16758875624
 30
0.0
 40
250.0639140577558
210
0.0
220
0.0
230
-1.0
100
AcDbArc
 50
320.4660125459206
 51
113.1096675215495
  0
LINE
  5
1EDB
330
2
100
AcDbEntity
  8
A-MassElement-G
  6
Continuous
 62
   210
370
    -3
100
AcDbLine
 10
63180.16487643752
 20
-2985.308451184728
 30
0.0
 11
63082.4065920768
 21
-3154.630766558267
 31
0.0
  0
LINE
  5
1EDC
330
2
100
AcDbEntity
  8
A-MassElement-G
  6
Continuous
 62
   210
370
    -3
100
AcDbLine
 10
63180.16487643752
 20
-2985.308451184728
 30
0.0
 11
63673.11017403475
 21
-2985.308451184728
 31
0.0
  0
LINE
  5
1EDD
330
2
100
AcDbEntity
  8
A-MassElement-G
  6
Continuous
 62
   210
370
    -3
100
AcDbLine
 10
63673.11017403475
 20
-2985.308451184728
 30
0.0
 11
63669.72182212928
 21
-3015.308451184728
 31
0.0
  0
LINE
  5
1EDE
330
2
100
AcDbEntity
  8
A-MassElement-G
  6
Continuous
 62
   210
370
    -3
100
AcDbLine
 10
63669.72182212928
 20
-3015.308451184728
 30
0.0
 11
63197.48538451321
 21
-3015.308451184728
 31
0.0
  0
LINE
  5
1EDF
330
2
100
AcDbEntity
  8
A-MassElement-G
  6
Continuous
 62
   210
370
    -3
100
AcDbLine
 10
63197.48538451321
 20
-3015.308451184728
 30
0.0
 11
63109.57863316998
 21
-3167.567410839522
 31
0.0
  0
LINE
  5
1EE0
330
2
100
AcDbEntity
  8
A-MassElement-G
  6
Continuous
 62
   210
370
    -3
100
AcDbLine
 10
63754.46624688707
 20
-3094.619130378525
 30
0.0
 11
63784.46624688707
 21
-3089.144218767911
 31
0.0
  0
LINE
  5
1EE1
330
2
100
AcDbEntity
  8
A-MassElement-G
  6
Continuous
 62
   210
370
    -3
100
AcDbLine
 10
63784.46624688707
 20
-3089.144218767911
 30
0.0
 11
63784.46624688707
 21
-3369.688566810977
 31
0.0
  0
ARC
  5
1EE2
330
2
100
AcDbEntity
  8
A-MassElement-G
  6
Continuous
 62
   210
370
    -3
100
AcDbCircle
 10
63014.54667614111
 20
-3332.16758875624
 30
0.0
 40
220.0639140577563
100
AcDbArc
 50
67.83518919379273
 51
218.7860814242303
  0
ARC
  5
1EE3
330
2
100
AcDbEntity
  8
A-MassElement-G
  6
Continuous
 62
   210
370
    -3
100
AcDbCircle
 10
-63014.54667614111
 20
-3332.16758875624
 30
0.0
 40
190.0639140577557
210
0.0
220
0.0
230
-1.0
100
AcDbArc
 50
322.1995690279547
 51
110.9183605406621
  0
LINE
  5
1EE4
330
2
100
AcDbEntity
  8
A-MassElement-G
  6
Continuous
 62
   210
370
    -3
100
AcDbLine
 10
63784.46624688707
 20
-3294.688566810977
 30
0.0
 11
63813.46624688706
 21
-3294.688566810977
 31
0.0
  0
LINE
  5
1EE5
330
2
100
AcDbEntity
  8
A-MassElement-G
  6
Continuous
 62
   210
370
    -3
100
AcDbLine
 10
63844.46624688706
 20
-3264.688566810978
 30
0.0
 11
63784.46624688707
 21
-3264.688566810978
 31
0.0
  0
LINE
  5
1EE6
330
2
100
AcDbEntity
  8
A-MassElement-G
  6
Continuous
 62
   210
370
    -3
100
AcDbLine
 10
63844.46624688706
 20
-3324.688566810977
 30
0.0
 11
63784.46624688707
 21
-3324.688566810977
 31
0.0
  0
LINE
  5
1EE7
330
2
100
AcDbEntity
  8
A-MassElement-G
  6
Continuous
 62
   210
370
    -3
100
AcDbLine
 10
63784.46624688707
 20
-3354.688566810978
 30
0.0
 11
63813.46624688706
 21
-3354.688566810978
 31
0.0
  0
LINE
  5
1EE8
330
2
100
AcDbEntity
  8
A-MassElement-G
  6
Continuous
 62
   210
370
    -3
100
AcDbLine
 10
63643.35725238825
 20
-4495.688566810897
 30
0.0
 11
63255.46624688707
 21
-4495.688566810897
 31
0.0
  0
ARC
  5
1EE9
330
2
100
AcDbEntity
  8
A-MassElement-G
  6
Continuous
 62
   210
370
    -3
100
AcDbCircle
 10
63255.46624688707
 20
-4280.688566810897
 30
0.0
 40
215.0000000000015
100
AcDbArc
 50
181.8657737132975
 51
270.0
  0
LINE
  5
1EEA
330
2
100
AcDbEntity
  8
A-MassElement-G
  6
Continuous
 62
   210
370
    -3
100
AcDbLine
 10
63626.75691986796
 20
-4465.688566810896
 30
0.0
 11
63255.46624688707
 21
-4465.688566810896
 31
0.0
  0
ARC
  5
1EEB
330
2
100
AcDbEntity
  8
A-MassElement-G
  6
Continuous
 62
   210
370
    -3
100
AcDbCircle
 10
63255.46624688707
 20
-4280.688566810897
 30
0.0
 40
185.0000000000009
100
AcDbArc
 50
182.1684660568765
 51
270.0
  0
LINE
  5
1EEC
330
2
100
AcDbEntity
  8
A-MassElement-G
  6
Continuous
 62
   210
370
    -3
100
AcDbLine
 10
63616.85964819086
 20
-4435.688566810897
 30
0.0
 11
63255.46624688707
 21
-4435.688566810897
 31
0.0
  0
ARC
  5
1EED
330
2
100
AcDbEntity
  8
A-MassElement-G
  6
Continuous
 62
   210
370
    -3
100
AcDbCircle
 10
63255.46624688707
 20
-4280.688566810897
 30
0.0
 40
155.0000000000001
100
AcDbArc
 50
182.5884317110998
 51
270.0
  0
ARC
  5
1EEE
330
2
100
AcDbEntity
  8
A-MassElement-G
  6
Continuous
 62
   210
370
    -3
100
AcDbCircle
 10
-63781.79086100149
 20
-4395.931230645377
 30
0.0
 40
149.3201073109363
210
0.0
220
0.0
230
-1.0
100
AcDbArc
 50
272.8116639296918
 51
358.3456523795486
  0
ARC
  5
1EEF
330
2
100
AcDbEntity
  8
A-MassElement-G
  6
Continuous
 62
   210
370
    -3
100
AcDbCircle
 10
63781.72561316056
 20
-4395.959125076451
 30
0.0
 40
169.254090683736
100
AcDbArc
 50
181.5461937075727
 51
267.5418102066662
  0
LINE
  5
1EF0
330
2
100
AcDbEntity
  8
A-MassElement-G
  6
Continuous
 62
   210
370
    -3
100
AcDbLine
 10
63612.53314867267
 20
-4400.52609055689
 30
0.0
 11
63612.46624501717
 21
-4280.68186775005
 31
0.0
  0
LINE
  5
1EF1
330
2
100
AcDbEntity
  8
A-MassElement-G
  6
Continuous
 62
   210
370
    -3
100
AcDbLine
 10
63632.46624190069
 20
-4280.670702648635
 30
0.0
 11
63632.53299323459
 21
-4400.242072445802
 31
0.0
  0
LINE
  5
1EF2
330
2
100
AcDbEntity
  8
A-MassElement-G
  6
Continuous
 62
   210
370
    -3
100
AcDbLine
 10
62923.46624688708
 20
-3832.241957404624
 30
0.0
 11
62784.46624688689
 21
-3693.241957404545
 31
0.0
  0
LINE
  5
1EF3
330
2
100
AcDbEntity
  8
A-MassElement-G
  6
Continuous
 62
   210
370
    -3
100
AcDbLine
 10
62784.46624688689
 20
-3693.241957404545
 30
0.0
 11
62784.46624688689
 21
-3491.688566810977
 31
0.0
  0
LINE
  5
1EF4
330
2
100
AcDbEntity
  8
A-MassElement-G
100
AcDbLine
 10
63603.46624688706
 20
-4405.688566810918
 30
0.0
 11
63555.46624688707
 21
-4405.688566810918
 31
0.0
  0
LINE
  5
1EF5
330
2
100
AcDbEntity
  8
A-MassElement-G
100
AcDbLine
 10
63555.46624688707
 20
-4405.688566810918
 30
0.0
 11
63555.46624688707
 21
-4357.688566810919
 31
0.0
  0
LINE
  5
1EF6
330
2
100
AcDbEntity
  8
A-MassElement-G
100
AcDbLine
 10
63555.46624688707
 20
-4357.688566810919
 30
0.0
 11
63603.46624688706
 21
-4357.688566810919
 31
0.0
  0
LINE
  5
1EF7
330
2
100
AcDbEntity
  8
A-MassElement-G
100
AcDbLine
 10
63603.46624688706
 20
-4357.688566810919
 30
0.0
 11
63603.46624688706
 21
-4405.688566810918
 31
0.0
  0
HATCH
  5
1EF8
330
2
100
AcDbEntity
  8
0Hatch
100
AcDbHatch
 10
0.0
 20
0.0
 30
0.0
210
0.0
220
0.0
230
1.0
  2
SOLID
 70
     1
 71
     0
 91
        2
 92
        7
 72
     0
 73
     1
 93
        4
 10
63598.46624688718
 20
-4400.688566810919
 10
63560.46624688707
 20
-4400.688566810919
 10
63560.46624688707
 20
-4362.688566810977
 10
63598.46624688718
 20
-4362.688566810977
 97
        0
 92
        7
 72
     0
 73
     1
 93
        4
 10
63292.46624688694
 20
-4400.688566810919
 10
63292.46624688696
 20
-4362.688566810977
 10
63330.46624688707
 20
-4362.688566810976
 10
63330.46624688708
 20
-4400.688566810919
 97
        0
 75
     0
 76
     1
 47
0.4917822010453288
 98
        2
 10
63595.13118768964
 20
-4385.893970971885
 10
63313.62735993537
 20
-4386.920483440351
1001
ACAD
1010
0.0
1020
0.0
1030
0.0
  0
LINE
  5
1EF9
330
2
100
AcDbEntity
  8
0Hatch
100
AcDbLine
 10
63560.46624688707
 20
-4400.688566810919
 30
0.0
 11
63598.46624688718
 21
-4400.688566810919
 31
0.0
  0
LINE
  5
1EFA
330
2
100
AcDbEntity
  8
0Hatch
100
AcDbLine
 10
63598.46624688718
 20
-4400.688566810919
 30
0.0
 11
63598.46624688718
 21
-4362.688566810977
 31
0.0
  0
LINE
  5
1EFB
330
2
100
AcDbEntity
  8
0Hatch
100
AcDbLine
 10
63598.46624688718
 20
-4362.688566810977
 30
0.0
 11
63560.46624688707
 21
-4362.688566810977
 31
0.0
  0
LINE
  5
1EFC
330
2
100
AcDbEntity
  8
0Hatch
100
AcDbLine
 10
63560.46624688707
 20
-4362.688566810977
 30
0.0
 11
63560.46624688707
 21
-4400.688566810919
 31
0.0
  0
LINE
  5
1EFD
330
2
100
AcDbEntity
  8
A-MassElement-G
100
AcDbLine
 10
63335.46624688707
 20
-4405.688566810918
 30
0.0
 11
63335.46624688707
 21
-4357.688566810919
 31
0.0
  0
LINE
  5
1EFE
330
2
100
AcDbEntity
  8
A-MassElement-G
100
AcDbLine
 10
63335.46624688707
 20
-4357.688566810919
 30
0.0
 11
63287.46624688706
 21
-4357.688566810919
 31
0.0
  0
LINE
  5
1EFF
330
2
100
AcDbEntity
  8
A-MassElement-G
100
AcDbLine
 10
63287.46624688706
 20
-4357.688566810919
 30
0.0
 11
63287.46624688706
 21
-4405.688566810918
 31
0.0
  0
LINE
  5
1F00
330
2
100
AcDbEntity
  8
0Hatch
100
AcDbLine
 10
63330.46624688707
 20
-4400.688566810919
 30
0.0
 11
63292.46624688695
 21
-4400.688566810919
 31
0.0
  0
LINE
  5
1F01
330
2
100
AcDbEntity
  8
0Hatch
100
AcDbLine
 10
63292.46624688695
 20
-4400.688566810919
 30
0.0
 11
63292.46624688695
 21
-4362.688566810977
 31
0.0
  0
LINE
  5
1F02
330
2
100
AcDbEntity
  8
0Hatch
100
AcDbLine
 10
63292.46624688695
 20
-4362.688566810977
 30
0.0
 11
63330.46624688707
 21
-4362.688566810977
 31
0.0
  0
LINE
  5
1F03
330
2
100
AcDbEntity
  8
0Hatch
100
AcDbLine
 10
63330.46624688707
 20
-4362.688566810977
 30
0.0
 11
63330.46624688707
 21
-4400.688566810919
 31
0.0
  0
LINE
  5
1F04
330
2
100
AcDbEntity
  8
A-MassElement-G
  6
Continuous
 62
   210
370
    -3
100
AcDbLine
 10
63555.46624688707
 20
-4405.688566810918
 30
0.0
 11
63603.46624688706
 21
-4405.688566810918
 31
0.0
  0
LINE
  5
1F05
330
2
100
AcDbEntity
  8
A-MassElement-G
  6
Continuous
 62
   210
370
    -3
100
AcDbLine
 10
63335.46624688707
 20
-4405.688566810918
 30
0.0
 11
63287.46624688706
 21
-4405.688566810918
 31
0.0
  0
LINE
  5
1F06
330
2
100
AcDbEntity
  8
0Hatch
100
AcDbLine
 10
63355.46624688706
 20
-4220.68856681091
 30
0.0
 11
63355.46624688706
 21
-4280.688566810909
 31
0.0
  0
LINE
  5
1F07
330
2
100
AcDbEntity
  8
0Hatch
100
AcDbLine
 10
63535.46624688706
 20
-4280.688566810915
 30
0.0
 11
63535.46624688706
 21
-4220.688566810913
 31
0.0
  0
LINE
  5
1F08
330
2
100
AcDbEntity
  8
0Hatch
100
AcDbLine
 10
63844.46624688706
 20
-4638.688566810979
 30
0.0
 11
63844.46624688706
 21
-4698.688566810977
 31
0.0
  0
LINE
  5
1F09
330
2
100
AcDbEntity
  8
0Hatch
100
AcDbLine
 10
64084.46624688706
 20
-4698.688566810977
 30
0.0
 11
64084.46624688706
 21
-4638.688566810979
 31
0.0
  0
LINE
  5
1F0A
330
2
100
AcDbEntity
  8
0Hatch
100
AcDbLine
 10
64122.46624688706
 20
-4638.688566810976
 30
0.0
 11
64122.46624688706
 21
-4698.688566810977
 31
0.0
  0
LINE
  5
1F0B
330
2
100
AcDbEntity
  8
0Hatch
100
AcDbLine
 10
64362.46624688706
 20
-4698.688566810977
 30
0.0
 11
64362.46624688706
 21
-4638.688566810976
 31
0.0
  0
LINE
  5
1F0C
330
2
100
AcDbEntity
  8
A-MassElement-G
  6
Continuous
 62
   210
370
    -3
100
AcDbLine
 10
63673.11017403475
 20
-2985.308451184728
 30
0.0
 11
63673.11017403475
 21
-2925.308451184728
 31
0.0
  0
LINE
  5
1F0D
330
2
100
AcDbEntity
  8
A-MassElement-G
  6
Continuous
 62
   210
370
    -3
100
AcDbLine
 10
63673.11017403475
 20
-2925.308451184728
 30
0.0
 11
63145.52386028614
 21
-2925.308451184728
 31
0.0
  0
LINE
  5
1F0E
330
2
100
AcDbEntity
  8
A-MassElement-G
  6
Continuous
 62
   210
370
    -3
100
AcDbLine
 10
63145.52386028614
 20
-2925.308451184728
 30
0.0
 11
63069.20887309325
 21
-3057.489886381776
 31
0.0
  0
LINE
  5
1F0F
330
2
100
AcDbEntity
  8
A-MassElement-G
  6
Continuous
 62
   210
370
    -3
100
AcDbLine
 10
63583.11017403475
 20
-2985.308451184728
 30
0.0
 11
63583.11017403475
 21
-2956.308451184732
 31
0.0
  0
LINE
  5
1F10
330
2
100
AcDbEntity
  8
A-MassElement-G
  6
Continuous
 62
   210
370
    -3
100
AcDbLine
 10
63613.11017403475
 20
-2925.308451184728
 30
0.0
 11
63613.11017403475
 21
-2985.308451184728
 31
0.0
  0
LINE
  5
1F11
330
2
100
AcDbEntity
  8
A-MassElement-G
  6
Continuous
 62
   210
370
    -3
100
AcDbLine
 10
63643.11017403475
 20
-2985.308451184728
 30
0.0
 11
63643.11017403475
 21
-2956.308451184732
 31
0.0
  0
LINE
  5
1F12
330
2
100
AcDbEntity
  8
A-MassElement-G
  6
Continuous
 62
   210
370
    -3
100
AcDbLine
 10
63673.11017403475
 20
-2925.308451184728
 30
0.0
 11
63673.11017403475
 21
-2985.308451184728
 31
0.0
  0
LINE
  5
1F13
330
2
100
AcDbEntity
  8
A-MassElement-G
  6
Continuous
 62
   210
370
    -3
100
AcDbLine
 10
63523.11017403475
 20
-2985.308451184728
 30
0.0
 11
63523.11017403475
 21
-2956.308451184732
 31
0.0
  0
LINE
  5
1F14
330
2
100
AcDbEntity
  8
A-MassElement-G
  6
Continuous
 62
   210
370
    -3
100
AcDbLine
 10
63553.11017403475
 20
-2925.308451184728
 30
0.0
 11
63553.11017403475
 21
-2985.308451184728
 31
0.0
  0
LINE
  5
1F15
330
2
100
AcDbEntity
  8
A-MassElement-G
  6
Continuous
 62
   210
370
    -3
100
AcDbLine
 10
63463.11017403475
 20
-2985.308451184728
 30
0.0
 11
63463.11017403475
 21
-2956.308451184732
 31
0.0
  0
LINE
  5
1F16
330
2
100
AcDbEntity
  8
A-MassElement-G
  6
Continuous
 62
   210
370
    -3
100
AcDbLine
 10
63493.11017403475
 20
-2925.308451184728
 30
0.0
 11
63493.11017403475
 21
-2985.308451184728
 31
0.0
  0
LINE
  5
1F17
330
2
100
AcDbEntity
  8
A-MassElement-G
  6
Continuous
 62
   210
370
    -3
100
AcDbLine
 10
63403.11017403475
 20
-2985.308451184728
 30
0.0
 11
63403.11017403475
 21
-2956.308451184732
 31
0.0
  0
LINE
  5
1F18
330
2
100
AcDbEntity
  8
A-MassElement-G
  6
Continuous
 62
   210
370
    -3
100
AcDbLine
 10
63433.11017403475
 20
-2925.308451184728
 30
0.0
 11
63433.11017403475
 21
-2985.308451184728
 31
0.0
  0
LINE
  5
1F19
330
2
100
AcDbEntity
  8
A-MassElement-G
  6
Continuous
 62
   210
370
    -3
100
AcDbLine
 10
63343.11017403475
 20
-2985.308451184728
 30
0.0
 11
63343.11017403475
 21
-2956.308451184732
 31
0.0
  0
LINE
  5
1F1A
330
2
100
AcDbEntity
  8
A-MassElement-G
  6
Continuous
 62
   210
370
    -3
100
AcDbLine
 10
63373.11017403475
 20
-2925.308451184728
 30
0.0
 11
63373.11017403475
 21
-2985.308451184728
 31
0.0
  0
LINE
  5
1F1B
330
2
100
AcDbEntity
  8
A-MassElement-G
  6
Continuous
 62
   210
370
    -3
100
AcDbLine
 10
63283.11017403475
 20
-2985.308451184728
 30
0.0
 11
63283.11017403475
 21
-2956.308451184732
 31
0.0
  0
LINE
  5
1F1C
330
2
100
AcDbEntity
  8
A-MassElement-G
  6
Continuous
 62
   210
370
    -3
100
AcDbLine
 10
63313.11017403475
 20
-2925.308451184728
 30
0.0
 11
63313.11017403475
 21
-2985.308451184728
 31
0.0
  0
LINE
  5
1F1D
330
2
100
AcDbEntity
  8
A-MassElement-G
  6
Continuous
 62
   210
370
    -3
100
AcDbLine
 10
63223.11017403475
 20
-2985.308451184728
 30
0.0
 11
63223.11017403475
 21
-2956.308451184732
 31
0.0
  0
LINE
  5
1F1E
330
2
100
AcDbEntity
  8
A-MassElement-G
  6
Continuous
 62
   210
370
    -3
100
AcDbLine
 10
63253.11017403475
 20
-2925.308451184728
 30
0.0
 11
63253.11017403475
 21
-2985.308451184728
 31
0.0
  0
LINE
  5
1F1F
330
2
100
AcDbEntity
  8
A-MassElement-G
  6
Continuous
 62
   210
370
    -3
100
AcDbLine
 10
63193.11017403475
 20
-2925.308451184728
 30
0.0
 11
63193.11017403475
 21
-2985.308451184728
 31
0.0
  0
LINE
  5
1F20
330
2
100
AcDbEntity
  8
A-MassElement-G
  6
Continuous
 62
   210
370
    -3
100
AcDbLine
 10
63180.16487643752
 20
-2985.308451184728
 30
0.0
 11
63128.20335221045
 21
-2955.308451184727
 31
0.0
  0
LINE
  5
1F21
330
2
100
AcDbEntity
  8
A-MassElement-G
  6
Continuous
 62
   210
370
    -3
100
AcDbLine
 10
63165.16487643752
 20
-3011.289213298262
 30
0.0
 11
63139.18411432399
 21
-2996.289213298262
 31
0.0
  0
LINE
  5
1F22
330
2
100
AcDbEntity
  8
A-MassElement-G
  6
Continuous
 62
   210
370
    -3
100
AcDbLine
 10
63150.16487643752
 20
-3037.269975411795
 30
0.0
 11
63098.20335221045
 21
-3007.269975411795
 31
0.0
  0
LINE
  5
1F23
330
2
100
AcDbEntity
  8
A-MassElement-G
  6
Continuous
 62
   210
370
    -3
100
AcDbLine
 10
63135.16487643751
 20
-3063.250737525328
 30
0.0
 11
63109.18411432399
 21
-3048.250737525328
 31
0.0
  0
LWPOLYLINE
  5
1F24
330
2
100
AcDbEntity
  8
0Hatch
100
AcDbPolyline
 90
       17
 70
     0
 43
0.0
 10
64165.46290847559
 20
-3369.688566810975
 10
63754.46624688707
 20
-3369.688566810977
 10
63754.46624688707
 20
-3477.616551438746
 10
63754.46624688707
 20
-3478.688566810975
 10
63234.59323060912
 20
-3478.688566810975
 10
63125.59323060909
 20
-3369.688566810975
 10
62943.3392631651
 20
-3369.688566811003
 10
62814.46624688682
 20
-3498.561583089178
 10
62814.46624688689
 20
-3680.815550533345
 10
62923.46624688708
 20
-3789.815550533449
 10
62923.46624688708
 20
-4280.688566810897
 10
63774.46624688707
 20
-4280.688566810922
 10
63774.46624688706
 20
-4698.688566810977
 10
64432.46624688707
 20
-4698.688566810977
 10
64432.46624688707
 20
-3701.688566810978
 10
64165.46290847559
 20
-3701.700590365454
 10
64165.46290847559
 20
-3369.688566810975
  0
LWPOLYLINE
  5
1F25
330
2
100
AcDbEntity
  8
0Hatch
100
AcDbPolyline
 90
       16
 70
     1
 43
0.0
 10
64105.46290847559
 20
-3429.688566810976
 10
63814.46624688707
 20
-3429.688566810977
 10
63814.46624688707
 20
-3477.616551438746
 10
63814.46624688707
 20
-3538.688566810975
 10
63209.74041686674
 20
-3538.688566810975
 10
63100.74041686671
 20
-3429.688566810979
 10
62968.19207690749
 20
-3429.688566810999
 10
62874.46624688683
 20
-3523.414396831568
 10
62874.46624688688
 20
-3655.962736790935
 10
62983.46624688709
 20
-3764.96273679105
 10
62983.46624688708
 20
-4220.688566810898
 10
63834.46624688708
 20
-4220.688566810923
 10
63834.46624688706
 20
-4638.688566810979
 10
64372.46624688707
 20
-4638.688566810976
 10
64372.46624688707
 20
-3761.691268760384
 10
64105.46290847559
 20
-3761.70329231486
  0
LWPOLYLINE
  5
1F26
330
2
100
AcDbEntity
  8
0Hatch
100
AcDbPolyline
 90
        4
 70
     0
 43
60.0
 10
63844.46624688706
 20
-4668.688566810978
 10
63804.46624688706
 20
-4668.688566810978
 10
63804.46624688707
 20
-4250.688566810922
 10
63535.46624688706
 20
-4250.688566810922
  0
LWPOLYLINE
  5
1F27
330
2
100
AcDbEntity
  8
0Hatch
100
AcDbPolyline
 90
        2
 70
     0
 43
60.0
 10
64122.46624688706
 20
-4668.688566810977
 10
64084.46624688706
 20
-4668.688566810978
  0
LWPOLYLINE
  5
1F28
330
2
100
AcDbEntity
  8
0Hatch
100
AcDbPolyline
 90
       15
 70
     0
 43
60.0
 10
63355.46624688706
 20
-4250.68856681091
 10
62953.46624688708
 20
-4250.688566810904
 10
62953.46624688709
 20
-3777.38914366225
 10
62844.46624688689
 20
-3668.38914366214
 10
62844.46624688683
 20
-3510.987989960373
 10
62955.76567003629
 20
-3399.688566811001
 10
63113.1668237379
 20
-3399.688566810977
 10
63222.16682373793
 20
-3508.688566810975
 10
63784.46624688707
 20
-3508.688566810975
 10
63784.46624688707
 20
-3399.688566810977
 10
64135.46290847559
 20
-3399.688566810976
 10
64135.47785952793
 20
-3731.701940666889
 10
64402.46624688707
 20
-3731.701940666889
 10
64402.46624688707
 20
-4668.688566810977
 10
64362.46624688706
 20
-4668.688566810977
  0
DIMENSION
  5
1F29
330
2
100
AcDbEntity
  8
0Wymiary-PL
 48
4.0
100
AcDbDimension
  2
*D48
 10
64165.46290847559
 20
-2725.308451184729
 30
0.0
 11
64298.96457768133
 21
-2645.308451184729
 31
0.0
 70
    32
 71
     5
 42
267.0033384114722
  3
500
100
AcDbAlignedDimension
 13
64432.46624688707
 23
-3701.688566810978
 33
0.0
 14
64165.46290847559
 24
-3701.688566810978
 34
0.0
 50
180.0
100
AcDbRotatedDimension
  0
DIMENSION
  5
1F2A
330
2
100
AcDbEntity
  8
0Wymiary-PL
 48
4.0
100
AcDbDimension
  2
*D49
 10
63754.46624688707
 20
-2725.308451184729
 30
0.0
 11
63959.96457768132
 21
-2645.308451184729
 31
0.0
 70
    32
 71
     5
 42
410.9966615885277
  3
500
100
AcDbAlignedDimension
 13
64165.46290847559
 23
-3701.688566810978
 33
0.0
 14
63754.46624688707
 24
-3369.688566810977
 34
0.0
 50
180.0
100
AcDbRotatedDimension
  0
DIMENSION
  5
1F2B
330
2
100
AcDbEntity
  8
0Wymiary-PL
 48
4.0
100
AcDbDimension
  2
*D50
 10
63234.59323060912
 20
-2725.308451184729
 30
0.0
 11
63494.52973874809
 21
-2645.308451184729
 31
0.0
 70
    32
 71
     5
 42
519.8730162779392
  3
500
100
AcDbAlignedDimension
 13
63754.46624688707
 23
-3369.688566810977
 33
0.0
 14
63234.59323060912
 24
-3478.688566810975
 34
0.0
 50
180.0
100
AcDbRotatedDimension
  0
DIMENSION
  5
1F2C
330
2
100
AcDbEntity
  8
0Wymiary-PL
 48
4.0
100
AcDbDimension
  2
*D51
 10
62814.46624688682
 20
-2725.308451184729
 30
0.0
 11
63024.52973874798
 21
-2645.308451184729
 31
0.0
 70
    32
 71
     5
 42
420.1269837223008
  3
500
100
AcDbAlignedDimension
 13
63234.59323060912
 23
-3478.688566810975
 33
0.0
 14
62814.46624688682
 24
-3498.561583089178
 34
0.0
 50
180.0
100
AcDbRotatedDimension
  0
DIMENSION
  5
1F2D
330
2
100
AcDbEntity
  8
0Wymiary-PL
 48
4.0
100
AcDbDimension
  2
*D52
 10
62814.46624688689
 20
-2525.308451184729
 30
0.0
 11
63623.46624688698
 21
-2445.308451184728
 31
0.0
 70
    32
 71
     5
 42
1618.000000000167
  3
500
100
AcDbAlignedDimension
 13
64432.46624688707
 23
-3701.688566810978
 33
0.0
 14
62814.46624688689
 24
-3680.815550533345
 34
0.0
 50
180.0
100
AcDbRotatedDimension
  0
DIMENSION
  5
1F2E
330
2
100
AcDbEntity
  8
0Wymiary-PL
 48
4.0
100
AcDbDimension
  2
*D39
 10
64632.46624688706
 20
-3701.700589692189
 30
0.0
 11
64552.46624688706
 21
-3535.694578251572
 31
0.0
 70
    32
 71
     5
 42
332.0120228812129
  3
500
100
AcDbAlignedDimension
 13
64165.46290847559
 23
-3369.688566810975
 33
0.0
 14
64165.47785946709
 24
-3701.700589692188
 34
0.0
 50
90.0
100
AcDbRotatedDimension
  0
DIMENSION
  5
1F2F
330
2
100
AcDbEntity
  8
0Wymiary-PL
 48
4.0
100
AcDbDimension
  2
*D40
 10
64632.46624688706
 20
-4698.688566810977
 30
0.0
 11
64552.46624688706
 21
-4200.194578251572
 31
0.0
 70
    32
 71
     5
 42
996.9879771187883
  3
500
100
AcDbAlignedDimension
 13
64165.47785946709
 23
-3701.700589692188
 33
0.0
 14
64432.46624688707
 24
-4698.688566810977
 34
0.0
 50
90.0
100
AcDbRotatedDimension
  0
DIMENSION
  5
1F30
330
2
100
AcDbEntity
  8
0Wymiary-PL
 48
4.0
100
AcDbDimension
  2
*D41
 10
64832.46624688707
 20
-4698.688566810977
 30
0.0
 11
64752.46624688707
 21
-4034.188566810966
 31
0.0
 70
    32
 71
     5
 42
1329.000000000001
  3
500
100
AcDbAlignedDimension
 13
64165.46290847559
 23
-3369.688566810975
 33
0.0
 14
64165.46290847559
 24
-4698.688566810977
 34
0.0
 50
90.0
100
AcDbRotatedDimension
  0
DIMENSION
  5
1F31
330
2
100
AcDbEntity
  8
0Wymiary-PL
 48
4.0
100
AcDbDimension
  2
*D42
 10
63774.46624688706
 20
-4898.688566810977
 30
0.0
 11
64103.46624688706
 21
-4818.688566810977
 31
0.0
 70
    32
 71
     5
 42
658.0000000000072
  3
500
100
AcDbAlignedDimension
 13
64432.46624688707
 23
-4706.009111174951
 33
0.0
 14
63774.46624688706
 24
-4706.009111174927
 34
0.0
 50
180.0
100
AcDbRotatedDimension
  0
DIMENSION
  5
1F32
330
2
100
AcDbEntity
  8
0Wymiary-PL
 48
4.0
100
AcDbDimension
  2
*D43
 10
62923.46624688708
 20
-4898.688566810977
 30
0.0
 11
63348.96624688706
 21
-4818.688566810977
 31
0.0
 70
    32
 71
     5
 42
850.9999999999781
  3
500
100
AcDbAlignedDimension
 13
63774.46624688706
 23
-4706.009111174927
 33
0.0
 14
62923.46624688708
 24
-4280.688566810897
 34
0.0
 50
180.0
100
AcDbRotatedDimension
  0
DIMENSION
  5
1F33
330
2
100
AcDbEntity
  8
0Wymiary-PL
 48
4.0
100
AcDbDimension
  2
*D44
 10
62814.46624688687
 20
-4898.688566810977
 30
0.0
 11
62868.96624688698
 21
-4818.688566810977
 31
0.0
 70
    32
 71
     5
 42
109.000000000211
  3
500
100
AcDbAlignedDimension
 13
62923.46624688708
 23
-4280.688566810897
 33
0.0
 14
62814.46624688687
 24
-3599.076707370548
 34
0.0
 50
180.0
100
AcDbRotatedDimension
  0
DIMENSION
  5
1F34
330
2
100
AcDbEntity
  8
0Wymiary-PL
 48
4.0
100
AcDbDimension
  2
*D45
 10
62584.4662468869
 20
-3789.815550533449
 30
0.0
 11
62504.4662468869
 21
-3579.75205867221
 31
0.0
 70
    32
 71
     5
 42
420.1269837224563
  3
500
100
AcDbAlignedDimension
 13
63010.83531543061
 23
-3369.688566810993
 33
0.0
 14
62923.46624688708
 24
-3789.815550533449
 34
0.0
 50
90.0
100
AcDbRotatedDimension
  0
DIMENSION
  5
1F35
330
2
100
AcDbEntity
  8
0Wymiary-PL
 48
4.0
100
AcDbDimension
  2
*D46
 10
62584.4662468869
 20
-4280.688566810897
 30
0.0
 11
62504.4662468869
 21
-4035.252058672162
 31
0.0
 70
    32
 71
     5
 42
490.8730162774486
  3
500
100
AcDbAlignedDimension
 13
62923.46624688708
 23
-3789.815550533449
 33
0.0
 14
62923.46624688708
 24
-4280.688566810897
 34
0.0
 50
90.0
100
AcDbRotatedDimension
  0
DIMENSION
  5
1F36
330
2
100
AcDbEntity
  8
0Wymiary-PL
 48
4.0
100
AcDbDimension
  2
*D47
 10
62584.4662468869
 20
-4698.688566810976
 30
0.0
 11
62504.4662468869
 21
-4489.688566810926
 31
0.0
 70
    32
 71
     5
 42
418.0000000000791
  3
500
100
AcDbAlignedDimension
 13
62923.46624688708
 23
-4280.688566810897
 33
0.0
 14
63774.46624688706
 24
-4698.688566810977
 34
0.0
 50
90.0
100
AcDbRotatedDimension
  0
ENDSEC
  0
SECTION
  2
OBJECTS
  0
DICTIONARY
  5
B
330
0
100
AcDbDictionary
281
     1
  3
ACAD_COLOR
350
53
  3
ACAD_GROUP
350
4E
  3
ACAD_LAYOUT
350
12
  3
ACAD_MATERIAL
350
D
  3
ACAD_MLEADERSTYLE
350
7A8
  3
ACAD_MLINESTYLE
350
4F
  3
ACAD_PLOTSETTINGS
350
50
  3
ACAD_PLOTSTYLENAME
350
A
  3
ACAD_SCALELIST
350
54
  3
ACAD_TABLESTYLE
350
55
  3
ACAD_VISUALSTYLE
350
15
  3
ACDB_RECOMPOSE_DATA
350
794
  3
AcDbVariableDictionary
350
795
  3
AEC_PROPERTY_SET_DEFS
350
952
  3
DWGPROPS
350
2038
  0
DICTIONARY
  5
1E
330
1D
100
AcDbDictionary
280
     1
281
     1
  3
ACAD_LAYERSTATES
360
1F
  0
DICTIONARY
  5
7
330
6
100
AcDbDictionary
280
     1
281
     1
  3
ADSK_XREC_LAYER_RECONCILED
360
8
  0
DICTIONARY
  5
75
330
74
100
AcDbDictionary
280
     1
281
     1
  3
ADSK_XREC_LAYER_RECONCILED
360
76
  0
DICTIONARY
  5
57
330
56
100
AcDbDictionary
280
     1
281
     1
  3
ADSK_XREC_LAYER_RECONCILED
360
58
  0
DICTIONARY
  5
3A4
330
3A3
100
AcDbDictionary
280
     1
281
     1
  3
ADSK_XREC_LAYER_RECONCILED
360
3A5
  0
DICTIONARY
  5
7F
330
7E
100
AcDbDictionary
280
     1
281
     1
  3
ADSK_XREC_LAYER_RECONCILED
360
80
  0
DICTIONARY
  5
3
330
2
100
AcDbDictionary
280
     1
281
     1
  3
ACAD_SORTENTS
360
790
  0
DICTIONARY
  5
30
330
2F
100
AcDbDictionary
280
     1
281
     1
  3
ACAD_SORTENTS
360
78F
  0
DICTIONARY
  5
53
102
{ACAD_REACTORS
330
B
102
}
330
B
100
AcDbDictionary
281
     1
  0
DICTIONARY
  5
4E
102
{ACAD_REACTORS
330
B
102
}
330
B
100
AcDbDictionary
281
     1
  0
DICTIONARY
  5
12
102
{ACAD_REACTORS
330
B
102
}
330
B
100
AcDbDictionary
281
     1
  3
Layout1
350
1943
  3
Model
350
11
  0
DICTIONARY
  5
D
102
{ACAD_REACTORS
330
B
102
}
330
B
100
AcDbDictionary
281
     1
  3
ByBlock
350
52
  3
ByLayer
350
51
  3
Global
350
C
  0
DICTIONARY
  5
7A8
102
{ACAD_REACTORS
330
B
102
}
330
B
100
AcDbDictionary
281
     1
  3
Standard
350
7A9
  0
DICTIONARY
  5
4F
102
{ACAD_REACTORS
330
B
102
}
330
B
100
AcDbDictionary
281
     1
  3
STANDARD
350
59
  0
DICTIONARY
  5
50
102
{ACAD_REACTORS
330
B
102
}
330
B
100
AcDbDictionary
281
     1
  0
ACDBDICTIONARYWDFLT
  5
A
102
{ACAD_REACTORS
330
B
102
}
330
B
100
AcDbDictionary
281
     1
  3
Normal
350
9
100
AcDbDictionaryWithDefault
340
9
  0
DICTIONARY
  5
54
102
{ACAD_REACTORS
330
B
102
}
330
B
100
AcDbDictionary
281
     1
  3
*A1
350
85B
  3
*A10
350
132C
  3
*A11
350
132D
  3
*A12
350
86F
  3
*A13
350
132E
  3
*A14
350
873
  3
*A15
350
132F
  3
*A16
350
869
  3
*A17
350
1330
  3
*A18
350
1331
  3
*A19
350
1332
  3
*A2
350
876
  3
*A20
350
1333
  3
*A21
350
879
  3
*A22
350
87B
  3
*A23
350
870
  3
*A24
350
1334
  3
*A25
350
1335
  3
*A26
350
1336
  3
*A27
350
1337
  3
*A28
350
87F
  3
*A29
350
881
  3
*A3
350
877
  3
*A30
350
1338
  3
*A31
350
87C
  3
*A32
350
87D
  3
*A33
350
865
  3
*A34
350
860
  3
*A35
350
862
  3
*A36
350
87E
  3
*A37
350
168F
  3
*A38
350
1690
  3
*A39
350
1691
  3
*A4
350
868
  3
*A40
350
86A
  3
*A41
350
1692
  3
*A42
350
1693
  3
*A43
350
85E
  3
*A44
350
1694
  3
*A45
350
871
  3
*A46
350
1695
  3
*A47
350
882
  3
*A48
350
866
  3
*A49
350
86D
  3
*A5
350
85D
  3
*A50
350
85F
  3
*A51
350
863
  3
*A52
350
85C
  3
*A53
350
874
  3
*A54
350
867
  3
*A55
350
1A1C
  3
*A56
350
864
  3
*A57
350
1A1D
  3
*A58
350
1A1E
  3
*A59
350
1A1F
  3
*A6
350
86C
  3
*A60
350
1A20
  3
*A61
350
1A21
  3
*A62
350
1A22
  3
*A63
350
86B
  3
*A64
350
87A
  3
*A65
350
86E
  3
*A66
350
872
  3
*A67
350
880
  3
*A68
350
875
  3
*A7
350
878
  3
*A8
350
861
  3
*A9
350
132B
  3
A0
350
5E
  3
A1
350
5F
  3
A2
350
60
  3
A3
350
61
  3
A4
350
62
  3
A5
350
63
  3
A6
350
64
  3
A7
350
65
  3
A8
350
66
  3
A9
350
67
  3
B0
350
68
  3
B1
350
69
  3
B2
350
6A
  3
B3
350
6B
  3
B4
350
6C
  3
B5
350
6D
  3
B6
350
6E
  3
B7
350
6F
  3
B8
350
70
  3
B9
350
71
  3
C0
350
72
  0
DICTIONARY
  5
55
102
{ACAD_REACTORS
330
B
102
}
330
B
100
AcDbDictionary
281
     1
  3
Standard
350
5A
  0
DICTIONARY
  5
15
102
{ACAD_REACTORS
330
B
102
}
330
B
100
AcDbDictionary
281
     1
  3
2dWireframe
350
14
  3
3D Hidden
350
7A0
  3
3dWireframe
350
5D
  3
Basic
350
79F
  3
Brighten
350
7A3
  3
ColorChange
350
7A7
  3
Conceptual
350
7A1
  3
Dim
350
7A2
  3
Facepattern
350
7A6
  3
Flat
350
79B
  3
FlatWithEdges
350
79C
  3
Gouraud
350
79D
  3
GouraudWithEdges
350
79E
  3
Linepattern
350
7A5
  3
Phong
350
7B1
  3
PhongWithEdges
350
7B2
  3
Realistic
350
5C
  3
Thicken
350
7A4
  0
XRECORD
  5
794
102
{ACAD_REACTORS
330
B
102
}
330
B
100
AcDbXrecord
280
     1
 90
        1
330
5A
  0
DICTIONARY
  5
795
102
{ACAD_REACTORS
330
B
102
}
330
B
100
AcDbDictionary
281
     1
  3
CANNOSCALE
350
798
  3
CMLEADERSTYLE
350
797
  3
CTABLESTYLE
350
796
  3
DIMASSOC
350
2036
  3
HIDETEXT
350
2035
  3
INDEXCTL
350
2034
  3
LIGHTINGUNITS
350
799
  3
MSLTSCALE
350
2032
  3
SORTENTS
350
2033
  0
DICTIONARY
  5
952
102
{ACAD_REACTORS
330
B
102
}
330
B
100
AcDbDictionary
281
     1
  0
XRECORD
  5
2038
102
{ACAD_REACTORS
330
B
102
}
330
B
100
AcDbXrecord
280
     1
  1
DWGPROPS COOKIE
  2

  3

  4

  6

  7

  8
beata.rzonca
  9

300
=
301
=
302
=
303
=
304
=
305
=
306
=
307
=
308
=
309
=
 40
21.76144105324074
 41
2450817.525937848
 42
2454967.626648762
  1

 90
        0
  0
DICTIONARY
  5
1F
102
{ACAD_REACTORS
330
1E
102
}
330
1E
100
AcDbDictionary
281
     1
  0
XRECORD
  5
8
102
{ACAD_REACTORS
330
7
102
}
330
7
100
AcDbXrecord
280
     1
290
     1
  0
XRECORD
  5
76
102
{ACAD_REACTORS
330
75
102
}
330
75
100
AcDbXrecord
280
     1
290
     1
  0
XRECORD
  5
58
102
{ACAD_REACTORS
330
57
102
}
330
57
100
AcDbXrecord
280
     1
290
     1
  0
XRECORD
  5
3A5
102
{ACAD_REACTORS
330
3A4
102
}
330
3A4
100
AcDbXrecord
280
     1
290
     1
  0
XRECORD
  5
80
102
{ACAD_REACTORS
330
7F
102
}
330
7F
100
AcDbXrecord
280
     1
290
     1
  0
SORTENTSTABLE
  5
790
102
{ACAD_REACTORS
330
3
102
}
330
3
100
AcDbSortentsTable
330
2
331
1D20
  5
1D21
331
1D0A
  5
1D0A
331
1CEC
  5
1CEC
331
1D25
  5
1D26
331
1D0F
  5
1D10
331
1D48
  5
1D0B
331
1CF1
  5
1CF1
331
1D2A
  5
1D2B
331
1D14
  5
1D15
331
1CF6
  5
1CF6
331
1D2F
  5
1D30
331
1D19
  5
1D1A
331
1CFB
  5
1CFB
331
1D34
  5
1D35
331
1CDD
  5
1CDD
331
1D1E
  5
1D1F
331
1D00
  5
1D00
331
1CE2
  5
1CE2
331
1D05
  5
1D05
331
1CE7
  5
1CE7
331
1CE9
  5
1CE9
331
1D22
  5
1D23
331
1D0C
  5
1D0D
331
1CEE
  5
1CEE
331
1D27
  5
1D28
331
1D11
  5
1D12
331
1AA1
  5
1AA1
331
1CF3
  5
1CF3
331
1D2C
  5
1D2D
331
1D16
  5
1D17
331
1CF8
  5
1CF8
331
1D31
  5
1D32
331
1D1B
  5
1D1C
331
1CFD
  5
1CFD
331
1D36
  5
1D3C
331
1CDF
  5
1CDF
331
1D02
  5
1D02
331
1D07
  5
1D07
331
1CE4
  5
1CE4
331
1A8A
  5
1A8A
331
1D09
  5
1D09
331
1CEB
  5
1CEB
331
1D24
  5
1D25
331
1D0E
  5
1D0F
331
1CF0
  5
1CF0
331
1A9E
  5
1A9E
331
1D29
  5
1D2A
331
1D13
  5
1D14
331
1CF5
  5
1CF5
331
1D2E
  5
1D2F
331
1D18
  5
1D19
331
1CFA
  5
1CFA
331
1D33
  5
1D34
331
1CDC
  5
1CDC
331
1D1D
  5
1D1E
331
1CFF
  5
1CFF
331
1CE1
  5
1CE1
331
1D04
  5
1D04
331
1D3D
  5
1D52
331
1CE6
  5
1CE6
331
1CE8
  5
1CE8
331
1D21
  5
1D22
331
1D0B
  5
1D0C
331
1CED
  5
1CED
331
1D26
  5
1D27
331
1D10
  5
1D11
331
1AA0
  5
1AA0
331
1CF2
  5
1CF2
331
1D2B
  5
1D2C
331
1D15
  5
1D16
331
1CF7
  5
1CF7
331
1D30
  5
1D31
331
1D1A
  5
1D1B
331
1D53
  5
1D40
331
1CFC
  5
1CFC
331
1D35
  5
1D36
331
1CDE
  5
1CDE
331
1D1F
  5
1D20
331
1D01
  5
1D01
331
1D06
  5
1D06
331
1CE3
  5
1CE3
331
1D3F
  5
1D53
331
1D08
  5
1D08
331
1CEA
  5
1CEA
331
1D23
  5
1D24
331
1D0D
  5
1D0E
331
1CEF
  5
1CEF
331
1D28
  5
1D29
331
1D12
  5
1D13
331
1CF4
  5
1CF4
331
1D2D
  5
1D2E
331
1D17
  5
1D18
331
1CF9
  5
1CF9
331
1D32
  5
1D33
331
1CDB
  5
1CDB
331
1D1C
  5
1D1D
331
1CFE
  5
1CFE
331
1CE0
  5
1CE0
331
1D03
  5
1D03
331
1CE5
  5
1CE5
331
1A8B
  5
1A8B
331
1AA2
  5
1AA2
  0
SORTENTSTABLE
  5
78F
102
{ACAD_REACTORS
330
30
102
}
330
30
100
AcDbSortentsTable
330
2F
  0
LAYOUT
  5
1943
102
{ACAD_XDICTIONARY
360
2042
102
}
102
{ACAD_REACTORS
330
12
102
}
330
12
100
AcDbPlotSettings
  1

  2
CutePDF Writer
  4

  6

 40
0.0
 41
0.0
 42
0.0
 43
0.0
 44
0.0
 45
0.0
 46
0.0
 47
0.0
 48
0.0
 49
0.0
140
0.0
141
0.0
142
1.0
143
1.0
 70
   688
 72
     0
 73
     0
 74
     5
  7

 75
    16
147
1.0
148
0.0
149
0.0
100
AcDbLayout
  1
Layout1
 70
     1
 71
     1
 10
0.0
 20
0.0
 11
12.0
 21
9.0
 12
0.0
 22
0.0
 32
0.0
 14
0.0
 24
0.0
 34
0.0
 15
0.0
 25
0.0
 35
0.0
146
0.0
 13
0.0
 23
0.0
 33
0.0
 16
1.0
 26
0.0
 36
0.0
 17
0.0
 27
1.0
 37
0.0
 76
     0
330
1942
  0
LAYOUT
  5
11
102
{ACAD_XDICTIONARY
360
203B
102
}
102
{ACAD_REACTORS
330
12
102
}
330
12
100
AcDbPlotSettings
  1

  2
RICOH Aficio AP610N PCL 5e
  4
A4
  6
10-ele
 40
6.805083274841308
 41
5.027085781097412
 42
6.974411010742187
 43
5.027069091796875
 44
209.9733276367187
 45
296.9259948730469
 46
-3.903083324432671
 47
3.235920000076276
 48
67057.75918130524
 49
-45526.33714755503
140
77257.75918130527
141
-31506.33714755504
142
1.0
143
50.0
 70
 11940
 72
     1
 73
     0
 74
     4
  7
monochrome_140.ctb
 75
     0
147
0.0192346895442289
148
-67057.75918130524
149
45526.33714755503
100
AcDbLayout
  1
Model
 70
     1
 71
     0
 10
0.0
 20
0.0
 11
12.0
 21
9.0
 12
0.0
 22
0.0
 32
0.0
 14
0.0
 24
0.0
 34
0.0
 15
0.0
 25
0.0
 35
0.0
146
0.0
 13
0.0
 23
0.0
 33
0.0
 16
1.0
 26
0.0
 36
0.0
 17
0.0
 27
1.0
 37
0.0
 76
     0
330
2
331
29
1001
ACAD_PSEXT
1000
RICOH Aficio AP610N PCL 5e
1000
RICOH Aficio AP610N PCL 5e
1000
IP_192.168.0.252_tech
1000

1070
     0
  0
MATERIAL
  5
52
102
{ACAD_XDICTIONARY
360
203F
102
}
102
{ACAD_REACTORS
330
D
102
}
330
D
100
AcDbMaterial
  1
ByBlock
 73
     1
 78
     1
172
     1
176
     1
270
     1
274
     1
  0
MATERIAL
  5
51
102
{ACAD_XDICTIONARY
360
203D
102
}
102
{ACAD_REACTORS
330
D
102
}
330
D
100
AcDbMaterial
  1
ByLayer
 73
     1
 78
     1
172
     1
176
     1
270
     1
274
     1
  0
MATERIAL
  5
C
102
{ACAD_XDICTIONARY
360
2039
102
}
102
{ACAD_REACTORS
330
D
102
}
330
D
100
AcDbMaterial
  1
Global
 73
     1
 78
     1
172
     1
176
     1
270
     1
274
     1
  0
MLEADERSTYLE
  5
7A9
102
{ACAD_REACTORS
330
7A8
102
}
330
7A8
100
AcDbMLeaderStyle
170
     2
171
     1
172
     0
 90
        2
 40
0.0
 41
0.0
173
     1
 91
-1056964608
340
24
 92
       -2
290
     1
 42
0.09
291
     1
 43
0.36
  3
Standard
 44
0.18
300

342
21
174
     1
178
     6
175
     1
176
     0
 93
-1056964608
 45
0.18
292
     0
297
     0
 46
0.18
 94
-1056964608
 47
1.0
 49
1.0
140
1.0
293
     1
141
0.0
294
     1
177
     0
142
1.0
295
     0
296
     0
143
0.125
1001
ACAD_MLEADERVER
1070
     2
  0
MLINESTYLE
  5
59
102
{ACAD_REACTORS
330
4F
102
}
330
4F
100
AcDbMlineStyle
  2
STANDARD
 70
     0
  3

 62
     0
 51
90.0
 52
90.0
 71
     2
 49
0.5
 62
   256
  6
BYLAYER
 49
-0.5
 62
   256
  6
BYLAYER
  0
ACDBPLACEHOLDER
  5
9
102
{ACAD_REACTORS
330
A
102
}
330
A
  0
SCALE
  5
85B
102
{ACAD_REACTORS
330
54
102
}
330
54
100
AcDbScale
 70
     0
300
1:1_2
140
1.0
141
1.0
290
     0
  0
SCALE
  5
132C
102
{ACAD_REACTORS
330
54
102
}
330
54
100
AcDbScale
 70
     0
300
1:10_3
140
1.0
141
1.0
290
     0
  0
SCALE
  5
132D
102
{ACAD_REACTORS
330
54
102
}
330
54
100
AcDbScale
 70
     0
300
1:20_3
140
1.0
141
2.0
290
     0
  0
SCALE
  5
86F
102
{ACAD_REACTORS
330
54
102
}
330
54
100
AcDbScale
 70
     0
300
4:1
140
4.0
141
1.0
290
     0
  0
SCALE
  5
132E
102
{ACAD_REACTORS
330
54
102
}
330
54
100
AcDbScale
 70
     0
300
1:50_3
140
1.0
141
5.0
290
     0
  0
SCALE
  5
873
102
{ACAD_REACTORS
330
54
102
}
330
54
100
AcDbScale
 70
     0
300
1/128" = 1'-0"
140
0.0078125
141
12.0
290
     0
  0
SCALE
  5
132F
102
{ACAD_REACTORS
330
54
102
}
330
54
100
AcDbScale
 70
     0
300
1:100_3
140
1.0
141
10.0
290
     0
  0
SCALE
  5
869
102
{ACAD_REACTORS
330
54
102
}
330
54
100
AcDbScale
 70
     0
300
1:20_1
140
1.0
141
20.0
290
     0
  0
SCALE
  5
1330
102
{ACAD_REACTORS
330
54
102
}
330
54
100
AcDbScale
 70
     0
300
1:1_3
140
1.0
141
0.1
290
     0
  0
SCALE
  5
1331
102
{ACAD_REACTORS
330
54
102
}
330
54
100
AcDbScale
 70
     0
300
1:2_3
140
1.0
141
0.2
290
     0
  0
SCALE
  5
1332
102
{ACAD_REACTORS
330
54
102
}
330
54
100
AcDbScale
 70
     0
300
1:1_4
140
1.0
141
1.0
290
     0
  0
SCALE
  5
876
102
{ACAD_REACTORS
330
54
102
}
330
54
100
AcDbScale
 70
     0
300
1/16" = 1'-0"
140
0.0625
141
12.0
290
     0
  0
SCALE
  5
1333
102
{ACAD_REACTORS
330
54
102
}
330
54
100
AcDbScale
 70
     0
300
1:2_4
140
1.0
141
2.0
290
     0
  0
SCALE
  5
879
102
{ACAD_REACTORS
330
54
102
}
330
54
100
AcDbScale
 70
     0
300
3/16" = 1'-0"
140
0.1875
141
12.0
290
     0
  0
SCALE
  5
87B
102
{ACAD_REACTORS
330
54
102
}
330
54
100
AcDbScale
 70
     0
300
3/8" = 1'-0"
140
0.375
141
12.0
290
     0
  0
SCALE
  5
870
102
{ACAD_REACTORS
330
54
102
}
330
54
100
AcDbScale
 70
     0
300
8:1
140
8.0
141
1.0
290
     0
  0
SCALE
  5
1334
102
{ACAD_REACTORS
330
54
102
}
330
54
100
AcDbScale
 70
     0
300
1:5_4
140
1.0
141
5.0
290
     0
  0
SCALE
  5
1335
102
{ACAD_REACTORS
330
54
102
}
330
54
100
AcDbScale
 70
     0
300
1:10_4
140
1.0
141
10.0
290
     0
  0
SCALE
  5
1336
102
{ACAD_REACTORS
330
54
102
}
330
54
100
AcDbScale
 70
     0
300
1:20_4
140
1.0
141
20.0
290
     0
  0
SCALE
  5
1337
102
{ACAD_REACTORS
330
54
102
}
330
54
100
AcDbScale
 70
     0
300
1:50_4
140
1.0
141
50.0
290
     0
  0
SCALE
  5
87F
102
{ACAD_REACTORS
330
54
102
}
330
54
100
AcDbScale
 70
     0
300
1-1/2" = 1'-0"
140
1.5
141
12.0
290
     0
  0
SCALE
  5
881
102
{ACAD_REACTORS
330
54
102
}
330
54
100
AcDbScale
 70
     0
300
6" = 1'-0"
140
6.0
141
12.0
290
     0
  0
SCALE
  5
877
102
{ACAD_REACTORS
330
54
102
}
330
54
100
AcDbScale
 70
     0
300
3/32" = 1'-0"
140
0.09375
141
12.0
290
     0
  0
SCALE
  5
1338
102
{ACAD_REACTORS
330
54
102
}
330
54
100
AcDbScale
 70
     0
300
1:100_4
140
1.0
141
100.0
290
     0
  0
SCALE
  5
87C
102
{ACAD_REACTORS
330
54
102
}
330
54
100
AcDbScale
 70
     0
300
1/2" = 1'-0"
140
0.5
141
12.0
290
     0
  0
SCALE
  5
87D
102
{ACAD_REACTORS
330
54
102
}
330
54
100
AcDbScale
 70
     0
300
3/4" = 1'-0"
140
0.75
141
12.0
290
     0
  0
SCALE
  5
865
102
{ACAD_REACTORS
330
54
102
}
330
54
100
AcDbScale
 70
     0
300
1:5_1
140
1.0
141
5.0
290
     0
  0
SCALE
  5
860
102
{ACAD_REACTORS
330
54
102
}
330
54
100
AcDbScale
 70
     0
300
1:50_2
140
1.0
141
50.0
290
     0
  0
SCALE
  5
862
102
{ACAD_REACTORS
330
54
102
}
330
54
100
AcDbScale
 70
     0
300
1:1_1
140
1.0
141
1.0
290
     0
  0
SCALE
  5
87E
102
{ACAD_REACTORS
330
54
102
}
330
54
100
AcDbScale
 70
     0
300
1" = 1'-0"
140
1.0
141
12.0
290
     0
  0
SCALE
  5
168F
102
{ACAD_REACTORS
330
54
102
}
330
54
100
AcDbScale
 70
     0
300
1:1_3_1
140
1.0
141
1.0
290
     0
  0
SCALE
  5
1690
102
{ACAD_REACTORS
330
54
102
}
330
54
100
AcDbScale
 70
     0
300
1:2_3_1
140
1.0
141
2.0
290
     0
  0
SCALE
  5
1691
102
{ACAD_REACTORS
330
54
102
}
330
54
100
AcDbScale
 70
     0
300
1:5_3_1
140
1.0
141
5.0
290
     0
  0
SCALE
  5
868
102
{ACAD_REACTORS
330
54
102
}
330
54
100
AcDbScale
 70
     0
300
1:16
140
1.0
141
16.0
290
     0
  0
SCALE
  5
86A
102
{ACAD_REACTORS
330
54
102
}
330
54
100
AcDbScale
 70
     0
300
1:30
140
1.0
141
30.0
290
     0
  0
SCALE
  5
1692
102
{ACAD_REACTORS
330
54
102
}
330
54
100
AcDbScale
 70
     0
300
1:10_3_1
140
1.0
141
10.0
290
     0
  0
SCALE
  5
1693
102
{ACAD_REACTORS
330
54
102
}
330
54
100
AcDbScale
 70
     0
300
1:20_3_1
140
1.0
141
20.0
290
     0
  0
SCALE
  5
85E
102
{ACAD_REACTORS
330
54
102
}
330
54
100
AcDbScale
 70
     0
300
1:10_2
140
1.0
141
10.0
290
     0
  0
SCALE
  5
1694
102
{ACAD_REACTORS
330
54
102
}
330
54
100
AcDbScale
 70
     0
300
1:50_3_1
140
1.0
141
50.0
290
     0
  0
SCALE
  5
871
102
{ACAD_REACTORS
330
54
102
}
330
54
100
AcDbScale
 70
     0
300
10:1
140
10.0
141
1.0
290
     0
  0
SCALE
  5
1695
102
{ACAD_REACTORS
330
54
102
}
330
54
100
AcDbScale
 70
     0
300
1:100_3_1
140
1.0
141
100.0
290
     0
  0
SCALE
  5
882
102
{ACAD_REACTORS
330
54
102
}
330
54
100
AcDbScale
 70
     0
300
1'-0" = 1'-0"
140
12.0
141
12.0
290
     0
  0
SCALE
  5
866
102
{ACAD_REACTORS
330
54
102
}
330
54
100
AcDbScale
 70
     0
300
1:8
140
1.0
141
8.0
290
     0
  0
SCALE
  5
86D
102
{ACAD_REACTORS
330
54
102
}
330
54
100
AcDbScale
 70
     0
300
1:100_1
140
1.0
141
100.0
290
     0
  0
SCALE
  5
85D
102
{ACAD_REACTORS
330
54
102
}
330
54
100
AcDbScale
 70
     0
300
1:5_2
140
1.0
141
5.0
290
     0
  0
SCALE
  5
85F
102
{ACAD_REACTORS
330
54
102
}
330
54
100
AcDbScale
 70
     0
300
1:20_2
140
1.0
141
20.0
290
     0
  0
SCALE
  5
863
102
{ACAD_REACTORS
330
54
102
}
330
54
100
AcDbScale
 70
     0
300
1:2_1
140
1.0
141
2.0
290
     0
  0
SCALE
  5
85C
102
{ACAD_REACTORS
330
54
102
}
330
54
100
AcDbScale
 70
     0
300
1:2_2
140
1.0
141
2.0
290
     0
  0
SCALE
  5
874
102
{ACAD_REACTORS
330
54
102
}
330
54
100
AcDbScale
 70
     0
300
1/64" = 1'-0"
140
0.015625
141
12.0
290
     0
  0
SCALE
  5
867
102
{ACAD_REACTORS
330
54
102
}
330
54
100
AcDbScale
 70
     0
300
1:10_1
140
1.0
141
10.0
290
     0
  0
SCALE
  5
1A1C
102
{ACAD_REACTORS
330
54
102
}
330
54
100
AcDbScale
 70
     0
300
1:1_5
140
1.0
141
1.0
290
     0
  0
SCALE
  5
864
102
{ACAD_REACTORS
330
54
102
}
330
54
100
AcDbScale
 70
     0
300
1:4
140
1.0
141
4.0
290
     0
  0
SCALE
  5
1A1D
102
{ACAD_REACTORS
330
54
102
}
330
54
100
AcDbScale
 70
     0
300
1:2_5
140
1.0
141
2.0
290
     0
  0
SCALE
  5
1A1E
102
{ACAD_REACTORS
330
54
102
}
330
54
100
AcDbScale
 70
     0
300
1:5_5
140
1.0
141
5.0
290
     0
  0
SCALE
  5
1A1F
102
{ACAD_REACTORS
330
54
102
}
330
54
100
AcDbScale
 70
     0
300
1:10_5
140
1.0
141
10.0
290
     0
  0
SCALE
  5
86C
102
{ACAD_REACTORS
330
54
102
}
330
54
100
AcDbScale
 70
     0
300
1:50_1
140
1.0
141
50.0
290
     0
  0
SCALE
  5
1A20
102
{ACAD_REACTORS
330
54
102
}
330
54
100
AcDbScale
 70
     0
300
1:20_5
140
1.0
141
20.0
290
     0
  0
SCALE
  5
1A21
102
{ACAD_REACTORS
330
54
102
}
330
54
100
AcDbScale
 70
     0
300
1:50_5
140
1.0
141
50.0
290
     0
  0
SCALE
  5
1A22
102
{ACAD_REACTORS
330
54
102
}
330
54
100
AcDbScale
 70
     0
300
1:100_5
140
1.0
141
100.0
290
     0
  0
SCALE
  5
86B
102
{ACAD_REACTORS
330
54
102
}
330
54
100
AcDbScale
 70
     0
300
1:40
140
1.0
141
40.0
290
     0
  0
SCALE
  5
87A
102
{ACAD_REACTORS
330
54
102
}
330
54
100
AcDbScale
 70
     0
300
1/4" = 1'-0"
140
0.25
141
12.0
290
     0
  0
SCALE
  5
86E
102
{ACAD_REACTORS
330
54
102
}
330
54
100
AcDbScale
 70
     0
300
2:1
140
2.0
141
1.0
290
     0
  0
SCALE
  5
872
102
{ACAD_REACTORS
330
54
102
}
330
54
100
AcDbScale
 70
     0
300
100:1
140
100.0
141
1.0
290
     0
  0
SCALE
  5
880
102
{ACAD_REACTORS
330
54
102
}
330
54
100
AcDbScale
 70
     0
300
3" = 1'-0"
140
3.0
141
12.0
290
     0
  0
SCALE
  5
875
102
{ACAD_REACTORS
330
54
102
}
330
54
100
AcDbScale
 70
     0
300
1/32" = 1'-0"
140
0.03125
141
12.0
290
     0
  0
SCALE
  5
878
102
{ACAD_REACTORS
330
54
102
}
330
54
100
AcDbScale
 70
     0
300
1/8" = 1'-0"
140
0.125
141
12.0
290
     0
  0
SCALE
  5
861
102
{ACAD_REACTORS
330
54
102
}
330
54
100
AcDbScale
 70
     0
300
1:100_2
140
1.0
141
100.0
290
     0
  0
SCALE
  5
132B
102
{ACAD_REACTORS
330
54
102
}
330
54
100
AcDbScale
 70
     0
300
1:5_3
140
1.0
141
0.5
290
     0
  0
SCALE
  5
5E
102
{ACAD_REACTORS
330
54
102
}
330
54
100
AcDbScale
 70
     0
300
1:1
140
1.0
141
0.1
290
     0
  0
SCALE
  5
5F
102
{ACAD_REACTORS
330
54
102
}
330
54
100
AcDbScale
 70
     0
300
1:2
140
1.0
141
0.2
290
     0
  0
SCALE
  5
60
102
{ACAD_REACTORS
330
54
102
}
330
54
100
AcDbScale
 70
     0
300
1:2.5
140
1.0
141
0.25
290
     0
  0
SCALE
  5
61
102
{ACAD_REACTORS
330
54
102
}
330
54
100
AcDbScale
 70
     0
300
1:5
140
1.0
141
0.5
290
     0
  0
SCALE
  5
62
102
{ACAD_REACTORS
330
54
102
}
330
54
100
AcDbScale
 70
     0
300
1:7.5
140
1.0
141
0.75
290
     0
  0
SCALE
  5
63
102
{ACAD_REACTORS
330
54
102
}
330
54
100
AcDbScale
 70
     0
300
1:10
140
1.0
141
1.0
290
     1
  0
SCALE
  5
64
102
{ACAD_REACTORS
330
54
102
}
330
54
100
AcDbScale
 70
     0
300
1:20
140
1.0
141
2.0
290
     0
  0
SCALE
  5
65
102
{ACAD_REACTORS
330
54
102
}
330
54
100
AcDbScale
 70
     0
300
1:25
140
1.0
141
2.5
290
     0
  0
SCALE
  5
66
102
{ACAD_REACTORS
330
54
102
}
330
54
100
AcDbScale
 70
     0
300
1:50
140
1.0
141
5.0
290
     0
  0
SCALE
  5
67
102
{ACAD_REACTORS
330
54
102
}
330
54
100
AcDbScale
 70
     0
300
1:75
140
1.0
141
7.5
290
     0
  0
SCALE
  5
68
102
{ACAD_REACTORS
330
54
102
}
330
54
100
AcDbScale
 70
     0
300
1:100
140
1.0
141
10.0
290
     0
  0
SCALE
  5
69
102
{ACAD_REACTORS
330
54
102
}
330
54
100
AcDbScale
 70
     0
300
1:150
140
1.0
141
15.0
290
     0
  0
SCALE
  5
6A
102
{ACAD_REACTORS
330
54
102
}
330
54
100
AcDbScale
 70
     0
300
1:200
140
1.0
141
20.0
290
     0
  0
SCALE
  5
6B
102
{ACAD_REACTORS
330
54
102
}
330
54
100
AcDbScale
 70
     0
300
1:250
140
1.0
141
25.0
290
     0
  0
SCALE
  5
6C
102
{ACAD_REACTORS
330
54
102
}
330
54
100
AcDbScale
 70
     0
300
1:500
140
1.0
141
50.0
290
     0
  0
SCALE
  5
6D
102
{ACAD_REACTORS
330
54
102
}
330
54
100
AcDbScale
 70
     0
300
1:750
140
1.0
141
75.0
290
     0
  0
SCALE
  5
6E
102
{ACAD_REACTORS
330
54
102
}
330
54
100
AcDbScale
 70
     0
300
1:1000
140
1.0
141
100.0
290
     0
  0
SCALE
  5
6F
102
{ACAD_REACTORS
330
54
102
}
330
54
100
AcDbScale
 70
     0
300
1:1250
140
1.0
141
125.0
290
     0
  0
SCALE
  5
70
102
{ACAD_REACTORS
330
54
102
}
330
54
100
AcDbScale
 70
     0
300
1:2000
140
1.0
141
200.0
290
     0
  0
SCALE
  5
71
102
{ACAD_REACTORS
330
54
102
}
330
54
100
AcDbScale
 70
     0
300
1:2500
140
1.0
141
250.0
290
     0
  0
SCALE
  5
72
102
{ACAD_REACTORS
330
54
102
}
330
54
100
AcDbScale
 70
     0
300
1:5000
140
1.0
141
500.0
290
     0
  0
TABLESTYLE
  5
5A
102
{ACAD_XDICTIONARY
360
5B
102
}
102
{ACAD_REACTORS
330
55
102
}
330
55
100
AcDbTableStyle
  3
Standard
 70
     0
 71
     0
 40
0.06
 41
0.06
280
     0
281
     0
  7
STANDARD
140
0.18
170
     2
 62
     0
 63
     7
283
     0
274
    -2
284
     1
 64
     0
275
    -2
285
     1
 65
     0
276
    -2
286
     1
 66
     0
277
    -2
287
     1
 67
     0
278
    -2
288
     1
 68
     0
279
    -2
289
     1
 69
     0
  7
STANDARD
140
0.25
170
     5
 62
     0
 63
     7
283
     0
274
    -2
284
     1
 64
     0
275
    -2
285
     1
 65
     0
276
    -2
286
     1
 66
     0
277
    -2
287
     1
 67
     0
278
    -2
288
     1
 68
     0
279
    -2
289
     1
 69
     0
  7
STANDARD
140
0.18
170
     5
 62
     0
 63
     7
283
     0
274
    -2
284
     1
 64
     0
275
    -2
285
     1
 65
     0
276
    -2
286
     1
 66
     0
277
    -2
287
     1
 67
     0
278
    -2
288
     1
 68
     0
279
    -2
289
     1
 69
     0
  0
VISUALSTYLE
  5
14
102
{ACAD_REACTORS
330
15
102
}
330
15
100
AcDbVisualStyle
  2
2dWireframe
 70
     4
 71
     0
 72
     2
 73
     0
 90
        0
 40
-0.6
 41
-30.0
 62
     5
 63
     7
 74
     1
 91
        4
 64
     7
 65
   257
 75
     1
175
     1
 42
1.0
 92
        0
 66
   257
 43
1.0
 76
     1
 77
     6
 78
     2
 67
     7
 79
     5
170
     0
171
     0
290
     0
174
     0
 93
        1
 44
0.0
173
     0
291
     0
 45
0.0
1001
ACAD
1000
AcDbSavedByObjectVersion
1070
     0
  0
VISUALSTYLE
  5
7A0
102
{ACAD_REACTORS
330
15
102
}
330
15
100
AcDbVisualStyle
  2
3D Hidden
 70
     6
 71
     1
 72
     2
 73
     2
 90
        0
 40
-0.6
 41
-30.0
 62
     5
 63
     7
 74
     2
 91
        2
 64
     7
 65
   257
 75
     2
175
     1
 42
40.0
 92
        0
 66
   257
 43
1.0
 76
     1
 77
     6
 78
     2
 67
     7
 79
     3
170
     0
171
     0
290
     0
174
     0
 93
        1
 44
0.0
173
     0
291
     0
 45
0.0
1001
ACAD
1000
AcDbSavedByObjectVersion
1070
     0
  0
VISUALSTYLE
  5
5D
102
{ACAD_REACTORS
330
15
102
}
330
15
100
AcDbVisualStyle
  2
3dWireframe
 70
     5
 71
     0
 72
     2
 73
     0
 90
        0
 40
-0.6
 41
-30.0
 62
     5
 63
     7
 74
     1
 91
        4
 64
     7
 65
   257
 75
     1
175
     1
 42
1.0
 92
        0
 66
   257
 43
1.0
 76
     1
 77
     6
 78
     2
 67
     7
 79
     5
170
     0
171
     0
290
     0
174
     0
 93
        1
 44
0.0
173
     0
291
     0
 45
0.0
1001
ACAD
1000
AcDbSavedByObjectVersion
1070
     0
  0
VISUALSTYLE
  5
79F
102
{ACAD_REACTORS
330
15
102
}
330
15
100
AcDbVisualStyle
  2
Basic
 70
     7
 71
     1
 72
     0
 73
     1
 90
        0
 40
-0.6
 41
-30.0
 62
     5
 63
     7
 74
     0
 91
        4
 64
     7
 65
   257
 75
     1
175
     1
 42
1.0
 92
        8
 66
     7
 43
1.0
 76
     1
 77
     6
 78
     2
 67
     7
 79
     5
170
     0
171
     0
290
     0
174
     0
 93
        1
 44
0.0
173
     0
291
     1
 45
0.0
1001
ACAD
1000
AcDbSavedByObjectVersion
1070
     0
  0
VISUALSTYLE
  5
7A3
102
{ACAD_REACTORS
330
15
102
}
330
15
100
AcDbVisualStyle
  2
Brighten
 70
    12
 71
     2
 72
     2
 73
     0
 90
        0
 40
-0.6
 41
-30.0
 62
     5
 63
     7
 74
     1
 91
        4
 64
     7
 65
   257
 75
     1
175
     1
 42
1.0
 92
        8
 66
     7
 43
1.0
 76
     1
 77
     6
 78
     2
 67
     7
 79
     5
170
     0
171
     0
290
     0
174
     0
 93
        1
 44
50.0
173
     0
291
     1
 45
0.0
1001
ACAD
1000
AcDbSavedByObjectVersion
1070
     0
  0
VISUALSTYLE
  5
7A7
102
{ACAD_REACTORS
330
15
102
}
330
15
100
AcDbVisualStyle
  2
ColorChange
 70
    16
 71
     2
 72
     2
 73
     3
 90
        0
 40
-0.6
 41
-30.0
 62
     5
 63
     8
 74
     1
 91
        4
 64
     7
 65
   257
 75
     1
175
     1
 42
1.0
 92
        8
 66
     8
 43
1.0
 76
     1
 77
     6
 78
     2
 67
     7
 79
     5
170
     0
171
     0
290
     0
174
     0
 93
        1
 44
0.0
173
     0
291
     1
 45
0.0
1001
ACAD
1000
AcDbSavedByObjectVersion
1070
     0
  0
VISUALSTYLE
  5
7A1
102
{ACAD_REACTORS
330
15
102
}
330
15
100
AcDbVisualStyle
  2
Conceptual
 70
     9
 71
     3
 72
     2
 73
     0
 90
        0
 40
-0.6
 41
-30.0
 62
     5
 63
     7
 74
     2
 91
        2
 64
     7
 65
   257
 75
     1
175
     1
 42
40.0
 92
        8
 66
     7
 43
1.0
 76
     1
 77
     6
 78
     2
 67
     7
 79
     3
170
     0
171
     0
290
     0
174
     0
 93
        1
 44
0.0
173
     0
291
     0
 45
0.0
1001
ACAD
1000
AcDbSavedByObjectVersion
1070
     0
  0
VISUALSTYLE
  5
7A2
102
{ACAD_REACTORS
330
15
102
}
330
15
100
AcDbVisualStyle
  2
Dim
 70
    11
 71
     2
 72
     2
 73
     0
 90
        0
 40
-0.6
 41
-30.0
 62
     5
 63
     7
 74
     1
 91
        4
 64
     7
 65
   257
 75
     1
175
     1
 42
1.0
 92
        8
 66
     7
 43
1.0
 76
     1
 77
     6
 78
     2
 67
     7
 79
     5
170
     0
171
     0
290
     0
174
     0
 93
        1
 44
-50.0
173
     0
291
     1
 45
0.0
1001
ACAD
1000
AcDbSavedByObjectVersion
1070
     0
  0
VISUALSTYLE
  5
7A6
102
{ACAD_REACTORS
330
15
102
}
330
15
100
AcDbVisualStyle
  2
Facepattern
 70
    15
 71
     2
 72
     2
 73
     0
 90
        0
 40
-0.6
 41
-30.0
 62
     5
 63
     7
 74
     1
 91
        4
 64
     7
 65
   257
 75
     1
175
     1
 42
1.0
 92
        8
 66
     7
 43
1.0
 76
     1
 77
     6
 78
     2
 67
     7
 79
     5
170
     0
171
     0
290
     0
174
     0
 93
        1
 44
0.0
173
     0
291
     1
 45
0.0
1001
ACAD
1000
AcDbSavedByObjectVersion
1070
     0
  0
VISUALSTYLE
  5
79B
102
{ACAD_REACTORS
330
15
102
}
330
15
100
AcDbVisualStyle
  2
Flat
 70
     0
 71
     2
 72
     1
 73
     1
 90
        2
 40
-0.6
 41
30.0
 62
     5
 63
     7
 74
     0
 91
        4
 64
     7
 65
   257
 75
     1
175
     1
 42
1.0
 92
        8
 66
     7
 43
1.0
 76
     1
 77
     6
 78
     2
 67
     7
 79
     5
170
     0
171
     0
290
     0
174
     0
 93
       13
 44
0.0
173
     0
291
     0
 45
0.0
1001
ACAD
1000
AcDbSavedByObjectVersion
1070
     0
  0
VISUALSTYLE
  5
79C
102
{ACAD_REACTORS
330
15
102
}
330
15
100
AcDbVisualStyle
  2
FlatWithEdges
 70
     1
 71
     2
 72
     1
 73
     1
 90
        2
 40
-0.6
 41
30.0
 62
     5
 63
     7
 74
     1
 91
        4
 64
     7
 65
   257
 75
     1
175
     1
 42
1.0
 92
        0
 66
   257
 43
1.0
 76
     1
 77
     6
 78
     2
 67
     7
 79
     5
170
     0
171
     0
290
     0
174
     0
 93
       13
 44
0.0
173
     0
291
     0
 45
0.0
1001
ACAD
1000
AcDbSavedByObjectVersion
1070
     0
  0
VISUALSTYLE
  5
79D
102
{ACAD_REACTORS
330
15
102
}
330
15
100
AcDbVisualStyle
  2
Gouraud
 70
     2
 71
     2
 72
     2
 73
     1
 90
        2
 40
-0.6
 41
30.0
 62
     5
 63
     7
 74
     0
 91
        4
 64
     7
 65
   257
 75
     1
175
     1
 42
1.0
 92
        0
 66
     7
 43
1.0
 76
     1
 77
     6
 78
     2
 67
     7
 79
     5
170
     0
171
     0
290
     0
174
     0
 93
       13
 44
0.0
173
     0
291
     0
 45
0.0
1001
ACAD
1000
AcDbSavedByObjectVersion
1070
     0
  0
VISUALSTYLE
  5
79E
102
{ACAD_REACTORS
330
15
102
}
330
15
100
AcDbVisualStyle
  2
GouraudWithEdges
 70
     3
 71
     2
 72
     2
 73
     1
 90
        2
 40
-0.6
 41
30.0
 62
     5
 63
     7
 74
     1
 91
        4
 64
     7
 65
   257
 75
     1
175
     1
 42
1.0
 92
        0
 66
   257
 43
1.0
 76
     1
 77
     6
 78
     2
 67
     7
 79
     5
170
     0
171
     0
290
     0
174
     0
 93
       13
 44
0.0
173
     0
291
     0
 45
0.0
1001
ACAD
1000
AcDbSavedByObjectVersion
1070
     0
  0
VISUALSTYLE
  5
7A5
102
{ACAD_REACTORS
330
15
102
}
330
15
100
AcDbVisualStyle
  2
Linepattern
 70
    14
 71
     2
 72
     2
 73
     0
 90
        0
 40
-0.6
 41
-30.0
 62
     5
 63
     7
 74
     1
 91
        4
 64
     7
 65
   257
 75
     7
175
     7
 42
1.0
 92
        8
 66
     7
 43
1.0
 76
     1
 77
     6
 78
     2
 67
     7
 79
     5
170
     0
171
     0
290
     0
174
     0
 93
        1
 44
0.0
173
     0
291
     1
 45
0.0
1001
ACAD
1000
AcDbSavedByObjectVersion
1070
     0
  0
VISUALSTYLE
  5
7B1
102
{ACAD_REACTORS
330
15
102
}
330
15
100
AcDbVisualStyle
  2

 70
     8
 71
     2
 72
     2
 73
     0
 90
        0
 40
-0.6
 41
-30.0
 62
     5
 63
     7
 74
     0
 91
        0
 64
     7
 65
   257
 75
     1
175
     1
 42
1.0
 92
        8
 66
     8
 43
1.0
 76
     1
 77
     6
 78
     2
 67
     7
 79
     5
170
     0
171
     0
290
     0
174
     0
 93
       13
 44
0.0
173
     0
291
     0
 45
0.0
1001
ACAD
1000
AcDbSavedByObjectVersion
1070
     0
  0
VISUALSTYLE
  5
7B2
102
{ACAD_REACTORS
330
15
102
}
330
15
100
AcDbVisualStyle
  2

 70
     8
 71
     2
 72
     2
 73
     0
 90
        0
 40
-0.6
 41
-30.0
 62
     5
 63
     7
 74
     1
 91
        0
 64
     7
 65
   257
 75
     1
175
     1
 42
1.0
 92
        8
 66
     8
 43
1.0
 76
     1
 77
     6
 78
     2
 67
     7
 79
     5
170
     0
171
     0
290
     0
174
     0
 93
       13
 44
0.0
173
     0
291
     0
 45
0.0
1001
ACAD
1000
AcDbSavedByObjectVersion
1070
     0
  0
VISUALSTYLE
  5
5C
102
{ACAD_REACTORS
330
15
102
}
330
15
100
AcDbVisualStyle
  2
Realistic
 70
     8
 71
     2
 72
     2
 73
     0
 90
        0
 40
-0.6
 41
-30.0
 62
     5
 63
     7
 74
     1
 91
        0
 64
     7
 65
   257
 75
     1
175
     1
 42
1.0
 92
        8
 66
     8
 43
1.0
 76
     1
 77
     6
 78
     2
 67
     7
 79
     5
170
     0
171
     0
290
     0
174
     0
 93
       13
 44
0.0
173
     0
291
     0
 45
0.0
1001
ACAD
1000
AcDbSavedByObjectVersion
1070
     0
  0
VISUALSTYLE
  5
7A4
102
{ACAD_REACTORS
330
15
102
}
330
15
100
AcDbVisualStyle
  2
Thicken
 70
    13
 71
     2
 72
     2
 73
     0
 90
        0
 40
-0.6
 41
-30.0
 62
     5
 63
     7
 74
     1
 91
        4
 64
     7
 65
   257
 75
     1
175
     1
 42
1.0
 92
       12
 66
     7
 43
1.0
 76
     1
 77
     6
 78
     2
 67
     7
 79
     5
170
     0
171
     0
290
     0
174
     0
 93
        1
 44
0.0
173
     0
291
     1
 45
0.0
1001
ACAD
1000
AcDbSavedByObjectVersion
1070
     0
  0
DICTIONARYVAR
  5
798
102
{ACAD_REACTORS
330
795
102
}
330
795
100
DictionaryVariables
280
     0
  1
1:1
  0
DICTIONARYVAR
  5
797
102
{ACAD_REACTORS
330
795
102
}
330
795
100
DictionaryVariables
280
     0
  1
STANDARD
  0
DICTIONARYVAR
  5
796
102
{ACAD_REACTORS
330
795
102
}
330
795
100
DictionaryVariables
280
     0
  1
STANDARD
  0
DICTIONARYVAR
  5
2036
102
{ACAD_REACTORS
330
795
102
}
330
795
100
DictionaryVariables
280
     0
  1
1
  0
DICTIONARYVAR
  5
2035
102
{ACAD_REACTORS
330
795
102
}
330
795
100
DictionaryVariables
280
     0
  1
1
  0
DICTIONARYVAR
  5
2034
102
{ACAD_REACTORS
330
795
102
}
330
795
100
DictionaryVariables
280
     0
  1
0
  0
DICTIONARYVAR
  5
799
102
{ACAD_REACTORS
330
795
102
}
330
795
100
DictionaryVariables
280
     0
  1
0
  0
DICTIONARYVAR
  5
2032
102
{ACAD_REACTORS
330
795
102
}
330
795
100
DictionaryVariables
280
     0
  1
1
  0
DICTIONARYVAR
  5
2033
102
{ACAD_REACTORS
330
795
102
}
330
795
100
DictionaryVariables
280
     0
  1
127
  0
DICTIONARY
  5
2042
330
1943
100
AcDbDictionary
280
     1
281
     1
  3
ACAD_XREC_ROUNDTRIP
360
2043
  0
DICTIONARY
  5
203B
330
11
100
AcDbDictionary
280
     1
281
     1
  3
ACAD_XREC_ROUNDTRIP
360
203C
  0
DICTIONARY
  5
203F
330
52
100
AcDbDictionary
280
     1
281
     1
  3
ACAD_XREC_ROUNDTRIP
360
2040
  0
DICTIONARY
  5
203D
330
51
100
AcDbDictionary
280
     1
281
     1
  3
ACAD_XREC_ROUNDTRIP
360
203E
  0
DICTIONARY
  5
2039
330
C
100
AcDbDictionary
280
     1
281
     1
  3
ACAD_XREC_ROUNDTRIP
360
203A
  0
DICTIONARY
  5
5B
330
5A
100
AcDbDictionary
280
     1
281
     1
  3
ACAD_ROUNDTRIP_2008_TABLESTYLE_CELLSTYLEMAP
360
2037
  3
ACAD_XREC_ROUNDTRIP
360
2041
  0
XRECORD
  5
2043
102
{ACAD_REACTORS
330
2042
102
}
330
2042
100
AcDbXrecord
280
     1
102
SHADEPLOT
 70
     0
102
SHADEPLOTRESLEVEL
 70
     2
102
SHADEPLOTCUSTOMDPI
 70
   300
  0
XRECORD
  5
203C
102
{ACAD_REACTORS
330
203B
102
}
330
203B
100
AcDbXrecord
280
     1
102
SHADEPLOT
 70
     1
102
SHADEPLOTRESLEVEL
 70
     2
102
SHADEPLOTCUSTOMDPI
 70
   300
  0
XRECORD
  5
2040
102
{ACAD_REACTORS
330
203F
102
}
330
203F
100
AcDbXrecord
280
     1
102
MATERIAL
148
0.0
149
0.0
149
0.0
 93
        0
 94
       63
282
     0
 72
     1
 77
     1
171
     1
175
     1
179
     1
273
     0
  0
XRECORD
  5
203E
102
{ACAD_REACTORS
330
203D
102
}
330
203D
100
AcDbXrecord
280
     1
102
MATERIAL
148
0.0
149
0.0
149
0.0
 93
        0
 94
       63
282
     0
 72
     1
 77
     1
171
     1
175
     1
179
     1
273
     0
  0
XRECORD
  5
203A
102
{ACAD_REACTORS
330
2039
102
}
330
2039
100
AcDbXrecord
280
     1
102
MATERIAL
148
0.0
149
0.0
149
0.0
 93
        0
 94
       63
282
     0
 72
     1
 77
     1
171
     1
175
     1
179
     1
273
     0
  0
CELLSTYLEMAP
  5
2037
102
{ACAD_REACTORS
330
5B
102
}
330
5B
100
AcDbCellStyleMap
 90
        3
300
CELLSTYLE
  1
TABLEFORMAT_BEGIN
 90
        5
170
     1
 91
        0
 92
    32768
 62
   257
 93
        1
300
CONTENTFORMAT
  1
CONTENTFORMAT_BEGIN
 90
        0
 91
        0
 92
        4
 93
        0
300

 40
0.0
140
1.0
 94
        5
 62
     0
340
21
144
0.25
309
CONTENTFORMAT_END
171
     0
 94
        6
 95
        1
302
GRIDFORMAT
  1
GRIDFORMAT_BEGIN
 90
        0
 91
        1
 62
     0
 92
       -2
340
0
 93
        0
 40
0.045
309
GRIDFORMAT_END
 95
        2
302
GRIDFORMAT
  1
GRIDFORMAT_BEGIN
 90
        0
 91
        1
 62
     0
 92
       -2
340
0
 93
        0
 40
0.045
309
GRIDFORMAT_END
 95
        4
302
GRIDFORMAT
  1
GRIDFORMAT_BEGIN
 90
        0
 91
        1
 62
     0
 92
       -2
340
0
 93
        0
 40
0.045
309
GRIDFORMAT_END
 95
        8
302
GRIDFORMAT
  1
GRIDFORMAT_BEGIN
 90
        0
 91
        1
 62
     0
 92
       -2
340
0
 93
        0
 40
0.045
309
GRIDFORMAT_END
 95
       16
302
GRIDFORMAT
  1
GRIDFORMAT_BEGIN
 90
        0
 91
        1
 62
     0
 92
       -2
340
0
 93
        0
 40
0.045
309
GRIDFORMAT_END
 95
       32
302
GRIDFORMAT
  1
GRIDFORMAT_BEGIN
 90
        0
 91
        1
 62
     0
 92
       -2
340
0
 93
        0
 40
0.045
309
GRIDFORMAT_END
309
TABLEFORMAT_END
  1
CELLSTYLE_BEGIN
 90
        1
 91
        1
300
_TITLE
309
CELLSTYLE_END
300
CELLSTYLE
  1
TABLEFORMAT_BEGIN
 90
        5
170
     1
 91
        0
 92
        0
 62
   257
 93
        1
300
CONTENTFORMAT
  1
CONTENTFORMAT_BEGIN
 90
        0
 91
        0
 92
        4
 93
        0
300

 40
0.0
140
1.0
 94
        5
 62
     0
340
21
144
0.18
309
CONTENTFORMAT_END
171
     0
 94
        6
 95
        1
302
GRIDFORMAT
  1
GRIDFORMAT_BEGIN
 90
        0
 91
        1
 62
     0
 92
       -2
340
0
 93
        0
 40
0.045
309
GRIDFORMAT_END
 95
        2
302
GRIDFORMAT
  1
GRIDFORMAT_BEGIN
 90
        0
 91
        1
 62
     0
 92
       -2
340
0
 93
        0
 40
0.045
309
GRIDFORMAT_END
 95
        4
302
GRIDFORMAT
  1
GRIDFORMAT_BEGIN
 90
        0
 91
        1
 62
     0
 92
       -2
340
0
 93
        0
 40
0.045
309
GRIDFORMAT_END
 95
        8
302
GRIDFORMAT
  1
GRIDFORMAT_BEGIN
 90
        0
 91
        1
 62
     0
 92
       -2
340
0
 93
        0
 40
0.045
309
GRIDFORMAT_END
 95
       16
302
GRIDFORMAT
  1
GRIDFORMAT_BEGIN
 90
        0
 91
        1
 62
     0
 92
       -2
340
0
 93
        0
 40
0.045
309
GRIDFORMAT_END
 95
       32
302
GRIDFORMAT
  1
GRIDFORMAT_BEGIN
 90
        0
 91
        1
 62
     0
 92
       -2
340
0
 93
        0
 40
0.045
309
GRIDFORMAT_END
309
TABLEFORMAT_END
  1
CELLSTYLE_BEGIN
 90
        2
 91
        1
300
_HEADER
309
CELLSTYLE_END
300
CELLSTYLE
  1
TABLEFORMAT_BEGIN
 90
        5
170
     1
 91
        0
 92
        0
 62
   257
 93
        1
300
CONTENTFORMAT
  1
CONTENTFORMAT_BEGIN
 90
        0
 91
        0
 92
        4
 93
        0
300

 40
0.0
140
1.0
 94
        2
 62
     0
340
21
144
0.18
309
CONTENTFORMAT_END
171
     0
 94
        6
 95
        1
302
GRIDFORMAT
  1
GRIDFORMAT_BEGIN
 90
        0
 91
        1
 62
     0
 92
       -2
340
0
 93
        0
 40
0.045
309
GRIDFORMAT_END
 95
        2
302
GRIDFORMAT
  1
GRIDFORMAT_BEGIN
 90
        0
 91
        1
 62
     0
 92
       -2
340
0
 93
        0
 40
0.045
309
GRIDFORMAT_END
 95
        4
302
GRIDFORMAT
  1
GRIDFORMAT_BEGIN
 90
        0
 91
        1
 62
     0
 92
       -2
340
0
 93
        0
 40
0.045
309
GRIDFORMAT_END
 95
        8
302
GRIDFORMAT
  1
GRIDFORMAT_BEGIN
 90
        0
 91
        1
 62
     0
 92
       -2
340
0
 93
        0
 40
0.045
309
GRIDFORMAT_END
 95
       16
302
GRIDFORMAT
  1
GRIDFORMAT_BEGIN
 90
        0
 91
        1
 62
     0
 92
       -2
340
0
 93
        0
 40
0.045
309
GRIDFORMAT_END
 95
       32
302
GRIDFORMAT
  1
GRIDFORMAT_BEGIN
 90
        0
 91
        1
 62
     0
 92
       -2
340
0
 93
        0
 40
0.045
309
GRIDFORMAT_END
309
TABLEFORMAT_END
  1
CELLSTYLE_BEGIN
 90
        3
 91
        2
300
_DATA
309
CELLSTYLE_END
  0
XRECORD
  5
2041
102
{ACAD_REACTORS
330
5B
102
}
330
5B
100
AcDbXrecord
280
     1
102
ACAD_ROUNDTRIP_PRE2007_TABLESTYLE
 90
        4
 91
        0
  1

 92
        4
 93
        0
  2

 94
        4
 95
        0
  3

  0
ENDSEC
  0
EOF
