  0
SECTION
  2
HEADER
  9
$ACADVER
  1
AC1015
  9
$ACADMAINTVER
 70
    20
  9
$DWGCODEPAGE
  3
ANSI_1250
  9
$INSBASE
 10
0.0
 20
0.0
 30
0.0
  9
$EXTMIN
 10
-10545.7123178019
 20
-14024.86689309279
 30
0.0
  9
$EXTMAX
 10
-345.7123178018737
 20
-4.866893092788814
 30
0.0
  9
$LIMMIN
 10
0.0
 20
0.0
  9
$LIMMAX
 10
53600.0
 20
41400.0
  9
$ORTHOMODE
 70
     0
  9
$REGENMODE
 70
     1
  9
$FILLMODE
 70
     1
  9
$QTEXTMODE
 70
     0
  9
$MIRRTEXT
 70
     0
  9
$LTSCALE
 40
50.0
  9
$ATTMODE
 70
     1
  9
$TEXTSIZE
 40
0.3
  9
$TRACEWID
 40
0.5
  9
$TEXTSTYLE
  7
RomanS
  9
$CLAYER
  8
0Wymiary-PL
  9
$CELTYPE
  6
ByLayer
  9
$CECOLOR
 62
   256
  9
$CELTSCALE
 40
1.0
  9
$DISPSILH
 70
     1
  9
$DIMSCALE
 40
1.0
  9
$DIMASZ
 40
30.0
  9
$DIMEXO
 40
43.0
  9
$DIMDLI
 40
0.0
  9
$DIMRND
 40
0.5
  9
$DIMDLE
 40
12.0
  9
$DIMEXE
 40
13.0
  9
$DIMTP
 40
0.0
  9
$DIMTM
 40
0.0
  9
$DIMTXT
 40
80.0
  9
$DIMCEN
 40
0.0
  9
$DIMTSZ
 40
0.0
  9
$DIMTOL
 70
     0
  9
$DIMLIM
 70
     0
  9
$DIMTIH
 70
     0
  9
$DIMTOH
 70
     0
  9
$DIMSE1
 70
     1
  9
$DIMSE2
 70
     1
  9
$DIMTAD
 70
     0
  9
$DIMZIN
 70
    12
  9
$DIMBLK
  1
B-DIM
  9
$DIMASO
 70
     1
  9
$DIMSHO
 70
     1
  9
$DIMPOST
  1

  9
$DIMAPOST
  1

  9
$DIMALT
 70
     0
  9
$DIMALTD
 70
     2
  9
$DIMALTF
 40
25.4
  9
$DIMLFAC
 40
1.0
  9
$DIMTOFL
 70
     1
  9
$DIMTVP
 40
1.0
  9
$DIMTIX
 70
     1
  9
$DIMSOXD
 70
     0
  9
$DIMSAH
 70
     0
  9
$DIMBLK1
  1

  9
$DIMBLK2
  1

  9
$DIMSTYLE
  2
500
  9
$DIMCLRD
 70
     1
  9
$DIMCLRE
 70
     1
  9
$DIMCLRT
 70
    10
  9
$DIMTFAC
 40
1.0
  9
$DIMGAP
 40
0.0
  9
$DIMJUST
 70
     0
  9
$DIMSD1
 70
     0
  9
$DIMSD2
 70
     0
  9
$DIMTOLJ
 70
     1
  9
$DIMTZIN
 70
     0
  9
$DIMALTZ
 70
     0
  9
$DIMALTTZ
 70
     0
  9
$DIMUPT
 70
     0
  9
$DIMDEC
 70
     1
  9
$DIMTDEC
 70
     1
  9
$DIMALTU
 70
     2
  9
$DIMALTTD
 70
     2
  9
$DIMTXSTY
  7
RomanS
  9
$DIMAUNIT
 70
     0
  9
$DIMADEC
 70
     0
  9
$DIMALTRND
 40
0.0
  9
$DIMAZIN
 70
     0
  9
$DIMDSEP
 70
    46
  9
$DIMATFIT
 70
     3
  9
$DIMFRAC
 70
     0
  9
$DIMLDRBLK
  1
B-DIM
  9
$DIMLUNIT
 70
     2
  9
$DIMLWD
 70
    -2
  9
$DIMLWE
 70
    -2
  9
$DIMTMOVE
 70
     2
  9
$LUNITS
 70
     2
  9
$LUPREC
 70
     2
  9
$SKETCHINC
 40
1.0
  9
$FILLETRAD
 40
0.0
  9
$AUNITS
 70
     0
  9
$AUPREC
 70
     2
  9
$MENU
  1
.
  9
$ELEVATION
 40
0.0
  9
$PELEVATION
 40
0.0
  9
$THICKNESS
 40
0.0
  9
$LIMCHECK
 70
     0
  9
$CHAMFERA
 40
30.0
  9
$CHAMFERB
 40
30.0
  9
$CHAMFERC
 40
0.0
  9
$CHAMFERD
 40
0.0
  9
$SKPOLY
 70
     0
  9
$TDCREATE
 40
2453924.466519630
  9
$TDUCREATE
 40
2453924.383186296
  9
$TDUPDATE
 40
2455100.639773218
  9
$TDUUPDATE
 40
2455100.556439885
  9
$TDINDWG
 40
1.0302808796
  9
$TDUSRTIMER
 40
1.0302807060
  9
$USRTIMER
 70
     1
  9
$ANGBASE
 50
0.0
  9
$ANGDIR
 70
     0
  9
$PDMODE
 70
     0
  9
$PDSIZE
 40
0.0
  9
$PLINEWID
 40
0.0
  9
$SPLFRAME
 70
     0
  9
$SPLINETYPE
 70
     6
  9
$SPLINESEGS
 70
     8
  9
$HANDSEED
  5
7F8C
  9
$SURFTAB1
 70
     6
  9
$SURFTAB2
 70
     6
  9
$SURFTYPE
 70
     6
  9
$SURFU
 70
     6
  9
$SURFV
 70
     6
  9
$UCSBASE
  2

  9
$UCSNAME
  2

  9
$UCSORG
 10
0.0
 20
0.0
 30
0.0
  9
$UCSXDIR
 10
1.0
 20
0.0
 30
0.0
  9
$UCSYDIR
 10
0.0
 20
1.0
 30
0.0
  9
$UCSORTHOREF
  2

  9
$UCSORTHOVIEW
 70
     1
  9
$UCSORGTOP
 10
0.0
 20
0.0
 30
0.0
  9
$UCSORGBOTTOM
 10
0.0
 20
0.0
 30
0.0
  9
$UCSORGLEFT
 10
0.0
 20
0.0
 30
0.0
  9
$UCSORGRIGHT
 10
0.0
 20
0.0
 30
0.0
  9
$UCSORGFRONT
 10
0.0
 20
0.0
 30
0.0
  9
$UCSORGBACK
 10
0.0
 20
0.0
 30
0.0
  9
$PUCSBASE
  2

  9
$PUCSNAME
  2

  9
$PUCSORG
 10
0.0
 20
0.0
 30
0.0
  9
$PUCSXDIR
 10
1.0
 20
0.0
 30
0.0
  9
$PUCSYDIR
 10
0.0
 20
1.0
 30
0.0
  9
$PUCSORTHOREF
  2

  9
$PUCSORTHOVIEW
 70
     0
  9
$PUCSORGTOP
 10
0.0
 20
0.0
 30
0.0
  9
$PUCSORGBOTTOM
 10
0.0
 20
0.0
 30
0.0
  9
$PUCSORGLEFT
 10
0.0
 20
0.0
 30
0.0
  9
$PUCSORGRIGHT
 10
0.0
 20
0.0
 30
0.0
  9
$PUCSORGFRONT
 10
0.0
 20
0.0
 30
0.0
  9
$PUCSORGBACK
 10
0.0
 20
0.0
 30
0.0
  9
$USERI1
 70
     0
  9
$USERI2
 70
     0
  9
$USERI3
 70
     0
  9
$USERI4
 70
     0
  9
$USERI5
 70
     0
  9
$USERR1
 40
0.0
  9
$USERR2
 40
0.0
  9
$USERR3
 40
0.0
  9
$USERR4
 40
0.0
  9
$USERR5
 40
0.0
  9
$WORLDVIEW
 70
     1
  9
$SHADEDGE
 70
     3
  9
$SHADEDIF
 70
    70
  9
$TILEMODE
 70
     1
  9
$MAXACTVP
 70
    64
  9
$PINSBASE
 10
0.0
 20
0.0
 30
0.0
  9
$PLIMCHECK
 70
     0
  9
$PEXTMIN
 10
-0.3785752547503733
 20
0.1807636100571841
 30
0.0
  9
$PEXTMAX
 10
19.87273365404815
 20
28.48157452849739
 30
0.0
  9
$PLIMMIN
 10
-0.5027083396911621
 20
-0.5069413185119629
  9
$PLIMMAX
 10
20.49462442398072
 20
29.18989095687866
  9
$UNITMODE
 70
     0
  9
$VISRETAIN
 70
     1
  9
$PLINEGEN
 70
     0
  9
$PSLTSCALE
 70
     0
  9
$TREEDEPTH
 70
  3020
  9
$CMLSTYLE
  2
Standard
  9
$CMLJUST
 70
     0
  9
$CMLSCALE
 40
20.0
  9
$PROXYGRAPHICS
 70
     0
  9
$MEASUREMENT
 70
     1
  9
$CELWEIGHT
370
    -1
  9
$ENDCAPS
280
     0
  9
$JOINSTYLE
280
     0
  9
$LWDISPLAY
290
     0
  9
$INSUNITS
 70
     5
  9
$HYPERLINKBASE
  1

  9
$STYLESHEET
  1
monochrome_140.ctb
  9
$XEDIT
290
     1
  9
$CEPSNTYPE
380
     0
  9
$PSTYLEMODE
290
     1
  9
$FINGERPRINTGUID
  2
{37B35CCD-F15F-49F8-90FB-7B73A2861210}
  9
$VERSIONGUID
  2
{2FD5CE43-BDDE-4124-B3E0-D56A49ED23C7}
  9
$EXTNAMES
290
     1
  9
$PSVPSCALE
 40
0.0
  9
$OLESTARTUP
290
     0
  0
ENDSEC
  0
SECTION
  2
CLASSES
  0
CLASS
  1
ACDBDICTIONARYWDFLT
  2
AcDbDictionaryWithDefault
  3
ObjectDBX Classes
 90
        0
280
     0
281
     0
  0
CLASS
  1
ACDBPLACEHOLDER
  2
AcDbPlaceHolder
  3
ObjectDBX Classes
 90
        0
280
     0
281
     0
  0
CLASS
  1
LAYOUT
  2
AcDbLayout
  3
ObjectDBX Classes
 90
        0
280
     0
281
     0
  0
CLASS
  1
DICTIONARYVAR
  2
AcDbDictionaryVar
  3
ObjectDBX Classes
 90
        0
280
     0
281
     0
  0
CLASS
  1
AEC_DISP_REP_2D_SECTION
  2
AecDbDispRep2dSection
  3
AecBase50|Product Desc: Autodesk Architectural Desktop 2007 |Company: Autodesk,Inc. |WEB Address: www.autodesk.com
 90
      129
280
     0
281
     0
  0
CLASS
  1
AEC_DISP_PROPS_2D_SECTION
  2
AecDbDispProps2dSection
  3
AecBase50|Product Desc: Autodesk Architectural Desktop 2007 |Company: Autodesk,Inc. |WEB Address: www.autodesk.com
 90
      129
280
     0
281
     0
  0
CLASS
  1
AEC_DISP_REP_ANCHOR
  2
AecDbDispRepAnchor
  3
AecBase50|Product Desc: Autodesk Architectural Desktop 2007 |Company: Autodesk,Inc. |WEB Address: www.autodesk.com
 90
      129
280
     0
281
     0
  0
CLASS
  1
AEC_DISP_REP_ANCHOR_ENT_TO_NODE
  2
AecDbDispRepAnchorEntToNode
  3
AecBaseEx50|Product Desc: Autodesk Architectural Desktop 2007 |Company: Autodesk,Inc. |WEB Address: www.autodesk.com
 90
      129
280
     0
281
     0
  0
CLASS
  1
AEC_DISP_PROPS_ENT
  2
AecDbDispPropsEnt
  3
AecBase50|Product Desc: Autodesk Architectural Desktop 2007 |Company: Autodesk,Inc. |WEB Address: www.autodesk.com
 90
      129
280
     0
281
     0
  0
CLASS
  1
AEC_DISP_REP_CAMERA
  2
AecDbDispRepCamera
  3
AecBase50|Product Desc: Autodesk Architectural Desktop 2007 |Company: Autodesk,Inc. |WEB Address: www.autodesk.com
 90
    32897
280
     0
281
     0
  0
CLASS
  1
AEC_DISP_PROPS_CAMERA
  2
AecDbDispPropsCamera
  3
AecBase50|Product Desc: Autodesk Architectural Desktop 2007 |Company: Autodesk,Inc. |WEB Address: www.autodesk.com
 90
    32897
280
     0
281
     0
  0
CLASS
  1
AEC_DISP_REP_CLIP_VOLUME_MODEL
  2
AecDbDispRepClipVolModel
  3
AecBase50|Product Desc: Autodesk Architectural Desktop 2007 |Company: Autodesk,Inc. |WEB Address: www.autodesk.com
 90
      129
280
     0
281
     0
  0
CLASS
  1
AEC_DISP_PROPS_CLIP_VOLUME
  2
AecDbDispPropsClipVol
  3
AecBase50|Product Desc: Autodesk Architectural Desktop 2007 |Company: Autodesk,Inc. |WEB Address: www.autodesk.com
 90
      129
280
     0
281
     0
  0
CLASS
  1
AEC_DISP_REP_CLIP_VOLUME_PLAN
  2
AecDbDispRepClipVolPlan
  3
AecBase50|Product Desc: Autodesk Architectural Desktop 2007 |Company: Autodesk,Inc. |WEB Address: www.autodesk.com
 90
      129
280
     0
281
     0
  0
CLASS
  1
AEC_DISP_REP_CLIP_VOLUME_RESULT
  2
AecDbDispRepClipVolResult
  3
AecBase50|Product Desc: Autodesk Architectural Desktop 2007 |Company: Autodesk,Inc. |WEB Address: www.autodesk.com
 90
      129
280
     0
281
     0
  0
CLASS
  1
AEC_DISP_REP_CLIP_VOLUME_RESULT_SUBDIV
  2
AecDbDispRepClipVolResSubDiv
  3
AecBase50|Product Desc: Autodesk Architectural Desktop 2007 |Company: Autodesk,Inc. |WEB Address: www.autodesk.com
 90
      129
280
     0
281
     0
  0
CLASS
  1
AEC_DISP_PROPS_CLIP_VOLUME_RESULT
  2
AecDbDispPropsClipVolResSubDiv
  3
AecBase50|Product Desc: Autodesk Architectural Desktop 2007 |Company: Autodesk,Inc. |WEB Address: www.autodesk.com
 90
      129
280
     0
281
     0
  0
CLASS
  1
AEC_DISP_REP_ENT_REF
  2
AecDbDispRepEntRef
  3
AecBase50|Product Desc: Autodesk Architectural Desktop 2007 |Company: Autodesk,Inc. |WEB Address: www.autodesk.com
 90
      129
280
     0
281
     0
  0
CLASS
  1
AEC_DISP_PROPS_ENT_REF
  2
AecDbDispPropsEntRef
  3
AecBase50|Product Desc: Autodesk Architectural Desktop 2007 |Company: Autodesk,Inc. |WEB Address: www.autodesk.com
 90
      129
280
     0
281
     0
  0
CLASS
  1
AEC_DISP_REP_LAYOUT_CURVE
  2
AecDbDispRepLayoutCurve
  3
AecBase50|Product Desc: Autodesk Architectural Desktop 2007 |Company: Autodesk,Inc. |WEB Address: www.autodesk.com
 90
      129
280
     0
281
     0
  0
CLASS
  1
AEC_VARS_DWG_SETUP
  2
AecDbVarsDwgSetup
  3
AecBase50|Product Desc: Autodesk Architectural Desktop 2007 |Company: Autodesk,Inc. |WEB Address: www.autodesk.com
 90
      129
280
     0
281
     0
  0
CLASS
  1
AEC_DISP_PROPS_LAYOUT_CURVE
  2
AecDbDispPropsLayoutCurve
  3
AecBase50|Product Desc: Autodesk Architectural Desktop 2007 |Company: Autodesk,Inc. |WEB Address: www.autodesk.com
 90
      129
280
     0
281
     0
  0
CLASS
  1
AEC_DISP_REP_LAYOUT_GRID2D
  2
AecDbDispRepLayoutGrid2d
  3
AecBase50|Product Desc: Autodesk Architectural Desktop 2007 |Company: Autodesk,Inc. |WEB Address: www.autodesk.com
 90
      129
280
     0
281
     0
  0
CLASS
  1
AEC_DISP_PROPS_LAYOUT_GRID2D
  2
AecDbDispPropsLayoutGrid2d
  3
AecBase50|Product Desc: Autodesk Architectural Desktop 2007 |Company: Autodesk,Inc. |WEB Address: www.autodesk.com
 90
      129
280
     0
281
     0
  0
CLASS
  1
AEC_DISP_REP_LAYOUT_GRID3D
  2
AecDbDispRepLayoutGrid3d
  3
AecBase50|Product Desc: Autodesk Architectural Desktop 2007 |Company: Autodesk,Inc. |WEB Address: www.autodesk.com
 90
      129
280
     0
281
     0
  0
CLASS
  1
AEC_DISP_PROPS_LAYOUT_GRID3D
  2
AecDbDispPropsLayoutGrid3d
  3
AecBase50|Product Desc: Autodesk Architectural Desktop 2007 |Company: Autodesk,Inc. |WEB Address: www.autodesk.com
 90
      129
280
     0
281
     0
  0
CLASS
  1
AEC_DISP_REP_MASKBLOCK_REF
  2
AecDbDispRepMaskBlockRef
  3
AecBase50|Product Desc: Autodesk Architectural Desktop 2007 |Company: Autodesk,Inc. |WEB Address: www.autodesk.com
 90
      129
280
     0
281
     0
  0
CLASS
  1
AEC_DISP_PROPS_MASKBLOCK
  2
AecDbDispPropsMaskBlock
  3
AecBase50|Product Desc: Autodesk Architectural Desktop 2007 |Company: Autodesk,Inc. |WEB Address: www.autodesk.com
 90
      129
280
     0
281
     0
  0
CLASS
  1
AEC_DISP_REP_MASS_ELEM_MODEL
  2
AecDbDispRepMassElemModel
  3
AecBaseEx50|Product Desc: Autodesk Architectural Desktop 2007 |Company: Autodesk,Inc. |WEB Address: www.autodesk.com
 90
      129
280
     0
281
     0
  0
CLASS
  1
AEC_DISP_PROPS_MASS_ELEM_MODEL
  2
AecDbDispPropsMassElem
  3
AecBaseEx50|Product Desc: Autodesk Architectural Desktop 2007 |Company: Autodesk,Inc. |WEB Address: www.autodesk.com
 90
      129
280
     0
281
     0
  0
CLASS
  1
AEC_DISP_REP_MASS_ELEM_SCHEM
  2
AecDbDispRepMassElemSchem
  3
AecBaseEx50|Product Desc: Autodesk Architectural Desktop 2007 |Company: Autodesk,Inc. |WEB Address: www.autodesk.com
 90
      129
280
     0
281
     0
  0
CLASS
  1
AEC_DISP_REP_MASS_GROUP_MODEL
  2
AecDbDispRepMassGroupModel
  3
AecBaseEx50|Product Desc: Autodesk Architectural Desktop 2007 |Company: Autodesk,Inc. |WEB Address: www.autodesk.com
 90
      129
280
     0
281
     0
  0
CLASS
  1
AEC_DISP_PROPS_MASS_GROUP
  2
AecDbDispPropsMassGroup
  3
AecBaseEx50|Product Desc: Autodesk Architectural Desktop 2007 |Company: Autodesk,Inc. |WEB Address: www.autodesk.com
 90
      129
280
     0
281
     0
  0
CLASS
  1
AEC_DISP_REP_MASS_GROUP_PLAN
  2
AecDbDispRepMassGroupPlan
  3
AecBaseEx50|Product Desc: Autodesk Architectural Desktop 2007 |Company: Autodesk,Inc. |WEB Address: www.autodesk.com
 90
      129
280
     0
281
     0
  0
CLASS
  1
AEC_DISP_REP_MVBLOCK_REF
  2
AecDbDispRepMvBlockRef
  3
AecBase50|Product Desc: Autodesk Architectural Desktop 2007 |Company: Autodesk,Inc. |WEB Address: www.autodesk.com
 90
      129
280
     0
281
     0
  0
CLASS
  1
AEC_DISP_REP_MVBLOCK_REF_MODEL
  2
AecDbDispRepMvBlockRefModel
  3
AecBase50|Product Desc: Autodesk Architectural Desktop 2007 |Company: Autodesk,Inc. |WEB Address: www.autodesk.com
 90
      129
280
     0
281
     0
  0
CLASS
  1
AEC_DISP_REP_POLYGON_MODEL
  2
AecDbDispRepPolygonModel
  3
AecBaseEx50|Product Desc: Autodesk Architectural Desktop 2007 |Company: Autodesk,Inc. |WEB Address: www.autodesk.com
 90
      129
280
     0
281
     0
  0
CLASS
  1
AEC_DISP_PROPS_POLYGON_MODEL
  2
AecDbDispPropsPolygonModel
  3
AecBaseEx50|Product Desc: Autodesk Architectural Desktop 2007 |Company: Autodesk,Inc. |WEB Address: www.autodesk.com
 90
      129
280
     0
281
     0
  0
CLASS
  1
AEC_DISP_REP_POLYGON_TRUECOLOUR
  2
AecDbDispRepPolygonTrueColour
  3
AecBaseEx50|Product Desc: Autodesk Architectural Desktop 2007 |Company: Autodesk,Inc. |WEB Address: www.autodesk.com
 90
      129
280
     0
281
     0
  0
CLASS
  1
AEC_DISP_PROPS_POLYGON_TRUECOLOUR
  2
AecDbDispPropsPolygonTrueColour
  3
AecBaseEx50|Product Desc: Autodesk Architectural Desktop 2007 |Company: Autodesk,Inc. |WEB Address: www.autodesk.com
 90
      129
280
     0
281
     0
  0
CLASS
  1
AEC_DISP_REP_SLICE
  2
AecDbDispRepSlice
  3
AecBase50|Product Desc: Autodesk Architectural Desktop 2007 |Company: Autodesk,Inc. |WEB Address: www.autodesk.com
 90
      129
280
     0
281
     0
  0
CLASS
  1
AEC_DISP_PROPS_SLICE
  2
AecDbDispPropsSlice
  3
AecBase50|Product Desc: Autodesk Architectural Desktop 2007 |Company: Autodesk,Inc. |WEB Address: www.autodesk.com
 90
      129
280
     0
281
     0
  0
CLASS
  1
AEC_DISP_REP_ANCHOR_BUB_TO_GRID
  2
AecDbDispRepAnchorBubToGrid
  3
AecStructureBase50|Product Desc: Autodesk Architectural Desktop 2007 |Company: Autodesk,Inc. |WEB Address: www.autodesk.com
 90
      129
280
     0
281
     0
  0
CLASS
  1
AEC_DISP_REP_ANCHOR_BUB_TO_GRID_MODEL
  2
AecDbDispRepAnchorBubToGridMdl
  3
AecStructureBase50|Product Desc: Autodesk Architectural Desktop 2007 |Company: Autodesk,Inc. |WEB Address: www.autodesk.com
 90
      129
280
     0
281
     0
  0
CLASS
  1
AEC_DISP_REP_ANCHOR_BUB_TO_GRID_RCP
  2
AecDbDispRepAnchorBubToGridRcp
  3
AecStructureBase50|Product Desc: Autodesk Architectural Desktop 2007 |Company: Autodesk,Inc. |WEB Address: www.autodesk.com
 90
      129
280
     0
281
     0
  0
CLASS
  1
AEC_DISP_REP_BDG_ELEVLINE_MODEL
  2
AecDbDispRepBdgElevLineModel
  3
AecArchBase50|Product Desc: Autodesk Architectural Desktop 2007 |Company: Autodesk,Inc. |WEB Address: www.autodesk.com
 90
      129
280
     0
281
     0
  0
CLASS
  1
AEC_DISP_REP_BDG_SECTIONLINE_PLAN
  2
AecDbDispRepBdgElevLinePlan
  3
AecArchBase50|Product Desc: Autodesk Architectural Desktop 2007 |Company: Autodesk,Inc. |WEB Address: www.autodesk.com
 90
      129
280
     0
281
     0
  0
CLASS
  1
AEC_DISP_REP_BDG_ELEVLINE_RCP
  2
AecDbDispRepBdgElevLineRcp
  3
AecArchBase50|Product Desc: Autodesk Architectural Desktop 2007 |Company: Autodesk,Inc. |WEB Address: www.autodesk.com
 90
      129
280
     0
281
     0
  0
CLASS
  1
AEC_DISP_REP_BDG_SECTIONLINE_MODEL
  2
AecDbDispRepBdgSectionLineModel
  3
AecArchBase50|Product Desc: Autodesk Architectural Desktop 2007 |Company: Autodesk,Inc. |WEB Address: www.autodesk.com
 90
      129
280
     0
281
     0
  0
CLASS
  1
AEC_DISP_REP_BDG_SECTIONLINE_PLAN
  2
AecDbDispRepBdgSectionLinePlan
  3
AecArchBase50|Product Desc: Autodesk Architectural Desktop 2007 |Company: Autodesk,Inc. |WEB Address: www.autodesk.com
 90
      129
280
     0
281
     0
  0
CLASS
  1
AEC_DISP_REP_BDG_SECTIONLINE_RCP
  2
AecDbDispRepBdgSectionLineRcp
  3
AecArchBase50|Product Desc: Autodesk Architectural Desktop 2007 |Company: Autodesk,Inc. |WEB Address: www.autodesk.com
 90
      129
280
     0
281
     0
  0
CLASS
  1
AEC_DISP_REP_BDG_SECTION_MODEL
  2
AecDbDispRepBdgSectionModel
  3
AecArchBase50|Product Desc: Autodesk Architectural Desktop 2007 |Company: Autodesk,Inc. |WEB Address: www.autodesk.com
 90
      129
280
     0
281
     0
  0
CLASS
  1
AEC_DISP_REP_BDG_SECTION_SUBDIV
  2
AecDbDispRepBdgSectionSubDiv
  3
AecArchBase50|Product Desc: Autodesk Architectural Desktop 2007 |Company: Autodesk,Inc. |WEB Address: www.autodesk.com
 90
      129
280
     0
281
     0
  0
CLASS
  1
AEC_DISP_REP_CEILING_GRID
  2
AecDbDispRepCeilingGrid
  3
AecArchBase50|Product Desc: Autodesk Architectural Desktop 2007 |Company: Autodesk,Inc. |WEB Address: www.autodesk.com
 90
      893
280
     0
281
     0
  0
CLASS
  1
AEC_DISP_REP_CEILING_GRID_MODEL
  2
AecDbDispRepCeilingGridModel
  3
AecArchBase50|Product Desc: Autodesk Architectural Desktop 2007 |Company: Autodesk,Inc. |WEB Address: www.autodesk.com
 90
      129
280
     0
281
     0
  0
CLASS
  1
AEC_DISP_REP_CEILING_GRID_RCP
  2
AecDbDispRepCeilingGridRcp
  3
AecArchBase50|Product Desc: Autodesk Architectural Desktop 2007 |Company: Autodesk,Inc. |WEB Address: www.autodesk.com
 90
      129
280
     0
281
     0
  0
CLASS
  1
AEC_DISP_REP_COLUMN_GRID
  2
AecDbDispRepColumnGrid
  3
AecStructureBase50|Product Desc: Autodesk Architectural Desktop 2007 |Company: Autodesk,Inc. |WEB Address: www.autodesk.com
 90
      129
280
     0
281
     0
  0
CLASS
  1
AEC_DISP_REP_COLUMN_GRID_MODEL
  2
AecDbDispRepColumnGridModel
  3
AecStructureBase50|Product Desc: Autodesk Architectural Desktop 2007 |Company: Autodesk,Inc. |WEB Address: www.autodesk.com
 90
      129
280
     0
281
     0
  0
CLASS
  1
AEC_DISP_REP_COLUMN_GRID_RCP
  2
AecDbDispRepColumnGridRcp
  3
AecStructureBase50|Product Desc: Autodesk Architectural Desktop 2007 |Company: Autodesk,Inc. |WEB Address: www.autodesk.com
 90
      129
280
     0
281
     0
  0
CLASS
  1
AEC_DISP_REP_CURTAIN_WALL_LAYOUT_MODEL
  2
AecDbDispRepCurtainWallLayoutModel
  3
AecArchBase50|Product Desc: Autodesk Architectural Desktop 2007 |Company: Autodesk,Inc. |WEB Address: www.autodesk.com
 90
      129
280
     0
281
     0
  0
CLASS
  1
AEC_DISP_PROPS_GRID_ASSEMBLY_MODEL
  2
AecDbDispPropsGridAssemblyModel
  3
AecArchBase50|Product Desc: Autodesk Architectural Desktop 2007 |Company: Autodesk,Inc. |WEB Address: www.autodesk.com
 90
      129
280
     0
281
     0
  0
CLASS
  1
AEC_DISP_REP_CURTAIN_WALL_LAYOUT_PLAN
  2
AecDbDispRepCurtainWallLayoutPlan
  3
AecArchBase50|Product Desc: Autodesk Architectural Desktop 2007 |Company: Autodesk,Inc. |WEB Address: www.autodesk.com
 90
      129
280
     0
281
     0
  0
CLASS
  1
AEC_DISP_PROPS_GRID_ASSEMBLY_PLAN
  2
AecDbDispPropsGridAssemblyPlan
  3
AecArchBase50|Product Desc: Autodesk Architectural Desktop 2007 |Company: Autodesk,Inc. |WEB Address: www.autodesk.com
 90
      129
280
     0
281
     0
  0
CLASS
  1
AEC_DISP_REP_CURTAIN_WALL_UNIT_MODEL
  2
AecDbDispRepCurtainWallUnitModel
  3
AecArchBase50|Product Desc: Autodesk Architectural Desktop 2007 |Company: Autodesk,Inc. |WEB Address: www.autodesk.com
 90
      129
280
     0
281
     0
  0
CLASS
  1
AEC_DISP_REP_CURTAIN_WALL_UNIT_PLAN
  2
AecDbDispRepCurtainWallUnitPlan
  3
AecArchBase50|Product Desc: Autodesk Architectural Desktop 2007 |Company: Autodesk,Inc. |WEB Address: www.autodesk.com
 90
      129
280
     0
281
     0
  0
CLASS
  1
AEC_DISP_REP_DOOR_MODEL
  2
AecDbDispRepDoorModel
  3
AecArchBase50|Product Desc: Autodesk Architectural Desktop 2007 |Company: Autodesk,Inc. |WEB Address: www.autodesk.com
 90
      129
280
     0
281
     0
  0
CLASS
  1
AEC_DISP_PROPS_DOOR
  2
AecDbDispPropsDoor
  3
AecArchBase50|Product Desc: Autodesk Architectural Desktop 2007 |Company: Autodesk,Inc. |WEB Address: www.autodesk.com
 90
      129
280
     0
281
     0
  0
CLASS
  1
AEC_DISP_REP_DOOR_ELEV
  2
AecDbDispRepDoorElev
  3
AecArchBase50|Product Desc: Autodesk Architectural Desktop 2007 |Company: Autodesk,Inc. |WEB Address: www.autodesk.com
 90
      129
280
     0
281
     0
  0
CLASS
  1
AEC_DISP_REP_DOOR_PLAN
  2
AecDbDispRepDoorPlan
  3
AecArchBase50|Product Desc: Autodesk Architectural Desktop 2007 |Company: Autodesk,Inc. |WEB Address: www.autodesk.com
 90
      129
280
     0
281
     0
  0
CLASS
  1
AEC_DISP_REP_DOOR_NOMINAL
  2
AecDbDispRepDoorNominal
  3
AecArchBase50|Product Desc: Autodesk Architectural Desktop 2007 |Company: Autodesk,Inc. |WEB Address: www.autodesk.com
 90
      129
280
     0
281
     0
  0
CLASS
  1
AEC_DISP_PROPS_DOOR_NOMINAL
  2
AecDbDispPropsDoorNominal
  3
AecArchBase50|Product Desc: Autodesk Architectural Desktop 2007 |Company: Autodesk,Inc. |WEB Address: www.autodesk.com
 90
      129
280
     0
281
     0
  0
CLASS
  1
AEC_DISP_REP_DOOR_RCP
  2
AecDbDispRepDoorRcp
  3
AecArchBase50|Product Desc: Autodesk Architectural Desktop 2007 |Company: Autodesk,Inc. |WEB Address: www.autodesk.com
 90
      129
280
     0
281
     0
  0
CLASS
  1
AEC_DISP_REP_DOOR_THRESHOLD_PLAN
  2
AecDbDispRepDoorThresholdPlan
  3
AecArchBase50|Product Desc: Autodesk Architectural Desktop 2007 |Company: Autodesk,Inc. |WEB Address: www.autodesk.com
 90
      129
280
     0
281
     0
  0
CLASS
  1
AEC_DISP_PROPS_DOOR_THRESHOLD_PLAN
  2
AecDbDispPropsDoorThresholdPlan
  3
AecArchBase50|Product Desc: Autodesk Architectural Desktop 2007 |Company: Autodesk,Inc. |WEB Address: www.autodesk.com
 90
      129
280
     0
281
     0
  0
CLASS
  1
AEC_DISP_REP_MASKBLOCK_REF_RCP
  2
AecDbDispRepMaskBlockRefRcp
  3
AecArchBase50|Product Desc: Autodesk Architectural Desktop 2007 |Company: Autodesk,Inc. |WEB Address: www.autodesk.com
 90
      129
280
     0
281
     0
  0
CLASS
  1
AEC_DISP_REP_MASS_ELEM_RCP
  2
AecDbDispRepMassElemRcp
  3
AecArchBase50|Product Desc: Autodesk Architectural Desktop 2007 |Company: Autodesk,Inc. |WEB Address: www.autodesk.com
 90
      129
280
     0
281
     0
  0
CLASS
  1
AEC_DISP_REP_MASS_GROUP_RCP
  2
AecDbDispRepMassGroupRcp
  3
AecArchBase50|Product Desc: Autodesk Architectural Desktop 2007 |Company: Autodesk,Inc. |WEB Address: www.autodesk.com
 90
      129
280
     0
281
     0
  0
CLASS
  1
AEC_DISP_REP_MVBLOCK_REF_RCP
  2
AecDbDispRepMvBlockRefRcp
  3
AecArchBase50|Product Desc: Autodesk Architectural Desktop 2007 |Company: Autodesk,Inc. |WEB Address: www.autodesk.com
 90
      129
280
     0
281
     0
  0
CLASS
  1
AEC_DISP_REP_OPENING
  2
AecDbDispRepOpening
  3
AecArchBase50|Product Desc: Autodesk Architectural Desktop 2007 |Company: Autodesk,Inc. |WEB Address: www.autodesk.com
 90
      129
280
     0
281
     0
  0
CLASS
  1
AEC_DISP_PROPS_OPENING
  2
AecDbDispPropsOpening
  3
AecArchBase50|Product Desc: Autodesk Architectural Desktop 2007 |Company: Autodesk,Inc. |WEB Address: www.autodesk.com
 90
      129
280
     0
281
     0
  0
CLASS
  1
AEC_DISP_REP_OPENING_MODEL
  2
AecDbDispRepOpeningModel
  3
AecArchBase50|Product Desc: Autodesk Architectural Desktop 2007 |Company: Autodesk,Inc. |WEB Address: www.autodesk.com
 90
      129
280
     0
281
     0
  0
CLASS
  1
AEC_DISP_REP_RAILING_MODEL
  2
AecDbDispRepRailingModel
  3
AecArchBase50|Product Desc: Autodesk Architectural Desktop 2007 |Company: Autodesk,Inc. |WEB Address: www.autodesk.com
 90
      129
280
     0
281
     0
  0
CLASS
  1
AEC_DISP_PROPS_RAILING_MODEL
  2
AecDbDispPropsRailingModel
  3
AecArchBase50|Product Desc: Autodesk Architectural Desktop 2007 |Company: Autodesk,Inc. |WEB Address: www.autodesk.com
 90
      129
280
     0
281
     0
  0
CLASS
  1
AEC_DISP_REP_RAILING_PLAN
  2
AecDbDispRepRailingPlan
  3
AecArchBase50|Product Desc: Autodesk Architectural Desktop 2007 |Company: Autodesk,Inc. |WEB Address: www.autodesk.com
 90
      129
280
     0
281
     0
  0
CLASS
  1
AEC_DISP_PROPS_RAILING_PLAN
  2
AecDbDispPropsRailingPlan
  3
AecArchBase50|Product Desc: Autodesk Architectural Desktop 2007 |Company: Autodesk,Inc. |WEB Address: www.autodesk.com
 90
      129
280
     0
281
     0
  0
CLASS
  1
AEC_DISP_REP_ROOF_MODEL
  2
AecDbDispRepRoofModel
  3
AecArchBase50|Product Desc: Autodesk Architectural Desktop 2007 |Company: Autodesk,Inc. |WEB Address: www.autodesk.com
 90
      129
280
     0
281
     0
  0
CLASS
  1
AEC_DISP_PROPS_ROOF
  2
AecDbDispPropsRoof
  3
AecArchBase50|Product Desc: Autodesk Architectural Desktop 2007 |Company: Autodesk,Inc. |WEB Address: www.autodesk.com
 90
      129
280
     0
281
     0
  0
CLASS
  1
AEC_DISP_REP_ROOF_PLAN
  2
AecDbDispRepRoofPlan
  3
AecArchBase50|Product Desc: Autodesk Architectural Desktop 2007 |Company: Autodesk,Inc. |WEB Address: www.autodesk.com
 90
      129
280
     0
281
     0
  0
CLASS
  1
AEC_DISP_REP_ROOF_RCP
  2
AecDbDispRepRoofRcp
  3
AecArchBase50|Product Desc: Autodesk Architectural Desktop 2007 |Company: Autodesk,Inc. |WEB Address: www.autodesk.com
 90
      129
280
     0
281
     0
  0
CLASS
  1
AEC_DISP_REP_SLAB_MODEL
  2
AecDbDispRepSlabModel
  3
AecArchBase50|Product Desc: Autodesk Architectural Desktop 2007 |Company: Autodesk,Inc. |WEB Address: www.autodesk.com
 90
      129
280
     0
281
     0
  0
CLASS
  1
AEC_DISP_PROPS_SLAB
  2
AecDbDispPropsSlab
  3
AecArchBase50|Product Desc: Autodesk Architectural Desktop 2007 |Company: Autodesk,Inc. |WEB Address: www.autodesk.com
 90
      129
280
     0
281
     0
  0
CLASS
  1
AEC_DISP_REP_ROOFSLAB_MODEL
  2
AecDbDispRepRoofSlabModel
  3
AecArchBase50|Product Desc: Autodesk Architectural Desktop 2007 |Company: Autodesk,Inc. |WEB Address: www.autodesk.com
 90
      129
280
     0
281
     0
  0
CLASS
  1
AEC_DISP_PROPS_ROOFSLAB
  2
AecDbDispPropsRoofSlab
  3
AecArchBase50|Product Desc: Autodesk Architectural Desktop 2007 |Company: Autodesk,Inc. |WEB Address: www.autodesk.com
 90
      129
280
     0
281
     0
  0
CLASS
  1
AEC_DISP_REP_SLAB_PLAN
  2
AecDbDispRepSlabPlan
  3
AecArchBase50|Product Desc: Autodesk Architectural Desktop 2007 |Company: Autodesk,Inc. |WEB Address: www.autodesk.com
 90
      129
280
     0
281
     0
  0
CLASS
  1
AEC_DISP_PROPS_SLAB_PLAN
  2
AecDbDispPropsSlabPlan
  3
AecArchBase50|Product Desc: Autodesk Architectural Desktop 2007 |Company: Autodesk,Inc. |WEB Address: www.autodesk.com
 90
      129
280
     0
281
     0
  0
CLASS
  1
AEC_DISP_REP_ROOFSLAB_PLAN
  2
AecDbDispRepRoofSlabPlan
  3
AecArchBase50|Product Desc: Autodesk Architectural Desktop 2007 |Company: Autodesk,Inc. |WEB Address: www.autodesk.com
 90
      129
280
     0
281
     0
  0
CLASS
  1
AEC_DISP_PROPS_ROOFSLAB_PLAN
  2
AecDbDispPropsRoofSlabPlan
  3
AecArchBase50|Product Desc: Autodesk Architectural Desktop 2007 |Company: Autodesk,Inc. |WEB Address: www.autodesk.com
 90
      129
280
     0
281
     0
  0
CLASS
  1
AEC_DISP_REP_SPACE_BOUNDARY_DIAGRAM
  2
AecDbDispRepSpaceBoundaryDgrm
  3
AecArchBase50|Product Desc: Autodesk Architectural Desktop 2007 |Company: Autodesk,Inc. |WEB Address: www.autodesk.com
 90
    32897
280
     0
281
     0
  0
CLASS
  1
AEC_DISP_REP_SPACE_BOUNDARY_MODEL
  2
AecDbDispRepSpaceBoundaryModel
  3
AecArchBase50|Product Desc: Autodesk Architectural Desktop 2007 |Company: Autodesk,Inc. |WEB Address: www.autodesk.com
 90
    32897
280
     0
281
     0
  0
CLASS
  1
AEC_DISP_REP_SPACE_BOUNDARY_PLAN
  2
AecDbDispRepSpaceBoundaryPlan
  3
AecArchBase50|Product Desc: Autodesk Architectural Desktop 2007 |Company: Autodesk,Inc. |WEB Address: www.autodesk.com
 90
    32897
280
     0
281
     0
  0
CLASS
  1
AEC_DISP_REP_SPACE_BOUNDARY_SCHEM
  2
AecDbDispRepSpaceBoundarySketch
  3
AecArchBase50|Product Desc: Autodesk Architectural Desktop 2007 |Company: Autodesk,Inc. |WEB Address: www.autodesk.com
 90
    32897
280
     0
281
     0
  0
CLASS
  1
AEC_DISP_REP_SPACE_MODEL
  2
AecDbDispRepSpaceModel
  3
AecArchBase50|Product Desc: Autodesk Architectural Desktop 2007 |Company: Autodesk,Inc. |WEB Address: www.autodesk.com
 90
      129
280
     0
281
     0
  0
CLASS
  1
AEC_DISP_PROPS_SPACE_MODEL
  2
AecDbDispPropsSpaceModel
  3
AecArchBase50|Product Desc: Autodesk Architectural Desktop 2007 |Company: Autodesk,Inc. |WEB Address: www.autodesk.com
 90
      129
280
     0
281
     0
  0
CLASS
  1
AEC_DISP_REP_SPACE_PLAN
  2
AecDbDispRepSpacePlan
  3
AecArchBase50|Product Desc: Autodesk Architectural Desktop 2007 |Company: Autodesk,Inc. |WEB Address: www.autodesk.com
 90
      129
280
     0
281
     0
  0
CLASS
  1
AEC_DISP_PROPS_SPACE_PLAN
  2
AecDbDispPropsSpacePlan
  3
AecArchBase50|Product Desc: Autodesk Architectural Desktop 2007 |Company: Autodesk,Inc. |WEB Address: www.autodesk.com
 90
      129
280
     0
281
     0
  0
CLASS
  1
AEC_DISP_REP_SPACE_RCP
  2
AecDbDispRepSpaceRcp
  3
AecArchBase50|Product Desc: Autodesk Architectural Desktop 2007 |Company: Autodesk,Inc. |WEB Address: www.autodesk.com
 90
      129
280
     0
281
     0
  0
CLASS
  1
AEC_DISP_REP_SPACE_VOLUME
  2
AecDbDispRepSpaceVolume
  3
AecArchBase50|Product Desc: Autodesk Architectural Desktop 2007 |Company: Autodesk,Inc. |WEB Address: www.autodesk.com
 90
      129
280
     0
281
     0
  0
CLASS
  1
AEC_DISP_REP_STAIR_MODEL
  2
AecDbDispRepStairModel
  3
AecArchBase50|Product Desc: Autodesk Architectural Desktop 2007 |Company: Autodesk,Inc. |WEB Address: www.autodesk.com
 90
      129
280
     0
281
     0
  0
CLASS
  1
AEC_DISP_PROPS_STAIR_MODEL
  2
AecDbDispPropsStairModel
  3
AecArchBase50|Product Desc: Autodesk Architectural Desktop 2007 |Company: Autodesk,Inc. |WEB Address: www.autodesk.com
 90
      129
280
     0
281
     0
  0
CLASS
  1
AEC_DISP_REP_STAIR_PLAN
  2
AecDbDispRepStairPlan
  3
AecArchBase50|Product Desc: Autodesk Architectural Desktop 2007 |Company: Autodesk,Inc. |WEB Address: www.autodesk.com
 90
      129
280
     0
281
     0
  0
CLASS
  1
AEC_DISP_PROPS_STAIR_PLAN
  2
AecDbDispPropsStairPlan
  3
AecArchBase50|Product Desc: Autodesk Architectural Desktop 2007 |Company: Autodesk,Inc. |WEB Address: www.autodesk.com
 90
      129
280
     0
281
     0
  0
CLASS
  1
AEC_DISP_REP_STAIR_RCP
  2
AecDbDispRepStairRcp
  3
AecArchBase50|Product Desc: Autodesk Architectural Desktop 2007 |Company: Autodesk,Inc. |WEB Address: www.autodesk.com
 90
      129
280
     0
281
     0
  0
CLASS
  1
AEC_DISP_REP_WALL_GRAPH
  2
AecDbDispRepWallGraph
  3
AecArchBase50|Product Desc: Autodesk Architectural Desktop 2007 |Company: Autodesk,Inc. |WEB Address: www.autodesk.com
 90
      129
280
     0
281
     0
  0
CLASS
  1
AEC_DISP_PROPS_WALL_GRAPH
  2
AecDbDispPropsWallGraph
  3
AecArchBase50|Product Desc: Autodesk Architectural Desktop 2007 |Company: Autodesk,Inc. |WEB Address: www.autodesk.com
 90
      129
280
     0
281
     0
  0
CLASS
  1
AEC_DISP_REP_WALL_MODEL
  2
AecDbDispRepWallModel
  3
AecArchBase50|Product Desc: Autodesk Architectural Desktop 2007 |Company: Autodesk,Inc. |WEB Address: www.autodesk.com
 90
      129
280
     0
281
     0
  0
CLASS
  1
AEC_DISP_PROPS_WALL
  2
AecDbDispPropsWall
  3
AecArchBase50|Product Desc: Autodesk Architectural Desktop 2007 |Company: Autodesk,Inc. |WEB Address: www.autodesk.com
 90
    32897
280
     0
281
     0
  0
CLASS
  1
AEC_DISP_REP_WALL_PLAN
  2
AecDbDispRepWallPlan
  3
AecArchBase50|Product Desc: Autodesk Architectural Desktop 2007 |Company: Autodesk,Inc. |WEB Address: www.autodesk.com
 90
      129
280
     0
281
     0
  0
CLASS
  1
AEC_DISP_PROPS_WALL_PLAN
  2
AecDbDispPropsWallPlan
  3
AecArchBase50|Product Desc: Autodesk Architectural Desktop 2007 |Company: Autodesk,Inc. |WEB Address: www.autodesk.com
 90
      129
280
     0
281
     0
  0
CLASS
  1
AEC_DISP_REP_WALL_RCP
  2
AecDbDispRepWallRcp
  3
AecArchBase50|Product Desc: Autodesk Architectural Desktop 2007 |Company: Autodesk,Inc. |WEB Address: www.autodesk.com
 90
      129
280
     0
281
     0
  0
CLASS
  1
AEC_DISP_REP_WALL_SCHEM
  2
AecDbDispRepWallSchem
  3
AecArchBase50|Product Desc: Autodesk Architectural Desktop 2007 |Company: Autodesk,Inc. |WEB Address: www.autodesk.com
 90
      129
280
     0
281
     0
  0
CLASS
  1
AEC_DISP_PROPS_WALL_SCHEM
  2
AecDbDispPropsWallSchem
  3
AecArchBase50|Product Desc: Autodesk Architectural Desktop 2007 |Company: Autodesk,Inc. |WEB Address: www.autodesk.com
 90
      129
280
     0
281
     0
  0
CLASS
  1
AEC_DISP_REP_WINDOW_ASSEMBLY_MODEL
  2
AecDbDispRepWindowAssemblyModel
  3
AecArchBase50|Product Desc: Autodesk Architectural Desktop 2007 |Company: Autodesk,Inc. |WEB Address: www.autodesk.com
 90
      129
280
     0
281
     0
  0
CLASS
  1
AEC_DISP_REP_WINDOW_ASSEMBLY_PLAN
  2
AecDbDispRepWindowAssemblyPlan
  3
AecArchBase50|Product Desc: Autodesk Architectural Desktop 2007 |Company: Autodesk,Inc. |WEB Address: www.autodesk.com
 90
      129
280
     0
281
     0
  0
CLASS
  1
AEC_DISP_REP_WINDOW_MODEL
  2
AecDbDispRepWindowModel
  3
AecArchBase50|Product Desc: Autodesk Architectural Desktop 2007 |Company: Autodesk,Inc. |WEB Address: www.autodesk.com
 90
      129
280
     0
281
     0
  0
CLASS
  1
AEC_DISP_PROPS_WINDOW
  2
AecDbDispPropsWindow
  3
AecArchBase50|Product Desc: Autodesk Architectural Desktop 2007 |Company: Autodesk,Inc. |WEB Address: www.autodesk.com
 90
      129
280
     0
281
     0
  0
CLASS
  1
AEC_DISP_REP_WINDOW_ELEV
  2
AecDbDispRepWindowElev
  3
AecArchBase50|Product Desc: Autodesk Architectural Desktop 2007 |Company: Autodesk,Inc. |WEB Address: www.autodesk.com
 90
      129
280
     0
281
     0
  0
CLASS
  1
AEC_DISP_REP_WINDOW_PLAN
  2
AecDbDispRepWindowPlan
  3
AecArchBase50|Product Desc: Autodesk Architectural Desktop 2007 |Company: Autodesk,Inc. |WEB Address: www.autodesk.com
 90
      129
280
     0
281
     0
  0
CLASS
  1
AEC_DISP_REP_WINDOW_NOMINAL
  2
AecDbDispRepWindowNominal
  3
AecArchBase50|Product Desc: Autodesk Architectural Desktop 2007 |Company: Autodesk,Inc. |WEB Address: www.autodesk.com
 90
      129
280
     0
281
     0
  0
CLASS
  1
AEC_DISP_PROPS_WINDOW_NOMINAL
  2
AecDbDispPropsWindowNominal
  3
AecArchBase50|Product Desc: Autodesk Architectural Desktop 2007 |Company: Autodesk,Inc. |WEB Address: www.autodesk.com
 90
      129
280
     0
281
     0
  0
CLASS
  1
AEC_DISP_REP_WINDOW_RCP
  2
AecDbDispRepWindowRcp
  3
AecArchBase50|Product Desc: Autodesk Architectural Desktop 2007 |Company: Autodesk,Inc. |WEB Address: www.autodesk.com
 90
      129
280
     0
281
     0
  0
CLASS
  1
AEC_DISP_REP_WINDOW_SILL_PLAN
  2
AecDbDispRepWindowSillPlan
  3
AecArchBase50|Product Desc: Autodesk Architectural Desktop 2007 |Company: Autodesk,Inc. |WEB Address: www.autodesk.com
 90
      129
280
     0
281
     0
  0
CLASS
  1
AEC_DISP_PROPS_WINDOW_SILL_PLAN
  2
AecDbDispPropsWindowSillPlan
  3
AecArchBase50|Product Desc: Autodesk Architectural Desktop 2007 |Company: Autodesk,Inc. |WEB Address: www.autodesk.com
 90
      129
280
     0
281
     0
  0
CLASS
  1
AEC_DISP_REP_ANCHOR_TAG_TO_ENT
  2
AecDbDispRepAnchorTagToEnt
  3
AecScheduleData50|Product Desc: Autodesk Architectural Desktop 2007 |Company: Autodesk,Inc. |WEB Address: www.autodesk.com
 90
      129
280
     0
281
     0
  0
CLASS
  1
AECS_DISP_REP_MEMBER_ELEVATION_DESIGN
  2
AecsDbDispRepMemberElevationDesign
  3
AecStructureBase50|Product Desc: Autodesk Architectural Desktop 2007 |Company: Autodesk,Inc. |WEB Address: www.autodesk.com
 90
      129
280
     0
281
     0
  0
CLASS
  1
AECS_DISP_PROPS_MEMBER_PROJECTED
  2
AecsDbDispPropsMemberProjected
  3
AecStructureBase50|Product Desc: Autodesk Architectural Desktop 2007 |Company: Autodesk,Inc. |WEB Address: www.autodesk.com
 90
      129
280
     0
281
     0
  0
CLASS
  1
AECS_DISP_REP_MEMBER_ELEVATION_DETAIL
  2
AecsDbDispRepMemberElevationDetail
  3
AecStructureBase50|Product Desc: Autodesk Architectural Desktop 2007 |Company: Autodesk,Inc. |WEB Address: www.autodesk.com
 90
      129
280
     0
281
     0
  0
CLASS
  1
AECS_DISP_REP_MEMBER_LOGICAL
  2
AecsDbDispRepMemberLogical
  3
AecStructureBase50|Product Desc: Autodesk Architectural Desktop 2007 |Company: Autodesk,Inc. |WEB Address: www.autodesk.com
 90
      129
280
     0
281
     0
  0
CLASS
  1
AECS_DISP_PROPS_MEMBER_LOGICAL
  2
AecsDbDispPropsMemberLogical
  3
AecStructureBase50|Product Desc: Autodesk Architectural Desktop 2007 |Company: Autodesk,Inc. |WEB Address: www.autodesk.com
 90
      129
280
     0
281
     0
  0
CLASS
  1
AECS_DISP_REP_MEMBER_MODEL_DESIGN
  2
AecsDbDispRepMemberModelDesign
  3
AecStructureBase50|Product Desc: Autodesk Architectural Desktop 2007 |Company: Autodesk,Inc. |WEB Address: www.autodesk.com
 90
      129
280
     0
281
     0
  0
CLASS
  1
AECS_DISP_PROPS_MEMBER
  2
AecsDbDispPropsMember
  3
AecStructureBase50|Product Desc: Autodesk Architectural Desktop 2007 |Company: Autodesk,Inc. |WEB Address: www.autodesk.com
 90
      129
280
     0
281
     0
  0
CLASS
  1
AECS_DISP_REP_MEMBER_MODEL_DETAIL
  2
AecsDbDispRepMemberModelDetail
  3
AecStructureBase50|Product Desc: Autodesk Architectural Desktop 2007 |Company: Autodesk,Inc. |WEB Address: www.autodesk.com
 90
      129
280
     0
281
     0
  0
CLASS
  1
AECS_DISP_REP_MEMBER_PLAN_DESIGN
  2
AecsDbDispRepMemberPlanDesign
  3
AecStructureBase50|Product Desc: Autodesk Architectural Desktop 2007 |Company: Autodesk,Inc. |WEB Address: www.autodesk.com
 90
      129
280
     0
281
     0
  0
CLASS
  1
AECS_DISP_PROPS_MEMBER_PLAN
  2
AecsDbDispPropsMemberPlan
  3
AecStructureBase50|Product Desc: Autodesk Architectural Desktop 2007 |Company: Autodesk,Inc. |WEB Address: www.autodesk.com
 90
      129
280
     0
281
     0
  0
CLASS
  1
AECS_DISP_REP_MEMBER_PLAN_DETAIL
  2
AecsDbDispRepMemberPlanDetail
  3
AecStructureBase50|Product Desc: Autodesk Architectural Desktop 2007 |Company: Autodesk,Inc. |WEB Address: www.autodesk.com
 90
      129
280
     0
281
     0
  0
CLASS
  1
AECS_DISP_REP_MEMBER_PLAN_SKETCH
  2
AecsDbDispRepMemberPlanSketch
  3
AecStructureBase50|Product Desc: Autodesk Architectural Desktop 2007 |Company: Autodesk,Inc. |WEB Address: www.autodesk.com
 90
      129
280
     0
281
     0
  0
CLASS
  1
AECS_DISP_PROPS_MEMBER_PLAN_SKETCH
  2
AecsDbDispPropsMemberPlanSketch
  3
AecStructureBase50|Product Desc: Autodesk Architectural Desktop 2007 |Company: Autodesk,Inc. |WEB Address: www.autodesk.com
 90
      129
280
     0
281
     0
  0
CLASS
  1
AEC_DISP_REP_SCHEDULE_TABLE
  2
AecDbDispRepScheduleTable
  3
AecSchedule50|Product Desc: Autodesk Architectural Desktop 2007 |Company: Autodesk,Inc. |WEB Address: www.autodesk.com
 90
      129
280
     0
281
     0
  0
CLASS
  1
AEC_DISP_PROPS_SCHEDULE_TABLE
  2
AecDbDispPropsScheduleTable
  3
AecSchedule50|Product Desc: Autodesk Architectural Desktop 2007 |Company: Autodesk,Inc. |WEB Address: www.autodesk.com
 90
      129
280
     0
281
     0
  0
CLASS
  1
AEC_DISP_REP_AREA
  2
AecDbDispRepArea
  3
AecAreaCalculationBase50|Product Desc: Autodesk Architectural Desktop 2007 |Company: Autodesk,Inc. |WEB Address: www.autodesk.com
 90
    32897
280
     0
281
     0
  0
CLASS
  1
AEC_DISP_PROPS_AREA
  2
AecDbDispPropsArea
  3
AecAreaCalculationBase50|Product Desc: Autodesk Architectural Desktop 2007 |Company: Autodesk,Inc. |WEB Address: www.autodesk.com
 90
    32897
280
     0
281
     0
  0
CLASS
  1
AEC_DISP_REP_AREA_DECOMPOSED
  2
AecDbDispRepAreaDecomposed
  3
AecAreaCalculationBase50|Product Desc: Autodesk Architectural Desktop 2007 |Company: Autodesk,Inc. |WEB Address: www.autodesk.com
 90
    32897
280
     0
281
     0
  0
CLASS
  1
AEC_DISP_PROPS_AREA_DECOMPOSED
  2
AecDbDispPropsAreaDecomposed
  3
AecAreaCalculationBase50|Product Desc: Autodesk Architectural Desktop 2007 |Company: Autodesk,Inc. |WEB Address: www.autodesk.com
 90
    32897
280
     0
281
     0
  0
CLASS
  1
AEC_DISP_REP_AREAGROUP
  2
AecDbDispRepAreaGroup
  3
AecAreaCalculationBase50|Product Desc: Autodesk Architectural Desktop 2007 |Company: Autodesk,Inc. |WEB Address: www.autodesk.com
 90
    32897
280
     0
281
     0
  0
CLASS
  1
AEC_DISP_PROPS_AREAGROUP
  2
AecDbDispPropsAreaGroup
  3
AecAreaCalculationBase50|Product Desc: Autodesk Architectural Desktop 2007 |Company: Autodesk,Inc. |WEB Address: www.autodesk.com
 90
    32897
280
     0
281
     0
  0
CLASS
  1
AEC_AECDBDISPREPAREA100
  2
AecDbDispRepArea100
  3
AecArchDACHBase50|Product Desc: Autodesk Architectural Desktop 2007 |Company: Autodesk,Inc. |WEB Address: www.autodesk.com
 90
    32897
280
     0
281
     0
  0
CLASS
  1
AEC_AECDBDISPREPAREAGROUP100
  2
AecDbDispRepAreaGroup100
  3
AecArchDACHBase50|Product Desc: Autodesk Architectural Desktop 2007 |Company: Autodesk,Inc. |WEB Address: www.autodesk.com
 90
    32897
280
     0
281
     0
  0
CLASS
  1
AEC_AECDBDISPREPBDGELEVLINEPLAN100
  2
AecDbDispRepBdgElevLinePlan100
  3
AecArchDACHBase50|Product Desc: Autodesk Architectural Desktop 2007 |Company: Autodesk,Inc. |WEB Address: www.autodesk.com
 90
      129
280
     0
281
     0
  0
CLASS
  1
AEC_AECDBDISPREPBDGSECTIONLINEPLAN100
  2
AecDbDispRepBdgSectionLinePlan100
  3
AecArchDACHBase50|Product Desc: Autodesk Architectural Desktop 2007 |Company: Autodesk,Inc. |WEB Address: www.autodesk.com
 90
      129
280
     0
281
     0
  0
CLASS
  1
AEC_AECDBDISPREPCEILINGGRIDPLAN100
  2
AecDbDispRepCeilingGridPlan100
  3
AecArchDACHBase50|Product Desc: Autodesk Architectural Desktop 2007 |Company: Autodesk,Inc. |WEB Address: www.autodesk.com
 90
      129
280
     0
281
     0
  0
CLASS
  1
AEC_AECDBDISPREPCOLUMNGRIDPLAN100
  2
AecDbDispRepColumnGridPlan100
  3
AecArchDACHBase50|Product Desc: Autodesk Architectural Desktop 2007 |Company: Autodesk,Inc. |WEB Address: www.autodesk.com
 90
      129
280
     0
281
     0
  0
CLASS
  1
AEC_AECDBDISPREPCURTAINWALLLAYOUTPLAN100
  2
AecDbDispRepCurtainWallLayoutPlan100
  3
AecArchDACHBase50|Product Desc: Autodesk Architectural Desktop 2007 |Company: Autodesk,Inc. |WEB Address: www.autodesk.com
 90
      129
280
     0
281
     0
  0
CLASS
  1
AEC_AECDBDISPREPCURTAINWALLUNITPLAN100
  2
AecDbDispRepCurtainWallUnitPlan100
  3
AecArchDACHBase50|Product Desc: Autodesk Architectural Desktop 2007 |Company: Autodesk,Inc. |WEB Address: www.autodesk.com
 90
      129
280
     0
281
     0
  0
CLASS
  1
AEC_AECDBDISPREPMVBLOCKREFPLAN100
  2
AecDbDispRepMvBlockRefPlan100
  3
AecArchDACHBase50|Product Desc: Autodesk Architectural Desktop 2007 |Company: Autodesk,Inc. |WEB Address: www.autodesk.com
 90
      129
280
     0
281
     0
  0
CLASS
  1
AEC_AECDBDISPREPROOFPLAN100
  2
AecDbDispRepRoofPlan100
  3
AecArchDACHBase50|Product Desc: Autodesk Architectural Desktop 2007 |Company: Autodesk,Inc. |WEB Address: www.autodesk.com
 90
      129
280
     0
281
     0
  0
CLASS
  1
AEC_AECDBDISPREPROOFSLABPLAN100
  2
AecDbDispRepRoofSlabPlan100
  3
AecArchDACHBase50|Product Desc: Autodesk Architectural Desktop 2007 |Company: Autodesk,Inc. |WEB Address: www.autodesk.com
 90
      129
280
     0
281
     0
  0
CLASS
  1
AEC_AECDBDISPREPSLABPLAN100
  2
AecDbDispRepSlabPlan100
  3
AecArchDACHBase50|Product Desc: Autodesk Architectural Desktop 2007 |Company: Autodesk,Inc. |WEB Address: www.autodesk.com
 90
      129
280
     0
281
     0
  0
CLASS
  1
AEC_AECDBDISPREPSPACEBOUNDARYPLAN100
  2
AecDbDispRepSpaceBoundaryPlan100
  3
AecArchDACHBase50|Product Desc: Autodesk Architectural Desktop 2007 |Company: Autodesk,Inc. |WEB Address: www.autodesk.com
 90
    32897
280
     0
281
     0
  0
CLASS
  1
AEC_AECDBDISPREPSPACEPLAN100
  2
AecDbDispRepSpacePlan100
  3
AecArchDACHBase50|Product Desc: Autodesk Architectural Desktop 2007 |Company: Autodesk,Inc. |WEB Address: www.autodesk.com
 90
      129
280
     0
281
     0
  0
CLASS
  1
AEC_AECDBDISPREPWALLPLAN100
  2
AecDbDispRepWallPlan100
  3
AecArchDACHBase50|Product Desc: Autodesk Architectural Desktop 2007 |Company: Autodesk,Inc. |WEB Address: www.autodesk.com
 90
      129
280
     0
281
     0
  0
CLASS
  1
AEC_AECDBDISPREPWINDOWASSEMBLYPLAN100
  2
AecDbDispRepWindowAssemblyPlan100
  3
AecArchDACHBase50|Product Desc: Autodesk Architectural Desktop 2007 |Company: Autodesk,Inc. |WEB Address: www.autodesk.com
 90
      129
280
     0
281
     0
  0
CLASS
  1
AEC_AECSDBDISPREPMEMBERPLAN100
  2
AecsDbDispRepMemberPlan100
  3
AecArchDACHBase50|Product Desc: Autodesk Architectural Desktop 2007 |Company: Autodesk,Inc. |WEB Address: www.autodesk.com
 90
    32897
280
     0
281
     0
  0
CLASS
  1
AEC_AECDBDISPREPAREA50
  2
AecDbDispRepArea50
  3
AecArchDACHBase50|Product Desc: Autodesk Architectural Desktop 2007 |Company: Autodesk,Inc. |WEB Address: www.autodesk.com
 90
    32897
280
     0
281
     0
  0
CLASS
  1
AEC_AECDBDISPREPAREAGROUP50
  2
AecDbDispRepAreaGroup50
  3
AecArchDACHBase50|Product Desc: Autodesk Architectural Desktop 2007 |Company: Autodesk,Inc. |WEB Address: www.autodesk.com
 90
    32897
280
     0
281
     0
  0
CLASS
  1
AEC_AECDBDISPREPBDGELEVLINEPLAN50
  2
AecDbDispRepBdgElevLinePlan50
  3
AecArchDACHBase50|Product Desc: Autodesk Architectural Desktop 2007 |Company: Autodesk,Inc. |WEB Address: www.autodesk.com
 90
      129
280
     0
281
     0
  0
CLASS
  1
AEC_AECDBDISPREPBDGSECTIONLINEPLAN50
  2
AecDbDispRepBdgSectionLinePlan50
  3
AecArchDACHBase50|Product Desc: Autodesk Architectural Desktop 2007 |Company: Autodesk,Inc. |WEB Address: www.autodesk.com
 90
      129
280
     0
281
     0
  0
CLASS
  1
AEC_AECDBDISPREPCEILINGGRIDPLAN50
  2
AecDbDispRepCeilingGridPlan50
  3
AecArchDACHBase50|Product Desc: Autodesk Architectural Desktop 2007 |Company: Autodesk,Inc. |WEB Address: www.autodesk.com
 90
      129
280
     0
281
     0
  0
CLASS
  1
AEC_AECDBDISPREPCOLUMNGRIDPLAN50
  2
AecDbDispRepColumnGridPlan50
  3
AecArchDACHBase50|Product Desc: Autodesk Architectural Desktop 2007 |Company: Autodesk,Inc. |WEB Address: www.autodesk.com
 90
      129
280
     0
281
     0
  0
CLASS
  1
AEC_AECDBDISPREPCURTAINWALLLAYOUTPLAN50
  2
AecDbDispRepCurtainWallLayoutPlan50
  3
AecArchDACHBase50|Product Desc: Autodesk Architectural Desktop 2007 |Company: Autodesk,Inc. |WEB Address: www.autodesk.com
 90
      129
280
     0
281
     0
  0
CLASS
  1
AEC_AECDBDISPREPCURTAINWALLUNITPLAN50
  2
AecDbDispRepCurtainWallUnitPlan50
  3
AecArchDACHBase50|Product Desc: Autodesk Architectural Desktop 2007 |Company: Autodesk,Inc. |WEB Address: www.autodesk.com
 90
      129
280
     0
281
     0
  0
CLASS
  1
AEC_AECDBDISPREPMVBLOCKREFPLAN50
  2
AecDbDispRepMvBlockRefPlan50
  3
AecArchDACHBase50|Product Desc: Autodesk Architectural Desktop 2007 |Company: Autodesk,Inc. |WEB Address: www.autodesk.com
 90
      129
280
     0
281
     0
  0
CLASS
  1
AEC_AECDBDISPREPROOFPLAN50
  2
AecDbDispRepRoofPlan50
  3
AecArchDACHBase50|Product Desc: Autodesk Architectural Desktop 2007 |Company: Autodesk,Inc. |WEB Address: www.autodesk.com
 90
      129
280
     0
281
     0
  0
CLASS
  1
AEC_AECDBDISPREPROOFSLABPLAN50
  2
AecDbDispRepRoofSlabPlan50
  3
AecArchDACHBase50|Product Desc: Autodesk Architectural Desktop 2007 |Company: Autodesk,Inc. |WEB Address: www.autodesk.com
 90
      129
280
     0
281
     0
  0
CLASS
  1
AEC_AECDBDISPREPSLABPLAN50
  2
AecDbDispRepSlabPlan50
  3
AecArchDACHBase50|Product Desc: Autodesk Architectural Desktop 2007 |Company: Autodesk,Inc. |WEB Address: www.autodesk.com
 90
      129
280
     0
281
     0
  0
CLASS
  1
AEC_AECDBDISPREPSPACEBOUNDARYPLAN50
  2
AecDbDispRepSpaceBoundaryPlan50
  3
AecArchDACHBase50|Product Desc: Autodesk Architectural Desktop 2007 |Company: Autodesk,Inc. |WEB Address: www.autodesk.com
 90
    32897
280
     0
281
     0
  0
CLASS
  1
AEC_AECDBDISPREPSPACEPLAN50
  2
AecDbDispRepSpacePlan50
  3
AecArchDACHBase50|Product Desc: Autodesk Architectural Desktop 2007 |Company: Autodesk,Inc. |WEB Address: www.autodesk.com
 90
      129
280
     0
281
     0
  0
CLASS
  1
AEC_AECDBDISPREPWALLPLAN50
  2
AecDbDispRepWallPlan50
  3
AecArchDACHBase50|Product Desc: Autodesk Architectural Desktop 2007 |Company: Autodesk,Inc. |WEB Address: www.autodesk.com
 90
      129
280
     0
281
     0
  0
CLASS
  1
AEC_AECDBDISPREPWINDOWASSEMBLYPLAN50
  2
AecDbDispRepWindowAssemblyPlan50
  3
AecArchDACHBase50|Product Desc: Autodesk Architectural Desktop 2007 |Company: Autodesk,Inc. |WEB Address: www.autodesk.com
 90
      129
280
     0
281
     0
  0
CLASS
  1
AEC_AECSDBDISPREPMEMBERPLAN50
  2
AecsDbDispRepMemberPlan50
  3
AecArchDACHBase50|Product Desc: Autodesk Architectural Desktop 2007 |Company: Autodesk,Inc. |WEB Address: www.autodesk.com
 90
    32897
280
     0
281
     0
  0
CLASS
  1
AEC_AECDBDISPREPCURTAINWALLLAYOUTXSECTION
  2
AecDbDispRepCurtainWallLayoutXSection
  3
AecArchDACHBase50|Product Desc: Autodesk Architectural Desktop 2007 |Company: Autodesk,Inc. |WEB Address: www.autodesk.com
 90
    32897
280
     0
281
     0
  0
CLASS
  1
AEC_DISPROPSXSECTIONCOMMON
  2
AecDbDispPropsXSectionCmn
  3
AecArchDACHBase50|Product Desc: Autodesk Architectural Desktop 2007 |Company: Autodesk,Inc. |WEB Address: www.autodesk.com
 90
    32897
280
     0
281
     0
  0
CLASS
  1
AEC_AECDBDISPREPCURTAINWALLUNITXSECTION
  2
AecDbDispRepCurtainWallUnitXSection
  3
AecArchDACHBase50|Product Desc: Autodesk Architectural Desktop 2007 |Company: Autodesk,Inc. |WEB Address: www.autodesk.com
 90
    32897
280
     0
281
     0
  0
CLASS
  1
AEC_AECDBDISPREPDOORXSECTION
  2
AecDbDispRepDoorXSection
  3
AecArchDACHBase50|Product Desc: Autodesk Architectural Desktop 2007 |Company: Autodesk,Inc. |WEB Address: www.autodesk.com
 90
    32897
280
     0
281
     0
  0
CLASS
  1
AEC_AECDBDISPREPMASSELEMXSECTION
  2
AecDbDispRepMassElemXSection
  3
AecArchDACHBase50|Product Desc: Autodesk Architectural Desktop 2007 |Company: Autodesk,Inc. |WEB Address: www.autodesk.com
 90
    32897
280
     0
281
     0
  0
CLASS
  1
AEC_AECDBDISPREPROOFXSECTION
  2
AecDbDispRepRoofXSection
  3
AecArchDACHBase50|Product Desc: Autodesk Architectural Desktop 2007 |Company: Autodesk,Inc. |WEB Address: www.autodesk.com
 90
    32897
280
     0
281
     0
  0
CLASS
  1
AEC_AECDBDISPREPROOFSLABXSECTION
  2
AecDbDispRepRoofSlabXSection
  3
AecArchDACHBase50|Product Desc: Autodesk Architectural Desktop 2007 |Company: Autodesk,Inc. |WEB Address: www.autodesk.com
 90
    32897
280
     0
281
     0
  0
CLASS
  1
AEC_AECDBDISPREPSLABXSECTION
  2
AecDbDispRepSlabXSection
  3
AecArchDACHBase50|Product Desc: Autodesk Architectural Desktop 2007 |Company: Autodesk,Inc. |WEB Address: www.autodesk.com
 90
    32897
280
     0
281
     0
  0
CLASS
  1
AEC_AECDBDISPREPSPACEXSECTION
  2
AecDbDispRepSpaceXSection
  3
AecArchDACHBase50|Product Desc: Autodesk Architectural Desktop 2007 |Company: Autodesk,Inc. |WEB Address: www.autodesk.com
 90
    32897
280
     0
281
     0
  0
CLASS
  1
AEC_AECDBDISPREPSPACEBOUNDARYXSECTION
  2
AecDbDispRepSpaceBoundaryXSection
  3
AecArchDACHBase50|Product Desc: Autodesk Architectural Desktop 2007 |Company: Autodesk,Inc. |WEB Address: www.autodesk.com
 90
    32897
280
     0
281
     0
  0
CLASS
  1
AEC_AECDBDISPREPWINDOWXSECTION
  2
AecDbDispRepWindowXSection
  3
AecArchDACHBase50|Product Desc: Autodesk Architectural Desktop 2007 |Company: Autodesk,Inc. |WEB Address: www.autodesk.com
 90
    32897
280
     0
281
     0
  0
CLASS
  1
AEC_AECDBDISPREPWINDOWASSEMBLYXSECTION
  2
AecDbDispRepWindowAssemblyXSection
  3
AecArchDACHBase50|Product Desc: Autodesk Architectural Desktop 2007 |Company: Autodesk,Inc. |WEB Address: www.autodesk.com
 90
    32897
280
     0
281
     0
  0
CLASS
  1
AEC_AECDBDISPREPMEMBERXSECTION
  2
AecDbDispRepMemberXSection
  3
AecArchDACHBase50|Product Desc: Autodesk Architectural Desktop 2007 |Company: Autodesk,Inc. |WEB Address: www.autodesk.com
 90
    32897
280
     0
281
     0
  0
CLASS
  1
AEC_DB_DISP_REP_DIM_GROUP_PLAN100
  2
AecDbDispRepDimGroupPlan100
  3
AecArchDACHBase50|Product Desc: Autodesk Architectural Desktop 2007 |Company: Autodesk,Inc. |WEB Address: www.autodesk.com
 90
      129
280
     0
281
     0
  0
CLASS
  1
AEC_DISP_PROPS_DIM
  2
AecDbDispPropsDimGroup
  3
AecArchDACHBase50|Product Desc: Autodesk Architectural Desktop 2007 |Company: Autodesk,Inc. |WEB Address: www.autodesk.com
 90
      129
280
     0
281
     0
  0
CLASS
  1
AEC_DB_DISP_REP_DIM_GROUP_PLAN50
  2
AecDbDispRepDimGroupPlan50
  3
AecArchDACHBase50|Product Desc: Autodesk Architectural Desktop 2007 |Company: Autodesk,Inc. |WEB Address: www.autodesk.com
 90
      129
280
     0
281
     0
  0
CLASS
  1
AEC_DB_DISP_REP_DIM_GROUP_PLAN
  2
AecDbDispRepDimGroupPlan
  3
AecArchDACHBase50|Product Desc: Autodesk Architectural Desktop 2007 |Company: Autodesk,Inc. |WEB Address: www.autodesk.com
 90
      129
280
     0
281
     0
  0
CLASS
  1
AEC_DISP_REP_DOOR_PLAN_50
  2
AecDbDispRepDoorPlan50
  3
AecArchDACHBase50|Product Desc: Autodesk Architectural Desktop 2007 |Company: Autodesk,Inc. |WEB Address: www.autodesk.com
 90
      129
280
     0
281
     0
  0
CLASS
  1
AEC_DISP_PROPS_DOOR_PLAN_50
  2
AecDbDispPropsDoorPlan50
  3
AecArchDACHBase50|Product Desc: Autodesk Architectural Desktop 2007 |Company: Autodesk,Inc. |WEB Address: www.autodesk.com
 90
      129
280
     0
281
     0
  0
CLASS
  1
AEC_DISP_REP_DOOR_PLAN_HEKTO
  2
AecDbDispRepDoorPlanHekto
  3
AecArchDACHBase50|Product Desc: Autodesk Architectural Desktop 2007 |Company: Autodesk,Inc. |WEB Address: www.autodesk.com
 90
      129
280
     0
281
     0
  0
CLASS
  1
AEC_DISP_PROPS_DOOR_PLAN_100
  2
AecDbDispPropsDoorPlan100
  3
AecArchDACHBase50|Product Desc: Autodesk Architectural Desktop 2007 |Company: Autodesk,Inc. |WEB Address: www.autodesk.com
 90
      129
280
     0
281
     0
  0
CLASS
  1
AEC_DISP_REP_DOOR_THRESHOLD_SYMBOL_PLAN
  2
AecDbDispRepDoorThresholdSymbolPlan
  3
AecArchDACHBase50|Product Desc: Autodesk Architectural Desktop 2007 |Company: Autodesk,Inc. |WEB Address: www.autodesk.com
 90
      129
280
     0
281
     0
  0
CLASS
  1
AEC_DISP_PROPS_DOOR_THRESHOLD_SYMBOL_PLAN
  2
AecDbDispPropsDoorThresholdSymbolPlan
  3
AecArchDACHBase50|Product Desc: Autodesk Architectural Desktop 2007 |Company: Autodesk,Inc. |WEB Address: www.autodesk.com
 90
      129
280
     0
281
     0
  0
CLASS
  1
AEC_DISPREPAECDBDISPREPMASSELEMPLAN100
  2
AecDbDispRepMassElemPlan100
  3
AecArchDACHBase50|Product Desc: Autodesk Architectural Desktop 2007 |Company: Autodesk,Inc. |WEB Address: www.autodesk.com
 90
      129
280
     0
281
     0
  0
CLASS
  1
AEC_DISPROPSMASSELEMPLANCOMMON
  2
AecDbDispPropsMassElemPlanCommon
  3
AecArchDACHBase50|Product Desc: Autodesk Architectural Desktop 2007 |Company: Autodesk,Inc. |WEB Address: www.autodesk.com
 90
      129
280
     0
281
     0
  0
CLASS
  1
AEC_DISPREPAECDBDISPREPMASSELEMPLAN50
  2
AecDbDispRepMassElemPlan50
  3
AecArchDACHBase50|Product Desc: Autodesk Architectural Desktop 2007 |Company: Autodesk,Inc. |WEB Address: www.autodesk.com
 90
      129
280
     0
281
     0
  0
CLASS
  1
AEC_DISPREPAECDBDISPREPMASSGROUPPLAN100
  2
AecDbDispRepMassGroupPlan100
  3
AecArchDACHBase50|Product Desc: Autodesk Architectural Desktop 2007 |Company: Autodesk,Inc. |WEB Address: www.autodesk.com
 90
      129
280
     0
281
     0
  0
CLASS
  1
AEC_DISPROPSMASSGROUPPLANCOMMON
  2
AecDbDispPropsMassGroupPlanCommon
  3
AecArchDACHBase50|Product Desc: Autodesk Architectural Desktop 2007 |Company: Autodesk,Inc. |WEB Address: www.autodesk.com
 90
      129
280
     0
281
     0
  0
CLASS
  1
AEC_DISPREPAECDBDISPREPMASSGROUPPLAN50
  2
AecDbDispRepMassGroupPlan50
  3
AecArchDACHBase50|Product Desc: Autodesk Architectural Desktop 2007 |Company: Autodesk,Inc. |WEB Address: www.autodesk.com
 90
      129
280
     0
281
     0
  0
CLASS
  1
AEC_DISPREPMASSGROUPXSECTION
  2
AecDbDispRepMassGroupXSection
  3
AecArchDACHBase50|Product Desc: Autodesk Architectural Desktop 2007 |Company: Autodesk,Inc. |WEB Address: www.autodesk.com
 90
    32897
280
     0
281
     0
  0
CLASS
  1
AEC_DISPREPAECDBDISPREPOPENINGPLAN100
  2
AecDbDispRepOpeningPlan100
  3
AecArchDACHBase50|Product Desc: Autodesk Architectural Desktop 2007 |Company: Autodesk,Inc. |WEB Address: www.autodesk.com
 90
      129
280
     0
281
     0
  0
CLASS
  1
AEC_DISPROPSOPENINGPLANCOMMONHATCHED
  2
AecDbDispPropsOpeningPlanCommonHatched
  3
AecArchDACHBase50|Product Desc: Autodesk Architectural Desktop 2007 |Company: Autodesk,Inc. |WEB Address: www.autodesk.com
 90
      129
280
     0
281
     0
  0
CLASS
  1
AEC_DISPREPAECDBDISPREPOPENINGPLAN50
  2
AecDbDispRepOpeningPlan50
  3
AecArchDACHBase50|Product Desc: Autodesk Architectural Desktop 2007 |Company: Autodesk,Inc. |WEB Address: www.autodesk.com
 90
      129
280
     0
281
     0
  0
CLASS
  1
AEC_DISPREPAECDBDISPREPOPENINGPLANREFLECTED
  2
AecDbDispRepOpeningPlanReflected
  3
AecArchDACHBase50|Product Desc: Autodesk Architectural Desktop 2007 |Company: Autodesk,Inc. |WEB Address: www.autodesk.com
 90
      129
280
     0
281
     0
  0
CLASS
  1
AEC_DISPROPSOPENINGPLANCOMMON
  2
AecDbDispPropsOpeningPlanCommon
  3
AecArchDACHBase50|Product Desc: Autodesk Architectural Desktop 2007 |Company: Autodesk,Inc. |WEB Address: www.autodesk.com
 90
      129
280
     0
281
     0
  0
CLASS
  1
AEC_DISPREPAECDBDISPREPOPENINGSILLPLAN
  2
AecDbDispRepOpeningSillPlan
  3
AecArchDACHBase50|Product Desc: Autodesk Architectural Desktop 2007 |Company: Autodesk,Inc. |WEB Address: www.autodesk.com
 90
      129
280
     0
281
     0
  0
CLASS
  1
AEC_DISPROPSOPENINGSILLPLAN
  2
AecDbDispPropsOpeningSillPlan
  3
AecArchDACHBase50|Product Desc: Autodesk Architectural Desktop 2007 |Company: Autodesk,Inc. |WEB Address: www.autodesk.com
 90
      129
280
     0
281
     0
  0
CLASS
  1
AEC_DISP_REP_RAILING_PLAN_100
  2
AecDbDispRepRailingPlan100
  3
AecArchDACHBase50|Product Desc: Autodesk Architectural Desktop 2007 |Company: Autodesk,Inc. |WEB Address: www.autodesk.com
 90
      129
280
     0
281
     0
  0
CLASS
  1
AEC_DISP_ROPS_RAILING_PLAN_100
  2
AecDbDispPropsRailingPlan100
  3
AecArchDACHBase50|Product Desc: Autodesk Architectural Desktop 2007 |Company: Autodesk,Inc. |WEB Address: www.autodesk.com
 90
      129
280
     0
281
     0
  0
CLASS
  1
AEC_DISP_REP_RAILING_PLAN_50
  2
AecDbDispRepRailingPlan50
  3
AecArchDACHBase50|Product Desc: Autodesk Architectural Desktop 2007 |Company: Autodesk,Inc. |WEB Address: www.autodesk.com
 90
      129
280
     0
281
     0
  0
CLASS
  1
AEC_DISP_ROPS_RAILING_PLAN_COMMON
  2
AecDbDispPropsRailingPlanCommon
  3
AecArchDACHBase50|Product Desc: Autodesk Architectural Desktop 2007 |Company: Autodesk,Inc. |WEB Address: www.autodesk.com
 90
    32897
280
     0
281
     0
  0
CLASS
  1
AEC_DISPREPRAILINGXSECTION
  2
AecDbDispRepRailingXSection
  3
AecArchDACHBase50|Product Desc: Autodesk Architectural Desktop 2007 |Company: Autodesk,Inc. |WEB Address: www.autodesk.com
 90
    32897
280
     0
281
     0
  0
CLASS
  1
AEC_DISP_REP_STAIR_PLAN_100
  2
AecDbDispRepStairPlan100
  3
AecArchDACHBase50|Product Desc: Autodesk Architectural Desktop 2007 |Company: Autodesk,Inc. |WEB Address: www.autodesk.com
 90
      129
280
     0
281
     0
  0
CLASS
  1
AEC_DISP_ROPS_STAIR_PLAN_100
  2
AecDbDispPropsStairPlan100
  3
AecArchDACHBase50|Product Desc: Autodesk Architectural Desktop 2007 |Company: Autodesk,Inc. |WEB Address: www.autodesk.com
 90
      129
280
     0
281
     0
  0
CLASS
  1
AEC_DISP_REP_STAIR_PLAN_50
  2
AecDbDispRepStairPlan50
  3
AecArchDACHBase50|Product Desc: Autodesk Architectural Desktop 2007 |Company: Autodesk,Inc. |WEB Address: www.autodesk.com
 90
      129
280
     0
281
     0
  0
CLASS
  1
AEC_DISP_ROPS_STAIR_PLAN_50
  2
AecDbDispPropsStairPlan50
  3
AecArchDACHBase50|Product Desc: Autodesk Architectural Desktop 2007 |Company: Autodesk,Inc. |WEB Address: www.autodesk.com
 90
      129
280
     0
281
     0
  0
CLASS
  1
AEC_DISPREPSTAIRXSECTION
  2
AecDbDispRepStairXSection
  3
AecArchDACHBase50|Product Desc: Autodesk Architectural Desktop 2007 |Company: Autodesk,Inc. |WEB Address: www.autodesk.com
 90
    32897
280
     0
281
     0
  0
CLASS
  1
AEC_DISPREPWALLXSECTION
  2
AecDbDispRepWallXSection
  3
AecArchDACHBase50|Product Desc: Autodesk Architectural Desktop 2007 |Company: Autodesk,Inc. |WEB Address: www.autodesk.com
 90
    32897
280
     0
281
     0
  0
CLASS
  1
AEC_DISPROPSXSECTIONWALL
  2
AecDbDispPropsWallXSection
  3
AecArchDACHBase50|Product Desc: Autodesk Architectural Desktop 2007 |Company: Autodesk,Inc. |WEB Address: www.autodesk.com
 90
    32897
280
     0
281
     0
  0
CLASS
  1
AEC_DISP_REP_WINDOW_PLAN_100
  2
AecDbDispRepWindowPlan100
  3
AecArchDACHBase50|Product Desc: Autodesk Architectural Desktop 2007 |Company: Autodesk,Inc. |WEB Address: www.autodesk.com
 90
      129
280
     0
281
     0
  0
CLASS
  1
AEC_DISP_PROPS_WINDOW_PLAN_100
  2
AecDbDispPropsWindowPlan100
  3
AecArchDACHBase50|Product Desc: Autodesk Architectural Desktop 2007 |Company: Autodesk,Inc. |WEB Address: www.autodesk.com
 90
      129
280
     0
281
     0
  0
CLASS
  1
AEC_DISP_REP_WINDOW_PLAN_50
  2
AecDbDispRepWindowPlan50
  3
AecArchDACHBase50|Product Desc: Autodesk Architectural Desktop 2007 |Company: Autodesk,Inc. |WEB Address: www.autodesk.com
 90
      129
280
     0
281
     0
  0
CLASS
  1
AEC_DISP_PROPS_WINDOW_PLAN_50
  2
AecDbDispPropsWindowPlan50
  3
AecArchDACHBase50|Product Desc: Autodesk Architectural Desktop 2007 |Company: Autodesk,Inc. |WEB Address: www.autodesk.com
 90
      129
280
     0
281
     0
  0
CLASS
  1
AEC_DISP_REP_SET
  2
AecDbDispRepSet
  3
AecBase50|Product Desc: Autodesk Architectural Desktop 2007 |Company: Autodesk,Inc. |WEB Address: www.autodesk.com
 90
      129
280
     0
281
     0
  0
CLASS
  1
AEC_DISP_REP_CONFIG
  2
AecDbDispRepConfig
  3
AecBase50|Product Desc: Autodesk Architectural Desktop 2007 |Company: Autodesk,Inc. |WEB Address: www.autodesk.com
 90
      129
280
     0
281
     0
  0
CLASS
  1
AEC_LAYERKEY_STYLE
  2
AecDbLayerKeyStyle
  3
AecBase50|Product Desc: Autodesk Architectural Desktop 2007 |Company: Autodesk,Inc. |WEB Address: www.autodesk.com
 90
    32897
280
     0
281
     0
  0
CLASS
  1
AEC_VARS_ARCHBASE
  2
AecDbVarsArchBase
  3
AecArchBase50|Product Desc: Autodesk Architectural Desktop 2007 |Company: Autodesk,Inc. |WEB Address: www.autodesk.com
 90
      129
280
     0
281
     0
  0
CLASS
  1
BINRECORD
  2
AcAecBinRecord
  3
AecBase50|Product Desc: Autodesk Architectural Desktop 2007 |Company: Autodesk,Inc. |WEB Address: www.autodesk.com
 90
    32897
280
     0
281
     0
  0
CLASS
  1
AEC_VARS_MUNICH
  2
AecDbVarsMunich
  3
AecArchDACHBase50|Product Desc: Autodesk Architectural Desktop 2007 |Company: Autodesk,Inc. |WEB Address: www.autodesk.com
 90
      129
280
     0
281
     0
  0
CLASS
  1
AEC_STAIR_STYLE
  2
AecDbStairStyle
  3
AecArchBase50|Product Desc: Autodesk Architectural Desktop 2007 |Company: Autodesk,Inc. |WEB Address: www.autodesk.com
 90
    32897
280
     0
281
     0
  0
CLASS
  1
AEC_2DSECTION_STYLE
  2
AecDb2dSectionStyle
  3
AecBase50|Product Desc: Autodesk Architectural Desktop 2007 |Company: Autodesk,Inc. |WEB Address: www.autodesk.com
 90
    32897
280
     0
281
     0
  0
CLASS
  1
AEC_DIM_STYLE
  2
AecDbDimensionStyle
  3
AecArchDACHBase50|Product Desc: Autodesk Architectural Desktop 2007 |Company: Autodesk,Inc. |WEB Address: www.autodesk.com
 90
    32897
280
     0
281
     0
  0
CLASS
  1
AEC_LAYOUT_GRID2D
  2
AecDbLayoutGrid2d
  3
AecBase50|Product Desc: Autodesk Architectural Desktop 2007 |Company: Autodesk,Inc. |WEB Address: www.autodesk.com
 90
    33661
280
     0
281
     1
  0
CLASS
  1
AEC_MVBLOCK_DEF
  2
AecDbMvBlockDef
  3
AecBase50|Product Desc: Autodesk Architectural Desktop 2007 |Company: Autodesk,Inc. |WEB Address: www.autodesk.com
 90
      129
280
     0
281
     0
  0
CLASS
  1
AEC_AECDBAREAPROPOSALNAMES
  2
AecDbAreaProposalNames
  3
AecAreaCalculationBase50|Product Desc: Autodesk Architectural Desktop 2007 |Company: Autodesk,Inc. |WEB Address: www.autodesk.com
 90
    32897
280
     0
281
     0
  0
CLASS
  1
AEC_AECDBAREAGROUPSTYLE
  2
AecDbAreaGroupStyle
  3
AecAreaCalculationBase50|Product Desc: Autodesk Architectural Desktop 2007 |Company: Autodesk,Inc. |WEB Address: www.autodesk.com
 90
    32897
280
     0
281
     0
  0
CLASS
  1
AEC_AECDBAREAGROUPDEF
  2
AecDbAreaGroupDef
  3
AecAreaCalculationBase50|Product Desc: Autodesk Architectural Desktop 2007 |Company: Autodesk,Inc. |WEB Address: www.autodesk.com
 90
    32897
280
     0
281
     0
  0
CLASS
  1
AecDbPropertySet
  2
AecDbPropertySet
  3
AecScheduleData50|Product Desc: Autodesk Architectural Desktop 2007 |Company: Autodesk,Inc. |WEB Address: www.autodesk.com
 90
    32897
280
     0
281
     0
  0
CLASS
  1
AEC_TEXT_NOTE
  2
AecDbTextNote
  3
AecBase50|Product Desc: Autodesk Architectural Desktop 2007 |Company: Autodesk,Inc. |WEB Address: www.autodesk.com
 90
    32897
280
     0
281
     0
  0
CLASS
  1
AEC_SCHEDULE_DATA_FORMAT
  2
AecDbScheduleDataFormat
  3
AecScheduleData50|Product Desc: Autodesk Architectural Desktop 2007 |Company: Autodesk,Inc. |WEB Address: www.autodesk.com
 90
    32897
280
     0
281
     0
  0
CLASS
  1
AEC_PROPERTY_SET_DEF
  2
AecDbPropertySetDef
  3
AecScheduleData50|Product Desc: Autodesk Architectural Desktop 2007 |Company: Autodesk,Inc. |WEB Address: www.autodesk.com
 90
    32897
280
     0
281
     0
  0
CLASS
  1
AEC_SCHEDULE_TABLE_STYLE
  2
AecDbScheduleTableStyle
  3
AecSchedule50|Product Desc: Autodesk Architectural Desktop 2007 |Company: Autodesk,Inc. |WEB Address: www.autodesk.com
 90
    32897
280
     0
281
     0
  0
CLASS
  1
AEC_AECDBAREAMODIFIER
  2
AecDbAreaModifier
  3
AecAreaCalculationBase50|Product Desc: Autodesk Architectural Desktop 2007 |Company: Autodesk,Inc. |WEB Address: www.autodesk.com
 90
    32897
280
     0
281
     0
  0
CLASS
  1
AEC_AECDBAREASTYLE
  2
AecDbAreaStyle
  3
AecAreaCalculationBase50|Product Desc: Autodesk Architectural Desktop 2007 |Company: Autodesk,Inc. |WEB Address: www.autodesk.com
 90
    32897
280
     0
281
     0
  0
CLASS
  1
AEC_MATERIAL_DEF
  2
AecDbMaterialDef
  3
AecBase50|Product Desc: Autodesk Architectural Desktop 2007 |Company: Autodesk,Inc. |WEB Address: www.autodesk.com
 90
    32897
280
     0
281
     0
  0
CLASS
  1
AEC_DISP_PROPS_SPACE_BOUNDARY
  2
AecDbDispPropsSpaceBoundary
  3
AecArchBase50|Product Desc: Autodesk Architectural Desktop 2007 |Company: Autodesk,Inc. |WEB Address: www.autodesk.com
 90
    32897
280
     0
281
     0
  0
CLASS
  1
AEC_DISP_PROPS_WALL_MODEL
  2
AecDbDispPropsWallModel
  3
AecArchBase50|Product Desc: Autodesk Architectural Desktop 2007 |Company: Autodesk,Inc. |WEB Address: www.autodesk.com
 90
      129
280
     0
281
     0
  0
CLASS
  1
AEC_BLOCK_REF_PATH_MGR
  2
AecDbBlockRefPathMgr
  3
AecBase40
 90
    32897
280
     0
281
     0
  0
CLASS
  1
AEC_NOTIFICATION_TRACKER
  2
AecDbNotificationTracker
  3
AecBase50|Product Desc: Autodesk Architectural Desktop 2007 |Company: Autodesk,Inc. |WEB Address: www.autodesk.com
 90
    32897
280
     0
281
     0
  0
CLASS
  1
AEC_DISP_REP_EDITINPLACEPROFILE
  2
AecDbDispRepEditInPlaceProfile
  3
AecBase50|Product Desc: Autodesk Architectural Desktop 2007 |Company: Autodesk,Inc. |WEB Address: www.autodesk.com
 90
      129
280
     0
281
     0
  0
CLASS
  1
AEC_DISP_PROPS_EDITINPLACEPROFILE_MODEL
  2
AecDbDispPropsEditInPlaceProfile
  3
AecBase50|Product Desc: Autodesk Architectural Desktop 2007 |Company: Autodesk,Inc. |WEB Address: www.autodesk.com
 90
      129
280
     0
281
     0
  0
CLASS
  1
AEC_DISP_REP_MATERIAL
  2
AecDbDispRepMaterial
  3
AecBase50|Product Desc: Autodesk Architectural Desktop 2007 |Company: Autodesk,Inc. |WEB Address: www.autodesk.com
 90
      129
280
     0
281
     0
  0
CLASS
  1
AEC_DISP_PROPS_MATERIAL
  2
AecDbDispPropsMaterial
  3
AecBase50|Product Desc: Autodesk Architectural Desktop 2007 |Company: Autodesk,Inc. |WEB Address: www.autodesk.com
 90
      129
280
     0
281
     0
  0
CLASS
  1
AEC_DISP_REP_STAIR_PLAN_OVERLAPPING
  2
AecDbDispRepStairPlanOverlapping
  3
AecArchBase50|Product Desc: Autodesk Architectural Desktop 2007 |Company: Autodesk,Inc. |WEB Address: www.autodesk.com
 90
      129
280
     0
281
     0
  0
CLASS
  1
AEC_DISP_PROPS_STAIR_PLAN_OVERLAPPING
  2
AecDbDispPropsStairPlanOverlapping
  3
AecArchBase50|Product Desc: Autodesk Architectural Desktop 2007 |Company: Autodesk,Inc. |WEB Address: www.autodesk.com
 90
      129
280
     0
281
     0
  0
CLASS
  1
AEC_DISP_REP_WINDOWASSEMBLY_SILL_PLAN
  2
AecDbDispRepWindowAssemblySillPlan
  3
AecArchBase50|Product Desc: Autodesk Architectural Desktop 2007 |Company: Autodesk,Inc. |WEB Address: www.autodesk.com
 90
      129
280
     0
281
     0
  0
CLASS
  1
AEC_DISP_PROPS_WINDOW_ASSEMBLY_SILL_PLAN
  2
AecDbDispPropsWindowAssemblySillPlan
  3
AecArchBase50|Product Desc: Autodesk Architectural Desktop 2007 |Company: Autodesk,Inc. |WEB Address: www.autodesk.com
 90
      129
280
     0
281
     0
  0
CLASS
  1
SPATIAL_INDEX
  2
AcDbSpatialIndex
  3
ObjectDBX Classes
 90
        0
280
     0
281
     0
  0
CLASS
  1
AEC_MASS_ELEM_STYLE
  2
AecDbMassElemStyle
  3
AecBaseEx50|Product Desc: Autodesk Architectural Desktop 2007 |Company: Autodesk,Inc. |WEB Address: www.autodesk.com
 90
    32897
280
     0
281
     0
  0
CLASS
  1
MATERIAL
  2
AcDbMaterial
  3
ObjectDBX Classes
 90
     1153
280
     0
281
     0
  0
CLASS
  1
AEC_CURTAIN_WALL_UNIT_STYLE
  2
AecDbCurtainWallUnitStyle
  3
AecArchBase50|Product Desc: Autodesk Architectural Desktop 2007 |Company: Autodesk,Inc. |WEB Address: www.autodesk.com
 90
    32897
280
     0
281
     0
  0
CLASS
  1
AEC_CURTAIN_WALL_LAYOUT_STYLE
  2
AecDbCurtainWallLayoutStyle
  3
AecArchBase50|Product Desc: Autodesk Architectural Desktop 2007 |Company: Autodesk,Inc. |WEB Address: www.autodesk.com
 90
    32897
280
     0
281
     0
  0
CLASS
  1
AEC_DOOR_STYLE
  2
AecDbDoorStyle
  3
AecArchBase50|Product Desc: Autodesk Architectural Desktop 2007 |Company: Autodesk,Inc. |WEB Address: www.autodesk.com
 90
    32897
280
     0
281
     0
  0
CLASS
  1
AEC_WINDOW_STYLE
  2
AecDbWindowStyle
  3
AecArchBase50|Product Desc: Autodesk Architectural Desktop 2007 |Company: Autodesk,Inc. |WEB Address: www.autodesk.com
 90
    32897
280
     0
281
     0
  0
CLASS
  1
AEC_POLYGON_STYLE
  2
AecDbPolygonStyle
  3
AecBaseEx50|Product Desc: Autodesk Architectural Desktop 2007 |Company: Autodesk,Inc. |WEB Address: www.autodesk.com
 90
    32897
280
     0
281
     0
  0
CLASS
  1
AEC_WINDOW_ASSEMBLY_STYLE
  2
AecDbWindowAssemblyStyle
  3
AecArchBase50|Product Desc: Autodesk Architectural Desktop 2007 |Company: Autodesk,Inc. |WEB Address: www.autodesk.com
 90
    32897
280
     0
281
     0
  0
CLASS
  1
AEC_DISP_REP_GRIP_SAMPLER
  2
AecDbDispRepGripSampler
  3
AecTestBase40
 90
    32897
280
     0
281
     0
  0
CLASS
  1
AEC_DISP_ROPS_RAILING_PLAN_50
  2
AecDbDispPropsRailingPlan50
  3
AecArchDACHBase50|Product Desc: Autodesk Architectural Desktop 2007 |Company: Autodesk,Inc. |WEB Address: www.autodesk.com
 90
      129
280
     0
281
     0
  0
CLASS
  1
AEC_STAIR_WINDER_TYPE_BALANCED
  2
AecDbStairWinderTypeBalanced
  3
AecArchBase50|Product Desc: Autodesk Architectural Desktop 2007 |Company: Autodesk,Inc. |WEB Address: www.autodesk.com
 90
    32897
280
     0
281
     0
  0
CLASS
  1
AEC_STAIR_WINDER_TYPE_SINGLE_POINT
  2
AecDbStairWinderTypeSinglePoint
  3
AecArchBase50|Product Desc: Autodesk Architectural Desktop 2007 |Company: Autodesk,Inc. |WEB Address: www.autodesk.com
 90
    32897
280
     0
281
     0
  0
CLASS
  1
AEC_STAIR_WINDER_TYPE_MANUAL
  2
AecDbStairWinderTypeManual
  3
AecArchBase50|Product Desc: Autodesk Architectural Desktop 2007 |Company: Autodesk,Inc. |WEB Address: www.autodesk.com
 90
    32897
280
     0
281
     0
  0
CLASS
  1
AEC_STAIR_WINDER_STYLE
  2
AecDbStairWinderStyle
  3
AecArchBase50|Product Desc: Autodesk Architectural Desktop 2007 |Company: Autodesk,Inc. |WEB Address: www.autodesk.com
 90
    32897
280
     0
281
     0
  0
CLASS
  1
AEC_STAIR
  2
AecDbStair
  3
AecArchBase50|Product Desc: Autodesk Architectural Desktop 2007 |Company: Autodesk,Inc. |WEB Address: www.autodesk.com
 90
    33661
280
     0
281
     1
  0
CLASS
  1
AEC_MASKBLOCK_DEF
  2
AecDbMaskBlockDef
  3
AecBase50|Product Desc: Autodesk Architectural Desktop 2007 |Company: Autodesk,Inc. |WEB Address: www.autodesk.com
 90
    32897
280
     0
281
     0
  0
CLASS
  1
SORTENTSTABLE
  2
AcDbSortentsTable
  3
ObjectDBX Classes
 90
        0
280
     0
281
     0
  0
CLASS
  1
AECS_MEMBER_NODE_SHAPE
  2
AecsDbMemberNodeShape
  3
AecStructureBase50|Product Desc: Autodesk Architectural Desktop 2007 |Company: Autodesk,Inc. |WEB Address: www.autodesk.com
 90
    32897
280
     0
281
     0
  0
CLASS
  1
AECS_MEMBER_STYLE
  2
AecsDbMemberStyle
  3
AecStructureBase50|Product Desc: Autodesk Architectural Desktop 2007 |Company: Autodesk,Inc. |WEB Address: www.autodesk.com
 90
    32897
280
     0
281
     0
  0
CLASS
  1
AECS_MEMBER
  2
AecsDbMember
  3
AecStructureBase50|Product Desc: Autodesk Architectural Desktop 2007 |Company: Autodesk,Inc. |WEB Address: www.autodesk.com
 90
    33661
280
     0
281
     1
  0
CLASS
  1
AEC_MVBLOCK_REF
  2
AecDbMvBlockRef
  3
AecBase50|Product Desc: Autodesk Architectural Desktop 2007 |Company: Autodesk,Inc. |WEB Address: www.autodesk.com
 90
    33661
280
     0
281
     1
  0
CLASS
  1
AEC_VARS_STRUCTUREBASE
  2
AecsDbVarsStructureBase
  3
AecStructureBase50|Product Desc: Autodesk Architectural Desktop 2007 |Company: Autodesk,Inc. |WEB Address: www.autodesk.com
 90
      129
280
     0
281
     0
  0
CLASS
  1
AEC_MASS_ELEM
  2
AecDbMassElem
  3
AecBaseEx50|Product Desc: Autodesk Architectural Desktop 2007 |Company: Autodesk,Inc. |WEB Address: www.autodesk.com
 90
    33661
280
     0
281
     1
  0
CLASS
  1
AEC_WALL
  2
AecDbWall
  3
AecArchBase50|Product Desc: Autodesk Architectural Desktop 2007 |Company: Autodesk,Inc. |WEB Address: www.autodesk.com
 90
    33661
280
     0
281
     1
  0
CLASS
  1
AEC_WINDOW
  2
AecDbWindow
  3
AecArchBase50|Product Desc: Autodesk Architectural Desktop 2007 |Company: Autodesk,Inc. |WEB Address: www.autodesk.com
 90
    33661
280
     0
281
     1
  0
CLASS
  1
AEC_ANCHOR_OPENINGBASE_TO_WALL
  2
AecDbAnchorOpeningBaseToWall
  3
AecArchBase50|Product Desc: Autodesk Architectural Desktop 2007 |Company: Autodesk,Inc. |WEB Address: www.autodesk.com
 90
    32897
280
     0
281
     0
  0
CLASS
  1
AEC_DOOR
  2
AecDbDoor
  3
AecArchBase50|Product Desc: Autodesk Architectural Desktop 2007 |Company: Autodesk,Inc. |WEB Address: www.autodesk.com
 90
    33661
280
     0
281
     1
  0
CLASS
  1
AEC_ANCHOR_TAG_TO_ENT
  2
AecDbAnchorTagToEnt
  3
AecScheduleData50|Product Desc: Autodesk Architectural Desktop 2007 |Company: Autodesk,Inc. |WEB Address: www.autodesk.com
 90
    32897
280
     0
281
     0
  0
CLASS
  1
AEC_OPENING
  2
AecDbOpening
  3
AecArchBase50|Product Desc: Autodesk Architectural Desktop 2007 |Company: Autodesk,Inc. |WEB Address: www.autodesk.com
 90
    33661
280
     0
281
     1
  0
CLASS
  1
AEC_POLYGON
  2
AecDbPolygon
  3
AecBaseEx50|Product Desc: Autodesk Architectural Desktop 2007 |Company: Autodesk,Inc. |WEB Address: www.autodesk.com
 90
    33661
280
     0
281
     1
  0
CLASS
  1
AEC_ROOFSLAB
  2
AecDbRoofSlab
  3
AecArchBase50|Product Desc: Autodesk Architectural Desktop 2007 |Company: Autodesk,Inc. |WEB Address: www.autodesk.com
 90
    33661
280
     0
281
     1
  0
CLASS
  1
AEC_SPACE_BOUNDARY
  2
AecDbSpaceBoundary
  3
AecArchBase50|Product Desc: Autodesk Architectural Desktop 2007 |Company: Autodesk,Inc. |WEB Address: www.autodesk.com
 90
    33661
280
     0
281
     1
  0
CLASS
  1
AEC_SPACE
  2
AecDbSpace
  3
AecArchBase50|Product Desc: Autodesk Architectural Desktop 2007 |Company: Autodesk,Inc. |WEB Address: www.autodesk.com
 90
    33661
280
     0
281
     1
  0
CLASS
  1
AEC_CLASSIFICATION_SYSTEM_DEF
  2
AecDbClassificationSystemDef
  3
AecBase50|Product Desc: Autodesk Architectural Desktop 2007 |Company: Autodesk,Inc. |WEB Address: www.autodesk.com
 90
      129
280
     0
281
     0
  0
CLASS
  1
AEC_CLASSIFICATION_DEF
  2
AecDbClassificationDef
  3
AecBase50|Product Desc: Autodesk Architectural Desktop 2007 |Company: Autodesk,Inc. |WEB Address: www.autodesk.com
 90
      129
280
     0
281
     0
  0
CLASS
  1
AEC_CLEANUP_GROUP_DEF
  2
AecDbCleanupGroupDef
  3
AecArchBase50|Product Desc: Autodesk Architectural Desktop 2007 |Company: Autodesk,Inc. |WEB Address: www.autodesk.com
 90
    32897
280
     0
281
     0
  0
CLASS
  1
AEC_STDSIZE_OPENINGS
  2
AecDbStdSizeOpeningList
  3
AecArchBase50|Product Desc: Autodesk Architectural Desktop 2007 |Company: Autodesk,Inc. |WEB Address: www.autodesk.com
 90
    32897
280
     0
281
     0
  0
CLASS
  1
AEC_ENDCAP_STYLE
  2
AecDbEndcapStyle
  3
AecArchBase50|Product Desc: Autodesk Architectural Desktop 2007 |Company: Autodesk,Inc. |WEB Address: www.autodesk.com
 90
    32897
280
     0
281
     0
  0
CLASS
  1
AEC_FRAME_DEF
  2
AecDbOpeningEndcapStyle
  3
AecArchBase50|Product Desc: Autodesk Architectural Desktop 2007 |Company: Autodesk,Inc. |WEB Address: www.autodesk.com
 90
    32897
280
     0
281
     0
  0
CLASS
  1
AEC_PROFILE_DEF
  2
AecDbProfileDef
  3
AecBase50|Product Desc: Autodesk Architectural Desktop 2007 |Company: Autodesk,Inc. |WEB Address: www.autodesk.com
 90
    32897
280
     0
281
     0
  0
CLASS
  1
AEC_ROOFSLAB_STYLE
  2
AecDbRoofSlabStyle
  3
AecArchBase50|Product Desc: Autodesk Architectural Desktop 2007 |Company: Autodesk,Inc. |WEB Address: www.autodesk.com
 90
    32897
280
     0
281
     0
  0
CLASS
  1
AEC_ROOFSLABEDGE_STYLE
  2
AecDbRoofSlabEdgeStyle
  3
AecArchBase50|Product Desc: Autodesk Architectural Desktop 2007 |Company: Autodesk,Inc. |WEB Address: www.autodesk.com
 90
    32897
280
     0
281
     0
  0
CLASS
  1
AEC_SPACE_STYLES
  2
AecDbSpaceStyle
  3
AecArchBase50|Product Desc: Autodesk Architectural Desktop 2007 |Company: Autodesk,Inc. |WEB Address: www.autodesk.com
 90
    32897
280
     0
281
     0
  0
CLASS
  1
AEC_WALL_STYLE
  2
AecDbWallStyle
  3
AecArchBase50|Product Desc: Autodesk Architectural Desktop 2007 |Company: Autodesk,Inc. |WEB Address: www.autodesk.com
 90
    32897
280
     0
281
     0
  0
CLASS
  1
AEC_DIMENSION_GROUP
  2
AecDbDimensionGroup
  3
AecArchDACHBase50|Product Desc: Autodesk Architectural Desktop 2007 |Company: Autodesk,Inc. |WEB Address: www.autodesk.com
 90
    33661
280
     0
281
     1
  0
CLASS
  1
AEC_ANCHOR_TO_N_REF
  2
AecDbAnchorToNRef
  3
AecArchDACHBase50|Product Desc: Autodesk Architectural Desktop 2007 |Company: Autodesk,Inc. |WEB Address: www.autodesk.com
 90
    32897
280
     0
281
     0
  0
CLASS
  1
AEC_SLAB
  2
AecDbSlab
  3
AecArchBase50|Product Desc: Autodesk Architectural Desktop 2007 |Company: Autodesk,Inc. |WEB Address: www.autodesk.com
 90
    33661
280
     0
281
     1
  0
CLASS
  1
AEC_SLAB_STYLE
  2
AecDbSlabStyle
  3
AecArchBase50|Product Desc: Autodesk Architectural Desktop 2007 |Company: Autodesk,Inc. |WEB Address: www.autodesk.com
 90
    32897
280
     0
281
     0
  0
CLASS
  1
AEC_SLABEDGE_STYLE
  2
AecDbSlabEdgeStyle
  3
AecArchBase50|Product Desc: Autodesk Architectural Desktop 2007 |Company: Autodesk,Inc. |WEB Address: www.autodesk.com
 90
    32897
280
     0
281
     0
  0
CLASS
  1
RTEXT
  2
RText
  3
RText|AutoCAD Express Tool|expresstools@autodesk.com
 90
     3071
280
     0
281
     1
  0
CLASS
  1
ABAD_DB_WINROOF_DISPREP
  2
AbAdDbWinRoofDispRep
  3
AbAdDbWinRoof|Custom Application
 90
        1
280
     0
281
     0
  0
CLASS
  1
AB_AD_DISP_PROPS_WINROOF
  2
AbAdDbWinRoofDispProp
  3
AbAdDbWinRoof|Custom Application
 90
        1
280
     0
281
     0
  0
CLASS
  1
ABAD_DB_WINROOF_DISPREP_DRAWINGROOF
  2
AbAdDbWinRoofDispRepDrawingRoof
  3
AbAdDbWinRoof|Custom Application
 90
        1
280
     0
281
     0
  0
CLASS
  1
AB_AD_DISP_PROPS_WINROOF_DRAWINGROOF
  2
AbAdDbWinRoofDispPropDrawingRoof
  3
AbAdDbWinRoof|Custom Application
 90
        1
280
     0
281
     0
  0
CLASS
  1
ABAD_DB_WINROOF_DISPREP_PLAN
  2
AbAdDbWinRoofDispRepPlan
  3
AbAdDbWinRoof|Custom Application
 90
        1
280
     0
281
     0
  0
CLASS
  1
AB_AD_DISP_PROPS_WINROOF_PLAN
  2
AbAdDbWinRoofDispPropPlan
  3
AbAdDbWinRoof|Custom Application
 90
        1
280
     0
281
     0
  0
CLASS
  1
ABAD_PLATEOPENING_DISPREP_DESC
  2
AbAdOpeningPlateRepDesc
  3
AbAdPlateDbx|Custom Application
 90
        1
280
     0
281
     0
  0
CLASS
  1
ABAD_PLATEOPENING_DISPPROPS_DESC
  2
AbAdOpeningPlatePropsDesc
  3
AbAdPlateDbx|Custom Application
 90
        1
280
     0
281
     0
  0
CLASS
  1
ABAD_PLATEOPENING_DISPREP_MODEL
  2
AbAdOpeningPlateRepModel
  3
AbAdPlateDbx|Custom Application
 90
        1
280
     0
281
     0
  0
CLASS
  1
ABAD_PLATEOPENING_DISPPROPS_MODEL
  2
AbAdOpeningPlatePropsModel
  3
AbAdPlateDbx|Custom Application
 90
        1
280
     0
281
     0
  0
CLASS
  1
ABAD_PLATEOPENING_DISPREP_PLAN
  2
AbAdOpeningPlateRepPlan
  3
AbAdPlateDbx|Custom Application
 90
        1
280
     0
281
     0
  0
CLASS
  1
ABAD_PLATEOPENING_DISPPROPS_PLAN
  2
AbAdOpeningPlatePropsPlan
  3
AbAdPlateDbx|Custom Application
 90
        1
280
     0
281
     0
  0
CLASS
  1
ABAD_PLATEOPENING_DISPREP_SIMPLE
  2
AbAdOpeningPlateRepSimple
  3
AbAdPlateDbx|Custom Application
 90
        1
280
     0
281
     0
  0
CLASS
  1
ABAD_PLATEOPENING_DISPPROPS_SIMPLE
  2
AbAdOpeningPlatePropsSimple
  3
AbAdPlateDbx|Custom Application
 90
        1
280
     0
281
     0
  0
CLASS
  1
ABAD_PLATE_DISPREPPLAN
  2
AbAdPlateDispRepPlan
  3
AbAdPlateDbx|Custom Application
 90
        1
280
     0
281
     0
  0
CLASS
  1
ABAD_PLATE_DISPPROPS_PLAN
  2
AbAdPlateDispPropsPlan
  3
AbAdPlateDbx|Custom Application
 90
        1
280
     0
281
     0
  0
CLASS
  1
ABAD_PLATE_DISPREPCEILING
  2
AbAdPlateDispRepCeiling
  3
AbAdPlateDbx|Custom Application
 90
        1
280
     0
281
     0
  0
CLASS
  1
ABAD_PLATE_DISPREPMODEL
  2
AbAdPlateDispRepModel
  3
AbAdPlateDbx|Custom Application
 90
        1
280
     0
281
     0
  0
CLASS
  1
ABAD_PLATE_DISPPROPS_BASE
  2
AbAdPlateDispPropsBase
  3
AbAdPlateDbx|Custom Application
 90
        1
280
     0
281
     0
  0
CLASS
  1
ABAD_ROOF_OUTLINE_DISPREP
  2
AbAdRoofOutlineDispRep
  3
AbAdRoofDispRep|Custom Application
 90
        1
280
     0
281
     0
  0
CLASS
  1
ABAD_ROOF_OUTLINE_DISP_PROP
  2
AbAdRoofOutlineDispProp
  3
AbAdRoofDispRep|Custom Application
 90
        1
280
     0
281
     0
  0
CLASS
  1
ABAD_ROOF_PLANLOFT_DISPREP
  2
AbAdRoofPlanLoftDispRep
  3
AbAdRoofDispRep|Custom Application
 90
        1
280
     0
281
     0
  0
CLASS
  1
ABAD_ROOF_PLANLOFT_DISPROP
  2
AbAdRoofPlanLoftDispProp
  3
AbAdRoofDispRep|Custom Application
 90
        1
280
     0
281
     0
  0
CLASS
  1
ABAD_STAIR_DESC_DISPREP
  2
AbAdStairDesDispRep
  3
AbAdStairDispRep|Custom Application
 90
        1
280
     0
281
     0
  0
CLASS
  1
ADCG_STAIR_DESC_DISPROP
  2
AbAdStairDesDispProp
  3
AbAdStairDispRep|Custom Application
 90
        1
280
     0
281
     0
  0
CLASS
  1
ABAD_STAIR_DISP_REP
  2
AbAdStairDispRep
  3
AbAdStairDispRep|Custom Application
 90
        1
280
     0
281
     0
  0
CLASS
  1
ABAD_STAIR_DISP_PROP
  2
AbAdStairDispProp
  3
AbAdStairDispRep|Custom Application
 90
        1
280
     0
281
     0
  0
CLASS
  1
ABAD_WALL_DISP_REP
  2
AbAdWallDispRep
  3
AbAdWallDispRep|Custom Application
 90
        1
280
     0
281
     0
  0
CLASS
  1
ABAD_WINDOW_DISP_REP
  2
AbAdWindowDispRep
  3
AbAdWindowDispRep|Custom Application
 90
        1
280
     0
281
     0
  0
CLASS
  1
ABAD_WINDOW_DISP_PROP
  2
AbAdWindowDispProp
  3
AbAdWindowDispRep|Custom Application
 90
        1
280
     0
281
     0
  0
CLASS
  1
ABAD_DB_DISPREP_ROOF_HATCH
  2
AbAdDbDispRepRoofHatch
  3
AbAdDbWinRoof|Custom Application
 90
        1
280
     0
281
     0
  0
CLASS
  1
ABAD_DB_DISPPROP_ROOF_HATCH
  2
AbAdDbDispPropsRoofHatch
  3
AbAdDbWinRoof|Custom Application
 90
        1
280
     0
281
     0
  0
CLASS
  1
ABAD_DB_DISPREP_ROOFSLAB_HATCH
  2
AbAdDbDispRepRoofSlabHatch
  3
AbAdDbWinRoof|Custom Application
 90
        1
280
     0
281
     0
  0
CLASS
  1
ABAD_WIN_PANELS_ELEVATION_DISPREP
  2
AbAdDispRepWinPanelsElev
  3
AbAdWinDoorPanelsDbx|Custom Application
 90
        1
280
     0
281
     0
  0
CLASS
  1
ABAD_WIN_PANELS_DISPPROP
  2
AbAdDispPropWinPanels
  3
AbAdWinDoorPanelsDbx|Custom Application
 90
        1
280
     0
281
     0
  0
CLASS
  1
ABAD_WIN_PANELS_DISPREP
  2
AbAdDispRepWinPanels
  3
AbAdWinDoorPanelsDbx|Custom Application
 90
        1
280
     0
281
     0
  0
CLASS
  1
ABAD_DOOR_DISP_REP
  2
AbAdDoorDispRep
  3
AbAdDoorDispRep|Custom Application
 90
        1
280
     0
281
     0
  0
CLASS
  1
ABAD_DOOR_DISP_PROP
  2
AbAdDoorDispProp
  3
AbAdDoorDispRep|Custom Application
 90
        1
280
     0
281
     0
  0
CLASS
  1
ABAD_DOOR_THRESHOLD_DISP_REP
  2
AbAdThresholdDispRep
  3
AbAdDoorDispRep|Custom Application
 90
        1
280
     0
281
     0
  0
CLASS
  1
ABAD_DOOR_THRESHOLD_DISP_PROP
  2
AbAdThresholdDispProps
  3
AbAdDoorDispRep|Custom Application
 90
        1
280
     0
281
     0
  0
CLASS
  1
ABAD_ISOLATION_DISPREP
  2
AbAdIsolationDispRep
  3
AbAdIsolationDbx|Custom Application
 90
        1
280
     0
281
     0
  0
CLASS
  1
ABAD_ISOLATION_DISPPROPS
  2
AbAdIsolationDispProps
  3
AbAdIsolationDbx|Custom Application
 90
        1
280
     0
281
     0
  0
CLASS
  1
PLOTSETTINGS
  2
AcDbPlotSettings
  3
ObjectDBX Classes
 90
        0
280
     0
281
     0
  0
CLASS
  1
AEC_AREA
  2
AecDbArea
  3
AecAreaCalculationBase50|Product Desc: Autodesk Architectural Desktop 2007 |Company: Autodesk,Inc. |WEB Address: www.autodesk.com
 90
    33661
280
     0
281
     1
  0
CLASS
  1
AEC_SCHEDULE_TABLE
  2
AecDbScheduleTable
  3
AecSchedule50|Product Desc: Autodesk Architectural Desktop 2007 |Company: Autodesk,Inc. |WEB Address: www.autodesk.com
 90
    33661
280
     0
281
     1
  0
CLASS
  1
DIMASSOC
  2
AcDbDimAssoc
  3
"AcDbDimAssoc|Product Desc:     AcDim ARX App For Dimension|Company:          Autodesk, Inc.|WEB Address:      www.autodesk.com"
 90
        0
280
     0
281
     0
  0
CLASS
  1
AEC_ANCHOR_MVB_TO_UCS
  2
AecDbAnchorMVBToUCS
  3
AecBase50|Product Desc: Autodesk Architectural Desktop 2007 |Company: Autodesk,Inc. |WEB Address: www.autodesk.com
 90
    32897
280
     0
281
     0
  0
CLASS
  1
VISUALSTYLE
  2
AcDbVisualStyle
  3
ObjectDBX Classes
 90
     4095
280
     0
281
     0
  0
CLASS
  1
TABLESTYLE
  2
AcDbTableStyle
  3
ObjectDBX Classes
 90
     4095
280
     0
281
     0
  0
CLASS
  1
SCALE
  2
AcDbScale
  3
ObjectDBX Classes
 90
     1153
280
     0
281
     0
  0
CLASS
  1
MLEADERSTYLE
  2
AcDbMLeaderStyle
  3
ACDB_MLEADERSTYLE_CLASS
 90
     4095
280
     0
281
     0
  0
CLASS
  1
NPOCOLLECTION
  2
AcDbImpNonPersistentObjectsCollection
  3
ObjectDBX Classes
 90
     1153
280
     0
281
     0
  0
CLASS
  1
AEC_DISP_REP_DISPLAYTHEME
  2
AecDbDispRepDisplayTheme
  3
AecBase50|Product Desc: Autodesk Architectural Desktop 2007 |Company: Autodesk,Inc. |WEB Address: www.autodesk.com
 90
      129
280
     0
281
     0
  0
CLASS
  1
AEC_DISP_PROPS_DISPLAYTHEME
  2
AecDbDispPropsDisplayTheme
  3
AecBase50|Product Desc: Autodesk Architectural Desktop 2007 |Company: Autodesk,Inc. |WEB Address: www.autodesk.com
 90
      129
280
     0
281
     0
  0
CLASS
  1
AEC_DISP_REP_ANCHOR_EXT_TAG_TO_ENT
  2
AecDbDispRepAnchorExtendedTagToEnt
  3
AecScheduleData50|Product Desc: Autodesk Architectural Desktop 2007 |Company: Autodesk,Inc. |WEB Address: www.autodesk.com
 90
      129
280
     0
281
     0
  0
CLASS
  1
AEC_DISP_REP_SPACE_DECOMPOSED
  2
AecDbDispRepSpaceDecomposed
  3
AecArchBase50|Product Desc: Autodesk Architectural Desktop 2007 |Company: Autodesk,Inc. |WEB Address: www.autodesk.com
 90
      129
280
     0
281
     0
  0
CLASS
  1
AEC_DISP_PROPS_SPACE_DECOMPOSED
  2
AecDbDispPropsSpaceDecomposed
  3
AecArchBase50|Product Desc: Autodesk Architectural Desktop 2007 |Company: Autodesk,Inc. |WEB Address: www.autodesk.com
 90
      129
280
     0
281
     0
  0
CLASS
  1
AEC_DISP_REP_ZONE
  2
AecDbDispRepZone
  3
AecArchBase50|Product Desc: Autodesk Architectural Desktop 2007 |Company: Autodesk,Inc. |WEB Address: www.autodesk.com
 90
      129
280
     0
281
     0
  0
CLASS
  1
AEC_DISP_PROPS_ZONE
  2
AecDbDispPropsZone
  3
AecArchBase50|Product Desc: Autodesk Architectural Desktop 2007 |Company: Autodesk,Inc. |WEB Address: www.autodesk.com
 90
      129
280
     0
281
     0
  0
CLASS
  1
AEC_AECDBDISPREPZONE100
  2
AecDbDispRepZonePlan100
  3
AecArchDACHBase50|Product Desc: Autodesk Architectural Desktop 2007 |Company: Autodesk,Inc. |WEB Address: www.autodesk.com
 90
      129
280
     0
281
     0
  0
CLASS
  1
AEC_AECDBDISPREPZONE50
  2
AecDbDispRepZonePlan50
  3
AecArchDACHBase50|Product Desc: Autodesk Architectural Desktop 2007 |Company: Autodesk,Inc. |WEB Address: www.autodesk.com
 90
      129
280
     0
281
     0
  0
CLASS
  1
CELLSTYLEMAP
  2
AcDbCellStyleMap
  3
ObjectDBX Classes
 90
     1152
280
     0
281
     0
  0
CLASS
  1
AEC_REFEDIT_STATUS_TRACKER
  2
AecDbRefEditStatusTracker
  3
AecArchBase50|Product Desc: Autodesk Architectural Desktop 2007 |Company: Autodesk,Inc. |WEB Address: www.autodesk.com
 90
    32897
280
     0
281
     0
  0
CLASS
  1
EXACXREFPANELOBJECT
  2
ExAcXREFPanelObject
  3
EXAC_ESW
 90
     1025
280
     0
281
     0
  0
ENDSEC
  0
SECTION
  2
TABLES
  0
TABLE
  2
VPORT
  5
8
330
0
100
AcDbSymbolTable
 70
     1
  0
VPORT
  5
7878
330
8
100
AcDbSymbolTableRecord
100
AcDbViewportTableRecord
  2
*Active
 70
     0
 10
0.0
 20
0.0
 11
1.0
 21
1.0
 12
714.2900322095128
 22
-3454.698911448446
 13
0.0
 23
0.0
 14
1.0
 24
1.0
 15
3000.0
 25
3000.0
 16
0.0
 26
0.0
 36
1.0
 17
1608.303794464266
 27
1165.163023589292
 37
-212.0035039576694
 40
96805.22143191218
 41
2.175853018372703
 42
50.0
 43
0.0
 44
0.0
 50
0.0
 51
0.0
 71
     0
 72
 20000
 73
     1
 74
     1
 75
     0
 76
     0
 77
     0
 78
     0
281
     0
 65
     1
110
0.0
120
0.0
130
0.0
111
1.0
121
0.0
131
0.0
112
0.0
122
1.0
132
0.0
 79
     0
146
0.0
  0
ENDTAB
  0
TABLE
  2
LTYPE
  5
5
330
0
100
AcDbSymbolTable
 70
     7
  0
LTYPE
  5
14
330
5
100
AcDbSymbolTableRecord
100
AcDbLinetypeTableRecord
  2
ByBlock
 70
     0
  3

 72
    65
 73
     0
 40
0.0
  0
LTYPE
  5
15
330
5
100
AcDbSymbolTableRecord
100
AcDbLinetypeTableRecord
  2
ByLayer
 70
     0
  3

 72
    65
 73
     0
 40
0.0
  0
LTYPE
  5
16
330
5
100
AcDbSymbolTableRecord
100
AcDbLinetypeTableRecord
  2
Continuous
 70
     0
  3
Solid line
 72
    65
 73
     0
 40
0.0
  0
LTYPE
  5
26E
330
5
100
AcDbSymbolTableRecord
100
AcDbLinetypeTableRecord
  2
HIDDEN2
 70
     0
  3
Hidden (.5x) _ _ _ _ _ _ _ _ _ _ _ _ _ _ _ _ _
 72
    65
 73
     2
 40
0.1875
 49
0.125
 74
     0
 49
-0.0625
 74
     0
  0
LTYPE
  5
1BEC
330
5
100
AcDbSymbolTableRecord
100
AcDbLinetypeTableRecord
  2
DASHED
 70
     0
  3
Dashed __ __ __ __ __ __ __ __ __ __ __ __ __ _
 72
    65
 73
     2
 40
0.75
 49
0.5
 74
     0
 49
-0.25
 74
     0
  0
LTYPE
  5
279B
330
5
100
AcDbSymbolTableRecord
100
AcDbLinetypeTableRecord
  2
DIVIDE2
 70
     0
  3
Divide (.5x) __..__..__..__..__..__..__..__.._
 72
    65
 73
     6
 40
15.875
 49
6.349999999999999
 74
     0
 49
-3.174999999999999
 74
     0
 49
0.0
 74
     0
 49
-3.174999999999999
 74
     0
 49
0.0
 74
     0
 49
-3.174999999999999
 74
     0
  0
LTYPE
  5
27C3
330
5
100
AcDbSymbolTableRecord
100
AcDbLinetypeTableRecord
  2
DIVIDE
 70
     0
  3
Divide ____ . . ____ . . ____ . . ____ . . ____
 72
    65
 73
     6
 40
31.75
 49
12.7
 74
     0
 49
-6.349999999999999
 74
     0
 49
0.0
 74
     0
 49
-6.349999999999999
 74
     0
 49
0.0
 74
     0
 49
-6.349999999999999
 74
     0
  0
LTYPE
  5
4315
330
5
100
AcDbSymbolTableRecord
100
AcDbLinetypeTableRecord
  2
PHANTOM2
 70
     0
  3
Phantom (.5x) ___ _ _ ___ _ _ ___ _ _ ___ _ _
 72
    65
 73
     6
 40
1.25
 49
0.625
 74
     0
 49
-0.125
 74
     0
 49
0.125
 74
     0
 49
-0.125
 74
     0
 49
0.125
 74
     0
 49
-0.125
 74
     0
  0
LTYPE
  5
48E9
330
5
100
AcDbSymbolTableRecord
100
AcDbLinetypeTableRecord
  2
CENTER2
 70
     0
  3
Center (.5x) ___ _ ___ _ ___ _ ___ _ ___ _ ___
 72
    65
 73
     4
 40
1.125
 49
0.75
 74
     0
 49
-0.125
 74
     0
 49
0.125
 74
     0
 49
-0.125
 74
     0
  0
ENDTAB
  0
TABLE
  2
LAYER
  5
2
102
{ACAD_XDICTIONARY
360
91F
102
}
330
0
100
AcDbSymbolTable
 70
     9
  0
LAYER
  5
10
102
{ACAD_XDICTIONARY
360
78DC
102
}
330
2
100
AcDbSymbolTableRecord
100
AcDbLayerTableRecord
  2
0
 70
     0
 62
     7
  6
Continuous
370
    -3
390
F
1001
AcAecLayerStandard
1000

1001
RAK
1000
{ACET-LAYISO
1070
     0
1070
     7
1000
Continuous
1070
     1
1071
       -3
1071
        1
1005
F
1000
ACET-LAYISO}
  0
LAYER
  5
D21
330
2
100
AcDbSymbolTableRecord
100
AcDbLayerTableRecord
  2
Defpoints
 70
     0
 62
     7
  6
Continuous
290
     0
370
    -3
390
F
1001
AcAecLayerStandard
1000

1000
Default Non-Plotting Layer
1001
RAK
1000
{ACET-LAYISO
1070
     1
1070
     7
1000
Continuous
1071
       -3
1071
        0
1005
F
1000
ACET-LAYISO}
  0
LAYER
  5
2269
102
{ACAD_XDICTIONARY
360
78EC
102
}
330
2
100
AcDbSymbolTableRecord
100
AcDbLayerTableRecord
  2
A-Vports
 70
     0
 62
   252
  6
Continuous
290
     0
370
    -3
390
F
1001
RAK
1000
{ACET-LAYISO
1070
     0
1070
   252
1000
Continuous
1071
       -3
1071
        0
1005
F
1000
ACET-LAYISO}
  0
LAYER
  5
226A
102
{ACAD_XDICTIONARY
360
78EE
102
}
330
2
100
AcDbSymbolTableRecord
100
AcDbLayerTableRecord
  2
A-Annotation-T
 70
     0
 62
   140
  6
Continuous
370
    15
390
F
1001
AcAecLayerStandard
1000
1m1_ARCHON
1000
Architects, Annotation (general), Text
1001
RAK
1000
{ACET-LAYISO
1070
     0
1070
   140
1000
Continuous
1071
       15
1071
        1
1005
F
1000
ACET-LAYISO}
  0
LAYER
  5
35AC
102
{ACAD_XDICTIONARY
360
790A
102
}
330
2
100
AcDbSymbolTableRecord
100
AcDbLayerTableRecord
  2
A-SchedObject-G
 70
     0
 62
   171
  6
Continuous
370
     9
390
F
1001
RAK
1000
{ACET-LAYISO
1070
     0
1070
   171
1000
Continuous
1071
        9
1071
        1
1005
F
1000
ACET-LAYISO}
  0
LAYER
  5
48EA
102
{ACAD_XDICTIONARY
360
7928
102
}
330
2
100
AcDbSymbolTableRecord
100
AcDbLayerTableRecord
  2
G-Anno-Nplt
 70
     0
 62
   140
  6
Continuous
290
     0
370
    18
390
F
1001
AcAecLayerStandard
1000
NCSv2
  0
LAYER
  5
640B
102
{ACAD_XDICTIONARY
360
7930
102
}
330
2
100
AcDbSymbolTableRecord
100
AcDbLayerTableRecord
  2
NAPISY
 70
     0
 62
   140
  6
Continuous
370
    -3
390
F
1001
RAK
1000
{ACET-LAYISO
1070
     0
1070
   140
1000
CONTINUOUS
1071
       -3
1071
        1
1005
F
1000
ACET-LAYISO}
  0
LAYER
  5
6F4E
102
{ACAD_XDICTIONARY
360
7936
102
}
330
2
100
AcDbSymbolTableRecord
100
AcDbLayerTableRecord
  2
RAMKI-A4
 70
     0
 62
     2
  6
Continuous
290
     0
370
    -3
390
F
1001
RAK
1000
{ACET-LAYISO
1070
     0
1070
     2
1000
CONTINUOUS
1071
       -3
1071
        0
1005
F
1000
ACET-LAYISO}
  0
LAYER
  5
79BD
330
2
100
AcDbSymbolTableRecord
100
AcDbLayerTableRecord
  2
0Wymiary-PL
 70
     0
 62
     1
  6
Continuous
370
     5
390
F
  0
ENDTAB
  0
TABLE
  2
STYLE
  5
3
330
0
100
AcDbSymbolTable
 70
     6
  0
STYLE
  5
11
330
3
100
AcDbSymbolTableRecord
100
AcDbTextStyleTableRecord
  2
Standard
 70
     0
 40
0.0
 41
1.0
 50
0.0
 71
     0
 42
0.2
  3
txt
  4

  0
STYLE
  5
338
330
3
100
AcDbSymbolTableRecord
100
AcDbTextStyleTableRecord
  2
RomanS
 70
     0
 40
0.0
 41
1.0
 50
0.0
 71
     0
 42
0.3
  3
romans.shx
  4

  0
STYLE
  5
226F
330
3
100
AcDbSymbolTableRecord
100
AcDbTextStyleTableRecord
  2
ARIAL-CE
 70
     0
 40
0.0
 41
1.0
 50
0.0
 71
     0
 42
16.0
  3
ARIAL.TTF
  4

1001
ACAD
1000
Arial CE
1071
    60962
  0
STYLE
  5
48ED
330
3
100
AcDbSymbolTableRecord
100
AcDbTextStyleTableRecord
  2
Arch-Dim
 70
     0
 40
0.0
 41
0.75
 50
0.0
 71
     0
 42
0.7
  3
romans.shx
  4

  0
STYLE
  5
640C
330
3
100
AcDbSymbolTableRecord
100
AcDbTextStyleTableRecord
  2
ARIAL
 70
     0
 40
0.0
 41
1.0
 50
0.0
 71
     0
 42
30.0
  3
ARIAL.TTF
  4

1001
ACAD
1000
Arial CE
1071
    60962
  0
STYLE
  5
6F51
330
3
100
AcDbSymbolTableRecord
100
AcDbTextStyleTableRecord
  2
AVA
 70
     0
 40
0.0
 41
1.0
 50
0.0
 71
     0
 42
15.0
  3

  4

1001
ACAD
1000
Avalon
1071
        2
  0
ENDTAB
  0
TABLE
  2
VIEW
  5
6
330
0
100
AcDbSymbolTable
 70
     0
  0
ENDTAB
  0
TABLE
  2
UCS
  5
7
330
0
100
AcDbSymbolTable
 70
     0
  0
ENDTAB
  0
TABLE
  2
APPID
  5
9
330
0
100
AcDbSymbolTable
 70
    28
  0
APPID
  5
12
330
9
100
AcDbSymbolTableRecord
100
AcDbRegAppTableRecord
  2
ACAD
 70
     0
  0
APPID
  5
49
330
9
100
AcDbSymbolTableRecord
100
AcDbRegAppTableRecord
  2
ADCADD_ZZ
 70
     0
  0
APPID
  5
4A
330
9
100
AcDbSymbolTableRecord
100
AcDbRegAppTableRecord
  2
SDSK_PMN
 70
     0
  0
APPID
  5
196
330
9
100
AcDbSymbolTableRecord
100
AcDbRegAppTableRecord
  2
AECBASE
 70
     0
  0
APPID
  5
197
330
9
100
AcDbSymbolTableRecord
100
AcDbRegAppTableRecord
  2
AEC_DWGVARSSETUP_DATA
 70
     0
  0
APPID
  5
198
330
9
100
AcDbSymbolTableRecord
100
AcDbRegAppTableRecord
  2
AEC_DISPREPCONFIG_DATA
 70
     0
  0
APPID
  5
199
330
9
100
AcDbSymbolTableRecord
100
AcDbRegAppTableRecord
  2
AEC_DISPREPSET_DATA
 70
     0
  0
APPID
  5
221
330
9
100
AcDbSymbolTableRecord
100
AcDbRegAppTableRecord
  2
AcAecLayerStandard
 70
     0
  0
APPID
  5
CE2
330
9
100
AcDbSymbolTableRecord
100
AcDbRegAppTableRecord
  2
AEC_TEXTNOTE_DATA
 70
     0
  0
APPID
  5
ECC
330
9
100
AcDbSymbolTableRecord
100
AcDbRegAppTableRecord
  2
AEC_URLDATA
 70
     0
  0
APPID
  5
1326
330
9
100
AcDbSymbolTableRecord
100
AcDbRegAppTableRecord
  2
AVE_RENDER
 70
     0
  0
APPID
  5
1327
330
9
100
AcDbSymbolTableRecord
100
AcDbRegAppTableRecord
  2
AVE_ENTITY_MATERIAL
 70
     0
  0
APPID
  5
1334
330
9
100
AcDbSymbolTableRecord
100
AcDbRegAppTableRecord
  2
AVE_FINISH
 70
     0
  0
APPID
  5
1335
330
9
100
AcDbSymbolTableRecord
100
AcDbRegAppTableRecord
  2
AVE_MATERIAL
 70
     0
  0
APPID
  5
1336
330
9
100
AcDbSymbolTableRecord
100
AcDbRegAppTableRecord
  2
AVE_GLOBAL
 70
     0
  0
APPID
  5
1799
330
9
100
AcDbSymbolTableRecord
100
AcDbRegAppTableRecord
  2
ADCADD_MATERIAL
 70
     0
  0
APPID
  5
179A
330
9
100
AcDbSymbolTableRecord
100
AcDbRegAppTableRecord
  2
ADCADD_KEYNOTES
 70
     0
  0
APPID
  5
1A6A
330
9
100
AcDbSymbolTableRecord
100
AcDbRegAppTableRecord
  2
RAK
 70
     0
  0
APPID
  5
1EED
330
9
100
AcDbSymbolTableRecord
100
AcDbRegAppTableRecord
  2
ACCURENDER3
 70
     0
  0
APPID
  5
2415
330
9
100
AcDbSymbolTableRecord
100
AcDbRegAppTableRecord
  2
AECGUIBASE
 70
     0
  0
APPID
  5
28CC
330
9
100
AcDbSymbolTableRecord
100
AcDbRegAppTableRecord
  2
DCO15
 70
     0
  0
APPID
  5
36BC
330
9
100
AcDbSymbolTableRecord
100
AcDbRegAppTableRecord
  2
PE_URL
 70
     0
  0
APPID
  5
36BD
330
9
100
AcDbSymbolTableRecord
100
AcDbRegAppTableRecord
  2
ACAD_PSEXT
 70
     0
  0
APPID
  5
36BE
330
9
100
AcDbSymbolTableRecord
100
AcDbRegAppTableRecord
  2
AcDbAttr
 70
     0
  0
APPID
  5
78BD
330
9
100
AcDbSymbolTableRecord
100
AcDbRegAppTableRecord
  2
ACAD_MLEADERVER
 70
     0
  0
APPID
  5
78CA
330
9
100
AcDbSymbolTableRecord
100
AcDbRegAppTableRecord
  2
ACAD_EXEMPT_FROM_CAD_STANDARDS
 70
     0
  0
APPID
  5
78CB
330
9
100
AcDbSymbolTableRecord
100
AcDbRegAppTableRecord
  2
AEC_XDATA_BOUND_SPACE
 70
     0
  0
APPID
  5
7AEF
330
9
100
AcDbSymbolTableRecord
100
AcDbRegAppTableRecord
  2
AcLayerTools
 70
     0
  0
ENDTAB
  0
TABLE
  2
DIMSTYLE
  5
A
330
0
100
AcDbSymbolTable
 70
     5
100
AcDbDimStyleTable
 71
     1
340
6411
  0
DIMSTYLE
105
48EF
330
A
100
AcDbSymbolTableRecord
100
AcDbDimStyleTableRecord
  2
Standard
 70
     0
340
11
  0
DIMSTYLE
105
48F0
330
A
100
AcDbSymbolTableRecord
100
AcDbDimStyleTableRecord
  2
Aec-Arch-M-100
 70
     0
 40
100.0
 41
1.5
 42
0.15
 43
9.5
 44
0.15
 73
     0
 74
     0
 77
     1
 78
     3
 79
     2
140
0.25
141
2.5
146
0.75
147
0.08
172
     1
174
     1
179
     2
271
     0
272
     0
279
     2
289
     2
340
48ED
342
489E
  0
DIMSTYLE
105
48F1
330
A
100
AcDbSymbolTableRecord
100
AcDbDimStyleTableRecord
  2
Aec_Stair_M
 70
     0
 40
100.0
 41
2.5
 42
0.625
 43
3.75
 44
1.25
 73
     0
 74
     0
 77
     1
 78
     8
140
2.5
141
2.5
143
0.03937007874016
147
0.625
171
     3
172
     1
173
     1
271
     2
272
     2
274
     3
278
    44
283
     0
284
     8
340
11
341
48A8
343
48A8
344
48A2
  0
DIMSTYLE
105
6411
102
{ACAD_REACTORS
330
7E71
330
7E85
330
7F12
330
7F15
102
}
330
A
100
AcDbSymbolTableRecord
100
AcDbDimStyleTableRecord
  2
500
 70
     0
 41
30.0
 42
43.0
 43
0.0
 44
13.0
 45
0.5
 46
12.0
 73
     0
 74
     0
 75
     1
 76
     1
 78
    12
140
80.0
141
0.0
145
1.0
147
0.0
172
     1
174
     1
176
     1
177
     1
178
    10
271
     1
272
     1
279
     2
340
338
341
1A8A
342
1A8A
  0
ENDTAB
  0
TABLE
  2
BLOCK_RECORD
  5
1
330
0
100
AcDbSymbolTable
 70
    15
  0
BLOCK_RECORD
  5
1F
102
{ACAD_XDICTIONARY
360
DE5
102
}
330
1
100
AcDbSymbolTableRecord
100
AcDbBlockTableRecord
  2
*Model_Space
340
22
  0
BLOCK_RECORD
  5
2286
102
{ACAD_XDICTIONARY
360
239E
102
}
330
1
100
AcDbSymbolTableRecord
100
AcDbBlockTableRecord
  2
*Paper_Space
340
2285
  0
BLOCK_RECORD
  5
1A8A
102
{ACAD_XDICTIONARY
360
1A8B
102
}
330
1
100
AcDbSymbolTableRecord
100
AcDbBlockTableRecord
  2
B-DIM
340
0
310
2800000020000000200000000100080000000000000400000000000000000000000000000000000000000000000080000080000000808000800000008000800080800000C0C0C000C0DCC000F0CAA6000020400000206000002080000020A0000020C0000020E00000400000004020000040400000406000004080000040A0
310
000040C0000040E00000600000006020000060400000606000006080000060A0000060C0000060E00000800000008020000080400000806000008080000080A0000080C0000080E00000A0000000A0200000A0400000A0600000A0800000A0A00000A0C00000A0E00000C0000000C0200000C0400000C0600000C0800000C0
310
A00000C0C00000C0E00000E0000000E0200000E0400000E0600000E0800000E0A00000E0C00000E0E00040000000400020004000400040006000400080004000A0004000C0004000E00040200000402020004020400040206000402080004020A0004020C0004020E000404000004040200040404000404060004040800040
310
40A0004040C0004040E00040600000406020004060400040606000406080004060A0004060C0004060E00040800000408020004080400040806000408080004080A0004080C0004080E00040A0000040A0200040A0400040A0600040A0800040A0A00040A0C00040A0E00040C0000040C0200040C0400040C0600040C08000
310
40C0A00040C0C00040C0E00040E0000040E0200040E0400040E0600040E0800040E0A00040E0C00040E0E00080000000800020008000400080006000800080008000A0008000C0008000E00080200000802020008020400080206000802080008020A0008020C0008020E00080400000804020008040400080406000804080
310
008040A0008040C0008040E00080600000806020008060400080606000806080008060A0008060C0008060E00080800000808020008080400080806000808080008080A0008080C0008080E00080A0000080A0200080A0400080A0600080A0800080A0A00080A0C00080A0E00080C0000080C0200080C0400080C0600080C0
310
800080C0A00080C0C00080C0E00080E0000080E0200080E0400080E0600080E0800080E0A00080E0C00080E0E000C0000000C0002000C0004000C0006000C0008000C000A000C000C000C000E000C0200000C0202000C0204000C0206000C0208000C020A000C020C000C020E000C0400000C0402000C0404000C0406000C0
310
408000C040A000C040C000C040E000C0600000C0602000C0604000C0606000C0608000C060A000C060C000C060E000C0800000C0802000C0804000C0806000C0808000C080A000C080C000C080E000C0A00000C0A02000C0A04000C0A06000C0A08000C0A0A000C0A0C000C0A0E000C0C00000C0C02000C0C04000C0C06000
310
C0C08000C0C0A000F0FBFF00A4A0A000808080000000FF0000FF000000FFFF00FF000000FF00FF00FFFF0000FFFFFF0000000000000000000000000000000000000000000000000000000000000000000000000000000000000000000000000000000000000000000000000000000000000000000000000000000000000000
310
000000000000000000000000000000000000000000000000000000000000000000F900000000000000000000000000000000000000000000000000000000000000F900000000000000000000000000000000000000000000000000000000000000F90000000000000000000000000000000000000000000000F90000000000
310
0000F900000000000000000000000000000000000000000000F900F9000000000000F9000000000000000000000000000000000000000000F9000000F90000000000F900000000000000000000000000000000000000000000F9000000F900000000F90000000000000000000000000000000000000000000000F9000000F9
310
000000F9000000000000000000000000000000000000000000000000F9000000F90000F900000000000000000000000000000000000000000000000000F9000000F900F90000000000000000000000000000000000000000000000000000F9000000F9F9000000000000000000000000000000000000000000000000000000
310
F9000000F900000000000000000000000000000000000000000000000000000000F90000F9F9000000000000000000000000000000F9F9F9F9F9F9F9F9F9F9F9F9F9F9F9F9F9F9F9F9F9F9F9F9F9F9F9F9F9F900000000000000000000000000000000F9F90000F90000000000000000000000000000000000000000000000
310
0000000000F9000000F9000000000000000000000000000000000000000000000000000000F9F9000000F90000000000000000000000000000000000000000000000000000F900F9000000F900000000000000000000000000000000000000000000000000F90000F9000000F9000000000000000000000000000000000000
310
000000000000F9000000F9000000F90000000000000000000000000000000000000000000000F900000000F9000000F900000000000000000000000000000000000000000000F90000000000F900F90000000000000000000000000000000000000000000000F9000000000000F90000000000000000000000000000000000
310
00000000000000F900000000000000000000000000000000000000000000000000000000000000F900000000000000000000000000000000000000000000000000000000000000F900000000000000000000000000000000000000000000000000000000000000000000000000000000000000000000000000000000000000
310
0000000000000000000000000000000000000000000000000000000000000000000000000000000000000000000000000000000000000000
102
{BLKREFS
331
7D78
331
7D79
331
7D7C
331
7D7D
331
7D82
331
7D83
331
7F0B
331
7F0C
331
7F05
331
7F06
331
7F01
331
7F02
331
7F54
331
7F55
331
7F5B
331
7F5C
331
7F62
331
7F63
331
7F69
331
7F6A
102
}
  0
BLOCK_RECORD
  5
1B88
330
1
100
AcDbSymbolTableRecord
100
AcDbBlockTableRecord
  2
nieplot_krzyz
340
0
310
2800000020000000200000000100080000000000000400000000000000000000000000000000000000000000000080000080000000808000800000008000800080800000C0C0C000C0DCC000F0CAA6000020400000206000002080000020A0000020C0000020E00000400000004020000040400000406000004080000040A0
310
000040C0000040E00000600000006020000060400000606000006080000060A0000060C0000060E00000800000008020000080400000806000008080000080A0000080C0000080E00000A0000000A0200000A0400000A0600000A0800000A0A00000A0C00000A0E00000C0000000C0200000C0400000C0600000C0800000C0
310
A00000C0C00000C0E00000E0000000E0200000E0400000E0600000E0800000E0A00000E0C00000E0E00040000000400020004000400040006000400080004000A0004000C0004000E00040200000402020004020400040206000402080004020A0004020C0004020E000404000004040200040404000404060004040800040
310
40A0004040C0004040E00040600000406020004060400040606000406080004060A0004060C0004060E00040800000408020004080400040806000408080004080A0004080C0004080E00040A0000040A0200040A0400040A0600040A0800040A0A00040A0C00040A0E00040C0000040C0200040C0400040C0600040C08000
310
40C0A00040C0C00040C0E00040E0000040E0200040E0400040E0600040E0800040E0A00040E0C00040E0E00080000000800020008000400080006000800080008000A0008000C0008000E00080200000802020008020400080206000802080008020A0008020C0008020E00080400000804020008040400080406000804080
310
008040A0008040C0008040E00080600000806020008060400080606000806080008060A0008060C0008060E00080800000808020008080400080806000808080008080A0008080C0008080E00080A0000080A0200080A0400080A0600080A0800080A0A00080A0C00080A0E00080C0000080C0200080C0400080C0600080C0
310
800080C0A00080C0C00080C0E00080E0000080E0200080E0400080E0600080E0800080E0A00080E0C00080E0E000C0000000C0002000C0004000C0006000C0008000C000A000C000C000C000E000C0200000C0202000C0204000C0206000C0208000C020A000C020C000C020E000C0400000C0402000C0404000C0406000C0
310
408000C040A000C040C000C040E000C0600000C0602000C0604000C0606000C0608000C060A000C060C000C060E000C0800000C0802000C0804000C0806000C0808000C080A000C080C000C080E000C0A00000C0A02000C0A04000C0A06000C0A08000C0A0A000C0A0C000C0A0E000C0C00000C0C02000C0C04000C0C06000
310
C0C08000C0C0A000F0FBFF00A4A0A000808080000000FF0000FF000000FFFF00FF000000FF00FF00FFFF0000FFFFFF000000000000000000000000000000000000000000000000000000000000000000000000000000000000000000000000FF00000000000000000000000000000000000000000000000000000000000000
310
FF00000000000000000000000000000000000000000000000000000000000000FF00000000000000000000000000000000000000000000000000000000000000FF00000000000000000000000000000000000000000000000000000000000000FF000000000000000000000000000000000000000000000000000000000000
310
00FF00000000000000000000000000000000000000000000000000000000000000FF00000000000000000000000000000000000000000000000000000000000000FF00000000000000000000000000000000000000000000000000000000000000FF0000000000000000000000000000000000000000000000000000000000
310
0000FF00000000000000000000000000000000000000000000000000000000000000FF00000000000000000000000000000000000000000000000000000000000000FF00000000000000000000000000000000000000000000000000000000000000FF00000000000000000000000000000000000000000000000000000000
310
000000FF0000000000000000000000000000000000FFFFFFFFFFFFFFFFFFFFFFFFFFFFFFFFFFFFFFFFFFFFFFFFFFFFFFFF000000000000000000000000000000000000FF00000000000000000000000000000000000000000000000000000000000000FF000000000000000000000000000000000000000000000000000000
310
00000000FF00000000000000000000000000000000000000000000000000000000000000FF00000000000000000000000000000000000000000000000000000000000000FF00000000000000000000000000000000000000000000000000000000000000FF0000000000000000000000000000000000000000000000000000
310
0000000000FF00000000000000000000000000000000000000000000000000000000000000FF00000000000000000000000000000000000000000000000000000000000000FF00000000000000000000000000000000000000000000000000000000000000FF00000000000000000000000000000000000000000000000000
310
000000000000FF00000000000000000000000000000000000000000000000000000000000000FF00000000000000000000000000000000000000000000000000000000000000FF0000000000000000000000000000000000000000000000000000000000000000000000000000000000000000000000000000000000000000
310
0000000000000000000000000000000000000000000000000000000000000000000000000000000000000000000000000000000000000000
1001
ACAD
1000
DesignCenter Data
1002
{
1070
     1
1070
     5
1002
}
  0
BLOCK_RECORD
  5
224D
102
{ACAD_XDICTIONARY
360
23AB
102
}
330
1
100
AcDbSymbolTableRecord
100
AcDbBlockTableRecord
  2
koncepcja-opis-A4
340
0
310
2800000020000000200000000100080000000000000400000000000000000000000000000000000000000000000080000080000000808000800000008000800080800000C0C0C000C0DCC000F0CAA6000020400000206000002080000020A0000020C0000020E00000400000004020000040400000406000004080000040A0
310
000040C0000040E00000600000006020000060400000606000006080000060A0000060C0000060E00000800000008020000080400000806000008080000080A0000080C0000080E00000A0000000A0200000A0400000A0600000A0800000A0A00000A0C00000A0E00000C0000000C0200000C0400000C0600000C0800000C0
310
A00000C0C00000C0E00000E0000000E0200000E0400000E0600000E0800000E0A00000E0C00000E0E00040000000400020004000400040006000400080004000A0004000C0004000E00040200000402020004020400040206000402080004020A0004020C0004020E000404000004040200040404000404060004040800040
310
40A0004040C0004040E00040600000406020004060400040606000406080004060A0004060C0004060E00040800000408020004080400040806000408080004080A0004080C0004080E00040A0000040A0200040A0400040A0600040A0800040A0A00040A0C00040A0E00040C0000040C0200040C0400040C0600040C08000
310
40C0A00040C0C00040C0E00040E0000040E0200040E0400040E0600040E0800040E0A00040E0C00040E0E00080000000800020008000400080006000800080008000A0008000C0008000E00080200000802020008020400080206000802080008020A0008020C0008020E00080400000804020008040400080406000804080
310
008040A0008040C0008040E00080600000806020008060400080606000806080008060A0008060C0008060E00080800000808020008080400080806000808080008080A0008080C0008080E00080A0000080A0200080A0400080A0600080A0800080A0A00080A0C00080A0E00080C0000080C0200080C0400080C0600080C0
310
800080C0A00080C0C00080C0E00080E0000080E0200080E0400080E0600080E0800080E0A00080E0C00080E0E000C0000000C0002000C0004000C0006000C0008000C000A000C000C000C000E000C0200000C0202000C0204000C0206000C0208000C020A000C020C000C020E000C0400000C0402000C0404000C0406000C0
310
408000C040A000C040C000C040E000C0600000C0602000C0604000C0606000C0608000C060A000C060C000C060E000C0800000C0802000C0804000C0806000C0808000C080A000C080C000C080E000C0A00000C0A02000C0A04000C0A06000C0A08000C0A0A000C0A0C000C0A0E000C0C00000C0C02000C0C04000C0C06000
310
C0C08000C0C0A000F0FBFF00A4A0A000808080000000FF0000FF000000FFFF00FF000000FF00FF00FFFF0000FFFFFF000000000000000000000000000000000000000000000000000000000000000000000000000000FF000000000000FFFFFFFFFF000000000000FFFF000000000000000000000000FF000000000000FFFF
310
FFFFFF000000000000FFFF000000000000000000000000FF0000000000000000000000000000000000FFFF000000000000000000000000FF0000000000000000000000000000000000FFFF000000000000000000000000FF0000000000000000000000000000000000FFFF000000000000000000000000FF00000000000000
310
00000000000000000000FFFF000000000000000000000000FF0000000000000000000000000000000000FFFF000000000000000000000000FF0000000000000000000000000000000000FFFF000000000000000000000000FF0000000000000000000000000000000000FFFF000000000000000000000000FF000000000000
310
0000000000000000000000FFFF000000000000000000000000FF0000000000000000000000000000000000FFFF000000000000000000000000FF0000000000000000000000000000000000FFFF000000000000000000000000FF0000000000000000000000000000000000FFFF000000000000000000000000FF0000000000
310
000000000000000000000000FFFF000000000000000000000000FF0000000000000000000000000000000000FFFF000000000000000000000000FF0000000000000000000000000000000000FFFF000000000000000000000000FF0000000000000000000000000000000000FFFF000000000000000000000000FF00000000
310
00000000000000000000000000FFFF000000000000000000000000FF0000000000000000000000000000000000FFFF000000000000000000000000FF00000000000000000000000000000000000000000000000000000000000000FF0000000000000000000000000000000000000000000000000000000000000000000000
310
00000000000000000000000000000000000000000000000000000000000000000000000000000000000000000000000000000000000000000000000000000000000000000000000000000000000000000000000000000000000000000000000000000000000000000000000000000000000000000000000000000000000000
310
000000000000000000000000000000000000000000000000000000000000000000000000000000000000000000000000000000000000000000000000000000000000000000FFFFFF0000000000000000000000000000000000000000000000000000000000FFFFFFFF00000000000000000000000000000000000000000000
310
0000000000000000000000000000000000000000000000000000000000000000000000000000000000000000000000000000000000000000
102
{BLKREFS
331
2289
102
}
  0
BLOCK_RECORD
  5
225A
102
{ACAD_XDICTIONARY
360
23C4
102
}
330
1
100
AcDbSymbolTableRecord
100
AcDbBlockTableRecord
  2
koncepcja-opis-A3
340
0
310
2800000020000000200000000100080000000000000400000000000000000000000000000000000000000000000080000080000000808000800000008000800080800000C0C0C000C0DCC000F0CAA6000020400000206000002080000020A0000020C0000020E00000400000004020000040400000406000004080000040A0
310
000040C0000040E00000600000006020000060400000606000006080000060A0000060C0000060E00000800000008020000080400000806000008080000080A0000080C0000080E00000A0000000A0200000A0400000A0600000A0800000A0A00000A0C00000A0E00000C0000000C0200000C0400000C0600000C0800000C0
310
A00000C0C00000C0E00000E0000000E0200000E0400000E0600000E0800000E0A00000E0C00000E0E00040000000400020004000400040006000400080004000A0004000C0004000E00040200000402020004020400040206000402080004020A0004020C0004020E000404000004040200040404000404060004040800040
310
40A0004040C0004040E00040600000406020004060400040606000406080004060A0004060C0004060E00040800000408020004080400040806000408080004080A0004080C0004080E00040A0000040A0200040A0400040A0600040A0800040A0A00040A0C00040A0E00040C0000040C0200040C0400040C0600040C08000
310
40C0A00040C0C00040C0E00040E0000040E0200040E0400040E0600040E0800040E0A00040E0C00040E0E00080000000800020008000400080006000800080008000A0008000C0008000E00080200000802020008020400080206000802080008020A0008020C0008020E00080400000804020008040400080406000804080
310
008040A0008040C0008040E00080600000806020008060400080606000806080008060A0008060C0008060E00080800000808020008080400080806000808080008080A0008080C0008080E00080A0000080A0200080A0400080A0600080A0800080A0A00080A0C00080A0E00080C0000080C0200080C0400080C0600080C0
310
800080C0A00080C0C00080C0E00080E0000080E0200080E0400080E0600080E0800080E0A00080E0C00080E0E000C0000000C0002000C0004000C0006000C0008000C000A000C000C000C000E000C0200000C0202000C0204000C0206000C0208000C020A000C020C000C020E000C0400000C0402000C0404000C0406000C0
310
408000C040A000C040C000C040E000C0600000C0602000C0604000C0606000C0608000C060A000C060C000C060E000C0800000C0802000C0804000C0806000C0808000C080A000C080C000C080E000C0A00000C0A02000C0A04000C0A06000C0A08000C0A0A000C0A0C000C0A0E000C0C00000C0C02000C0C04000C0C06000
310
C0C08000C0C0A000F0FBFF00A4A0A000808080000000FF0000FF000000FFFF00FF000000FF00FF00FFFF0000FFFFFF0000000000000000000000000000000000000000000000000000000000000000000000000000000000000000000000000000000000000000000000000000000000000000000000000000000000000000
310
00000000000000000000000000000000000000000000000000000000000000000000000000000000000000000000000000000000000000000000000000000000000000000000000000000000000000000000FF00000000000000000000000000000000000000FFFFFFFF00000000FF000000FF000000000000000000000000
310
00000000000000FFFFFFFF00000000FF000000FF000000000000000000000000000000000000000000000000000000FF000000FF000000000000000000000000000000000000000000000000000000FF000000FF000000000000000000000000000000000000000000000000000000FF000000FF0000000000000000000000
310
00000000000000000000000000000000FF000000FF000000000000000000000000000000000000000000000000000000FF000000FF000000000000000000000000000000000000000000000000000000FF000000FF000000000000000000000000000000000000000000000000000000FF000000FF00000000000000000000
310
0000000000000000000000000000000000FF000000FF000000000000000000000000000000000000000000000000000000FF000000FF000000000000000000000000000000000000000000000000000000FF000000FF000000000000000000000000000000000000000000000000000000FF000000FF000000000000000000
310
000000000000000000000000000000000000FF000000FF0000000000000000000000000000000000000000000000000000000000000000000000000000000000000000000000000000000000000000000000000000000000000000000000000000000000000000000000000000000000000000000000000000000000000000
310
000000000000000000000000000000000000000000000000000000000000000000000000000000000000000000000000000000000000000000000000000000000000000000000000000000FFFFFF0000000000000000000000000000000000000000000000000000000000FFFFFFFF00000000000000000000000000000000
310
00000000000000000000000000000000000000000000000000000000000000000000000000000000000000000000000000000000000000000000000000000000000000000000000000000000000000000000000000000000000000000000000000000000000000000000000000000000000000000000000000000000000000
310
0000000000000000000000000000000000000000000000000000000000000000000000000000000000000000000000000000000000000000
102
{BLKREFS
331
232E
102
}
  0
BLOCK_RECORD
  5
232B
102
{ACAD_XDICTIONARY
360
23B8
102
}
330
1
100
AcDbSymbolTableRecord
100
AcDbBlockTableRecord
  2
*Paper_Space4
340
232A
  0
BLOCK_RECORD
  5
3A5F
330
1
100
AcDbSymbolTableRecord
100
AcDbBlockTableRecord
  2
*U5
340
0
102
{BLKREFS
331
4046
102
}
  0
BLOCK_RECORD
  5
3AD3
330
1
100
AcDbSymbolTableRecord
100
AcDbBlockTableRecord
  2
teren$0$teren
340
0
102
{BLKREFS
331
4047
102
}
  0
BLOCK_RECORD
  5
489E
330
1
100
AcDbSymbolTableRecord
100
AcDbBlockTableRecord
  2
_ArchTick
340
0
  0
BLOCK_RECORD
  5
48A2
330
1
100
AcDbSymbolTableRecord
100
AcDbBlockTableRecord
  2
_Open90
340
0
  0
BLOCK_RECORD
  5
48A8
330
1
100
AcDbSymbolTableRecord
100
AcDbBlockTableRecord
  2
_Small
340
0
310
2800000020000000200000000100080000000000000400000000000000000000000000000000000000000000000080000080000000808000800000008000800080800000C0C0C000C0DCC000F0CAA6000020400000206000002080000020A0000020C0000020E00000400000004020000040400000406000004080000040A0
310
000040C0000040E00000600000006020000060400000606000006080000060A0000060C0000060E00000800000008020000080400000806000008080000080A0000080C0000080E00000A0000000A0200000A0400000A0600000A0800000A0A00000A0C00000A0E00000C0000000C0200000C0400000C0600000C0800000C0
310
A00000C0C00000C0E00000E0000000E0200000E0400000E0600000E0800000E0A00000E0C00000E0E00040000000400020004000400040006000400080004000A0004000C0004000E00040200000402020004020400040206000402080004020A0004020C0004020E000404000004040200040404000404060004040800040
310
40A0004040C0004040E00040600000406020004060400040606000406080004060A0004060C0004060E00040800000408020004080400040806000408080004080A0004080C0004080E00040A0000040A0200040A0400040A0600040A0800040A0A00040A0C00040A0E00040C0000040C0200040C0400040C0600040C08000
310
40C0A00040C0C00040C0E00040E0000040E0200040E0400040E0600040E0800040E0A00040E0C00040E0E00080000000800020008000400080006000800080008000A0008000C0008000E00080200000802020008020400080206000802080008020A0008020C0008020E00080400000804020008040400080406000804080
310
008040A0008040C0008040E00080600000806020008060400080606000806080008060A0008060C0008060E00080800000808020008080400080806000808080008080A0008080C0008080E00080A0000080A0200080A0400080A0600080A0800080A0A00080A0C00080A0E00080C0000080C0200080C0400080C0600080C0
310
800080C0A00080C0C00080C0E00080E0000080E0200080E0400080E0600080E0800080E0A00080E0C00080E0E000C0000000C0002000C0004000C0006000C0008000C000A000C000C000C000E000C0200000C0202000C0204000C0206000C0208000C020A000C020C000C020E000C0400000C0402000C0404000C0406000C0
310
408000C040A000C040C000C040E000C0600000C0602000C0604000C0606000C0608000C060A000C060C000C060E000C0800000C0802000C0804000C0806000C0808000C080A000C080C000C080E000C0A00000C0A02000C0A04000C0A06000C0A08000C0A0A000C0A0C000C0A0E000C0C00000C0C02000C0C04000C0C06000
310
C0C08000C0C0A000F0FBFF00A4A0A000808080000000FF0000FF000000FFFF00FF000000FF00FF00FFFF0000FFFFFF00FFFFFFFFFFFFFFFFFFFFFFFFFFFFFFFFFFFFFFFFFFFFFFFFFFFFFFFFFFFFFFFFFFFFFFFFFFFFFFFFFFFFFFFFFF00000000FFFFFFFFFFFFFFFFFFFFFFFFFFFFFFFFFFFFFFFFFFFFFFFFFF000000FFFF
310
FFFF0000000000FFFFFFFFFFFFFFFFFFFFFFFFFFFFFFFFFFFF0000FFFFFFFFFFFFFFFFFFFFFFFF00FFFFFFFFFFFFFFFFFFFFFFFFFFFFFF0000FFFFFFFFFFFFFFFFFFFFFFFFFFFFFF00FFFFFFFFFFFFFFFFFFFFFFFFFF00FFFFFFFFFFFFFFFFFFFFFFFFFFFFFFFFFFFF00FFFFFFFFFFFFFFFFFFFFFFFF00FFFFFFFFFFFFFFFF
310
FFFFFFFFFFFFFFFFFFFFFF00FFFFFFFFFFFFFFFFFFFF00FFFFFFFFFFFFFFFFFFFFFFFFFFFFFFFFFFFFFFFFFF00FFFFFFFFFFFFFFFF00FFFFFFFFFFFFFFFFFFFFFFFFFFFFFFFFFFFFFFFFFFFFFF00FFFFFFFFFFFFFF00FFFFFFFFFFFFFFFFFFFFFFFFFFFFFFFFFFFFFFFFFFFFFF00FFFFFFFFFFFF00FFFFFFFFFFFFFFFFFFFF
310
FFFFFFFFFFFFFFFFFFFFFFFFFFFFFF00FFFFFFFF00FFFFFFFFFFFFFFFFFFFFFFFFFFFFFFFFFFFFFFFFFFFFFFFFFFFF00FFFFFFFF00FFFFFFFFFFFFFFFFFFFFFFFFFFFFFFFFFFFFFFFFFFFFFFFFFFFF00FFFFFFFF00FFFFFFFFFFFFFFFFFFFFFFFFFFFFFFFFFFFFFFFFFFFFFFFFFFFF00FFFFFFFF00FFFFFFFFFFFFFFFFFFFF
310
FFFFFFFFFFFFFFFFFFFFFFFFFFFFFFFFFF00FFFFFF00FFFFFFFFFFFFFFFFFFFFFFFFFFFFFFFFFFFFFFFFFFFFFFFFFFFFFF00FFFFFF00FFFFFFFFFFFFFFFFFFFFFFFFFFFFFFFFFFFFFFFFFFFFFFFFFFFFFF00FFFFFF00FFFFFFFFFFFFFFFFFFFFFFFFFFFFFFFFFFFFFFFFFFFFFFFFFFFF00FFFFFFFF00FFFFFFFFFFFFFFFFFF
310
FFFFFFFFFFFFFFFFFFFFFFFFFFFFFFFFFF00FFFFFFFF00FFFFFFFFFFFFFFFFFFFFFFFFFFFFFFFFFFFFFFFFFFFFFFFFFFFF00FFFFFFFFFF00FFFFFFFFFFFFFFFFFFFFFFFFFFFFFFFFFFFFFFFFFFFFFFFFFF00FFFFFFFFFFFF00FFFFFFFFFFFFFFFFFFFFFFFFFFFFFFFFFFFFFFFFFFFFFF00FFFFFFFFFFFFFF00FFFFFFFFFFFF
310
FFFFFFFFFFFFFFFFFFFFFFFFFFFFFFFFFF00FFFFFFFFFFFFFFFF00FFFFFFFFFFFFFFFFFFFFFFFFFFFFFFFFFFFFFFFFFF00FFFFFFFFFFFFFFFFFFFF00FFFFFFFFFFFFFFFFFFFFFFFFFFFFFFFFFFFFFF00FFFFFFFFFFFFFFFFFFFFFF00FFFFFFFFFFFFFFFFFFFFFFFFFFFFFFFFFFFF00FFFFFFFFFFFFFFFFFFFFFFFFFF0000FF
310
FFFFFFFFFFFFFFFFFFFFFFFFFFFF00FFFFFFFFFFFFFFFFFFFFFFFFFFFFFFFF0000FFFFFFFFFFFFFFFFFFFFFFFF00FFFFFFFFFFFFFFFFFFFFFFFFFFFFFFFFFFFFFF000000FFFFFFFF0000000000FFFFFFFFFFFFFFFFFFFFFFFFFFFFFFFFFFFFFFFFFFFFFF00000000FFFFFFFFFFFFFFFFFFFFFFFFFFFFFFFFFFFFFFFFFFFFFF
310
FFFFFFFFFFFFFFFFFFFFFFFFFFFFFFFFFFFFFFFFFFFFFFFFFFFFFFFFFFFFFFFFFFFFFFFFFFFFFFFFFFFFFFFFFFFFFFFFFFFFFFFFFFFFFFFF
  0
BLOCK_RECORD
  5
48D4
102
{ACAD_XDICTIONARY
360
48D5
102
}
330
1
100
AcDbSymbolTableRecord
100
AcDbBlockTableRecord
  2
Anno_Elevation_Label_4_1m1
340
0
310
2800000020000000200000000100080000000000000400000000000000000000000000000000000000000000000080000080000000808000800000008000800080800000C0C0C000C0DCC000F0CAA6000020400000206000002080000020A0000020C0000020E00000400000004020000040400000406000004080000040A0
310
000040C0000040E00000600000006020000060400000606000006080000060A0000060C0000060E00000800000008020000080400000806000008080000080A0000080C0000080E00000A0000000A0200000A0400000A0600000A0800000A0A00000A0C00000A0E00000C0000000C0200000C0400000C0600000C0800000C0
310
A00000C0C00000C0E00000E0000000E0200000E0400000E0600000E0800000E0A00000E0C00000E0E00040000000400020004000400040006000400080004000A0004000C0004000E00040200000402020004020400040206000402080004020A0004020C0004020E000404000004040200040404000404060004040800040
310
40A0004040C0004040E00040600000406020004060400040606000406080004060A0004060C0004060E00040800000408020004080400040806000408080004080A0004080C0004080E00040A0000040A0200040A0400040A0600040A0800040A0A00040A0C00040A0E00040C0000040C0200040C0400040C0600040C08000
310
40C0A00040C0C00040C0E00040E0000040E0200040E0400040E0600040E0800040E0A00040E0C00040E0E00080000000800020008000400080006000800080008000A0008000C0008000E00080200000802020008020400080206000802080008020A0008020C0008020E00080400000804020008040400080406000804080
310
008040A0008040C0008040E00080600000806020008060400080606000806080008060A0008060C0008060E00080800000808020008080400080806000808080008080A0008080C0008080E00080A0000080A0200080A0400080A0600080A0800080A0A00080A0C00080A0E00080C0000080C0200080C0400080C0600080C0
310
800080C0A00080C0C00080C0E00080E0000080E0200080E0400080E0600080E0800080E0A00080E0C00080E0E000C0000000C0002000C0004000C0006000C0008000C000A000C000C000C000E000C0200000C0202000C0204000C0206000C0208000C020A000C020C000C020E000C0400000C0402000C0404000C0406000C0
310
408000C040A000C040C000C040E000C0600000C0602000C0604000C0606000C0608000C060A000C060C000C060E000C0800000C0802000C0804000C0806000C0808000C080A000C080C000C080E000C0A00000C0A02000C0A04000C0A06000C0A08000C0A0A000C0A0C000C0A0E000C0C00000C0C02000C0C04000C0C06000
310
C0C08000C0C0A000F0FBFF00A4A0A000808080000000FF0000FF000000FFFF00FF000000FF00FF00FFFF0000FFFFFF00FFFFFFFFFFFFFFFFFFFFFFFFFFFFFFFFFFFFFFFFFFFFFFFFFFFFFFFFFFFFFFFFFFFFFFFFFFFFFFFFFFFFFFFFFFFFFFFFFFFFFFFFFFFFFFFFFFFFFFFFFFFFFFFFFFFFFFFFFFFFFFFFFFFFFFFFFFFFFF
310
FFFFFFFFFFFFFFFFFFFFFFFFFFFFFFFFFFFFFFFFFFFFFFFFFFFFFFFFFFFFFFFFFFFFFFFFFFFFFFFFFFFFFFFFFFFFFFFFFFFFFFFFFFFFFFFFFFFFFFFFFFFFFFFFFFFFFFFFFFFFFFFFFFFFFFFFFFFFFFFFFFFFFFFFFFFFFFFFFFFFFFFFFFFFFFFFFFFFFFFFFFFFFFFFFFFFFFFFFFFFFFFFFFFFFFFFFFFFFFFFFFFFFFFFFFFFFF
310
FFFFFFFFFFFFFFFFFFFFFFFFFFFFFFFFFFFFFFFFFFFFFFFFFFFFFFFFFFFFFFFFFFFFFFFFFFFFFFFFFFFFFFFFFFFFFFFFFFFFFFFFFFFFFFFFFFFFFFFFFFFFFFFFFFFFFFFFFFFFFFFFFFFFFFFFFFFFFFFFFFFFFFFFFFFFFFFFFFFFFFFFFFFFFFFFFFFFFFFFFFFFFFFFFFFFFFFFFFFFFFFFFFFFFFFFFFFFFFFFFFFFFFFFFFFFFF
310
FFFFFFFFFFFFFFFFFFFFFFFFFFFFFFFFFFFFFFFFFFFFFFFFFFFFFFFFFFFFFFFFFFFFFFFFFFFFFFFFFFFFFFFFFFFFFFFFFFFFFFFFFFFFFFFFFFFFFFFFFFFFFFFFFFFFFFFFFFFFFFFFFFFFFFFFFFFFFFFFFFFFFFFFFFFFFFFFFFFFFFFFFFFFFFFF000000FF000000000000FF00FF000000FFFFFFFFFFFFFFFFFFFFFFFFFFFFFF
310
FFFF0000FF00000000000000000000FF00FFFFFFFFFFFFFFFFFFFFFFFFFFFFFFFF000000FF000000000000000000000000FFFFFFFF00FFFF0000000000FF000000FF0000000000000000FF000000000000FF00FFFF00000000000000000000FF00FF00FF000000FF0000000000000000000000FFFF00000000000000000000
310
0000FF000000000000FF0000000000000000FF00FFFFFFFFFFFFFFFFFFFFFFFFFFFFFFFFFFFFFFFFFFFFFFFFFFFFFFFFFFFFFFFFFFFFFFFFFFFFFFFFFFFFFFFFFFFFFFFFFFFFFFFFFFFFFFFFFFFFFFFFFFFFFFFFFFFFFFFFFFFFFFFFFFFFFFFFFFFFFFFFFFFFFFFFFFFFFFFFFFFFFFFFFFFFFFFFFFFFFFFFFFFFFFFFFFFFFF
310
FFFFFFFFFFFFFFFFFFFFFFFFFFFFFFFFFFFFFFFFFFFFFFFFFFFFFFFFFFFFFFFFFFFFFFFFFFFFFFFFFFFFFFFFFFFFFFFFFFFFFFFFFFFFFFFFFFFFFFFFFFFFFFFFFFFFFFFFFFFFFFFFFFFFFFFFFFFFFFFFFFFFFFFFFFFFFFFFFFFFFFFFFFFFFFFFFFFFFFFFFFFFFFFFFFFFFFFFFFFFFFFFFFFFFFFFFFFFFFFFFFFFFFFFFFFFFF
310
FFFFFFFFFFFFFFFFFFFFFFFFFFFFFFFFFFFFFFFFFFFFFFFFFFFFFFFFFFFFFFFFFFFFFFFFFFFFFFFFFFFFFFFFFFFFFFFFFFFFFFFFFFFFFFFFFFFFFFFFFFFFFFFFFFFFFFFFFFFFFFFFFFFFFFFFFFFFFFFFFFFFFFFFFFFFFFFFFFFFFFFFFFFFFFFFFFFFFFFFFFFFFFFFFFFFFFFFFFFFFFFFFFFFFFFFFFFFFFFFFFFFFFFFFFFFFF
310
FFFFFFFFFFFFFFFFFFFFFFFFFFFFFFFFFFFFFFFFFFFFFFFFFFFFFFFFFFFFFFFFFFFFFFFFFFFFFFFFFFFFFFFFFFFFFFFFFFFFFFFFFFFFFFFF
  0
BLOCK_RECORD
  5
7E72
330
1
100
AcDbSymbolTableRecord
100
AcDbBlockTableRecord
  2
*D11
340
0
  0
BLOCK_RECORD
  5
7E86
330
1
100
AcDbSymbolTableRecord
100
AcDbBlockTableRecord
  2
*D12
340
0
  0
BLOCK_RECORD
  5
7F18
330
1
100
AcDbSymbolTableRecord
100
AcDbBlockTableRecord
  2
*D13
340
0
  0
BLOCK_RECORD
  5
7F22
330
1
100
AcDbSymbolTableRecord
100
AcDbBlockTableRecord
  2
*D14
340
0
  0
ENDTAB
  0
ENDSEC
  0
SECTION
  2
BLOCKS
  0
BLOCK
  5
20
330
1F
100
AcDbEntity
  8
0
100
AcDbBlockBegin
  2
*Model_Space
 70
     0
 10
0.0
 20
0.0
 30
0.0
  3
*Model_Space
  1

  0
ENDBLK
  5
21
330
1F
100
AcDbEntity
  8
0
100
AcDbBlockEnd
  0
BLOCK
  5
228A
330
2286
100
AcDbEntity
 67
     1
  8
0
100
AcDbBlockBegin
  2
*Paper_Space
 70
     0
 10
0.0
 20
0.0
 30
0.0
  3
*Paper_Space
  1

  0
ENDBLK
  5
228B
330
2286
100
AcDbEntity
 67
     1
  8
0
100
AcDbBlockEnd
  0
BLOCK
  5
1A8D
330
1A8A
100
AcDbEntity
  8
0
100
AcDbBlockBegin
  2
B-DIM
 70
     0
 10
0.0
 20
0.0
 30
0.0
  3
B-DIM
  1

  0
LINE
  5
1A8E
330
1A8A
100
AcDbEntity
  8
0
 62
     1
100
AcDbLine
 10
0.000000000000091
 20
-1.1
 30
0.0
 11
0.000000000000091
 21
1.1
 31
0.0
  0
LWPOLYLINE
  5
1A8F
330
1A8A
100
AcDbEntity
  8
0
 62
     1
100
AcDbPolyline
 90
        2
 70
     0
 43
0.3
 10
-0.7071067811864851
 20
-0.7071067811864851
 10
0.707106781186576
 20
0.707106781186576
  0
LINE
  5
1A90
330
1A8A
100
AcDbEntity
  8
0
 62
     1
100
AcDbLine
 10
1.20000000000009
 20
0.0
 30
0.0
 11
-1.199999999999909
 21
0.0
 31
0.0
  0
ENDBLK
  5
1A91
330
1A8A
100
AcDbEntity
  8
0
100
AcDbBlockEnd
  0
BLOCK
  5
1B89
330
1B88
100
AcDbEntity
  8
0
100
AcDbBlockBegin
  2
nieplot_krzyz
 70
     0
 10
0.0
 20
0.0
 30
0.0
  3
nieplot_krzyz
  1

  0
LINE
  5
1B8A
330
1B88
100
AcDbEntity
  8
Defpoints
  6
ByBlock
 62
     0
370
    -2
100
AcDbLine
 10
0.0
 20
-5.56546047199663
 30
0.0
 11
0.0
 21
5.56546047199663
 31
0.0
  0
LINE
  5
1B8B
330
1B88
100
AcDbEntity
  8
Defpoints
  6
ByBlock
 62
     0
370
    -2
100
AcDbLine
 10
-5.565460471996857
 20
0.0
 30
0.0
 11
5.565460471996857
 21
0.0
 31
0.0
  0
ENDBLK
  5
1B8C
330
1B88
100
AcDbEntity
  8
0
100
AcDbBlockEnd
  0
BLOCK
  5
224E
330
224D
100
AcDbEntity
  8
0
100
AcDbBlockBegin
  2
koncepcja-opis-A4
 70
     0
 10
0.0
 20
0.0
 30
0.0
  3
koncepcja-opis-A4
  1

  0
RTEXT
  5
224F
330
224D
100
AcDbEntity
  8
A-Annotation-T
  6
ByBlock
 62
     0
 92
      268
310
0C01000003000000780000000A000000358ECC7CCA9826C09FA8FCD7DEB03B40000000000000000000000000000000000000000000000000000000000000F03F000000000000F03F00000000000000000000000000000000D502A7D9949DD03F000000000000F03F0000000000000000525465787420285254657874290000
310
00840000000600000005000000402A33D040DB26C0995A49AEA38F3B4000000000000000007AB7AD02B3E31DC0995A49AEA38F3B4000000000000000007AB7AD02B3E31DC0AA44632B55F33B400000000000000000402A33D040DB26C0AA44632B55F33B400000000000000000402A33D040DB26C0995A49AEA38F3B400000
310
0000000000000800000015000000
370
    -2
100
RText
 10
-11.42822886108945
 20
27.95051833318272
 30
0.0
210
0.0
220
0.0
230
1.0
 50
0.0
 40
0.3
  7
ARIAL-CE
 70
     1
  1
$(getvar,dwgname)
  0
RTEXT
  5
2251
330
224D
100
AcDbEntity
  8
A-Annotation-T
  6
ByBlock
 62
     0
 92
      268
310
0C01000003000000780000000A000000BE4B1C618FD732C046AFC4DCB2B6DE3F000000000000000000000000000000000000000000000000000000000000F03F000000000000F03F00000000000000000000000000000000333333333333D33F000000000000F03F0000000000000000525465787420285254657874290000
310
0084000000060000000500000024B282C7F5FD32C0AC152B43191DD53F0000000000000000C822C0D1CCE132C0AC152B43191DD53F0000000000000000C822C0D1CCE132C009BEC8D4BFC1ED3F000000000000000024B282C7F5FD32C009BEC8D4BFC1ED3F000000000000000024B282C7F5FD32C0AC152B43191DD53F0000
310
0000000000000800000015000000
370
    -2
100
RText
 10
-18.99203154507462
 20
0.3299010425510811
 30
0.0
210
0.0
220
0.0
230
1.0
 50
90.0
 40
0.11
  7
ARIAL-CE
 70
     1
  1
$(xrefs,3)
  0
RTEXT
  5
2252
330
224D
100
AcDbEntity
  8
A-Annotation-T
  6
ByBlock
 62
     0
 92
      268
310
0C01000003000000780000000A0000007EEE519244ABE1BF2C52C922DE47DC3F000000000000000000000000000000000000000000000000000000000000F03F000000000000F03F000000000000000000000000000000007280AB8BC52D933F000000000000F03F0000000000000000525465787420285254657874290000
310
00840000000600000005000000809C80A8FBF7E1BF28F66BF66FAEDB3F00000000000000009C28CB76EA27D3BF28F66BF66FAEDB3F00000000000000009C28CB76EA27D3BF8E9B2A45D97C24400000000000000000809C80A8FBF7E1BF8E9B2A45D97C24400000000000000000809C80A8FBF7E1BF28F66BF66FAEDB3F0000
310
0000000000000800000015000000
370
    -2
100
RText
 10
-0.5615213671743647
 20
0.4325218111478955
 30
0.0
210
0.0
220
0.0
230
1.0
 50
90.0
 40
0.2
  7
ARIAL-CE
 70
     1
  1
$(getvar,dwgprefix)$(getvar,dwgname)
  0
TEXT
  5
2253
330
224D
100
AcDbEntity
  8
A-Annotation-T
  6
ByBlock
 62
     0
370
    -2
100
AcDbText
 10
-16.31805438268841
 20
-0.0111128004430271
 30
0.0
 40
0.2
  1
data wydruku:
  7
ARIAL-CE
 11
-16.31805438268841
 21
0.188887199556973
 31
0.0
100
AcDbText
 73
     3
  0
TEXT
  5
2254
330
224D
100
AcDbEntity
  8
A-Annotation-T
  6
ByBlock
 62
     0
370
    -2
100
AcDbText
 10
-15.75764457501989
 20
0.5941933267327386
 30
0.0
 40
0.2
  1
zakładka:
  7
ARIAL-CE
 11
-15.75764457501989
 21
0.7941933267327386
 31
0.0
100
AcDbText
 73
     3
  0
TEXT
  5
2255
330
224D
100
AcDbEntity
  8
A-Annotation-T
  6
ByBlock
 62
     0
370
    -2
100
AcDbText
 10
-16.62838598052184
 20
0.2986308364966838
 30
0.0
 40
0.2
  1
wydruk wykonał:
  7
ARIAL-CE
 11
-16.62838598052184
 21
0.4986308364966839
 31
0.0
100
AcDbText
 73
     3
  0
RTEXT
  5
2256
330
224D
100
AcDbEntity
  8
A-Annotation-T
  6
ByBlock
 62
     0
 92
      268
310
0C01000003000000780000000A000000B7A79B11808D2CC0464E11EF0000AB3F000000000000000000000000000000000000000000000000000000000000F03F000000000000F03F000000000000000000000000000000006F1C9970746DC13F000000000000F03F0000000000000000525465787420285254657874290000
310
00840000000600000005000000F0D97CFA5AB02CC060AA83C89F6B8FBF0000000000000000CF93A828566528C060AA83C89F6B8FBF0000000000000000CF93A828566528C000705DAC742DC83F0000000000000000F0D97CFA5AB02CC000705DAC742DC83F0000000000000000F0D97CFA5AB02CC060AA83C89F6B8FBF0000
310
0000000000000800000015000000
370
    -2
100
RText
 10
-14.34444411062301
 20
0.1888871995569161
 30
0.0
210
0.0
220
0.0
230
1.0
 50
0.0
 40
0.2
  7
ARIAL-CE
 70
     1
  1
$(edtime,$(getvar,date),YYYY-MO-DD HH:MM)
  0
RTEXT
  5
2257
330
224D
100
AcDbEntity
  8
A-Annotation-T
  6
ByBlock
 62
     0
 92
      268
310
0C01000003000000780000000A000000AD89452FC69D2CC0C5C9C4EBA2BBE33F000000000000000000000000000000000000000000000000000000000000F03F000000000000F03F00000000000000000000000000000000B7A63234775AAA3F000000000000F03F0000000000000000525465787420285254657874290000
310
0084000000060000000500000000A3DF6AF3AA2CC08F342332CFE8E23F0000000000000000E2DD04E6003A2BC08F342332CFE8E23F0000000000000000E2DD04E6003A2BC00096A01F086AE93F000000000000000000A3DF6AF3AA2CC00096A01F086AE93F000000000000000000A3DF6AF3AA2CC08F342332CFE8E23F0000
310
0000000000000800000015000000
370
    -2
100
RText
 10
-14.33388837795201
 20
0.7941933267326818
 30
0.0
210
0.0
220
0.0
230
1.0
 50
0.0
 40
0.2
  7
ARIAL-CE
 70
     1
  1
$(getvar,ctab)
  0
RTEXT
  5
2258
330
224D
100
AcDbEntity
  8
A-Annotation-T
  6
ByBlock
 62
     0
 92
      268
310
0C01000003000000780000000A000000A16B580C2E7C2CC0567F348B8261D43F000000000000000000000000000000000000000000000000000000000000F03F000000000000F03F00000000000000000000000000000000B75FB8457320C43F000000000000F03F0000000000000000525465787420285254657874290000
310
0084000000060000000500000060DCE3F26EA42CC0D0CE8C73CBB2CE3F00000000000000007087A3BB553D28C0D0CE8C73CBB2CE3F00000000000000007087A3BB553D28C0C0ECE14F91E9DF3F000000000000000060DCE3F26EA42CC0C0ECE14F91E9DF3F000000000000000060DCE3F26EA42CC0D0CE8C73CBB2CE3F0000
310
0000000000000800000015000000
370
    -2
100
RText
 10
-14.32115897208695
 20
0.4986308364966128
 30
0.0
210
0.0
220
0.0
230
1.0
 50
0.0
 40
0.2
  7
ARIAL-CE
 70
     1
  1
$(getvar,loginname)
  0
ENDBLK
  5
2259
330
224D
100
AcDbEntity
  8
0
100
AcDbBlockEnd
  0
BLOCK
  5
225B
330
225A
100
AcDbEntity
  8
0
100
AcDbBlockBegin
  2
koncepcja-opis-A3
 70
     0
 10
0.0
 20
0.0
 30
0.0
  3
koncepcja-opis-A3
  1

  0
RTEXT
  5
225C
330
225A
100
AcDbEntity
  8
A-Annotation-T
  6
ByBlock
 62
     0
 92
      268
310
0C01000003000000780000000A000000C7FE7657FAB425C0E6D6784D15363B40000000000000000000000000000000000000000000000000000000000000F03F000000000000F03F00000000000000000000000000000000551C9970746DC13F000000000000F03F0000000000000000525465787420285254657874290000
310
0084000000060000000500000000315840D5D725C0CA3D08D9A7243B400000000000000000DFEA836ED08C21C0CA3D08D9A7243B400000000000000000DFEA836ED08C21C01F095A36F0583B40000000000000000000315840D5D725C01F095A36F0583B40000000000000000000315840D5D725C0CA3D08D9A7243B400000
310
0000000000000800000015000000
370
    -2
100
RText
 10
-10.92154885365062
 20
27.34741534898887
 30
0.0
210
0.0
220
0.0
230
1.0
 50
0.0
 40
0.2
  7
ARIAL-CE
 70
     1
  1
$(edtime,$(getvar,tdupdate),YYYY-MO-DD HH:MM)
  0
RTEXT
  5
225D
330
225A
100
AcDbEntity
  8
A-Annotation-T
  6
ByBlock
 62
     0
 92
      268
310
0C01000003000000780000000A000000E517572CB99D25C04FD7409534B03B40000000000000000000000000000000000000000000000000000000000000F03F000000000000F03F00000000000000000000000000000000D502A7D9949DD03F000000000000F03F0000000000000000525465787420285254657874290000
310
00840000000600000005000000F0B3BD7F2FE025C049898D6BF98E3B400000000000000000DACAC26190ED1BC049898D6BF98E3B400000000000000000DACAC26190ED1BC05A73A7E8AAF23B400000000000000000F0B3BD7F2FE025C05A73A7E8AAF23B400000000000000000F0B3BD7F2FE025C049898D6BF98E3B400000
310
0000000000000800000015000000
370
    -2
100
RText
 10
-10.93786238852223
 20
27.94792036140584
 30
0.0
210
0.0
220
0.0
230
1.0
 50
0.0
 40
0.3
  7
ARIAL-CE
 70
     1
  1
$(getvar,dwgname)
  0
RTEXT
  5
225E
330
225A
100
AcDbEntity
  8
A-Annotation-T
  6
ByBlock
 62
     0
 92
      268
310
0C01000003000000780000000A000000FCF2DA41FE2FDFBF2EFED4734D1DDC3F000000000000000000000000000000000000000000000000000000000000F03F000000000000F03F000000000000000000000000000000007280AB8BC52D933F000000000000F03F0000000000000000525465787420285254657874290000
310
00840000000600000005000000004F386E6CC9DFBF2AA27747DF83DB3F0000000000000000387D0428BF02CEBF2AA27747DF83DB3F0000000000000000387D0428BF02CEBFEEF8B2BF847B24400000000000000000004F386E6CC9DFBFEEF8B2BF847B24400000000000000000004F386E6CC9DFBF2AA27747DF83DB3F0000
310
0000000000000800000015000000
370
    -2
100
RText
 10
-0.4966689182631257
 20
0.4299238393710164
 30
0.0
210
0.0
220
0.0
230
1.0
 50
90.0
 40
0.2
  7
ARIAL-CE
 70
     1
  1
$(getvar,dwgprefix)$(getvar,dwgname)
  0
TEXT
  5
225F
330
225A
100
AcDbEntity
  8
A-Annotation-T
  6
ByBlock
 62
     0
370
    -2
100
AcDbText
 10
-11.36466321312392
 20
1.072040999248189
 30
0.0
 40
0.2
  1
data wydruku:
  7
ARIAL-CE
 11
-11.36466321312392
 21
1.272040999248189
 31
0.0
100
AcDbText
 73
     3
  0
TEXT
  5
2260
330
225A
100
AcDbEntity
  8
A-Annotation-T
  6
ByBlock
 62
     0
370
    -2
100
AcDbText
 10
-11.67499481095734
 20
0.5053440586720364
 30
0.0
 40
0.2
  1
wydruk wykonał:
  7
ARIAL-CE
 11
-11.67499481095734
 21
0.7053440586720364
 31
0.0
100
AcDbText
 73
     3
  0
RTEXT
  5
2261
330
225A
100
AcDbEntity
  8
A-Annotation-T
  6
ByBlock
 62
     0
 92
      268
310
0C01000003000000780000000A0000007781702E5DA522C06EEE9B1B992CF23F000000000000000000000000000000000000000000000000000000000000F03F000000000000F03F00000000000000000000000000000000701C9970746DC13F000000000000F03F0000000000000000525465787420285254657874290000
310
00840000000600000005000000B0B3511738C822C0A75C92D4C115F13F00000000000000001EDBFA8A66FA1CC0A75C92D4C115F13F00000000000000001EDBFA8A66FA1CC0FC11AFA9475AF43F0000000000000000B0B3511738C822C0FC11AFA9475AF43F0000000000000000B0B3511738C822C0A75C92D4C115F13F0000
310
0000000000000800000015000000
370
    -2
100
RText
 10
-9.391052941058518
 20
1.272040999248132
 30
0.0
210
0.0
220
0.0
230
1.0
 50
0.0
 40
0.2
  7
ARIAL-CE
 70
     1
  1
$(edtime,$(getvar,date),YYYY-MO-DD HH:MM)
  0
RTEXT
  5
2262
330
225A
100
AcDbEntity
  8
A-Annotation-T
  6
ByBlock
 62
     0
 92
      268
310
0C01000003000000780000000A00000061452D290B9422C0ACDAB65126CEE03F000000000000000000000000000000000000000000000000000000000000F03F000000000000F03F00000000000000000000000000000000B75FB8457320C43F000000000000F03F0000000000000000525465787420285254657874290000
310
0084000000060000000500000020B6B80F4CBC22C06A9DFFD12F94DC3F000000000000000060C2F0B065AA1CC06A9DFFD12F94DC3F000000000000000060C2F0B065AA1CC061910DB42D92E63F000000000000000020B6B80F4CBC22C061910DB42D92E63F000000000000000020B6B80F4CBC22C06A9DFFD12F94DC3F0000
310
0000000000000800000015000000
370
    -2
100
RText
 10
-9.36776780252245
 20
0.7053440586719654
 30
0.0
210
0.0
220
0.0
230
1.0
 50
0.0
 40
0.2
  7
ARIAL-CE
 70
     1
  1
$(getvar,loginname)
  0
RTEXT
  5
2263
330
225A
100
AcDbEntity
  8
A-Annotation-T
  6
ByBlock
 62
     0
 92
      268
310
0C01000003000000780000000A0000006D631A4CA3B522C0BD228118DC84E93F000000000000000000000000000000000000000000000000000000000000F03F000000000000F03F00000000000000000000000000000000B7A63234775AAA3F000000000000F03F0000000000000000525465787420285254657874290000
310
00840000000600000005000000C07CB487D0C222C0878DDF5E08B2E83F0000000000000000A2B7D902DE5121C0878DDF5E08B2E83F0000000000000000A2B7D902DE5121C0F8EE5C4C4133EF3F0000000000000000C07CB487D0C222C0F8EE5C4C4133EF3F0000000000000000C07CB487D0C222C0878DDF5E08B2E83F0000
310
0000000000000800000015000000
370
    -2
100
RText
 10
-9.380497208387509
 20
0.9750067225899945
 30
0.0
210
0.0
220
0.0
230
1.0
 50
0.0
 40
0.2
  7
ARIAL-CE
 70
     1
  1
$(getvar,ctab)
  0
TEXT
  5
2264
330
225A
100
AcDbEntity
  8
A-Annotation-T
  6
ByBlock
 62
     0
370
    -2
100
AcDbText
 10
-10.8042534054554
 20
0.7750067225900514
 30
0.0
 40
0.2
  1
zakładka:
  7
ARIAL-CE
 11
-10.8042534054554
 21
0.9750067225900513
 31
0.0
100
AcDbText
 73
     3
  0
RTEXT
  5
2265
330
225A
100
AcDbEntity
  8
A-Annotation-T
  6
ByBlock
 62
     0
 92
      268
310
0C01000003000000780000000A0000009F5E981D68C443C01DA995C58931E43F000000000000000000000000000000000000000000000000000000000000F03F000000000000F03F00000000000000000000000000000000333333333333D33F000000000000F03F0000000000000000525465787420285254657874290000
310
00840000000600000005000000D291CB509BD743C0A0B891F179C9DE3F0000000000000000244AEAD586C943C0A0B891F179C9DE3F0000000000000000244AEAD586C943C0C207FE15F84BF13F0000000000000000D291CB509BD743C0C207FE15F84BF13F0000000000000000D291CB509BD743C0A0B891F179C9DE3F0000
310
0000000000000800000015000000
370
    -2
100
RText
 10
-39.68442735614703
 20
0.4810471400331924
 30
0.0
210
0.0
220
0.0
230
1.0
 50
90.0
 40
0.11
  7
ARIAL-CE
 70
     1
  1
$(xrefs,3)
  0
ENDBLK
  5
2266
330
225A
100
AcDbEntity
  8
0
100
AcDbBlockEnd
  0
BLOCK
  5
232F
330
232B
100
AcDbEntity
 67
     1
  8
0
100
AcDbBlockBegin
  2
*Paper_Space4
 70
     0
 10
0.0
 20
0.0
 30
0.0
  3
*Paper_Space4
  1

  0
VIEWPORT
  5
232C
102
{ACAD_XDICTIONARY
360
7F7E
102
}
330
232B
100
AcDbEntity
 67
     1
  8
0
100
AcDbViewport
 10
21.22443406924518
 20
14.26104116439819
 30
0.0
 40
50.01191248175803
 41
31.41924854736329
 68
     0
 69
     0
 12
21.22443406924518
 22
14.26104116439819
 13
0.0
 23
0.0
 14
10.0
 24
10.0
 15
10.0
 25
10.0
 16
0.0
 26
0.0
 36
1.0
 17
0.0
 27
0.0
 37
0.0
 42
50.0
 43
0.0
 44
0.0
 45
31.41924854736329
 50
0.0
 51
0.0
 72
 20000
 90
    32800
  1

281
     0
 71
     1
 74
     0
110
0.0
120
0.0
130
0.0
111
1.0
121
0.0
131
0.0
112
0.0
122
1.0
132
0.0
 79
     0
146
0.0
  0
VIEWPORT
  5
232D
102
{ACAD_XDICTIONARY
360
7F80
102
}
330
232B
100
AcDbEntity
 67
     1
  8
A-Vports
100
AcDbViewport
 10
20.12251119321156
 20
14.26207605808594
 30
0.0
 40
39.1663003322434
 41
25.28904652781859
 68
     0
 69
     0
 12
459.1940352922977
 22
2077.347168593903
 13
0.0
 23
0.0
 14
1.0
 24
1.0
 15
3000.0
 25
3000.0
 16
0.0
 26
0.0
 36
1.0
 17
-54.71127335617393
 27
-1392.191875242959
 37
989.7342240912781
 42
37.56574004507809
 43
0.0
 44
0.0
 45
2528.904666901206
 50
0.0
 51
0.0
 72
 20000
 90
    32800
  1

281
     0
 71
     1
 74
     0
110
0.0
120
0.0
130
0.0
111
1.0
121
0.0
131
0.0
112
0.0
122
1.0
132
0.0
 79
     1
146
0.0
  0
INSERT
  5
232E
330
232B
100
AcDbEntity
 67
     1
  8
A-Annotation-T
100
AcDbBlockReference
  2
koncepcja-opis-A3
 10
40.32455792997384
 20
0.2681881593354092
 30
0.0
  0
ENDBLK
  5
2330
330
232B
100
AcDbEntity
 67
     1
  8
0
100
AcDbBlockEnd
  0
BLOCK
  5
3A60
330
3A5F
100
AcDbEntity
  8
0
100
AcDbBlockBegin
  2
*U5
 70
     1
 10
0.0
 20
0.0
 30
0.0
  3
*U5
  1

  0
ENDBLK
  5
3A61
330
3A5F
100
AcDbEntity
  8
0
100
AcDbBlockEnd
  0
BLOCK
  5
3AD4
330
3AD3
100
AcDbEntity
  8
0
100
AcDbBlockBegin
  2
teren$0$teren
 70
     0
 10
0.0
 20
0.0
 30
0.0
  3
teren$0$teren
  1
\\mati\architekci\domy typowe\willa anna\willa_anna\Constructs\teren.dwg
  0
ENDBLK
  5
3AD5
330
3AD3
100
AcDbEntity
  8
0
100
AcDbBlockEnd
  0
BLOCK
  5
489F
330
489E
100
AcDbEntity
  8
0
100
AcDbBlockBegin
  2
_ArchTick
 70
     0
 10
0.0
 20
0.0
 30
0.0
  3
_ArchTick
  1

  0
LWPOLYLINE
  5
48A0
330
489E
100
AcDbEntity
  8
0
  6
ByBlock
 62
     0
100
AcDbPolyline
 90
        2
 70
     0
 43
0.0150000081
 10
-0.0500000269999873
 20
-0.0500000269999873
 10
0.0500000269999873
 20
0.0500000269999873
  0
ENDBLK
  5
48A1
330
489E
100
AcDbEntity
  8
0
100
AcDbBlockEnd
  0
BLOCK
  5
48A3
330
48A2
100
AcDbEntity
  8
0
100
AcDbBlockBegin
  2
_Open90
 70
     0
 10
0.0
 20
0.0
 30
0.0
  3
_Open90
  1

  0
LINE
  5
48A4
330
48A2
100
AcDbEntity
  8
0
  6
ByBlock
 62
     0
370
    -2
100
AcDbLine
 10
-0.0500000269999873
 20
0.0500000269999873
 30
0.0
 11
0.0
 21
0.0
 31
0.0
  0
LINE
  5
48A5
330
48A2
100
AcDbEntity
  8
0
  6
ByBlock
 62
     0
370
    -2
100
AcDbLine
 10
0.0
 20
0.0
 30
0.0
 11
-0.0500000269999873
 21
-0.0500000269999873
 31
0.0
  0
LINE
  5
48A6
330
48A2
100
AcDbEntity
  8
0
  6
ByBlock
 62
     0
370
    -2
100
AcDbLine
 10
0.0
 20
0.0
 30
0.0
 11
-0.1000000539999746
 21
0.0
 31
0.0
  0
ENDBLK
  5
48A7
330
48A2
100
AcDbEntity
  8
0
100
AcDbBlockEnd
  0
BLOCK
  5
48A9
330
48A8
100
AcDbEntity
  8
0
100
AcDbBlockBegin
  2
_Small
 70
     0
 10
0.0
 20
0.0
 30
0.0
  3
_Small
  1

  0
CIRCLE
  5
48AA
330
48A8
100
AcDbEntity
  8
0
 62
     0
370
    -2
100
AcDbCircle
 10
0.0
 20
0.0
 30
0.0
 40
0.025
  0
ENDBLK
  5
48AB
330
48A8
100
AcDbEntity
  8
0
100
AcDbBlockEnd
  0
BLOCK
  5
48D7
330
48D4
100
AcDbEntity
  8
0
100
AcDbBlockBegin
  2
Anno_Elevation_Label_4_1m1
 70
     2
 10
0.0
 20
0.0
 30
0.0
  3
Anno_Elevation_Label_4_1m1
  1

  0
ATTDEF
  5
48D8
330
48D4
100
AcDbEntity
  8
0
  6
ByBlock
 62
     0
100
AcDbText
 10
-0.0970929370275258
 20
0.1404806350946103
 30
0.0
 40
0.1
  1

  7
RomanS
 72
     2
 11
-0.0970929370275258
 21
0.1404806350946103
 31
0.0
100
AcDbAttributeDefinition
  3
Prefix
  2
PREFIX
 70
     0
  0
ATTDEF
  5
48D9
330
48D4
100
AcDbEntity
  8
0
  6
ByBlock
 62
     0
100
AcDbText
 10
-0.05
 20
0.1404806350946103
 30
0.0
 40
0.1
  1
+10"
  7
RomanS
100
AcDbAttributeDefinition
  3
Elevation
  2
ELEVATION
 70
     0
  0
ATTDEF
  5
48DA
330
48D4
100
AcDbEntity
  8
0
  6
ByBlock
 62
     0
100
AcDbText
 10
0.1278747890669933
 20
0.0
 30
0.0
 40
0.1
  1

  7
RomanS
100
AcDbAttributeDefinition
  3
Suffix
  2
SUFFIX
 70
     0
  0
LWPOLYLINE
  5
48DB
330
48D4
100
AcDbEntity
  8
0
  6
Continuous
 62
     1
370
     5
100
AcDbPolyline
 90
        3
 70
     1
 43
0.0
 10
0.0
 20
0.0
 10
0.05
 20
0.086602540378442
 10
-0.05
 20
0.086602540378442
  0
LINE
  5
48DC
330
48D4
100
AcDbEntity
  8
0
  6
Continuous
 62
     1
370
     5
100
AcDbLine
 10
0.05
 20
0.0
 30
0.0
 11
-0.05
 21
0.0
 31
0.0
  0
ENDBLK
  5
48DD
330
48D4
100
AcDbEntity
  8
0
100
AcDbBlockEnd
  0
BLOCK
  5
7E73
330
7E72
100
AcDbEntity
  8
0
100
AcDbBlockBegin
  2
*D11
 70
     1
 10
0.0
 20
0.0
 30
0.0
  3
*D11
  1

  0
LINE
  5
7F68
330
7E72
100
AcDbEntity
  8
0
 62
     1
370
    -2
100
AcDbLine
 10
-8402.89909317693
 20
-3391.457754675084
 30
0.0
 11
-6802.899093176927
 21
-3391.457754675084
 31
0.0
  0
INSERT
  5
7F69
330
7E72
100
AcDbEntity
  8
0
 62
     1
370
    -2
100
AcDbBlockReference
  2
B-DIM
 10
-8432.89909317693
 20
-3391.457754675084
 30
0.0
 41
30.0
 42
30.0
 43
30.0
 50
180.0
  0
INSERT
  5
7F6A
330
7E72
100
AcDbEntity
  8
0
 62
     1
370
    -2
100
AcDbBlockReference
  2
B-DIM
 10
-6772.899093176927
 20
-3391.457754675084
 30
0.0
 41
30.0
 42
30.0
 43
30.0
  0
MTEXT
  5
7F6B
330
7E72
100
AcDbEntity
  8
0
 62
    10
100
AcDbMText
 10
-7602.899093176928
 20
-3311.457754675084
 30
0.0
 40
80.0
 41
0.0
 71
     5
 72
     1
  1
\A1;1660
  7
RomanS
 73
     1
 44
1.0
1001
ACAD
1000
MTEXTBEGIN
1070
    73
1070
     1
1070
    44
1040
1.0
1070
    74
1070
     0
1000
MTEXTEND
  0
POINT
  5
7F6C
330
7E72
100
AcDbEntity
  8
Defpoints
 62
     0
100
AcDbPoint
 10
-8432.89909317693
 20
-4502.916210166246
 30
0.0
  0
POINT
  5
7F6D
330
7E72
100
AcDbEntity
  8
Defpoints
 62
     0
100
AcDbPoint
 10
-6772.899093176927
 20
-4502.916210166246
 30
0.0
  0
POINT
  5
7F6E
330
7E72
100
AcDbEntity
  8
Defpoints
 62
     0
100
AcDbPoint
 10
-6772.899093176927
 20
-3391.457754675084
 30
0.0
  0
ENDBLK
  5
7E74
330
7E72
100
AcDbEntity
  8
0
100
AcDbBlockEnd
  0
BLOCK
  5
7E87
330
7E86
100
AcDbEntity
  8
0
100
AcDbBlockBegin
  2
*D12
 70
     1
 10
0.0
 20
0.0
 30
0.0
  3
*D12
  1

  0
LINE
  5
7F61
330
7E86
100
AcDbEntity
  8
0
 62
     1
370
    -2
100
AcDbLine
 10
-8539.153804690123
 20
-4072.91621016624
 30
0.0
 11
-8539.153804690123
 21
-5112.91621016624
 31
0.0
  0
INSERT
  5
7F62
330
7E86
100
AcDbEntity
  8
0
 62
     1
370
    -2
100
AcDbBlockReference
  2
B-DIM
 10
-8539.153804690123
 20
-4042.916210166239
 30
0.0
 41
30.0
 42
30.0
 43
30.0
 50
90.0
  0
INSERT
  5
7F63
330
7E86
100
AcDbEntity
  8
0
 62
     1
370
    -2
100
AcDbBlockReference
  2
B-DIM
 10
-8539.153804690124
 20
-5142.916210166239
 30
0.0
 41
30.0
 42
30.0
 43
30.0
 50
270.0
  0
MTEXT
  5
7F64
330
7E86
100
AcDbEntity
  8
0
 62
    10
100
AcDbMText
 10
-8619.153804690123
 20
-4592.91621016624
 30
0.0
 40
80.0
 41
0.0
 71
     5
 72
     1
  1
\A1;1100
  7
RomanS
 11
0.0000000000000001
 21
1.0
 31
0.0
 73
     1
 44
1.0
1001
ACAD
1000
MTEXTBEGIN
1070
    73
1070
     1
1070
    44
1040
1.0
1070
    74
1070
     0
1000
MTEXTEND
  0
POINT
  5
7F65
330
7E86
100
AcDbEntity
  8
Defpoints
 62
     0
100
AcDbPoint
 10
-7534.165214731553
 20
-4042.916210166239
 30
0.0
  0
POINT
  5
7F66
330
7E86
100
AcDbEntity
  8
Defpoints
 62
     0
100
AcDbPoint
 10
-7602.89909317693
 20
-5142.916210166239
 30
0.0
  0
POINT
  5
7F67
330
7E86
100
AcDbEntity
  8
Defpoints
 62
     0
100
AcDbPoint
 10
-8539.153804690124
 20
-5142.916210166239
 30
0.0
  0
ENDBLK
  5
7E88
330
7E86
100
AcDbEntity
  8
0
100
AcDbBlockEnd
  0
BLOCK
  5
7F19
330
7F18
100
AcDbEntity
  8
0
100
AcDbBlockBegin
  2
*D13
 70
     1
 10
0.0
 20
0.0
 30
0.0
  3
*D13
  1

  0
LINE
  5
7F5A
330
7F18
100
AcDbEntity
  8
0
 62
     1
370
    -2
100
AcDbLine
 10
-2263.14716187145
 20
-3391.457754675084
 30
0.0
 11
-3863.147161871452
 21
-3391.457754675084
 31
0.0
  0
INSERT
  5
7F5B
330
7F18
100
AcDbEntity
  8
0
 62
     1
370
    -2
100
AcDbBlockReference
  2
B-DIM
 10
-2233.14716187145
 20
-3391.457754675084
 30
0.0
 41
30.0
 42
30.0
 43
30.0
  0
INSERT
  5
7F5C
330
7F18
100
AcDbEntity
  8
0
 62
     1
370
    -2
100
AcDbBlockReference
  2
B-DIM
 10
-3893.147161871453
 20
-3391.457754675084
 30
0.0
 41
30.0
 42
30.0
 43
30.0
 50
180.0
  0
MTEXT
  5
7F5D
330
7F18
100
AcDbEntity
  8
0
 62
    10
100
AcDbMText
 10
-3063.147161871451
 20
-3311.457754675084
 30
0.0
 40
80.0
 41
0.0
 71
     5
 72
     1
  1
\A1;1660
  7
RomanS
 73
     1
 44
1.0
1001
ACAD
1000
MTEXTBEGIN
1070
    73
1070
     1
1070
    44
1040
1.0
1070
    74
1070
     0
1000
MTEXTEND
  0
POINT
  5
7F5E
330
7F18
100
AcDbEntity
  8
Defpoints
 62
     0
100
AcDbPoint
 10
-2233.14716187145
 20
-4502.916210166246
 30
0.0
  0
POINT
  5
7F5F
330
7F18
100
AcDbEntity
  8
Defpoints
 62
     0
100
AcDbPoint
 10
-3893.147161871453
 20
-4502.916210166246
 30
0.0
  0
POINT
  5
7F60
330
7F18
100
AcDbEntity
  8
Defpoints
 62
     0
100
AcDbPoint
 10
-3893.147161871453
 20
-3391.457754675084
 30
0.0
  0
ENDBLK
  5
7F1A
330
7F18
100
AcDbEntity
  8
0
100
AcDbBlockEnd
  0
BLOCK
  5
7F23
330
7F22
100
AcDbEntity
  8
0
100
AcDbBlockBegin
  2
*D14
 70
     1
 10
0.0
 20
0.0
 30
0.0
  3
*D14
  1

  0
LINE
  5
7F53
330
7F22
100
AcDbEntity
  8
0
 62
     1
370
    -2
100
AcDbLine
 10
-1956.306944110679
 20
-4072.916210166241
 30
0.0
 11
-1956.30694411068
 21
-5112.916210166241
 31
0.0
  0
INSERT
  5
7F54
330
7F22
100
AcDbEntity
  8
0
 62
     1
370
    -2
100
AcDbBlockReference
  2
B-DIM
 10
-1956.306944110679
 20
-4042.91621016624
 30
0.0
 41
30.0
 42
30.0
 43
30.0
 50
90.0
  0
INSERT
  5
7F55
330
7F22
100
AcDbEntity
  8
0
 62
     1
370
    -2
100
AcDbBlockReference
  2
B-DIM
 10
-1956.30694411068
 20
-5142.916210166242
 30
0.0
 41
30.0
 42
30.0
 43
30.0
 50
270.0
  0
MTEXT
  5
7F56
330
7F22
100
AcDbEntity
  8
0
 62
    10
100
AcDbMText
 10
-2036.306944110679
 20
-4592.916210166241
 30
0.0
 40
80.0
 41
0.0
 71
     5
 72
     1
  1
\A1;1100
  7
RomanS
 11
0.0000000000000001
 21
1.0
 31
0.0
 73
     1
 44
1.0
1001
ACAD
1000
MTEXTBEGIN
1070
    73
1070
     1
1070
    44
1040
1.0
1070
    74
1070
     0
1000
MTEXTEND
  0
POINT
  5
7F57
330
7F22
100
AcDbEntity
  8
Defpoints
 62
     0
100
AcDbPoint
 10
-2961.295534069252
 20
-4042.91621016624
 30
0.0
  0
POINT
  5
7F58
330
7F22
100
AcDbEntity
  8
Defpoints
 62
     0
100
AcDbPoint
 10
-2892.561655623874
 20
-5142.91621016624
 30
0.0
  0
POINT
  5
7F59
330
7F22
100
AcDbEntity
  8
Defpoints
 62
     0
100
AcDbPoint
 10
-1956.30694411068
 20
-5142.916210166242
 30
0.0
  0
ENDBLK
  5
7F24
330
7F22
100
AcDbEntity
  8
0
100
AcDbBlockEnd
  0
ENDSEC
  0
SECTION
  2
ENTITIES
  0
MTEXT
  5
3D74
330
1F
100
AcDbEntity
  8
A-SchedObject-G
  6
Continuous
 62
   191
370
    18
100
AcDbMText
 10
843.0914126846644
 20
-1939.057213941545
 30
0.0
 40
15.0
 41
64.5
 71
     4
 72
     5
  1

  7
RomanS
 73
     2
 44
1.0
1001
ACAD
1000
MTEXTBEGIN
1070
    73
1070
     2
1070
    44
1040
1.0
1070
    74
1070
     0
1000
MTEXTEND
  0
INSERT
  5
4046
330
1F
100
AcDbEntity
  8
0
100
AcDbBlockReference
  2
*U5
 10
0.0
 20
0.0
 30
0.0
1001
AEC_XDATA_BOUND_SPACE
1070
   100
1070
     1
  0
INSERT
  5
4047
330
1F
100
AcDbEntity
  8
0
100
AcDbBlockReference
  2
teren$0$teren
 10
-4715.438380794525
 20
-998.6124439928847
 30
0.0
1001
AEC_XDATA_BOUND_SPACE
1070
   100
1070
     1
  0
TEXT
  5
700C
330
1F
100
AcDbEntity
  8
NAPISY
100
AcDbText
 10
-9086.360371126918
 20
-13359.31081019025
 30
0.0
 40
150.0
  1
   O B R Y S   B U D Y N K U           S K A L A   1 : 5 0 0 
  7
ARIAL
100
AcDbText
  0
TEXT
  5
700E
330
1F
100
AcDbEntity
  8
NAPISY
100
AcDbText
 10
-8990.147320009018
 20
-895.9455493083877
 30
0.0
 40
150.0
  1
MOŻNA WKLEIĆ DO PROJEKTU ZAGOSPODAROWANIA TERENU
  7
ARIAL
100
AcDbText
  0
TEXT
  5
700F
330
1F
100
AcDbEntity
  8
NAPISY
100
AcDbText
 10
-9066.482590644163
 20
-566.0770719456268
 30
0.0
 40
150.0
  1
"DOM POD JARZĄBEM 6"
  7
ARIAL
100
AcDbText
  0
LINE
  5
706E
330
1F
100
AcDbEntity
  8
NAPISY
  6
DASHED
 62
     1
 48
5.0
100
AcDbLine
 10
-5333.02312752419
 20
-8011.719840543875
 30
0.0
 11
-5333.02312752419
 21
-1946.219434280636
 31
0.0
  0
TEXT
  5
706F
330
1F
100
AcDbEntity
  8
NAPISY
100
AcDbText
 10
-5392.544304517512
 20
-6930.072677723343
 30
0.0
 40
100.0
  1
OŚ ODBICIA LUSTRZANEGO
 50
90.0
  7
AVA
100
AcDbText
  0
HATCH
  5
7C3C
330
1F
100
AcDbEntity
  8
0
370
     5
100
AcDbHatch
 10
0.0
 20
0.0
 30
0.0
210
0.0
220
0.0
230
1.0
  2
SOLID
 70
     1
 71
     0
 91
        1
 92
        7
 72
     1
 73
     1
 93
        4
 10
-7841.881203600782
 20
-5254.41621016624
 42
0.1125183003243814
 10
-7840.399709435377
 20
-5247.916210166239
 42
1.0
 10
-7870.399709435377
 20
-5247.916210166239
 42
0.1125183003243814
 10
-7868.918215269973
 20
-5254.41621016624
 42
0.0
 97
        0
 75
     0
 76
     1
 47
0.352670345140999
 98
        1
 10
-7847.560525149608
 20
-5247.590330725089
1001
ACAD
1010
0.0
1020
0.0
1030
0.0
  0
HATCH
  5
7C3D
330
1F
100
AcDbEntity
  8
0
370
     5
100
AcDbHatch
 10
0.0
 20
0.0
 30
0.0
210
0.0
220
0.0
230
1.0
  2
SOLID
 70
     1
 71
     0
 91
        1
 92
        7
 72
     1
 73
     1
 93
        2
 10
-7841.881203600782
 20
-5254.41621016624
 42
0.0
 10
-7868.918215269973
 20
-5254.41621016624
 42
0.628767713236988
 97
        0
 75
     0
 76
     1
 47
0.352670345140999
 98
        1
 10
-7852.148051157984
 20
-5258.523118238315
1001
ACAD
1010
0.0
1020
0.0
1030
0.0
  0
LINE
  5
7C3E
330
1F
100
AcDbEntity
  8
0
370
     5
390
26D
100
AcDbLine
 10
-7870.399709435377
 20
-5254.41621016624
 30
0.0
 11
-7840.399709435377
 21
-5254.41621016624
 31
0.0
  0
LINE
  5
7C3F
330
1F
100
AcDbEntity
  8
0
370
     5
100
AcDbLine
 10
-7835.899093176929
 20
-3862.91621016624
 30
0.0
 11
-7835.899093176929
 21
-3794.631938918777
 31
0.0
  0
LINE
  5
7C40
330
1F
100
AcDbEntity
  8
0
370
     5
100
AcDbLine
 10
-7835.899093176929
 20
-3794.631938918777
 30
0.0
 11
-7701.183364424395
 21
-3659.916210166251
 31
0.0
  0
LINE
  5
7C41
330
1F
100
AcDbEntity
  8
0
370
     5
100
AcDbLine
 10
-7701.183364424395
 20
-3659.916210166251
 30
0.0
 11
-7504.614821929461
 21
-3659.916210166251
 31
0.0
  0
LINE
  5
7C42
330
1F
100
AcDbEntity
  8
0
370
     5
100
AcDbLine
 10
-7504.614821929461
 20
-3659.916210166251
 30
0.0
 11
-7369.899093176929
 21
-3794.631938918777
 31
0.0
  0
LINE
  5
7C43
330
1F
100
AcDbEntity
  8
0
370
     5
100
AcDbLine
 10
-7369.899093176929
 20
-3794.631938918777
 30
0.0
 11
-7369.899093176929
 21
-3862.91621016624
 31
0.0
  0
LINE
  5
7C44
330
1F
100
AcDbEntity
  8
0
370
     5
100
AcDbLine
 10
-8252.89909317693
 20
-5087.91621016624
 30
0.0
 11
-8257.899093176929
 21
-5087.91621016624
 31
0.0
  0
LINE
  5
7C45
330
1F
100
AcDbEntity
  8
0
370
     5
100
AcDbLine
 10
-8257.899093176929
 20
-5087.91621016624
 30
0.0
 11
-8257.899093176929
 21
-5147.916210166241
 31
0.0
  0
LINE
  5
7C46
330
1F
100
AcDbEntity
  8
0
370
     5
100
AcDbLine
 10
-8257.899093176929
 20
-5147.916210166241
 30
0.0
 11
-8197.89909317693
 21
-5147.916210166241
 31
0.0
  0
LINE
  5
7C47
330
1F
100
AcDbEntity
  8
0
370
     5
100
AcDbLine
 10
-8197.89909317693
 20
-5147.916210166241
 30
0.0
 11
-8197.89909317693
 21
-5142.91621016624
 31
0.0
  0
LINE
  5
7C48
330
1F
100
AcDbEntity
  8
0
370
     5
100
AcDbLine
 10
-7007.899093176929
 20
-5147.916210166241
 30
0.0
 11
-7007.899093176929
 21
-5142.91621016624
 31
0.0
  0
LINE
  5
7C49
330
1F
100
AcDbEntity
  8
0
370
     5
100
AcDbLine
 10
-6947.899093176928
 20
-5147.916210166241
 30
0.0
 11
-7007.899093176929
 21
-5147.916210166241
 31
0.0
  0
LINE
  5
7C4A
330
1F
100
AcDbEntity
  8
0
370
     5
100
AcDbLine
 10
-6947.899093176928
 20
-5087.91621016624
 30
0.0
 11
-6947.899093176928
 21
-5147.916210166241
 31
0.0
  0
LINE
  5
7C4B
330
1F
100
AcDbEntity
  8
0
370
     5
100
AcDbLine
 10
-6952.899093176928
 20
-5087.91621016624
 30
0.0
 11
-6947.899093176928
 21
-5087.91621016624
 31
0.0
  0
LINE
  5
7C4C
330
1F
100
AcDbEntity
  8
0
370
     5
100
AcDbLine
 10
-6952.899093176928
 20
-4097.916210166239
 30
0.0
 11
-6947.899093176928
 21
-4097.916210166239
 31
0.0
  0
LINE
  5
7C4D
330
1F
100
AcDbEntity
  8
0
370
     5
100
AcDbLine
 10
-6947.899093176928
 20
-4097.916210166239
 30
0.0
 11
-6947.899093176928
 21
-4037.91621016624
 31
0.0
  0
LINE
  5
7C4E
330
1F
100
AcDbEntity
  8
0
370
     5
100
AcDbLine
 10
-6947.899093176928
 20
-4037.91621016624
 30
0.0
 11
-7007.899093176929
 21
-4037.91621016624
 31
0.0
  0
LINE
  5
7C4F
330
1F
100
AcDbEntity
  8
0
370
     5
100
AcDbLine
 10
-7007.899093176929
 20
-4037.91621016624
 30
0.0
 11
-7007.899093176929
 21
-4042.91621016624
 31
0.0
  0
LINE
  5
7C50
330
1F
100
AcDbEntity
  8
0
370
     5
100
AcDbLine
 10
-8197.89909317693
 20
-4037.91621016624
 30
0.0
 11
-8197.89909317693
 21
-4042.916210166239
 31
0.0
  0
LINE
  5
7C51
330
1F
100
AcDbEntity
  8
0
370
     5
100
AcDbLine
 10
-8257.899093176929
 20
-4037.91621016624
 30
0.0
 11
-8197.89909317693
 21
-4037.91621016624
 31
0.0
  0
LINE
  5
7C52
330
1F
100
AcDbEntity
  8
0
370
     5
100
AcDbLine
 10
-8257.899093176929
 20
-4097.916210166239
 30
0.0
 11
-8257.899093176929
 21
-4037.91621016624
 31
0.0
  0
LINE
  5
7C53
330
1F
100
AcDbEntity
  8
0
370
     5
100
AcDbLine
 10
-8252.89909317693
 20
-4097.916210166239
 30
0.0
 11
-8257.899093176929
 21
-4097.916210166239
 31
0.0
  0
LINE
  5
7C54
330
1F
100
AcDbEntity
  8
0
370
     5
100
AcDbLine
 10
-7026.899093176927
 20
-3862.916210166239
 30
0.0
 11
-7389.899093176929
 21
-3862.916210166239
 31
0.0
  0
LINE
  5
7C55
330
1F
100
AcDbEntity
  8
0
370
     5
100
AcDbLine
 10
-7389.899093176929
 20
-3862.916210166239
 30
0.0
 11
-7389.899093176928
 21
-3802.916210166244
 31
0.0
  0
LINE
  5
7C56
330
1F
100
AcDbEntity
  8
0
370
     5
100
AcDbLine
 10
-7389.899093176928
 20
-3802.916210166244
 30
0.0
 11
-7512.899093176922
 21
-3679.91621016625
 31
0.0
  0
LINE
  5
7C57
330
1F
100
AcDbEntity
  8
0
370
     5
100
AcDbLine
 10
-7512.899093176922
 20
-3679.91621016625
 30
0.0
 11
-7692.899093176936
 21
-3679.91621016625
 31
0.0
  0
LINE
  5
7C58
330
1F
100
AcDbEntity
  8
0
370
     5
100
AcDbLine
 10
-7692.899093176936
 20
-3679.91621016625
 30
0.0
 11
-7815.89909317693
 21
-3802.916210166243
 31
0.0
  0
LINE
  5
7C59
330
1F
100
AcDbEntity
  8
0
370
     5
100
AcDbLine
 10
-7815.89909317693
 20
-3802.916210166243
 30
0.0
 11
-7815.89909317693
 21
-3862.916210166239
 31
0.0
  0
LINE
  5
7C5A
330
1F
100
AcDbEntity
  8
0
370
     5
100
AcDbLine
 10
-7815.89909317693
 20
-3862.916210166239
 30
0.0
 11
-8178.899093176928
 21
-3862.916210166239
 31
0.0
  0
LINE
  5
7C5B
330
1F
100
AcDbEntity
  8
0
370
     5
100
AcDbLine
 10
-7835.899093176929
 20
-3802.91621016624
 30
0.0
 11
-8238.899093176927
 21
-3802.91621016624
 31
0.0
  0
LINE
  5
7C5C
330
1F
100
AcDbEntity
  8
0
370
     5
100
AcDbLine
 10
-8238.899093176927
 20
-3802.91621016624
 30
0.0
 11
-8238.899093176927
 21
-4037.916210166239
 31
0.0
  0
LINE
  5
7C5D
330
1F
100
AcDbEntity
  8
0
370
     5
100
AcDbLine
 10
-8178.899093176928
 20
-4042.91621016624
 30
0.0
 11
-8178.899093176928
 21
-3862.91621016624
 31
0.0
  0
LINE
  5
7C5E
330
1F
100
AcDbEntity
  8
0
370
     5
100
AcDbLine
 10
-7835.899093176929
 20
-3832.91621016624
 30
0.0
 11
-8208.899093176928
 21
-3832.91621016624
 31
0.0
  0
LINE
  5
7C5F
330
1F
100
AcDbEntity
  8
0
370
     5
100
AcDbLine
 10
-8208.899093176928
 20
-3832.91621016624
 30
0.0
 11
-8208.899093176928
 21
-4037.91621016624
 31
0.0
  0
LINE
  5
7C60
330
1F
100
AcDbEntity
  8
0
370
     5
100
AcDbLine
 10
-7369.899093176928
 20
-3802.91621016624
 30
0.0
 11
-6966.899093176929
 21
-3802.91621016624
 31
0.0
  0
LINE
  5
7C61
330
1F
100
AcDbEntity
  8
0
370
     5
100
AcDbLine
 10
-6966.899093176929
 20
-3802.91621016624
 30
0.0
 11
-6966.89909317693
 21
-4037.916210166239
 31
0.0
  0
LINE
  5
7C62
330
1F
100
AcDbEntity
  8
0
370
     5
100
AcDbLine
 10
-7026.89909317693
 20
-4042.91621016624
 30
0.0
 11
-7026.89909317693
 21
-3862.91621016624
 31
0.0
  0
LINE
  5
7C63
330
1F
100
AcDbEntity
  8
0
370
     5
100
AcDbLine
 10
-7369.899093176928
 20
-3832.91621016624
 30
0.0
 11
-6996.89909317693
 21
-3832.91621016624
 31
0.0
  0
LINE
  5
7C64
330
1F
100
AcDbEntity
  8
0
370
     5
100
AcDbLine
 10
-6996.89909317693
 20
-3832.91621016624
 30
0.0
 11
-6996.89909317693
 21
-4037.91621016624
 31
0.0
  0
LINE
  5
7C65
330
1F
100
AcDbEntity
  8
0
370
     5
100
AcDbLine
 10
-7900.399709435378
 20
-5142.91621016624
 30
0.0
 11
-7900.399709435378
 21
-5292.91621016624
 31
0.0
  0
LINE
  5
7C66
330
1F
100
AcDbEntity
  8
0
370
     5
100
AcDbLine
 10
-7900.399709435378
 20
-5292.91621016624
 30
0.0
 11
-7305.39847691848
 21
-5292.91621016624
 31
0.0
  0
LINE
  5
7C67
330
1F
100
AcDbEntity
  8
0
370
     5
100
AcDbLine
 10
-7305.39847691848
 20
-5292.91621016624
 30
0.0
 11
-7305.39847691848
 21
-5142.91621016624
 31
0.0
  0
LINE
  5
7C68
330
1F
100
AcDbEntity
  8
0
370
     5
100
AcDbLine
 10
-7707.899093176929
 20
-5322.916210166241
 30
0.0
 11
-7707.899093176927
 21
-5272.91621016624
 31
0.0
  0
LINE
  5
7C69
330
1F
100
AcDbEntity
  8
0
370
     5
100
AcDbLine
 10
-7707.899093176929
 20
-5322.916210166241
 30
0.0
 11
-7497.899093176928
 21
-5322.916210166241
 31
0.0
  0
LINE
  5
7C6A
330
1F
100
AcDbEntity
  8
0
370
     5
100
AcDbLine
 10
-7497.899093176928
 20
-5322.916210166241
 30
0.0
 11
-7497.899093176927
 21
-5272.91621016624
 31
0.0
  0
LINE
  5
7C6B
330
1F
100
AcDbEntity
  8
0
370
     5
100
AcDbLine
 10
-7737.899093176928
 20
-5292.91621016624
 30
0.0
 11
-7737.899093176928
 21
-5352.916210166241
 31
0.0
  0
LINE
  5
7C6C
330
1F
100
AcDbEntity
  8
0
370
     5
100
AcDbLine
 10
-7737.899093176928
 20
-5352.916210166241
 30
0.0
 11
-7467.899093176929
 21
-5352.916210166241
 31
0.0
  0
LINE
  5
7C6D
330
1F
100
AcDbEntity
  8
0
370
     5
100
AcDbLine
 10
-7467.899093176929
 20
-5352.916210166241
 30
0.0
 11
-7467.899093176929
 21
-5292.91621016624
 31
0.0
  0
CIRCLE
  5
7C6E
330
1F
100
AcDbEntity
  8
0
370
     5
100
AcDbCircle
 10
-7855.399709435377
 20
-5247.916210166239
 30
0.0
 40
15.0
  0
HATCH
  5
7C6F
330
1F
100
AcDbEntity
  8
0
370
     5
100
AcDbHatch
 10
0.0
 20
0.0
 30
0.0
210
0.0
220
0.0
230
1.0
  2
SOLID
 70
     1
 71
     0
 91
        1
 92
        7
 72
     1
 73
     1
 93
        2
 10
-7771.398476918482
 20
-5247.916210166239
 42
1.0
 10
-7741.398476918482
 20
-5247.916210166239
 42
1.0
 97
        0
 75
     0
 76
     1
 47
1.454627335108464
 98
        1
 10
-7758.063103518903
 20
-5237.477439559503
1001
ACAD
1010
0.0
1020
0.0
1030
0.0
  0
CIRCLE
  5
7C70
330
1F
100
AcDbEntity
  8
0
370
     5
100
AcDbCircle
 10
7756.398476918482
 20
-5247.916210166239
 30
0.0
 40
15.0
210
0.0
220
0.0
230
-1.0
  0
HATCH
  5
7C71
330
1F
100
AcDbEntity
  8
0
370
     5
100
AcDbHatch
 10
0.0
 20
0.0
 30
0.0
210
0.0
220
0.0
230
1.0
  2
SOLID
 70
     1
 71
     0
 91
        1
 92
        7
 72
     1
 73
     1
 93
        2
 10
-7335.398476918475
 20
-5247.916210166239
 42
1.0
 10
-7365.398476918475
 20
-5247.916210166239
 42
1.0
 97
        0
 75
     0
 76
     1
 47
0.5686175958159919
 98
        1
 10
-7357.090309514326
 20
-5249.865555099207
1001
ACAD
1010
0.0
1020
0.0
1030
0.0
  0
CIRCLE
  5
7C72
330
1F
100
AcDbEntity
  8
0
370
     5
100
AcDbCircle
 10
7350.398476918474
 20
-5247.916210166239
 30
0.0
 40
15.0
210
0.0
220
0.0
230
-1.0
  0
HATCH
  5
7C73
330
1F
100
AcDbEntity
  8
0
370
     5
100
AcDbHatch
 10
0.0
 20
0.0
 30
0.0
210
0.0
220
0.0
230
1.0
  2
SOLID
 70
     1
 71
     0
 91
        1
 92
        7
 72
     1
 73
     1
 93
        2
 10
-7434.39970943537
 20
-5247.916210166239
 42
1.0
 10
-7464.39970943537
 20
-5247.916210166239
 42
1.0
 97
        0
 75
     0
 76
     1
 47
0.5686175958159919
 98
        1
 10
-7450.402058186366
 20
-5247.591077977799
1001
ACAD
1010
0.0
1020
0.0
1030
0.0
  0
CIRCLE
  5
7C74
330
1F
100
AcDbEntity
  8
0
370
     5
100
AcDbCircle
 10
-7449.39970943537
 20
-5247.916210166239
 30
0.0
 40
15.0
  0
LINE
  5
7C75
330
1F
100
AcDbEntity
  8
0
370
     5
100
AcDbLine
 10
-7880.399709435376
 20
-5142.91621016624
 30
0.0
 11
-7880.399709435376
 21
-5272.91621016624
 31
0.0
  0
LINE
  5
7C76
330
1F
100
AcDbEntity
  8
0
370
     5
100
AcDbLine
 10
-7880.399709435376
 20
-5272.91621016624
 30
0.0
 11
-7707.899093176927
 21
-5272.91621016624
 31
0.0
  0
LINE
  5
7C77
330
1F
100
AcDbEntity
  8
0
370
     5
100
AcDbLine
 10
-7497.899093176927
 20
-5272.91621016624
 30
0.0
 11
-7325.398476918479
 21
-5272.91621016624
 31
0.0
  0
LINE
  5
7C78
330
1F
100
AcDbEntity
  8
0
370
     5
100
AcDbLine
 10
-7325.398476918479
 20
-5272.91621016624
 30
0.0
 11
-7325.398476918479
 21
-5137.50925863449
 31
0.0
  0
LINE
  5
7C7A
102
{ACAD_REACTORS
330
7E98
102
}
330
1F
100
AcDbEntity
  8
0
370
     5
100
AcDbLine
 10
-8252.89909317693
 20
-4042.916210166239
 30
0.0
 11
-6952.899093176927
 21
-4042.91621016624
 31
0.0
  0
LINE
  5
7C7B
330
1F
100
AcDbEntity
  8
0
370
     5
100
AcDbLine
 10
-6952.899093176927
 20
-4042.91621016624
 30
0.0
 11
-6952.899093176927
 21
-4379.916210166239
 31
0.0
  0
LINE
  5
7C7C
330
1F
100
AcDbEntity
  8
0
370
     5
100
AcDbLine
 10
-6952.899093176927
 20
-4379.916210166239
 30
0.0
 11
-6895.899093176927
 21
-4379.916210166239
 31
0.0
  0
LINE
  5
7C7D
330
1F
100
AcDbEntity
  8
0
370
     5
100
AcDbLine
 10
-6895.899093176927
 20
-4379.916210166239
 30
0.0
 11
-6772.899093176939
 21
-4502.916210166234
 31
0.0
  0
LINE
  5
7C7E
330
1F
100
AcDbEntity
  8
0
370
     5
100
AcDbLine
 10
-6772.899093176939
 20
-4502.916210166234
 30
0.0
 11
-6772.899093176939
 21
-4682.916210166246
 31
0.0
  0
LINE
  5
7C7F
330
1F
100
AcDbEntity
  8
0
370
     5
100
AcDbLine
 10
-6772.899093176939
 20
-4682.916210166246
 30
0.0
 11
-6895.899093176928
 21
-4805.91621016624
 31
0.0
  0
LINE
  5
7C80
330
1F
100
AcDbEntity
  8
0
370
     5
100
AcDbLine
 10
-6895.899093176928
 20
-4805.91621016624
 30
0.0
 11
-6952.899093176928
 21
-4805.91621016624
 31
0.0
  0
LINE
  5
7C81
330
1F
100
AcDbEntity
  8
0
370
     5
100
AcDbLine
 10
-6952.899093176928
 20
-4805.91621016624
 30
0.0
 11
-6952.899093176928
 21
-5142.91621016624
 31
0.0
  0
LINE
  5
7C82
102
{ACAD_REACTORS
330
7E98
102
}
330
1F
100
AcDbEntity
  8
0
370
     5
100
AcDbLine
 10
-6952.899093176928
 20
-5142.91621016624
 30
0.0
 11
-8252.89909317693
 21
-5142.91621016624
 31
0.0
  0
LINE
  5
7C83
330
1F
100
AcDbEntity
  8
0
370
     5
100
AcDbLine
 10
-8252.89909317693
 20
-5142.91621016624
 30
0.0
 11
-8252.89909317693
 21
-4805.91621016624
 31
0.0
  0
LINE
  5
7C84
330
1F
100
AcDbEntity
  8
0
370
     5
100
AcDbLine
 10
-8252.89909317693
 20
-4805.91621016624
 30
0.0
 11
-8309.89909317693
 21
-4805.91621016624
 31
0.0
  0
LINE
  5
7C85
330
1F
100
AcDbEntity
  8
0
370
     5
100
AcDbLine
 10
-8309.89909317693
 20
-4805.91621016624
 30
0.0
 11
-8432.899093176919
 21
-4682.916210166246
 31
0.0
  0
LINE
  5
7C87
330
1F
100
AcDbEntity
  8
0
370
     5
100
AcDbLine
 10
-8432.899093176919
 20
-4502.916210166236
 30
0.0
 11
-8309.89909317693
 21
-4379.916210166239
 31
0.0
  0
LINE
  5
7C88
330
1F
100
AcDbEntity
  8
0
370
     5
100
AcDbLine
 10
-8309.89909317693
 20
-4379.916210166239
 30
0.0
 11
-8252.89909317693
 21
-4379.916210166239
 31
0.0
  0
LINE
  5
7C89
330
1F
100
AcDbEntity
  8
0
370
     5
100
AcDbLine
 10
-8252.89909317693
 20
-4379.916210166239
 30
0.0
 11
-8252.89909317693
 21
-4037.91621016624
 31
0.0
  0
LINE
  5
7C8A
330
1F
100
AcDbEntity
  8
0
370
     5
100
AcDbLine
 10
-8192.899093176929
 20
-4102.91621016624
 30
0.0
 11
-7012.899093176928
 21
-4102.91621016624
 31
0.0
  0
LINE
  5
7C8B
330
1F
100
AcDbEntity
  8
0
370
     5
100
AcDbLine
 10
-7012.899093176928
 20
-4102.91621016624
 30
0.0
 11
-7012.899093176928
 21
-4439.91621016624
 31
0.0
  0
LINE
  5
7C8C
330
1F
100
AcDbEntity
  8
0
370
     5
100
AcDbLine
 10
-7012.899093176928
 20
-4439.91621016624
 30
0.0
 11
-6920.751906919313
 21
-4439.91621016624
 31
0.0
  0
LINE
  5
7C8D
330
1F
100
AcDbEntity
  8
0
370
     5
100
AcDbLine
 10
-6920.751906919313
 20
-4439.91621016624
 30
0.0
 11
-6832.89909317694
 21
-4527.769023908619
 31
0.0
  0
LINE
  5
7C8E
330
1F
100
AcDbEntity
  8
0
370
     5
100
AcDbLine
 10
-6832.89909317694
 20
-4527.769023908619
 30
0.0
 11
-6832.89909317694
 21
-4658.063396423861
 31
0.0
  0
LINE
  5
7C8F
330
1F
100
AcDbEntity
  8
0
370
     5
100
AcDbLine
 10
-6832.89909317694
 20
-4658.063396423861
 30
0.0
 11
-6920.751906919315
 21
-4745.916210166241
 31
0.0
  0
LINE
  5
7C90
330
1F
100
AcDbEntity
  8
0
370
     5
100
AcDbLine
 10
-6920.751906919315
 20
-4745.916210166241
 30
0.0
 11
-7012.899093176929
 21
-4745.91621016624
 31
0.0
  0
LINE
  5
7C91
330
1F
100
AcDbEntity
  8
0
370
     5
100
AcDbLine
 10
-7012.899093176929
 20
-4745.91621016624
 30
0.0
 11
-7012.899093176929
 21
-5082.91621016624
 31
0.0
  0
LINE
  5
7C92
330
1F
100
AcDbEntity
  8
0
370
     5
100
AcDbLine
 10
-7012.899093176929
 20
-5082.91621016624
 30
0.0
 11
-8192.899093176929
 21
-5082.91621016624
 31
0.0
  0
LINE
  5
7C93
330
1F
100
AcDbEntity
  8
0
370
     5
100
AcDbLine
 10
-8192.899093176929
 20
-5082.91621016624
 30
0.0
 11
-8192.899093176929
 21
-4745.916210166241
 31
0.0
  0
LINE
  5
7C94
330
1F
100
AcDbEntity
  8
0
370
     5
100
AcDbLine
 10
-8192.899093176929
 20
-4745.916210166241
 30
0.0
 11
-8285.046279434542
 21
-4745.916210166241
 31
0.0
  0
LINE
  5
7C95
330
1F
100
AcDbEntity
  8
0
370
     5
100
AcDbLine
 10
-8225.046279434543
 20
-4805.916210166241
 30
0.0
 11
-8372.899093176929
 21
-4658.063396423849
 31
0.0
  0
LINE
  5
7C97
330
1F
100
AcDbEntity
  8
0
370
     5
100
AcDbLine
 10
-8372.899093176929
 20
-4527.769023908632
 30
0.0
 11
-8285.046279434544
 21
-4439.91621016624
 31
0.0
  0
LINE
  5
7C98
330
1F
100
AcDbEntity
  8
0
370
     5
100
AcDbLine
 10
-8285.046279434544
 20
-4439.91621016624
 30
0.0
 11
-8192.899093176929
 21
-4439.91621016624
 31
0.0
  0
LINE
  5
7C99
330
1F
100
AcDbEntity
  8
0
370
     5
100
AcDbLine
 10
-8192.899093176929
 20
-4439.91621016624
 30
0.0
 11
-8192.899093176929
 21
-4102.91621016624
 31
0.0
  0
LINE
  5
7C9A
330
1F
100
AcDbEntity
  8
0
370
     5
100
AcDbLine
 10
-7660.899093176928
 20
-5142.91621016624
 30
0.0
 11
-7660.899093176928
 21
-5082.91621016624
 31
0.0
  0
LINE
  5
7C9B
330
1F
100
AcDbEntity
  8
0
370
     5
100
AcDbLine
 10
-7544.899093176929
 20
-5142.91621016624
 30
0.0
 11
-7544.899093176929
 21
-5082.91621016624
 31
0.0
  0
LINE
  5
7CFD
102
{ACAD_REACTORS
330
7E84
102
}
330
1F
100
AcDbEntity
  8
0
370
     5
100
AcDbLine
 10
-8432.89909317693
 20
-4502.916210166246
 30
0.0
 11
-8432.89909317693
 21
-4682.916210166235
 31
0.0
  0
LINE
  5
7CFE
330
1F
100
AcDbEntity
  8
0
370
     5
100
AcDbLine
 10
-8372.899093176929
 20
-4442.916210166243
 30
0.0
 11
-8372.899093176929
 21
-4742.916210166238
 31
0.0
  0
HATCH
  5
7D05
330
1F
100
AcDbEntity
  8
0
370
     5
100
AcDbHatch
 10
0.0
 20
0.0
 30
0.0
210
0.0
220
0.0
230
1.0
  2
SOLID
 70
     1
 71
     0
 91
        1
 92
        7
 72
     0
 73
     1
 93
        4
 10
-8372.899093176931
 20
-4442.916210166243
 10
-8432.89909317693
 20
-4502.916210166246
 10
-8432.89909317693
 20
-4682.916210166236
 10
-8372.899093176929
 20
-4742.916210166239
 97
        0
 75
     0
 76
     1
 47
1.119136470096005
 98
        1
 10
-8394.16089523641
 20
-4586.360269078457
1001
ACAD
1010
0.0
1020
0.0
1030
0.0
  0
HATCH
  5
7D0E
330
1F
100
AcDbEntity
  8
0
370
     5
100
AcDbHatch
 10
0.0
 20
0.0
 30
0.0
210
0.0
220
0.0
230
1.0
  2
SOLID
 70
     1
 71
     0
 91
        1
 92
        7
 72
     0
 73
     1
 93
        6
 10
-8285.046279434546
 20
-4439.91621016624
 10
-8252.89909317693
 20
-4439.91621016624
 10
-8252.89909317693
 20
-4379.916210166239
 10
-8309.89909317693
 20
-4379.916210166239
 10
-8372.899093176929
 20
-4442.916210166242
 10
-8372.899093176929
 20
-4527.769023908634
 97
        0
 75
     0
 76
     1
 47
1.119136470096005
 98
        1
 10
-8339.288812003337
 20
-4448.706476520976
1001
ACAD
1010
0.0
1020
0.0
1030
0.0
  0
HATCH
  5
7D2A
330
1F
100
AcDbEntity
  8
0
370
     5
100
AcDbHatch
 10
0.0
 20
0.0
 30
0.0
210
0.0
220
0.0
230
1.0
  2
SOLID
 70
     1
 71
     0
 91
        1
 92
        7
 72
     0
 73
     1
 93
       22
 10
-8192.899093176929
 20
-4102.916210166239
 10
-7012.899093176927
 20
-4102.91621016624
 10
-7012.899093176928
 20
-4439.91621016624
 10
-6920.751906919313
 20
-4439.916210166239
 10
-6832.89909317694
 20
-4527.769023908619
 10
-6832.899093176941
 20
-4658.063396423862
 10
-6920.751906919315
 20
-4745.916210166241
 10
-7012.899093176929
 20
-4745.91621016624
 10
-7012.899093176928
 20
-5082.91621016624
 10
-7544.899093176929
 20
-5082.916210166239
 10
-7544.899093176929
 20
-5142.91621016624
 10
-6952.899093176929
 20
-5142.91621016624
 10
-6952.899093176928
 20
-4805.916210166241
 10
-6895.899093176927
 20
-4805.91621016624
 10
-6772.899093176938
 20
-4682.916210166247
 10
-6772.89909317694
 20
-4502.916210166233
 10
-6895.899093176925
 20
-4379.916210166239
 10
-6952.899093176927
 20
-4379.91621016624
 10
-6952.899093176927
 20
-4042.91621016624
 10
-8252.89909317693
 20
-4042.916210166239
 10
-8252.89909317693
 20
-4439.916210166239
 10
-8192.899093176929
 20
-4439.916210166239
 97
        0
 75
     0
 76
     1
 47
1.119136470096005
 98
        1
 10
-8228.424779356208
 20
-4416.25152534321
1001
ACAD
1010
0.0
1020
0.0
1030
0.0
  0
HATCH
  5
7D3F
330
1F
100
AcDbEntity
  8
0
370
     5
100
AcDbHatch
 10
0.0
 20
0.0
 30
0.0
210
0.0
220
0.0
230
1.0
  2
SOLID
 70
     1
 71
     0
 91
        1
 92
        7
 72
     0
 73
     1
 93
        6
 10
-8192.899093176929
 20
-4745.916210166241
 10
-8252.89909317693
 20
-4745.916210166241
 10
-8252.899093176932
 20
-5142.91621016624
 10
-7660.89909317693
 20
-5142.91621016624
 10
-7660.899093176928
 20
-5082.91621016624
 10
-8192.899093176929
 20
-5082.91621016624
 97
        0
 75
     0
 76
     1
 47
1.119136470096005
 98
        1
 10
-8216.106546938243
 20
-4819.140684747985
1001
ACAD
1010
0.0
1020
0.0
1030
0.0
  0
HATCH
  5
7D4C
330
1F
100
AcDbEntity
  8
0
370
     5
100
AcDbHatch
 10
0.0
 20
0.0
 30
0.0
210
0.0
220
0.0
230
1.0
  2
SOLID
 70
     1
 71
     0
 91
        1
 92
        7
 72
     0
 73
     1
 93
        3
 10
-8252.89909317693
 20
-4745.916210166241
 10
-8285.046279434542
 20
-4745.916210166241
 10
-8252.89909317693
 20
-4778.063396423852
 97
        0
 75
     0
 76
     1
 47
0.4870639559595462
 98
        1
 10
-8261.231467211189
 20
-4754.974704719058
1001
ACAD
1010
0.0
1020
0.0
1030
0.0
  0
LINE
  5
7D59
330
1F
100
AcDbEntity
  8
0
370
     5
100
AcDbLine
 10
-8285.046279434542
 20
-4745.916210166241
 30
0.0
 11
-8309.89909317693
 21
-4805.91621016624
 31
0.0
  0
LINE
  5
7D5A
330
1F
100
AcDbEntity
  8
0
370
     5
100
AcDbLine
 10
-8320.744123949483
 20
-4710.218365651301
 30
0.0
 11
-8349.298509633579
 21
-4766.51679370959
 31
0.0
  0
HATCH
  5
7D5F
330
1F
100
AcDbEntity
  8
0
370
     5
100
AcDbHatch
 10
0.0
 20
0.0
 30
0.0
210
0.0
220
0.0
230
1.0
  2
SOLID
 70
     1
 71
     0
 91
        1
 92
        7
 72
     0
 73
     1
 93
        4
 10
-8349.298509633577
 20
-4766.51679370959
 10
-8309.899093176928
 20
-4805.916210166239
 10
-8285.046279434542
 20
-4745.916210166241
 10
-8320.744123949483
 20
-4710.218365651301
 97
        0
 75
     0
 76
     1
 47
0.4870639559595462
 98
        1
 10
-8316.304244367637
 20
-4751.56523934619
1001
ACAD
1010
0.0
1020
0.0
1030
0.0
  0
HATCH
  5
7D64
330
1F
100
AcDbEntity
  8
0
370
     5
100
AcDbHatch
 10
0.0
 20
0.0
 30
0.0
210
0.0
220
0.0
230
1.0
  2
SOLID
 70
     1
 71
     0
 91
        1
 92
        7
 72
     0
 73
     1
 93
        4
 10
-8309.89909317693
 20
-4805.91621016624
 10
-8252.899093176932
 20
-4805.916210166241
 10
-8252.899093176932
 20
-4778.063396423855
 10
-8285.046279434544
 20
-4745.916210166241
 97
        0
 75
     0
 76
     1
 47
0.4870639559595462
 98
        1
 10
-8284.137826287055
 20
-4782.737329300089
1001
ACAD
1010
0.0
1020
0.0
1030
0.0
  0
HATCH
  5
7D74
330
1F
100
AcDbEntity
  8
0
370
     5
100
AcDbHatch
 10
0.0
 20
0.0
 30
0.0
210
0.0
220
0.0
230
1.0
  2
SOLID
 70
     1
 71
     0
 91
        1
 92
        7
 72
     0
 73
     1
 93
        4
 10
-8372.899093176929
 20
-4658.063396423848
 10
-8372.899093176929
 20
-4742.916210166239
 10
-8349.29850963358
 20
-4766.516793709591
 10
-8320.744123949483
 20
-4710.218365651301
 97
        0
 75
     0
 76
     1
 47
0.341774978535384
 98
        1
 10
-8366.624151970841
 20
-4698.054671270202
1001
ACAD
1010
0.0
1020
0.0
1030
0.0
  0
LINE
  5
7D75
330
1F
100
AcDbEntity
  8
0
 62
     1
100
AcDbLine
 10
-6982.899093176928
 20
-3632.645877596133
 30
0.0
 11
-7012.899093176928
 21
-3632.645877596133
 31
0.0
  0
LINE
  5
7D76
330
1F
100
AcDbEntity
  8
0
 62
     1
100
AcDbLine
 10
-6742.89909317694
 20
-3632.645877596133
 30
0.0
 11
-6712.89909317694
 21
-3632.645877596133
 31
0.0
  0
LINE
  5
7D77
330
1F
100
AcDbEntity
  8
0
 62
     1
100
AcDbLine
 10
-6952.899093176927
 20
-3632.645877596133
 30
0.0
 11
-6772.899093176939
 21
-3632.645877596133
 31
0.0
  0
INSERT
  5
7D78
330
1F
100
AcDbEntity
  8
0
 62
     1
100
AcDbBlockReference
  2
B-DIM
 10
-6952.899093176927
 20
-3632.645877596133
 30
0.0
 41
30.0
 42
30.0
 43
30.0
1001
AEC_XDATA_BOUND_SPACE
1070
   100
1070
     1
  0
INSERT
  5
7D79
330
1F
100
AcDbEntity
  8
0
 62
     1
100
AcDbBlockReference
  2
B-DIM
 10
-6772.899093176939
 20
-3632.645877596133
 30
0.0
 41
30.0
 42
30.0
 43
30.0
 50
180.0
1001
AEC_XDATA_BOUND_SPACE
1070
   100
1070
     1
  0
MTEXT
  5
7D7A
330
1F
100
AcDbEntity
  8
0
 62
    10
100
AcDbMText
 10
-6862.899093176933
 20
-3552.645877596133
 30
0.0
 40
80.0
 41
0.0
 71
     5
 72
     1
  1
\A1;180
  7
RomanS
 73
     1
 44
1.0
1001
ACAD
1000
MTEXTBEGIN
1070
    73
1070
     1
1070
    44
1040
1.0
1070
    74
1070
     0
1000
MTEXTEND
  0
LINE
  5
7D7B
330
1F
100
AcDbEntity
  8
0
 62
     1
100
AcDbLine
 10
-8222.899093176929
 20
-3632.645877596133
 30
0.0
 11
-6982.899093176928
 21
-3632.645877596133
 31
0.0
  0
INSERT
  5
7D7C
330
1F
100
AcDbEntity
  8
0
 62
     1
100
AcDbBlockReference
  2
B-DIM
 10
-8252.89909317693
 20
-3632.645877596133
 30
0.0
 41
30.0
 42
30.0
 43
30.0
 50
180.0
1001
AEC_XDATA_BOUND_SPACE
1070
   100
1070
     1
  0
INSERT
  5
7D7D
330
1F
100
AcDbEntity
  8
0
 62
     1
100
AcDbBlockReference
  2
B-DIM
 10
-6952.899093176927
 20
-3632.645877596133
 30
0.0
 41
30.0
 42
30.0
 43
30.0
1001
AEC_XDATA_BOUND_SPACE
1070
   100
1070
     1
  0
MTEXT
  5
7D7E
330
1F
100
AcDbEntity
  8
0
 62
    10
100
AcDbMText
 10
-7602.899093176929
 20
-3552.645877596133
 30
0.0
 40
80.0
 41
0.0
 71
     5
 72
     1
  1
\A1;1300
  7
RomanS
 73
     1
 44
1.0
1001
ACAD
1000
MTEXTBEGIN
1070
    73
1070
     1
1070
    44
1040
1.0
1070
    74
1070
     0
1000
MTEXTEND
  0
LINE
  5
7D7F
330
1F
100
AcDbEntity
  8
0
 62
     1
100
AcDbLine
 10
-8462.899093176918
 20
-3632.645877596133
 30
0.0
 11
-8492.899093176919
 21
-3632.645877596133
 31
0.0
  0
LINE
  5
7D80
330
1F
100
AcDbEntity
  8
0
 62
     1
100
AcDbLine
 10
-8222.899093176929
 20
-3632.645877596133
 30
0.0
 11
-8192.899093176929
 21
-3632.645877596133
 31
0.0
  0
LINE
  5
7D81
330
1F
100
AcDbEntity
  8
0
 62
     1
100
AcDbLine
 10
-8432.899093176919
 20
-3632.645877596133
 30
0.0
 11
-8252.89909317693
 21
-3632.645877596133
 31
0.0
  0
INSERT
  5
7D82
330
1F
100
AcDbEntity
  8
0
 62
     1
100
AcDbBlockReference
  2
B-DIM
 10
-8432.899093176919
 20
-3632.645877596133
 30
0.0
 41
30.0
 42
30.0
 43
30.0
1001
AEC_XDATA_BOUND_SPACE
1070
   100
1070
     1
  0
INSERT
  5
7D83
330
1F
100
AcDbEntity
  8
0
 62
     1
100
AcDbBlockReference
  2
B-DIM
 10
-8252.89909317693
 20
-3632.645877596133
 30
0.0
 41
30.0
 42
30.0
 43
30.0
 50
180.0
1001
AEC_XDATA_BOUND_SPACE
1070
   100
1070
     1
  0
MTEXT
  5
7D84
330
1F
100
AcDbEntity
  8
0
 62
    10
100
AcDbMText
 10
-8342.899093176924
 20
-3552.645877596133
 30
0.0
 40
80.0
 41
0.0
 71
     5
 72
     1
  1
\A1;180
  7
RomanS
 73
     1
 44
1.0
1001
ACAD
1000
MTEXTBEGIN
1070
    73
1070
     1
1070
    44
1040
1.0
1070
    74
1070
     0
1000
MTEXTEND
  0
LINE
  5
7DB8
330
1F
100
AcDbEntity
  8
RAMKI-A4
100
AcDbLine
 10
-10545.7123178019
 20
-14024.86689309279
 30
0.0
 11
-10545.7123178019
 21
-4.866893092788814
 31
0.0
  0
LINE
  5
7DB9
330
1F
100
AcDbEntity
  8
RAMKI-A4
100
AcDbLine
 10
-10545.7123178019
 20
-4.866893092788814
 30
0.0
 11
-345.7123178018737
 21
-4.866893092788814
 31
0.0
  0
LINE
  5
7DBA
330
1F
100
AcDbEntity
  8
RAMKI-A4
100
AcDbLine
 10
-345.7123178018737
 20
-4.866893092788814
 30
0.0
 11
-345.7123178018737
 21
-14024.86689309279
 31
0.0
  0
LINE
  5
7DBB
330
1F
100
AcDbEntity
  8
RAMKI-A4
100
AcDbLine
 10
-345.7123178018737
 20
-14024.86689309279
 30
0.0
 11
-10545.7123178019
 21
-14024.86689309279
 31
0.0
  0
DIMENSION
  5
7E71
102
{ACAD_XDICTIONARY
360
7E7C
102
}
102
{ACAD_REACTORS
330
7E84
102
}
330
1F
100
AcDbEntity
  8
0
100
AcDbDimension
  2
*D11
 10
-6772.899093176927
 20
-3391.457754675084
 30
0.0
 11
-7602.899093176928
 21
-3311.457754675084
 31
0.0
 70
    32
 71
     5
 42
1660.000000000003
  3
500
100
AcDbAlignedDimension
 13
-8432.89909317693
 23
-4502.916210166246
 33
0.0
 14
-6772.899093176927
 24
-4502.916210166246
 34
0.0
100
AcDbRotatedDimension
  0
DIMENSION
  5
7E85
102
{ACAD_XDICTIONARY
360
7E90
102
}
102
{ACAD_REACTORS
330
7E98
102
}
330
1F
100
AcDbEntity
  8
0
100
AcDbDimension
  2
*D12
 10
-8539.153804690124
 20
-5142.916210166239
 30
0.0
 11
-8619.153804690123
 21
-4592.91621016624
 31
0.0
 70
    32
 71
     5
 42
1099.999999999999
  3
500
100
AcDbAlignedDimension
 13
-7534.165214731553
 23
-4042.91621016624
 33
0.0
 14
-7602.89909317693
 24
-5142.91621016624
 34
0.0
 50
90.0
100
AcDbRotatedDimension
  0
HATCH
  5
7E99
330
1F
100
AcDbEntity
  8
0
370
     5
100
AcDbHatch
 10
0.0
 20
0.0
 30
0.0
210
0.0
220
0.0
230
1.0
  2
SOLID
 70
     1
 71
     0
 91
        1
 92
        7
 72
     1
 73
     1
 93
        4
 10
-2824.165051447597
 20
-5254.41621016624
 42
-0.1125183003243814
 10
-2825.646545613002
 20
-5247.916210166239
 42
-1.0
 10
-2795.646545613002
 20
-5247.916210166239
 42
-0.1125183003243814
 10
-2797.128039778407
 20
-5254.41621016624
 42
0.0
 97
        0
 75
     0
 76
     1
 47
0.352670345140999
 98
        1
 10
-2818.485729898771
 20
-5247.590330725089
1001
ACAD
1010
0.0
1020
0.0
1030
0.0
  0
HATCH
  5
7E9A
330
1F
100
AcDbEntity
  8
0
370
     5
100
AcDbHatch
 10
0.0
 20
0.0
 30
0.0
210
0.0
220
0.0
230
1.0
  2
SOLID
 70
     1
 71
     0
 91
        1
 92
        7
 72
     1
 73
     1
 93
        2
 10
-2824.165051447597
 20
-5254.41621016624
 42
0.0
 10
-2797.128039778407
 20
-5254.41621016624
 42
-0.628767713236988
 97
        0
 75
     0
 76
     1
 47
0.352670345140999
 98
        1
 10
-2813.898203890395
 20
-5258.523118238315
1001
ACAD
1010
0.0
1020
0.0
1030
0.0
  0
LINE
  5
7E9B
330
1F
100
AcDbEntity
  8
0
370
     5
390
26D
100
AcDbLine
 10
-2795.646545613002
 20
-5254.41621016624
 30
0.0
 11
-2825.646545613002
 21
-5254.41621016624
 31
0.0
  0
LINE
  5
7E9C
330
1F
100
AcDbEntity
  8
0
370
     5
100
AcDbLine
 10
-2830.14716187145
 20
-3862.91621016624
 30
0.0
 11
-2830.14716187145
 21
-3794.631938918777
 31
0.0
  0
LINE
  5
7E9D
330
1F
100
AcDbEntity
  8
0
370
     5
100
AcDbLine
 10
-2830.14716187145
 20
-3794.631938918777
 30
0.0
 11
-2964.862890623984
 21
-3659.916210166251
 31
0.0
  0
LINE
  5
7E9E
330
1F
100
AcDbEntity
  8
0
370
     5
100
AcDbLine
 10
-2964.862890623984
 20
-3659.916210166251
 30
0.0
 11
-3161.431433118918
 21
-3659.916210166251
 31
0.0
  0
LINE
  5
7E9F
330
1F
100
AcDbEntity
  8
0
370
     5
100
AcDbLine
 10
-3161.431433118918
 20
-3659.916210166251
 30
0.0
 11
-3296.147161871451
 21
-3794.631938918777
 31
0.0
  0
LINE
  5
7EA0
330
1F
100
AcDbEntity
  8
0
370
     5
100
AcDbLine
 10
-3296.147161871451
 20
-3794.631938918777
 30
0.0
 11
-3296.147161871451
 21
-3862.91621016624
 31
0.0
  0
LINE
  5
7EA1
330
1F
100
AcDbEntity
  8
0
370
     5
100
AcDbLine
 10
-2413.147161871449
 20
-5087.91621016624
 30
0.0
 11
-2408.14716187145
 21
-5087.91621016624
 31
0.0
  0
LINE
  5
7EA2
330
1F
100
AcDbEntity
  8
0
370
     5
100
AcDbLine
 10
-2408.14716187145
 20
-5087.91621016624
 30
0.0
 11
-2408.14716187145
 21
-5147.916210166241
 31
0.0
  0
LINE
  5
7EA3
330
1F
100
AcDbEntity
  8
0
370
     5
100
AcDbLine
 10
-2408.14716187145
 20
-5147.916210166241
 30
0.0
 11
-2468.14716187145
 21
-5147.916210166241
 31
0.0
  0
LINE
  5
7EA4
330
1F
100
AcDbEntity
  8
0
370
     5
100
AcDbLine
 10
-2468.14716187145
 20
-5147.916210166241
 30
0.0
 11
-2468.14716187145
 21
-5142.91621016624
 31
0.0
  0
LINE
  5
7EA5
330
1F
100
AcDbEntity
  8
0
370
     5
100
AcDbLine
 10
-3658.14716187145
 20
-5147.916210166241
 30
0.0
 11
-3658.14716187145
 21
-5142.91621016624
 31
0.0
  0
LINE
  5
7EA6
330
1F
100
AcDbEntity
  8
0
370
     5
100
AcDbLine
 10
-3718.147161871451
 20
-5147.916210166241
 30
0.0
 11
-3658.14716187145
 21
-5147.916210166241
 31
0.0
  0
LINE
  5
7EA7
330
1F
100
AcDbEntity
  8
0
370
     5
100
AcDbLine
 10
-3718.147161871451
 20
-5087.91621016624
 30
0.0
 11
-3718.147161871451
 21
-5147.916210166241
 31
0.0
  0
LINE
  5
7EA8
330
1F
100
AcDbEntity
  8
0
370
     5
100
AcDbLine
 10
-3713.147161871451
 20
-5087.91621016624
 30
0.0
 11
-3718.147161871451
 21
-5087.91621016624
 31
0.0
  0
LINE
  5
7EA9
330
1F
100
AcDbEntity
  8
0
370
     5
100
AcDbLine
 10
-3713.147161871451
 20
-4097.916210166239
 30
0.0
 11
-3718.147161871451
 21
-4097.916210166239
 31
0.0
  0
LINE
  5
7EAA
330
1F
100
AcDbEntity
  8
0
370
     5
100
AcDbLine
 10
-3718.147161871451
 20
-4097.916210166239
 30
0.0
 11
-3718.147161871451
 21
-4037.91621016624
 31
0.0
  0
LINE
  5
7EAB
330
1F
100
AcDbEntity
  8
0
370
     5
100
AcDbLine
 10
-3718.147161871451
 20
-4037.91621016624
 30
0.0
 11
-3658.14716187145
 21
-4037.91621016624
 31
0.0
  0
LINE
  5
7EAC
330
1F
100
AcDbEntity
  8
0
370
     5
100
AcDbLine
 10
-3658.14716187145
 20
-4037.91621016624
 30
0.0
 11
-3658.14716187145
 21
-4042.91621016624
 31
0.0
  0
LINE
  5
7EAD
330
1F
100
AcDbEntity
  8
0
370
     5
100
AcDbLine
 10
-2468.14716187145
 20
-4037.91621016624
 30
0.0
 11
-2468.14716187145
 21
-4042.916210166239
 31
0.0
  0
LINE
  5
7EAE
330
1F
100
AcDbEntity
  8
0
370
     5
100
AcDbLine
 10
-2408.14716187145
 20
-4037.91621016624
 30
0.0
 11
-2468.14716187145
 21
-4037.91621016624
 31
0.0
  0
LINE
  5
7EAF
330
1F
100
AcDbEntity
  8
0
370
     5
100
AcDbLine
 10
-2408.14716187145
 20
-4097.916210166239
 30
0.0
 11
-2408.14716187145
 21
-4037.91621016624
 31
0.0
  0
LINE
  5
7EB0
330
1F
100
AcDbEntity
  8
0
370
     5
100
AcDbLine
 10
-2413.147161871449
 20
-4097.916210166239
 30
0.0
 11
-2408.14716187145
 21
-4097.916210166239
 31
0.0
  0
LINE
  5
7EB1
330
1F
100
AcDbEntity
  8
0
370
     5
100
AcDbLine
 10
-3639.147161871452
 20
-3862.916210166239
 30
0.0
 11
-3276.147161871451
 21
-3862.916210166239
 31
0.0
  0
LINE
  5
7EB2
330
1F
100
AcDbEntity
  8
0
370
     5
100
AcDbLine
 10
-3276.147161871451
 20
-3862.916210166239
 30
0.0
 11
-3276.147161871452
 21
-3802.916210166244
 31
0.0
  0
LINE
  5
7EB3
330
1F
100
AcDbEntity
  8
0
370
     5
100
AcDbLine
 10
-3276.147161871452
 20
-3802.916210166244
 30
0.0
 11
-3153.147161871458
 21
-3679.91621016625
 31
0.0
  0
LINE
  5
7EB4
330
1F
100
AcDbEntity
  8
0
370
     5
100
AcDbLine
 10
-3153.147161871458
 20
-3679.91621016625
 30
0.0
 11
-2973.147161871443
 21
-3679.91621016625
 31
0.0
  0
LINE
  5
7EB5
330
1F
100
AcDbEntity
  8
0
370
     5
100
AcDbLine
 10
-2973.147161871443
 20
-3679.91621016625
 30
0.0
 11
-2850.14716187145
 21
-3802.916210166243
 31
0.0
  0
LINE
  5
7EB6
330
1F
100
AcDbEntity
  8
0
370
     5
100
AcDbLine
 10
-2850.14716187145
 20
-3802.916210166243
 30
0.0
 11
-2850.14716187145
 21
-3862.916210166239
 31
0.0
  0
LINE
  5
7EB7
330
1F
100
AcDbEntity
  8
0
370
     5
100
AcDbLine
 10
-2850.14716187145
 20
-3862.916210166239
 30
0.0
 11
-2487.147161871452
 21
-3862.916210166239
 31
0.0
  0
LINE
  5
7EB8
330
1F
100
AcDbEntity
  8
0
370
     5
100
AcDbLine
 10
-2830.14716187145
 20
-3802.91621016624
 30
0.0
 11
-2427.147161871451
 21
-3802.91621016624
 31
0.0
  0
LINE
  5
7EB9
330
1F
100
AcDbEntity
  8
0
370
     5
100
AcDbLine
 10
-2427.147161871451
 20
-3802.91621016624
 30
0.0
 11
-2427.147161871451
 21
-4037.916210166239
 31
0.0
  0
LINE
  5
7EBA
330
1F
100
AcDbEntity
  8
0
370
     5
100
AcDbLine
 10
-2487.147161871452
 20
-4042.91621016624
 30
0.0
 11
-2487.147161871452
 21
-3862.91621016624
 31
0.0
  0
LINE
  5
7EBB
330
1F
100
AcDbEntity
  8
0
370
     5
100
AcDbLine
 10
-2830.14716187145
 20
-3832.91621016624
 30
0.0
 11
-2457.147161871451
 21
-3832.91621016624
 31
0.0
  0
LINE
  5
7EBC
330
1F
100
AcDbEntity
  8
0
370
     5
100
AcDbLine
 10
-2457.147161871451
 20
-3832.91621016624
 30
0.0
 11
-2457.147161871451
 21
-4037.91621016624
 31
0.0
  0
LINE
  5
7EBD
330
1F
100
AcDbEntity
  8
0
370
     5
100
AcDbLine
 10
-3296.147161871452
 20
-3802.91621016624
 30
0.0
 11
-3699.14716187145
 21
-3802.91621016624
 31
0.0
  0
LINE
  5
7EBE
330
1F
100
AcDbEntity
  8
0
370
     5
100
AcDbLine
 10
-3699.14716187145
 20
-3802.91621016624
 30
0.0
 11
-3699.147161871449
 21
-4037.916210166239
 31
0.0
  0
LINE
  5
7EBF
330
1F
100
AcDbEntity
  8
0
370
     5
100
AcDbLine
 10
-3639.14716187145
 20
-4042.91621016624
 30
0.0
 11
-3639.14716187145
 21
-3862.91621016624
 31
0.0
  0
LINE
  5
7EC0
330
1F
100
AcDbEntity
  8
0
370
     5
100
AcDbLine
 10
-3296.147161871452
 20
-3832.91621016624
 30
0.0
 11
-3669.14716187145
 21
-3832.91621016624
 31
0.0
  0
LINE
  5
7EC1
330
1F
100
AcDbEntity
  8
0
370
     5
100
AcDbLine
 10
-3669.14716187145
 20
-3832.91621016624
 30
0.0
 11
-3669.14716187145
 21
-4037.91621016624
 31
0.0
  0
LINE
  5
7EC2
330
1F
100
AcDbEntity
  8
0
370
     5
100
AcDbLine
 10
-2765.646545613002
 20
-5142.91621016624
 30
0.0
 11
-2765.646545613002
 21
-5292.91621016624
 31
0.0
  0
LINE
  5
7EC3
330
1F
100
AcDbEntity
  8
0
370
     5
100
AcDbLine
 10
-2765.646545613002
 20
-5292.91621016624
 30
0.0
 11
-3360.647778129899
 21
-5292.91621016624
 31
0.0
  0
LINE
  5
7EC4
330
1F
100
AcDbEntity
  8
0
370
     5
100
AcDbLine
 10
-3360.647778129899
 20
-5292.91621016624
 30
0.0
 11
-3360.647778129899
 21
-5142.91621016624
 31
0.0
  0
LINE
  5
7EC5
330
1F
100
AcDbEntity
  8
0
370
     5
100
AcDbLine
 10
-2958.147161871451
 20
-5322.916210166241
 30
0.0
 11
-2958.147161871452
 21
-5272.91621016624
 31
0.0
  0
LINE
  5
7EC6
330
1F
100
AcDbEntity
  8
0
370
     5
100
AcDbLine
 10
-2958.147161871451
 20
-5322.916210166241
 30
0.0
 11
-3168.147161871451
 21
-5322.916210166241
 31
0.0
  0
LINE
  5
7EC7
330
1F
100
AcDbEntity
  8
0
370
     5
100
AcDbLine
 10
-3168.147161871451
 20
-5322.916210166241
 30
0.0
 11
-3168.147161871452
 21
-5272.91621016624
 31
0.0
  0
LINE
  5
7EC8
330
1F
100
AcDbEntity
  8
0
370
     5
100
AcDbLine
 10
-2928.14716187145
 20
-5292.91621016624
 30
0.0
 11
-2928.14716187145
 21
-5352.916210166241
 31
0.0
  0
LINE
  5
7EC9
330
1F
100
AcDbEntity
  8
0
370
     5
100
AcDbLine
 10
-2928.14716187145
 20
-5352.916210166241
 30
0.0
 11
-3198.14716187145
 21
-5352.916210166241
 31
0.0
  0
LINE
  5
7ECA
330
1F
100
AcDbEntity
  8
0
370
     5
100
AcDbLine
 10
-3198.14716187145
 20
-5352.916210166241
 30
0.0
 11
-3198.14716187145
 21
-5292.91621016624
 31
0.0
  0
CIRCLE
  5
7ECB
330
1F
100
AcDbEntity
  8
0
370
     5
100
AcDbCircle
 10
-2810.646545613002
 20
-5247.916210166239
 30
0.0
 40
15.0
  0
HATCH
  5
7ECC
330
1F
100
AcDbEntity
  8
0
370
     5
100
AcDbHatch
 10
0.0
 20
0.0
 30
0.0
210
0.0
220
0.0
230
1.0
  2
SOLID
 70
     1
 71
     0
 91
        1
 92
        7
 72
     1
 73
     1
 93
        2
 10
-2894.647778129897
 20
-5247.916210166239
 42
-1.0
 10
-2924.647778129898
 20
-5247.916210166239
 42
-1.0
 97
        0
 75
     0
 76
     1
 47
1.454627335108464
 98
        1
 10
-2907.983151529477
 20
-5237.477439559503
1001
ACAD
1010
0.0
1020
0.0
1030
0.0
  0
CIRCLE
  5
7ECD
330
1F
100
AcDbEntity
  8
0
370
     5
100
AcDbCircle
 10
2909.647778129897
 20
-5247.916210166239
 30
0.0
 40
15.0
210
0.0
220
0.0
230
-1.0
  0
HATCH
  5
7ECE
330
1F
100
AcDbEntity
  8
0
370
     5
100
AcDbHatch
 10
0.0
 20
0.0
 30
0.0
210
0.0
220
0.0
230
1.0
  2
SOLID
 70
     1
 71
     0
 91
        1
 92
        7
 72
     1
 73
     1
 93
        2
 10
-3330.647778129905
 20
-5247.916210166239
 42
-1.0
 10
-3300.647778129905
 20
-5247.916210166239
 42
-1.0
 97
        0
 75
     0
 76
     1
 47
0.5686175958159919
 98
        1
 10
-3308.955945534053
 20
-5249.865555099207
1001
ACAD
1010
0.0
1020
0.0
1030
0.0
  0
CIRCLE
  5
7ECF
330
1F
100
AcDbEntity
  8
0
370
     5
100
AcDbCircle
 10
3315.647778129905
 20
-5247.916210166239
 30
0.0
 40
15.0
210
0.0
220
0.0
230
-1.0
  0
HATCH
  5
7ED0
330
1F
100
AcDbEntity
  8
0
370
     5
100
AcDbHatch
 10
0.0
 20
0.0
 30
0.0
210
0.0
220
0.0
230
1.0
  2
SOLID
 70
     1
 71
     0
 91
        1
 92
        7
 72
     1
 73
     1
 93
        2
 10
-3231.646545613009
 20
-5247.916210166239
 42
-1.0
 10
-3201.646545613009
 20
-5247.916210166239
 42
-1.0
 97
        0
 75
     0
 76
     1
 47
0.5686175958159919
 98
        1
 10
-3215.644196862013
 20
-5247.591077977799
1001
ACAD
1010
0.0
1020
0.0
1030
0.0
  0
CIRCLE
  5
7ED1
330
1F
100
AcDbEntity
  8
0
370
     5
100
AcDbCircle
 10
-3216.646545613009
 20
-5247.916210166239
 30
0.0
 40
15.0
  0
LINE
  5
7ED2
330
1F
100
AcDbEntity
  8
0
370
     5
100
AcDbLine
 10
-2785.646545613003
 20
-5142.91621016624
 30
0.0
 11
-2785.646545613003
 21
-5272.91621016624
 31
0.0
  0
LINE
  5
7ED3
330
1F
100
AcDbEntity
  8
0
370
     5
100
AcDbLine
 10
-2785.646545613003
 20
-5272.91621016624
 30
0.0
 11
-2958.147161871452
 21
-5272.91621016624
 31
0.0
  0
LINE
  5
7ED4
330
1F
100
AcDbEntity
  8
0
370
     5
100
AcDbLine
 10
-3168.147161871452
 20
-5272.91621016624
 30
0.0
 11
-3340.6477781299
 21
-5272.91621016624
 31
0.0
  0
LINE
  5
7ED5
330
1F
100
AcDbEntity
  8
0
370
     5
100
AcDbLine
 10
-3340.6477781299
 20
-5272.91621016624
 30
0.0
 11
-3340.6477781299
 21
-5137.50925863449
 31
0.0
  0
HATCH
  5
7ED6
330
1F
100
AcDbEntity
  8
0
370
     5
100
AcDbHatch
 10
0.0
 20
0.0
 30
0.0
210
0.0
220
0.0
230
1.0
  2
SOLID
 70
     1
 71
     0
 91
        1
 92
        7
 72
     0
 73
     1
 93
       22
 10
-2473.14716187145
 20
-4102.916210166239
 10
-3653.147161871452
 20
-4102.91621016624
 10
-3653.147161871451
 20
-4439.91621016624
 10
-3745.294348129067
 20
-4439.916210166239
 10
-3833.14716187144
 20
-4527.769023908619
 10
-3833.147161871439
 20
-4658.063396423862
 10
-3745.294348129064
 20
-4745.916210166241
 10
-3653.147161871451
 20
-4745.91621016624
 10
-3653.147161871451
 20
-5082.91621016624
 10
-3121.147161871451
 20
-5082.916210166239
 10
-3121.147161871451
 20
-5142.91621016624
 10
-3713.14716187145
 20
-5142.91621016624
 10
-3713.147161871451
 20
-4805.916210166241
 10
-3770.147161871452
 20
-4805.91621016624
 10
-3893.147161871441
 20
-4682.916210166247
 10
-3893.147161871439
 20
-4502.916210166233
 10
-3770.147161871454
 20
-4379.916210166239
 10
-3713.147161871451
 20
-4379.91621016624
 10
-3713.147161871452
 20
-4042.91621016624
 10
-2413.147161871449
 20
-4042.916210166239
 10
-2413.147161871449
 20
-4439.916210166239
 10
-2473.14716187145
 20
-4439.916210166239
 97
        0
 75
     0
 76
     1
 47
1.119136470096005
 98
        1
 10
-2437.621475692171
 20
-4416.25152534321
1001
ACAD
1010
0.0
1020
0.0
1030
0.0
  0
LINE
  5
7ED7
330
1F
100
AcDbEntity
  8
0
370
     5
100
AcDbLine
 10
-2413.147161871449
 20
-4042.916210166239
 30
0.0
 11
-3713.147161871451
 21
-4042.91621016624
 31
0.0
  0
LINE
  5
7ED8
330
1F
100
AcDbEntity
  8
0
370
     5
100
AcDbLine
 10
-3713.147161871451
 20
-4042.91621016624
 30
0.0
 11
-3713.147161871451
 21
-4379.916210166239
 31
0.0
  0
LINE
  5
7ED9
330
1F
100
AcDbEntity
  8
0
370
     5
100
AcDbLine
 10
-3713.147161871451
 20
-4379.916210166239
 30
0.0
 11
-3770.147161871452
 21
-4379.916210166239
 31
0.0
  0
LINE
  5
7EDA
330
1F
100
AcDbEntity
  8
0
370
     5
100
AcDbLine
 10
-3770.147161871452
 20
-4379.916210166239
 30
0.0
 11
-3893.14716187144
 21
-4502.916210166234
 31
0.0
  0
LINE
  5
7EDB
330
1F
100
AcDbEntity
  8
0
370
     5
100
AcDbLine
 10
-3893.14716187144
 20
-4502.916210166234
 30
0.0
 11
-3893.14716187144
 21
-4682.916210166246
 31
0.0
  0
LINE
  5
7EDC
330
1F
100
AcDbEntity
  8
0
370
     5
100
AcDbLine
 10
-3893.14716187144
 20
-4682.916210166246
 30
0.0
 11
-3770.147161871451
 21
-4805.91621016624
 31
0.0
  0
LINE
  5
7EDD
330
1F
100
AcDbEntity
  8
0
370
     5
100
AcDbLine
 10
-3770.147161871451
 20
-4805.91621016624
 30
0.0
 11
-3713.147161871451
 21
-4805.91621016624
 31
0.0
  0
LINE
  5
7EDE
330
1F
100
AcDbEntity
  8
0
370
     5
100
AcDbLine
 10
-3713.147161871451
 20
-4805.91621016624
 30
0.0
 11
-3713.147161871451
 21
-5142.91621016624
 31
0.0
  0
HATCH
  5
7EDF
330
1F
100
AcDbEntity
  8
0
370
     5
100
AcDbHatch
 10
0.0
 20
0.0
 30
0.0
210
0.0
220
0.0
230
1.0
  2
SOLID
 70
     1
 71
     0
 91
        1
 92
        7
 72
     0
 73
     1
 93
        6
 10
-2473.14716187145
 20
-4745.916210166241
 10
-2413.147161871449
 20
-4745.916210166241
 10
-2413.147161871448
 20
-5142.91621016624
 10
-3005.147161871449
 20
-5142.91621016624
 10
-3005.14716187145
 20
-5082.91621016624
 10
-2473.14716187145
 20
-5082.91621016624
 97
        0
 75
     0
 76
     1
 47
1.119136470096005
 98
        1
 10
-2449.939708110136
 20
-4819.140684747985
1001
ACAD
1010
0.0
1020
0.0
1030
0.0
  0
LINE
  5
7EE0
330
1F
100
AcDbEntity
  8
0
370
     5
100
AcDbLine
 10
-3713.147161871451
 20
-5142.91621016624
 30
0.0
 11
-2413.147161871449
 21
-5142.91621016624
 31
0.0
  0
LINE
  5
7EE1
330
1F
100
AcDbEntity
  8
0
370
     5
100
AcDbLine
 10
-2413.147161871449
 20
-5142.91621016624
 30
0.0
 11
-2413.147161871449
 21
-4805.91621016624
 31
0.0
  0
HATCH
  5
7EE2
330
1F
100
AcDbEntity
  8
0
370
     5
100
AcDbHatch
 10
0.0
 20
0.0
 30
0.0
210
0.0
220
0.0
230
1.0
  2
SOLID
 70
     1
 71
     0
 91
        1
 92
        7
 72
     0
 73
     1
 93
        4
 10
-2356.14716187145
 20
-4805.91621016624
 10
-2413.147161871448
 20
-4805.916210166241
 10
-2413.147161871448
 20
-4778.063396423855
 10
-2380.999975613835
 20
-4745.916210166241
 97
        0
 75
     0
 76
     1
 47
0.4870639559595462
 98
        1
 10
-2381.908428761324
 20
-4782.737329300089
1001
ACAD
1010
0.0
1020
0.0
1030
0.0
  0
LINE
  5
7EE3
330
1F
100
AcDbEntity
  8
0
370
     5
100
AcDbLine
 10
-2413.147161871449
 20
-4805.91621016624
 30
0.0
 11
-2356.14716187145
 21
-4805.91621016624
 31
0.0
  0
HATCH
  5
7EE4
330
1F
100
AcDbEntity
  8
0
370
     5
100
AcDbHatch
 10
0.0
 20
0.0
 30
0.0
210
0.0
220
0.0
230
1.0
  2
SOLID
 70
     1
 71
     0
 91
        1
 92
        7
 72
     0
 73
     1
 93
        4
 10
-2293.147161871448
 20
-4442.916210166243
 10
-2233.14716187145
 20
-4502.916210166246
 10
-2233.14716187145
 20
-4682.916210166236
 10
-2293.14716187145
 20
-4742.916210166239
 97
        0
 75
     0
 76
     1
 47
1.119136470096005
 98
        1
 10
-2271.88535981197
 20
-4586.360269078457
1001
ACAD
1010
0.0
1020
0.0
1030
0.0
  0
HATCH
  5
7EE5
330
1F
100
AcDbEntity
  8
0
370
     5
100
AcDbHatch
 10
0.0
 20
0.0
 30
0.0
210
0.0
220
0.0
230
1.0
  2
SOLID
 70
     1
 71
     0
 91
        1
 92
        7
 72
     0
 73
     1
 93
        4
 10
-2316.747745414803
 20
-4766.51679370959
 10
-2356.147161871451
 20
-4805.916210166239
 10
-2380.999975613837
 20
-4745.916210166241
 10
-2345.302131098897
 20
-4710.218365651301
 97
        0
 75
     0
 76
     1
 47
0.4870639559595462
 98
        1
 10
-2349.742010680742
 20
-4751.56523934619
1001
ACAD
1010
0.0
1020
0.0
1030
0.0
  0
HATCH
  5
7EE6
330
1F
100
AcDbEntity
  8
0
370
     5
100
AcDbHatch
 10
0.0
 20
0.0
 30
0.0
210
0.0
220
0.0
230
1.0
  2
SOLID
 70
     1
 71
     0
 91
        1
 92
        7
 72
     0
 73
     1
 93
        4
 10
-2293.14716187145
 20
-4658.063396423848
 10
-2293.14716187145
 20
-4742.916210166239
 10
-2316.747745414799
 20
-4766.516793709591
 10
-2345.302131098897
 20
-4710.218365651301
 97
        0
 75
     0
 76
     1
 47
0.341774978535384
 98
        1
 10
-2299.422103077539
 20
-4698.054671270202
1001
ACAD
1010
0.0
1020
0.0
1030
0.0
  0
LINE
  5
7EE7
330
1F
100
AcDbEntity
  8
0
370
     5
100
AcDbLine
 10
-2356.14716187145
 20
-4805.91621016624
 30
0.0
 11
-2233.14716187146
 21
-4682.916210166246
 31
0.0
  0
HATCH
  5
7EE8
330
1F
100
AcDbEntity
  8
0
370
     5
100
AcDbHatch
 10
0.0
 20
0.0
 30
0.0
210
0.0
220
0.0
230
1.0
  2
SOLID
 70
     1
 71
     0
 91
        1
 92
        7
 72
     0
 73
     1
 93
        6
 10
-2380.999975613833
 20
-4439.91621016624
 10
-2413.147161871449
 20
-4439.91621016624
 10
-2413.147161871449
 20
-4379.916210166239
 10
-2356.14716187145
 20
-4379.916210166239
 10
-2293.14716187145
 20
-4442.916210166242
 10
-2293.14716187145
 20
-4527.769023908634
 97
        0
 75
     0
 76
     1
 47
1.119136470096005
 98
        1
 10
-2326.757443045043
 20
-4448.706476520976
1001
ACAD
1010
0.0
1020
0.0
1030
0.0
  0
LINE
  5
7EE9
330
1F
100
AcDbEntity
  8
0
370
     5
100
AcDbLine
 10
-2233.14716187146
 20
-4502.916210166236
 30
0.0
 11
-2356.14716187145
 21
-4379.916210166239
 31
0.0
  0
LINE
  5
7EEA
330
1F
100
AcDbEntity
  8
0
370
     5
100
AcDbLine
 10
-2356.14716187145
 20
-4379.916210166239
 30
0.0
 11
-2413.147161871449
 21
-4379.916210166239
 31
0.0
  0
LINE
  5
7EEB
330
1F
100
AcDbEntity
  8
0
370
     5
100
AcDbLine
 10
-2413.147161871449
 20
-4379.916210166239
 30
0.0
 11
-2413.147161871449
 21
-4037.91621016624
 31
0.0
  0
LINE
  5
7EEC
330
1F
100
AcDbEntity
  8
0
370
     5
100
AcDbLine
 10
-2473.14716187145
 20
-4102.91621016624
 30
0.0
 11
-3653.147161871451
 21
-4102.91621016624
 31
0.0
  0
LINE
  5
7EED
330
1F
100
AcDbEntity
  8
0
370
     5
100
AcDbLine
 10
-3653.147161871451
 20
-4102.91621016624
 30
0.0
 11
-3653.147161871451
 21
-4439.91621016624
 31
0.0
  0
LINE
  5
7EEE
330
1F
100
AcDbEntity
  8
0
370
     5
100
AcDbLine
 10
-3653.147161871451
 20
-4439.91621016624
 30
0.0
 11
-3745.294348129066
 21
-4439.91621016624
 31
0.0
  0
LINE
  5
7EEF
330
1F
100
AcDbEntity
  8
0
370
     5
100
AcDbLine
 10
-3745.294348129066
 20
-4439.91621016624
 30
0.0
 11
-3833.14716187144
 21
-4527.769023908619
 31
0.0
  0
LINE
  5
7EF0
330
1F
100
AcDbEntity
  8
0
370
     5
100
AcDbLine
 10
-3833.14716187144
 20
-4527.769023908619
 30
0.0
 11
-3833.14716187144
 21
-4658.063396423861
 31
0.0
  0
LINE
  5
7EF1
330
1F
100
AcDbEntity
  8
0
370
     5
100
AcDbLine
 10
-3833.14716187144
 20
-4658.063396423861
 30
0.0
 11
-3745.294348129064
 21
-4745.916210166241
 31
0.0
  0
LINE
  5
7EF2
330
1F
100
AcDbEntity
  8
0
370
     5
100
AcDbLine
 10
-3745.294348129064
 20
-4745.916210166241
 30
0.0
 11
-3653.147161871451
 21
-4745.91621016624
 31
0.0
  0
LINE
  5
7EF3
330
1F
100
AcDbEntity
  8
0
370
     5
100
AcDbLine
 10
-3653.147161871451
 20
-4745.91621016624
 30
0.0
 11
-3653.147161871451
 21
-5082.91621016624
 31
0.0
  0
LINE
  5
7EF4
330
1F
100
AcDbEntity
  8
0
370
     5
100
AcDbLine
 10
-3653.147161871451
 20
-5082.91621016624
 30
0.0
 11
-2473.14716187145
 21
-5082.91621016624
 31
0.0
  0
LINE
  5
7EF5
330
1F
100
AcDbEntity
  8
0
370
     5
100
AcDbLine
 10
-2473.14716187145
 20
-5082.91621016624
 30
0.0
 11
-2473.14716187145
 21
-4745.916210166241
 31
0.0
  0
HATCH
  5
7EF6
330
1F
100
AcDbEntity
  8
0
370
     5
100
AcDbHatch
 10
0.0
 20
0.0
 30
0.0
210
0.0
220
0.0
230
1.0
  2
SOLID
 70
     1
 71
     0
 91
        1
 92
        7
 72
     0
 73
     1
 93
        3
 10
-2413.147161871449
 20
-4745.916210166241
 10
-2380.999975613837
 20
-4745.916210166241
 10
-2413.147161871449
 20
-4778.063396423852
 97
        0
 75
     0
 76
     1
 47
0.4870639559595462
 98
        1
 10
-2404.814787837191
 20
-4754.974704719058
1001
ACAD
1010
0.0
1020
0.0
1030
0.0
  0
LINE
  5
7EF7
330
1F
100
AcDbEntity
  8
0
370
     5
100
AcDbLine
 10
-2473.14716187145
 20
-4745.916210166241
 30
0.0
 11
-2380.999975613837
 21
-4745.916210166241
 31
0.0
  0
LINE
  5
7EF8
330
1F
100
AcDbEntity
  8
0
370
     5
100
AcDbLine
 10
-2440.999975613835
 20
-4805.916210166241
 30
0.0
 11
-2293.14716187145
 21
-4658.063396423849
 31
0.0
  0
LINE
  5
7EF9
330
1F
100
AcDbEntity
  8
0
370
     5
100
AcDbLine
 10
-2293.14716187145
 20
-4527.769023908632
 30
0.0
 11
-2380.999975613835
 21
-4439.91621016624
 31
0.0
  0
LINE
  5
7EFA
330
1F
100
AcDbEntity
  8
0
370
     5
100
AcDbLine
 10
-2380.999975613835
 20
-4439.91621016624
 30
0.0
 11
-2473.14716187145
 21
-4439.91621016624
 31
0.0
  0
LINE
  5
7EFB
330
1F
100
AcDbEntity
  8
0
370
     5
100
AcDbLine
 10
-2473.14716187145
 20
-4439.91621016624
 30
0.0
 11
-2473.14716187145
 21
-4102.91621016624
 31
0.0
  0
LINE
  5
7EFC
330
1F
100
AcDbEntity
  8
0
370
     5
100
AcDbLine
 10
-3005.14716187145
 20
-5142.91621016624
 30
0.0
 11
-3005.14716187145
 21
-5082.91621016624
 31
0.0
  0
LINE
  5
7EFD
330
1F
100
AcDbEntity
  8
0
370
     5
100
AcDbLine
 10
-3121.147161871451
 20
-5142.91621016624
 30
0.0
 11
-3121.147161871451
 21
-5082.91621016624
 31
0.0
  0
LINE
  5
7EFE
330
1F
100
AcDbEntity
  8
0
 62
     1
100
AcDbLine
 10
-2203.147161871461
 20
-3632.645877596133
 30
0.0
 11
-2173.14716187146
 21
-3632.645877596133
 31
0.0
  0
LINE
  5
7EFF
330
1F
100
AcDbEntity
  8
0
 62
     1
100
AcDbLine
 10
-2443.14716187145
 20
-3632.645877596133
 30
0.0
 11
-2473.14716187145
 21
-3632.645877596133
 31
0.0
  0
LINE
  5
7F00
330
1F
100
AcDbEntity
  8
0
 62
     1
100
AcDbLine
 10
-2233.14716187146
 20
-3632.645877596133
 30
0.0
 11
-2413.147161871449
 21
-3632.645877596133
 31
0.0
  0
INSERT
  5
7F01
330
1F
100
AcDbEntity
  8
0
 62
     1
100
AcDbBlockReference
  2
B-DIM
 10
-2233.14716187146
 20
-3632.645877596133
 30
0.0
 41
-30.0
 42
30.0
 43
30.0
1001
AEC_XDATA_BOUND_SPACE
1070
   100
1070
     1
  0
INSERT
  5
7F02
330
1F
100
AcDbEntity
  8
0
 62
     1
100
AcDbBlockReference
  2
B-DIM
 10
-2413.147161871449
 20
-3632.645877596133
 30
0.0
 41
-30.0
 42
30.0
 43
30.0
 50
180.0
1001
AEC_XDATA_BOUND_SPACE
1070
   100
1070
     1
  0
MTEXT
  5
7F03
330
1F
100
AcDbEntity
  8
0
 62
    10
100
AcDbMText
 10
-2323.147161871455
 20
-3552.645877596133
 30
0.0
 40
80.0
 41
0.0
 71
     5
 72
     1
  1
\A1;180
  7
RomanS
 73
     1
 44
1.0
1001
ACAD
1000
MTEXTBEGIN
1070
    73
1070
     1
1070
    44
1040
1.0
1070
    74
1070
     0
1000
MTEXTEND
  0
LINE
  5
7F04
330
1F
100
AcDbEntity
  8
0
 62
     1
100
AcDbLine
 10
-2443.14716187145
 20
-3632.645877596133
 30
0.0
 11
-3683.147161871452
 21
-3632.645877596133
 31
0.0
  0
INSERT
  5
7F05
330
1F
100
AcDbEntity
  8
0
 62
     1
100
AcDbBlockReference
  2
B-DIM
 10
-2413.147161871449
 20
-3632.645877596133
 30
0.0
 41
-30.0
 42
30.0
 43
30.0
 50
180.0
1001
AEC_XDATA_BOUND_SPACE
1070
   100
1070
     1
  0
INSERT
  5
7F06
330
1F
100
AcDbEntity
  8
0
 62
     1
100
AcDbBlockReference
  2
B-DIM
 10
-3713.147161871451
 20
-3632.645877596133
 30
0.0
 41
-30.0
 42
30.0
 43
30.0
1001
AEC_XDATA_BOUND_SPACE
1070
   100
1070
     1
  0
MTEXT
  5
7F07
330
1F
100
AcDbEntity
  8
0
 62
    10
100
AcDbMText
 10
-3063.147161871451
 20
-3552.645877596133
 30
0.0
 40
80.0
 41
0.0
 71
     5
 72
     1
  1
\A1;1300
  7
RomanS
 73
     1
 44
1.0
1001
ACAD
1000
MTEXTBEGIN
1070
    73
1070
     1
1070
    44
1040
1.0
1070
    74
1070
     0
1000
MTEXTEND
  0
LINE
  5
7F08
330
1F
100
AcDbEntity
  8
0
 62
     1
100
AcDbLine
 10
-3683.147161871452
 20
-3632.645877596133
 30
0.0
 11
-3653.147161871451
 21
-3632.645877596133
 31
0.0
  0
LINE
  5
7F09
330
1F
100
AcDbEntity
  8
0
 62
     1
100
AcDbLine
 10
-3923.14716187144
 20
-3632.645877596133
 30
0.0
 11
-3953.14716187144
 21
-3632.645877596133
 31
0.0
  0
LINE
  5
7F0A
330
1F
100
AcDbEntity
  8
0
 62
     1
100
AcDbLine
 10
-3713.147161871451
 20
-3632.645877596133
 30
0.0
 11
-3893.14716187144
 21
-3632.645877596133
 31
0.0
  0
INSERT
  5
7F0B
330
1F
100
AcDbEntity
  8
0
 62
     1
100
AcDbBlockReference
  2
B-DIM
 10
-3713.147161871451
 20
-3632.645877596133
 30
0.0
 41
-30.0
 42
30.0
 43
30.0
1001
AEC_XDATA_BOUND_SPACE
1070
   100
1070
     1
  0
INSERT
  5
7F0C
330
1F
100
AcDbEntity
  8
0
 62
     1
100
AcDbBlockReference
  2
B-DIM
 10
-3893.14716187144
 20
-3632.645877596133
 30
0.0
 41
-30.0
 42
30.0
 43
30.0
 50
180.0
1001
AEC_XDATA_BOUND_SPACE
1070
   100
1070
     1
  0
MTEXT
  5
7F0D
330
1F
100
AcDbEntity
  8
0
 62
    10
100
AcDbMText
 10
-3803.147161871446
 20
-3552.645877596133
 30
0.0
 40
80.0
 41
0.0
 71
     5
 72
     1
  1
\A1;180
  7
RomanS
 73
     1
 44
1.0
1001
ACAD
1000
MTEXTBEGIN
1070
    73
1070
     1
1070
    44
1040
1.0
1070
    74
1070
     0
1000
MTEXTEND
  0
LINE
  5
7F0E
102
{ACAD_REACTORS
330
7F14
102
}
330
1F
100
AcDbEntity
  8
0
370
     5
100
AcDbLine
 10
-2233.14716187145
 20
-4502.916210166246
 30
0.0
 11
-2233.14716187145
 21
-4682.916210166235
 31
0.0
  0
LINE
  5
7F0F
330
1F
100
AcDbEntity
  8
0
370
     5
100
AcDbLine
 10
-2293.14716187145
 20
-4442.916210166243
 30
0.0
 11
-2293.14716187145
 21
-4742.916210166238
 31
0.0
  0
LINE
  5
7F10
330
1F
100
AcDbEntity
  8
0
370
     5
100
AcDbLine
 10
-2380.999975613837
 20
-4745.916210166241
 30
0.0
 11
-2356.14716187145
 21
-4805.91621016624
 31
0.0
  0
LINE
  5
7F11
330
1F
100
AcDbEntity
  8
0
370
     5
100
AcDbLine
 10
-2345.302131098897
 20
-4710.218365651301
 30
0.0
 11
-2316.747745414801
 21
-4766.51679370959
 31
0.0
  0
DIMENSION
  5
7F12
102
{ACAD_XDICTIONARY
360
7F13
102
}
102
{ACAD_REACTORS
330
7F14
102
}
330
1F
100
AcDbEntity
  8
0
100
AcDbDimension
  2
*D13
 10
-3893.147161871453
 20
-3391.457754675084
 30
0.0
 11
-3063.147161871451
 21
-3311.457754675084
 31
0.0
 70
    32
 71
     5
 42
1660.000000000003
  3
500
100
AcDbAlignedDimension
 13
-2233.14716187145
 23
-4502.916210166246
 33
0.0
 14
-3893.147161871453
 24
-4502.916210166246
 34
0.0
 50
180.0
100
AcDbRotatedDimension
  0
DIMENSION
  5
7F15
330
1F
100
AcDbEntity
  8
0
100
AcDbDimension
  2
*D14
 10
-1956.30694411068
 20
-5142.916210166242
 30
0.0
 11
-2036.306944110679
 21
-4592.916210166241
 31
0.0
 70
    32
 71
     5
 42
1100.0
  3
500
100
AcDbAlignedDimension
 13
-2961.295534069252
 23
-4042.91621016624
 33
0.0
 14
-2892.561655623875
 24
-5142.91621016624
 34
0.0
 50
90.0
100
AcDbRotatedDimension
  0
VIEWPORT
  5
2287
102
{ACAD_XDICTIONARY
360
7F78
102
}
330
2286
100
AcDbEntity
 67
     1
  8
0
100
AcDbViewport
 10
9.995958042144778
 20
14.44015336361602
 30
0.0
 40
50.32605766066355
 41
31.61660563622863
 68
     1
 69
     1
 12
9.995958042144778
 22
14.44015336361602
 13
0.0
 23
0.0
 14
10.0
 24
10.0
 15
10.0
 25
10.0
 16
0.0
 26
0.0
 36
1.0
 17
0.0
 27
0.0
 37
0.0
 42
50.0
 43
0.0
 44
0.0
 45
31.61660563622863
 50
0.0
 51
0.0
 72
 20000
 90
    32800
  1

281
     0
 71
     1
 74
     0
110
0.0
120
0.0
130
0.0
111
1.0
121
0.0
131
0.0
112
0.0
122
1.0
132
0.0
 79
     0
146
0.0
  0
VIEWPORT
  5
2288
102
{ACAD_XDICTIONARY
360
7F7A
102
}
330
2286
100
AcDbEntity
 67
     1
  8
A-Vports
100
AcDbViewport
 10
9.747079199648887
 20
18.55533224320765
 30
0.0
 40
20.25130890879852
 41
19.85248457057948
 68
     2
 69
     2
 12
-7887.401374393208
 22
-6443.132610949787
 13
0.0
 23
0.0
 14
1.0
 24
1.0
 15
3000.0
 25
3000.0
 16
0.0
 26
0.0
 36
1.0
 17
8810.869164676194
 27
5671.949479677537
 37
116.1759987568176
 42
50.0
 43
0.0
 44
0.0
 45
1985.248457057948
 50
0.0
 51
0.0
 72
 20000
 90
    49184
  1

281
     0
 71
     1
 74
     0
110
0.0
120
0.0
130
0.0
111
1.0
121
0.0
131
0.0
112
0.0
122
1.0
132
0.0
 79
     1
146
0.0
  0
INSERT
  5
2289
330
2286
100
AcDbEntity
 67
     1
  8
A-Annotation-T
100
AcDbBlockReference
  2
koncepcja-opis-A4
 10
19.91061835521796
 20
0.3294016425986257
 30
0.0
  0
LINE
  5
2DC4
330
2286
100
AcDbEntity
 67
     1
  8
A-Annotation-T
 62
   142
370
     9
100
AcDbLine
 10
8.560028953245151
 20
0.1807636100571841
 30
0.0
 11
18.91251385662981
 21
0.1807636100571841
 31
0.0
  0
TEXT
  5
2DD0
330
2286
100
AcDbEntity
 67
     1
  8
A-Annotation-T
100
AcDbText
 10
8.696551175671743
 20
0.2497827361088625
 30
0.0
 40
0.2
  1
Dyr. Generalny
  7
ARIAL-CE
100
AcDbText
  0
LINE
  5
2DDE
330
2286
100
AcDbEntity
 67
     1
  8
A-Annotation-T
 62
   142
370
     9
100
AcDbLine
 10
8.560028953245153
 20
2.630763610057183
 30
0.0
 11
8.560028953245151
 21
0.1807636100571841
 31
0.0
  0
LINE
  5
2DDF
330
2286
100
AcDbEntity
 67
     1
  8
A-Annotation-T
 62
   142
370
     9
100
AcDbLine
 10
10.91251385662981
 20
2.980763610057184
 30
0.0
 11
10.91251385662981
 21
0.1807636100571841
 31
0.0
  0
LINE
  5
2DE8
330
2286
100
AcDbEntity
 67
     1
  8
A-Annotation-T
 62
   142
370
     9
100
AcDbLine
 10
8.560028953245151
 20
0.5307636100571842
 30
0.0
 11
18.91251385662981
 21
0.5307636100571842
 31
0.0
  0
LINE
  5
2DE9
330
2286
100
AcDbEntity
 67
     1
  8
A-Annotation-T
 62
   142
370
     9
100
AcDbLine
 10
8.560028953245151
 20
0.8807636100571837
 30
0.0
 11
18.91251385662981
 21
0.8807636100571837
 31
0.0
  0
LINE
  5
2DEA
330
2286
100
AcDbEntity
 67
     1
  8
A-Annotation-T
 62
   142
370
     9
100
AcDbLine
 10
8.560028953245151
 20
1.230763610057183
 30
0.0
 11
18.91251385662981
 21
1.230763610057183
 31
0.0
  0
LINE
  5
2DEB
330
2286
100
AcDbEntity
 67
     1
  8
A-Annotation-T
 62
   142
370
     9
100
AcDbLine
 10
8.560028953245151
 20
1.580763610057183
 30
0.0
 11
18.91251385662981
 21
1.580763610057183
 31
0.0
  0
LINE
  5
2DEC
330
2286
100
AcDbEntity
 67
     1
  8
A-Annotation-T
 62
   142
370
     9
100
AcDbLine
 10
8.560028953245151
 20
1.930763610057183
 30
0.0
 11
18.91251385662981
 21
1.930763610057183
 31
0.0
  0
LINE
  5
2DED
330
2286
100
AcDbEntity
 67
     1
  8
A-Annotation-T
 62
   142
370
     9
100
AcDbLine
 10
8.560028953245151
 20
2.280763610057183
 30
0.0
 11
18.91251385662981
 21
2.280763610057183
 31
0.0
  0
LINE
  5
2DEE
330
2286
100
AcDbEntity
 67
     1
  8
A-Annotation-T
 62
   142
370
     9
100
AcDbLine
 10
8.560028953245153
 20
2.630763610057183
 30
0.0
 11
18.91251385662981
 21
2.630763610057183
 31
0.0
  0
LINE
  5
2DEF
330
2286
100
AcDbEntity
 67
     1
  8
A-Annotation-T
 62
   142
370
     9
100
AcDbLine
 10
10.91251385662981
 20
2.980763610057184
 30
0.0
 11
18.91251385662981
 21
2.980763610057183
 31
0.0
  0
TEXT
  5
2DF0
330
2286
100
AcDbEntity
 67
     1
  8
A-Annotation-T
100
AcDbText
 10
8.696551175671743
 20
0.5997827361088622
 30
0.0
 40
0.2
  1
Dyr. Prac. Proj.
  7
ARIAL-CE
100
AcDbText
  0
TEXT
  5
2DF1
330
2286
100
AcDbEntity
 67
     1
  8
A-Annotation-T
100
AcDbText
 10
8.696551175671743
 20
0.9497827361088621
 30
0.0
 40
0.2
  1
Gł. Instalator
  7
ARIAL-CE
100
AcDbText
  0
TEXT
  5
2DF2
330
2286
100
AcDbEntity
 67
     1
  8
A-Annotation-T
100
AcDbText
 10
8.696551175671743
 20
1.299782736108862
 30
0.0
 40
0.2
  1
Gł. Konstruktor
  7
ARIAL-CE
100
AcDbText
  0
TEXT
  5
2DF3
330
2286
100
AcDbEntity
 67
     1
  8
A-Annotation-T
100
AcDbText
 10
8.696551175671743
 20
1.649782736108861
 30
0.0
 40
0.2
  1
Kierownik DT
  7
ARIAL-CE
100
AcDbText
  0
TEXT
  5
2DF4
330
2286
100
AcDbEntity
 67
     1
  8
A-Annotation-T
100
AcDbText
 10
8.696551175671743
 20
1.999782736108862
 30
0.0
 40
0.2
  1
Kier. Prac. Arch.
  7
ARIAL-CE
100
AcDbText
  0
TEXT
  5
2DF5
330
2286
100
AcDbEntity
 67
     1
  8
A-Annotation-T
100
AcDbText
 10
8.696551175671743
 20
2.349782736108862
 30
0.0
 40
0.2
  1
Autor
  7
ARIAL-CE
100
AcDbText
  0
TEXT
  5
2DF8
330
2286
100
AcDbEntity
 67
     1
  8
A-Annotation-T
100
AcDbText
 10
11.39127411448935
 20
2.715646386646181
 30
0.0
 40
0.18
  1
Przegląd
  7
ARIAL-CE
 72
     1
 11
11.88750194532154
 21
2.715646386646181
 31
0.0
100
AcDbText
  0
LINE
  5
2DF9
330
2286
100
AcDbEntity
 67
     1
  8
A-Annotation-T
 62
   142
370
     9
100
AcDbLine
 10
12.91251385662981
 20
2.980763610057183
 30
0.0
 11
12.91251385662981
 21
0.1807636100571841
 31
0.0
  0
LINE
  5
2DFA
330
2286
100
AcDbEntity
 67
     1
  8
A-Annotation-T
 62
   142
370
     9
100
AcDbLine
 10
14.91251385662981
 20
2.980763610057183
 30
0.0
 11
14.91251385662981
 21
0.1807636100571841
 31
0.0
  0
TEXT
  5
2DFB
330
2286
100
AcDbEntity
 67
     1
  8
A-Annotation-T
100
AcDbText
 10
13.23779526046479
 20
2.715646386646181
 30
0.0
 40
0.18
  1
Weryfikacja
  7
ARIAL-CE
 72
     1
 11
13.88750194532154
 21
2.715646386646181
 31
0.0
100
AcDbText
  0
TEXT
  5
2DFC
330
2286
100
AcDbEntity
 67
     1
  8
A-Annotation-T
100
AcDbText
 10
15.10482118133791
 20
2.715646386646181
 30
0.0
 40
0.18
  1
Zatwierdzenie
  7
ARIAL-CE
 72
     1
 11
15.88750194532154
 21
2.715646386646181
 31
0.0
100
AcDbText
  0
LINE
  5
2DFD
330
2286
100
AcDbEntity
 67
     1
  8
A-Annotation-T
 62
   142
370
     9
100
AcDbLine
 10
16.91251385662981
 20
2.980763610057183
 30
0.0
 11
16.91251385662981
 21
0.1807636100571841
 31
0.0
  0
LINE
  5
2DFE
330
2286
100
AcDbEntity
 67
     1
  8
A-Annotation-T
 62
   142
370
     9
100
AcDbLine
 10
18.91251385662981
 20
2.980763610057183
 30
0.0
 11
18.91251385662981
 21
0.1807636100571841
 31
0.0
  0
TEXT
  5
2DFF
330
2286
100
AcDbEntity
 67
     1
  8
A-Annotation-T
100
AcDbText
 10
17.62192213631745
 20
2.715646386646181
 30
0.0
 40
0.18
  1
Data
  7
ARIAL-CE
 72
     1
 11
17.88750194532154
 21
2.715646386646181
 31
0.0
100
AcDbText
  0
TEXT
  5
2E15
330
2286
100
AcDbEntity
 67
     1
  8
A-Annotation-T
100
AcDbText
 10
13.09199034914146
 20
2.365646386646181
 30
0.0
 40
0.18
  1
-------------------
  7
ARIAL-CE
 72
     1
 11
13.88750194532154
 21
2.365646386646181
 31
0.0
100
AcDbText
  0
TEXT
  5
2E16
330
2286
100
AcDbEntity
 67
     1
  8
A-Annotation-T
100
AcDbText
 10
13.09199034914146
 20
0.265646386646182
 30
0.0
 40
0.18
  1
-------------------
  7
ARIAL-CE
 72
     1
 11
13.88750194532154
 21
0.265646386646182
 31
0.0
100
AcDbText
  0
TEXT
  5
2E17
330
2286
100
AcDbEntity
 67
     1
  8
A-Annotation-T
100
AcDbText
 10
15.09199034914146
 20
2.365646386646181
 30
0.0
 40
0.18
  1
-------------------
  7
ARIAL-CE
 72
     1
 11
15.88750194532155
 21
2.365646386646181
 31
0.0
100
AcDbText
  0
TEXT
  5
2E18
330
2286
100
AcDbEntity
 67
     1
  8
A-Annotation-T
100
AcDbText
 10
15.09199034914146
 20
2.015646386646181
 30
0.0
 40
0.18
  1
-------------------
  7
ARIAL-CE
 72
     1
 11
15.88750194532155
 21
2.015646386646181
 31
0.0
100
AcDbText
  0
TEXT
  5
2E19
330
2286
100
AcDbEntity
 67
     1
  8
A-Annotation-T
100
AcDbText
 10
15.09199034914146
 20
1.665646386646181
 30
0.0
 40
0.18
  1
-------------------
  7
ARIAL-CE
 72
     1
 11
15.88750194532155
 21
1.665646386646181
 31
0.0
100
AcDbText
  0
TEXT
  5
2E1A
330
2286
100
AcDbEntity
 67
     1
  8
A-Annotation-T
100
AcDbText
 10
15.09199034914146
 20
1.315646386646181
 30
0.0
 40
0.18
  1
-------------------
  7
ARIAL-CE
 72
     1
 11
15.88750194532155
 21
1.315646386646181
 31
0.0
100
AcDbText
  0
TEXT
  5
2E1B
330
2286
100
AcDbEntity
 67
     1
  8
A-Annotation-T
100
AcDbText
 10
15.09199034914146
 20
0.9656463866461816
 30
0.0
 40
0.18
  1
-------------------
  7
ARIAL-CE
 72
     1
 11
15.88750194532155
 21
0.9656463866461816
 31
0.0
100
AcDbText
  0
TEXT
  5
2E1C
330
2286
100
AcDbEntity
 67
     1
  8
A-Annotation-T
100
AcDbText
 10
15.09199034914146
 20
0.6156463866461821
 30
0.0
 40
0.18
  1
-------------------
  7
ARIAL-CE
 72
     1
 11
15.88750194532155
 21
0.6156463866461821
 31
0.0
100
AcDbText
  0
VIEWPORT
  5
3846
102
{ACAD_XDICTIONARY
360
7F86
102
}
330
2286
100
AcDbEntity
 67
     1
  8
A-Vports
100
AcDbViewport
 10
4.938181187205142
 20
5.349243298700779
 30
0.0
 40
6.579551456878178
 41
5.609696135299935
 68
     3
 69
     3
 12
-7687.357383790709
 22
-7804.3613431377
 13
0.0
 23
0.0
 14
1.0
 24
1.0
 15
3000.0
 25
3000.0
 16
0.0
 26
0.0
 36
1.0
 17
8810.869164676194
 27
5671.949479677537
 37
116.1759987568176
 42
50.0
 43
0.0
 44
0.0
 45
560.9696135299936
 50
0.0
 51
0.0
 72
 20000
 90
    49184
  1

281
     0
 71
     1
 74
     0
110
0.0
120
0.0
130
0.0
111
1.0
121
0.0
131
0.0
112
0.0
122
1.0
132
0.0
 79
     1
146
0.0
  0
ENDSEC
  0
SECTION
  2
OBJECTS
  0
DICTIONARY
  5
C
330
0
100
AcDbDictionary
281
     1
  3
ACAD_COLOR
350
DC2
  3
ACAD_GROUP
350
D
  3
ACAD_LAYOUT
350
1A
  3
ACAD_MATERIAL
350
DC1
  3
ACAD_MLEADERSTYLE
350
78BB
  3
ACAD_MLINESTYLE
350
17
  3
ACAD_PLOTSETTINGS
350
19
  3
ACAD_PLOTSTYLENAME
350
E
  3
ACAD_SCALELIST
350
78A5
  3
ACAD_TABLESTYLE
350
78A3
  3
ACAD_VISUALSTYLE
350
7892
  3
AcadDim
350
A4E
  3
ACDB_RECOMPOSE_DATA
350
7BA7
  3
AcDbVariableDictionary
350
2C
  3
AEC_CLASSIFICATION_SYSTEM_DEFS
350
45E1
  3
AEC_DISP_REP_CONFIGURATIONS
350
4AE3
  3
AEC_DISP_REP_SETS
350
4AE5
  3
AEC_DISP_REPS
350
30
  3
AEC_DISPLAY_PROPS_DEFAULTS
350
32
  3
AEC_MVBLOCK_DEFS
350
4B94
  3
AEC_PROPERTY_SET_DEFS
350
45E2
  3
AEC_VARS
350
4B96
  3
ASE_INDEX_DICTIONARY
350
7BCE
  3
BNS_VARIABLES
350
42E9
  3
DRCSCALE
350
4E78
  3
DWGPROPS
350
7F73
  3
SALT_DICT
350
4E76
  3
SMARTARCHITECT
350
4E7A
  0
DICTIONARY
  5
91F
330
2
100
AcDbDictionary
280
     1
281
     1
  3
ACAD_LAYERFILTERS
360
920
  3
ACAD_LAYERSTATES
360
923
  0
DICTIONARY
  5
78DC
330
10
100
AcDbDictionary
280
     1
281
     1
  3
ADSK_XREC_LAYER_RECONCILED
360
78DD
  0
DICTIONARY
  5
78EC
330
2269
100
AcDbDictionary
280
     1
281
     1
  3
ADSK_XREC_LAYER_RECONCILED
360
78ED
  0
DICTIONARY
  5
78EE
330
226A
100
AcDbDictionary
280
     1
281
     1
  3
ADSK_XREC_LAYER_RECONCILED
360
78EF
  0
DICTIONARY
  5
790A
330
35AC
100
AcDbDictionary
280
     1
281
     1
  3
ADSK_XREC_LAYER_RECONCILED
360
790B
  0
DICTIONARY
  5
7928
330
48EA
100
AcDbDictionary
280
     1
281
     1
  3
ADSK_XREC_LAYER_RECONCILED
360
7929
  0
DICTIONARY
  5
7930
330
640B
100
AcDbDictionary
280
     1
281
     1
  3
ADSK_XREC_LAYER_RECONCILED
360
7931
  0
DICTIONARY
  5
7936
330
6F4E
100
AcDbDictionary
280
     1
281
     1
  3
ADSK_XREC_LAYER_RECONCILED
360
7937
  0
DICTIONARY
  5
DE5
330
1F
100
AcDbDictionary
280
     1
281
     1
  3
ACAD_INDEX
360
39DC
  3
ACAD_SORTENTS
360
7CA9
  0
DICTIONARY
  5
239E
330
2286
100
AcDbDictionary
280
     1
281
     1
  0
DICTIONARY
  5
1A8B
330
1A8A
100
AcDbDictionary
280
     1
281
     1
  3
ACAD_SORTENTS
360
7635
  0
DICTIONARY
  5
23AB
330
224D
100
AcDbDictionary
280
     1
281
     1
  3
ACAD_SORTENTS
360
2E14
  0
DICTIONARY
  5
23C4
330
225A
100
AcDbDictionary
280
     1
281
     1
  3
ACAD_SORTENTS
360
2445
  0
DICTIONARY
  5
23B8
330
232B
100
AcDbDictionary
280
     1
281
     1
  0
DICTIONARY
  5
48D5
330
48D4
100
AcDbDictionary
280
     1
281
     1
  3
ACAD_SORTENTS
360
48D6
  0
DICTIONARY
  5
7F7E
330
232C
100
AcDbDictionary
280
     1
281
     1
  3
ACAD_XREC_ROUNDTRIP
360
7F7F
  0
DICTIONARY
  5
7F80
330
232D
100
AcDbDictionary
280
     1
281
     1
  3
ACAD_XREC_ROUNDTRIP
360
7F81
  0
DICTIONARY
  5
7E7C
330
7E71
100
AcDbDictionary
280
     1
281
     1
  3
ACAD_DIMASSOC
360
7E84
  0
DICTIONARY
  5
7E90
330
7E85
100
AcDbDictionary
280
     1
281
     1
  3
ACAD_DIMASSOC
360
7E98
  0
DICTIONARY
  5
7F13
330
7F12
100
AcDbDictionary
280
     1
281
     1
  3
ACAD_DIMASSOC
360
7F14
  0
DICTIONARY
  5
7F78
330
2287
100
AcDbDictionary
280
     1
281
     1
  3
ACAD_XREC_ROUNDTRIP
360
7F79
  0
DICTIONARY
  5
7F7A
330
2288
100
AcDbDictionary
280
     1
281
     1
  3
ACAD_XREC_ROUNDTRIP
360
7F7B
  0
DICTIONARY
  5
7F86
330
3846
100
AcDbDictionary
280
     1
281
     1
  3
ACAD_XREC_ROUNDTRIP
360
7F87
  0
DICTIONARY
  5
DC2
102
{ACAD_REACTORS
330
C
102
}
330
C
100
AcDbDictionary
281
     1
  0
DICTIONARY
  5
D
102
{ACAD_REACTORS
330
C
102
}
330
C
100
AcDbDictionary
281
     1
  0
DICTIONARY
  5
1A
102
{ACAD_REACTORS
330
C
102
}
330
C
100
AcDbDictionary
281
     1
  3
koncepcja (A3)
350
232A
  3
koncepcja (A4)
350
2285
  3
Model
350
22
  0
DICTIONARY
  5
DC1
102
{ACAD_REACTORS
330
C
102
}
330
C
100
AcDbDictionary
281
     1
  3
ByBlock
350
7882
  3
ByLayer
350
787A
  3
Global
350
788A
  0
DICTIONARY
  5
78BB
102
{ACAD_REACTORS
330
C
102
}
330
C
100
AcDbDictionary
281
     1
  3
Standard
350
78BC
  0
DICTIONARY
  5
17
102
{ACAD_REACTORS
330
C
102
}
330
C
100
AcDbDictionary
281
     1
  3
Standard
350
18
  0
DICTIONARY
  5
19
102
{ACAD_REACTORS
330
C
102
}
330
C
100
AcDbDictionary
281
     1
  3
A3 poziom-DWF-FULL-layout
350
2889
  3
A4 pion-DWF-FULL-layout
350
288A
  0
ACDBDICTIONARYWDFLT
  5
E
102
{ACAD_REACTORS
330
C
102
}
330
C
100
AcDbDictionary
281
     1
  3
Extra Wide
350
2AC
  3
Fine
350
1E1
  3
Medium
350
26D
  3
Normal
350
F
  3
Standard
350
48F2
  3
Thin
350
48F3
  3
Wide
350
48F4
100
AcDbDictionaryWithDefault
340
F
  0
DICTIONARY
  5
78A5
102
{ACAD_REACTORS
330
C
102
}
330
C
100
AcDbDictionary
281
     1
  3
A0
350
78A6
  3
A1
350
78A7
  3
A2
350
78A8
  3
A3
350
78A9
  3
A4
350
78AA
  3
A5
350
78AB
  3
A6
350
78AC
  3
A7
350
78AD
  3
A8
350
78AE
  3
A9
350
78AF
  3
B0
350
78B0
  3
B1
350
78B1
  3
B2
350
78B2
  3
B3
350
78B3
  3
B4
350
78B4
  3
B5
350
78B5
  3
B6
350
78B6
  3
B7
350
78B7
  3
B8
350
78B8
  3
B9
350
78B9
  3
C0
350
78BA
  0
DICTIONARY
  5
78A3
102
{ACAD_REACTORS
330
C
102
}
330
C
100
AcDbDictionary
281
     1
  3
Standard
350
78A4
  0
DICTIONARY
  5
7892
102
{ACAD_REACTORS
330
C
102
}
330
C
100
AcDbDictionary
281
     1
  3
2dWireframe
350
7898
  3
3D Hidden
350
789A
  3
3dWireframe
350
7899
  3
Basic
350
7897
  3
Brighten
350
789E
  3
ColorChange
350
78A2
  3
Conceptual
350
789B
  3
Dim
350
789D
  3
Facepattern
350
78A1
  3
Flat
350
7893
  3
FlatWithEdges
350
7894
  3
Gouraud
350
7895
  3
GouraudWithEdges
350
7896
  3
Linepattern
350
78A0
  3
Realistic
350
789C
  3
Thicken
350
789F
  0
XRECORD
  5
A4E
102
{ACAD_REACTORS
330
C
102
}
330
C
100
AcDbXrecord
280
     1
 90
   990106
  3

 60
     0
 61
     0
 62
     1
 63
     3
 64
     0
 65
     0
 66
     0
 67
     3
 68
     1
 69
     0
 70
     0
 71
     0
 72
     0
 40
0.0
170
     0
  0
XRECORD
  5
7BA7
102
{ACAD_REACTORS
330
C
102
}
330
C
100
AcDbXrecord
280
     1
 90
        1
330
78A4
  0
DICTIONARY
  5
2C
102
{ACAD_REACTORS
330
C
102
}
330
C
100
AcDbDictionary
281
     1
  3
CANNOSCALE
350
7BAB
  3
CMLEADERSTYLE
350
7BA9
  3
CTABLESTYLE
350
7BA8
  3
DIMASSOC
350
2E
  3
HIDETEXT
350
2D
  3
INDEXCTL
350
7F70
  3
LAYEREVAL
350
7BAD
  3
LAYERNOTIFY
350
7BAE
  3
LIGHTINGUNITS
350
7BAC
  3
MSLTSCALE
350
7BAA
  3
OBSCOLOR
350
7F71
  3
SORTENTS
350
7F6F
  0
DICTIONARY
  5
45E1
102
{ACAD_REACTORS
330
C
102
}
330
C
100
AcDbDictionary
281
     1
  3
komin
350
4ADE
  0
DICTIONARY
  5
4AE3
102
{ACAD_REACTORS
330
C
102
}
330
C
100
AcDbDictionary
281
     1
  3
Medium Detail
350
4AE4
  3
Standard
350
4C2D
1001
AECBASE
1070
 10000
1005
4AE4
  0
DICTIONARY
  5
4AE5
102
{ACAD_REACTORS
330
C
102
}
330
C
100
AcDbDictionary
281
     1
  3
Model
350
4AE6
  3
Model High Detail
350
4C2B
  3
Model Low Detail
350
4C2A
  3
Plan
350
4AE7
  3
Plan Diagnostic
350
4AE8
  3
Plan High Detail
350
4C29
  3
Plan Low Detail
350
4C28
  3
Reflected
350
4C27
  3
Section_Elev
350
4AE9
  0
DICTIONARY
  5
30
102
{ACAD_REACTORS
330
C
102
}
330
C
100
AcDbDictionary
281
     1
  3
AbAdDbDispRepRoofHatch
350
27B7
  3
AbAdDbDispRepRoofSlabHatch
350
27B9
  3
AbAdDbWinRoofDispRep
350
2796
  3
AbAdDbWinRoofDispRepDrawingRoof
350
2798
  3
AbAdDbWinRoofDispRepPlan
350
279A
  3
AbAdDispRepWinPanels
350
27BD
  3
AbAdDispRepWinPanelsElev
350
27BB
  3
AbAdDoorDispRep
350
27BF
  3
AbAdIsolationDispRep
350
27C4
  3
AbAdOpeningPlateRepDesc
350
279D
  3
AbAdOpeningPlateRepModel
350
279F
  3
AbAdOpeningPlateRepPlan
350
27A1
  3
AbAdOpeningPlateRepSimple
350
27A3
  3
AbAdPlateDispRepCeiling
350
27A7
  3
AbAdPlateDispRepModel
350
27A9
  3
AbAdPlateDispRepPlan
350
27A5
  3
AbAdRoofOutlineDispRep
350
27AB
  3
AbAdRoofPlanLoftDispRep
350
27AD
  3
AbAdStairDesDispRep
350
27AF
  3
AbAdStairDispRep
350
27B1
  3
AbAdThresholdDispRep
350
27C1
  3
AbAdWallDispRep
350
27B3
  3
AbAdWindowDispRep
350
27B5
  3
AecDbDispRep2dSection
350
4AEA
  3
AecDbDispRepAnchor
350
4AEB
  3
AecDbDispRepAnchorBubToGrid
350
4AEC
  3
AecDbDispRepAnchorBubToGridMdl
350
4AED
  3
AecDbDispRepAnchorBubToGridRcp
350
4BBB
  3
AecDbDispRepAnchorEntToNode
350
4AEE
  3
AecDbDispRepAnchorExtendedTagToEnt
350
78D0
  3
AecDbDispRepAnchorTagToEnt
350
4AEF
  3
AecDbDispRepBdgElevLineModel
350
4AF3
  3
AecDbDispRepBdgElevLinePlan
350
4AF4
  3
AecDbDispRepBdgElevLinePlan100
350
4BCB
  3
AecDbDispRepBdgElevLinePlan50
350
4BE8
  3
AecDbDispRepBdgElevLineRcp
350
4B9D
  3
AecDbDispRepBdgSectionLineModel
350
4AF5
  3
AecDbDispRepBdgSectionLinePlan
350
4AF6
  3
AecDbDispRepBdgSectionLinePlan100
350
4BCD
  3
AecDbDispRepBdgSectionLinePlan50
350
4BEA
  3
AecDbDispRepBdgSectionLineRcp
350
4B9F
  3
AecDbDispRepBdgSectionModel
350
4BA1
  3
AecDbDispRepBdgSectionSubDiv
350
4AF7
  3
AecDbDispRepCeilingGrid
350
4AF9
  3
AecDbDispRepCeilingGridModel
350
4AFA
  3
AecDbDispRepCeilingGridPlan100
350
4BCF
  3
AecDbDispRepCeilingGridPlan50
350
4BEC
  3
AecDbDispRepCeilingGridRcp
350
4BA2
  3
AecDbDispRepClipVolModel
350
4AFB
  3
AecDbDispRepClipVolPlan
350
4AFC
  3
AecDbDispRepClipVolResSubDiv
350
4AFD
  3
AecDbDispRepClipVolResult
350
4AFE
  3
AecDbDispRepColumnGrid
350
4AFF
  3
AecDbDispRepColumnGridModel
350
4B00
  3
AecDbDispRepColumnGridPlan100
350
4BD1
  3
AecDbDispRepColumnGridPlan50
350
4BEE
  3
AecDbDispRepColumnGridRcp
350
4BBD
  3
AecDbDispRepCurtainWallLayoutModel
350
4B01
  3
AecDbDispRepCurtainWallLayoutPlan
350
4B02
  3
AecDbDispRepCurtainWallLayoutPlan100
350
4BD3
  3
AecDbDispRepCurtainWallLayoutPlan50
350
4BF0
  3
AecDbDispRepCurtainWallUnitModel
350
4B03
  3
AecDbDispRepCurtainWallUnitPlan
350
4B04
  3
AecDbDispRepCurtainWallUnitPlan100
350
4BD5
  3
AecDbDispRepCurtainWallUnitPlan50
350
4BF2
  3
AecDbDispRepDimGroupPlan
350
4B05
  3
AecDbDispRepDimGroupPlan100
350
4C03
  3
AecDbDispRepDimGroupPlan50
350
4C05
  3
AecDbDispRepDisplayTheme
350
78CE
  3
AecDbDispRepDoorElev
350
4B06
  3
AecDbDispRepDoorModel
350
4B07
  3
AecDbDispRepDoorNominal
350
4B08
  3
AecDbDispRepDoorPlan
350
4B09
  3
AecDbDispRepDoorPlan50
350
4C07
  3
AecDbDispRepDoorPlanHekto
350
4C09
  3
AecDbDispRepDoorRcp
350
4BA4
  3
AecDbDispRepDoorThresholdPlan
350
4B0A
  3
AecDbDispRepDoorThresholdSymbolPlan
350
4C0B
  3
AecDbDispRepEditInPlaceProfile
350
4B0B
  3
AecDbDispRepEntRef
350
4B0C
  3
AecDbDispRepLayoutCurve
350
4B0D
  3
AecDbDispRepLayoutGrid2d
350
4B0E
  3
AecDbDispRepLayoutGrid3d
350
4B0F
  3
AecDbDispRepMaskBlockRef
350
4B10
  3
AecDbDispRepMaskBlockRefRcp
350
4B11
  3
AecDbDispRepMassElemModel
350
4B12
  3
AecDbDispRepMassElemPlan100
350
4C0D
  3
AecDbDispRepMassElemPlan50
350
4C0F
  3
AecDbDispRepMassElemRcp
350
4BA6
  3
AecDbDispRepMassElemSchem
350
4B13
  3
AecDbDispRepMassGroupModel
350
4B14
  3
AecDbDispRepMassGroupPlan
350
4B15
  3
AecDbDispRepMassGroupPlan100
350
4C11
  3
AecDbDispRepMassGroupPlan50
350
4C13
  3
AecDbDispRepMassGroupRcp
350
4BA8
  3
AecDbDispRepMaterial
350
4B16
  3
AecDbDispRepMaterial$General Medium Detail
350
4B17
  3
AecDbDispRepMvBlockRef
350
4B18
  3
AecDbDispRepMvBlockRef$Plan
350
4B19
  3
AecDbDispRepMvBlockRef$Plan (lustro)
350
4B1A
  3
AecDbDispRepMvBlockRefModel
350
4B1B
  3
AecDbDispRepMvBlockRefPlan100
350
4BD7
  3
AecDbDispRepMvBlockRefPlan50
350
4BF4
  3
AecDbDispRepMvBlockRefRcp
350
4BAA
  3
AecDbDispRepOpening
350
4B1C
  3
AecDbDispRepOpeningModel
350
4B1D
  3
AecDbDispRepOpeningPlan100
350
4C15
  3
AecDbDispRepOpeningPlan50
350
4C17
  3
AecDbDispRepOpeningPlanReflected
350
4C19
  3
AecDbDispRepOpeningSillPlan
350
4B1E
  3
AecDbDispRepPolygonModel
350
4B1F
  3
AecDbDispRepPolygonTrueColour
350
4B9B
  3
AecDbDispRepRailingModel
350
4B20
  3
AecDbDispRepRailingPlan
350
4B21
  3
AecDbDispRepRailingPlan100
350
4C1B
  3
AecDbDispRepRailingPlan50
350
4C1D
  3
AecDbDispRepRoofModel
350
4B22
  3
AecDbDispRepRoofPlan
350
4B23
  3
AecDbDispRepRoofPlan100
350
4BD8
  3
AecDbDispRepRoofPlan50
350
4BF5
  3
AecDbDispRepRoofRcp
350
4BAB
  3
AecDbDispRepRoofSlabModel
350
4B24
  3
AecDbDispRepRoofSlabPlan
350
4B25
  3
AecDbDispRepRoofSlabPlan100
350
4BDA
  3
AecDbDispRepRoofSlabPlan50
350
4BF7
  3
AecDbDispRepScheduleTable
350
4B26
  3
AecDbDispRepSlabModel
350
4B27
  3
AecDbDispRepSlabPlan
350
4B28
  3
AecDbDispRepSlabPlan100
350
4BDC
  3
AecDbDispRepSlabPlan50
350
4BF9
  3
AecDbDispRepSlice
350
4B29
  3
AecDbDispRepSpaceDecomposed
350
78D2
  3
AecDbDispRepSpaceModel
350
4B2D
  3
AecDbDispRepSpacePlan
350
4B2E
  3
AecDbDispRepSpacePlan100
350
4BE0
  3
AecDbDispRepSpacePlan50
350
4BFD
  3
AecDbDispRepSpaceRcp
350
4BAF
  3
AecDbDispRepSpaceVolume
350
4BB1
  3
AecDbDispRepStairModel
350
4B2F
  3
AecDbDispRepStairPlan
350
4B30
  3
AecDbDispRepStairPlan100
350
4C1F
  3
AecDbDispRepStairPlan50
350
4C21
  3
AecDbDispRepStairPlanOverlapping
350
4BB3
  3
AecDbDispRepStairRcp
350
4BB5
  3
AecDbDispRepWallGraph
350
4B31
  3
AecDbDispRepWallModel
350
4B32
  3
AecDbDispRepWallPlan
350
4B33
  3
AecDbDispRepWallPlan100
350
4BE2
  3
AecDbDispRepWallPlan50
350
4BFF
  3
AecDbDispRepWallRcp
350
4BB7
  3
AecDbDispRepWallSchem
350
4B34
  3
AecDbDispRepWindowAssemblyModel
350
4B35
  3
AecDbDispRepWindowAssemblyPlan
350
4B36
  3
AecDbDispRepWindowAssemblyPlan100
350
4B37
  3
AecDbDispRepWindowAssemblyPlan50
350
4C01
  3
AecDbDispRepWindowAssemblySillPlan
350
4B38
  3
AecDbDispRepWindowElev
350
4B39
  3
AecDbDispRepWindowModel
350
4B3A
  3
AecDbDispRepWindowNominal
350
4B3B
  3
AecDbDispRepWindowPlan
350
4B3C
  3
AecDbDispRepWindowPlan100
350
4C23
  3
AecDbDispRepWindowPlan50
350
4C25
  3
AecDbDispRepWindowRcp
350
4BB9
  3
AecDbDispRepWindowSillPlan
350
4B3D
  3
AecDbDispRepZone
350
78D4
  3
AecDbDispRepZonePlan100
350
78D6
  3
AecDbDispRepZonePlan50
350
78D8
  3
AecsDbDispRepMemberElevationDesign
350
4B3E
  3
AecsDbDispRepMemberElevationDetail
350
4BBF
  3
AecsDbDispRepMemberLogical
350
4B3F
  3
AecsDbDispRepMemberModelDesign
350
4B40
  3
AecsDbDispRepMemberModelDetail
350
4BC1
  3
AecsDbDispRepMemberPlanDesign
350
4B41
  3
AecsDbDispRepMemberPlanDetail
350
4BC3
  3
AecsDbDispRepMemberPlanSketch
350
4BC5
  0
DICTIONARY
  5
32
102
{ACAD_REACTORS
330
C
102
}
330
C
100
AcDbDictionary
281
     1
  3
*A1
350
27A8
  3
*A10
350
4BB0
  3
*A100
350
4BF1
  3
*A101
350
4B70
  3
*A102
350
4B5A
  3
*A103
350
27A4
  3
*A104
350
4BCC
  3
*A105
350
4BCE
  3
*A106
350
4C1C
  3
*A107
350
4BD0
  3
*A108
350
4BD2
  3
*A109
350
4BD4
  3
*A11
350
4B4C
  3
*A110
350
4B84
  3
*A111
350
4BA3
  3
*A112
350
4BF3
  3
*A113
350
4B71
  3
*A114
350
4BD6
  3
*A115
350
4BD9
  3
*A116
350
4BDB
  3
*A117
350
4B42
  3
*A118
350
4B44
  3
*A119
350
4BF6
  3
*A12
350
4B4D
  3
*A120
350
27A0
  3
*A121
350
4B85
  3
*A122
350
4BF8
  3
*A123
350
4BFA
  3
*A124
350
4BA7
  3
*A125
350
4B72
  3
*A126
350
4BFE
  3
*A127
350
4C00
  3
*A128
350
4C02
  3
*A129
350
4C04
  3
*A13
350
4B8A
  3
*A130
350
4C1E
  3
*A131
350
4C06
  3
*A132
350
4B86
  3
*A133
350
4BDD
  3
*A134
350
4C08
  3
*A135
350
4B43
  3
*A136
350
4C0A
  3
*A137
350
4B5D
  3
*A138
350
4BAC
  3
*A139
350
4C20
  3
*A14
350
4BB4
  3
*A140
350
4B55
  3
*A141
350
4C22
  3
*A142
350
279C
  3
*A143
350
27B0
  3
*A144
350
4C24
  3
*A145
350
4B74
  3
*A146
350
4C26
  3
*A147
350
279E
  3
*A148
350
27BE
  3
*A149
350
27A6
  3
*A15
350
4B4E
  3
*A150
350
27AE
  3
*A151
350
27B6
  3
*A152
350
4C0C
  3
*A153
350
4B5E
  3
*A154
350
4B87
  3
*A155
350
4B45
  3
*A156
350
4BE1
  3
*A157
350
4BE9
  3
*A158
350
27B8
  3
*A159
350
27A2
  3
*A16
350
4B4F
  3
*A160
350
27BA
  3
*A161
350
4B46
  3
*A162
350
4B47
  3
*A163
350
27AC
  3
*A164
350
4BA9
  3
*A17
350
4B50
  3
*A18
350
4B51
  3
*A19
350
2797
  3
*A2
350
4B88
  3
*A20
350
4B76
  3
*A21
350
4B52
  3
*A22
350
4B53
  3
*A23
350
4B54
  3
*A24
350
4BBC
  3
*A25
350
4B61
  3
*A26
350
4C0E
  3
*A27
350
4BB2
  3
*A28
350
4B64
  3
*A29
350
4B77
  3
*A3
350
4B48
  3
*A30
350
27C0
  3
*A31
350
4B65
  3
*A32
350
4BB6
  3
*A33
350
4B66
  3
*A34
350
4B67
  3
*A35
350
4C18
  3
*A36
350
4B68
  3
*A37
350
4B69
  3
*A38
350
4C10
  3
*A39
350
4B6A
  3
*A4
350
4B49
  3
*A40
350
27C2
  3
*A41
350
4B78
  3
*A42
350
4B6B
  3
*A43
350
4B6C
  3
*A44
350
4B6D
  3
*A45
350
78CF
  3
*A46
350
4B8B
  3
*A47
350
78D1
  3
*A48
350
78D3
  3
*A49
350
78D5
  3
*A5
350
4B5F
  3
*A50
350
4C12
  3
*A51
350
78D7
  3
*A52
350
78D9
  3
*A53
350
4BB8
  3
*A54
350
27AA
  3
*A55
350
4BA5
  3
*A56
350
4B79
  3
*A57
350
4BED
  3
*A58
350
4B7A
  3
*A59
350
4B56
  3
*A6
350
4B4A
  3
*A60
350
4B7B
  3
*A61
350
4BEB
  3
*A62
350
4C14
  3
*A63
350
4B7C
  3
*A64
350
4B7D
  3
*A65
350
4B7E
  3
*A66
350
4B7F
  3
*A67
350
4B80
  3
*A68
350
4B58
  3
*A69
350
4B81
  3
*A7
350
4B75
  3
*A70
350
4BBA
  3
*A71
350
4B82
  3
*A72
350
27B2
  3
*A73
350
4B57
  3
*A74
350
4B8C
  3
*A75
350
27C5
  3
*A76
350
27BC
  3
*A77
350
4C16
  3
*A78
350
4B8E
  3
*A79
350
4B8F
  3
*A8
350
4BE3
  3
*A80
350
4B90
  3
*A81
350
4B91
  3
*A82
350
4B73
  3
*A83
350
4B92
  3
*A84
350
4B93
  3
*A85
350
4BEF
  3
*A86
350
4BBE
  3
*A87
350
4B59
  3
*A88
350
4B5B
  3
*A89
350
4B6F
  3
*A9
350
4B4B
  3
*A90
350
4B9C
  3
*A91
350
4B9E
  3
*A92
350
4BA0
  3
*A93
350
4BC0
  3
*A94
350
4C1A
  3
*A95
350
4BC2
  3
*A96
350
2799
  3
*A97
350
4BC4
  3
*A98
350
4BC6
  3
*A99
350
4B83
  0
DICTIONARY
  5
4B94
102
{ACAD_REACTORS
330
C
102
}
330
C
100
AcDbDictionary
281
     1
  3
Aec_Elevation_Label_4_1m1
350
4B95
  0
DICTIONARY
  5
45E2
102
{ACAD_REACTORS
330
C
102
}
330
C
100
AcDbDictionary
281
     1
  0
DICTIONARY
  5
4B96
102
{ACAD_REACTORS
330
C
102
}
330
C
100
AcDbDictionary
281
     1
  3
AEC_VARS_ARCHBASE
350
4B97
  3
AEC_VARS_DWG_SETUP
350
4B98
  3
AEC_VARS_STRUCTUREBASE
350
4B99
  3
AECMX_VARS_MUNICH
350
4B9A
  0
DICTIONARY
  5
7BCE
102
{ACAD_REACTORS
330
C
102
}
330
C
100
AcDbDictionary
281
     1
  3
ASEBlockHierarchyIndexRecord
350
7BCF
1001
DCO15
1040
1667297772.406
  0
DICTIONARY
  5
42E9
102
{ACAD_REACTORS
330
C
102
}
330
C
100
AcDbDictionary
281
     1
  3
ACET-OVERKILL-FUZZ
350
7F3E
  3
ACET-OVERKILL-NO-ENDTOEND
350
7F41
  3
ACET-OVERKILL-NO-PARTIAL
350
7F40
  3
ACET-OVERKILL-NO-PLINES
350
7F3F
  0
DICTIONARY
  5
4E78
102
{ACAD_REACTORS
330
C
102
}
330
C
100
AcDbDictionary
281
     1
  3
DRCSET
350
7542
  0
XRECORD
  5
7F73
102
{ACAD_REACTORS
330
C
102
}
330
C
100
AcDbXrecord
280
     1
  1
DWGPROPS COOKIE
  2

  3

  4

  6

  7

  8
magdalena.jozwik
  9

300
=
301
=
302
=
303
=
304
=
305
=
306
=
307
=
308
=
309
=
 40
1.030246157407407
 41
2453924.46651963
 42
2455100.639773218
  1

 90
        0
  0
DICTIONARY
  5
4E76
102
{ACAD_REACTORS
330
C
102
}
330
C
100
AcDbDictionary
281
     1
  3
SOLIDRES
350
7541
  0
DICTIONARY
  5
4E7A
102
{ACAD_REACTORS
330
C
102
}
330
C
100
AcDbDictionary
281
     1
  3
DRCSCALE
350
7543
  0
DICTIONARY
  5
920
102
{ACAD_REACTORS
330
91F
102
}
330
91F
100
AcDbDictionary
280
     1
281
     1
  3
Title Layers
360
921
  3
XREF Insert Layers
360
922
  0
DICTIONARY
  5
923
102
{ACAD_REACTORS
330
91F
102
}
330
91F
100
AcDbDictionary
281
     1
  0
XRECORD
  5
78DD
102
{ACAD_REACTORS
330
78DC
102
}
330
78DC
100
AcDbXrecord
280
     1
290
     1
  0
XRECORD
  5
78ED
102
{ACAD_REACTORS
330
78EC
102
}
330
78EC
100
AcDbXrecord
280
     1
290
     1
  0
XRECORD
  5
78EF
102
{ACAD_REACTORS
330
78EE
102
}
330
78EE
100
AcDbXrecord
280
     1
290
     1
  0
XRECORD
  5
790B
102
{ACAD_REACTORS
330
790A
102
}
330
790A
100
AcDbXrecord
280
     1
290
     1
  0
XRECORD
  5
7929
102
{ACAD_REACTORS
330
7928
102
}
330
7928
100
AcDbXrecord
280
     1
290
     1
  0
XRECORD
  5
7931
102
{ACAD_REACTORS
330
7930
102
}
330
7930
100
AcDbXrecord
280
     1
290
     1
  0
XRECORD
  5
7937
102
{ACAD_REACTORS
330
7936
102
}
330
7936
100
AcDbXrecord
280
     1
290
     1
  0
DICTIONARY
  5
39DC
102
{ACAD_REACTORS
330
DE5
102
}
330
DE5
100
AcDbDictionary
281
     1
  3
*A1
350
39DD
  0
SORTENTSTABLE
  5
7CA9
102
{ACAD_REACTORS
330
DE5
102
}
330
DE5
100
AcDbSortentsTable
330
1F
331
7C44
  5
7C62
331
7C7B
  5
7CFD
331
7D79
  5
7DB6
331
7D81
  5
7D93
331
7C83
  5
7D60
331
7D2A
  5
7CE2
331
7C4C
  5
7C6A
331
7C54
  5
7C72
331
7C8B
  5
7D7E
331
7DB9
  5
700E
331
7C5C
  5
7C7B
331
7C93
  5
7D88
331
4046
  5
4046
331
7D5A
  5
7DBB
331
7C64
  5
7C83
331
7C9B
  5
7D90
331
7C6C
  5
7C90
331
7C74
  5
7C99
331
7C3D
  5
7C5B
331
700E
  5
7A78
331
706E
  5
7A7A
331
7C45
  5
7C63
331
7C7C
  5
7CFE
331
7D7A
  5
7DB7
331
7D82
  5
7D94
331
7C4D
  5
7C6B
331
7C84
  5
7D70
331
7DBA
  5
700F
331
7C55
  5
7C73
331
7C8C
  5
7D7F
331
7C94
  5
7D8A
331
7C5D
  5
7C7C
331
4047
  5
4047
331
7C65
  5
7C84
331
7C6D
  5
7C91
331
7C75
  5
7C9A
331
7C3E
  5
7C5C
331
700F
  5
7A79
331
706F
  5
7A7B
331
7C46
  5
7C64
331
7C7D
  5
7CFF
331
7D7B
  5
7D97
331
7D83
  5
7D95
331
7C85
  5
7D78
331
7C4E
  5
7C6C
331
7C56
  5
7C74
331
7C8D
  5
7D80
331
7DBB
  5
706E
331
7C5E
  5
7C7D
331
7C95
  5
7D8B
331
7D4C
  5
7D89
331
7C66
  5
7C85
331
7D64
  5
7D65
331
7C6E
  5
7C92
331
7D74
  5
7D77
331
7C76
  5
7C9B
331
7CFD
  5
7DB8
331
7D05
  5
7D75
331
7C3F
  5
7C5D
331
7C47
  5
7C65
331
7C7E
  5
7D06
331
7D7C
  5
7D98
331
7C4F
  5
7C6D
331
7D84
  5
7D96
331
7C57
  5
7C75
331
7C8E
  5
7D81
331
7C5F
  5
7C7E
331
7C67
  5
7C8A
331
7C6F
  5
7C93
331
7CFE
  5
7DB9
331
7C77
  5
7CB6
331
7D75
  5
7DB2
331
7C40
  5
7C5E
331
7D7D
  5
7DB0
331
7C48
  5
7C66
331
7C7F
  5
7D11
331
7D0E
  5
7D79
331
7C87
  5
7D7A
331
7C50
  5
7C6E
331
7C58
  5
7C76
331
7C8F
  5
7D82
331
7C97
  5
7D8C
331
7C60
  5
7C7F
331
7C68
  5
7C8B
331
7C70
  5
7C94
331
7D76
  5
7DB3
331
7C78
  5
7CCE
331
7C41
  5
7C5F
331
7D7E
  5
7DB1
331
7C49
  5
7C67
331
7C80
  5
7D2B
331
7C51
  5
7C6F
331
7C88
  5
7D7B
331
7C90
  5
7D83
331
7C59
  5
7C77
331
7D3F
  5
7D40
331
7C98
  5
7D8D
331
7C61
  5
7C80
331
7C69
  5
7C8C
331
7D5F
  5
7D76
331
7C71
  5
7C95
331
7D77
  5
7DB4
331
7C42
  5
7C60
331
7C81
  5
7D36
331
7C4A
  5
7C68
331
7D7F
  5
7D91
331
7C89
  5
7D7C
331
3D74
  5
3D74
331
7C52
  5
7C70
331
7C5A
  5
7C78
331
7C91
  5
7D84
331
7C62
  5
7C81
331
7C99
  5
7D8E
331
7C6A
  5
7C8D
331
7C72
  5
7C97
331
700C
  5
706F
331
7C43
  5
7C61
331
7C7A
  5
7CFC
331
7D78
  5
7DB5
331
7D80
  5
7D92
331
7C4B
  5
7C69
331
7C82
  5
7D5B
331
7DB8
  5
700C
331
7C53
  5
7C71
331
7C8A
  5
7D7D
331
7C92
  5
7D87
331
7C5B
  5
7C7A
331
7C9A
  5
7D8F
331
7D59
  5
7DBA
331
7C63
  5
7C82
331
7C6B
  5
7C8F
331
7C73
  5
7C98
331
7C3C
  5
7C5A
  0
SORTENTSTABLE
  5
7635
102
{ACAD_REACTORS
330
1A8B
102
}
330
1A8B
100
AcDbSortentsTable
330
1A8A
  0
SORTENTSTABLE
  5
2E14
102
{ACAD_REACTORS
330
23AB
102
}
330
23AB
100
AcDbSortentsTable
330
224D
  0
SORTENTSTABLE
  5
2445
102
{ACAD_REACTORS
330
23C4
102
}
330
23C4
100
AcDbSortentsTable
330
225A
  0
SORTENTSTABLE
  5
48D6
102
{ACAD_REACTORS
330
48D5
102
}
330
48D5
100
AcDbSortentsTable
330
48D4
  0
XRECORD
  5
7F7F
102
{ACAD_REACTORS
330
7F7E
102
}
330
7F7E
100
AcDbXrecord
280
     1
102
SHADEPLOT
 70
     0
  0
XRECORD
  5
7F81
102
{ACAD_REACTORS
330
7F80
102
}
330
7F80
100
AcDbXrecord
280
     1
102
SHADEPLOT
 70
     0
  0
DIMASSOC
  5
7E84
102
{ACAD_REACTORS
330
7E7C
102
}
330
7E7C
100
AcDbDimAssoc
330
7E71
 90
        1
 70
     0
 71
     0
  1
AcDbOsnapPointRef
 72
    13
331
7CFD
 73
     2
 91
        0
 40
0.0
 10
0.0
 20
0.0
 30
2.000000000000000E+50
 75
     0
  0
DIMASSOC
  5
7E98
102
{ACAD_REACTORS
330
7E90
102
}
330
7E90
100
AcDbDimAssoc
330
7E85
 90
        3
 70
     0
 71
     0
  1
AcDbOsnapPointRef
 72
    10
331
7C7A
 73
     2
 91
        0
 40
0.5528722141887507
 10
0.0
 20
0.0
 30
0.0
 75
     0
  1
AcDbOsnapPointRef
 72
     2
331
7C82
 73
     2
 91
        0
 40
0.5000000000000004
 10
0.0
 20
0.0
 30
0.0
 75
     0
  0
DIMASSOC
  5
7F14
102
{ACAD_REACTORS
330
7F13
102
}
330
7F13
100
AcDbDimAssoc
330
7F12
 90
        1
 70
     0
 71
     0
  1
AcDbOsnapPointRef
 72
    13
331
7F0E
 73
     2
 91
        0
 40
0.0
 10
0.0
 20
0.0
 30
2.000000000000000E+50
 75
     0
  0
XRECORD
  5
7F79
102
{ACAD_REACTORS
330
7F78
102
}
330
7F78
100
AcDbXrecord
280
     1
102
SHADEPLOT
 70
     0
  0
XRECORD
  5
7F7B
102
{ACAD_REACTORS
330
7F7A
102
}
330
7F7A
100
AcDbXrecord
280
     1
102
SHADEPLOT
 70
     0
  0
XRECORD
  5
7F87
102
{ACAD_REACTORS
330
7F86
102
}
330
7F86
100
AcDbXrecord
280
     1
102
SHADEPLOT
 70
     0
  0
LAYOUT
  5
232A
102
{ACAD_XDICTIONARY
360
7F7C
102
}
102
{ACAD_REACTORS
330
1A
102
}
330
1A
100
AcDbPlotSettings
  1

  2
\\GRZEGORZ\HP DeskJet 1220C
  4
A3
  6

 40
5.873749732971191
 41
12.68940830230713
 42
5.8314208984375
 43
3.84173583984375
 44
296.9683227539062
 45
419.9889831542968
 46
0.0
 47
0.0
 48
0.0
 49
0.0
140
0.0
141
0.0
142
10.0
143
1.0
 70
   672
 72
     1
 73
     1
 74
     5
  7
monochrome_140.ctb
 75
     0
147
10.0
148
0.0
149
0.0
100
AcDbLayout
  1
koncepcja (A3)
 70
     0
 71
     2
 10
-0.384173583984375
 20
-0.5873749732971192
 11
41.61472473144531
 21
29.10945730209351
 12
0.0
 22
0.0
 32
0.0
 14
0.5393610270898606
 24
0.6981119987064256
 34
0.0
 15
40.09064480980077
 25
28.29039228608914
 35
0.0
146
0.0
 13
0.0
 23
0.0
 33
0.0
 16
1.0
 26
0.0
 36
0.0
 17
0.0
 27
1.0
 37
0.0
 76
     0
330
232B
331
232C
  0
LAYOUT
  5
2285
102
{ACAD_XDICTIONARY
360
7F76
102
}
102
{ACAD_REACTORS
330
1A
102
}
330
1A
100
AcDbPlotSettings
  1

  2
\\Komp-nr-7\hp LaserJet 1300 PCL 6
  4
A4
  6

 40
5.027083396911621
 41
5.069413185119628
 42
5.027084350585937
 43
5.027069091796875
 44
209.9733276367187
 45
296.9683227539062
 46
0.0
 47
0.0
 48
0.0
 49
0.0
140
0.0
141
0.0
142
10.0
143
1.0
 70
   672
 72
     1
 73
     0
 74
     5
  7
monochrome_140.ctb
 75
     0
147
1.0
148
0.0
149
0.0
100
AcDbLayout
  1
koncepcja (A4)
 70
     0
 71
     1
 10
-0.5027083396911621
 20
-0.5069413185119629
 11
20.49462442398072
 21
29.18989095687866
 12
0.0
 22
0.0
 32
0.0
 14
-0.3785752547503733
 24
0.1807636100571841
 34
0.0
 15
19.87273365404815
 25
28.48157452849739
 35
0.0
146
0.0
 13
0.0
 23
0.0
 33
0.0
 16
1.0
 26
0.0
 36
0.0
 17
0.0
 27
1.0
 37
0.0
 76
     0
330
2286
331
2287
  0
LAYOUT
  5
22
102
{ACAD_XDICTIONARY
360
7F74
102
}
102
{ACAD_REACTORS
330
1A
102
}
330
1A
100
AcDbPlotSettings
  1

  2
HP LaserJet 1200 Series PCL
  4
A4
  6

 40
6.805083274841308
 41
5.027085781097412
 42
6.805068969726562
 43
5.027069091796875
 44
209.9733276367187
 45
296.9683227539062
 46
-3.818412303924858
 47
3.257083940505964
 48
-12154.01611226617
 49
-15190.02991668208
140
-1954.01611226614
141
-1170.029916682081
142
1.0
143
50.0
 70
 11956
 72
     1
 73
     0
 74
     4
  7
monochrome_140.ctb
 75
    25
147
0.02
148
12154.01611226617
149
15190.02991668208
100
AcDbLayout
  1
Model
 70
     1
 71
     0
 10
0.0
 20
0.0
 11
12.0
 21
9.0
 12
0.0
 22
0.0
 32
0.0
 14
0.0
 24
0.0
 34
0.0
 15
0.0
 25
0.0
 35
0.0
146
0.0
 13
0.0
 23
0.0
 33
0.0
 16
1.0
 26
0.0
 36
0.0
 17
0.0
 27
1.0
 37
0.0
 76
     0
330
1F
331
7878
1001
ACAD_PSEXT
1000
HP LaserJet 1200 Series PCL
1000
HP LaserJet 1200 Series PCL
1000
DOT4_001
1000

1070
     0
  0
MATERIAL
  5
7882
102
{ACAD_XDICTIONARY
360
7883
102
}
102
{ACAD_REACTORS
330
DC1
102
}
330
DC1
100
AcDbMaterial
  1
ByBlock
 72
     0
 43
0.0082020997375328
 43
0.0
 43
0.0
 43
0.0
 43
0.0
 43
0.0082020997375328
 43
0.0
 43
0.0
 43
0.0
 43
0.0
 43
1.0
 43
0.0
 43
0.0
 43
0.0
 43
0.0
 43
1.0
 77
     0
 47
0.0082020997375328
 47
0.0
 47
0.0
 47
0.0
 47
0.0
 47
0.0082020997375328
 47
0.0
 47
0.0
 47
0.0
 47
0.0
 47
1.0
 47
0.0
 47
0.0
 47
0.0
 47
0.0
 47
1.0
171
     0
 49
0.0082020997375328
 49
0.0
 49
0.0
 49
0.0
 49
0.0
 49
0.0082020997375328
 49
0.0
 49
0.0
 49
0.0
 49
0.0
 49
1.0
 49
0.0
 49
0.0
 49
0.0
 49
0.0
 49
1.0
175
     0
142
0.0082020997375328
142
0.0
142
0.0
142
0.0
142
0.0
142
0.0082020997375328
142
0.0
142
0.0
142
0.0
142
0.0
142
1.0
142
0.0
142
0.0
142
0.0
142
0.0
142
1.0
179
     0
144
0.0082020997375328
144
0.0
144
0.0
144
0.0
144
0.0
144
0.0082020997375328
144
0.0
144
0.0
144
0.0
144
0.0
144
1.0
144
0.0
144
0.0
144
0.0
144
0.0
144
1.0
147
0.0082020997375328
147
0.0
147
0.0
147
0.0
147
0.0
147
0.0082020997375328
147
0.0
147
0.0
147
0.0
147
0.0
147
1.0
147
0.0
147
0.0
147
0.0
147
0.0
147
1.0
  0
MATERIAL
  5
787A
102
{ACAD_XDICTIONARY
360
787B
102
}
102
{ACAD_REACTORS
330
DC1
102
}
330
DC1
100
AcDbMaterial
  1
ByLayer
 72
     0
 43
0.0082020997375328
 43
0.0
 43
0.0
 43
0.0
 43
0.0
 43
0.0082020997375328
 43
0.0
 43
0.0
 43
0.0
 43
0.0
 43
1.0
 43
0.0
 43
0.0
 43
0.0
 43
0.0
 43
1.0
 77
     0
 47
0.0082020997375328
 47
0.0
 47
0.0
 47
0.0
 47
0.0
 47
0.0082020997375328
 47
0.0
 47
0.0
 47
0.0
 47
0.0
 47
1.0
 47
0.0
 47
0.0
 47
0.0
 47
0.0
 47
1.0
171
     0
 49
0.0082020997375328
 49
0.0
 49
0.0
 49
0.0
 49
0.0
 49
0.0082020997375328
 49
0.0
 49
0.0
 49
0.0
 49
0.0
 49
1.0
 49
0.0
 49
0.0
 49
0.0
 49
0.0
 49
1.0
175
     0
142
0.0082020997375328
142
0.0
142
0.0
142
0.0
142
0.0
142
0.0082020997375328
142
0.0
142
0.0
142
0.0
142
0.0
142
1.0
142
0.0
142
0.0
142
0.0
142
0.0
142
1.0
179
     0
144
0.0082020997375328
144
0.0
144
0.0
144
0.0
144
0.0
144
0.0082020997375328
144
0.0
144
0.0
144
0.0
144
0.0
144
1.0
144
0.0
144
0.0
144
0.0
144
0.0
144
1.0
147
0.0082020997375328
147
0.0
147
0.0
147
0.0
147
0.0
147
0.0082020997375328
147
0.0
147
0.0
147
0.0
147
0.0
147
1.0
147
0.0
147
0.0
147
0.0
147
0.0
147
1.0
  0
MATERIAL
  5
788A
102
{ACAD_XDICTIONARY
360
788B
102
}
102
{ACAD_REACTORS
330
DC1
102
}
330
DC1
100
AcDbMaterial
  1
Global
 72
     0
 43
0.0082020997375328
 43
0.0
 43
0.0
 43
0.0
 43
0.0
 43
0.0082020997375328
 43
0.0
 43
0.0
 43
0.0
 43
0.0
 43
1.0
 43
0.0
 43
0.0
 43
0.0
 43
0.0
 43
1.0
 77
     0
 47
0.0082020997375328
 47
0.0
 47
0.0
 47
0.0
 47
0.0
 47
0.0082020997375328
 47
0.0
 47
0.0
 47
0.0
 47
0.0
 47
1.0
 47
0.0
 47
0.0
 47
0.0
 47
0.0
 47
1.0
171
     0
 49
0.0082020997375328
 49
0.0
 49
0.0
 49
0.0
 49
0.0
 49
0.0082020997375328
 49
0.0
 49
0.0
 49
0.0
 49
0.0
 49
1.0
 49
0.0
 49
0.0
 49
0.0
 49
0.0
 49
1.0
175
     0
142
0.0082020997375328
142
0.0
142
0.0
142
0.0
142
0.0
142
0.0082020997375328
142
0.0
142
0.0
142
0.0
142
0.0
142
1.0
142
0.0
142
0.0
142
0.0
142
0.0
142
1.0
179
     0
144
0.0082020997375328
144
0.0
144
0.0
144
0.0
144
0.0
144
0.0082020997375328
144
0.0
144
0.0
144
0.0
144
0.0
144
1.0
144
0.0
144
0.0
144
0.0
144
0.0
144
1.0
147
0.0082020997375328
147
0.0
147
0.0
147
0.0
147
0.0
147
0.0082020997375328
147
0.0
147
0.0
147
0.0
147
0.0
147
1.0
147
0.0
147
0.0
147
0.0
147
0.0
147
1.0
  0
MLEADERSTYLE
  5
78BC
102
{ACAD_REACTORS
330
78BB
102
}
330
78BB
100
AcDbMLeaderStyle
170
     2
171
     1
172
     0
 90
        2
 40
0.0
 41
0.0
173
     1
 91
-1056964608
340
14
 92
       -2
290
     1
 42
2.0
291
     1
 43
0.36
  3
Standard
 44
4.0
300

342
11
174
     1
178
     6
175
     1
176
     0
 93
-1056964608
 45
4.0
292
     0
297
     0
 46
4.0
 94
-1056964608
 47
1.0
 49
1.0
140
1.0
293
     1
141
0.0
294
     1
177
     0
142
1.0
295
     0
296
     0
143
0.125
1001
ACAD_MLEADERVER
1070
     2
  0
MLINESTYLE
  5
18
102
{ACAD_REACTORS
330
17
102
}
330
17
100
AcDbMlineStyle
  2
STANDARD
 70
     0
  3

 62
   256
 51
90.0
 52
90.0
 71
     2
 49
0.5
 62
   256
  6
BYLAYER
 49
-0.5
 62
   256
  6
BYLAYER
  0
PLOTSETTINGS
  5
2889
102
{ACAD_XDICTIONARY
360
7F82
102
}
102
{ACAD_REACTORS
330
19
102
}
330
19
100
AcDbPlotSettings
  1
A3 poziom-DWF-FULL-layout
  2
DWF6 ePlot.pc3
  4
ISO_full_bleed_A3_(420.00_x_297.00_MM)
  6

 40
0.7937499880790711
 41
0.7937499880790711
 42
0.79376220703125
 43
0.79376220703125
 44
420.0
 45
297.0
 46
0.0
 47
0.0
 48
0.0
 49
0.0
140
0.0
141
0.0
142
1.0
143
1.0
 70
   688
 72
     1
 73
     0
 74
     5
  7
monochrome_140.ctb
 75
    16
147
1.0
148
0.0
149
0.0
  0
PLOTSETTINGS
  5
288A
102
{ACAD_XDICTIONARY
360
7F84
102
}
102
{ACAD_REACTORS
330
19
102
}
330
19
100
AcDbPlotSettings
  1
A4 pion-DWF-FULL-layout
  2
DWF6 ePlot.pc3
  4
ISO_full_bleed_A4_(210.00_x_297.00_MM)
  6

 40
0.7937499880790711
 41
0.7937499880790711
 42
0.7937469482421875
 43
0.79376220703125
 44
210.0
 45
297.0
 46
0.0
 47
0.0
 48
0.0
 49
0.0
140
0.0
141
0.0
142
1.0
143
1.0
 70
   672
 72
     1
 73
     0
 74
     5
  7
monochrome_140.ctb
 75
     0
147
1.0
148
0.0
149
0.0
  0
ACDBPLACEHOLDER
  5
2AC
102
{ACAD_REACTORS
330
E
102
}
330
E
  0
ACDBPLACEHOLDER
  5
1E1
102
{ACAD_REACTORS
330
E
102
}
330
E
  0
ACDBPLACEHOLDER
  5
26D
102
{ACAD_REACTORS
330
E
102
}
330
E
  0
ACDBPLACEHOLDER
  5
F
102
{ACAD_REACTORS
330
E
102
}
330
E
  0
ACDBPLACEHOLDER
  5
48F2
102
{ACAD_REACTORS
330
E
102
}
330
E
  0
ACDBPLACEHOLDER
  5
48F3
102
{ACAD_REACTORS
330
E
102
}
330
E
  0
ACDBPLACEHOLDER
  5
48F4
102
{ACAD_REACTORS
330
E
102
}
330
E
  0
SCALE
  5
78A6
102
{ACAD_REACTORS
330
78A5
102
}
330
78A5
100
AcDbScale
 70
     0
300
1:1
140
1.0
141
0.1
290
     0
  0
SCALE
  5
78A7
102
{ACAD_REACTORS
330
78A5
102
}
330
78A5
100
AcDbScale
 70
     0
300
1:2
140
1.0
141
0.2
290
     0
  0
SCALE
  5
78A8
102
{ACAD_REACTORS
330
78A5
102
}
330
78A5
100
AcDbScale
 70
     0
300
1:2.5
140
1.0
141
0.25
290
     0
  0
SCALE
  5
78A9
102
{ACAD_REACTORS
330
78A5
102
}
330
78A5
100
AcDbScale
 70
     0
300
1:5
140
1.0
141
0.5
290
     0
  0
SCALE
  5
78AA
102
{ACAD_REACTORS
330
78A5
102
}
330
78A5
100
AcDbScale
 70
     0
300
1:7.5
140
1.0
141
0.75
290
     0
  0
SCALE
  5
78AB
102
{ACAD_REACTORS
330
78A5
102
}
330
78A5
100
AcDbScale
 70
     0
300
1:10
140
1.0
141
1.0
290
     1
  0
SCALE
  5
78AC
102
{ACAD_REACTORS
330
78A5
102
}
330
78A5
100
AcDbScale
 70
     0
300
1:20
140
1.0
141
2.0
290
     0
  0
SCALE
  5
78AD
102
{ACAD_REACTORS
330
78A5
102
}
330
78A5
100
AcDbScale
 70
     0
300
1:25
140
1.0
141
2.5
290
     0
  0
SCALE
  5
78AE
102
{ACAD_REACTORS
330
78A5
102
}
330
78A5
100
AcDbScale
 70
     0
300
1:50
140
1.0
141
5.0
290
     0
  0
SCALE
  5
78AF
102
{ACAD_REACTORS
330
78A5
102
}
330
78A5
100
AcDbScale
 70
     0
300
1:75
140
1.0
141
7.5
290
     0
  0
SCALE
  5
78B0
102
{ACAD_REACTORS
330
78A5
102
}
330
78A5
100
AcDbScale
 70
     0
300
1:100
140
1.0
141
10.0
290
     0
  0
SCALE
  5
78B1
102
{ACAD_REACTORS
330
78A5
102
}
330
78A5
100
AcDbScale
 70
     0
300
1:150
140
1.0
141
15.0
290
     0
  0
SCALE
  5
78B2
102
{ACAD_REACTORS
330
78A5
102
}
330
78A5
100
AcDbScale
 70
     0
300
1:200
140
1.0
141
20.0
290
     0
  0
SCALE
  5
78B3
102
{ACAD_REACTORS
330
78A5
102
}
330
78A5
100
AcDbScale
 70
     0
300
1:250
140
1.0
141
25.0
290
     0
  0
SCALE
  5
78B4
102
{ACAD_REACTORS
330
78A5
102
}
330
78A5
100
AcDbScale
 70
     0
300
1:500
140
1.0
141
50.0
290
     0
  0
SCALE
  5
78B5
102
{ACAD_REACTORS
330
78A5
102
}
330
78A5
100
AcDbScale
 70
     0
300
1:750
140
1.0
141
75.0
290
     0
  0
SCALE
  5
78B6
102
{ACAD_REACTORS
330
78A5
102
}
330
78A5
100
AcDbScale
 70
     0
300
1:1000
140
1.0
141
100.0
290
     0
  0
SCALE
  5
78B7
102
{ACAD_REACTORS
330
78A5
102
}
330
78A5
100
AcDbScale
 70
     0
300
1:1250
140
1.0
141
125.0
290
     0
  0
SCALE
  5
78B8
102
{ACAD_REACTORS
330
78A5
102
}
330
78A5
100
AcDbScale
 70
     0
300
1:2000
140
1.0
141
200.0
290
     0
  0
SCALE
  5
78B9
102
{ACAD_REACTORS
330
78A5
102
}
330
78A5
100
AcDbScale
 70
     0
300
1:2500
140
1.0
141
250.0
290
     0
  0
SCALE
  5
78BA
102
{ACAD_REACTORS
330
78A5
102
}
330
78A5
100
AcDbScale
 70
     0
300
1:5000
140
1.0
141
500.0
290
     0
  0
TABLESTYLE
  5
78A4
102
{ACAD_XDICTIONARY
360
7BA5
102
}
102
{ACAD_REACTORS
330
78A3
102
}
330
78A3
100
AcDbTableStyle
  3
Standard
 70
     0
 71
     0
 40
1.5
 41
1.5
280
     0
281
     0
  7
Standard
140
4.5
170
     2
 62
     0
 63
     7
283
     0
274
    -2
284
     1
 64
     0
275
    -2
285
     1
 65
     0
276
    -2
286
     1
 66
     0
277
    -2
287
     1
 67
     0
278
    -2
288
     1
 68
     0
279
    -2
289
     1
 69
     0
  7
Standard
140
6.0
170
     5
 62
     0
 63
     7
283
     0
274
    -2
284
     1
 64
     0
275
    -2
285
     1
 65
     0
276
    -2
286
     1
 66
     0
277
    -2
287
     1
 67
     0
278
    -2
288
     1
 68
     0
279
    -2
289
     1
 69
     0
  7
Standard
140
4.5
170
     5
 62
     0
 63
     7
283
     0
274
    -2
284
     1
 64
     0
275
    -2
285
     1
 65
     0
276
    -2
286
     1
 66
     0
277
    -2
287
     1
 67
     0
278
    -2
288
     1
 68
     0
279
    -2
289
     1
 69
     0
  0
VISUALSTYLE
  5
7898
102
{ACAD_REACTORS
330
7892
102
}
330
7892
100
AcDbVisualStyle
  2
2dWireframe
 70
     4
 71
     0
 72
     2
 73
     0
 90
        0
 40
-0.6
 41
-30.0
 62
     5
 63
     7
 74
     1
 91
        4
 64
     7
 65
   257
 75
     1
175
     1
 42
1.0
 92
        0
 66
   257
 43
1.0
 76
     1
 77
     6
 78
     2
 67
     7
 79
     5
170
     0
171
     0
290
     0
174
     0
 93
        1
 44
0.0
173
     0
291
     0
 45
0.0
1001
ACAD
1000
AcDbSavedByObjectVersion
1070
     0
  0
VISUALSTYLE
  5
789A
102
{ACAD_REACTORS
330
7892
102
}
330
7892
100
AcDbVisualStyle
  2
3D Hidden
 70
     6
 71
     1
 72
     2
 73
     2
 90
        0
 40
-0.6
 41
-30.0
 62
     5
 63
     7
 74
     2
 91
        2
 64
     7
 65
   257
 75
     2
175
     1
 42
40.0
 92
        0
 66
   257
 43
1.0
 76
     1
 77
     6
 78
     2
 67
     7
 79
     3
170
     0
171
     0
290
     0
174
     0
 93
        1
 44
0.0
173
     0
291
     0
 45
0.0
1001
ACAD
1000
AcDbSavedByObjectVersion
1070
     0
  0
VISUALSTYLE
  5
7899
102
{ACAD_REACTORS
330
7892
102
}
330
7892
100
AcDbVisualStyle
  2
3dWireframe
 70
     5
 71
     0
 72
     2
 73
     0
 90
        0
 40
-0.6
 41
-30.0
 62
     5
 63
     7
 74
     1
 91
        4
 64
     7
 65
   257
 75
     1
175
     1
 42
1.0
 92
        0
 66
   257
 43
1.0
 76
     1
 77
     6
 78
     2
 67
     7
 79
     5
170
     0
171
     0
290
     0
174
     0
 93
        1
 44
0.0
173
     0
291
     0
 45
0.0
1001
ACAD
1000
AcDbSavedByObjectVersion
1070
     0
  0
VISUALSTYLE
  5
7897
102
{ACAD_REACTORS
330
7892
102
}
330
7892
100
AcDbVisualStyle
  2
Basic
 70
     7
 71
     1
 72
     0
 73
     1
 90
        0
 40
-0.6
 41
-30.0
 62
     5
 63
     7
 74
     0
 91
        4
 64
     7
 65
   257
 75
     1
175
     1
 42
1.0
 92
        8
 66
     7
 43
1.0
 76
     1
 77
     6
 78
     2
 67
     7
 79
     5
170
     0
171
     0
290
     0
174
     0
 93
        1
 44
0.0
173
     0
291
     1
 45
0.0
1001
ACAD
1000
AcDbSavedByObjectVersion
1070
     0
  0
VISUALSTYLE
  5
789E
102
{ACAD_REACTORS
330
7892
102
}
330
7892
100
AcDbVisualStyle
  2
Brighten
 70
    12
 71
     2
 72
     2
 73
     0
 90
        0
 40
-0.6
 41
-30.0
 62
     5
 63
     7
 74
     1
 91
        4
 64
     7
 65
   257
 75
     1
175
     1
 42
1.0
 92
        8
 66
     7
 43
1.0
 76
     1
 77
     6
 78
     2
 67
     7
 79
     5
170
     0
171
     0
290
     0
174
     0
 93
        1
 44
50.0
173
     0
291
     1
 45
0.0
1001
ACAD
1000
AcDbSavedByObjectVersion
1070
     0
  0
VISUALSTYLE
  5
78A2
102
{ACAD_REACTORS
330
7892
102
}
330
7892
100
AcDbVisualStyle
  2
ColorChange
 70
    16
 71
     2
 72
     2
 73
     3
 90
        0
 40
-0.6
 41
-30.0
 62
     5
 63
     8
 74
     1
 91
        4
 64
     7
 65
   257
 75
     1
175
     1
 42
1.0
 92
        8
 66
     8
 43
1.0
 76
     1
 77
     6
 78
     2
 67
     7
 79
     5
170
     0
171
     0
290
     0
174
     0
 93
        1
 44
0.0
173
     0
291
     1
 45
0.0
1001
ACAD
1000
AcDbSavedByObjectVersion
1070
     0
  0
VISUALSTYLE
  5
789B
102
{ACAD_REACTORS
330
7892
102
}
330
7892
100
AcDbVisualStyle
  2
Conceptual
 70
     9
 71
     3
 72
     2
 73
     0
 90
        0
 40
-0.6
 41
-30.0
 62
     5
 63
     7
 74
     2
 91
        2
 64
     7
 65
   257
 75
     1
175
     1
 42
40.0
 92
        8
 66
     7
 43
1.0
 76
     1
 77
     6
 78
     2
 67
     7
 79
     3
170
     0
171
     0
290
     0
174
     0
 93
        1
 44
0.0
173
     0
291
     0
 45
0.0
1001
ACAD
1000
AcDbSavedByObjectVersion
1070
     0
  0
VISUALSTYLE
  5
789D
102
{ACAD_REACTORS
330
7892
102
}
330
7892
100
AcDbVisualStyle
  2
Dim
 70
    11
 71
     2
 72
     2
 73
     0
 90
        0
 40
-0.6
 41
-30.0
 62
     5
 63
     7
 74
     1
 91
        4
 64
     7
 65
   257
 75
     1
175
     1
 42
1.0
 92
        8
 66
     7
 43
1.0
 76
     1
 77
     6
 78
     2
 67
     7
 79
     5
170
     0
171
     0
290
     0
174
     0
 93
        1
 44
-50.0
173
     0
291
     1
 45
0.0
1001
ACAD
1000
AcDbSavedByObjectVersion
1070
     0
  0
VISUALSTYLE
  5
78A1
102
{ACAD_REACTORS
330
7892
102
}
330
7892
100
AcDbVisualStyle
  2
Facepattern
 70
    15
 71
     2
 72
     2
 73
     0
 90
        0
 40
-0.6
 41
-30.0
 62
     5
 63
     7
 74
     1
 91
        4
 64
     7
 65
   257
 75
     1
175
     1
 42
1.0
 92
        8
 66
     7
 43
1.0
 76
     1
 77
     6
 78
     2
 67
     7
 79
     5
170
     0
171
     0
290
     0
174
     0
 93
        1
 44
0.0
173
     0
291
     1
 45
0.0
1001
ACAD
1000
AcDbSavedByObjectVersion
1070
     0
  0
VISUALSTYLE
  5
7893
102
{ACAD_REACTORS
330
7892
102
}
330
7892
100
AcDbVisualStyle
  2
Flat
 70
     0
 71
     2
 72
     1
 73
     1
 90
        2
 40
-0.6
 41
30.0
 62
     5
 63
     7
 74
     0
 91
        4
 64
     7
 65
   257
 75
     1
175
     1
 42
1.0
 92
        8
 66
     7
 43
1.0
 76
     1
 77
     6
 78
     2
 67
     7
 79
     5
170
     0
171
     0
290
     0
174
     0
 93
       13
 44
0.0
173
     0
291
     1
 45
0.0
1001
ACAD
1000
AcDbSavedByObjectVersion
1070
     0
  0
VISUALSTYLE
  5
7894
102
{ACAD_REACTORS
330
7892
102
}
330
7892
100
AcDbVisualStyle
  2
FlatWithEdges
 70
     1
 71
     2
 72
     1
 73
     1
 90
        2
 40
-0.6
 41
30.0
 62
     5
 63
     7
 74
     1
 91
        4
 64
     7
 65
   257
 75
     1
175
     1
 42
1.0
 92
        0
 66
   257
 43
1.0
 76
     1
 77
     6
 78
     2
 67
     7
 79
     5
170
     0
171
     0
290
     0
174
     0
 93
       13
 44
0.0
173
     0
291
     1
 45
0.0
1001
ACAD
1000
AcDbSavedByObjectVersion
1070
     0
  0
VISUALSTYLE
  5
7895
102
{ACAD_REACTORS
330
7892
102
}
330
7892
100
AcDbVisualStyle
  2
Gouraud
 70
     2
 71
     2
 72
     2
 73
     1
 90
        2
 40
-0.6
 41
30.0
 62
     5
 63
     7
 74
     0
 91
        4
 64
     7
 65
   257
 75
     1
175
     1
 42
1.0
 92
        0
 66
     7
 43
1.0
 76
     1
 77
     6
 78
     2
 67
     7
 79
     5
170
     0
171
     0
290
     0
174
     0
 93
       13
 44
0.0
173
     0
291
     1
 45
0.0
1001
ACAD
1000
AcDbSavedByObjectVersion
1070
     0
  0
VISUALSTYLE
  5
7896
102
{ACAD_REACTORS
330
7892
102
}
330
7892
100
AcDbVisualStyle
  2
GouraudWithEdges
 70
     3
 71
     2
 72
     2
 73
     1
 90
        2
 40
-0.6
 41
30.0
 62
     5
 63
     7
 74
     1
 91
        4
 64
     7
 65
   257
 75
     1
175
     1
 42
1.0
 92
        0
 66
   257
 43
1.0
 76
     1
 77
     6
 78
     2
 67
     7
 79
     5
170
     0
171
     0
290
     0
174
     0
 93
       13
 44
0.0
173
     0
291
     1
 45
0.0
1001
ACAD
1000
AcDbSavedByObjectVersion
1070
     0
  0
VISUALSTYLE
  5
78A0
102
{ACAD_REACTORS
330
7892
102
}
330
7892
100
AcDbVisualStyle
  2
Linepattern
 70
    14
 71
     2
 72
     2
 73
     0
 90
        0
 40
-0.6
 41
-30.0
 62
     5
 63
     7
 74
     1
 91
        4
 64
     7
 65
   257
 75
     7
175
     7
 42
1.0
 92
        8
 66
     7
 43
1.0
 76
     1
 77
     6
 78
     2
 67
     7
 79
     5
170
     0
171
     0
290
     0
174
     0
 93
        1
 44
0.0
173
     0
291
     1
 45
0.0
1001
ACAD
1000
AcDbSavedByObjectVersion
1070
     0
  0
VISUALSTYLE
  5
789C
102
{ACAD_REACTORS
330
7892
102
}
330
7892
100
AcDbVisualStyle
  2
Realistic
 70
     8
 71
     2
 72
     2
 73
     0
 90
        0
 40
-0.6
 41
-30.0
 62
     5
 63
     7
 74
     1
 91
        0
 64
     7
 65
   257
 75
     1
175
     1
 42
1.0
 92
        8
 66
     8
 43
1.0
 76
     1
 77
     6
 78
     2
 67
     7
 79
     5
170
     0
171
     0
290
     0
174
     0
 93
       13
 44
0.0
173
     0
291
     0
 45
0.0
1001
ACAD
1000
AcDbSavedByObjectVersion
1070
     0
  0
VISUALSTYLE
  5
789F
102
{ACAD_REACTORS
330
7892
102
}
330
7892
100
AcDbVisualStyle
  2
Thicken
 70
    13
 71
     2
 72
     2
 73
     0
 90
        0
 40
-0.6
 41
-30.0
 62
     5
 63
     7
 74
     1
 91
        4
 64
     7
 65
   257
 75
     1
175
     1
 42
1.0
 92
       12
 66
     7
 43
1.0
 76
     1
 77
     6
 78
     2
 67
     7
 79
     5
170
     0
171
     0
290
     0
174
     0
 93
        1
 44
0.0
173
     0
291
     1
 45
0.0
1001
ACAD
1000
AcDbSavedByObjectVersion
1070
     0
  0
DICTIONARYVAR
  5
7BAB
102
{ACAD_REACTORS
330
2C
102
}
330
2C
100
DictionaryVariables
280
     0
  1
1:100
  0
DICTIONARYVAR
  5
7BA9
102
{ACAD_REACTORS
330
2C
102
}
330
2C
100
DictionaryVariables
280
     0
  1
STANDARD
  0
DICTIONARYVAR
  5
7BA8
102
{ACAD_REACTORS
330
2C
102
}
330
2C
100
DictionaryVariables
280
     0
  1
STANDARD
  0
DICTIONARYVAR
  5
2E
102
{ACAD_REACTORS
330
2C
102
}
330
2C
100
DictionaryVariables
280
     0
  1
2
  0
DICTIONARYVAR
  5
2D
102
{ACAD_REACTORS
330
2C
102
}
330
2C
100
DictionaryVariables
280
     0
  1
1
  0
DICTIONARYVAR
  5
7F70
102
{ACAD_REACTORS
330
2C
102
}
330
2C
100
DictionaryVariables
280
     0
  1
2
  0
DICTIONARYVAR
  5
7BAD
102
{ACAD_REACTORS
330
2C
102
}
330
2C
100
DictionaryVariables
280
     0
  1
1
  0
DICTIONARYVAR
  5
7BAE
102
{ACAD_REACTORS
330
2C
102
}
330
2C
100
DictionaryVariables
280
     0
  1
15
  0
DICTIONARYVAR
  5
7BAC
102
{ACAD_REACTORS
330
2C
102
}
330
2C
100
DictionaryVariables
280
     0
  1
0
  0
DICTIONARYVAR
  5
7BAA
102
{ACAD_REACTORS
330
2C
102
}
330
2C
100
DictionaryVariables
280
     0
  1
0
  0
DICTIONARYVAR
  5
7F71
102
{ACAD_REACTORS
330
2C
102
}
330
2C
100
DictionaryVariables
280
     0
  1
0
  0
DICTIONARYVAR
  5
7F6F
102
{ACAD_REACTORS
330
2C
102
}
330
2C
100
DictionaryVariables
280
     0
  1
97
  0
ACAD_PROXY_OBJECT
  5
27B7
102
{ACAD_REACTORS
330
30
102
}
330
30
100
AcDbProxyObject
 90
      499
 91
      856
 95
       25
 70
     0
 93
       95
310
4A34D128929A8942518942C9
340
27B8
 94
        0
1001
ACAD
1000
AcRTDxfName
1000
ABAD_DB_DISPREP_ROOF_HATCH
  0
ACAD_PROXY_OBJECT
  5
27B9
102
{ACAD_REACTORS
330
30
102
}
330
30
100
AcDbProxyObject
 90
      499
 91
      858
 95
       25
 70
     0
 93
      105
310
4A34D128929A894251894250B27F
340
27BA
 94
        0
1001
ACAD
1000
AcRTDxfName
1000
ABAD_DB_DISPREP_ROOFSLAB_HATCH
  0
ACAD_PROXY_OBJECT
  5
2796
102
{ACAD_REACTORS
330
30
102
}
330
30
100
AcDbProxyObject
 90
      499
 91
      826
 95
       25
 70
     0
 93
       85
310
4A34D128929A8942518B27
340
2797
 94
        0
1001
ACAD
1000
AcRTDxfName
1000
ABAD_DB_WINROOF_DISPREP
  0
ACAD_PROXY_OBJECT
  5
2798
102
{ACAD_REACTORS
330
30
102
}
330
30
100
AcDbProxyObject
 90
      499
 91
      828
 95
       25
 70
     0
 93
       85
310
4A34D128929A8942518B27
340
2799
 94
        0
1001
ACAD
1000
AcRTDxfName
1000
ABAD_DB_WINROOF_DISPREP_DRAWINGROOF
  0
ACAD_PROXY_OBJECT
  5
279A
102
{ACAD_REACTORS
330
30
102
}
330
30
100
AcDbProxyObject
 90
      499
 91
      830
 95
       25
 70
     0
 93
       85
310
4A34D128929A8942518B27
340
279C
 94
        0
1001
ACAD
1000
AcRTDxfName
1000
ABAD_DB_WINROOF_DISPREP_PLAN
  0
ACAD_PROXY_OBJECT
  5
27BD
102
{ACAD_REACTORS
330
30
102
}
330
30
100
AcDbProxyObject
 90
      499
 91
      861
 95
       25
 70
     0
 93
      115
310
4A34D128929A894251894250942C9F
340
27BE
 94
        0
1001
ACAD
1000
AcRTDxfName
1000
ABAD_WIN_PANELS_DISPREP
  0
ACAD_PROXY_OBJECT
  5
27BB
102
{ACAD_REACTORS
330
30
102
}
330
30
100
AcDbProxyObject
 90
      499
 91
      859
 95
       25
 70
     0
 93
      125
310
4A34D128929A89425189425094250B27
340
27BC
 94
        0
1001
ACAD
1000
AcRTDxfName
1000
ABAD_WIN_PANELS_ELEVATION_DISPREP
  0
ACAD_PROXY_OBJECT
  5
27BF
102
{ACAD_REACTORS
330
30
102
}
330
30
100
AcDbProxyObject
 90
      499
 91
      862
 95
       25
 70
     0
 93
      115
310
4A34D128929A894251894250942C9F
340
27C0
 94
        0
1001
ACAD
1000
AcRTDxfName
1000
ABAD_DOOR_DISP_REP
  0
ACAD_PROXY_OBJECT
  5
27C4
102
{ACAD_REACTORS
330
30
102
}
330
30
100
AcDbProxyObject
 90
      499
 91
      866
 95
       25
 70
     0
 93
       85
310
4A34D128929A8942518B27
340
27C5
 94
        0
1001
ACAD
1000
AcRTDxfName
1000
ABAD_ISOLATION_DISPREP
  0
ACAD_PROXY_OBJECT
  5
279D
102
{ACAD_REACTORS
330
30
102
}
330
30
100
AcDbProxyObject
 90
      499
 91
      832
 95
       25
 70
     0
 93
       85
310
4A34D128929A8942518B27
340
279E
 94
        0
1001
ACAD
1000
AcRTDxfName
1000
ABAD_PLATEOPENING_DISPREP_DESC
  0
ACAD_PROXY_OBJECT
  5
279F
102
{ACAD_REACTORS
330
30
102
}
330
30
100
AcDbProxyObject
 90
      499
 91
      834
 95
       25
 70
     0
 93
       85
310
4A34D128929A8942518B27
340
27A0
 94
        0
1001
ACAD
1000
AcRTDxfName
1000
ABAD_PLATEOPENING_DISPREP_MODEL
  0
ACAD_PROXY_OBJECT
  5
27A1
102
{ACAD_REACTORS
330
30
102
}
330
30
100
AcDbProxyObject
 90
      499
 91
      836
 95
       25
 70
     0
 93
       85
310
4A34D128929A8942518B27
340
27A2
 94
        0
1001
ACAD
1000
AcRTDxfName
1000
ABAD_PLATEOPENING_DISPREP_PLAN
  0
ACAD_PROXY_OBJECT
  5
27A3
102
{ACAD_REACTORS
330
30
102
}
330
30
100
AcDbProxyObject
 90
      499
 91
      838
 95
       25
 70
     0
 93
       95
310
4A34D128929A8942518B22C9
340
27A4
 94
        0
1001
ACAD
1000
AcRTDxfName
1000
ABAD_PLATEOPENING_DISPREP_SIMPLE
  0
ACAD_PROXY_OBJECT
  5
27A7
102
{ACAD_REACTORS
330
30
102
}
330
30
100
AcDbProxyObject
 90
      499
 91
      842
 95
       25
 70
     0
 93
       95
310
4A34D128929A8942518B22C9
340
27A8
 94
        0
1001
ACAD
1000
AcRTDxfName
1000
ABAD_PLATE_DISPREPCEILING
  0
ACAD_PROXY_OBJECT
  5
27A9
102
{ACAD_REACTORS
330
30
102
}
330
30
100
AcDbProxyObject
 90
      499
 91
      843
 95
       25
 70
     0
 93
       85
310
4A34D128929A8942518B27
340
27AA
 94
        0
1001
ACAD
1000
AcRTDxfName
1000
ABAD_PLATE_DISPREPMODEL
  0
ACAD_PROXY_OBJECT
  5
27A5
102
{ACAD_REACTORS
330
30
102
}
330
30
100
AcDbProxyObject
 90
      499
 91
      840
 95
       25
 70
     0
 93
       85
310
4A34D128929A8942518B27
340
27A6
 94
        0
1001
ACAD
1000
AcRTDxfName
1000
ABAD_PLATE_DISPREPPLAN
  0
ACAD_PROXY_OBJECT
  5
27AB
102
{ACAD_REACTORS
330
30
102
}
330
30
100
AcDbProxyObject
 90
      499
 91
      845
 95
       25
 70
     0
 93
      105
310
4A34D128929A894251894250B27F
340
27AC
 94
        0
1001
ACAD
1000
AcRTDxfName
1000
ABAD_ROOF_OUTLINE_DISPREP
  0
ACAD_PROXY_OBJECT
  5
27AD
102
{ACAD_REACTORS
330
30
102
}
330
30
100
AcDbProxyObject
 90
      499
 91
      847
 95
       25
 70
     0
 93
      105
310
4A34D128929A894251894250B27F
340
27AE
 94
        0
1001
ACAD
1000
AcRTDxfName
1000
ABAD_ROOF_PLANLOFT_DISPREP
  0
ACAD_PROXY_OBJECT
  5
27AF
102
{ACAD_REACTORS
330
30
102
}
330
30
100
AcDbProxyObject
 90
      499
 91
      849
 95
       25
 70
     0
 93
      105
310
4A34D128929A894251894250B27F
340
27B0
 94
        0
1001
ACAD
1000
AcRTDxfName
1000
ABAD_STAIR_DESC_DISPREP
  0
ACAD_PROXY_OBJECT
  5
27B1
102
{ACAD_REACTORS
330
30
102
}
330
30
100
AcDbProxyObject
 90
      499
 91
      851
 95
       25
 70
     0
 93
      105
310
4A34D128929A894251894250B27F
340
27B2
 94
        0
1001
ACAD
1000
AcRTDxfName
1000
ABAD_STAIR_DISP_REP
  0
ACAD_PROXY_OBJECT
  5
27C1
102
{ACAD_REACTORS
330
30
102
}
330
30
100
AcDbProxyObject
 90
      499
 91
      864
 95
       25
 70
     0
 93
      115
310
4A34D128929A894251894250942C9F
340
27C2
 94
        0
1001
ACAD
1000
AcRTDxfName
1000
ABAD_DOOR_THRESHOLD_DISP_REP
  0
ACAD_PROXY_OBJECT
  5
27B3
102
{ACAD_REACTORS
330
30
102
}
330
30
100
AcDbProxyObject
 90
      499
 91
      853
 95
       25
 70
     0
 93
      105
310
4A34D128929A894251894250B27F
340
0
 94
        0
1001
ACAD
1000
AcRTDxfName
1000
ABAD_WALL_DISP_REP
  0
ACAD_PROXY_OBJECT
  5
27B5
102
{ACAD_REACTORS
330
30
102
}
330
30
100
AcDbProxyObject
 90
      499
 91
      854
 95
       25
 70
     0
 93
      115
310
4A34D128929A894251894250942C9F
340
27B6
 94
        0
1001
ACAD
1000
AcRTDxfName
1000
ABAD_WINDOW_DISP_REP
  0
ACAD_PROXY_OBJECT
  5
27A8
102
{ACAD_REACTORS
330
32
102
}
330
32
100
AcDbProxyObject
 90
      499
 91
      841
 95
       25
 70
     0
 93
      480
310
4A34D128929A894250B20000000000000B28094494494600000030400FEFF501928928928C00000060801FDFEA032512512518000000C1003FBFD40600
340
10
340
14
340
0
340
10
340
279B
340
0
340
10
340
14
340
0
 94
        0
1001
ACAD
1000
AcRTDxfName
1000
ABAD_PLATE_DISPPROPS_PLAN
  0
ACAD_PROXY_OBJECT
  5
27A4
102
{ACAD_REACTORS
330
32
102
}
330
32
100
AcDbProxyObject
 90
      499
 91
      839
 95
       25
 70
     0
 93
      646
310
4A34D128929A894250B22512512518000000C1003FBFD4064A24A24A3000000182007F7FA80C94494494600000030400FEFF501928928928C00000060801FDFEA032512512518000000C1003FBFD406593
340
10
340
14
340
0
340
10
340
279B
340
0
340
10
340
14
340
0
340
10
340
14
340
0
340
10
340
279B
340
0
 94
        0
1001
ACAD
1000
AcRTDxfName
1000
ABAD_PLATEOPENING_DISPPROPS_SIMPLE
  0
ACAD_PROXY_OBJECT
  5
27A0
102
{ACAD_REACTORS
330
32
102
}
330
32
100
AcDbProxyObject
 90
      499
 91
      835
 95
       25
 70
     0
 93
      192
310
4A34D128929A894250B22512512518000000C1003FBFD40600
340
10
340
14
340
0
 94
        0
1001
ACAD
1000
AcRTDxfName
1000
ABAD_PLATEOPENING_DISPPROPS_MODEL
  0
ACAD_PROXY_OBJECT
  5
279C
102
{ACAD_REACTORS
330
32
102
}
330
32
100
AcDbProxyObject
 90
      499
 91
      831
 95
       25
 70
     0
 93
      482
310
4A34D128929A894250B225125081E84A512512518000000C1003FBFD406D094A24A24A3000000182007F7FA80DA1294494494600400030C00FEFF501BF
340
10
340
279B
340
0
340
10
340
279B
340
0
340
10
340
14
340
0
 94
        0
1001
ACAD
1000
AcRTDxfName
1000
AB_AD_DISP_PROPS_WINROOF_PLAN
  0
ACAD_PROXY_OBJECT
  5
27B0
102
{ACAD_REACTORS
330
32
102
}
330
32
100
AcDbProxyObject
 90
      499
 91
      850
 95
       25
 70
     0
 93
      303
310
4A34D128929A894250B22512512518000000C1003FBFD4064A24A24A3000000182007F7FA80D
340
10
340
14
340
0
340
10
340
14
340
0
 94
        0
1001
ACAD
1000
AcRTDxfName
1000
ADCG_STAIR_DESC_DISPROP
  0
ACAD_PROXY_OBJECT
  5
279E
102
{ACAD_REACTORS
330
32
102
}
330
32
100
AcDbProxyObject
 90
      499
 91
      833
 95
       25
 70
     0
 93
      264
310
4A34D128929A894250B22512512518000000C1003FBFD40680000000000000440AFF
340
10
340
14
340
0
340
338
 94
        0
1001
ACAD
1000
AcRTDxfName
1000
ABAD_PLATEOPENING_DISPPROPS_DESC
  0
ACAD_PROXY_OBJECT
  5
27BE
102
{ACAD_REACTORS
330
32
102
}
330
32
100
AcDbProxyObject
 90
      499
 91
      860
 95
       25
 70
     0
 93
      192
310
4A34D128929A894250B22512512518000000C1003FBFD40676
340
10
340
14
340
0
 94
        0
1001
ACAD
1000
AcRTDxfName
1000
ABAD_WIN_PANELS_DISPPROP
  0
ACAD_PROXY_OBJECT
  5
27A6
102
{ACAD_REACTORS
330
32
102
}
330
32
100
AcDbProxyObject
 90
      499
 91
      841
 95
       25
 70
     0
 93
      480
310
4A34D128929A894250B20000000000000B28094494494600000030400FEFF501928928928C00000060801FDFEA032512512518000000C1003FBFD40600
340
10
340
14
340
0
340
10
340
279B
340
0
340
10
340
14
340
0
 94
        0
1001
ACAD
1000
AcRTDxfName
1000
ABAD_PLATE_DISPPROPS_PLAN
  0
ACAD_PROXY_OBJECT
  5
27AE
102
{ACAD_REACTORS
330
32
102
}
330
32
100
AcDbProxyObject
 90
      499
 91
      848
 95
       25
 70
     0
 93
      525
310
4A34D128929A894250B22512512518000000C1003FBFD4064A24A24A3000000182007F7FA80C94494494600000030400FEFF501928928928C00000060801FDFEA037
340
10
340
14
340
0
340
10
340
14
340
0
340
10
340
14
340
0
340
10
340
14
340
0
 94
        0
1001
ACAD
1000
AcRTDxfName
1000
ABAD_ROOF_PLANLOFT_DISPROP
  0
ACAD_PROXY_OBJECT
  5
27B6
102
{ACAD_REACTORS
330
32
102
}
330
32
100
AcDbProxyObject
 90
      499
 91
      855
 95
       25
 70
     0
 93
      192
310
4A34D128929A894250B22512512518000000C1003FBFD40600
340
10
340
14
340
0
 94
        0
1001
ACAD
1000
AcRTDxfName
1000
ABAD_WINDOW_DISP_PROP
  0
ACAD_PROXY_OBJECT
  5
27B8
102
{ACAD_REACTORS
330
32
102
}
330
32
100
AcDbProxyObject
 90
      499
 91
      857
 95
       25
 70
     0
 93
      473
310
4A34D128929A8942508F2512512518000000C1003FBFD4064A24A24A3000000182007F7FA80C942028420A916A929A425A2B0000000000000394057F
340
10
340
14
340
0
340
10
340
14
340
0
 94
        0
1001
ACAD
1000
AcRTDxfName
1000
ABAD_DB_DISPPROP_ROOF_HATCH
  0
ACAD_PROXY_OBJECT
  5
27A2
102
{ACAD_REACTORS
330
32
102
}
330
32
100
AcDbProxyObject
 90
      499
 91
      837
 95
       25
 70
     0
 93
      636
310
4A34D128929A894250B22512512518000000C1003FBFD4064A24A24A3000000182007F7FA80C94494494600000030400FEFF501928928928C00000060801FDFEA032512512518000000C1003FBFD406F
340
10
340
14
340
0
340
10
340
279B
340
0
340
10
340
14
340
0
340
10
340
14
340
0
340
10
340
279B
340
0
 94
        0
1001
ACAD
1000
AcRTDxfName
1000
ABAD_PLATEOPENING_DISPPROPS_PLAN
  0
ACAD_PROXY_OBJECT
  5
27BA
102
{ACAD_REACTORS
330
32
102
}
330
32
100
AcDbProxyObject
 90
      499
 91
      857
 95
       25
 70
     0
 93
      473
310
4A34D128929A8942508F2512512518000000C1003FBFD4064A24A24A3000000182007F7FA80C942028420A916A929A425A2B0000000000000394057F
340
10
340
14
340
0
340
10
340
14
340
0
 94
        0
1001
ACAD
1000
AcRTDxfName
1000
ABAD_DB_DISPPROP_ROOF_HATCH
  0
ACAD_PROXY_OBJECT
  5
27AC
102
{ACAD_REACTORS
330
32
102
}
330
32
100
AcDbProxyObject
 90
      499
 91
      846
 95
       25
 70
     0
 93
      303
310
4A34D128929A894250B22512512518000000C1003FBFD4064A24A24A3000000182007F7FA80D
340
10
340
14
340
0
340
10
340
14
340
0
 94
        0
1001
ACAD
1000
AcRTDxfName
1000
ABAD_ROOF_OUTLINE_DISP_PROP
  0
ACAD_PROXY_OBJECT
  5
2797
102
{ACAD_REACTORS
330
32
102
}
330
32
100
AcDbProxyObject
 90
      499
 91
      827
 95
       25
 70
     0
 93
      605
310
4A34D128929A894250B225125082684A512512518000000C1003FBFD406D094A24A24A3000000182007F7FA80DA1294494494600000030400FEFF501B42528928928C00800061801FDFEA037
340
10
340
14
340
0
340
10
340
14
340
0
340
10
340
14
340
0
340
10
340
14
340
0
 94
        0
1001
ACAD
1000
AcRTDxfName
1000
AB_AD_DISP_PROPS_WINROOF
  0
ACAD_PROXY_OBJECT
  5
27C0
102
{ACAD_REACTORS
330
32
102
}
330
32
100
AcDbProxyObject
 90
      499
 91
      863
 95
       25
 70
     0
 93
      303
310
4A34D128929A894250B22512512518000000C1003FBFD4064A24A24A3000000182007F7FA80D
340
10
340
14
340
0
340
10
340
14
340
0
 94
        0
1001
ACAD
1000
AcRTDxfName
1000
ABAD_DOOR_DISP_PROP
  0
ACAD_PROXY_OBJECT
  5
27C2
102
{ACAD_REACTORS
330
32
102
}
330
32
100
AcDbProxyObject
 90
      499
 91
      865
 95
       25
 70
     0
 93
      303
310
4A34D128929A894250B22512512518000000C1003FBFD4064A24A24A3000000182007F7FA80D
340
10
340
27C3
340
0
340
10
340
14
340
0
 94
        0
1001
ACAD
1000
AcRTDxfName
1000
ABAD_DOOR_THRESHOLD_DISP_PROP
  0
ACAD_PROXY_OBJECT
  5
27AA
102
{ACAD_REACTORS
330
32
102
}
330
32
100
AcDbProxyObject
 90
      499
 91
      844
 95
       25
 70
     0
 93
      303
310
4A34D128929A894250B22512512518000000C1003FBFD4064A24A24A3000000182007F7FA80D
340
10
340
14
340
0
340
10
340
14
340
0
 94
        0
1001
ACAD
1000
AcRTDxfName
1000
ABAD_PLATE_DISPPROPS_BASE
  0
ACAD_PROXY_OBJECT
  5
27B2
102
{ACAD_REACTORS
330
32
102
}
330
32
100
AcDbProxyObject
 90
      499
 91
      852
 95
       25
 70
     0
 93
      192
310
4A34D128929A894250B22512512518000000C1003FBFD40600
340
10
340
14
340
0
 94
        0
1001
ACAD
1000
AcRTDxfName
1000
ABAD_STAIR_DISP_PROP
  0
ACAD_PROXY_OBJECT
  5
27C5
102
{ACAD_REACTORS
330
32
102
}
330
32
100
AcDbProxyObject
 90
      499
 91
      867
 95
       25
 70
     0
 93
      424
310
4A34D128929A894250B220294494494600000030400FEFF501928928928C00000060801FDFEA032512512518000000C1003FBFD40600
340
10
340
14
340
0
340
10
340
14
340
0
340
10
340
14
340
0
 94
        0
1001
ACAD
1000
AcRTDxfName
1000
ABAD_ISOLATION_DISPPROPS
  0
ACAD_PROXY_OBJECT
  5
27BC
102
{ACAD_REACTORS
330
32
102
}
330
32
100
AcDbProxyObject
 90
      499
 91
      860
 95
       25
 70
     0
 93
      192
310
4A34D128929A894250B22512512518000000C1003FBFD40676
340
10
340
14
340
0
 94
        0
1001
ACAD
1000
AcRTDxfName
1000
ABAD_WIN_PANELS_DISPPROP
  0
ACAD_PROXY_OBJECT
  5
2799
102
{ACAD_REACTORS
330
32
102
}
330
32
100
AcDbProxyObject
 90
      499
 91
      829
 95
       25
 70
     0
 93
      605
310
4A34D128929A894250B225125082684A512512518000000C1003FBFD406D094A24A24A3000000182007F7FA80DA1294494494600000030400FEFF501B42528928928C00800061801FDFEA037
340
10
340
14
340
0
340
10
340
26E
340
0
340
10
340
14
340
0
340
10
340
14
340
0
 94
        0
1001
ACAD
1000
AcRTDxfName
1000
AB_AD_DISP_PROPS_WINROOF_DRAWINGROOF
  0
XRECORD
  5
7BCF
102
{ACAD_REACTORS
330
7BCE
102
}
330
7BCE
100
AcDbXrecord
280
     1
330
7F01
330
7F02
330
7F05
330
7F06
330
7F0B
330
7F0C
330
4046
330
4047
330
7D78
330
7D79
330
7D7C
330
7D7D
330
7D82
330
7D83
330
2289
330
232E
330
7F69
330
7F6A
330
7F62
330
7F63
330
7F5B
330
7F5C
330
7F54
330
7F55
  0
XRECORD
  5
7F3E
102
{ACAD_REACTORS
330
42E9
102
}
330
42E9
100
AcDbXrecord
280
     1
 40
0.000001
  0
XRECORD
  5
7F41
102
{ACAD_REACTORS
330
42E9
102
}
330
42E9
100
AcDbXrecord
280
     1
 70
     0
  0
XRECORD
  5
7F40
102
{ACAD_REACTORS
330
42E9
102
}
330
42E9
100
AcDbXrecord
280
     1
 70
     0
  0
XRECORD
  5
7F3F
102
{ACAD_REACTORS
330
42E9
102
}
330
42E9
100
AcDbXrecord
280
     1
 70
     0
  0
XRECORD
  5
7542
102
{ACAD_REACTORS
330
4E78
102
}
330
4E78
100
AcDbXrecord
280
     1
  1
1:100
  0
XRECORD
  5
7541
102
{ACAD_REACTORS
330
4E76
102
}
330
4E76
100
AcDbXrecord
280
     1
 70
    32
  0
XRECORD
  5
7543
102
{ACAD_REACTORS
330
4E7A
102
}
330
4E7A
100
AcDbXrecord
280
     1
  1
1:100
  0
XRECORD
  5
921
102
{ACAD_REACTORS
330
920
102
}
330
920
100
AcDbXrecord
280
     1
  1
Title Layers
  1
*Anno*
  1
*
  1
*
 70
     0
  1
*
  1
*
  0
XRECORD
  5
922
102
{ACAD_REACTORS
330
920
102
}
330
920
100
AcDbXrecord
280
     1
  1
XREF Insert Layers
  1
*XREF*
  1
*
  1
*
 70
     0
  1
*
  1
*
  0
SPATIAL_INDEX
  5
39DD
102
{ACAD_REACTORS
330
39DC
102
}
330
39DC
100
AcDbIndex
 40
2455100.639773218
100
AcDbSpatialIndex
 40
288374.8539472822
 40
-12266.17313187658
 40
235617.3417599356
 40
-16129.85484236327
 40
2165225144377.823
 40
-0.0017546990532003
 90
        0
 90
      860
310
01FF0000FFFF0000FFFF0000FFFF0000010E0000010C28000054C4F8010001000100010009000100010001000900010002002400010001000200010001000A000100010002000100010064000100070009003E000D00010005000500100008000300010001000100010001007000000002010D530000ADEFE00100CD170001
310
00010001000100010001000100050001000100010001000100010001000500010001000100010001000100010003000200010001000100010001000100010001000100010001000100010001000100010001000100010001000100010001000100020001000100010001000100010001000100080001000100010001000100
310
010001000100080001008F01001500360001000100010001000100010002000100F30100CB1C000002011C0100000685FD01005F00000002011E010000068FE001005F00000002012D01000006EEE001005F0000000202010F0000010C0000010D0000010A0500000EC3FD01000300020001000100500000000202010E0000
310
010916000030A5FD010001000100010001000100010001002C000100010001000100010001000F000100010001000100010001000000000002010B06000010BDFD0100010001000200450002005F000500000E89FE01000100010001000100430000000202010F000001082600005099FD0100010001000600010001000100
310
09000100010001001200020001000200040001000100010001000100010001000100010001000A0002000A00010008000100010001000300010001000100000100000201090F000022E2FD0100010001000100010001000100010001000E00010015000100010001000F00000002010A160000309CFD010001000100010001
310
0011000100010001000100010001000100010001000100010004003F0003000200010000000100000687FE01000100000002010B0400000CFEFD0100020001000200450000000201180100000695FE0100020000000202011E0100000692FE01000200000001180300000AD6FD01000100090002000000020202010F010000
310
05F47A00000100000202011C0000011C020000098CE00100AF1B00000200000202011E0000011E020000098EE00100AB1B00000200000202012C0000012C01000006B8FB0100AB1B00000202012D0000012D01000006BAFB0100AB1B000002020200
  1
END ACDBSPATIALINDEX BINARY DATA
  0
DICTIONARY
  5
7F7C
330
232A
100
AcDbDictionary
280
     1
281
     1
  3
ACAD_XREC_ROUNDTRIP
360
7F7D
  0
DICTIONARY
  5
7F76
330
2285
100
AcDbDictionary
280
     1
281
     1
  3
ACAD_XREC_ROUNDTRIP
360
7F77
  0
DICTIONARY
  5
7F74
330
22
100
AcDbDictionary
280
     1
281
     1
  3
ACAD_XREC_ROUNDTRIP
360
7F75
  0
DICTIONARY
  5
7883
330
7882
100
AcDbDictionary
280
     1
281
     1
  3
ACAD_XREC_ROUNDTRIP
360
7F89
  3
BUMPTILE
360
7885
  3
DIFFUSETILE
360
7884
  3
OPACITYTILE
360
7888
  3
REFLECTIONTILE
360
7887
  3
REFRACTIONTILE
360
7889
  3
SPECULARTILE
360
7886
  0
DICTIONARY
  5
787B
330
787A
100
AcDbDictionary
280
     1
281
     1
  3
ACAD_XREC_ROUNDTRIP
360
7F88
  3
BUMPTILE
360
787D
  3
DIFFUSETILE
360
787C
  3
OPACITYTILE
360
7880
  3
REFLECTIONTILE
360
787F
  3
REFRACTIONTILE
360
7881
  3
SPECULARTILE
360
787E
  0
DICTIONARY
  5
788B
330
788A
100
AcDbDictionary
280
     1
281
     1
  3
ACAD_XREC_ROUNDTRIP
360
7F8A
  3
BUMPTILE
360
788D
  3
DIFFUSETILE
360
788C
  3
OPACITYTILE
360
7890
  3
REFLECTIONTILE
360
788F
  3
REFRACTIONTILE
360
7891
  3
SPECULARTILE
360
788E
  0
DICTIONARY
  5
7F82
330
2889
100
AcDbDictionary
280
     1
281
     1
  3
ACAD_XREC_ROUNDTRIP
360
7F83
  0
DICTIONARY
  5
7F84
330
288A
100
AcDbDictionary
280
     1
281
     1
  3
ACAD_XREC_ROUNDTRIP
360
7F85
  0
DICTIONARY
  5
7BA5
330
78A4
100
AcDbDictionary
280
     1
281
     1
  3
ACAD_ROUNDTRIP_2008_TABLESTYLE_CELLSTYLEMAP
360
7F72
  3
ACAD_XREC_ROUNDTRIP
360
7F8B
  0
XRECORD
  5
7F7D
102
{ACAD_REACTORS
330
7F7C
102
}
330
7F7C
100
AcDbXrecord
280
     1
102
SHADEPLOT
 70
     1
102
SHADEPLOTRESLEVEL
 70
     4
102
SHADEPLOTCUSTOMDPI
 70
   600
  0
XRECORD
  5
7F77
102
{ACAD_REACTORS
330
7F76
102
}
330
7F76
100
AcDbXrecord
280
     1
102
SHADEPLOT
 70
     1
102
SHADEPLOTRESLEVEL
 70
     4
102
SHADEPLOTCUSTOMDPI
 70
   600
  0
XRECORD
  5
7F75
102
{ACAD_REACTORS
330
7F74
102
}
330
7F74
100
AcDbXrecord
280
     1
102
SHADEPLOT
 70
     1
102
SHADEPLOTRESLEVEL
 70
     2
102
SHADEPLOTCUSTOMDPI
 70
   300
  0
XRECORD
  5
7F89
102
{ACAD_REACTORS
330
7883
102
}
330
7883
100
AcDbXrecord
280
     1
102
MATERIAL
148
0.0
149
0.0
149
0.0
 93
        0
 94
      127
282
     0
 72
     0
 77
     0
171
     0
175
     0
179
     0
273
     0
  0
XRECORD
  5
7885
102
{ACAD_REACTORS
330
7883
102
}
330
7883
100
AcDbXrecord
280
     1
270
     1
271
     1
  0
XRECORD
  5
7884
102
{ACAD_REACTORS
330
7883
102
}
330
7883
100
AcDbXrecord
280
     1
270
     1
271
     1
  0
XRECORD
  5
7888
102
{ACAD_REACTORS
330
7883
102
}
330
7883
100
AcDbXrecord
280
     1
270
     1
271
     1
  0
XRECORD
  5
7887
102
{ACAD_REACTORS
330
7883
102
}
330
7883
100
AcDbXrecord
280
     1
270
     1
271
     1
  0
XRECORD
  5
7889
102
{ACAD_REACTORS
330
7883
102
}
330
7883
100
AcDbXrecord
280
     1
270
     1
271
     1
  0
XRECORD
  5
7886
102
{ACAD_REACTORS
330
7883
102
}
330
7883
100
AcDbXrecord
280
     1
270
     1
271
     1
  0
XRECORD
  5
7F88
102
{ACAD_REACTORS
330
787B
102
}
330
787B
100
AcDbXrecord
280
     1
102
MATERIAL
148
0.0
149
0.0
149
0.0
 93
        0
 94
      127
282
     0
 72
     0
 77
     0
171
     0
175
     0
179
     0
273
     0
  0
XRECORD
  5
787D
102
{ACAD_REACTORS
330
787B
102
}
330
787B
100
AcDbXrecord
280
     1
270
     1
271
     1
  0
XRECORD
  5
787C
102
{ACAD_REACTORS
330
787B
102
}
330
787B
100
AcDbXrecord
280
     1
270
     1
271
     1
  0
XRECORD
  5
7880
102
{ACAD_REACTORS
330
787B
102
}
330
787B
100
AcDbXrecord
280
     1
270
     1
271
     1
  0
XRECORD
  5
787F
102
{ACAD_REACTORS
330
787B
102
}
330
787B
100
AcDbXrecord
280
     1
270
     1
271
     1
  0
XRECORD
  5
7881
102
{ACAD_REACTORS
330
787B
102
}
330
787B
100
AcDbXrecord
280
     1
270
     1
271
     1
  0
XRECORD
  5
787E
102
{ACAD_REACTORS
330
787B
102
}
330
787B
100
AcDbXrecord
280
     1
270
     1
271
     1
  0
XRECORD
  5
7F8A
102
{ACAD_REACTORS
330
788B
102
}
330
788B
100
AcDbXrecord
280
     1
102
MATERIAL
148
0.0
149
0.0
149
0.0
 93
        0
 94
      127
282
     0
 72
     0
 77
     0
171
     0
175
     0
179
     0
273
     0
  0
XRECORD
  5
788D
102
{ACAD_REACTORS
330
788B
102
}
330
788B
100
AcDbXrecord
280
     1
270
     1
271
     1
  0
XRECORD
  5
788C
102
{ACAD_REACTORS
330
788B
102
}
330
788B
100
AcDbXrecord
280
     1
270
     1
271
     1
  0
XRECORD
  5
7890
102
{ACAD_REACTORS
330
788B
102
}
330
788B
100
AcDbXrecord
280
     1
270
     1
271
     1
  0
XRECORD
  5
788F
102
{ACAD_REACTORS
330
788B
102
}
330
788B
100
AcDbXrecord
280
     1
270
     1
271
     1
  0
XRECORD
  5
7891
102
{ACAD_REACTORS
330
788B
102
}
330
788B
100
AcDbXrecord
280
     1
270
     1
271
     1
  0
XRECORD
  5
788E
102
{ACAD_REACTORS
330
788B
102
}
330
788B
100
AcDbXrecord
280
     1
270
     1
271
     1
  0
XRECORD
  5
7F83
102
{ACAD_REACTORS
330
7F82
102
}
330
7F82
100
AcDbXrecord
280
     1
102
SHADEPLOT
 70
     1
102
SHADEPLOTRESLEVEL
 70
     4
102
SHADEPLOTCUSTOMDPI
 70
   600
  0
XRECORD
  5
7F85
102
{ACAD_REACTORS
330
7F84
102
}
330
7F84
100
AcDbXrecord
280
     1
102
SHADEPLOT
 70
     1
102
SHADEPLOTRESLEVEL
 70
     4
102
SHADEPLOTCUSTOMDPI
 70
   600
  0
CELLSTYLEMAP
  5
7F72
102
{ACAD_REACTORS
330
7BA5
102
}
330
7BA5
100
AcDbCellStyleMap
 90
        3
300
CELLSTYLE
  1
TABLEFORMAT_BEGIN
 90
        5
170
     1
 91
        0
 92
    32768
 62
   257
 93
        1
300
CONTENTFORMAT
  1
CONTENTFORMAT_BEGIN
 90
        0
 91
        0
 92
      512
 93
        0
300

 40
0.0
140
1.0
 94
        5
 62
     0
340
11
144
6.0
309
CONTENTFORMAT_END
171
     1
301
MARGIN
  1
CELLMARGIN_BEGIN
 40
1.5
 40
1.5
 40
1.5
 40
1.5
 40
4.5
 40
4.5
309
CELLMARGIN_END
 94
        6
 95
        1
302
GRIDFORMAT
  1
GRIDFORMAT_BEGIN
 90
        0
 91
        1
 62
     0
 92
       -2
340
0
 93
        0
 40
1.125
309
GRIDFORMAT_END
 95
        2
302
GRIDFORMAT
  1
GRIDFORMAT_BEGIN
 90
        0
 91
        1
 62
     0
 92
       -2
340
0
 93
        0
 40
1.125
309
GRIDFORMAT_END
 95
        4
302
GRIDFORMAT
  1
GRIDFORMAT_BEGIN
 90
        0
 91
        1
 62
     0
 92
       -2
340
0
 93
        0
 40
1.125
309
GRIDFORMAT_END
 95
        8
302
GRIDFORMAT
  1
GRIDFORMAT_BEGIN
 90
        0
 91
        1
 62
     0
 92
       -2
340
0
 93
        0
 40
1.125
309
GRIDFORMAT_END
 95
       16
302
GRIDFORMAT
  1
GRIDFORMAT_BEGIN
 90
        0
 91
        1
 62
     0
 92
       -2
340
0
 93
        0
 40
1.125
309
GRIDFORMAT_END
 95
       32
302
GRIDFORMAT
  1
GRIDFORMAT_BEGIN
 90
        0
 91
        1
 62
     0
 92
       -2
340
0
 93
        0
 40
1.125
309
GRIDFORMAT_END
309
TABLEFORMAT_END
  1
CELLSTYLE_BEGIN
 90
        1
 91
        1
300
_TITLE
309
CELLSTYLE_END
300
CELLSTYLE
  1
TABLEFORMAT_BEGIN
 90
        5
170
     1
 91
        0
 92
        0
 62
   257
 93
        1
300
CONTENTFORMAT
  1
CONTENTFORMAT_BEGIN
 90
        0
 91
        0
 92
      512
 93
        0
300

 40
0.0
140
1.0
 94
        5
 62
     0
340
11
144
4.5
309
CONTENTFORMAT_END
171
     1
301
MARGIN
  1
CELLMARGIN_BEGIN
 40
1.5
 40
1.5
 40
1.5
 40
1.5
 40
4.5
 40
4.5
309
CELLMARGIN_END
 94
        6
 95
        1
302
GRIDFORMAT
  1
GRIDFORMAT_BEGIN
 90
        0
 91
        1
 62
     0
 92
       -2
340
0
 93
        0
 40
1.125
309
GRIDFORMAT_END
 95
        2
302
GRIDFORMAT
  1
GRIDFORMAT_BEGIN
 90
        0
 91
        1
 62
     0
 92
       -2
340
0
 93
        0
 40
1.125
309
GRIDFORMAT_END
 95
        4
302
GRIDFORMAT
  1
GRIDFORMAT_BEGIN
 90
        0
 91
        1
 62
     0
 92
       -2
340
0
 93
        0
 40
1.125
309
GRIDFORMAT_END
 95
        8
302
GRIDFORMAT
  1
GRIDFORMAT_BEGIN
 90
        0
 91
        1
 62
     0
 92
       -2
340
0
 93
        0
 40
1.125
309
GRIDFORMAT_END
 95
       16
302
GRIDFORMAT
  1
GRIDFORMAT_BEGIN
 90
        0
 91
        1
 62
     0
 92
       -2
340
0
 93
        0
 40
1.125
309
GRIDFORMAT_END
 95
       32
302
GRIDFORMAT
  1
GRIDFORMAT_BEGIN
 90
        0
 91
        1
 62
     0
 92
       -2
340
0
 93
        0
 40
1.125
309
GRIDFORMAT_END
309
TABLEFORMAT_END
  1
CELLSTYLE_BEGIN
 90
        2
 91
        1
300
_HEADER
309
CELLSTYLE_END
300
CELLSTYLE
  1
TABLEFORMAT_BEGIN
 90
        5
170
     1
 91
        0
 92
        0
 62
   257
 93
        1
300
CONTENTFORMAT
  1
CONTENTFORMAT_BEGIN
 90
        0
 91
        0
 92
      512
 93
        0
300

 40
0.0
140
1.0
 94
        2
 62
     0
340
11
144
4.5
309
CONTENTFORMAT_END
171
     1
301
MARGIN
  1
CELLMARGIN_BEGIN
 40
1.5
 40
1.5
 40
1.5
 40
1.5
 40
4.5
 40
4.5
309
CELLMARGIN_END
 94
        6
 95
        1
302
GRIDFORMAT
  1
GRIDFORMAT_BEGIN
 90
        0
 91
        1
 62
     0
 92
       -2
340
0
 93
        0
 40
1.125
309
GRIDFORMAT_END
 95
        2
302
GRIDFORMAT
  1
GRIDFORMAT_BEGIN
 90
        0
 91
        1
 62
     0
 92
       -2
340
0
 93
        0
 40
1.125
309
GRIDFORMAT_END
 95
        4
302
GRIDFORMAT
  1
GRIDFORMAT_BEGIN
 90
        0
 91
        1
 62
     0
 92
       -2
340
0
 93
        0
 40
1.125
309
GRIDFORMAT_END
 95
        8
302
GRIDFORMAT
  1
GRIDFORMAT_BEGIN
 90
        0
 91
        1
 62
     0
 92
       -2
340
0
 93
        0
 40
1.125
309
GRIDFORMAT_END
 95
       16
302
GRIDFORMAT
  1
GRIDFORMAT_BEGIN
 90
        0
 91
        1
 62
     0
 92
       -2
340
0
 93
        0
 40
1.125
309
GRIDFORMAT_END
 95
       32
302
GRIDFORMAT
  1
GRIDFORMAT_BEGIN
 90
        0
 91
        1
 62
     0
 92
       -2
340
0
 93
        0
 40
1.125
309
GRIDFORMAT_END
309
TABLEFORMAT_END
  1
CELLSTYLE_BEGIN
 90
        3
 91
        2
300
_DATA
309
CELLSTYLE_END
  0
XRECORD
  5
7F8B
102
{ACAD_REACTORS
330
7BA5
102
}
330
7BA5
100
AcDbXrecord
280
     1
102
ACAD_ROUNDTRIP_PRE2007_TABLESTYLE
 90
      512
 91
        0
  1

 92
      512
 93
        0
  2

 94
      512
 95
        0
  3

  0
ENDSEC
  0
EOF
