  0
SECTION
  2
HEADER
  9
$ACADVER
  1
AC1015
  9
$ACADMAINTVER
 70
    18
  9
$DWGCODEPAGE
  3
ANSI_1250
  9
$INSBASE
 10
0.0
 20
0.0
 30
0.0
  9
$EXTMIN
 10
194248.7610250629
 20
112862.0802268956
 30
-406.0149163310914
  9
$EXTMAX
 10
226855.4702638223
 20
129126.5297351367
 30
260.0203260926969
  9
$LIMMIN
 10
0.0
 20
0.0
  9
$LIMMAX
 10
420.0
 20
297.0
  9
$ORTHOMODE
 70
     1
  9
$REGENMODE
 70
     1
  9
$FILLMODE
 70
     1
  9
$QTEXTMODE
 70
     0
  9
$MIRRTEXT
 70
     0
  9
$LTSCALE
 40
75.0
  9
$ATTMODE
 70
     1
  9
$TEXTSIZE
 40
20.0
  9
$TRACEWID
 40
1.0
  9
$TEXTSTYLE
  7
ROMANS
  9
$CLAYER
  8
0Wymiary-PL
  9
$CELTYPE
  6
ByLayer
  9
$CECOLOR
 62
   256
  9
$CELTSCALE
 40
1.0
  9
$DISPSILH
 70
     0
  9
$DIMSCALE
 40
1.0
  9
$DIMASZ
 40
1.0
  9
$DIMEXO
 40
43.0
  9
$DIMDLI
 40
24.0
  9
$DIMRND
 40
0.5
  9
$DIMDLE
 40
12.0
  9
$DIMEXE
 40
13.0
  9
$DIMTP
 40
0.0
  9
$DIMTM
 40
0.0
  9
$DIMTXT
 40
30.0
  9
$DIMCEN
 40
0.0
  9
$DIMTSZ
 40
0.0
  9
$DIMTOL
 70
     0
  9
$DIMLIM
 70
     0
  9
$DIMTIH
 70
     0
  9
$DIMTOH
 70
     0
  9
$DIMSE1
 70
     1
  9
$DIMSE2
 70
     1
  9
$DIMTAD
 70
     1
  9
$DIMZIN
 70
     8
  9
$DIMBLK
  1
B-DIM_W
  9
$DIMASO
 70
     1
  9
$DIMSHO
 70
     1
  9
$DIMPOST
  1

  9
$DIMAPOST
  1

  9
$DIMALT
 70
     0
  9
$DIMALTD
 70
     2
  9
$DIMALTF
 40
25.4
  9
$DIMLFAC
 40
1.0
  9
$DIMTOFL
 70
     1
  9
$DIMTVP
 40
1.0
  9
$DIMTIX
 70
     1
  9
$DIMSOXD
 70
     0
  9
$DIMSAH
 70
     0
  9
$DIMBLK1
  1

  9
$DIMBLK2
  1

  9
$DIMSTYLE
  2
100-PRw
  9
$DIMCLRD
 70
     1
  9
$DIMCLRE
 70
     1
  9
$DIMCLRT
 70
   140
  9
$DIMTFAC
 40
1.0
  9
$DIMGAP
 40
8.0
  9
$DIMJUST
 70
     0
  9
$DIMSD1
 70
     0
  9
$DIMSD2
 70
     0
  9
$DIMTOLJ
 70
     1
  9
$DIMTZIN
 70
     0
  9
$DIMALTZ
 70
     0
  9
$DIMALTTZ
 70
     0
  9
$DIMUPT
 70
     0
  9
$DIMDEC
 70
     1
  9
$DIMTDEC
 70
     1
  9
$DIMALTU
 70
     2
  9
$DIMALTTD
 70
     2
  9
$DIMTXSTY
  7
ROMANS
  9
$DIMAUNIT
 70
     0
  9
$DIMADEC
 70
     0
  9
$DIMALTRND
 40
0.0
  9
$DIMAZIN
 70
     0
  9
$DIMDSEP
 70
    46
  9
$DIMATFIT
 70
     3
  9
$DIMFRAC
 70
     0
  9
$DIMLDRBLK
  1
Dot
  9
$DIMLUNIT
 70
     2
  9
$DIMLWD
 70
     5
  9
$DIMLWE
 70
    -2
  9
$DIMTMOVE
 70
     2
  9
$LUNITS
 70
     2
  9
$LUPREC
 70
     1
  9
$SKETCHINC
 40
1.0
  9
$FILLETRAD
 40
0.0
  9
$AUNITS
 70
     0
  9
$AUPREC
 70
     0
  9
$MENU
  1
.
  9
$ELEVATION
 40
0.0
  9
$PELEVATION
 40
0.0
  9
$THICKNESS
 40
0.0
  9
$LIMCHECK
 70
     0
  9
$CHAMFERA
 40
0.0
  9
$CHAMFERB
 40
0.0
  9
$CHAMFERC
 40
20.0
  9
$CHAMFERD
 40
0.0
  9
$SKPOLY
 70
     0
  9
$TDCREATE
 40
2452027.628880787
  9
$TDUCREATE
 40
2452027.587214121
  9
$TDUPDATE
 40
2455237.398364074
  9
$TDUUPDATE
 40
2455237.356697408
  9
$TDINDWG
 40
9.2491559606
  9
$TDUSRTIMER
 40
9.2491559606
  9
$USRTIMER
 70
     1
  9
$ANGBASE
 50
0.0
  9
$ANGDIR
 70
     0
  9
$PDMODE
 70
     0
  9
$PDSIZE
 40
0.0
  9
$PLINEWID
 40
0.0
  9
$SPLFRAME
 70
     0
  9
$SPLINETYPE
 70
     6
  9
$SPLINESEGS
 70
     8
  9
$HANDSEED
  5
1B8
  9
$SURFTAB1
 70
     6
  9
$SURFTAB2
 70
     6
  9
$SURFTYPE
 70
     6
  9
$SURFU
 70
     6
  9
$SURFV
 70
     6
  9
$UCSBASE
  2

  9
$UCSNAME
  2

  9
$UCSORG
 10
0.0
 20
0.0
 30
0.0
  9
$UCSXDIR
 10
1.0
 20
0.0
 30
0.0
  9
$UCSYDIR
 10
0.0
 20
1.0
 30
0.0
  9
$UCSORTHOREF
  2

  9
$UCSORTHOVIEW
 70
     0
  9
$UCSORGTOP
 10
0.0
 20
0.0
 30
0.0
  9
$UCSORGBOTTOM
 10
0.0
 20
0.0
 30
0.0
  9
$UCSORGLEFT
 10
0.0
 20
0.0
 30
0.0
  9
$UCSORGRIGHT
 10
0.0
 20
0.0
 30
0.0
  9
$UCSORGFRONT
 10
0.0
 20
0.0
 30
0.0
  9
$UCSORGBACK
 10
0.0
 20
0.0
 30
0.0
  9
$PUCSBASE
  2

  9
$PUCSNAME
  2

  9
$PUCSORG
 10
0.0
 20
0.0
 30
0.0
  9
$PUCSXDIR
 10
1.0
 20
0.0
 30
0.0
  9
$PUCSYDIR
 10
0.0
 20
1.0
 30
0.0
  9
$PUCSORTHOREF
  2

  9
$PUCSORTHOVIEW
 70
     0
  9
$PUCSORGTOP
 10
0.0
 20
0.0
 30
0.0
  9
$PUCSORGBOTTOM
 10
0.0
 20
0.0
 30
0.0
  9
$PUCSORGLEFT
 10
0.0
 20
0.0
 30
0.0
  9
$PUCSORGRIGHT
 10
0.0
 20
0.0
 30
0.0
  9
$PUCSORGFRONT
 10
0.0
 20
0.0
 30
0.0
  9
$PUCSORGBACK
 10
0.0
 20
0.0
 30
0.0
  9
$USERI1
 70
     0
  9
$USERI2
 70
     0
  9
$USERI3
 70
     0
  9
$USERI4
 70
     0
  9
$USERI5
 70
     0
  9
$USERR1
 40
0.0
  9
$USERR2
 40
0.0
  9
$USERR3
 40
0.0
  9
$USERR4
 40
0.0
  9
$USERR5
 40
0.0
  9
$WORLDVIEW
 70
     1
  9
$SHADEDGE
 70
     3
  9
$SHADEDIF
 70
    70
  9
$TILEMODE
 70
     1
  9
$MAXACTVP
 70
    64
  9
$PINSBASE
 10
0.0
 20
0.0
 30
0.0
  9
$PLIMCHECK
 70
     0
  9
$PEXTMIN
 10
1.000000000000000E+20
 20
1.000000000000000E+20
 30
1.000000000000000E+20
  9
$PEXTMAX
 10
-1.000000000000000E+20
 20
-1.000000000000000E+20
 30
-1.000000000000000E+20
  9
$PLIMMIN
 10
0.0
 20
0.0
  9
$PLIMMAX
 10
420.0
 20
297.0
  9
$UNITMODE
 70
     0
  9
$VISRETAIN
 70
     1
  9
$PLINEGEN
 70
     0
  9
$PSLTSCALE
 70
     1
  9
$TREEDEPTH
 70
  3020
  9
$CMLSTYLE
  2
Standard
  9
$CMLJUST
 70
     0
  9
$CMLSCALE
 40
20.0
  9
$PROXYGRAPHICS
 70
     1
  9
$MEASUREMENT
 70
     0
  9
$CELWEIGHT
370
    -1
  9
$ENDCAPS
280
     0
  9
$JOINSTYLE
280
     0
  9
$LWDISPLAY
290
     0
  9
$INSUNITS
 70
     5
  9
$HYPERLINKBASE
  1

  9
$STYLESHEET
  1

  9
$XEDIT
290
     1
  9
$CEPSNTYPE
380
     0
  9
$PSTYLEMODE
290
     1
  9
$FINGERPRINTGUID
  2
{0145D6CE-DAF4-4CFD-8327-761268555A4D}
  9
$VERSIONGUID
  2
{D376FDA3-AC52-4098-8047-4AB569572CED}
  9
$EXTNAMES
290
     1
  9
$PSVPSCALE
 40
0.0
  9
$OLESTARTUP
290
     0
  0
ENDSEC
  0
SECTION
  2
CLASSES
  0
CLASS
  1
ACDBDICTIONARYWDFLT
  2
AcDbDictionaryWithDefault
  3
ObjectDBX Classes
 90
        0
280
     0
281
     0
  0
CLASS
  1
ACDBPLACEHOLDER
  2
AcDbPlaceHolder
  3
ObjectDBX Classes
 90
        0
280
     0
281
     0
  0
CLASS
  1
LAYOUT
  2
AcDbLayout
  3
ObjectDBX Classes
 90
        0
280
     0
281
     0
  0
CLASS
  1
DICTIONARYVAR
  2
AcDbDictionaryVar
  3
ObjectDBX Classes
 90
        0
280
     0
281
     0
  0
CLASS
  1
SORTENTSTABLE
  2
AcDbSortentsTable
  3
ObjectDBX Classes
 90
        0
280
     0
281
     0
  0
CLASS
  1
AEC_VARS_DWG_SETUP
  2
AecDbVarsDwgSetup
  3
AecBase50|Product Desc: Autodesk Architectural Desktop 2007 |Company: Autodesk,Inc. |WEB Address: www.autodesk.com
 90
    32897
280
     0
281
     0
  0
CLASS
  1
AEC_DISP_REP_CONFIG
  2
AecDbDispRepConfig
  3
AecBase50|Product Desc: Autodesk Architectural Desktop 2007 |Company: Autodesk,Inc. |WEB Address: www.autodesk.com
 90
    32897
280
     0
281
     0
  0
CLASS
  1
AEC_DISP_REP_SET
  2
AecDbDispRepSet
  3
AecBase50|Product Desc: Autodesk Architectural Desktop 2007 |Company: Autodesk,Inc. |WEB Address: www.autodesk.com
 90
    32897
280
     0
281
     0
  0
CLASS
  1
AEC_DISP_REP_2D_SECTION
  2
AecDbDispRep2dSection
  3
AecBase50|Product Desc: Autodesk Architectural Desktop 2007 |Company: Autodesk,Inc. |WEB Address: www.autodesk.com
 90
    32897
280
     0
281
     0
  0
CLASS
  1
AEC_DISP_REP_ANCHOR_BUB_TO_GRID
  2
AecDbDispRepAnchorBubToGrid
  3
AecStructureBase50|Product Desc: Autodesk Architectural Desktop 2007 |Company: Autodesk,Inc. |WEB Address: www.autodesk.com
 90
    32897
280
     0
281
     0
  0
CLASS
  1
AEC_DISP_REP_ANCHOR_BUB_TO_GRID_MODEL
  2
AecDbDispRepAnchorBubToGridMdl
  3
AecStructureBase50|Product Desc: Autodesk Architectural Desktop 2007 |Company: Autodesk,Inc. |WEB Address: www.autodesk.com
 90
    32897
280
     0
281
     0
  0
CLASS
  1
AEC_DISP_REP_ANCHOR_ENT_TO_NODE
  2
AecDbDispRepAnchorEntToNode
  3
AecBaseEx50|Product Desc: Autodesk Architectural Desktop 2007 |Company: Autodesk,Inc. |WEB Address: www.autodesk.com
 90
    32897
280
     0
281
     0
  0
CLASS
  1
AEC_DISP_REP_ANCHOR_TAG_TO_ENT
  2
AecDbDispRepAnchorTagToEnt
  3
AecScheduleData50|Product Desc: Autodesk Architectural Desktop 2007 |Company: Autodesk,Inc. |WEB Address: www.autodesk.com
 90
    32897
280
     0
281
     0
  0
CLASS
  1
AEC_DISP_REP_AREA
  2
AecDbDispRepArea
  3
AecAreaCalculationBase50|Product Desc: Autodesk Architectural Desktop 2007 |Company: Autodesk,Inc. |WEB Address: www.autodesk.com
 90
    32897
280
     0
281
     0
  0
CLASS
  1
AEC_DISP_REP_AREA_DECOMPOSED
  2
AecDbDispRepAreaDecomposed
  3
AecAreaCalculationBase50|Product Desc: Autodesk Architectural Desktop 2007 |Company: Autodesk,Inc. |WEB Address: www.autodesk.com
 90
    32897
280
     0
281
     0
  0
CLASS
  1
AEC_DISP_REP_AREAGROUP
  2
AecDbDispRepAreaGroup
  3
AecAreaCalculationBase50|Product Desc: Autodesk Architectural Desktop 2007 |Company: Autodesk,Inc. |WEB Address: www.autodesk.com
 90
    32897
280
     0
281
     0
  0
CLASS
  1
AEC_DISP_REP_BDG_ELEVLINE_MODEL
  2
AecDbDispRepBdgElevLineModel
  3
AecArchBase50|Product Desc: Autodesk Architectural Desktop 2007 |Company: Autodesk,Inc. |WEB Address: www.autodesk.com
 90
    32897
280
     0
281
     0
  0
CLASS
  1
AEC_DISP_REP_BDG_SECTIONLINE_PLAN
  2
AecDbDispRepBdgElevLinePlan
  3
AecArchBase50|Product Desc: Autodesk Architectural Desktop 2007 |Company: Autodesk,Inc. |WEB Address: www.autodesk.com
 90
    32897
280
     0
281
     0
  0
CLASS
  1
AEC_DISP_REP_BDG_SECTIONLINE_MODEL
  2
AecDbDispRepBdgSectionLineModel
  3
AecArchBase50|Product Desc: Autodesk Architectural Desktop 2007 |Company: Autodesk,Inc. |WEB Address: www.autodesk.com
 90
    32897
280
     0
281
     0
  0
CLASS
  1
AEC_DISP_REP_BDG_SECTIONLINE_PLAN
  2
AecDbDispRepBdgSectionLinePlan
  3
AecArchBase50|Product Desc: Autodesk Architectural Desktop 2007 |Company: Autodesk,Inc. |WEB Address: www.autodesk.com
 90
    32897
280
     0
281
     0
  0
CLASS
  1
AEC_DISP_REP_BDG_SECTION_SUBDIV
  2
AecDbDispRepBdgSectionSubDiv
  3
AecArchBase50|Product Desc: Autodesk Architectural Desktop 2007 |Company: Autodesk,Inc. |WEB Address: www.autodesk.com
 90
    32897
280
     0
281
     0
  0
CLASS
  1
AEC_DISP_REP_CAMERA
  2
AecDbDispRepCamera
  3
AecBase50|Product Desc: Autodesk Architectural Desktop 2007 |Company: Autodesk,Inc. |WEB Address: www.autodesk.com
 90
    32897
280
     0
281
     0
  0
CLASS
  1
AEC_DISP_REP_CEILING_GRID
  2
AecDbDispRepCeilingGrid
  3
AecArchBase50|Product Desc: Autodesk Architectural Desktop 2007 |Company: Autodesk,Inc. |WEB Address: www.autodesk.com
 90
    33661
280
     0
281
     0
  0
CLASS
  1
AEC_DISP_REP_CEILING_GRID_MODEL
  2
AecDbDispRepCeilingGridModel
  3
AecArchBase50|Product Desc: Autodesk Architectural Desktop 2007 |Company: Autodesk,Inc. |WEB Address: www.autodesk.com
 90
    32897
280
     0
281
     0
  0
CLASS
  1
AEC_DISP_REP_CEILING_GRID_RCP
  2
AecDbDispRepCeilingGridRcp
  3
AecArchBase50|Product Desc: Autodesk Architectural Desktop 2007 |Company: Autodesk,Inc. |WEB Address: www.autodesk.com
 90
    32897
280
     0
281
     0
  0
CLASS
  1
AEC_DISP_REP_CLIP_VOLUME_MODEL
  2
AecDbDispRepClipVolModel
  3
AecBase50|Product Desc: Autodesk Architectural Desktop 2007 |Company: Autodesk,Inc. |WEB Address: www.autodesk.com
 90
    32897
280
     0
281
     0
  0
CLASS
  1
AEC_DISP_REP_CLIP_VOLUME_PLAN
  2
AecDbDispRepClipVolPlan
  3
AecBase50|Product Desc: Autodesk Architectural Desktop 2007 |Company: Autodesk,Inc. |WEB Address: www.autodesk.com
 90
    32897
280
     0
281
     0
  0
CLASS
  1
AEC_DISP_REP_CLIP_VOLUME_RESULT_SUBDIV
  2
AecDbDispRepClipVolResSubDiv
  3
AecBase50|Product Desc: Autodesk Architectural Desktop 2007 |Company: Autodesk,Inc. |WEB Address: www.autodesk.com
 90
    32897
280
     0
281
     0
  0
CLASS
  1
AEC_DISP_REP_CLIP_VOLUME_RESULT
  2
AecDbDispRepClipVolResult
  3
AecBase50|Product Desc: Autodesk Architectural Desktop 2007 |Company: Autodesk,Inc. |WEB Address: www.autodesk.com
 90
    32897
280
     0
281
     0
  0
CLASS
  1
AEC_DISP_REP_COLUMN_GRID
  2
AecDbDispRepColumnGrid
  3
AecStructureBase50|Product Desc: Autodesk Architectural Desktop 2007 |Company: Autodesk,Inc. |WEB Address: www.autodesk.com
 90
    32897
280
     0
281
     0
  0
CLASS
  1
AEC_DISP_REP_COLUMN_GRID_MODEL
  2
AecDbDispRepColumnGridModel
  3
AecStructureBase50|Product Desc: Autodesk Architectural Desktop 2007 |Company: Autodesk,Inc. |WEB Address: www.autodesk.com
 90
    32897
280
     0
281
     0
  0
CLASS
  1
AEC_DISP_REP_CURTAIN_WALL_LAYOUT_MODEL
  2
AecDbDispRepCurtainWallLayoutModel
  3
AecArchBase50|Product Desc: Autodesk Architectural Desktop 2007 |Company: Autodesk,Inc. |WEB Address: www.autodesk.com
 90
    32897
280
     0
281
     0
  0
CLASS
  1
AEC_DISP_REP_CURTAIN_WALL_LAYOUT_PLAN
  2
AecDbDispRepCurtainWallLayoutPlan
  3
AecArchBase50|Product Desc: Autodesk Architectural Desktop 2007 |Company: Autodesk,Inc. |WEB Address: www.autodesk.com
 90
    32897
280
     0
281
     0
  0
CLASS
  1
AEC_DISP_REP_CURTAIN_WALL_UNIT_MODEL
  2
AecDbDispRepCurtainWallUnitModel
  3
AecArchBase50|Product Desc: Autodesk Architectural Desktop 2007 |Company: Autodesk,Inc. |WEB Address: www.autodesk.com
 90
    32897
280
     0
281
     0
  0
CLASS
  1
AEC_DISP_REP_CURTAIN_WALL_UNIT_PLAN
  2
AecDbDispRepCurtainWallUnitPlan
  3
AecArchBase50|Product Desc: Autodesk Architectural Desktop 2007 |Company: Autodesk,Inc. |WEB Address: www.autodesk.com
 90
    32897
280
     0
281
     0
  0
CLASS
  1
AEC_DB_DISP_REP_DIM_GROUP_PLAN
  2
AecDbDispRepDimGroupPlan
  3
AecArchDACHBase50|Product Desc: Autodesk Architectural Desktop 2007 |Company: Autodesk,Inc. |WEB Address: www.autodesk.com
 90
    32897
280
     0
281
     0
  0
CLASS
  1
AEC_DISP_REP_DOOR_MODEL
  2
AecDbDispRepDoorModel
  3
AecArchBase50|Product Desc: Autodesk Architectural Desktop 2007 |Company: Autodesk,Inc. |WEB Address: www.autodesk.com
 90
    32897
280
     0
281
     0
  0
CLASS
  1
AEC_DISP_REP_DOOR_NOMINAL
  2
AecDbDispRepDoorNominal
  3
AecArchBase50|Product Desc: Autodesk Architectural Desktop 2007 |Company: Autodesk,Inc. |WEB Address: www.autodesk.com
 90
    32897
280
     0
281
     0
  0
CLASS
  1
AEC_DISP_REP_DOOR_PLAN
  2
AecDbDispRepDoorPlan
  3
AecArchBase50|Product Desc: Autodesk Architectural Desktop 2007 |Company: Autodesk,Inc. |WEB Address: www.autodesk.com
 90
    32897
280
     0
281
     0
  0
CLASS
  1
AEC_DISP_REP_EDITINPLACEPROFILE
  2
AecDbDispRepEditInPlaceProfile
  3
AecBase50|Product Desc: Autodesk Architectural Desktop 2007 |Company: Autodesk,Inc. |WEB Address: www.autodesk.com
 90
    32897
280
     0
281
     0
  0
CLASS
  1
AEC_DISP_REP_ENT_REF
  2
AecDbDispRepEntRef
  3
AecBase50|Product Desc: Autodesk Architectural Desktop 2007 |Company: Autodesk,Inc. |WEB Address: www.autodesk.com
 90
    32897
280
     0
281
     0
  0
CLASS
  1
AEC_DISP_REP_LAYOUT_CURVE
  2
AecDbDispRepLayoutCurve
  3
AecBase50|Product Desc: Autodesk Architectural Desktop 2007 |Company: Autodesk,Inc. |WEB Address: www.autodesk.com
 90
    32897
280
     0
281
     0
  0
CLASS
  1
AEC_DISP_REP_LAYOUT_GRID2D
  2
AecDbDispRepLayoutGrid2d
  3
AecBase50|Product Desc: Autodesk Architectural Desktop 2007 |Company: Autodesk,Inc. |WEB Address: www.autodesk.com
 90
    32897
280
     0
281
     0
  0
CLASS
  1
AEC_DISP_REP_LAYOUT_GRID3D
  2
AecDbDispRepLayoutGrid3d
  3
AecBase50|Product Desc: Autodesk Architectural Desktop 2007 |Company: Autodesk,Inc. |WEB Address: www.autodesk.com
 90
    32897
280
     0
281
     0
  0
CLASS
  1
AEC_DISP_REP_MASKBLOCK_REF
  2
AecDbDispRepMaskBlockRef
  3
AecBase50|Product Desc: Autodesk Architectural Desktop 2007 |Company: Autodesk,Inc. |WEB Address: www.autodesk.com
 90
    32897
280
     0
281
     0
  0
CLASS
  1
AEC_DISP_REP_MASKBLOCK_REF_RCP
  2
AecDbDispRepMaskBlockRefRcp
  3
AecArchBase50|Product Desc: Autodesk Architectural Desktop 2007 |Company: Autodesk,Inc. |WEB Address: www.autodesk.com
 90
    32897
280
     0
281
     0
  0
CLASS
  1
AEC_DISP_REP_MASS_ELEM_MODEL
  2
AecDbDispRepMassElemModel
  3
AecBaseEx50|Product Desc: Autodesk Architectural Desktop 2007 |Company: Autodesk,Inc. |WEB Address: www.autodesk.com
 90
    32897
280
     0
281
     0
  0
CLASS
  1
AEC_DISP_REP_MASS_ELEM_SCHEM
  2
AecDbDispRepMassElemSchem
  3
AecBaseEx50|Product Desc: Autodesk Architectural Desktop 2007 |Company: Autodesk,Inc. |WEB Address: www.autodesk.com
 90
    32897
280
     0
281
     0
  0
CLASS
  1
AEC_DISP_REP_MASS_GROUP_MODEL
  2
AecDbDispRepMassGroupModel
  3
AecBaseEx50|Product Desc: Autodesk Architectural Desktop 2007 |Company: Autodesk,Inc. |WEB Address: www.autodesk.com
 90
    32897
280
     0
281
     0
  0
CLASS
  1
AEC_DISP_REP_MASS_GROUP_PLAN
  2
AecDbDispRepMassGroupPlan
  3
AecBaseEx50|Product Desc: Autodesk Architectural Desktop 2007 |Company: Autodesk,Inc. |WEB Address: www.autodesk.com
 90
    32897
280
     0
281
     0
  0
CLASS
  1
AEC_DISP_REP_MATERIAL
  2
AecDbDispRepMaterial
  3
AecBase50|Product Desc: Autodesk Architectural Desktop 2007 |Company: Autodesk,Inc. |WEB Address: www.autodesk.com
 90
    32897
280
     0
281
     0
  0
CLASS
  1
AEC_DISP_REP_MVBLOCK_REF
  2
AecDbDispRepMvBlockRef
  3
AecBase50|Product Desc: Autodesk Architectural Desktop 2007 |Company: Autodesk,Inc. |WEB Address: www.autodesk.com
 90
    32897
280
     0
281
     0
  0
CLASS
  1
AEC_DISP_REP_MVBLOCK_REF_MODEL
  2
AecDbDispRepMvBlockRefModel
  3
AecBase50|Product Desc: Autodesk Architectural Desktop 2007 |Company: Autodesk,Inc. |WEB Address: www.autodesk.com
 90
    32897
280
     0
281
     0
  0
CLASS
  1
AEC_DISP_REP_OPENING
  2
AecDbDispRepOpening
  3
AecArchBase50|Product Desc: Autodesk Architectural Desktop 2007 |Company: Autodesk,Inc. |WEB Address: www.autodesk.com
 90
    32897
280
     0
281
     0
  0
CLASS
  1
AEC_DISP_REP_OPENING_MODEL
  2
AecDbDispRepOpeningModel
  3
AecArchBase50|Product Desc: Autodesk Architectural Desktop 2007 |Company: Autodesk,Inc. |WEB Address: www.autodesk.com
 90
    32897
280
     0
281
     0
  0
CLASS
  1
AEC_DISP_REP_POLYGON_MODEL
  2
AecDbDispRepPolygonModel
  3
AecBaseEx50|Product Desc: Autodesk Architectural Desktop 2007 |Company: Autodesk,Inc. |WEB Address: www.autodesk.com
 90
    32897
280
     0
281
     0
  0
CLASS
  1
AEC_DISP_REP_RAILING_MODEL
  2
AecDbDispRepRailingModel
  3
AecArchBase50|Product Desc: Autodesk Architectural Desktop 2007 |Company: Autodesk,Inc. |WEB Address: www.autodesk.com
 90
    32897
280
     0
281
     0
  0
CLASS
  1
AEC_DISP_REP_RAILING_PLAN
  2
AecDbDispRepRailingPlan
  3
AecArchBase50|Product Desc: Autodesk Architectural Desktop 2007 |Company: Autodesk,Inc. |WEB Address: www.autodesk.com
 90
    32897
280
     0
281
     0
  0
CLASS
  1
AEC_DISP_REP_ROOF_MODEL
  2
AecDbDispRepRoofModel
  3
AecArchBase50|Product Desc: Autodesk Architectural Desktop 2007 |Company: Autodesk,Inc. |WEB Address: www.autodesk.com
 90
    32897
280
     0
281
     0
  0
CLASS
  1
AEC_DISP_REP_ROOF_PLAN
  2
AecDbDispRepRoofPlan
  3
AecArchBase50|Product Desc: Autodesk Architectural Desktop 2007 |Company: Autodesk,Inc. |WEB Address: www.autodesk.com
 90
    32897
280
     0
281
     0
  0
CLASS
  1
AEC_DISP_REP_ROOFSLAB_MODEL
  2
AecDbDispRepRoofSlabModel
  3
AecArchBase50|Product Desc: Autodesk Architectural Desktop 2007 |Company: Autodesk,Inc. |WEB Address: www.autodesk.com
 90
    32897
280
     0
281
     0
  0
CLASS
  1
AEC_DISP_REP_ROOFSLAB_PLAN
  2
AecDbDispRepRoofSlabPlan
  3
AecArchBase50|Product Desc: Autodesk Architectural Desktop 2007 |Company: Autodesk,Inc. |WEB Address: www.autodesk.com
 90
    32897
280
     0
281
     0
  0
CLASS
  1
AEC_DISP_REP_SCHEDULE_TABLE
  2
AecDbDispRepScheduleTable
  3
AecSchedule50|Product Desc: Autodesk Architectural Desktop 2007 |Company: Autodesk,Inc. |WEB Address: www.autodesk.com
 90
    32897
280
     0
281
     0
  0
CLASS
  1
AEC_DISP_REP_SLAB_MODEL
  2
AecDbDispRepSlabModel
  3
AecArchBase50|Product Desc: Autodesk Architectural Desktop 2007 |Company: Autodesk,Inc. |WEB Address: www.autodesk.com
 90
    32897
280
     0
281
     0
  0
CLASS
  1
AEC_DISP_REP_SLAB_PLAN
  2
AecDbDispRepSlabPlan
  3
AecArchBase50|Product Desc: Autodesk Architectural Desktop 2007 |Company: Autodesk,Inc. |WEB Address: www.autodesk.com
 90
    32897
280
     0
281
     0
  0
CLASS
  1
AEC_DISP_REP_SLICE
  2
AecDbDispRepSlice
  3
AecBase50|Product Desc: Autodesk Architectural Desktop 2007 |Company: Autodesk,Inc. |WEB Address: www.autodesk.com
 90
    32897
280
     0
281
     0
  0
CLASS
  1
AEC_DISP_REP_SPACE_BOUNDARY_MODEL
  2
AecDbDispRepSpaceBoundaryModel
  3
AecArchBase50|Product Desc: Autodesk Architectural Desktop 2007 |Company: Autodesk,Inc. |WEB Address: www.autodesk.com
 90
    32897
280
     0
281
     0
  0
CLASS
  1
AEC_DISP_REP_SPACE_BOUNDARY_PLAN
  2
AecDbDispRepSpaceBoundaryPlan
  3
AecArchBase50|Product Desc: Autodesk Architectural Desktop 2007 |Company: Autodesk,Inc. |WEB Address: www.autodesk.com
 90
    32897
280
     0
281
     0
  0
CLASS
  1
AEC_DISP_REP_SPACE_BOUNDARY_SCHEM
  2
AecDbDispRepSpaceBoundarySketch
  3
AecArchBase50|Product Desc: Autodesk Architectural Desktop 2007 |Company: Autodesk,Inc. |WEB Address: www.autodesk.com
 90
    32897
280
     0
281
     0
  0
CLASS
  1
AEC_DISP_REP_SPACE_MODEL
  2
AecDbDispRepSpaceModel
  3
AecArchBase50|Product Desc: Autodesk Architectural Desktop 2007 |Company: Autodesk,Inc. |WEB Address: www.autodesk.com
 90
    32897
280
     0
281
     0
  0
CLASS
  1
AEC_DISP_REP_SPACE_PLAN
  2
AecDbDispRepSpacePlan
  3
AecArchBase50|Product Desc: Autodesk Architectural Desktop 2007 |Company: Autodesk,Inc. |WEB Address: www.autodesk.com
 90
    32897
280
     0
281
     0
  0
CLASS
  1
AEC_DISP_REP_STAIR_MODEL
  2
AecDbDispRepStairModel
  3
AecArchBase50|Product Desc: Autodesk Architectural Desktop 2007 |Company: Autodesk,Inc. |WEB Address: www.autodesk.com
 90
    32897
280
     0
281
     0
  0
CLASS
  1
AEC_DISP_REP_STAIR_PLAN
  2
AecDbDispRepStairPlan
  3
AecArchBase50|Product Desc: Autodesk Architectural Desktop 2007 |Company: Autodesk,Inc. |WEB Address: www.autodesk.com
 90
    32897
280
     0
281
     0
  0
CLASS
  1
AEC_DISP_REP_WALL_GRAPH
  2
AecDbDispRepWallGraph
  3
AecArchBase50|Product Desc: Autodesk Architectural Desktop 2007 |Company: Autodesk,Inc. |WEB Address: www.autodesk.com
 90
    32897
280
     0
281
     0
  0
CLASS
  1
AEC_DISP_REP_WALL_MODEL
  2
AecDbDispRepWallModel
  3
AecArchBase50|Product Desc: Autodesk Architectural Desktop 2007 |Company: Autodesk,Inc. |WEB Address: www.autodesk.com
 90
    32897
280
     0
281
     0
  0
CLASS
  1
AEC_DISP_REP_WALL_PLAN
  2
AecDbDispRepWallPlan
  3
AecArchBase50|Product Desc: Autodesk Architectural Desktop 2007 |Company: Autodesk,Inc. |WEB Address: www.autodesk.com
 90
    32897
280
     0
281
     0
  0
CLASS
  1
AEC_DISP_REP_WALL_SCHEM
  2
AecDbDispRepWallSchem
  3
AecArchBase50|Product Desc: Autodesk Architectural Desktop 2007 |Company: Autodesk,Inc. |WEB Address: www.autodesk.com
 90
    32897
280
     0
281
     0
  0
CLASS
  1
AEC_DISP_REP_WINDOW_ASSEMBLY_MODEL
  2
AecDbDispRepWindowAssemblyModel
  3
AecArchBase50|Product Desc: Autodesk Architectural Desktop 2007 |Company: Autodesk,Inc. |WEB Address: www.autodesk.com
 90
    32897
280
     0
281
     0
  0
CLASS
  1
AEC_DISP_REP_WINDOW_ASSEMBLY_PLAN
  2
AecDbDispRepWindowAssemblyPlan
  3
AecArchBase50|Product Desc: Autodesk Architectural Desktop 2007 |Company: Autodesk,Inc. |WEB Address: www.autodesk.com
 90
    32897
280
     0
281
     0
  0
CLASS
  1
AEC_AECDBDISPREPWINDOWASSEMBLYPLAN100
  2
AecDbDispRepWindowAssemblyPlan100
  3
AecArchDACHBase50|Product Desc: Autodesk Architectural Desktop 2007 |Company: Autodesk,Inc. |WEB Address: www.autodesk.com
 90
    32897
280
     0
281
     0
  0
CLASS
  1
AEC_DISP_REP_WINDOW_MODEL
  2
AecDbDispRepWindowModel
  3
AecArchBase50|Product Desc: Autodesk Architectural Desktop 2007 |Company: Autodesk,Inc. |WEB Address: www.autodesk.com
 90
    32897
280
     0
281
     0
  0
CLASS
  1
AEC_DISP_REP_WINDOW_NOMINAL
  2
AecDbDispRepWindowNominal
  3
AecArchBase50|Product Desc: Autodesk Architectural Desktop 2007 |Company: Autodesk,Inc. |WEB Address: www.autodesk.com
 90
    32897
280
     0
281
     0
  0
CLASS
  1
AEC_DISP_REP_WINDOW_PLAN
  2
AecDbDispRepWindowPlan
  3
AecArchBase50|Product Desc: Autodesk Architectural Desktop 2007 |Company: Autodesk,Inc. |WEB Address: www.autodesk.com
 90
    32897
280
     0
281
     0
  0
CLASS
  1
AECS_DISP_REP_MEMBER_LOGICAL
  2
AecsDbDispRepMemberLogical
  3
AecStructureBase50|Product Desc: Autodesk Architectural Desktop 2007 |Company: Autodesk,Inc. |WEB Address: www.autodesk.com
 90
    32897
280
     0
281
     0
  0
CLASS
  1
AECS_DISP_REP_MEMBER_MODEL_DESIGN
  2
AecsDbDispRepMemberModelDesign
  3
AecStructureBase50|Product Desc: Autodesk Architectural Desktop 2007 |Company: Autodesk,Inc. |WEB Address: www.autodesk.com
 90
    32897
280
     0
281
     0
  0
CLASS
  1
AECS_DISP_REP_MEMBER_PLAN_DESIGN
  2
AecsDbDispRepMemberPlanDesign
  3
AecStructureBase50|Product Desc: Autodesk Architectural Desktop 2007 |Company: Autodesk,Inc. |WEB Address: www.autodesk.com
 90
    32897
280
     0
281
     0
  0
CLASS
  1
AEC_DISP_PROPS_ENT
  2
AecDbDispPropsEnt
  3
AecBase50|Product Desc: Autodesk Architectural Desktop 2007 |Company: Autodesk,Inc. |WEB Address: www.autodesk.com
 90
    32897
280
     0
281
     0
  0
CLASS
  1
AEC_DISP_PROPS_CLIP_VOLUME
  2
AecDbDispPropsClipVol
  3
AecBase50|Product Desc: Autodesk Architectural Desktop 2007 |Company: Autodesk,Inc. |WEB Address: www.autodesk.com
 90
    32897
280
     0
281
     0
  0
CLASS
  1
AEC_DISP_PROPS_SLICE
  2
AecDbDispPropsSlice
  3
AecBase50|Product Desc: Autodesk Architectural Desktop 2007 |Company: Autodesk,Inc. |WEB Address: www.autodesk.com
 90
    32897
280
     0
281
     0
  0
CLASS
  1
AEC_DISP_PROPS_ROOFSLAB_PLAN
  2
AecDbDispPropsRoofSlabPlan
  3
AecArchBase50|Product Desc: Autodesk Architectural Desktop 2007 |Company: Autodesk,Inc. |WEB Address: www.autodesk.com
 90
    32897
280
     0
281
     0
  0
CLASS
  1
AEC_DISP_PROPS_GRID_ASSEMBLY_MODEL
  2
AecDbDispPropsGridAssemblyModel
  3
AecArchBase50|Product Desc: Autodesk Architectural Desktop 2007 |Company: Autodesk,Inc. |WEB Address: www.autodesk.com
 90
    32897
280
     0
281
     0
  0
CLASS
  1
AEC_DISP_PROPS_ROOF
  2
AecDbDispPropsRoof
  3
AecArchBase50|Product Desc: Autodesk Architectural Desktop 2007 |Company: Autodesk,Inc. |WEB Address: www.autodesk.com
 90
    32897
280
     0
281
     0
  0
CLASS
  1
AEC_DISP_PROPS_SPACE_MODEL
  2
AecDbDispPropsSpaceModel
  3
AecArchBase50|Product Desc: Autodesk Architectural Desktop 2007 |Company: Autodesk,Inc. |WEB Address: www.autodesk.com
 90
    32897
280
     0
281
     0
  0
CLASS
  1
AEC_DISP_PROPS_EDITINPLACEPROFILE_MODEL
  2
AecDbDispPropsEditInPlaceProfile
  3
AecBase50|Product Desc: Autodesk Architectural Desktop 2007 |Company: Autodesk,Inc. |WEB Address: www.autodesk.com
 90
    32897
280
     0
281
     0
  0
CLASS
  1
AEC_DISP_PROPS_DOOR
  2
AecDbDispPropsDoor
  3
AecArchBase50|Product Desc: Autodesk Architectural Desktop 2007 |Company: Autodesk,Inc. |WEB Address: www.autodesk.com
 90
    32897
280
     0
281
     0
  0
CLASS
  1
AEC_DISP_PROPS_MASKBLOCK
  2
AecDbDispPropsMaskBlock
  3
AecBase50|Product Desc: Autodesk Architectural Desktop 2007 |Company: Autodesk,Inc. |WEB Address: www.autodesk.com
 90
    32897
280
     0
281
     0
  0
CLASS
  1
AEC_DISP_PROPS_SPACE_PLAN
  2
AecDbDispPropsSpacePlan
  3
AecArchBase50|Product Desc: Autodesk Architectural Desktop 2007 |Company: Autodesk,Inc. |WEB Address: www.autodesk.com
 90
    32897
280
     0
281
     0
  0
CLASS
  1
AEC_DISP_PROPS_RAILING_PLAN
  2
AecDbDispPropsRailingPlan
  3
AecArchBase50|Product Desc: Autodesk Architectural Desktop 2007 |Company: Autodesk,Inc. |WEB Address: www.autodesk.com
 90
    32897
280
     0
281
     0
  0
CLASS
  1
AEC_DISP_PROPS_LAYOUT_GRID2D
  2
AecDbDispPropsLayoutGrid2d
  3
AecBase50|Product Desc: Autodesk Architectural Desktop 2007 |Company: Autodesk,Inc. |WEB Address: www.autodesk.com
 90
    32897
280
     0
281
     0
  0
CLASS
  1
AEC_DISP_PROPS_CLIP_VOLUME_RESULT
  2
AecDbDispPropsClipVolResSubDiv
  3
AecBase50|Product Desc: Autodesk Architectural Desktop 2007 |Company: Autodesk,Inc. |WEB Address: www.autodesk.com
 90
    32897
280
     0
281
     0
  0
CLASS
  1
AEC_DISP_PROPS_STAIR_MODEL
  2
AecDbDispPropsStairModel
  3
AecArchBase50|Product Desc: Autodesk Architectural Desktop 2007 |Company: Autodesk,Inc. |WEB Address: www.autodesk.com
 90
    32897
280
     0
281
     0
  0
CLASS
  1
AEC_DISP_PROPS_LAYOUT_CURVE
  2
AecDbDispPropsLayoutCurve
  3
AecBase50|Product Desc: Autodesk Architectural Desktop 2007 |Company: Autodesk,Inc. |WEB Address: www.autodesk.com
 90
    32897
280
     0
281
     0
  0
CLASS
  1
AEC_DISP_PROPS_POLYGON_MODEL
  2
AecDbDispPropsPolygonModel
  3
AecBaseEx50|Product Desc: Autodesk Architectural Desktop 2007 |Company: Autodesk,Inc. |WEB Address: www.autodesk.com
 90
    32897
280
     0
281
     0
  0
CLASS
  1
AEC_DISP_PROPS_MASS_GROUP
  2
AecDbDispPropsMassGroup
  3
AecBaseEx50|Product Desc: Autodesk Architectural Desktop 2007 |Company: Autodesk,Inc. |WEB Address: www.autodesk.com
 90
    32897
280
     0
281
     0
  0
CLASS
  1
AEC_DISP_PROPS_STAIR_PLAN
  2
AecDbDispPropsStairPlan
  3
AecArchBase50|Product Desc: Autodesk Architectural Desktop 2007 |Company: Autodesk,Inc. |WEB Address: www.autodesk.com
 90
    32897
280
     0
281
     0
  0
CLASS
  1
AEC_DISP_PROPS_OPENING
  2
AecDbDispPropsOpening
  3
AecArchBase50|Product Desc: Autodesk Architectural Desktop 2007 |Company: Autodesk,Inc. |WEB Address: www.autodesk.com
 90
    32897
280
     0
281
     0
  0
CLASS
  1
AEC_DISP_PROPS_WALL_GRAPH
  2
AecDbDispPropsWallGraph
  3
AecArchBase50|Product Desc: Autodesk Architectural Desktop 2007 |Company: Autodesk,Inc. |WEB Address: www.autodesk.com
 90
    32897
280
     0
281
     0
  0
CLASS
  1
AEC_DISP_PROPS_DOOR_NOMINAL
  2
AecDbDispPropsDoorNominal
  3
AecArchBase50|Product Desc: Autodesk Architectural Desktop 2007 |Company: Autodesk,Inc. |WEB Address: www.autodesk.com
 90
    32897
280
     0
281
     0
  0
CLASS
  1
AEC_DISP_PROPS_SLAB
  2
AecDbDispPropsSlab
  3
AecArchBase50|Product Desc: Autodesk Architectural Desktop 2007 |Company: Autodesk,Inc. |WEB Address: www.autodesk.com
 90
    32897
280
     0
281
     0
  0
CLASS
  1
AEC_DISP_PROPS_WALL_MODEL
  2
AecDbDispPropsWallModel
  3
AecArchBase50|Product Desc: Autodesk Architectural Desktop 2007 |Company: Autodesk,Inc. |WEB Address: www.autodesk.com
 90
    32897
280
     0
281
     0
  0
CLASS
  1
AEC_DISP_PROPS_MATERIAL
  2
AecDbDispPropsMaterial
  3
AecBase50|Product Desc: Autodesk Architectural Desktop 2007 |Company: Autodesk,Inc. |WEB Address: www.autodesk.com
 90
    32897
280
     0
281
     0
  0
CLASS
  1
AEC_DISP_PROPS_WINDOW
  2
AecDbDispPropsWindow
  3
AecArchBase50|Product Desc: Autodesk Architectural Desktop 2007 |Company: Autodesk,Inc. |WEB Address: www.autodesk.com
 90
    32897
280
     0
281
     0
  0
CLASS
  1
AEC_DISP_PROPS_LAYOUT_GRID3D
  2
AecDbDispPropsLayoutGrid3d
  3
AecBase50|Product Desc: Autodesk Architectural Desktop 2007 |Company: Autodesk,Inc. |WEB Address: www.autodesk.com
 90
    32897
280
     0
281
     0
  0
CLASS
  1
AEC_DISP_PROPS_GRID_ASSEMBLY_PLAN
  2
AecDbDispPropsGridAssemblyPlan
  3
AecArchBase50|Product Desc: Autodesk Architectural Desktop 2007 |Company: Autodesk,Inc. |WEB Address: www.autodesk.com
 90
    32897
280
     0
281
     0
  0
CLASS
  1
AEC_DISP_PROPS_WALL_SCHEM
  2
AecDbDispPropsWallSchem
  3
AecArchBase50|Product Desc: Autodesk Architectural Desktop 2007 |Company: Autodesk,Inc. |WEB Address: www.autodesk.com
 90
    32897
280
     0
281
     0
  0
CLASS
  1
AEC_DISP_PROPS_WALL_PLAN
  2
AecDbDispPropsWallPlan
  3
AecArchBase50|Product Desc: Autodesk Architectural Desktop 2007 |Company: Autodesk,Inc. |WEB Address: www.autodesk.com
 90
    32897
280
     0
281
     0
  0
CLASS
  1
AEC_DISP_PROPS_SPACE_BOUNDARY
  2
AecDbDispPropsSpaceBoundary
  3
AecArchBase50|Product Desc: Autodesk Architectural Desktop 2007 |Company: Autodesk,Inc. |WEB Address: www.autodesk.com
 90
    32897
280
     0
281
     0
  0
CLASS
  1
AEC_DISP_PROPS_SLAB_PLAN
  2
AecDbDispPropsSlabPlan
  3
AecArchBase50|Product Desc: Autodesk Architectural Desktop 2007 |Company: Autodesk,Inc. |WEB Address: www.autodesk.com
 90
    32897
280
     0
281
     0
  0
CLASS
  1
AEC_DISP_PROPS_RAILING_MODEL
  2
AecDbDispPropsRailingModel
  3
AecArchBase50|Product Desc: Autodesk Architectural Desktop 2007 |Company: Autodesk,Inc. |WEB Address: www.autodesk.com
 90
    32897
280
     0
281
     0
  0
CLASS
  1
AEC_DISP_PROPS_MASS_ELEM_MODEL
  2
AecDbDispPropsMassElem
  3
AecBaseEx50|Product Desc: Autodesk Architectural Desktop 2007 |Company: Autodesk,Inc. |WEB Address: www.autodesk.com
 90
    32897
280
     0
281
     0
  0
CLASS
  1
AEC_DISP_PROPS_DIM
  2
AecDbDispPropsDimGroup
  3
AecArchDACHBase50|Product Desc: Autodesk Architectural Desktop 2007 |Company: Autodesk,Inc. |WEB Address: www.autodesk.com
 90
    32897
280
     0
281
     0
  0
CLASS
  1
AEC_DISP_PROPS_ROOFSLAB
  2
AecDbDispPropsRoofSlab
  3
AecArchBase50|Product Desc: Autodesk Architectural Desktop 2007 |Company: Autodesk,Inc. |WEB Address: www.autodesk.com
 90
    32897
280
     0
281
     0
  0
CLASS
  1
AEC_DISP_PROPS_ENT_REF
  2
AecDbDispPropsEntRef
  3
AecBase50|Product Desc: Autodesk Architectural Desktop 2007 |Company: Autodesk,Inc. |WEB Address: www.autodesk.com
 90
    32897
280
     0
281
     0
  0
CLASS
  1
AEC_DISP_PROPS_2D_SECTION
  2
AecDbDispProps2dSection
  3
AecBase50|Product Desc: Autodesk Architectural Desktop 2007 |Company: Autodesk,Inc. |WEB Address: www.autodesk.com
 90
    32897
280
     0
281
     0
  0
CLASS
  1
AECS_DISP_PROPS_MEMBER_LOGICAL
  2
AecsDbDispPropsMemberLogical
  3
AecStructureBase50|Product Desc: Autodesk Architectural Desktop 2007 |Company: Autodesk,Inc. |WEB Address: www.autodesk.com
 90
    32897
280
     0
281
     0
  0
CLASS
  1
AEC_DISP_PROPS_AREA_DECOMPOSED
  2
AecDbDispPropsAreaDecomposed
  3
AecAreaCalculationBase50|Product Desc: Autodesk Architectural Desktop 2007 |Company: Autodesk,Inc. |WEB Address: www.autodesk.com
 90
    32897
280
     0
281
     0
  0
CLASS
  1
AEC_DISP_PROPS_CAMERA
  2
AecDbDispPropsCamera
  3
AecBase50|Product Desc: Autodesk Architectural Desktop 2007 |Company: Autodesk,Inc. |WEB Address: www.autodesk.com
 90
    32897
280
     0
281
     0
  0
CLASS
  1
AECS_DISP_PROPS_MEMBER
  2
AecsDbDispPropsMember
  3
AecStructureBase50|Product Desc: Autodesk Architectural Desktop 2007 |Company: Autodesk,Inc. |WEB Address: www.autodesk.com
 90
    32897
280
     0
281
     0
  0
CLASS
  1
AECS_DISP_PROPS_MEMBER_PLAN
  2
AecsDbDispPropsMemberPlan
  3
AecStructureBase50|Product Desc: Autodesk Architectural Desktop 2007 |Company: Autodesk,Inc. |WEB Address: www.autodesk.com
 90
    32897
280
     0
281
     0
  0
CLASS
  1
AEC_DISP_PROPS_AREAGROUP
  2
AecDbDispPropsAreaGroup
  3
AecAreaCalculationBase50|Product Desc: Autodesk Architectural Desktop 2007 |Company: Autodesk,Inc. |WEB Address: www.autodesk.com
 90
    32897
280
     0
281
     0
  0
CLASS
  1
AEC_DISP_PROPS_WINDOW_NOMINAL
  2
AecDbDispPropsWindowNominal
  3
AecArchBase50|Product Desc: Autodesk Architectural Desktop 2007 |Company: Autodesk,Inc. |WEB Address: www.autodesk.com
 90
    32897
280
     0
281
     0
  0
CLASS
  1
AEC_DISP_PROPS_AREA
  2
AecDbDispPropsArea
  3
AecAreaCalculationBase50|Product Desc: Autodesk Architectural Desktop 2007 |Company: Autodesk,Inc. |WEB Address: www.autodesk.com
 90
    32897
280
     0
281
     0
  0
CLASS
  1
AEC_DISP_PROPS_SCHEDULE_TABLE
  2
AecDbDispPropsScheduleTable
  3
AecSchedule50|Product Desc: Autodesk Architectural Desktop 2007 |Company: Autodesk,Inc. |WEB Address: www.autodesk.com
 90
    32897
280
     0
281
     0
  0
CLASS
  1
AEC_LAYERKEY_STYLE
  2
AecDbLayerKeyStyle
  3
AecBase50|Product Desc: Autodesk Architectural Desktop 2007 |Company: Autodesk,Inc. |WEB Address: www.autodesk.com
 90
    32897
280
     0
281
     0
  0
CLASS
  1
AEC_VARS_ARCHBASE
  2
AecDbVarsArchBase
  3
AecArchBase50|Product Desc: Autodesk Architectural Desktop 2007 |Company: Autodesk,Inc. |WEB Address: www.autodesk.com
 90
    32897
280
     0
281
     0
  0
CLASS
  1
AEC_VARS_MUNICH
  2
AecDbVarsMunich
  3
AecArchDACHBase50|Product Desc: Autodesk Architectural Desktop 2007 |Company: Autodesk,Inc. |WEB Address: www.autodesk.com
 90
    32897
280
     0
281
     0
  0
CLASS
  1
AEC_NOTIFICATION_TRACKER
  2
AecDbNotificationTracker
  3
AecBase50|Product Desc: Autodesk Architectural Desktop 2007 |Company: Autodesk,Inc. |WEB Address: www.autodesk.com
 90
    32897
280
     0
281
     0
  0
CLASS
  1
AEC_DISP_REP_ANCHOR
  2
AecDbDispRepAnchor
  3
AecBase50|Product Desc: Autodesk Architectural Desktop 2007 |Company: Autodesk,Inc. |WEB Address: www.autodesk.com
 90
    32897
280
     0
281
     0
  0
CLASS
  1
AEC_DISP_REP_POLYGON_TRUECOLOUR
  2
AecDbDispRepPolygonTrueColour
  3
AecBaseEx50|Product Desc: Autodesk Architectural Desktop 2007 |Company: Autodesk,Inc. |WEB Address: www.autodesk.com
 90
    32897
280
     0
281
     0
  0
CLASS
  1
AEC_DISP_PROPS_POLYGON_TRUECOLOUR
  2
AecDbDispPropsPolygonTrueColour
  3
AecBaseEx50|Product Desc: Autodesk Architectural Desktop 2007 |Company: Autodesk,Inc. |WEB Address: www.autodesk.com
 90
    32897
280
     0
281
     0
  0
CLASS
  1
AEC_DISP_REP_BDG_ELEVLINE_RCP
  2
AecDbDispRepBdgElevLineRcp
  3
AecArchBase50|Product Desc: Autodesk Architectural Desktop 2007 |Company: Autodesk,Inc. |WEB Address: www.autodesk.com
 90
    32897
280
     0
281
     0
  0
CLASS
  1
AEC_DISP_REP_BDG_SECTIONLINE_RCP
  2
AecDbDispRepBdgSectionLineRcp
  3
AecArchBase50|Product Desc: Autodesk Architectural Desktop 2007 |Company: Autodesk,Inc. |WEB Address: www.autodesk.com
 90
    32897
280
     0
281
     0
  0
CLASS
  1
AEC_DISP_REP_BDG_SECTION_MODEL
  2
AecDbDispRepBdgSectionModel
  3
AecArchBase50|Product Desc: Autodesk Architectural Desktop 2007 |Company: Autodesk,Inc. |WEB Address: www.autodesk.com
 90
    32897
280
     0
281
     0
  0
CLASS
  1
AEC_DISP_REP_DOOR_ELEV
  2
AecDbDispRepDoorElev
  3
AecArchBase50|Product Desc: Autodesk Architectural Desktop 2007 |Company: Autodesk,Inc. |WEB Address: www.autodesk.com
 90
    32897
280
     0
281
     0
  0
CLASS
  1
AEC_DISP_REP_DOOR_RCP
  2
AecDbDispRepDoorRcp
  3
AecArchBase50|Product Desc: Autodesk Architectural Desktop 2007 |Company: Autodesk,Inc. |WEB Address: www.autodesk.com
 90
    32897
280
     0
281
     0
  0
CLASS
  1
AEC_DISP_REP_DOOR_THRESHOLD_PLAN
  2
AecDbDispRepDoorThresholdPlan
  3
AecArchBase50|Product Desc: Autodesk Architectural Desktop 2007 |Company: Autodesk,Inc. |WEB Address: www.autodesk.com
 90
    32897
280
     0
281
     0
  0
CLASS
  1
AEC_DISP_PROPS_DOOR_THRESHOLD_PLAN
  2
AecDbDispPropsDoorThresholdPlan
  3
AecArchBase50|Product Desc: Autodesk Architectural Desktop 2007 |Company: Autodesk,Inc. |WEB Address: www.autodesk.com
 90
    32897
280
     0
281
     0
  0
CLASS
  1
AEC_DISP_REP_MASS_ELEM_RCP
  2
AecDbDispRepMassElemRcp
  3
AecArchBase50|Product Desc: Autodesk Architectural Desktop 2007 |Company: Autodesk,Inc. |WEB Address: www.autodesk.com
 90
    32897
280
     0
281
     0
  0
CLASS
  1
AEC_DISP_REP_MASS_GROUP_RCP
  2
AecDbDispRepMassGroupRcp
  3
AecArchBase50|Product Desc: Autodesk Architectural Desktop 2007 |Company: Autodesk,Inc. |WEB Address: www.autodesk.com
 90
    32897
280
     0
281
     0
  0
CLASS
  1
AEC_DISP_REP_MVBLOCK_REF_RCP
  2
AecDbDispRepMvBlockRefRcp
  3
AecArchBase50|Product Desc: Autodesk Architectural Desktop 2007 |Company: Autodesk,Inc. |WEB Address: www.autodesk.com
 90
    32897
280
     0
281
     0
  0
CLASS
  1
AEC_DISP_REP_ROOF_RCP
  2
AecDbDispRepRoofRcp
  3
AecArchBase50|Product Desc: Autodesk Architectural Desktop 2007 |Company: Autodesk,Inc. |WEB Address: www.autodesk.com
 90
    32897
280
     0
281
     0
  0
CLASS
  1
AEC_DISP_REP_SPACE_BOUNDARY_DIAGRAM
  2
AecDbDispRepSpaceBoundaryDgrm
  3
AecArchBase50|Product Desc: Autodesk Architectural Desktop 2007 |Company: Autodesk,Inc. |WEB Address: www.autodesk.com
 90
    32897
280
     0
281
     0
  0
CLASS
  1
AEC_DISP_REP_SPACE_RCP
  2
AecDbDispRepSpaceRcp
  3
AecArchBase50|Product Desc: Autodesk Architectural Desktop 2007 |Company: Autodesk,Inc. |WEB Address: www.autodesk.com
 90
    32897
280
     0
281
     0
  0
CLASS
  1
AEC_DISP_REP_SPACE_VOLUME
  2
AecDbDispRepSpaceVolume
  3
AecArchBase50|Product Desc: Autodesk Architectural Desktop 2007 |Company: Autodesk,Inc. |WEB Address: www.autodesk.com
 90
    32897
280
     0
281
     0
  0
CLASS
  1
AEC_DISP_REP_STAIR_PLAN_OVERLAPPING
  2
AecDbDispRepStairPlanOverlapping
  3
AecArchBase50|Product Desc: Autodesk Architectural Desktop 2007 |Company: Autodesk,Inc. |WEB Address: www.autodesk.com
 90
    32897
280
     0
281
     0
  0
CLASS
  1
AEC_DISP_PROPS_STAIR_PLAN_OVERLAPPING
  2
AecDbDispPropsStairPlanOverlapping
  3
AecArchBase50|Product Desc: Autodesk Architectural Desktop 2007 |Company: Autodesk,Inc. |WEB Address: www.autodesk.com
 90
    32897
280
     0
281
     0
  0
CLASS
  1
AEC_DISP_REP_STAIR_RCP
  2
AecDbDispRepStairRcp
  3
AecArchBase50|Product Desc: Autodesk Architectural Desktop 2007 |Company: Autodesk,Inc. |WEB Address: www.autodesk.com
 90
    32897
280
     0
281
     0
  0
CLASS
  1
AEC_DISP_REP_WALL_RCP
  2
AecDbDispRepWallRcp
  3
AecArchBase50|Product Desc: Autodesk Architectural Desktop 2007 |Company: Autodesk,Inc. |WEB Address: www.autodesk.com
 90
    32897
280
     0
281
     0
  0
CLASS
  1
AEC_DISP_REP_WINDOWASSEMBLY_SILL_PLAN
  2
AecDbDispRepWindowAssemblySillPlan
  3
AecArchBase50|Product Desc: Autodesk Architectural Desktop 2007 |Company: Autodesk,Inc. |WEB Address: www.autodesk.com
 90
    32897
280
     0
281
     0
  0
CLASS
  1
AEC_DISP_PROPS_WINDOW_ASSEMBLY_SILL_PLAN
  2
AecDbDispPropsWindowAssemblySillPlan
  3
AecArchBase50|Product Desc: Autodesk Architectural Desktop 2007 |Company: Autodesk,Inc. |WEB Address: www.autodesk.com
 90
    32897
280
     0
281
     0
  0
CLASS
  1
AEC_DISP_REP_WINDOW_ELEV
  2
AecDbDispRepWindowElev
  3
AecArchBase50|Product Desc: Autodesk Architectural Desktop 2007 |Company: Autodesk,Inc. |WEB Address: www.autodesk.com
 90
    32897
280
     0
281
     0
  0
CLASS
  1
AEC_DISP_REP_WINDOW_RCP
  2
AecDbDispRepWindowRcp
  3
AecArchBase50|Product Desc: Autodesk Architectural Desktop 2007 |Company: Autodesk,Inc. |WEB Address: www.autodesk.com
 90
    32897
280
     0
281
     0
  0
CLASS
  1
AEC_DISP_REP_WINDOW_SILL_PLAN
  2
AecDbDispRepWindowSillPlan
  3
AecArchBase50|Product Desc: Autodesk Architectural Desktop 2007 |Company: Autodesk,Inc. |WEB Address: www.autodesk.com
 90
    32897
280
     0
281
     0
  0
CLASS
  1
AEC_DISP_PROPS_WINDOW_SILL_PLAN
  2
AecDbDispPropsWindowSillPlan
  3
AecArchBase50|Product Desc: Autodesk Architectural Desktop 2007 |Company: Autodesk,Inc. |WEB Address: www.autodesk.com
 90
    32897
280
     0
281
     0
  0
CLASS
  1
AEC_DISP_REP_ANCHOR_BUB_TO_GRID_RCP
  2
AecDbDispRepAnchorBubToGridRcp
  3
AecStructureBase50|Product Desc: Autodesk Architectural Desktop 2007 |Company: Autodesk,Inc. |WEB Address: www.autodesk.com
 90
    32897
280
     0
281
     0
  0
CLASS
  1
AEC_DISP_REP_COLUMN_GRID_RCP
  2
AecDbDispRepColumnGridRcp
  3
AecStructureBase50|Product Desc: Autodesk Architectural Desktop 2007 |Company: Autodesk,Inc. |WEB Address: www.autodesk.com
 90
    32897
280
     0
281
     0
  0
CLASS
  1
AECS_DISP_REP_MEMBER_ELEVATION_DESIGN
  2
AecsDbDispRepMemberElevationDesign
  3
AecStructureBase50|Product Desc: Autodesk Architectural Desktop 2007 |Company: Autodesk,Inc. |WEB Address: www.autodesk.com
 90
    32897
280
     0
281
     0
  0
CLASS
  1
AECS_DISP_PROPS_MEMBER_PROJECTED
  2
AecsDbDispPropsMemberProjected
  3
AecStructureBase50|Product Desc: Autodesk Architectural Desktop 2007 |Company: Autodesk,Inc. |WEB Address: www.autodesk.com
 90
    32897
280
     0
281
     0
  0
CLASS
  1
AECS_DISP_REP_MEMBER_ELEVATION_DETAIL
  2
AecsDbDispRepMemberElevationDetail
  3
AecStructureBase50|Product Desc: Autodesk Architectural Desktop 2007 |Company: Autodesk,Inc. |WEB Address: www.autodesk.com
 90
    32897
280
     0
281
     0
  0
CLASS
  1
AECS_DISP_REP_MEMBER_MODEL_DETAIL
  2
AecsDbDispRepMemberModelDetail
  3
AecStructureBase50|Product Desc: Autodesk Architectural Desktop 2007 |Company: Autodesk,Inc. |WEB Address: www.autodesk.com
 90
    32897
280
     0
281
     0
  0
CLASS
  1
AECS_DISP_REP_MEMBER_PLAN_DETAIL
  2
AecsDbDispRepMemberPlanDetail
  3
AecStructureBase50|Product Desc: Autodesk Architectural Desktop 2007 |Company: Autodesk,Inc. |WEB Address: www.autodesk.com
 90
    32897
280
     0
281
     0
  0
CLASS
  1
AECS_DISP_REP_MEMBER_PLAN_SKETCH
  2
AecsDbDispRepMemberPlanSketch
  3
AecStructureBase50|Product Desc: Autodesk Architectural Desktop 2007 |Company: Autodesk,Inc. |WEB Address: www.autodesk.com
 90
    32897
280
     0
281
     0
  0
CLASS
  1
AECS_DISP_PROPS_MEMBER_PLAN_SKETCH
  2
AecsDbDispPropsMemberPlanSketch
  3
AecStructureBase50|Product Desc: Autodesk Architectural Desktop 2007 |Company: Autodesk,Inc. |WEB Address: www.autodesk.com
 90
    32897
280
     0
281
     0
  0
CLASS
  1
AEC_AECDBDISPREPAREA100
  2
AecDbDispRepArea100
  3
AecArchDACHBase50|Product Desc: Autodesk Architectural Desktop 2007 |Company: Autodesk,Inc. |WEB Address: www.autodesk.com
 90
    32897
280
     0
281
     0
  0
CLASS
  1
AEC_AECDBDISPREPAREAGROUP100
  2
AecDbDispRepAreaGroup100
  3
AecArchDACHBase50|Product Desc: Autodesk Architectural Desktop 2007 |Company: Autodesk,Inc. |WEB Address: www.autodesk.com
 90
    32897
280
     0
281
     0
  0
CLASS
  1
AEC_AECDBDISPREPBDGELEVLINEPLAN100
  2
AecDbDispRepBdgElevLinePlan100
  3
AecArchDACHBase50|Product Desc: Autodesk Architectural Desktop 2007 |Company: Autodesk,Inc. |WEB Address: www.autodesk.com
 90
    32897
280
     0
281
     0
  0
CLASS
  1
AEC_AECDBDISPREPBDGSECTIONLINEPLAN100
  2
AecDbDispRepBdgSectionLinePlan100
  3
AecArchDACHBase50|Product Desc: Autodesk Architectural Desktop 2007 |Company: Autodesk,Inc. |WEB Address: www.autodesk.com
 90
    32897
280
     0
281
     0
  0
CLASS
  1
AEC_AECDBDISPREPCEILINGGRIDPLAN100
  2
AecDbDispRepCeilingGridPlan100
  3
AecArchDACHBase50|Product Desc: Autodesk Architectural Desktop 2007 |Company: Autodesk,Inc. |WEB Address: www.autodesk.com
 90
    32897
280
     0
281
     0
  0
CLASS
  1
AEC_AECDBDISPREPCOLUMNGRIDPLAN100
  2
AecDbDispRepColumnGridPlan100
  3
AecArchDACHBase50|Product Desc: Autodesk Architectural Desktop 2007 |Company: Autodesk,Inc. |WEB Address: www.autodesk.com
 90
    32897
280
     0
281
     0
  0
CLASS
  1
AEC_AECDBDISPREPCURTAINWALLLAYOUTPLAN100
  2
AecDbDispRepCurtainWallLayoutPlan100
  3
AecArchDACHBase50|Product Desc: Autodesk Architectural Desktop 2007 |Company: Autodesk,Inc. |WEB Address: www.autodesk.com
 90
    32897
280
     0
281
     0
  0
CLASS
  1
AEC_AECDBDISPREPCURTAINWALLUNITPLAN100
  2
AecDbDispRepCurtainWallUnitPlan100
  3
AecArchDACHBase50|Product Desc: Autodesk Architectural Desktop 2007 |Company: Autodesk,Inc. |WEB Address: www.autodesk.com
 90
    32897
280
     0
281
     0
  0
CLASS
  1
AEC_AECDBDISPREPMVBLOCKREFPLAN100
  2
AecDbDispRepMvBlockRefPlan100
  3
AecArchDACHBase50|Product Desc: Autodesk Architectural Desktop 2007 |Company: Autodesk,Inc. |WEB Address: www.autodesk.com
 90
    32897
280
     0
281
     0
  0
CLASS
  1
AEC_AECDBDISPREPROOFPLAN100
  2
AecDbDispRepRoofPlan100
  3
AecArchDACHBase50|Product Desc: Autodesk Architectural Desktop 2007 |Company: Autodesk,Inc. |WEB Address: www.autodesk.com
 90
    32897
280
     0
281
     0
  0
CLASS
  1
AEC_AECDBDISPREPROOFSLABPLAN100
  2
AecDbDispRepRoofSlabPlan100
  3
AecArchDACHBase50|Product Desc: Autodesk Architectural Desktop 2007 |Company: Autodesk,Inc. |WEB Address: www.autodesk.com
 90
    32897
280
     0
281
     0
  0
CLASS
  1
AEC_AECDBDISPREPSLABPLAN100
  2
AecDbDispRepSlabPlan100
  3
AecArchDACHBase50|Product Desc: Autodesk Architectural Desktop 2007 |Company: Autodesk,Inc. |WEB Address: www.autodesk.com
 90
    32897
280
     0
281
     0
  0
CLASS
  1
AEC_AECDBDISPREPSPACEBOUNDARYPLAN100
  2
AecDbDispRepSpaceBoundaryPlan100
  3
AecArchDACHBase50|Product Desc: Autodesk Architectural Desktop 2007 |Company: Autodesk,Inc. |WEB Address: www.autodesk.com
 90
    32897
280
     0
281
     0
  0
CLASS
  1
AEC_AECDBDISPREPSPACEPLAN100
  2
AecDbDispRepSpacePlan100
  3
AecArchDACHBase50|Product Desc: Autodesk Architectural Desktop 2007 |Company: Autodesk,Inc. |WEB Address: www.autodesk.com
 90
    32897
280
     0
281
     0
  0
CLASS
  1
AEC_AECDBDISPREPWALLPLAN100
  2
AecDbDispRepWallPlan100
  3
AecArchDACHBase50|Product Desc: Autodesk Architectural Desktop 2007 |Company: Autodesk,Inc. |WEB Address: www.autodesk.com
 90
    32897
280
     0
281
     0
  0
CLASS
  1
AEC_AECDBDISPREPAREA50
  2
AecDbDispRepArea50
  3
AecArchDACHBase50|Product Desc: Autodesk Architectural Desktop 2007 |Company: Autodesk,Inc. |WEB Address: www.autodesk.com
 90
    32897
280
     0
281
     0
  0
CLASS
  1
AEC_AECDBDISPREPAREAGROUP50
  2
AecDbDispRepAreaGroup50
  3
AecArchDACHBase50|Product Desc: Autodesk Architectural Desktop 2007 |Company: Autodesk,Inc. |WEB Address: www.autodesk.com
 90
    32897
280
     0
281
     0
  0
CLASS
  1
AEC_AECDBDISPREPBDGELEVLINEPLAN50
  2
AecDbDispRepBdgElevLinePlan50
  3
AecArchDACHBase50|Product Desc: Autodesk Architectural Desktop 2007 |Company: Autodesk,Inc. |WEB Address: www.autodesk.com
 90
    32897
280
     0
281
     0
  0
CLASS
  1
AEC_AECDBDISPREPBDGSECTIONLINEPLAN50
  2
AecDbDispRepBdgSectionLinePlan50
  3
AecArchDACHBase50|Product Desc: Autodesk Architectural Desktop 2007 |Company: Autodesk,Inc. |WEB Address: www.autodesk.com
 90
    32897
280
     0
281
     0
  0
CLASS
  1
AEC_AECDBDISPREPCEILINGGRIDPLAN50
  2
AecDbDispRepCeilingGridPlan50
  3
AecArchDACHBase50|Product Desc: Autodesk Architectural Desktop 2007 |Company: Autodesk,Inc. |WEB Address: www.autodesk.com
 90
    32897
280
     0
281
     0
  0
CLASS
  1
AEC_AECDBDISPREPCOLUMNGRIDPLAN50
  2
AecDbDispRepColumnGridPlan50
  3
AecArchDACHBase50|Product Desc: Autodesk Architectural Desktop 2007 |Company: Autodesk,Inc. |WEB Address: www.autodesk.com
 90
    32897
280
     0
281
     0
  0
CLASS
  1
AEC_AECDBDISPREPCURTAINWALLLAYOUTPLAN50
  2
AecDbDispRepCurtainWallLayoutPlan50
  3
AecArchDACHBase50|Product Desc: Autodesk Architectural Desktop 2007 |Company: Autodesk,Inc. |WEB Address: www.autodesk.com
 90
    32897
280
     0
281
     0
  0
CLASS
  1
AEC_AECDBDISPREPCURTAINWALLUNITPLAN50
  2
AecDbDispRepCurtainWallUnitPlan50
  3
AecArchDACHBase50|Product Desc: Autodesk Architectural Desktop 2007 |Company: Autodesk,Inc. |WEB Address: www.autodesk.com
 90
    32897
280
     0
281
     0
  0
CLASS
  1
AEC_AECDBDISPREPMVBLOCKREFPLAN50
  2
AecDbDispRepMvBlockRefPlan50
  3
AecArchDACHBase50|Product Desc: Autodesk Architectural Desktop 2007 |Company: Autodesk,Inc. |WEB Address: www.autodesk.com
 90
    32897
280
     0
281
     0
  0
CLASS
  1
AEC_AECDBDISPREPROOFPLAN50
  2
AecDbDispRepRoofPlan50
  3
AecArchDACHBase50|Product Desc: Autodesk Architectural Desktop 2007 |Company: Autodesk,Inc. |WEB Address: www.autodesk.com
 90
    32897
280
     0
281
     0
  0
CLASS
  1
AEC_AECDBDISPREPROOFSLABPLAN50
  2
AecDbDispRepRoofSlabPlan50
  3
AecArchDACHBase50|Product Desc: Autodesk Architectural Desktop 2007 |Company: Autodesk,Inc. |WEB Address: www.autodesk.com
 90
    32897
280
     0
281
     0
  0
CLASS
  1
AEC_AECDBDISPREPSLABPLAN50
  2
AecDbDispRepSlabPlan50
  3
AecArchDACHBase50|Product Desc: Autodesk Architectural Desktop 2007 |Company: Autodesk,Inc. |WEB Address: www.autodesk.com
 90
    32897
280
     0
281
     0
  0
CLASS
  1
AEC_AECDBDISPREPSPACEBOUNDARYPLAN50
  2
AecDbDispRepSpaceBoundaryPlan50
  3
AecArchDACHBase50|Product Desc: Autodesk Architectural Desktop 2007 |Company: Autodesk,Inc. |WEB Address: www.autodesk.com
 90
    32897
280
     0
281
     0
  0
CLASS
  1
AEC_AECDBDISPREPSPACEPLAN50
  2
AecDbDispRepSpacePlan50
  3
AecArchDACHBase50|Product Desc: Autodesk Architectural Desktop 2007 |Company: Autodesk,Inc. |WEB Address: www.autodesk.com
 90
    32897
280
     0
281
     0
  0
CLASS
  1
AEC_AECDBDISPREPWALLPLAN50
  2
AecDbDispRepWallPlan50
  3
AecArchDACHBase50|Product Desc: Autodesk Architectural Desktop 2007 |Company: Autodesk,Inc. |WEB Address: www.autodesk.com
 90
    32897
280
     0
281
     0
  0
CLASS
  1
AEC_AECDBDISPREPWINDOWASSEMBLYPLAN50
  2
AecDbDispRepWindowAssemblyPlan50
  3
AecArchDACHBase50|Product Desc: Autodesk Architectural Desktop 2007 |Company: Autodesk,Inc. |WEB Address: www.autodesk.com
 90
    32897
280
     0
281
     0
  0
CLASS
  1
AEC_DB_DISP_REP_DIM_GROUP_PLAN100
  2
AecDbDispRepDimGroupPlan100
  3
AecArchDACHBase50|Product Desc: Autodesk Architectural Desktop 2007 |Company: Autodesk,Inc. |WEB Address: www.autodesk.com
 90
    32897
280
     0
281
     0
  0
CLASS
  1
AEC_DB_DISP_REP_DIM_GROUP_PLAN50
  2
AecDbDispRepDimGroupPlan50
  3
AecArchDACHBase50|Product Desc: Autodesk Architectural Desktop 2007 |Company: Autodesk,Inc. |WEB Address: www.autodesk.com
 90
    32897
280
     0
281
     0
  0
CLASS
  1
AEC_DISP_REP_DOOR_PLAN_50
  2
AecDbDispRepDoorPlan50
  3
AecArchDACHBase50|Product Desc: Autodesk Architectural Desktop 2007 |Company: Autodesk,Inc. |WEB Address: www.autodesk.com
 90
    32897
280
     0
281
     0
  0
CLASS
  1
AEC_DISP_PROPS_DOOR_PLAN_50
  2
AecDbDispPropsDoorPlan50
  3
AecArchDACHBase50|Product Desc: Autodesk Architectural Desktop 2007 |Company: Autodesk,Inc. |WEB Address: www.autodesk.com
 90
    32897
280
     0
281
     0
  0
CLASS
  1
AEC_DISP_REP_DOOR_PLAN_HEKTO
  2
AecDbDispRepDoorPlanHekto
  3
AecArchDACHBase50|Product Desc: Autodesk Architectural Desktop 2007 |Company: Autodesk,Inc. |WEB Address: www.autodesk.com
 90
    32897
280
     0
281
     0
  0
CLASS
  1
AEC_DISP_PROPS_DOOR_PLAN_100
  2
AecDbDispPropsDoorPlan100
  3
AecArchDACHBase50|Product Desc: Autodesk Architectural Desktop 2007 |Company: Autodesk,Inc. |WEB Address: www.autodesk.com
 90
    32897
280
     0
281
     0
  0
CLASS
  1
AEC_DISP_REP_DOOR_THRESHOLD_SYMBOL_PLAN
  2
AecDbDispRepDoorThresholdSymbolPlan
  3
AecArchDACHBase50|Product Desc: Autodesk Architectural Desktop 2007 |Company: Autodesk,Inc. |WEB Address: www.autodesk.com
 90
    32897
280
     0
281
     0
  0
CLASS
  1
AEC_DISP_PROPS_DOOR_THRESHOLD_SYMBOL_PLAN
  2
AecDbDispPropsDoorThresholdSymbolPlan
  3
AecArchDACHBase50|Product Desc: Autodesk Architectural Desktop 2007 |Company: Autodesk,Inc. |WEB Address: www.autodesk.com
 90
    32897
280
     0
281
     0
  0
CLASS
  1
AEC_DISPREPAECDBDISPREPMASSELEMPLAN100
  2
AecDbDispRepMassElemPlan100
  3
AecArchDACHBase50|Product Desc: Autodesk Architectural Desktop 2007 |Company: Autodesk,Inc. |WEB Address: www.autodesk.com
 90
    32897
280
     0
281
     0
  0
CLASS
  1
AEC_DISPROPSMASSELEMPLANCOMMON
  2
AecDbDispPropsMassElemPlanCommon
  3
AecArchDACHBase50|Product Desc: Autodesk Architectural Desktop 2007 |Company: Autodesk,Inc. |WEB Address: www.autodesk.com
 90
    32897
280
     0
281
     0
  0
CLASS
  1
AEC_DISPREPAECDBDISPREPMASSELEMPLAN50
  2
AecDbDispRepMassElemPlan50
  3
AecArchDACHBase50|Product Desc: Autodesk Architectural Desktop 2007 |Company: Autodesk,Inc. |WEB Address: www.autodesk.com
 90
    32897
280
     0
281
     0
  0
CLASS
  1
AEC_DISPREPAECDBDISPREPMASSGROUPPLAN100
  2
AecDbDispRepMassGroupPlan100
  3
AecArchDACHBase50|Product Desc: Autodesk Architectural Desktop 2007 |Company: Autodesk,Inc. |WEB Address: www.autodesk.com
 90
    32897
280
     0
281
     0
  0
CLASS
  1
AEC_DISPROPSMASSGROUPPLANCOMMON
  2
AecDbDispPropsMassGroupPlanCommon
  3
AecArchDACHBase50|Product Desc: Autodesk Architectural Desktop 2007 |Company: Autodesk,Inc. |WEB Address: www.autodesk.com
 90
    32897
280
     0
281
     0
  0
CLASS
  1
AEC_DISPREPAECDBDISPREPMASSGROUPPLAN50
  2
AecDbDispRepMassGroupPlan50
  3
AecArchDACHBase50|Product Desc: Autodesk Architectural Desktop 2007 |Company: Autodesk,Inc. |WEB Address: www.autodesk.com
 90
    32897
280
     0
281
     0
  0
CLASS
  1
AEC_DISPREPAECDBDISPREPOPENINGPLAN100
  2
AecDbDispRepOpeningPlan100
  3
AecArchDACHBase50|Product Desc: Autodesk Architectural Desktop 2007 |Company: Autodesk,Inc. |WEB Address: www.autodesk.com
 90
    32897
280
     0
281
     0
  0
CLASS
  1
AEC_DISPROPSOPENINGPLANCOMMONHATCHED
  2
AecDbDispPropsOpeningPlanCommonHatched
  3
AecArchDACHBase50|Product Desc: Autodesk Architectural Desktop 2007 |Company: Autodesk,Inc. |WEB Address: www.autodesk.com
 90
    32897
280
     0
281
     0
  0
CLASS
  1
AEC_DISPREPAECDBDISPREPOPENINGPLAN50
  2
AecDbDispRepOpeningPlan50
  3
AecArchDACHBase50|Product Desc: Autodesk Architectural Desktop 2007 |Company: Autodesk,Inc. |WEB Address: www.autodesk.com
 90
    32897
280
     0
281
     0
  0
CLASS
  1
AEC_DISPREPAECDBDISPREPOPENINGPLANREFLECTED
  2
AecDbDispRepOpeningPlanReflected
  3
AecArchDACHBase50|Product Desc: Autodesk Architectural Desktop 2007 |Company: Autodesk,Inc. |WEB Address: www.autodesk.com
 90
    32897
280
     0
281
     0
  0
CLASS
  1
AEC_DISPROPSOPENINGPLANCOMMON
  2
AecDbDispPropsOpeningPlanCommon
  3
AecArchDACHBase50|Product Desc: Autodesk Architectural Desktop 2007 |Company: Autodesk,Inc. |WEB Address: www.autodesk.com
 90
    32897
280
     0
281
     0
  0
CLASS
  1
AEC_DISPREPAECDBDISPREPOPENINGSILLPLAN
  2
AecDbDispRepOpeningSillPlan
  3
AecArchDACHBase50|Product Desc: Autodesk Architectural Desktop 2007 |Company: Autodesk,Inc. |WEB Address: www.autodesk.com
 90
    32897
280
     0
281
     0
  0
CLASS
  1
AEC_DISPROPSOPENINGSILLPLAN
  2
AecDbDispPropsOpeningSillPlan
  3
AecArchDACHBase50|Product Desc: Autodesk Architectural Desktop 2007 |Company: Autodesk,Inc. |WEB Address: www.autodesk.com
 90
    32897
280
     0
281
     0
  0
CLASS
  1
AEC_DISP_REP_RAILING_PLAN_100
  2
AecDbDispRepRailingPlan100
  3
AecArchDACHBase50|Product Desc: Autodesk Architectural Desktop 2007 |Company: Autodesk,Inc. |WEB Address: www.autodesk.com
 90
    32897
280
     0
281
     0
  0
CLASS
  1
AEC_DISP_ROPS_RAILING_PLAN_100
  2
AecDbDispPropsRailingPlan100
  3
AecArchDACHBase50|Product Desc: Autodesk Architectural Desktop 2007 |Company: Autodesk,Inc. |WEB Address: www.autodesk.com
 90
    32897
280
     0
281
     0
  0
CLASS
  1
AEC_DISP_REP_RAILING_PLAN_50
  2
AecDbDispRepRailingPlan50
  3
AecArchDACHBase50|Product Desc: Autodesk Architectural Desktop 2007 |Company: Autodesk,Inc. |WEB Address: www.autodesk.com
 90
    32897
280
     0
281
     0
  0
CLASS
  1
AEC_DISP_ROPS_RAILING_PLAN_50
  2
AecDbDispPropsRailingPlan50
  3
AecArchDACHBase50|Product Desc: Autodesk Architectural Desktop 2007 |Company: Autodesk,Inc. |WEB Address: www.autodesk.com
 90
    32897
280
     0
281
     0
  0
CLASS
  1
AEC_DISP_REP_STAIR_PLAN_100
  2
AecDbDispRepStairPlan100
  3
AecArchDACHBase50|Product Desc: Autodesk Architectural Desktop 2007 |Company: Autodesk,Inc. |WEB Address: www.autodesk.com
 90
    32897
280
     0
281
     0
  0
CLASS
  1
AEC_DISP_ROPS_STAIR_PLAN_100
  2
AecDbDispPropsStairPlan100
  3
AecArchDACHBase50|Product Desc: Autodesk Architectural Desktop 2007 |Company: Autodesk,Inc. |WEB Address: www.autodesk.com
 90
    32897
280
     0
281
     0
  0
CLASS
  1
AEC_DISP_REP_STAIR_PLAN_50
  2
AecDbDispRepStairPlan50
  3
AecArchDACHBase50|Product Desc: Autodesk Architectural Desktop 2007 |Company: Autodesk,Inc. |WEB Address: www.autodesk.com
 90
    32897
280
     0
281
     0
  0
CLASS
  1
AEC_DISP_ROPS_STAIR_PLAN_50
  2
AecDbDispPropsStairPlan50
  3
AecArchDACHBase50|Product Desc: Autodesk Architectural Desktop 2007 |Company: Autodesk,Inc. |WEB Address: www.autodesk.com
 90
    32897
280
     0
281
     0
  0
CLASS
  1
AEC_DISP_REP_WINDOW_PLAN_100
  2
AecDbDispRepWindowPlan100
  3
AecArchDACHBase50|Product Desc: Autodesk Architectural Desktop 2007 |Company: Autodesk,Inc. |WEB Address: www.autodesk.com
 90
    32897
280
     0
281
     0
  0
CLASS
  1
AEC_DISP_PROPS_WINDOW_PLAN_100
  2
AecDbDispPropsWindowPlan100
  3
AecArchDACHBase50|Product Desc: Autodesk Architectural Desktop 2007 |Company: Autodesk,Inc. |WEB Address: www.autodesk.com
 90
    32897
280
     0
281
     0
  0
CLASS
  1
AEC_DISP_REP_WINDOW_PLAN_50
  2
AecDbDispRepWindowPlan50
  3
AecArchDACHBase50|Product Desc: Autodesk Architectural Desktop 2007 |Company: Autodesk,Inc. |WEB Address: www.autodesk.com
 90
    32897
280
     0
281
     0
  0
CLASS
  1
AEC_DISP_PROPS_WINDOW_PLAN_50
  2
AecDbDispPropsWindowPlan50
  3
AecArchDACHBase50|Product Desc: Autodesk Architectural Desktop 2007 |Company: Autodesk,Inc. |WEB Address: www.autodesk.com
 90
    32897
280
     0
281
     0
  0
CLASS
  1
BINRECORD
  2
AcAecBinRecord
  3
AecBase50|Product Desc: Autodesk Architectural Desktop 2007 |Company: Autodesk,Inc. |WEB Address: www.autodesk.com
 90
    32897
280
     0
281
     0
  0
CLASS
  1
SPATIAL_FILTER
  2
AcDbSpatialFilter
  3
ObjectDBX Classes
 90
    32768
280
     0
281
     0
  0
CLASS
  1
AEC_VARS_STRUCTUREBASE
  2
AecsDbVarsStructureBase
  3
AecStructureBase50|Product Desc: Autodesk Architectural Desktop 2007 |Company: Autodesk,Inc. |WEB Address: www.autodesk.com
 90
    32897
280
     0
281
     0
  0
CLASS
  1
DIMASSOC
  2
AcDbDimAssoc
  3
"AcDbDimAssoc|Product Desc:     AcDim ARX App For Dimension|Company:          Autodesk, Inc.|WEB Address:      www.autodesk.com"
 90
    32768
280
     0
281
     0
  0
CLASS
  1
TABLESTYLE
  2
AcDbTableStyle
  3
ObjectDBX Classes
 90
     4095
280
     0
281
     0
  0
CLASS
  1
MATERIAL
  2
AcDbMaterial
  3
ObjectDBX Classes
 90
     1153
280
     0
281
     0
  0
CLASS
  1
VISUALSTYLE
  2
AcDbVisualStyle
  3
ObjectDBX Classes
 90
     4095
280
     0
281
     0
  0
CLASS
  1
EXACXREFPANELOBJECT
  2
ExAcXREFPanelObject
  3
EXAC_ESW
 90
    33793
280
     0
281
     0
  0
CLASS
  1
NPOCOLLECTION
  2
AcDbImpNonPersistentObjectsCollection
  3
ObjectDBX Classes
 90
    33921
280
     0
281
     0
  0
CLASS
  1
AEC_AECDBDISPREPZONE100
  2
AecDbDispRepZonePlan100
  3
AecArchDACHBase50|Product Desc: Autodesk Architectural Desktop 2007 |Company: Autodesk,Inc. |WEB Address: www.autodesk.com
 90
    32897
280
     0
281
     0
  0
CLASS
  1
AEC_DISP_PROPS_ZONE
  2
AecDbDispPropsZone
  3
AecArchBase50|Product Desc: Autodesk Architectural Desktop 2007 |Company: Autodesk,Inc. |WEB Address: www.autodesk.com
 90
    32897
280
     0
281
     0
  0
CLASS
  1
AEC_AECDBDISPREPZONE50
  2
AecDbDispRepZonePlan50
  3
AecArchDACHBase50|Product Desc: Autodesk Architectural Desktop 2007 |Company: Autodesk,Inc. |WEB Address: www.autodesk.com
 90
    32897
280
     0
281
     0
  0
CLASS
  1
AEC_DISP_REP_DISPLAYTHEME
  2
AecDbDispRepDisplayTheme
  3
AecBase50|Product Desc: Autodesk Architectural Desktop 2007 |Company: Autodesk,Inc. |WEB Address: www.autodesk.com
 90
    32897
280
     0
281
     0
  0
CLASS
  1
AEC_DISP_PROPS_DISPLAYTHEME
  2
AecDbDispPropsDisplayTheme
  3
AecBase50|Product Desc: Autodesk Architectural Desktop 2007 |Company: Autodesk,Inc. |WEB Address: www.autodesk.com
 90
    32897
280
     0
281
     0
  0
CLASS
  1
AEC_DISP_REP_ANCHOR_EXT_TAG_TO_ENT
  2
AecDbDispRepAnchorExtendedTagToEnt
  3
AecScheduleData50|Product Desc: Autodesk Architectural Desktop 2007 |Company: Autodesk,Inc. |WEB Address: www.autodesk.com
 90
    32897
280
     0
281
     0
  0
CLASS
  1
AEC_DISP_REP_SPACE_DECOMPOSED
  2
AecDbDispRepSpaceDecomposed
  3
AecArchBase50|Product Desc: Autodesk Architectural Desktop 2007 |Company: Autodesk,Inc. |WEB Address: www.autodesk.com
 90
    32897
280
     0
281
     0
  0
CLASS
  1
AEC_DISP_PROPS_SPACE_DECOMPOSED
  2
AecDbDispPropsSpaceDecomposed
  3
AecArchBase50|Product Desc: Autodesk Architectural Desktop 2007 |Company: Autodesk,Inc. |WEB Address: www.autodesk.com
 90
    32897
280
     0
281
     0
  0
CLASS
  1
AEC_DISP_REP_ZONE
  2
AecDbDispRepZone
  3
AecArchBase50|Product Desc: Autodesk Architectural Desktop 2007 |Company: Autodesk,Inc. |WEB Address: www.autodesk.com
 90
    32897
280
     0
281
     0
  0
CLASS
  1
ACAD_EVALUATION_GRAPH
  2
AcDbEvalGraph
  3
ObjectDBX Classes
 90
    33921
280
     0
281
     0
  0
CLASS
  1
BLOCKFLIPPARAMETER
  2
AcDbBlockFlipParameter
  3
ObjectDBX Classes
 90
    33921
280
     0
281
     0
  0
CLASS
  1
BLOCKFLIPGRIP
  2
AcDbBlockFlipGrip
  3
ObjectDBX Classes
 90
    33921
280
     0
281
     0
  0
CLASS
  1
BLOCKGRIPLOCATIONCOMPONENT
  2
AcDbBlockGripExpr
  3
ObjectDBX Classes
 90
    33921
280
     0
281
     0
  0
CLASS
  1
BLOCKFLIPACTION
  2
AcDbBlockFlipAction
  3
ObjectDBX Classes
 90
    33921
280
     0
281
     0
  0
CLASS
  1
BLOCKROTATIONPARAMETER
  2
AcDbBlockRotationParameter
  3
ObjectDBX Classes
 90
    33921
280
     0
281
     0
  0
CLASS
  1
BLOCKROTATIONGRIP
  2
AcDbBlockRotationGrip
  3
ObjectDBX Classes
 90
    33921
280
     0
281
     0
  0
CLASS
  1
BLOCKROTATEACTION
  2
AcDbBlockRotateAction
  3
ObjectDBX Classes
 90
    33921
280
     0
281
     0
  0
CLASS
  1
BLOCKBASEPOINTPARAMETER
  2
AcDbBlockBasepointParameter
  3
ObjectDBX Classes
 90
    33921
280
     0
281
     0
  0
CLASS
  1
ACDB_DYNAMICBLOCKPURGEPREVENTER_VERSION
  2
AcDbDynamicBlockPurgePreventer
  3
ObjectDBX Classes
 90
    33921
280
     0
281
     0
  0
CLASS
  1
ACDB_BLOCKREPRESENTATION_DATA
  2
AcDbBlockRepresentationData
  3
ObjectDBX Classes
 90
    33921
280
     0
281
     0
  0
CLASS
  1
SCALE
  2
AcDbScale
  3
ObjectDBX Classes
 90
     1153
280
     0
281
     0
  0
CLASS
  1
MLEADERSTYLE
  2
AcDbMLeaderStyle
  3
ACDB_MLEADERSTYLE_CLASS
 90
    36863
280
     0
281
     0
  0
CLASS
  1
CELLSTYLEMAP
  2
AcDbCellStyleMap
  3
ObjectDBX Classes
 90
     1152
280
     0
281
     0
  0
CLASS
  1
BLOCKLINEARPARAMETER
  2
AcDbBlockLinearParameter
  3
ObjectDBX Classes
 90
    33921
280
     0
281
     0
  0
CLASS
  1
BLOCKMOVEACTION
  2
AcDbBlockMoveAction
  3
ObjectDBX Classes
 90
    33921
280
     0
281
     0
  0
CLASS
  1
BLOCKVISIBILITYPARAMETER
  2
AcDbBlockVisibilityParameter
  3
ObjectDBX Classes
 90
    33921
280
     0
281
     0
  0
CLASS
  1
BLOCKLOOKUPPARAMETER
  2
AcDbBlockLookupParameter
  3
ObjectDBX Classes
 90
    33921
280
     0
281
     0
  0
CLASS
  1
BLOCKLOOKUPGRIP
  2
AcDbBlockLookupGrip
  3
ObjectDBX Classes
 90
    33921
280
     0
281
     0
  0
CLASS
  1
BLOCKLOOKUPACTION
  2
AcDbBlockLookupAction
  3
ObjectDBX Classes
 90
    33921
280
     0
281
     0
  0
CLASS
  1
AEC_MVBLOCK_REF
  2
AecDbMvBlockRef
  3
AecBase50|Product Desc: Autodesk Architectural Desktop 2007 |Company: Autodesk,Inc. |WEB Address: www.autodesk.com
 90
    33661
280
     0
281
     1
  0
CLASS
  1
AEC_ANCHOR_MVB_TO_UCS
  2
AecDbAnchorMVBToUCS
  3
AecBase50|Product Desc: Autodesk Architectural Desktop 2007 |Company: Autodesk,Inc. |WEB Address: www.autodesk.com
 90
    32897
280
     0
281
     0
  0
CLASS
  1
AEC_MVBLOCK_DEF
  2
AecDbMvBlockDef
  3
AecBase50|Product Desc: Autodesk Architectural Desktop 2007 |Company: Autodesk,Inc. |WEB Address: www.autodesk.com
 90
    32897
280
     0
281
     0
  0
CLASS
  1
OBJECT_PTR
  2
CAseDLPNTableRecord
  3
ASE-LPNTableRecord
 90
    32769
280
     0
281
     0
  0
CLASS
  1
AEC_REFEDIT_STATUS_TRACKER
  2
AecDbRefEditStatusTracker
  3
AecArchBase50|Product Desc: Autodesk Architectural Desktop 2007 |Company: Autodesk,Inc. |WEB Address: www.autodesk.com
 90
    32897
280
     0
281
     0
  0
CLASS
  1
AEC_CLASSIFICATION_SYSTEM_DEF
  2
AecDbClassificationSystemDef
  3
AecBase50|Product Desc: Autodesk Architectural Desktop 2007 |Company: Autodesk,Inc. |WEB Address: www.autodesk.com
 90
    32897
280
     0
281
     0
  0
CLASS
  1
AEC_CLASSIFICATION_DEF
  2
AecDbClassificationDef
  3
AecBase50|Product Desc: Autodesk Architectural Desktop 2007 |Company: Autodesk,Inc. |WEB Address: www.autodesk.com
 90
    32897
280
     0
281
     0
  0
CLASS
  1
AEC_SPACE
  2
AecDbSpace
  3
AecArchBase50|Product Desc: Autodesk Architectural Desktop 2007 |Company: Autodesk,Inc. |WEB Address: www.autodesk.com
 90
    33661
280
     0
281
     1
  0
CLASS
  1
AecDbPropertySet
  2
AecDbPropertySet
  3
AecScheduleData50|Product Desc: Autodesk Architectural Desktop 2007 |Company: Autodesk,Inc. |WEB Address: www.autodesk.com
 90
    32897
280
     0
281
     0
  0
CLASS
  1
AEC_CLEANUP_GROUP_DEF
  2
AecDbCleanupGroupDef
  3
AecArchBase50|Product Desc: Autodesk Architectural Desktop 2007 |Company: Autodesk,Inc. |WEB Address: www.autodesk.com
 90
    32897
280
     0
281
     0
  0
CLASS
  1
AEC_ENDCAP_STYLE
  2
AecDbEndcapStyle
  3
AecArchBase50|Product Desc: Autodesk Architectural Desktop 2007 |Company: Autodesk,Inc. |WEB Address: www.autodesk.com
 90
    32897
280
     0
281
     0
  0
CLASS
  1
AEC_LIST_DEF
  2
AecDbListDefinition
  3
AecBase50|Product Desc: Autodesk Architectural Desktop 2007 |Company: Autodesk,Inc. |WEB Address: www.autodesk.com
 90
    32897
280
     0
281
     0
  0
CLASS
  1
AEC_LIST_DEF
  2
AecDbListItem
  3
AecBase50|Product Desc: Autodesk Architectural Desktop 2007 |Company: Autodesk,Inc. |WEB Address: www.autodesk.com
 90
    32897
280
     0
281
     0
  0
CLASS
  1
AEC_MATERIAL_DEF
  2
AecDbMaterialDef
  3
AecBase50|Product Desc: Autodesk Architectural Desktop 2007 |Company: Autodesk,Inc. |WEB Address: www.autodesk.com
 90
    32897
280
     0
281
     0
  0
CLASS
  1
AEC_FRAME_DEF
  2
AecDbOpeningEndcapStyle
  3
AecArchBase50|Product Desc: Autodesk Architectural Desktop 2007 |Company: Autodesk,Inc. |WEB Address: www.autodesk.com
 90
    32897
280
     0
281
     0
  0
CLASS
  1
AEC_SCHEDULE_DATA_FORMAT
  2
AecDbScheduleDataFormat
  3
AecScheduleData50|Product Desc: Autodesk Architectural Desktop 2007 |Company: Autodesk,Inc. |WEB Address: www.autodesk.com
 90
    32897
280
     0
281
     0
  0
CLASS
  1
AEC_PROPERTY_SET_DEF
  2
AecDbPropertySetDef
  3
AecScheduleData50|Product Desc: Autodesk Architectural Desktop 2007 |Company: Autodesk,Inc. |WEB Address: www.autodesk.com
 90
    32897
280
     0
281
     0
  0
CLASS
  1
AEC_ROOFSLAB_STYLE
  2
AecDbRoofSlabStyle
  3
AecArchBase50|Product Desc: Autodesk Architectural Desktop 2007 |Company: Autodesk,Inc. |WEB Address: www.autodesk.com
 90
    32897
280
     0
281
     0
  0
CLASS
  1
AEC_ROOFSLABEDGE_STYLE
  2
AecDbRoofSlabEdgeStyle
  3
AecArchBase50|Product Desc: Autodesk Architectural Desktop 2007 |Company: Autodesk,Inc. |WEB Address: www.autodesk.com
 90
    32897
280
     0
281
     0
  0
CLASS
  1
AEC_SLAB_STYLE
  2
AecDbSlabStyle
  3
AecArchBase50|Product Desc: Autodesk Architectural Desktop 2007 |Company: Autodesk,Inc. |WEB Address: www.autodesk.com
 90
    32897
280
     0
281
     0
  0
CLASS
  1
AEC_SLABEDGE_STYLE
  2
AecDbSlabEdgeStyle
  3
AecArchBase50|Product Desc: Autodesk Architectural Desktop 2007 |Company: Autodesk,Inc. |WEB Address: www.autodesk.com
 90
    32897
280
     0
281
     0
  0
CLASS
  1
AEC_SPACE_STYLES
  2
AecDbSpaceStyle
  3
AecArchBase50|Product Desc: Autodesk Architectural Desktop 2007 |Company: Autodesk,Inc. |WEB Address: www.autodesk.com
 90
    32897
280
     0
281
     0
  0
CLASS
  1
AEC_WALL_STYLE
  2
AecDbWallStyle
  3
AecArchBase50|Product Desc: Autodesk Architectural Desktop 2007 |Company: Autodesk,Inc. |WEB Address: www.autodesk.com
 90
    32897
280
     0
281
     0
  0
CLASS
  1
AEC_SCHEDULE_TABLE_STYLE
  2
AecDbScheduleTableStyle
  3
AecSchedule50|Product Desc: Autodesk Architectural Desktop 2007 |Company: Autodesk,Inc. |WEB Address: www.autodesk.com
 90
    32897
280
     0
281
     0
  0
CLASS
  1
AEC_SCHEDULE_TABLE
  2
AecDbScheduleTable
  3
AecSchedule50|Product Desc: Autodesk Architectural Desktop 2007 |Company: Autodesk,Inc. |WEB Address: www.autodesk.com
 90
    33661
280
     0
281
     1
  0
CLASS
  1
BLOCKLINEARGRIP
  2
AcDbBlockLinearGrip
  3
ObjectDBX Classes
 90
    33921
280
     0
281
     0
  0
CLASS
  1
BLOCKSTRETCHACTION
  2
AcDbBlockStretchAction
  3
ObjectDBX Classes
 90
    33921
280
     0
281
     0
  0
CLASS
  1
BLOCKARRAYACTION
  2
AcDbBlockArrayAction
  3
ObjectDBX Classes
 90
    33921
280
     0
281
     0
  0
CLASS
  1
SOLID_BACKGROUND
  2
AcDbSolidBackground
  3
SCENEOE
 90
    36863
280
     0
281
     0
  0
ENDSEC
  0
SECTION
  2
TABLES
  0
TABLE
  2
VPORT
  5
29
330
0
100
AcDbSymbolTable
 70
     1
  0
VPORT
  5
2A
330
29
100
AcDbSymbolTableRecord
100
AcDbViewportTableRecord
  2
*Active
 70
     0
 10
0.0
 20
0.0
 11
1.0
 21
1.0
 12
216738.1478565054
 22
123451.9945865613
 13
0.0
 23
0.0
 14
10.0
 24
10.0
 15
10.0
 25
10.0
 16
0.0
 26
0.0
 36
1.0
 17
0.0
 27
0.0
 37
0.0
 40
29478.19506446607
 41
1.740196078431372
 42
50.0
 43
0.0
 44
0.0
 50
0.0
 51
0.0
 71
     0
 72
  1000
 73
     1
 74
     1
 75
     0
 76
     0
 77
     0
 78
     0
281
     0
 65
     1
110
0.0
120
0.0
130
0.0
111
1.0
121
0.0
131
0.0
112
0.0
122
1.0
132
0.0
 79
     0
146
0.0
  0
ENDTAB
  0
TABLE
  2
LTYPE
  5
24
330
0
100
AcDbSymbolTable
 70
     2
  0
LTYPE
  5
25
330
24
100
AcDbSymbolTableRecord
100
AcDbLinetypeTableRecord
  2
ByBlock
 70
     0
  3

 72
    65
 73
     0
 40
0.0
  0
LTYPE
  5
26
330
24
100
AcDbSymbolTableRecord
100
AcDbLinetypeTableRecord
  2
ByLayer
 70
     0
  3

 72
    65
 73
     0
 40
0.0
  0
LTYPE
  5
E
330
24
100
AcDbSymbolTableRecord
100
AcDbLinetypeTableRecord
  2
Continuous
 70
     0
  3
Solid line
 72
    65
 73
     0
 40
0.0
  0
LTYPE
  5
7A
330
24
100
AcDbSymbolTableRecord
100
AcDbLinetypeTableRecord
  2
HIDDEN
 70
     0
  3
Hidden __ __ __ __ __ __ __ __ __ __ __ __ __ _
 72
    65
 73
     2
 40
0.375
 49
0.25
 74
     0
 49
-0.125
 74
     0
  0
ENDTAB
  0
TABLE
  2
LAYER
  5
1B
102
{ACAD_XDICTIONARY
360
1C
102
}
330
0
100
AcDbSymbolTable
 70
    11
  0
LAYER
  5
6
102
{ACAD_XDICTIONARY
360
7
102
}
330
1B
100
AcDbSymbolTableRecord
100
AcDbLayerTableRecord
  2
0
 70
     0
 62
     7
  6
Continuous
370
    -3
390
9
1001
RAK
1000
{ACET-LAYISO
1070
     0
1070
     7
1000
Continuous
1071
       -3
1071
        1
1005
9
1000
ACET-LAYISO}
  0
LAYER
  5
DA
330
1B
100
AcDbSymbolTableRecord
100
AcDbLayerTableRecord
  2
DEFPOINTS
 70
     0
 62
     7
  6
Continuous
290
     0
370
    -3
390
9
1001
RAK
1000
{ACET-LAYISO
1070
     0
1070
     7
1000
Continuous
1071
       -3
1071
        0
1005
9
1000
ACET-LAYISO}
  0
LAYER
  5
7F
102
{ACAD_XDICTIONARY
360
80
102
}
330
1B
100
AcDbSymbolTableRecord
100
AcDbLayerTableRecord
  2
RAMKI-A4
 70
     0
 62
     2
  6
Continuous
290
     0
370
    -3
390
9
1001
RAK
1000
{ACET-LAYISO
1070
     0
1070
     2
1000
Continuous
1071
       -3
1071
        0
1005
9
1000
ACET-LAYISO}
  0
LAYER
  5
77
102
{ACAD_XDICTIONARY
360
78
102
}
330
1B
100
AcDbSymbolTableRecord
100
AcDbLayerTableRecord
  2
NAPISY
 70
     0
 62
   140
  6
Continuous
370
    -3
390
9
1001
RAK
1000
{ACET-LAYISO
1070
     0
1070
   140
1000
Continuous
1071
       -3
1071
        1
1005
9
1000
ACET-LAYISO}
  0
LAYER
  5
83
102
{ACAD_XDICTIONARY
360
84
102
}
330
1B
100
AcDbSymbolTableRecord
100
AcDbLayerTableRecord
  2
TEREN$0$A-MassElement-G
 70
     0
 62
   210
  6
Continuous
370
     9
390
9
1001
AcAecLayerStandard
1000
BS1192 - Descriptive
1001
RAK
1000
{ACET-LAYISO
1070
     0
1070
   210
1000
Continuous
1071
        9
1071
        1
1005
9
1000
ACET-LAYISO}
  0
LAYER
  5
A9
102
{ACAD_XDICTIONARY
360
AA
102
}
330
1B
100
AcDbSymbolTableRecord
100
AcDbLayerTableRecord
  2
0Hatch
 70
     0
 62
   122
  6
Continuous
370
     5
390
9
  0
LAYER
  5
54
102
{ACAD_XDICTIONARY
360
55
102
}
330
1B
100
AcDbSymbolTableRecord
100
AcDbLayerTableRecord
  2
0Wymiary-PL
 70
     0
 62
     1
  6
Continuous
370
     5
390
9
  0
LAYER
  5
AD
102
{ACAD_XDICTIONARY
360
AE
102
}
330
1B
100
AcDbSymbolTableRecord
100
AcDbLayerTableRecord
  2
A-Wall-G
 70
     0
 62
     7
  6
Continuous
370
    50
390
9
1001
RAK
1000
{DRUK
1070
     0
1070
    50
1000
Continuous
1071
       35
1071
        1
1005
9
1000
DRUK}
1001
AcAecLayerStandard
1000
1m1_ARCHON
1000
Architects, Walls, Graphics
  0
LAYER
  5
72
102
{ACAD_XDICTIONARY
360
73
102
}
330
1B
100
AcDbSymbolTableRecord
100
AcDbLayerTableRecord
  2
0Napisy-PL
 70
     0
 62
   140
  6
Continuous
370
    15
390
9
1001
RAK
1000
{ACET-LAYISO
1070
     0
1070
   140
1000
Continuous
1071
       15
1071
        1
1005
9
1000
ACET-LAYISO}
  0
LAYER
  5
37
330
1B
100
AcDbSymbolTableRecord
100
AcDbLayerTableRecord
  2
WYMIARY
 70
     0
 62
     1
  6
Continuous
370
    -3
390
9
1001
RAK
1000
{ACET-LAYISO
1070
     0
1070
     1
1000
CONTINUOUS
1071
       -3
1071
        1
1005
9
1000
ACET-LAYISO}
  0
LAYER
  5
95
102
{ACAD_XDICTIONARY
360
96
102
}
330
1B
100
AcDbSymbolTableRecord
100
AcDbLayerTableRecord
  2
TEREN$0$A-WallBelow-G
 70
     0
 62
     8
  6
Continuous
370
     5
390
97
1001
RAK
1000
{KONDYGNACJA POWTARZALNA
1070
     0
1070
    30
1000
CONTINUOUS
1071
       -3
1071
        1
1005
9
1000
KONDYGNACJA POWTARZALNA}
1001
AcAecLayerStandard
1000

1000
Architects, Wall (below cut plane), Graphics
  0
ENDTAB
  0
TABLE
  2
STYLE
  5
21
330
0
100
AcDbSymbolTable
 70
     3
  0
STYLE
  5
22
330
21
100
AcDbSymbolTableRecord
100
AcDbTextStyleTableRecord
  2
Standard
 70
     0
 40
0.0
 41
1.0
 50
0.0
 71
     0
 42
2.5
  3
txt
  4

  0
STYLE
  5
2E
330
21
100
AcDbSymbolTableRecord
100
AcDbTextStyleTableRecord
  2
ROMANS
 70
     0
 40
0.0
 41
0.9
 50
0.0
 71
     0
 42
20.0
  3
romans.shx
  4

  0
STYLE
  5
75
330
21
100
AcDbSymbolTableRecord
100
AcDbTextStyleTableRecord
  2
AVA
 70
     0
 40
0.0
 41
1.0
 50
0.0
 71
     0
 42
158.5644099714409
  3
ARIAL.TTF
  4

1001
ACAD
1000
Arial CE
1071
    60962
  0
ENDTAB
  0
TABLE
  2
VIEW
  5
27
330
0
100
AcDbSymbolTable
 70
     1
  0
VIEW
  5
13
330
27
100
AcDbSymbolTableRecord
100
AcDbViewTableRecord
  2
RODODENDRON 5
 70
     0
 40
14020.0
 10
220287.1664355166
 20
148687.514558954
 41
10200.00000000003
 11
0.0
 21
0.0
 31
1.0
 12
0.0
 22
0.0
 32
0.0
 42
50.0
 43
0.0
 44
0.0
 50
0.0
 71
     0
281
     0
 72
     1
110
0.0
120
0.0
130
0.0
111
1.0
121
0.0
131
0.0
112
0.0
122
1.0
132
0.0
 79
     0
146
0.0
  0
ENDTAB
  0
TABLE
  2
UCS
  5
28
330
0
100
AcDbSymbolTable
 70
     0
  0
ENDTAB
  0
TABLE
  2
APPID
  5
2B
330
0
100
AcDbSymbolTable
 70
     4
  0
APPID
  5
20
330
2B
100
AcDbSymbolTableRecord
100
AcDbRegAppTableRecord
  2
ACAD
 70
     0
  0
APPID
  5
F
330
2B
100
AcDbSymbolTableRecord
100
AcDbRegAppTableRecord
  2
RAK
 70
     0
  0
APPID
  5
86
330
2B
100
AcDbSymbolTableRecord
100
AcDbRegAppTableRecord
  2
AcAecLayerStandard
 70
     0
  0
APPID
  5
16
330
2B
100
AcDbSymbolTableRecord
100
AcDbRegAppTableRecord
  2
ACAD_PSEXT
 70
     0
  0
ENDTAB
  0
TABLE
  2
DIMSTYLE
  5
2C
330
0
100
AcDbSymbolTable
 70
     5
100
AcDbDimStyleTable
 71
     5
340
2D
340
39
340
40
340
49
340
4A
  0
DIMSTYLE
105
40
102
{ACAD_REACTORS
330
D2
330
DE
330
EB
330
F6
330
101
330
10C
330
159
330
164
330
16F
330
17A
330
185
330
192
102
}
330
2C
100
AcDbSymbolTableRecord
100
AcDbDimStyleTableRecord
  2
500
 70
     0
 41
30.0
 42
43.0
 43
0.0
 44
13.0
 45
0.5
 46
12.0
 73
     0
 74
     0
 75
     1
 76
     1
 78
    12
140
80.0
141
0.0
145
1.0
147
0.0
172
     1
174
     1
176
     1
177
     1
178
   140
271
     1
272
     1
279
     2
340
2E
341
41
342
41
  0
DIMSTYLE
105
4A
330
2C
100
AcDbSymbolTableRecord
100
AcDbDimStyleTableRecord
  2
Standard
 70
     0
340
22
  0
DIMSTYLE
105
49
330
2C
100
AcDbSymbolTableRecord
100
AcDbDimStyleTableRecord
  2
500-RU
 70
     0
 41
30.0
 42
43.0
 43
0.0
 44
13.0
 45
0.5
 46
12.0
 73
     0
 74
     0
 75
     1
 76
     1
 78
    12
140
80.0
141
0.0
144
10.0
145
1.0
147
0.0
172
     1
174
     1
176
     1
177
     1
178
   140
271
     1
272
     1
279
     2
340
2E
341
41
342
41
  0
DIMSTYLE
105
39
330
2C
100
AcDbSymbolTableRecord
100
AcDbDimStyleTableRecord
  2
100-PR
 70
     0
 41
15.0
 42
43.0
 43
24.0
 44
13.0
 45
0.5
 46
12.0
 73
     0
 74
     0
 75
     1
 76
     1
 77
     1
 78
     8
140
30.0
141
0.0
145
1.0
147
12.0
172
     1
174
     1
176
     7
177
     1
178
   140
271
     1
272
     1
279
     2
340
2E
341
2F
342
3A
371
     5
  0
DIMSTYLE
105
2D
330
2C
100
AcDbSymbolTableRecord
100
AcDbDimStyleTableRecord
  2
100-PRw
 70
     0
 41
1.0
 42
43.0
 43
24.0
 44
13.0
 45
0.5
 46
12.0
 73
     0
 74
     0
 75
     1
 76
     1
 77
     1
 78
     8
140
30.0
141
0.0
145
1.0
147
8.0
172
     1
174
     1
176
     1
177
     1
178
   140
271
     1
272
     1
279
     2
340
2E
341
2F
342
34
371
     5
  0
ENDTAB
  0
TABLE
  2
BLOCK_RECORD
  5
1
330
0
100
AcDbSymbolTable
 70
    16
  0
BLOCK_RECORD
  5
2
102
{ACAD_XDICTIONARY
360
3
102
}
330
1
100
AcDbSymbolTableRecord
100
AcDbBlockTableRecord
  2
*Model_Space
340
11
  0
BLOCK_RECORD
  5
17
330
1
100
AcDbSymbolTableRecord
100
AcDbBlockTableRecord
  2
*Paper_Space
340
1A
  0
BLOCK_RECORD
  5
41
102
{ACAD_XDICTIONARY
360
42
102
}
330
1
100
AcDbSymbolTableRecord
100
AcDbBlockTableRecord
  2
B-DIM
340
0
102
{BLKREFS
331
FA
331
FB
331
110
331
111
331
15D
331
15E
331
173
331
174
331
105
331
106
331
168
331
169
331
D6
331
D7
331
E4
331
E5
331
EF
331
F0
331
17E
331
17F
331
18B
331
18C
331
196
331
197
102
}
  0
BLOCK_RECORD
  5
2F
330
1
100
AcDbSymbolTableRecord
100
AcDbBlockTableRecord
  2
_Dot
340
0
  0
BLOCK_RECORD
  5
3A
330
1
100
AcDbSymbolTableRecord
100
AcDbBlockTableRecord
  2
B-DIM_K
340
0
310
2800000020000000200000000100080000000000000400000000000000000000000000000000000000000000000080000080000000808000800000008000800080800000C0C0C000C0DCC000F0CAA6000020400000206000002080000020A0000020C0000020E00000400000004020000040400000406000004080000040A0
310
000040C0000040E00000600000006020000060400000606000006080000060A0000060C0000060E00000800000008020000080400000806000008080000080A0000080C0000080E00000A0000000A0200000A0400000A0600000A0800000A0A00000A0C00000A0E00000C0000000C0200000C0400000C0600000C0800000C0
310
A00000C0C00000C0E00000E0000000E0200000E0400000E0600000E0800000E0A00000E0C00000E0E00040000000400020004000400040006000400080004000A0004000C0004000E00040200000402020004020400040206000402080004020A0004020C0004020E000404000004040200040404000404060004040800040
310
40A0004040C0004040E00040600000406020004060400040606000406080004060A0004060C0004060E00040800000408020004080400040806000408080004080A0004080C0004080E00040A0000040A0200040A0400040A0600040A0800040A0A00040A0C00040A0E00040C0000040C0200040C0400040C0600040C08000
310
40C0A00040C0C00040C0E00040E0000040E0200040E0400040E0600040E0800040E0A00040E0C00040E0E00080000000800020008000400080006000800080008000A0008000C0008000E00080200000802020008020400080206000802080008020A0008020C0008020E00080400000804020008040400080406000804080
310
008040A0008040C0008040E00080600000806020008060400080606000806080008060A0008060C0008060E00080800000808020008080400080806000808080008080A0008080C0008080E00080A0000080A0200080A0400080A0600080A0800080A0A00080A0C00080A0E00080C0000080C0200080C0400080C0600080C0
310
800080C0A00080C0C00080C0E00080E0000080E0200080E0400080E0600080E0800080E0A00080E0C00080E0E000C0000000C0002000C0004000C0006000C0008000C000A000C000C000C000E000C0200000C0202000C0204000C0206000C0208000C020A000C020C000C020E000C0400000C0402000C0404000C0406000C0
310
408000C040A000C040C000C040E000C0600000C0602000C0604000C0606000C0608000C060A000C060C000C060E000C0800000C0802000C0804000C0806000C0808000C080A000C080C000C080E000C0A00000C0A02000C0A04000C0A06000C0A08000C0A0A000C0A0C000C0A0E000C0C00000C0C02000C0C04000C0C06000
310
C0C08000C0C0A000F0FBFF00A4A0A000808080000000FF0000FF000000FFFF00FF000000FF00FF00FFFF0000FFFFFF0000000000000000000000000000000000000000000000000000000000000000000000000000000000000000000000000000000000000000000000000000000000000000000000000000000000000000
310
0000000000000000000000000000000000000000000000000000000000000000FF00000000000000000000000000000000000000000000000000000000000000FF00000000000000000000000000000000000000000000000000000000000000FF000000000000000000000000000000000000000000000000000000000000
310
00FF0000000000000000000000000000000000000000000000FF00000000000000FF000000000000000000000000000000000000000000000000FF000000000000FF00000000000000000000000000000000000000000000000000FF0000000000FF0000000000000000000000000000000000000000000000000000FF0000
310
0000FF000000000000000000000000000000000000000000000000000000FF000000FF00000000000000000000000000000000000000000000000000000000FF0000FF0000000000000000000000000000000000000000000000000000000000FF00FF00000000000000000000000000000000000000000000000000000000
310
0000FFFF00000000000000000000000000000000000000000000000000000000000000FF0000000000000000000000000000000000FFFFFFFFFFFFFFFFFFFFFFFFFFFFFFFFFFFFFFFFFFFFFFFFFFFFFFFFFF0000000000000000000000000000000000FF00FF00000000000000000000000000000000000000000000000000
310
00000000FF0000FF00000000000000000000000000000000000000000000000000000000FF000000FF000000000000000000000000000000000000000000000000000000FF00000000FF0000000000000000000000000000000000000000000000000000FF0000000000FF0000000000000000000000000000000000000000
310
0000000000FF000000000000FF000000000000000000000000000000000000000000000000FF00000000000000FF0000000000000000000000000000000000000000000000FF00000000000000000000000000000000000000000000000000000000000000FF00000000000000000000000000000000000000000000000000
310
000000000000FF00000000000000000000000000000000000000000000000000000000000000FF00000000000000000000000000000000000000000000000000000000000000000000000000000000000000000000000000000000000000000000000000000000000000000000000000000000000000000000000000000000
310
0000000000000000000000000000000000000000000000000000000000000000000000000000000000000000000000000000000000000000
1001
ACAD
1000
DesignCenter Data
1002
{
1070
     1
1070
     1
1002
}
  0
BLOCK_RECORD
  5
34
330
1
100
AcDbSymbolTableRecord
100
AcDbBlockTableRecord
  2
B-DIM_W
340
0
310
2800000020000000200000000100080000000000000400000000000000000000000000000000000000000000000080000080000000808000800000008000800080800000C0C0C000C0DCC000F0CAA6000020400000206000002080000020A0000020C0000020E00000400000004020000040400000406000004080000040A0
310
000040C0000040E00000600000006020000060400000606000006080000060A0000060C0000060E00000800000008020000080400000806000008080000080A0000080C0000080E00000A0000000A0200000A0400000A0600000A0800000A0A00000A0C00000A0E00000C0000000C0200000C0400000C0600000C0800000C0
310
A00000C0C00000C0E00000E0000000E0200000E0400000E0600000E0800000E0A00000E0C00000E0E00040000000400020004000400040006000400080004000A0004000C0004000E00040200000402020004020400040206000402080004020A0004020C0004020E000404000004040200040404000404060004040800040
310
40A0004040C0004040E00040600000406020004060400040606000406080004060A0004060C0004060E00040800000408020004080400040806000408080004080A0004080C0004080E00040A0000040A0200040A0400040A0600040A0800040A0A00040A0C00040A0E00040C0000040C0200040C0400040C0600040C08000
310
40C0A00040C0C00040C0E00040E0000040E0200040E0400040E0600040E0800040E0A00040E0C00040E0E00080000000800020008000400080006000800080008000A0008000C0008000E00080200000802020008020400080206000802080008020A0008020C0008020E00080400000804020008040400080406000804080
310
008040A0008040C0008040E00080600000806020008060400080606000806080008060A0008060C0008060E00080800000808020008080400080806000808080008080A0008080C0008080E00080A0000080A0200080A0400080A0600080A0800080A0A00080A0C00080A0E00080C0000080C0200080C0400080C0600080C0
310
800080C0A00080C0C00080C0E00080E0000080E0200080E0400080E0600080E0800080E0A00080E0C00080E0E000C0000000C0002000C0004000C0006000C0008000C000A000C000C000C000E000C0200000C0202000C0204000C0206000C0208000C020A000C020C000C020E000C0400000C0402000C0404000C0406000C0
310
408000C040A000C040C000C040E000C0600000C0602000C0604000C0606000C0608000C060A000C060C000C060E000C0800000C0802000C0804000C0806000C0808000C080A000C080C000C080E000C0A00000C0A02000C0A04000C0A06000C0A08000C0A0A000C0A0C000C0A0E000C0C00000C0C02000C0C04000C0C06000
310
C0C08000C0C0A000F0FBFF00A4A0A000808080000000FF0000FF000000FFFF00FF000000FF00FF00FFFF0000FFFFFF0000000000000000000000000000000000000000000000000000000000000000000000000000000000000000000000000000000000000000000000000000000000000000000000000000000000000000
310
00000000000000000000000000000000000000000000000000000000000000000000000000000000000000000000000000000000000000000000000000000000000000000000000000000000000000000000000000000000000000000000000000000000000000000000000000000000000000000000000000000000000000
310
00000000000000000000000000000000000000000000000000000000000000000000000000000000000000000000000000000000000000000000000000000000000000000000000000000000000000000000000000000000000000000000000000000000000000000000000000000000000000000000000000000000000000
310
00000000000000000000000000000000000000F9F9F9F9F9F9F900000000000000000000000000000000000000000000000000F9000000000000F9F9F9F9F9F900000000000000000000000000000000000000F9000000000000000000000000F9F9F9F9F90000000000000000000000000000F90000000000000000000000
310
000000000000F9F9F9F9F9F90000000000000000F90000000000000000000000000000000000000000000000F9F9F9F9F9F90000F900000000000000000000000000000000000000000000F9F9F9F9F9F9F90000F90000000000000000000000000000F9F9F9F9F9F9F9F9000000000000000000F900000000000000F9F9F9
310
F9F9F9F90000000000000000000000000000000000F9F9F9F9F9F9F9F90000000000000000000000000000000000000000000000000000000000000000000000000000000000000000000000000000000000000000000000000000000000000000000000000000000000000000000000000000000000000000000000000000
310
00000000000000000000000000000000000000000000000000000000000000000000000000000000000000000000000000000000000000000000000000000000000000000000000000000000000000000000000000000000000000000000000000000000000000000000000000000000000000000000000000000000000000
310
00000000000000000000000000000000000000000000000000000000000000000000000000000000000000000000000000000000000000000000000000000000000000000000000000000000000000000000000000000000000000000000000000000000000000000000000000000000000000000000000000000000000000
310
0000000000000000000000000000000000000000000000000000000000000000000000000000000000000000000000000000000000000000
  0
BLOCK_RECORD
  5
D3
330
1
100
AcDbSymbolTableRecord
100
AcDbBlockTableRecord
  2
*D4
340
0
  0
BLOCK_RECORD
  5
DF
330
1
100
AcDbSymbolTableRecord
100
AcDbBlockTableRecord
  2
*D5
340
0
  0
BLOCK_RECORD
  5
EC
330
1
100
AcDbSymbolTableRecord
100
AcDbBlockTableRecord
  2
*D6
340
0
  0
BLOCK_RECORD
  5
F7
330
1
100
AcDbSymbolTableRecord
100
AcDbBlockTableRecord
  2
*D7
340
0
  0
BLOCK_RECORD
  5
102
330
1
100
AcDbSymbolTableRecord
100
AcDbBlockTableRecord
  2
*D8
340
0
  0
BLOCK_RECORD
  5
10D
330
1
100
AcDbSymbolTableRecord
100
AcDbBlockTableRecord
  2
*D9
340
0
  0
BLOCK_RECORD
  5
15A
330
1
100
AcDbSymbolTableRecord
100
AcDbBlockTableRecord
  2
*D10
340
0
  0
BLOCK_RECORD
  5
165
330
1
100
AcDbSymbolTableRecord
100
AcDbBlockTableRecord
  2
*D11
340
0
  0
BLOCK_RECORD
  5
170
330
1
100
AcDbSymbolTableRecord
100
AcDbBlockTableRecord
  2
*D12
340
0
  0
BLOCK_RECORD
  5
17B
330
1
100
AcDbSymbolTableRecord
100
AcDbBlockTableRecord
  2
*D13
340
0
  0
BLOCK_RECORD
  5
186
330
1
100
AcDbSymbolTableRecord
100
AcDbBlockTableRecord
  2
*D14
340
0
  0
BLOCK_RECORD
  5
193
330
1
100
AcDbSymbolTableRecord
100
AcDbBlockTableRecord
  2
*D15
340
0
  0
ENDTAB
  0
ENDSEC
  0
SECTION
  2
BLOCKS
  0
BLOCK
  5
5
330
2
100
AcDbEntity
  8
0
100
AcDbBlockBegin
  2
*Model_Space
 70
     0
 10
0.0
 20
0.0
 30
0.0
  3
*Model_Space
  1

  0
ENDBLK
  5
10
330
2
100
AcDbEntity
  8
0
100
AcDbBlockEnd
  0
BLOCK
  5
18
330
17
100
AcDbEntity
 67
     1
  8
0
100
AcDbBlockBegin
  2
*Paper_Space
 70
     0
 10
0.0
 20
0.0
 30
0.0
  3
*Paper_Space
  1

  0
ENDBLK
  5
19
330
17
100
AcDbEntity
 67
     1
  8
0
100
AcDbBlockEnd
  0
BLOCK
  5
44
330
41
100
AcDbEntity
  8
0
100
AcDbBlockBegin
  2
B-DIM
 70
     0
 10
0.0
 20
0.0
 30
0.0
  3
B-DIM
  1

  0
LINE
  5
45
330
41
100
AcDbEntity
  8
0
 62
     1
100
AcDbLine
 10
0.000000000000091
 20
-1.1
 30
0.0
 11
0.000000000000091
 21
1.1
 31
0.0
  0
LWPOLYLINE
  5
46
330
41
100
AcDbEntity
  8
0
 62
     1
100
AcDbPolyline
 90
        2
 70
     0
 43
0.3
 10
-0.7071067811864851
 20
-0.7071067811864851
 10
0.707106781186576
 20
0.707106781186576
  0
LINE
  5
47
330
41
100
AcDbEntity
  8
0
 62
     1
100
AcDbLine
 10
1.20000000000009
 20
0.0
 30
0.0
 11
-1.199999999999909
 21
0.0
 31
0.0
  0
ENDBLK
  5
48
330
41
100
AcDbEntity
  8
0
100
AcDbBlockEnd
  0
BLOCK
  5
30
330
2F
100
AcDbEntity
  8
0
100
AcDbBlockBegin
  2
_Dot
 70
     0
 10
0.0
 20
0.0
 30
0.0
  3
_Dot
  1

  0
LWPOLYLINE
  5
31
330
2F
100
AcDbEntity
  8
0
  6
ByBlock
 62
     0
100
AcDbPolyline
 90
        2
 70
     1
 43
0.5
 10
-0.25
 20
0.0
 42
1.0
 10
0.25
 20
0.0
 42
1.0
  0
LINE
  5
32
330
2F
100
AcDbEntity
  8
0
  6
ByBlock
 62
     0
370
    -2
100
AcDbLine
 10
-0.5
 20
0.0
 30
0.0
 11
-1.0
 21
0.0
 31
0.0
  0
ENDBLK
  5
33
330
2F
100
AcDbEntity
  8
0
100
AcDbBlockEnd
  0
BLOCK
  5
3B
330
3A
100
AcDbEntity
  8
0
 48
4.0
100
AcDbBlockBegin
  2
B-DIM_K
 70
     0
 10
0.0
 20
0.0
 30
0.0
  3
B-DIM_K
  1

  0
LINE
  5
3C
330
3A
100
AcDbEntity
  8
0
 62
     7
100
AcDbLine
 10
-0.0000000000002274
 20
-1.100000000000363
 30
0.0
 11
-0.0000000000002274
 21
1.100000000000363
 31
0.0
  0
LWPOLYLINE
  5
3D
330
3A
100
AcDbEntity
  8
0
 62
     7
100
AcDbPolyline
 90
        2
 70
     0
 43
0.0
 10
-0.7071067811868943
 20
-0.707106781186667
 10
0.7071067811864396
 20
0.707106781186667
  0
LINE
  5
3E
330
3A
100
AcDbEntity
  8
0
 62
     7
100
AcDbLine
 10
1.200000000000045
 20
0.0
 30
0.0
 11
-1.200000000000045
 21
0.0
 31
0.0
  0
ENDBLK
  5
3F
330
3A
100
AcDbEntity
  8
0
 48
4.0
100
AcDbBlockEnd
  0
BLOCK
  5
35
330
34
100
AcDbEntity
  8
0
 48
4.0
100
AcDbBlockBegin
  2
B-DIM_W
 70
     0
 10
0.0
 20
0.0
 30
0.0
  3
B-DIM_W
  1

  0
SOLID
  5
36
330
34
100
AcDbEntity
  8
WYMIARY
 62
     1
 48
4.0
100
AcDbTrace
 10
-18.00000000000182
 20
3.000000000001818
 30
0.0
 11
0.0
 21
0.0
 31
0.0
 12
-18.00000000000182
 22
-3.000000000001818
 32
0.0
 13
-18.00000000000182
 23
-3.000000000001818
 33
0.0
  0
ENDBLK
  5
38
330
34
100
AcDbEntity
  8
0
 48
4.0
100
AcDbBlockEnd
  0
BLOCK
  5
D4
330
D3
100
AcDbEntity
  8
0
100
AcDbBlockBegin
  2
*D4
 70
     1
 10
0.0
 20
0.0
 30
0.0
  3
*D4
  1

  0
LINE
  5
D5
330
D3
100
AcDbEntity
  8
0Wymiary-PL
 62
     1
370
    -2
100
AcDbLine
 10
211501.0458460086
 20
122216.3240435373
 30
0.0000000001111344
 11
212507.0458460086
 21
122216.3240435373
 31
0.0000000001111344
  0
INSERT
  5
D6
330
D3
100
AcDbEntity
  8
0Wymiary-PL
 62
     1
370
    -2
100
AcDbBlockReference
  2
B-DIM
 10
211471.0458460086
 20
122216.3240435373
 30
0.0000000001111344
 41
30.0
 42
30.0
 43
30.0
 50
180.0
  0
INSERT
  5
D7
330
D3
100
AcDbEntity
  8
0Wymiary-PL
 62
     1
370
    -2
100
AcDbBlockReference
  2
B-DIM
 10
212537.0458460086
 20
122216.3240435373
 30
0.0000000001111344
 41
30.0
 42
30.0
 43
30.0
  0
MTEXT
  5
D8
330
D3
100
AcDbEntity
  8
0Wymiary-PL
 62
   140
100
AcDbMText
 10
212004.0458460086
 20
122296.3240435373
 30
0.0000000001111344
 40
80.0
 41
0.0
 71
     5
 72
     1
  1
\A1;1066
  7
ROMANS
 73
     1
 44
1.0
1001
ACAD
1000
MTEXTBEGIN
1070
    73
1070
     1
1070
    44
1040
1.0
1070
    74
1070
     0
1000
MTEXTEND
  0
POINT
  5
D9
330
D3
100
AcDbEntity
  8
DEFPOINTS
 62
     0
100
AcDbPoint
 10
211471.0458460086
 20
121908.6946380416
 30
0.0000000000030043
  0
POINT
  5
DB
330
D3
100
AcDbEntity
  8
DEFPOINTS
 62
     0
100
AcDbPoint
 10
212537.0458460086
 20
121898.6446017688
 30
0.0000000000030043
  0
POINT
  5
DC
330
D3
100
AcDbEntity
  8
DEFPOINTS
 62
     0
100
AcDbPoint
 10
212537.0458460086
 20
122216.3240435373
 30
0.0000000001111344
  0
ENDBLK
  5
DD
330
D3
100
AcDbEntity
  8
0
100
AcDbBlockEnd
  0
BLOCK
  5
E0
330
DF
100
AcDbEntity
  8
0
100
AcDbBlockBegin
  2
*D5
 70
     1
 10
0.0
 20
0.0
 30
0.0
  3
*D5
  1

  0
LINE
  5
E1
330
DF
100
AcDbEntity
  8
0Wymiary-PL
 62
     1
370
    -2
100
AcDbLine
 10
212507.0458460086
 20
122216.3240435373
 30
0.0000000001111344
 11
212477.0458460086
 21
122216.3240435373
 31
0.0000000001111344
  0
LINE
  5
E2
330
DF
100
AcDbEntity
  8
0Wymiary-PL
 62
     1
370
    -2
100
AcDbLine
 10
212671.0458460085
 20
122216.3240435373
 30
0.0000000001111344
 11
212701.0458460086
 21
122216.3240435373
 31
0.0000000001111344
  0
LINE
  5
E3
330
DF
100
AcDbEntity
  8
0Wymiary-PL
 62
     1
370
    -2
100
AcDbLine
 10
212537.0458460086
 20
122216.3240435373
 30
0.0000000001111344
 11
212641.0458460085
 21
122216.3240435373
 31
0.0000000001111344
  0
INSERT
  5
E4
330
DF
100
AcDbEntity
  8
0Wymiary-PL
 62
     1
370
    -2
100
AcDbBlockReference
  2
B-DIM
 10
212537.0458460086
 20
122216.3240435373
 30
0.0000000001111344
 41
30.0
 42
30.0
 43
30.0
  0
INSERT
  5
E5
330
DF
100
AcDbEntity
  8
0Wymiary-PL
 62
     1
370
    -2
100
AcDbBlockReference
  2
B-DIM
 10
212641.0458460085
 20
122216.3240435373
 30
0.0000000001111344
 41
30.0
 42
30.0
 43
30.0
 50
180.0
  0
MTEXT
  5
E6
330
DF
100
AcDbEntity
  8
0Wymiary-PL
 62
   140
100
AcDbMText
 10
212589.0458460086
 20
122296.3240435373
 30
0.0000000001111344
 40
80.0
 41
0.0
 71
     5
 72
     1
  1
\A1;104
  7
ROMANS
 73
     1
 44
1.0
1001
ACAD
1000
MTEXTBEGIN
1070
    73
1070
     1
1070
    44
1040
1.0
1070
    74
1070
     0
1000
MTEXTEND
  0
POINT
  5
E7
330
DF
100
AcDbEntity
  8
DEFPOINTS
 62
     0
100
AcDbPoint
 10
212537.0458460086
 20
121898.6446017688
 30
0.0000000000030043
  0
POINT
  5
E8
330
DF
100
AcDbEntity
  8
DEFPOINTS
 62
     0
100
AcDbPoint
 10
212641.0458460085
 20
121793.4898893691
 30
0.0000000000030043
  0
POINT
  5
E9
330
DF
100
AcDbEntity
  8
DEFPOINTS
 62
     0
100
AcDbPoint
 10
212641.0458460085
 20
122216.3240435373
 30
0.0000000001111344
  0
ENDBLK
  5
EA
330
DF
100
AcDbEntity
  8
0
100
AcDbBlockEnd
  0
BLOCK
  5
ED
330
EC
100
AcDbEntity
  8
0
100
AcDbBlockBegin
  2
*D6
 70
     1
 10
0.0
 20
0.0
 30
0.0
  3
*D6
  1

  0
LINE
  5
EE
330
EC
100
AcDbEntity
  8
0Wymiary-PL
 62
     1
370
    -2
100
AcDbLine
 10
211501.0458460085
 20
122400.3764858437
 30
0.0000000001114409
 11
212611.0458460086
 21
122400.3764858437
 31
0.0000000001114409
  0
INSERT
  5
EF
330
EC
100
AcDbEntity
  8
0Wymiary-PL
 62
     1
370
    -2
100
AcDbBlockReference
  2
B-DIM
 10
211471.0458460085
 20
122400.3764858437
 30
0.0000000001114409
 41
30.0
 42
30.0
 43
30.0
 50
180.0
  0
INSERT
  5
F0
330
EC
100
AcDbEntity
  8
0Wymiary-PL
 62
     1
370
    -2
100
AcDbBlockReference
  2
B-DIM
 10
212641.0458460086
 20
122400.3764858437
 30
0.0000000001114409
 41
30.0
 42
30.0
 43
30.0
  0
MTEXT
  5
F1
330
EC
100
AcDbEntity
  8
0Wymiary-PL
 62
   140
100
AcDbMText
 10
212056.0458460086
 20
122480.3764858438
 30
0.0000000001114409
 40
80.0
 41
0.0
 71
     5
 72
     1
  1
\A1;1170
  7
ROMANS
 73
     1
 44
1.0
1001
ACAD
1000
MTEXTBEGIN
1070
    73
1070
     1
1070
    44
1040
1.0
1070
    74
1070
     0
1000
MTEXTEND
  0
POINT
  5
F2
330
EC
100
AcDbEntity
  8
DEFPOINTS
 62
     0
100
AcDbPoint
 10
211471.0458460085
 20
120857.5587181849
 30
0.0000000000033108
  0
POINT
  5
F3
330
EC
100
AcDbEntity
  8
DEFPOINTS
 62
     0
100
AcDbPoint
 10
212641.0458460086
 20
121083.755253446
 30
0.0000000000033108
  0
POINT
  5
F4
330
EC
100
AcDbEntity
  8
DEFPOINTS
 62
     0
100
AcDbPoint
 10
212641.0458460086
 20
122400.3764858437
 30
0.0000000001114409
  0
ENDBLK
  5
F5
330
EC
100
AcDbEntity
  8
0
100
AcDbBlockEnd
  0
BLOCK
  5
F8
330
F7
100
AcDbEntity
  8
0
100
AcDbBlockBegin
  2
*D7
 70
     1
 10
0.0
 20
0.0
 30
0.0
  3
*D7
  1

  0
LINE
  5
F9
330
F7
100
AcDbEntity
  8
0Wymiary-PL
 62
     1
370
    -2
100
AcDbLine
 10
212903.6881167767
 20
120527.8157688285
 30
0.0000000001114409
 11
212903.6881167767
 21
120717.8157688285
 31
0.0000000001114409
  0
INSERT
  5
FA
330
F7
100
AcDbEntity
  8
0Wymiary-PL
 62
     1
370
    -2
100
AcDbBlockReference
  2
B-DIM
 10
212903.6881167767
 20
120497.8157688285
 30
0.0000000001114409
 41
30.0
 42
30.0
 43
30.0
 50
270.0
  0
INSERT
  5
FB
330
F7
100
AcDbEntity
  8
0Wymiary-PL
 62
     1
370
    -2
100
AcDbBlockReference
  2
B-DIM
 10
212903.6881167767
 20
120747.8157688285
 30
0.0000000001114409
 41
30.0
 42
30.0
 43
30.0
 50
90.0
  0
MTEXT
  5
FC
330
F7
100
AcDbEntity
  8
0Wymiary-PL
 62
   140
100
AcDbMText
 10
212823.6881167766
 20
120622.8157688285
 30
0.0000000001114409
 40
80.0
 41
0.0
 71
     5
 72
     1
  1
\A1;250
  7
ROMANS
 11
0.0000000000000001
 21
1.0
 31
0.0
 73
     1
 44
1.0
1001
ACAD
1000
MTEXTBEGIN
1070
    73
1070
     1
1070
    44
1040
1.0
1070
    74
1070
     0
1000
MTEXTEND
  0
POINT
  5
FD
330
F7
100
AcDbEntity
  8
DEFPOINTS
 62
     0
100
AcDbPoint
 10
212117.0458460086
 20
120497.8157688285
 30
0.0000000000033108
  0
POINT
  5
FE
330
F7
100
AcDbEntity
  8
DEFPOINTS
 62
     0
100
AcDbPoint
 10
212117.0458460086
 20
120747.8157688285
 30
0.0000000000033108
  0
POINT
  5
FF
330
F7
100
AcDbEntity
  8
DEFPOINTS
 62
     0
100
AcDbPoint
 10
212903.6881167767
 20
120747.8157688285
 30
0.0000000001114409
  0
ENDBLK
  5
100
330
F7
100
AcDbEntity
  8
0
100
AcDbBlockEnd
  0
BLOCK
  5
103
330
102
100
AcDbEntity
  8
0
100
AcDbBlockBegin
  2
*D8
 70
     1
 10
0.0
 20
0.0
 30
0.0
  3
*D8
  1

  0
LINE
  5
104
330
102
100
AcDbEntity
  8
0Wymiary-PL
 62
     1
370
    -2
100
AcDbLine
 10
212903.6881167767
 20
120777.8157688285
 30
0.0000000001114409
 11
212903.6881167767
 21
121752.6601925928
 31
0.0000000001114409
  0
INSERT
  5
105
330
102
100
AcDbEntity
  8
0Wymiary-PL
 62
     1
370
    -2
100
AcDbBlockReference
  2
B-DIM
 10
212903.6881167767
 20
120747.8157688285
 30
0.0000000001114409
 41
30.0
 42
30.0
 43
30.0
 50
270.0
  0
INSERT
  5
106
330
102
100
AcDbEntity
  8
0Wymiary-PL
 62
     1
370
    -2
100
AcDbBlockReference
  2
B-DIM
 10
212903.6881167767
 20
121782.6601925928
 30
0.0000000001114409
 41
30.0
 42
30.0
 43
30.0
 50
90.0
  0
MTEXT
  5
107
330
102
100
AcDbEntity
  8
0Wymiary-PL
 62
   140
100
AcDbMText
 10
212823.6881167766
 20
121265.2379807107
 30
0.0000000001114409
 40
80.0
 41
0.0
 71
     5
 72
     1
  1
\A1;1035
  7
ROMANS
 11
0.0000000000000001
 21
1.0
 31
0.0
 73
     1
 44
1.0
1001
ACAD
1000
MTEXTBEGIN
1070
    73
1070
     1
1070
    44
1040
1.0
1070
    74
1070
     0
1000
MTEXTEND
  0
POINT
  5
108
330
102
100
AcDbEntity
  8
DEFPOINTS
 62
     0
100
AcDbPoint
 10
212537.0458460086
 20
120747.8157688285
 30
0.0000000000033108
  0
POINT
  5
109
330
102
100
AcDbEntity
  8
DEFPOINTS
 62
     0
100
AcDbPoint
 10
212537.0458460086
 20
121782.6601925928
 30
0.0000000000032761
  0
POINT
  5
10A
330
102
100
AcDbEntity
  8
DEFPOINTS
 62
     0
100
AcDbPoint
 10
212903.6881167767
 20
121782.6601925928
 30
0.0000000001114409
  0
ENDBLK
  5
10B
330
102
100
AcDbEntity
  8
0
100
AcDbBlockEnd
  0
BLOCK
  5
10E
330
10D
100
AcDbEntity
  8
0
100
AcDbBlockBegin
  2
*D9
 70
     1
 10
0.0
 20
0.0
 30
0.0
  3
*D9
  1

  0
LINE
  5
10F
330
10D
100
AcDbEntity
  8
0Wymiary-PL
 62
     1
370
    -2
100
AcDbLine
 10
213070.8947777877
 20
120527.8157688285
 30
0.0000000001114409
 11
213070.8947777877
 21
121752.6601925928
 31
0.0000000001114409
  0
INSERT
  5
110
330
10D
100
AcDbEntity
  8
0Wymiary-PL
 62
     1
370
    -2
100
AcDbBlockReference
  2
B-DIM
 10
213070.8947777877
 20
120497.8157688285
 30
0.0000000001114409
 41
30.0
 42
30.0
 43
30.0
 50
270.0
  0
INSERT
  5
111
330
10D
100
AcDbEntity
  8
0Wymiary-PL
 62
     1
370
    -2
100
AcDbBlockReference
  2
B-DIM
 10
213070.8947777877
 20
121782.6601925928
 30
0.0000000001114409
 41
30.0
 42
30.0
 43
30.0
 50
90.0
  0
MTEXT
  5
112
330
10D
100
AcDbEntity
  8
0Wymiary-PL
 62
   140
100
AcDbMText
 10
212990.8947777876
 20
121140.2379807107
 30
0.0000000001114409
 40
80.0
 41
0.0
 71
     5
 72
     1
  1
\A1;1285
  7
ROMANS
 11
0.0000000000000001
 21
1.0
 31
0.0
 73
     1
 44
1.0
1001
ACAD
1000
MTEXTBEGIN
1070
    73
1070
     1
1070
    44
1040
1.0
1070
    74
1070
     0
1000
MTEXTEND
  0
POINT
  5
113
330
10D
100
AcDbEntity
  8
DEFPOINTS
 62
     0
100
AcDbPoint
 10
211883.8707576903
 20
120497.8157688285
 30
0.0000000000033108
  0
POINT
  5
114
330
10D
100
AcDbEntity
  8
DEFPOINTS
 62
     0
100
AcDbPoint
 10
212004.0458460086
 20
121782.6601925928
 30
0.0000000000033108
  0
POINT
  5
115
330
10D
100
AcDbEntity
  8
DEFPOINTS
 62
     0
100
AcDbPoint
 10
213070.8947777877
 20
121782.6601925928
 30
0.0000000001114409
  0
ENDBLK
  5
116
330
10D
100
AcDbEntity
  8
0
100
AcDbBlockEnd
  0
BLOCK
  5
15B
330
15A
100
AcDbEntity
  8
0
100
AcDbBlockBegin
  2
*D10
 70
     1
 10
0.0
 20
0.0
 30
0.0
  3
*D10
  1

  0
LINE
  5
15C
330
15A
100
AcDbEntity
  8
0Wymiary-PL
 62
     1
370
    -2
100
AcDbLine
 10
215486.9775905529
 20
120527.8157688285
 30
0.0000000001114409
 11
215486.9775905529
 21
120717.8157688285
 31
0.0000000001114409
  0
INSERT
  5
15D
330
15A
100
AcDbEntity
  8
0Wymiary-PL
 62
     1
370
    -2
100
AcDbBlockReference
  2
B-DIM
 10
215486.9775905529
 20
120497.8157688285
 30
0.0000000001114409
 41
30.0
 42
30.0
 43
30.0
 50
270.0
  0
INSERT
  5
15E
330
15A
100
AcDbEntity
  8
0Wymiary-PL
 62
     1
370
    -2
100
AcDbBlockReference
  2
B-DIM
 10
215486.9775905529
 20
120747.8157688285
 30
0.0000000001114409
 41
30.0
 42
30.0
 43
30.0
 50
90.0
  0
MTEXT
  5
15F
330
15A
100
AcDbEntity
  8
0Wymiary-PL
 62
   140
100
AcDbMText
 10
215406.9775905529
 20
120622.8157688285
 30
0.0000000001114409
 40
80.0
 41
0.0
 71
     5
 72
     1
  1
\A1;250
  7
ROMANS
 11
0.0000000000000001
 21
1.0
 31
0.0
 73
     1
 44
1.0
1001
ACAD
1000
MTEXTBEGIN
1070
    73
1070
     1
1070
    44
1040
1.0
1070
    74
1070
     0
1000
MTEXTEND
  0
POINT
  5
160
330
15A
100
AcDbEntity
  8
DEFPOINTS
 62
     0
100
AcDbPoint
 10
216273.619861321
 20
120497.8157688285
 30
0.0000000000033108
  0
POINT
  5
161
330
15A
100
AcDbEntity
  8
DEFPOINTS
 62
     0
100
AcDbPoint
 10
216273.619861321
 20
120747.8157688285
 30
0.0000000000033108
  0
POINT
  5
162
330
15A
100
AcDbEntity
  8
DEFPOINTS
 62
     0
100
AcDbPoint
 10
215486.9775905529
 20
120747.8157688285
 30
0.0000000001114409
  0
ENDBLK
  5
163
330
15A
100
AcDbEntity
  8
0
100
AcDbBlockEnd
  0
BLOCK
  5
166
330
165
100
AcDbEntity
  8
0
100
AcDbBlockBegin
  2
*D11
 70
     1
 10
0.0
 20
0.0
 30
0.0
  3
*D11
  1

  0
LINE
  5
167
330
165
100
AcDbEntity
  8
0Wymiary-PL
 62
     1
370
    -2
100
AcDbLine
 10
215486.9775905529
 20
120777.8157688285
 30
0.0000000001114409
 11
215486.9775905529
 21
121752.6601925928
 31
0.0000000001114409
  0
INSERT
  5
168
330
165
100
AcDbEntity
  8
0Wymiary-PL
 62
     1
370
    -2
100
AcDbBlockReference
  2
B-DIM
 10
215486.9775905529
 20
120747.8157688285
 30
0.0000000001114409
 41
30.0
 42
30.0
 43
30.0
 50
270.0
  0
INSERT
  5
169
330
165
100
AcDbEntity
  8
0Wymiary-PL
 62
     1
370
    -2
100
AcDbBlockReference
  2
B-DIM
 10
215486.9775905529
 20
121782.6601925928
 30
0.0000000001114409
 41
30.0
 42
30.0
 43
30.0
 50
90.0
  0
MTEXT
  5
16A
330
165
100
AcDbEntity
  8
0Wymiary-PL
 62
   140
100
AcDbMText
 10
215406.9775905529
 20
121265.2379807107
 30
0.0000000001114409
 40
80.0
 41
0.0
 71
     5
 72
     1
  1
\A1;1035
  7
ROMANS
 11
0.0000000000000001
 21
1.0
 31
0.0
 73
     1
 44
1.0
1001
ACAD
1000
MTEXTBEGIN
1070
    73
1070
     1
1070
    44
1040
1.0
1070
    74
1070
     0
1000
MTEXTEND
  0
POINT
  5
16B
330
165
100
AcDbEntity
  8
DEFPOINTS
 62
     0
100
AcDbPoint
 10
215853.619861321
 20
120747.8157688285
 30
0.0000000000033108
  0
POINT
  5
16C
330
165
100
AcDbEntity
  8
DEFPOINTS
 62
     0
100
AcDbPoint
 10
215853.619861321
 20
121782.6601925928
 30
0.0000000000032761
  0
POINT
  5
16D
330
165
100
AcDbEntity
  8
DEFPOINTS
 62
     0
100
AcDbPoint
 10
215486.9775905529
 20
121782.6601925928
 30
0.0000000001114409
  0
ENDBLK
  5
16E
330
165
100
AcDbEntity
  8
0
100
AcDbBlockEnd
  0
BLOCK
  5
171
330
170
100
AcDbEntity
  8
0
100
AcDbBlockBegin
  2
*D12
 70
     1
 10
0.0
 20
0.0
 30
0.0
  3
*D12
  1

  0
LINE
  5
172
330
170
100
AcDbEntity
  8
0Wymiary-PL
 62
     1
370
    -2
100
AcDbLine
 10
215319.7709295419
 20
120527.8157688285
 30
0.0000000001114409
 11
215319.7709295419
 21
121752.6601925928
 31
0.0000000001114409
  0
INSERT
  5
173
330
170
100
AcDbEntity
  8
0Wymiary-PL
 62
     1
370
    -2
100
AcDbBlockReference
  2
B-DIM
 10
215319.7709295419
 20
120497.8157688285
 30
0.0000000001114409
 41
30.0
 42
30.0
 43
30.0
 50
270.0
  0
INSERT
  5
174
330
170
100
AcDbEntity
  8
0Wymiary-PL
 62
     1
370
    -2
100
AcDbBlockReference
  2
B-DIM
 10
215319.7709295419
 20
121782.6601925928
 30
0.0000000001114409
 41
30.0
 42
30.0
 43
30.0
 50
90.0
  0
MTEXT
  5
175
330
170
100
AcDbEntity
  8
0Wymiary-PL
 62
   140
100
AcDbMText
 10
215239.7709295418
 20
121140.2379807107
 30
0.0000000001114409
 40
80.0
 41
0.0
 71
     5
 72
     1
  1
\A1;1285
  7
ROMANS
 11
0.0000000000000001
 21
1.0
 31
0.0
 73
     1
 44
1.0
1001
ACAD
1000
MTEXTBEGIN
1070
    73
1070
     1
1070
    44
1040
1.0
1070
    74
1070
     0
1000
MTEXTEND
  0
POINT
  5
176
330
170
100
AcDbEntity
  8
DEFPOINTS
 62
     0
100
AcDbPoint
 10
216506.7949496392
 20
120497.8157688285
 30
0.0000000000033108
  0
POINT
  5
177
330
170
100
AcDbEntity
  8
DEFPOINTS
 62
     0
100
AcDbPoint
 10
216386.619861321
 20
121782.6601925928
 30
0.0000000000033108
  0
POINT
  5
178
330
170
100
AcDbEntity
  8
DEFPOINTS
 62
     0
100
AcDbPoint
 10
215319.7709295419
 20
121782.6601925928
 30
0.0000000001114409
  0
ENDBLK
  5
179
330
170
100
AcDbEntity
  8
0
100
AcDbBlockEnd
  0
BLOCK
  5
17C
330
17B
100
AcDbEntity
  8
0
100
AcDbBlockBegin
  2
*D13
 70
     1
 10
0.0
 20
0.0
 30
0.0
  3
*D13
  1

  0
LINE
  5
17D
330
17B
100
AcDbEntity
  8
0Wymiary-PL
 62
     1
370
    -2
100
AcDbLine
 10
216889.619861321
 20
122216.3240435373
 30
0.0000000001111344
 11
215883.619861321
 21
122216.3240435373
 31
0.0000000001111344
  0
INSERT
  5
17E
330
17B
100
AcDbEntity
  8
0Wymiary-PL
 62
     1
370
    -2
100
AcDbBlockReference
  2
B-DIM
 10
216919.619861321
 20
122216.3240435373
 30
0.0000000001111344
 41
30.0
 42
30.0
 43
30.0
  0
INSERT
  5
17F
330
17B
100
AcDbEntity
  8
0Wymiary-PL
 62
     1
370
    -2
100
AcDbBlockReference
  2
B-DIM
 10
215853.619861321
 20
122216.3240435373
 30
0.0000000001111344
 41
30.0
 42
30.0
 43
30.0
 50
180.0
  0
MTEXT
  5
180
330
17B
100
AcDbEntity
  8
0Wymiary-PL
 62
   140
100
AcDbMText
 10
216386.6198613209
 20
122296.3240435373
 30
0.0000000001111344
 40
80.0
 41
0.0
 71
     5
 72
     1
  1
\A1;1066
  7
ROMANS
 73
     1
 44
1.0
1001
ACAD
1000
MTEXTBEGIN
1070
    73
1070
     1
1070
    44
1040
1.0
1070
    74
1070
     0
1000
MTEXTEND
  0
POINT
  5
181
330
17B
100
AcDbEntity
  8
DEFPOINTS
 62
     0
100
AcDbPoint
 10
216919.619861321
 20
121908.6946380416
 30
0.0000000000030043
  0
POINT
  5
182
330
17B
100
AcDbEntity
  8
DEFPOINTS
 62
     0
100
AcDbPoint
 10
215853.619861321
 20
121898.6446017688
 30
0.0000000000030043
  0
POINT
  5
183
330
17B
100
AcDbEntity
  8
DEFPOINTS
 62
     0
100
AcDbPoint
 10
215853.619861321
 20
122216.3240435373
 30
0.0000000001111344
  0
ENDBLK
  5
184
330
17B
100
AcDbEntity
  8
0
100
AcDbBlockEnd
  0
BLOCK
  5
187
330
186
100
AcDbEntity
  8
0
100
AcDbBlockBegin
  2
*D14
 70
     1
 10
0.0
 20
0.0
 30
0.0
  3
*D14
  1

  0
LINE
  5
188
330
186
100
AcDbEntity
  8
0Wymiary-PL
 62
     1
370
    -2
100
AcDbLine
 10
215883.619861321
 20
122216.3240435373
 30
0.0000000001111344
 11
215913.619861321
 21
122216.3240435373
 31
0.0000000001111344
  0
LINE
  5
189
330
186
100
AcDbEntity
  8
0Wymiary-PL
 62
     1
370
    -2
100
AcDbLine
 10
215719.619861321
 20
122216.3240435373
 30
0.0000000001111344
 11
215689.619861321
 21
122216.3240435373
 31
0.0000000001111344
  0
LINE
  5
18A
330
186
100
AcDbEntity
  8
0Wymiary-PL
 62
     1
370
    -2
100
AcDbLine
 10
215853.619861321
 20
122216.3240435373
 30
0.0000000001111344
 11
215749.619861321
 21
122216.3240435373
 31
0.0000000001111344
  0
INSERT
  5
18B
330
186
100
AcDbEntity
  8
0Wymiary-PL
 62
     1
370
    -2
100
AcDbBlockReference
  2
B-DIM
 10
215853.619861321
 20
122216.3240435373
 30
0.0000000001111344
 41
30.0
 42
30.0
 43
30.0
 50
180.0
  0
INSERT
  5
18C
330
186
100
AcDbEntity
  8
0Wymiary-PL
 62
     1
370
    -2
100
AcDbBlockReference
  2
B-DIM
 10
215749.619861321
 20
122216.3240435373
 30
0.0000000001111344
 41
30.0
 42
30.0
 43
30.0
  0
MTEXT
  5
18D
330
186
100
AcDbEntity
  8
0Wymiary-PL
 62
   140
100
AcDbMText
 10
215801.6198613209
 20
122296.3240435373
 30
0.0000000001111344
 40
80.0
 41
0.0
 71
     5
 72
     1
  1
\A1;104
  7
ROMANS
 73
     1
 44
1.0
1001
ACAD
1000
MTEXTBEGIN
1070
    73
1070
     1
1070
    44
1040
1.0
1070
    74
1070
     0
1000
MTEXTEND
  0
POINT
  5
18E
330
186
100
AcDbEntity
  8
DEFPOINTS
 62
     0
100
AcDbPoint
 10
215853.619861321
 20
121898.6446017688
 30
0.0000000000030043
  0
POINT
  5
18F
330
186
100
AcDbEntity
  8
DEFPOINTS
 62
     0
100
AcDbPoint
 10
215749.619861321
 20
121793.4898893691
 30
0.0000000000030043
  0
POINT
  5
190
330
186
100
AcDbEntity
  8
DEFPOINTS
 62
     0
100
AcDbPoint
 10
215749.619861321
 20
122216.3240435373
 30
0.0000000001111344
  0
ENDBLK
  5
191
330
186
100
AcDbEntity
  8
0
100
AcDbBlockEnd
  0
BLOCK
  5
194
330
193
100
AcDbEntity
  8
0
100
AcDbBlockBegin
  2
*D15
 70
     1
 10
0.0
 20
0.0
 30
0.0
  3
*D15
  1

  0
LINE
  5
195
330
193
100
AcDbEntity
  8
0Wymiary-PL
 62
     1
370
    -2
100
AcDbLine
 10
216889.619861321
 20
122400.3764858437
 30
0.0000000001114409
 11
215779.619861321
 21
122400.3764858437
 31
0.0000000001114409
  0
INSERT
  5
196
330
193
100
AcDbEntity
  8
0Wymiary-PL
 62
     1
370
    -2
100
AcDbBlockReference
  2
B-DIM
 10
216919.619861321
 20
122400.3764858437
 30
0.0000000001114409
 41
30.0
 42
30.0
 43
30.0
  0
INSERT
  5
197
330
193
100
AcDbEntity
  8
0Wymiary-PL
 62
     1
370
    -2
100
AcDbBlockReference
  2
B-DIM
 10
215749.6198613209
 20
122400.3764858437
 30
0.0000000001114409
 41
30.0
 42
30.0
 43
30.0
 50
180.0
  0
MTEXT
  5
198
330
193
100
AcDbEntity
  8
0Wymiary-PL
 62
   140
100
AcDbMText
 10
216334.619861321
 20
122480.3764858438
 30
0.0000000001114409
 40
80.0
 41
0.0
 71
     5
 72
     1
  1
\A1;1170
  7
ROMANS
 73
     1
 44
1.0
1001
ACAD
1000
MTEXTBEGIN
1070
    73
1070
     1
1070
    44
1040
1.0
1070
    74
1070
     0
1000
MTEXTEND
  0
POINT
  5
199
330
193
100
AcDbEntity
  8
DEFPOINTS
 62
     0
100
AcDbPoint
 10
216919.619861321
 20
120857.5587181849
 30
0.0000000000033108
  0
POINT
  5
19A
330
193
100
AcDbEntity
  8
DEFPOINTS
 62
     0
100
AcDbPoint
 10
215749.6198613209
 20
121083.755253446
 30
0.0000000000033108
  0
POINT
  5
19B
330
193
100
AcDbEntity
  8
DEFPOINTS
 62
     0
100
AcDbPoint
 10
215749.6198613209
 20
122400.3764858437
 30
0.0000000001114409
  0
ENDBLK
  5
19C
330
193
100
AcDbEntity
  8
0
100
AcDbBlockEnd
  0
ENDSEC
  0
SECTION
  2
ENTITIES
  0
TEXT
  5
71
330
2
100
AcDbEntity
  8
0Napisy-PL
370
     5
100
AcDbText
 10
3673.0470526836
 20
-11935.58537356714
 30
-0.0000000000118611
 40
100.0
  1
O B R Y S   B U D Y N K U           S K A L A   1 : 5 0 0 
  7
AVA
100
AcDbText
  0
LINE
  5
76
330
2
100
AcDbEntity
  8
NAPISY
  6
HIDDEN
 62
     1
 48
8.0
370
     5
100
AcDbLine
 10
7426.384296286328
 20
-7961.055906847949
 30
-0.000000000008331
 11
7426.384296286328
 21
-1785.537346443379
 31
-0.0000000000028461
  0
TEXT
  5
7B
330
2
100
AcDbEntity
  8
0Napisy-PL
370
     5
100
AcDbText
 10
7366.863119292975
 20
-7746.286703589155
 30
-0.0000000000081403
 40
100.0
  1
OŚ ODBICIA LUSTRZANEGO
 50
90.0
  7
AVA
100
AcDbText
  0
TEXT
  5
7C
330
2
100
AcDbEntity
  8
0Napisy-PL
370
     5
100
AcDbText
 10
3769.260103801499
 20
527.7798873147258
 30
-0.0000000000007914
 40
150.0
  1
MOŻNA WKLEIĆ DO PROJEKTU ZAGOSPODAROWANIA TERENU
  7
AVA
100
AcDbText
  0
TEXT
  5
7D
330
2
100
AcDbEntity
  8
0Napisy-PL
370
     5
100
AcDbText
 10
3692.924833166355
 20
857.6483646774867
 30
-0.0000000000004985
 40
150.0
  1
"DOM  W  KLEMATISACH (G2)"
  7
AVA
100
AcDbText
  0
LWPOLYLINE
  5
7E
330
2
100
AcDbEntity
  8
RAMKI-A4
370
     5
100
AcDbPolyline
 90
        4
 70
     1
 43
0.0
 10
2213.695106008614
 20
-12601.14145646967
 10
2213.695106008614
 20
1418.858543530325
 10
12413.69510600864
 20
1418.858543530325
 10
12413.69510600864
 20
-12601.14145646967
  0
LINE
  5
82
330
2
100
AcDbEntity
  8
TEREN$0$A-MassElement-G
  6
Continuous
 62
   210
370
     5
100
AcDbLine
 10
5348.097288630118
 20
-4874.440865411598
 30
-0.0000000000010186
 11
5524.597288630117
 21
-4874.440865411598
 31
-0.0000000000010186
  0
LINE
  5
87
330
2
100
AcDbEntity
  8
TEREN$0$A-MassElement-G
  6
Continuous
 62
   210
370
     5
100
AcDbLine
 10
5524.597288630117
 20
-4874.440865411598
 30
-0.0000000000010186
 11
5524.597288630146
 21
-4723.440865411598
 31
-0.0000000000008845
  0
LINE
  5
88
330
2
100
AcDbEntity
  8
TEREN$0$A-MassElement-G
  6
Continuous
 62
   210
370
     5
100
AcDbLine
 10
5348.097288630118
 20
-4723.440865411598
 30
-0.0000000000008845
 11
5584.597288630146
 21
-4723.440865411598
 31
-0.0000000000008845
  0
LINE
  5
89
330
2
100
AcDbEntity
  8
TEREN$0$A-MassElement-G
  6
Continuous
 62
   210
370
     5
100
AcDbLine
 10
5348.097288630118
 20
-4904.440865411597
 30
-0.0000000000010452
 11
5554.597288630146
 21
-4904.440865411597
 31
-0.0000000000010452
  0
LINE
  5
8A
330
2
100
AcDbEntity
  8
TEREN$0$A-MassElement-G
  6
Continuous
 62
   210
370
     5
100
AcDbLine
 10
5554.597288630146
 20
-4904.440865411597
 30
-0.0000000000010452
 11
5554.597288630146
 21
-4723.440865411598
 31
-0.0000000000008845
  0
LINE
  5
8B
330
2
100
AcDbEntity
  8
TEREN$0$A-MassElement-G
  6
Continuous
 62
   210
370
     5
100
AcDbLine
 10
5348.097288630118
 20
-4934.440865411598
 30
-0.0000000000010719
 11
5584.597288630117
 21
-4934.440865411598
 31
-0.0000000000010719
  0
LINE
  5
8C
330
2
100
AcDbEntity
  8
TEREN$0$A-MassElement-G
  6
Continuous
 62
   210
370
     5
100
AcDbLine
 10
5584.597288630117
 20
-4934.440865411598
 30
-0.0000000000010719
 11
5584.597288630146
 21
-4723.440865411598
 31
-0.0000000000008845
  0
LINE
  5
8D
330
2
100
AcDbEntity
  8
TEREN$0$A-MassElement-G
  6
Continuous
 62
   210
370
     5
100
AcDbLine
 10
5651.500072959519
 20
-3428.596441647256
 30
0.0000000000002656
 11
4712.597288630116
 21
-3428.596441647256
 31
0.0000000000002656
  0
LINE
  5
8E
330
2
100
AcDbEntity
  8
TEREN$0$A-MassElement-G
  6
Continuous
 62
   210
370
     5
100
AcDbLine
 10
5293.521809155413
 20
-3428.596441647256
 30
0.0000000000002656
 11
5293.521809155413
 21
-3368.596441647257
 31
0.0000000000003189
  0
LINE
  5
8F
330
2
100
AcDbEntity
  8
TEREN$0$A-MassElement-G
  6
Continuous
 62
   210
370
     5
100
AcDbLine
 10
5293.521809155413
 20
-3398.596441647256
 30
0.0000000000002922
 11
5173.521809155412
 21
-3398.596441647256
 31
0.0000000000002922
  0
LINE
  5
90
330
2
100
AcDbEntity
  8
TEREN$0$A-MassElement-G
  6
Continuous
 62
   210
370
     5
100
AcDbLine
 10
5173.521809155412
 20
-3428.596441647256
 30
0.0000000000002656
 11
5173.521809155412
 21
-3368.596441647257
 31
0.0000000000003189
  0
LINE
  5
91
330
2
100
AcDbEntity
  8
TEREN$0$A-MassElement-G
  6
Continuous
 62
   210
370
     5
100
AcDbLine
 10
5651.500072959519
 20
-3688.596441647256
 30
0.0000000000000346
 11
5651.500072959519
 21
-3428.596441647256
 31
0.0000000000002656
  0
LINE
  5
92
330
2
100
AcDbEntity
  8
TEREN$0$A-MassElement-G
  6
Continuous
 62
   210
370
     5
100
AcDbLine
 10
5293.521809155413
 20
-3368.596441647257
 30
0.0000000000003189
 11
5173.521809155412
 21
-3368.596441647257
 31
0.0000000000003189
  0
LINE
  5
93
330
2
100
AcDbEntity
  8
TEREN$0$A-MassElement-G
  6
Continuous
 62
   210
370
     5
100
AcDbLine
 10
4712.597288630116
 20
-3428.596441647256
 30
0.0000000000002656
 11
4712.597288630116
 21
-3688.596441647256
 31
0.0000000000000346
  0
LINE
  5
94
330
2
100
AcDbEntity
  8
TEREN$0$A-WallBelow-G
  6
Continuous
 62
     8
370
     5
390
98
100
AcDbLine
 10
5651.500072959519
 20
-3688.313290332721
 30
0.0000000000000349
 11
5676.50007295952
 21
-3688.313290332721
 31
0.0000000000000349
  0
LINE
  5
99
330
2
100
AcDbEntity
  8
TEREN$0$A-WallBelow-G
  6
Continuous
 62
     8
370
     5
390
98
100
AcDbLine
 10
5676.50007295952
 20
-3688.313290332721
 30
0.0000000000000349
 11
5676.50007295952
 21
-3403.596441647256
 31
0.0000000000002878
  0
LINE
  5
9A
330
2
100
AcDbEntity
  8
TEREN$0$A-WallBelow-G
  6
Continuous
 62
     8
370
     5
390
98
100
AcDbLine
 10
5651.500072959519
 20
-3428.596441647256
 30
0.0000000000002656
 11
5651.500072959519
 21
-3688.313290332721
 31
0.0000000000000349
  0
LINE
  5
9B
330
2
100
AcDbEntity
  8
TEREN$0$A-WallBelow-G
  6
Continuous
 62
     8
370
     5
390
98
100
AcDbLine
 10
5676.50007295952
 20
-3403.596441647256
 30
0.0000000000002878
 11
5318.521809155413
 21
-3403.596441647256
 31
0.0000000000002878
  0
LINE
  5
9C
330
2
100
AcDbEntity
  8
TEREN$0$A-WallBelow-G
  6
Continuous
 62
     8
370
     5
390
98
100
AcDbLine
 10
5293.521809155413
 20
-3428.596441647256
 30
0.0000000000002656
 11
5651.500072959519
 21
-3428.596441647256
 31
0.0000000000002656
  0
LINE
  5
9D
330
2
100
AcDbEntity
  8
TEREN$0$A-WallBelow-G
  6
Continuous
 62
     8
370
     5
390
98
100
AcDbLine
 10
5318.521809155413
 20
-3403.596441647256
 30
0.0000000000002878
 11
5318.521809155413
 21
-3368.596441647257
 31
0.0000000000003189
  0
LINE
  5
9E
330
2
100
AcDbEntity
  8
TEREN$0$A-WallBelow-G
  6
Continuous
 62
     8
370
     5
390
98
100
AcDbLine
 10
5318.521809155413
 20
-3368.596441647257
 30
0.0000000000003189
 11
5293.521809155413
 21
-3368.596441647257
 31
0.0000000000003189
  0
LINE
  5
9F
330
2
100
AcDbEntity
  8
TEREN$0$A-WallBelow-G
  6
Continuous
 62
     8
370
     5
390
98
100
AcDbLine
 10
5293.521809155413
 20
-3368.596441647257
 30
0.0000000000003189
 11
5293.521809155413
 21
-3428.596441647256
 31
0.0000000000002656
  0
LINE
  5
A0
330
2
100
AcDbEntity
  8
TEREN$0$A-WallBelow-G
  6
Continuous
 62
     8
370
     5
390
98
100
AcDbLine
 10
4687.597288630117
 20
-3403.596441647256
 30
0.0000000000002878
 11
4687.597288630117
 21
-3688.313290332721
 31
0.0000000000000349
  0
LINE
  5
A1
330
2
100
AcDbEntity
  8
TEREN$0$A-WallBelow-G
  6
Continuous
 62
     8
370
     5
390
98
100
AcDbLine
 10
4687.597288630117
 20
-3688.313290332721
 30
0.0000000000000349
 11
4712.597288630116
 21
-3688.313290332721
 31
0.0000000000000349
  0
LINE
  5
A2
330
2
100
AcDbEntity
  8
TEREN$0$A-WallBelow-G
  6
Continuous
 62
     8
370
     5
390
98
100
AcDbLine
 10
4712.597288630116
 20
-3688.313290332721
 30
0.0000000000000349
 11
4712.597288630116
 21
-3428.596441647256
 31
0.0000000000002656
  0
LINE
  5
A3
330
2
100
AcDbEntity
  8
TEREN$0$A-WallBelow-G
  6
Continuous
 62
     8
370
     5
390
98
100
AcDbLine
 10
5148.521809155412
 20
-3403.596441647256
 30
0.0000000000002878
 11
4687.597288630117
 21
-3403.596441647256
 31
0.0000000000002878
  0
LINE
  5
A4
330
2
100
AcDbEntity
  8
TEREN$0$A-WallBelow-G
  6
Continuous
 62
     8
370
     5
390
98
100
AcDbLine
 10
4712.597288630116
 20
-3428.596441647256
 30
0.0000000000002656
 11
5173.521809155412
 21
-3428.596441647256
 31
0.0000000000002656
  0
LINE
  5
A5
330
2
100
AcDbEntity
  8
TEREN$0$A-WallBelow-G
  6
Continuous
 62
     8
370
     5
390
98
100
AcDbLine
 10
5173.521809155412
 20
-3368.596441647257
 30
0.0000000000003189
 11
5148.521809155412
 21
-3368.596441647257
 31
0.0000000000003189
  0
LINE
  5
A6
330
2
100
AcDbEntity
  8
TEREN$0$A-WallBelow-G
  6
Continuous
 62
     8
370
     5
390
98
100
AcDbLine
 10
5148.521809155412
 20
-3368.596441647257
 30
0.0000000000003189
 11
5148.521809155412
 21
-3403.596441647256
 31
0.0000000000002878
  0
LINE
  5
A7
330
2
100
AcDbEntity
  8
TEREN$0$A-WallBelow-G
  6
Continuous
 62
     8
370
     5
390
98
100
AcDbLine
 10
5173.521809155412
 20
-3428.596441647256
 30
0.0000000000002656
 11
5173.521809155412
 21
-3368.596441647257
 31
0.0000000000003189
  0
HATCH
  5
A8
330
2
100
AcDbEntity
  8
0Hatch
370
     5
100
AcDbHatch
 10
0.0
 20
0.0
 30
0.0
210
0.0
220
0.0
230
1.0
  2
SOLID
 70
     1
 71
     1
 91
        1
 92
        7
 72
     0
 73
     1
 93
        8
 10
5348.097288630118
 20
-4723.440865411598
 10
5399.718943049898
 20
-4723.440865411598
 10
5399.718943049898
 20
-4663.440865411597
 10
5288.097288630117
 20
-4663.440865411597
 10
5288.097288630117
 20
-4913.440865411597
 10
5250.097288630117
 20
-4913.440865411597
 10
5250.097288630117
 20
-4973.440865411598
 10
5348.097288630146
 20
-4973.440865411598
 97
        8
330
BC
330
BE
330
BD
330
B7
330
B1
330
AC
330
B0
330
B6
 75
     0
 76
     1
 47
3.113359413160372
 98
        1
 10
5318.694618596346
 20
-4772.950074120788
1001
ACAD
1010
0.0
1020
0.0
1030
0.0
  0
LINE
  5
AC
102
{ACAD_REACTORS
330
A8
102
}
330
2
100
AcDbEntity
  8
A-Wall-G
  6
Continuous
 62
     7
370
     5
100
AcDbLine
 10
5250.097288630117
 20
-4913.440865411597
 30
-0.0000000000011065
 11
5250.097288630117
 21
-4973.440865411598
 31
-0.0000000000011065
  0
LINE
  5
B0
102
{ACAD_REACTORS
330
A8
102
}
330
2
100
AcDbEntity
  8
A-Wall-G
  6
Continuous
 62
     7
370
     5
100
AcDbLine
 10
5250.097288630117
 20
-4973.440865411598
 30
-0.0000000000011065
 11
5348.097288630146
 21
-4973.440865411598
 31
-0.0000000000011065
  0
LINE
  5
B1
102
{ACAD_REACTORS
330
A8
102
}
330
2
100
AcDbEntity
  8
A-Wall-G
  6
Continuous
 62
     7
370
     5
100
AcDbLine
 10
5250.097288630117
 20
-4913.440865411597
 30
-0.0000000000011065
 11
5288.097288630117
 21
-4913.440865411597
 31
-0.0000000000011065
  0
HATCH
  5
B2
330
2
100
AcDbEntity
  8
0Hatch
100
AcDbHatch
 10
0.0
 20
0.0
 30
0.0
210
0.0
220
0.0
230
1.0
  2
SOLID
 70
     1
 71
     1
 91
        1
 92
        7
 72
     0
 73
     1
 93
       23
 10
4762.097288630116
 20
-3748.596441647271
 10
5708.097288630029
 20
-3748.596441647257
 10
5708.097288630145
 20
-4082.81828274166
 10
5812.097288630116
 20
-4082.818282741646
 10
5812.097288630116
 20
-4329.180865411632
 10
5708.097288630145
 20
-4329.180865411617
 10
5708.097288630117
 20
-4663.440865411597
 10
5499.718943049927
 20
-4663.440865411597
 10
5499.718943049899
 20
-4723.440865411598
 10
5577.931251100817
 20
-4723.440865411598
 10
5768.097288630117
 20
-4723.440865411612
 10
5768.097288630146
 20
-4389.180865411617
 10
5872.097288630117
 20
-4389.180865411588
 10
5872.097288630117
 20
-4022.818282741616
 10
5768.097288630117
 20
-4022.818282741631
 10
5768.097288630117
 20
-3991.096441647256
 10
5768.097288630117
 20
-3688.596441647256
 10
5651.500072959519
 20
-3688.596441647256
 10
4702.097288630117
 20
-3688.596441647256
 10
4702.097288630088
 20
-4973.440865411583
 10
4800.097288630117
 20
-4973.440865411598
 10
4800.097288630117
 20
-4913.440865411597
 10
4762.097288630058
 20
-4913.440865411583
 97
       23
330
C7
330
C5
330
CA
330
CE
330
CC
330
C2
330
B9
330
BA
330
BB
330
B8
330
C1
330
CB
330
CD
330
C9
330
C4
330
C3
330
C8
330
C6
330
BF
330
B3
330
B5
330
B4
330
C0
 75
     0
 76
     1
 47
4.712803736968742
 98
        1
 10
4725.71807660925
 20
-3829.339134435271
1001
ACAD
1010
0.0
1020
0.0
1030
0.0
  0
LINE
  5
B3
102
{ACAD_REACTORS
330
B2
102
}
330
2
100
AcDbEntity
  8
A-Wall-G
  6
Continuous
 62
     7
370
     5
100
AcDbLine
 10
4702.097288630088
 20
-4973.440865411583
 30
-0.0000000000011065
 11
4800.097288630117
 21
-4973.440865411598
 31
-0.0000000000011065
  0
LINE
  5
B4
102
{ACAD_REACTORS
330
B2
102
}
330
2
100
AcDbEntity
  8
A-Wall-G
  6
Continuous
 62
     7
370
     5
100
AcDbLine
 10
4762.097288630058
 20
-4913.440865411583
 30
-0.0000000000011065
 11
4800.097288630117
 21
-4913.440865411597
 31
-0.0000000000011065
  0
LINE
  5
B5
102
{ACAD_REACTORS
330
B2
102
}
330
2
100
AcDbEntity
  8
A-Wall-G
  6
Continuous
 62
     7
370
     5
100
AcDbLine
 10
4800.097288630117
 20
-4973.440865411598
 30
-0.0000000000011065
 11
4800.097288630117
 21
-4913.440865411597
 31
-0.0000000000010532
  0
LINE
  5
B6
102
{ACAD_REACTORS
330
A8
102
}
330
2
100
AcDbEntity
  8
A-Wall-G
  6
Continuous
 62
     7
370
     5
100
AcDbLine
 10
5348.097288630146
 20
-4973.440865411598
 30
-0.0000000000011065
 11
5348.097288630118
 21
-4723.440865411598
 31
-0.0000000000008845
  0
LINE
  5
B7
102
{ACAD_REACTORS
330
A8
102
}
330
2
100
AcDbEntity
  8
A-Wall-G
  6
Continuous
 62
     7
370
     5
100
AcDbLine
 10
5288.097288630117
 20
-4913.440865411597
 30
-0.0000000000010532
 11
5288.097288630117
 21
-4663.440865411597
 31
-0.0000000000008312
  0
LINE
  5
B8
102
{ACAD_REACTORS
330
B2
102
}
330
2
100
AcDbEntity
  8
A-Wall-G
  6
Continuous
 62
     7
370
     5
100
AcDbLine
 10
5577.931251100817
 20
-4723.440865411598
 30
-0.0000000000008845
 11
5768.097288630117
 21
-4723.440865411612
 31
-0.0000000000008845
  0
LINE
  5
B9
102
{ACAD_REACTORS
330
B2
102
}
330
2
100
AcDbEntity
  8
A-Wall-G
  6
Continuous
 62
     7
370
     5
100
AcDbLine
 10
5499.718943049927
 20
-4663.440865411597
 30
-0.0000000000008845
 11
5708.097288630117
 21
-4663.440865411597
 31
-0.0000000000008845
  0
LINE
  5
BA
102
{ACAD_REACTORS
330
B2
102
}
330
2
100
AcDbEntity
  8
A-Wall-G
  6
Continuous
 62
     7
370
     5
100
AcDbLine
 10
5499.718943049927
 20
-4663.440865411597
 30
-0.0000000000008845
 11
5499.718943049899
 21
-4723.440865411598
 31
-0.0000000000008845
  0
LINE
  5
BB
102
{ACAD_REACTORS
330
B2
102
}
330
2
100
AcDbEntity
  8
A-Wall-G
  6
Continuous
 62
     7
370
     5
100
AcDbLine
 10
5499.718943049899
 20
-4723.440865411598
 30
-0.0000000000008845
 11
5577.931251100817
 21
-4723.440865411598
 31
-0.0000000000008845
  0
LINE
  5
BC
102
{ACAD_REACTORS
330
A8
102
}
330
2
100
AcDbEntity
  8
A-Wall-G
  6
Continuous
 62
     7
370
     5
100
AcDbLine
 10
5348.097288630118
 20
-4723.440865411598
 30
-0.0000000000008845
 11
5399.718943049898
 21
-4723.440865411598
 31
-0.0000000000008845
  0
LINE
  5
BD
102
{ACAD_REACTORS
330
A8
102
}
330
2
100
AcDbEntity
  8
A-Wall-G
  6
Continuous
 62
     7
370
     5
100
AcDbLine
 10
5288.097288630117
 20
-4663.440865411597
 30
-0.0000000000008312
 11
5399.718943049898
 21
-4663.440865411597
 31
-0.0000000000008845
  0
LINE
  5
BE
102
{ACAD_REACTORS
330
A8
102
}
330
2
100
AcDbEntity
  8
A-Wall-G
  6
Continuous
 62
     7
370
     5
100
AcDbLine
 10
5399.718943049898
 20
-4723.440865411598
 30
-0.0000000000008845
 11
5399.718943049898
 21
-4663.440865411597
 31
-0.0000000000008312
  0
LINE
  5
BF
102
{ACAD_REACTORS
330
B2
102
}
330
2
100
AcDbEntity
  8
A-Wall-G
  6
Continuous
 62
     7
370
     5
100
AcDbLine
 10
4702.097288630088
 20
-4973.440865411583
 30
-0.0000000000011065
 11
4702.097288630117
 21
-3688.596441647256
 31
0.0000000000000346
  0
LINE
  5
C0
102
{ACAD_REACTORS
330
B2
102
}
330
2
100
AcDbEntity
  8
A-Wall-G
  6
Continuous
 62
     7
370
     5
100
AcDbLine
 10
4762.097288630058
 20
-4913.440865411583
 30
-0.0000000000010532
 11
4762.097288630116
 21
-3748.596441647257
 31
-0.0000000000000187
  0
LINE
  5
C1
102
{ACAD_REACTORS
330
B2
102
}
330
2
100
AcDbEntity
  8
A-Wall-G
  6
Continuous
 62
     7
370
     5
100
AcDbLine
 10
5768.097288630117
 20
-4723.440865411612
 30
-0.0000000000008845
 11
5768.097288630146
 21
-4389.180865411617
 31
-0.0000000000005876
  0
LINE
  5
C2
102
{ACAD_REACTORS
330
B2
102
}
330
2
100
AcDbEntity
  8
A-Wall-G
  6
Continuous
 62
     7
370
     5
100
AcDbLine
 10
5708.097288630117
 20
-4663.440865411597
 30
-0.0000000000008324
 11
5708.097288630145
 21
-4329.180865411617
 31
-0.0000000000005424
  0
LINE
  5
C3
102
{ACAD_REACTORS
330
B2
102
}
330
2
100
AcDbEntity
  8
A-Wall-G
  6
Continuous
 62
     7
370
     5
100
AcDbLine
 10
5768.097288630146
 20
-4022.818282741631
 30
-0.0000000000002622
 11
5768.097288630117
 21
-3688.596441647256
 31
0.0000000000000346
  0
LINE
  5
C4
102
{ACAD_REACTORS
330
B2
102
}
330
2
100
AcDbEntity
  8
A-Wall-G
  6
Continuous
 62
     7
370
     5
100
AcDbLine
 10
5768.097288630117
 20
-4022.818282741631
 30
-0.0000000000002622
 11
5768.097288630117
 21
-3991.096441647256
 31
-0.000000000000234
  0
LINE
  5
C5
102
{ACAD_REACTORS
330
B2
102
}
330
2
100
AcDbEntity
  8
A-Wall-G
  6
Continuous
 62
     7
370
     5
100
AcDbLine
 10
5708.097288630145
 20
-4082.81828274166
 30
-0.0000000000002622
 11
5708.097288630029
 21
-3748.596441647257
 31
-0.0000000000001595
  0
LINE
  5
C6
102
{ACAD_REACTORS
330
B2
102
}
330
2
100
AcDbEntity
  8
A-Wall-G
  6
Continuous
 62
     7
370
     5
100
AcDbLine
 10
5768.097288630117
 20
-3688.596441647256
 30
0.0000000000000346
 11
4702.097288630117
 21
-3688.596441647256
 31
0.0000000000000346
  0
LINE
  5
C7
102
{ACAD_REACTORS
330
B2
102
}
330
2
100
AcDbEntity
  8
A-Wall-G
  6
Continuous
 62
     7
370
     5
100
AcDbLine
 10
5708.097288630058
 20
-3748.596441647257
 30
0.0000000000000346
 11
4762.097288630087
 21
-3748.596441647271
 31
0.0000000000000346
  0
LINE
  5
C8
102
{ACAD_REACTORS
330
B2
102
}
330
2
100
AcDbEntity
  8
A-Wall-G
  6
Continuous
 62
     7
370
     5
100
AcDbLine
 10
5768.097288630117
 20
-3688.596441647256
 30
0.0000000000000346
 11
5651.500072959519
 21
-3688.596441647256
 31
0.0000000000000346
  0
LINE
  5
C9
102
{ACAD_REACTORS
330
B2
102
}
330
2
100
AcDbEntity
  8
A-Wall-G
  6
Continuous
 62
     7
370
     5
100
AcDbLine
 10
5872.097288630117
 20
-4022.818282741616
 30
-0.0000000000002622
 11
5768.097288630146
 21
-4022.818282741631
 31
-0.0000000000002622
  0
LINE
  5
CA
102
{ACAD_REACTORS
330
B2
102
}
330
2
100
AcDbEntity
  8
A-Wall-G
  6
Continuous
 62
     7
370
     5
100
AcDbLine
 10
5813.097288630117
 20
-4082.818282741646
 30
-0.0000000000002622
 11
5708.097288630145
 21
-4082.81828274166
 31
-0.0000000000002622
  0
LINE
  5
CB
102
{ACAD_REACTORS
330
B2
102
}
330
2
100
AcDbEntity
  8
A-Wall-G
  6
Continuous
 62
     7
370
     5
100
AcDbLine
 10
5768.097288630146
 20
-4389.180865411617
 30
-0.0000000000005876
 11
5872.097288630117
 21
-4389.180865411588
 31
-0.0000000000005876
  0
LINE
  5
CC
102
{ACAD_REACTORS
330
B2
102
}
330
2
100
AcDbEntity
  8
A-Wall-G
  6
Continuous
 62
     7
370
     5
100
AcDbLine
 10
5708.097288630145
 20
-4329.180865411617
 30
-0.0000000000005876
 11
5813.097288630117
 21
-4329.180865411632
 31
-0.0000000000005876
  0
LINE
  5
CD
102
{ACAD_REACTORS
330
B2
102
}
330
2
100
AcDbEntity
  8
A-Wall-G
  6
Continuous
 62
     7
370
     5
100
AcDbLine
 10
5872.097288630117
 20
-4389.180865411603
 30
-0.0000000000005876
 11
5872.097288630117
 21
-4022.818282741616
 31
-0.0000000000002622
  0
LINE
  5
CE
102
{ACAD_REACTORS
330
B2
102
}
330
2
100
AcDbEntity
  8
A-Wall-G
  6
Continuous
 62
     7
370
     5
100
AcDbLine
 10
5812.097288630116
 20
-4329.180865411646
 30
-0.0000000000005343
 11
5812.097288630116
 21
-4082.818282741631
 31
-0.0000000000003155
  0
LINE
  5
CF
330
2
100
AcDbEntity
  8
0Wymiary-PL
370
     5
100
AcDbLine
 10
4800.097288630117
 20
-4913.440865411597
 30
-0.0000000000010532
 11
5250.097288630088
 21
-4913.440865411597
 31
-0.0000000000011065
  0
LINE
  5
D0
330
2
100
AcDbEntity
  8
0Wymiary-PL
370
     5
100
AcDbLine
 10
4800.097288630117
 20
-4973.440865411598
 30
-0.0000000000011065
 11
5250.097288630117
 21
-4973.440865411598
 31
-0.0000000000011065
  0
LINE
  5
D1
330
2
100
AcDbEntity
  8
0Wymiary-PL
370
     5
100
AcDbLine
 10
5399.718943049898
 20
-4663.440865411597
 30
-0.0000000000008312
 11
5499.718943049927
 21
-4664.273520656425
 31
-0.0000000000008845
  0
DIMENSION
  5
D2
330
2
100
AcDbEntity
  8
0Wymiary-PL
100
AcDbDimension
  2
*D4
 10
5768.097288630146
 20
-3254.932590702797
 30
0.0000000001082434
 11
5235.097288630147
 21
-3174.932590702796
 31
-0.0000000000003065
 12
-206768.9485573785
 22
-125471.2566342401
 32
-0.0000000000003065
 71
     5
 42
1066.000000000029
  3
500
100
AcDbAlignedDimension
 13
4702.097288630117
 23
-3562.561996198493
 33
-0.0000000000001599
 14
5768.097288630146
 24
-3572.612032471326
 34
-0.0000000000001688
100
AcDbRotatedDimension
  0
DIMENSION
  5
DE
330
2
100
AcDbEntity
  8
0Wymiary-PL
100
AcDbDimension
  2
*D5
 10
5872.097288630117
 20
-3254.932590702797
 30
0.0000000001082434
 11
5820.097288630146
 21
-3174.932590702796
 31
-0.0000000000003065
 12
-206768.9485573785
 22
-125471.2566342401
 32
-0.0000000000003065
 71
     5
 42
103.9999999999709
  3
500
100
AcDbAlignedDimension
 13
5768.097288630146
 23
-3572.612032471326
 33
-0.0000000000001688
 14
5872.097288630117
 24
-3677.766744870954
 34
-0.0000000000002622
100
AcDbRotatedDimension
  0
DIMENSION
  5
EB
330
2
100
AcDbEntity
  8
0Wymiary-PL
100
AcDbDimension
  2
*D6
 10
5872.097288630146
 20
-3070.880148396347
 30
0.0000000001087134
 11
5287.097288630117
 21
-2990.880148396347
 31
0.0
 12
-206768.9485573785
 22
-125471.2566342401
 32
0.0
 71
     5
 42
1170.000000000058
  3
500
100
AcDbAlignedDimension
 13
4702.097288630088
 23
-4613.6979160552
 33
-0.000000000000787
 14
5872.097288630146
 24
-4387.501380794056
 34
-0.0000000000005861
100
AcDbRotatedDimension
  0
DIMENSION
  5
F6
330
2
100
AcDbEntity
  8
0Wymiary-PL
100
AcDbDimension
  2
*D7
 10
6134.739559398207
 20
-4723.440865411598
 30
0.0000000001072456
 11
6054.739559398178
 21
-4848.440865411569
 31
0.0
 12
-206768.9485573785
 22
-125471.2566342401
 32
0.0
 71
     5
 42
250.0
  3
500
100
AcDbAlignedDimension
 13
5348.097288630146
 23
-4973.440865411598
 33
-0.0000000000011065
 14
5348.097288630118
 24
-4723.440865411598
 34
-0.0000000000008845
 50
90.0
100
AcDbRotatedDimension
  0
DIMENSION
  5
101
330
2
100
AcDbEntity
  8
0Wymiary-PL
100
AcDbDimension
  2
*D8
 10
6134.739559398207
 20
-3688.596441647256
 30
0.0000000001081647
 11
6054.739559398178
 21
-4206.018653529405
 31
0.0
 12
-206768.9485573785
 22
-125471.2566342401
 32
0.0
 71
     5
 42
1034.844423764356
  3
500
100
AcDbAlignedDimension
 13
5768.097288630117
 23
-4723.440865411612
 33
-0.0000000000008845
 14
5768.097288630117
 24
-3688.596441647256
 34
0.0
 50
90.0
100
AcDbRotatedDimension
  0
DIMENSION
  5
10C
330
2
100
AcDbEntity
  8
0Wymiary-PL
100
AcDbDimension
  2
*D9
 10
6301.946220409242
 20
-3688.596441647256
 30
0.0000000001081647
 11
6221.946220409212
 21
-4331.01865352939
 31
0.0
 12
-206768.9485573785
 22
-125471.2566342401
 32
0.0
 71
     5
 42
1284.844423764327
  3
500
100
AcDbAlignedDimension
 13
5114.922200311906
 23
-4973.440865411583
 33
-0.0000000000011065
 14
5235.097288630117
 24
-3688.596441647256
 34
0.0000000000000346
 50
90.0
100
AcDbRotatedDimension
  0
LINE
  5
117
330
2
100
AcDbEntity
  8
TEREN$0$A-MassElement-G
  6
Continuous
 62
   210
370
     5
100
AcDbLine
 10
9504.671303942538
 20
-4874.440865411598
 30
-0.0000000000010186
 11
9328.171303942538
 21
-4874.440865411598
 31
-0.0000000000010186
  0
LINE
  5
118
330
2
100
AcDbEntity
  8
TEREN$0$A-MassElement-G
  6
Continuous
 62
   210
370
     5
100
AcDbLine
 10
9328.171303942538
 20
-4874.440865411598
 30
-0.0000000000010186
 11
9328.171303942509
 21
-4723.440865411598
 31
-0.0000000000008845
  0
LINE
  5
119
330
2
100
AcDbEntity
  8
TEREN$0$A-MassElement-G
  6
Continuous
 62
   210
370
     5
100
AcDbLine
 10
9504.671303942538
 20
-4723.440865411598
 30
-0.0000000000008845
 11
9268.171303942509
 21
-4723.440865411598
 31
-0.0000000000008845
  0
LINE
  5
11A
330
2
100
AcDbEntity
  8
TEREN$0$A-MassElement-G
  6
Continuous
 62
   210
370
     5
100
AcDbLine
 10
9504.671303942538
 20
-4904.440865411597
 30
-0.0000000000010452
 11
9298.171303942508
 21
-4904.440865411597
 31
-0.0000000000010452
  0
LINE
  5
11B
330
2
100
AcDbEntity
  8
TEREN$0$A-MassElement-G
  6
Continuous
 62
   210
370
     5
100
AcDbLine
 10
9298.171303942508
 20
-4904.440865411597
 30
-0.0000000000010452
 11
9298.171303942508
 21
-4723.440865411598
 31
-0.0000000000008845
  0
LINE
  5
11C
330
2
100
AcDbEntity
  8
TEREN$0$A-MassElement-G
  6
Continuous
 62
   210
370
     5
100
AcDbLine
 10
9504.671303942538
 20
-4934.440865411598
 30
-0.0000000000010719
 11
9268.171303942537
 21
-4934.440865411598
 31
-0.0000000000010719
  0
LINE
  5
11D
330
2
100
AcDbEntity
  8
TEREN$0$A-MassElement-G
  6
Continuous
 62
   210
370
     5
100
AcDbLine
 10
9268.171303942537
 20
-4934.440865411598
 30
-0.0000000000010719
 11
9268.171303942509
 21
-4723.440865411598
 31
-0.0000000000008845
  0
LINE
  5
11E
330
2
100
AcDbEntity
  8
TEREN$0$A-MassElement-G
  6
Continuous
 62
   210
370
     5
100
AcDbLine
 10
9201.268519613135
 20
-3428.596441647256
 30
0.0000000000002656
 11
10140.17130394254
 21
-3428.596441647256
 31
0.0000000000002656
  0
LINE
  5
11F
330
2
100
AcDbEntity
  8
TEREN$0$A-MassElement-G
  6
Continuous
 62
   210
370
     5
100
AcDbLine
 10
9559.246783417242
 20
-3428.596441647256
 30
0.0000000000002656
 11
9559.246783417242
 21
-3368.596441647257
 31
0.0000000000003189
  0
LINE
  5
120
330
2
100
AcDbEntity
  8
TEREN$0$A-MassElement-G
  6
Continuous
 62
   210
370
     5
100
AcDbLine
 10
9559.246783417242
 20
-3398.596441647256
 30
0.0000000000002922
 11
9679.246783417243
 21
-3398.596441647256
 31
0.0000000000002922
  0
LINE
  5
121
330
2
100
AcDbEntity
  8
TEREN$0$A-MassElement-G
  6
Continuous
 62
   210
370
     5
100
AcDbLine
 10
9679.246783417243
 20
-3428.596441647256
 30
0.0000000000002656
 11
9679.246783417243
 21
-3368.596441647257
 31
0.0000000000003189
  0
LINE
  5
122
330
2
100
AcDbEntity
  8
TEREN$0$A-MassElement-G
  6
Continuous
 62
   210
370
     5
100
AcDbLine
 10
9201.268519613135
 20
-3688.596441647256
 30
0.0000000000000346
 11
9201.268519613135
 21
-3428.596441647256
 31
0.0000000000002656
  0
LINE
  5
123
330
2
100
AcDbEntity
  8
TEREN$0$A-MassElement-G
  6
Continuous
 62
   210
370
     5
100
AcDbLine
 10
9559.246783417242
 20
-3368.596441647257
 30
0.0000000000003189
 11
9679.246783417243
 21
-3368.596441647257
 31
0.0000000000003189
  0
LINE
  5
124
330
2
100
AcDbEntity
  8
TEREN$0$A-MassElement-G
  6
Continuous
 62
   210
370
     5
100
AcDbLine
 10
10140.17130394254
 20
-3428.596441647256
 30
0.0000000000002656
 11
10140.17130394254
 21
-3688.596441647256
 31
0.0000000000000346
  0
LINE
  5
125
330
2
100
AcDbEntity
  8
TEREN$0$A-WallBelow-G
  6
Continuous
 62
     8
370
     5
390
98
100
AcDbLine
 10
9201.268519613135
 20
-3688.313290332721
 30
0.0000000000000349
 11
9176.268519613136
 21
-3688.313290332721
 31
0.0000000000000349
  0
LINE
  5
126
330
2
100
AcDbEntity
  8
TEREN$0$A-WallBelow-G
  6
Continuous
 62
     8
370
     5
390
98
100
AcDbLine
 10
9176.268519613136
 20
-3688.313290332721
 30
0.0000000000000349
 11
9176.268519613136
 21
-3403.596441647256
 31
0.0000000000002878
  0
LINE
  5
127
330
2
100
AcDbEntity
  8
TEREN$0$A-WallBelow-G
  6
Continuous
 62
     8
370
     5
390
98
100
AcDbLine
 10
9201.268519613135
 20
-3428.596441647256
 30
0.0000000000002656
 11
9201.268519613135
 21
-3688.313290332721
 31
0.0000000000000349
  0
LINE
  5
128
330
2
100
AcDbEntity
  8
TEREN$0$A-WallBelow-G
  6
Continuous
 62
     8
370
     5
390
98
100
AcDbLine
 10
9176.268519613136
 20
-3403.596441647256
 30
0.0000000000002878
 11
9534.246783417243
 21
-3403.596441647256
 31
0.0000000000002878
  0
LINE
  5
129
330
2
100
AcDbEntity
  8
TEREN$0$A-WallBelow-G
  6
Continuous
 62
     8
370
     5
390
98
100
AcDbLine
 10
9559.246783417242
 20
-3428.596441647256
 30
0.0000000000002656
 11
9201.268519613135
 21
-3428.596441647256
 31
0.0000000000002656
  0
LINE
  5
12A
330
2
100
AcDbEntity
  8
TEREN$0$A-WallBelow-G
  6
Continuous
 62
     8
370
     5
390
98
100
AcDbLine
 10
9534.246783417243
 20
-3403.596441647256
 30
0.0000000000002878
 11
9534.246783417243
 21
-3368.596441647257
 31
0.0000000000003189
  0
LINE
  5
12B
330
2
100
AcDbEntity
  8
TEREN$0$A-WallBelow-G
  6
Continuous
 62
     8
370
     5
390
98
100
AcDbLine
 10
9534.246783417243
 20
-3368.596441647257
 30
0.0000000000003189
 11
9559.246783417242
 21
-3368.596441647257
 31
0.0000000000003189
  0
LINE
  5
12C
330
2
100
AcDbEntity
  8
TEREN$0$A-WallBelow-G
  6
Continuous
 62
     8
370
     5
390
98
100
AcDbLine
 10
9559.246783417242
 20
-3368.596441647257
 30
0.0000000000003189
 11
9559.246783417242
 21
-3428.596441647256
 31
0.0000000000002656
  0
LINE
  5
12D
330
2
100
AcDbEntity
  8
TEREN$0$A-WallBelow-G
  6
Continuous
 62
     8
370
     5
390
98
100
AcDbLine
 10
10165.17130394253
 20
-3403.596441647256
 30
0.0000000000002878
 11
10165.17130394253
 21
-3688.313290332721
 31
0.0000000000000349
  0
LINE
  5
12E
330
2
100
AcDbEntity
  8
TEREN$0$A-WallBelow-G
  6
Continuous
 62
     8
370
     5
390
98
100
AcDbLine
 10
10165.17130394253
 20
-3688.313290332721
 30
0.0000000000000349
 11
10140.17130394254
 21
-3688.313290332721
 31
0.0000000000000349
  0
LINE
  5
12F
330
2
100
AcDbEntity
  8
TEREN$0$A-WallBelow-G
  6
Continuous
 62
     8
370
     5
390
98
100
AcDbLine
 10
10140.17130394254
 20
-3688.313290332721
 30
0.0000000000000349
 11
10140.17130394254
 21
-3428.596441647256
 31
0.0000000000002656
  0
LINE
  5
130
330
2
100
AcDbEntity
  8
TEREN$0$A-WallBelow-G
  6
Continuous
 62
     8
370
     5
390
98
100
AcDbLine
 10
9704.246783417243
 20
-3403.596441647256
 30
0.0000000000002878
 11
10165.17130394253
 21
-3403.596441647256
 31
0.0000000000002878
  0
LINE
  5
131
330
2
100
AcDbEntity
  8
TEREN$0$A-WallBelow-G
  6
Continuous
 62
     8
370
     5
390
98
100
AcDbLine
 10
10140.17130394254
 20
-3428.596441647256
 30
0.0000000000002656
 11
9679.246783417243
 21
-3428.596441647256
 31
0.0000000000002656
  0
LINE
  5
132
330
2
100
AcDbEntity
  8
TEREN$0$A-WallBelow-G
  6
Continuous
 62
     8
370
     5
390
98
100
AcDbLine
 10
9679.246783417243
 20
-3368.596441647257
 30
0.0000000000003189
 11
9704.246783417243
 21
-3368.596441647257
 31
0.0000000000003189
  0
LINE
  5
133
330
2
100
AcDbEntity
  8
TEREN$0$A-WallBelow-G
  6
Continuous
 62
     8
370
     5
390
98
100
AcDbLine
 10
9704.246783417243
 20
-3368.596441647257
 30
0.0000000000003189
 11
9704.246783417243
 21
-3403.596441647256
 31
0.0000000000002878
  0
LINE
  5
134
330
2
100
AcDbEntity
  8
TEREN$0$A-WallBelow-G
  6
Continuous
 62
     8
370
     5
390
98
100
AcDbLine
 10
9679.246783417243
 20
-3428.596441647256
 30
0.0000000000002656
 11
9679.246783417243
 21
-3368.596441647257
 31
0.0000000000003189
  0
HATCH
  5
135
330
2
100
AcDbEntity
  8
0Hatch
370
     5
100
AcDbHatch
 10
0.0
 20
0.0
 30
0.0
210
0.0
220
0.0
230
1.0
  2
SOLID
 70
     1
 71
     0
 91
        1
 92
        7
 72
     0
 73
     1
 93
        8
 10
9504.671303942538
 20
-4723.440865411598
 10
9453.049649522757
 20
-4723.440865411598
 10
9453.049649522757
 20
-4663.440865411597
 10
9564.671303942537
 20
-4663.440865411597
 10
9564.671303942537
 20
-4913.440865411597
 10
9602.671303942537
 20
-4913.440865411597
 10
9602.671303942537
 20
-4973.440865411598
 10
9504.671303942508
 20
-4973.440865411598
 97
        0
 75
     0
 76
     1
 47
3.113359413160372
 98
        1
 10
9534.073973976308
 20
-4772.950074120788
1001
ACAD
1010
0.0
1020
0.0
1030
0.0
  0
LINE
  5
136
330
2
100
AcDbEntity
  8
A-Wall-G
  6
Continuous
 62
     7
370
     5
100
AcDbLine
 10
9602.671303942537
 20
-4913.440865411597
 30
-0.0000000000011065
 11
9602.671303942537
 21
-4973.440865411598
 31
-0.0000000000011065
  0
LINE
  5
137
330
2
100
AcDbEntity
  8
A-Wall-G
  6
Continuous
 62
     7
370
     5
100
AcDbLine
 10
9602.671303942537
 20
-4973.440865411598
 30
-0.0000000000011065
 11
9504.671303942508
 21
-4973.440865411598
 31
-0.0000000000011065
  0
LINE
  5
138
330
2
100
AcDbEntity
  8
A-Wall-G
  6
Continuous
 62
     7
370
     5
100
AcDbLine
 10
9602.671303942537
 20
-4913.440865411597
 30
-0.0000000000011065
 11
9564.671303942537
 21
-4913.440865411597
 31
-0.0000000000011065
  0
HATCH
  5
139
330
2
100
AcDbEntity
  8
0Hatch
100
AcDbHatch
 10
0.0
 20
0.0
 30
0.0
210
0.0
220
0.0
230
1.0
  2
SOLID
 70
     1
 71
     0
 91
        1
 92
        7
 72
     0
 73
     1
 93
       23
 10
10090.67130394253
 20
-3748.596441647271
 10
9144.671303942626
 20
-3748.596441647257
 10
9144.671303942509
 20
-4082.81828274166
 10
9040.671303942538
 20
-4082.818282741646
 10
9040.671303942538
 20
-4329.180865411632
 10
9144.671303942509
 20
-4329.180865411617
 10
9144.671303942537
 20
-4663.440865411597
 10
9353.049649522727
 20
-4663.440865411597
 10
9353.049649522757
 20
-4723.440865411598
 10
9274.837341471837
 20
-4723.440865411598
 10
9084.671303942538
 20
-4723.440865411612
 10
9084.671303942508
 20
-4389.180865411617
 10
8980.671303942537
 20
-4389.180865411588
 10
8980.671303942537
 20
-4022.818282741616
 10
9084.671303942538
 20
-4022.818282741631
 10
9084.671303942538
 20
-3991.096441647256
 10
9084.671303942538
 20
-3688.596441647256
 10
9201.268519613135
 20
-3688.596441647256
 10
10150.67130394254
 20
-3688.596441647256
 10
10150.67130394256
 20
-4973.440865411583
 10
10052.67130394253
 20
-4973.440865411598
 10
10052.67130394253
 20
-4913.440865411597
 10
10090.67130394259
 20
-4913.440865411583
 97
        0
 75
     0
 76
     1
 47
4.712803736968742
 98
        1
 10
10127.0505159634
 20
-3829.339134435271
1001
ACAD
1010
0.0
1020
0.0
1030
0.0
  0
LINE
  5
13A
330
2
100
AcDbEntity
  8
A-Wall-G
  6
Continuous
 62
     7
370
     5
100
AcDbLine
 10
10150.67130394256
 20
-4973.440865411583
 30
-0.0000000000011065
 11
10052.67130394253
 21
-4973.440865411598
 31
-0.0000000000011065
  0
LINE
  5
13B
330
2
100
AcDbEntity
  8
A-Wall-G
  6
Continuous
 62
     7
370
     5
100
AcDbLine
 10
10090.67130394259
 20
-4913.440865411583
 30
-0.0000000000011065
 11
10052.67130394253
 21
-4913.440865411597
 31
-0.0000000000011065
  0
LINE
  5
13C
330
2
100
AcDbEntity
  8
A-Wall-G
  6
Continuous
 62
     7
370
     5
100
AcDbLine
 10
10052.67130394253
 20
-4973.440865411598
 30
-0.0000000000011065
 11
10052.67130394253
 21
-4913.440865411597
 31
-0.0000000000010532
  0
LINE
  5
13D
330
2
100
AcDbEntity
  8
A-Wall-G
  6
Continuous
 62
     7
370
     5
100
AcDbLine
 10
9504.671303942508
 20
-4973.440865411598
 30
-0.0000000000011065
 11
9504.671303942538
 21
-4723.440865411598
 31
-0.0000000000008845
  0
LINE
  5
13E
330
2
100
AcDbEntity
  8
A-Wall-G
  6
Continuous
 62
     7
370
     5
100
AcDbLine
 10
9564.671303942537
 20
-4913.440865411597
 30
-0.0000000000010532
 11
9564.671303942537
 21
-4663.440865411597
 31
-0.0000000000008312
  0
LINE
  5
13F
330
2
100
AcDbEntity
  8
A-Wall-G
  6
Continuous
 62
     7
370
     5
100
AcDbLine
 10
9274.837341471837
 20
-4723.440865411598
 30
-0.0000000000008845
 11
9084.671303942538
 21
-4723.440865411612
 31
-0.0000000000008845
  0
LINE
  5
140
330
2
100
AcDbEntity
  8
A-Wall-G
  6
Continuous
 62
     7
370
     5
100
AcDbLine
 10
9353.049649522727
 20
-4663.440865411597
 30
-0.0000000000008845
 11
9144.671303942537
 21
-4663.440865411597
 31
-0.0000000000008845
  0
LINE
  5
141
330
2
100
AcDbEntity
  8
A-Wall-G
  6
Continuous
 62
     7
370
     5
100
AcDbLine
 10
9353.049649522727
 20
-4663.440865411597
 30
-0.0000000000008845
 11
9353.049649522757
 21
-4723.440865411598
 31
-0.0000000000008845
  0
LINE
  5
142
330
2
100
AcDbEntity
  8
A-Wall-G
  6
Continuous
 62
     7
370
     5
100
AcDbLine
 10
9353.049649522757
 20
-4723.440865411598
 30
-0.0000000000008845
 11
9274.837341471837
 21
-4723.440865411598
 31
-0.0000000000008845
  0
LINE
  5
143
330
2
100
AcDbEntity
  8
A-Wall-G
  6
Continuous
 62
     7
370
     5
100
AcDbLine
 10
9504.671303942538
 20
-4723.440865411598
 30
-0.0000000000008845
 11
9453.049649522757
 21
-4723.440865411598
 31
-0.0000000000008845
  0
LINE
  5
144
330
2
100
AcDbEntity
  8
A-Wall-G
  6
Continuous
 62
     7
370
     5
100
AcDbLine
 10
9564.671303942537
 20
-4663.440865411597
 30
-0.0000000000008312
 11
9453.049649522757
 21
-4663.440865411597
 31
-0.0000000000008845
  0
LINE
  5
145
330
2
100
AcDbEntity
  8
A-Wall-G
  6
Continuous
 62
     7
370
     5
100
AcDbLine
 10
9453.049649522757
 20
-4723.440865411598
 30
-0.0000000000008845
 11
9453.049649522757
 21
-4663.440865411597
 31
-0.0000000000008312
  0
LINE
  5
146
330
2
100
AcDbEntity
  8
A-Wall-G
  6
Continuous
 62
     7
370
     5
100
AcDbLine
 10
10150.67130394256
 20
-4973.440865411583
 30
-0.0000000000011065
 11
10150.67130394254
 21
-3688.596441647256
 31
0.0000000000000346
  0
LINE
  5
147
330
2
100
AcDbEntity
  8
A-Wall-G
  6
Continuous
 62
     7
370
     5
100
AcDbLine
 10
10090.67130394259
 20
-4913.440865411583
 30
-0.0000000000010532
 11
10090.67130394253
 21
-3748.596441647257
 31
-0.0000000000000187
  0
LINE
  5
148
330
2
100
AcDbEntity
  8
A-Wall-G
  6
Continuous
 62
     7
370
     5
100
AcDbLine
 10
9084.671303942538
 20
-4723.440865411612
 30
-0.0000000000008845
 11
9084.671303942508
 21
-4389.180865411617
 31
-0.0000000000005876
  0
LINE
  5
149
330
2
100
AcDbEntity
  8
A-Wall-G
  6
Continuous
 62
     7
370
     5
100
AcDbLine
 10
9144.671303942537
 20
-4663.440865411597
 30
-0.0000000000008324
 11
9144.671303942509
 21
-4329.180865411617
 31
-0.0000000000005424
  0
LINE
  5
14A
330
2
100
AcDbEntity
  8
A-Wall-G
  6
Continuous
 62
     7
370
     5
100
AcDbLine
 10
9084.671303942508
 20
-4022.818282741631
 30
-0.0000000000002622
 11
9084.671303942538
 21
-3688.596441647256
 31
0.0000000000000346
  0
LINE
  5
14B
330
2
100
AcDbEntity
  8
A-Wall-G
  6
Continuous
 62
     7
370
     5
100
AcDbLine
 10
9084.671303942538
 20
-4022.818282741631
 30
-0.0000000000002622
 11
9084.671303942538
 21
-3991.096441647256
 31
-0.000000000000234
  0
LINE
  5
14C
330
2
100
AcDbEntity
  8
A-Wall-G
  6
Continuous
 62
     7
370
     5
100
AcDbLine
 10
9144.671303942509
 20
-4082.81828274166
 30
-0.0000000000002622
 11
9144.671303942626
 21
-3748.596441647257
 31
-0.0000000000001595
  0
LINE
  5
14D
330
2
100
AcDbEntity
  8
A-Wall-G
  6
Continuous
 62
     7
370
     5
100
AcDbLine
 10
9084.671303942538
 20
-3688.596441647256
 30
0.0000000000000346
 11
10150.67130394254
 21
-3688.596441647256
 31
0.0000000000000346
  0
LINE
  5
14E
330
2
100
AcDbEntity
  8
A-Wall-G
  6
Continuous
 62
     7
370
     5
100
AcDbLine
 10
9144.671303942596
 20
-3748.596441647257
 30
0.0000000000000346
 11
10090.67130394256
 21
-3748.596441647271
 31
0.0000000000000346
  0
LINE
  5
14F
330
2
100
AcDbEntity
  8
A-Wall-G
  6
Continuous
 62
     7
370
     5
100
AcDbLine
 10
9084.671303942538
 20
-3688.596441647256
 30
0.0000000000000346
 11
9201.268519613135
 21
-3688.596441647256
 31
0.0000000000000346
  0
LINE
  5
150
330
2
100
AcDbEntity
  8
A-Wall-G
  6
Continuous
 62
     7
370
     5
100
AcDbLine
 10
8980.671303942537
 20
-4022.818282741616
 30
-0.0000000000002622
 11
9084.671303942508
 21
-4022.818282741631
 31
-0.0000000000002622
  0
LINE
  5
151
330
2
100
AcDbEntity
  8
A-Wall-G
  6
Continuous
 62
     7
370
     5
100
AcDbLine
 10
9039.671303942538
 20
-4082.818282741646
 30
-0.0000000000002622
 11
9144.671303942509
 21
-4082.81828274166
 31
-0.0000000000002622
  0
LINE
  5
152
330
2
100
AcDbEntity
  8
A-Wall-G
  6
Continuous
 62
     7
370
     5
100
AcDbLine
 10
9084.671303942508
 20
-4389.180865411617
 30
-0.0000000000005876
 11
8980.671303942537
 21
-4389.180865411588
 31
-0.0000000000005876
  0
LINE
  5
153
330
2
100
AcDbEntity
  8
A-Wall-G
  6
Continuous
 62
     7
370
     5
100
AcDbLine
 10
9144.671303942509
 20
-4329.180865411617
 30
-0.0000000000005876
 11
9039.671303942538
 21
-4329.180865411632
 31
-0.0000000000005876
  0
LINE
  5
154
330
2
100
AcDbEntity
  8
A-Wall-G
  6
Continuous
 62
     7
370
     5
100
AcDbLine
 10
8980.671303942537
 20
-4389.180865411603
 30
-0.0000000000005876
 11
8980.671303942537
 21
-4022.818282741616
 31
-0.0000000000002622
  0
LINE
  5
155
330
2
100
AcDbEntity
  8
A-Wall-G
  6
Continuous
 62
     7
370
     5
100
AcDbLine
 10
9040.671303942538
 20
-4329.180865411646
 30
-0.0000000000005343
 11
9040.671303942538
 21
-4082.818282741631
 31
-0.0000000000003155
  0
LINE
  5
156
330
2
100
AcDbEntity
  8
0Wymiary-PL
370
     5
100
AcDbLine
 10
10052.67130394253
 20
-4913.440865411597
 30
-0.0000000000010532
 11
9602.671303942567
 21
-4913.440865411597
 31
-0.0000000000011065
  0
LINE
  5
157
330
2
100
AcDbEntity
  8
0Wymiary-PL
370
     5
100
AcDbLine
 10
10052.67130394253
 20
-4973.440865411598
 30
-0.0000000000011065
 11
9602.671303942537
 21
-4973.440865411598
 31
-0.0000000000011065
  0
LINE
  5
158
330
2
100
AcDbEntity
  8
0Wymiary-PL
370
     5
100
AcDbLine
 10
9453.049649522757
 20
-4663.440865411597
 30
-0.0000000000008312
 11
9353.049649522727
 21
-4664.273520656425
 31
-0.0000000000008845
  0
DIMENSION
  5
159
330
2
100
AcDbEntity
  8
0Wymiary-PL
100
AcDbDimension
  2
*D10
 10
8718.029033174447
 20
-4723.440865411598
 30
0.0000000001072456
 11
8638.029033174417
 21
-4848.440865411569
 31
0.0
 12
-206768.9485573785
 22
-125471.2566342401
 32
0.0
 71
     5
 42
250.0
  3
500
100
AcDbAlignedDimension
 13
9504.671303942508
 23
-4973.440865411598
 33
-0.0000000000011065
 14
9504.671303942538
 24
-4723.440865411598
 34
-0.0000000000008845
 50
90.0
100
AcDbRotatedDimension
  0
DIMENSION
  5
164
330
2
100
AcDbEntity
  8
0Wymiary-PL
100
AcDbDimension
  2
*D11
 10
8718.029033174447
 20
-3688.596441647256
 30
0.0000000001081647
 11
8638.029033174417
 21
-4206.018653529405
 31
0.0
 12
-206768.9485573785
 22
-125471.2566342401
 32
0.0
 71
     5
 42
1034.844423764356
  3
500
100
AcDbAlignedDimension
 13
9084.671303942538
 23
-4723.440865411612
 33
-0.0000000000008845
 14
9084.671303942538
 24
-3688.596441647256
 34
0.0
 50
90.0
100
AcDbRotatedDimension
  0
DIMENSION
  5
16F
330
2
100
AcDbEntity
  8
0Wymiary-PL
100
AcDbDimension
  2
*D12
 10
8550.822372163414
 20
-3688.596441647256
 30
0.0000000001081647
 11
8470.822372163384
 21
-4331.01865352939
 31
0.0
 12
-206768.9485573785
 22
-125471.2566342401
 32
0.0
 71
     5
 42
1284.844423764327
  3
500
100
AcDbAlignedDimension
 13
9737.846392260749
 23
-4973.440865411583
 33
-0.0000000000011065
 14
9617.671303942538
 24
-3688.596441647256
 34
0.0000000000000346
 50
90.0
100
AcDbRotatedDimension
  0
DIMENSION
  5
17A
330
2
100
AcDbEntity
  8
0Wymiary-PL
100
AcDbDimension
  2
*D13
 10
9084.671303942508
 20
-3254.932590702797
 30
0.0000000001082434
 11
9617.671303942508
 21
-3174.932590702796
 31
-0.0000000000003065
 12
-206768.9485573785
 22
-125471.2566342401
 32
-0.0000000000003065
 71
     5
 42
1066.000000000029
  3
500
100
AcDbAlignedDimension
 13
10150.67130394254
 23
-3562.561996198493
 33
-0.0000000000001599
 14
9084.671303942508
 24
-3572.612032471326
 34
-0.0000000000001688
 50
180.0
100
AcDbRotatedDimension
  0
DIMENSION
  5
185
330
2
100
AcDbEntity
  8
0Wymiary-PL
100
AcDbDimension
  2
*D14
 10
8980.671303942537
 20
-3254.932590702797
 30
0.0000000001082434
 11
9032.671303942509
 21
-3174.932590702796
 31
-0.0000000000003065
 12
-206768.9485573785
 22
-125471.2566342401
 32
-0.0000000000003065
 71
     5
 42
103.9999999999709
  3
500
100
AcDbAlignedDimension
 13
9084.671303942508
 23
-3572.612032471326
 33
-0.0000000000001688
 14
8980.671303942537
 24
-3677.766744870954
 34
-0.0000000000002622
 50
180.0
100
AcDbRotatedDimension
  0
DIMENSION
  5
192
330
2
100
AcDbEntity
  8
0Wymiary-PL
100
AcDbDimension
  2
*D15
 10
8980.671303942509
 20
-3070.880148396347
 30
0.0000000001087134
 11
9565.671303942538
 21
-2990.880148396347
 31
0.0
 12
-206768.9485573785
 22
-125471.2566342401
 32
0.0
 71
     5
 42
1170.000000000058
  3
500
100
AcDbAlignedDimension
 13
10150.67130394256
 23
-4613.6979160552
 33
-0.000000000000787
 14
8980.671303942509
 24
-4387.501380794056
 34
-0.0000000000005861
 50
180.0
100
AcDbRotatedDimension
  0
ENDSEC
  0
SECTION
  2
OBJECTS
  0
DICTIONARY
  5
B
330
0
100
AcDbDictionary
281
     1
  3
ACAD_COLOR
350
51
  3
ACAD_GROUP
350
4C
  3
ACAD_LAYOUT
350
12
  3
ACAD_MATERIAL
350
D
  3
ACAD_MLINESTYLE
350
4D
  3
ACAD_PLOTSETTINGS
350
4E
  3
ACAD_PLOTSTYLENAME
350
A
  3
ACAD_SCALELIST
350
52
  3
ACAD_TABLESTYLE
350
53
  3
ACAD_VISUALSTYLE
350
15
  3
ACDB_RECOMPOSE_DATA
350
1AC
  3
AcDbVariableDictionary
350
1A2
  0
DICTIONARY
  5
1C
330
1B
100
AcDbDictionary
280
     1
281
     1
  3
ACAD_LAYERFILTERS
360
1D
  3
ACAD_LAYERSTATES
360
1E
  3
ACLYDICTIONARY
360
1F
  0
DICTIONARY
  5
7
330
6
100
AcDbDictionary
280
     1
281
     1
  3
ADSK_XREC_LAYER_RECONCILED
360
8
  0
DICTIONARY
  5
80
330
7F
100
AcDbDictionary
280
     1
281
     1
  3
ADSK_XREC_LAYER_RECONCILED
360
81
  0
DICTIONARY
  5
78
330
77
100
AcDbDictionary
280
     1
281
     1
  3
ADSK_XREC_LAYER_RECONCILED
360
79
  0
DICTIONARY
  5
84
330
83
100
AcDbDictionary
280
     1
281
     1
  3
ADSK_XREC_LAYER_RECONCILED
360
85
  0
DICTIONARY
  5
AA
330
A9
100
AcDbDictionary
280
     1
281
     1
  3
ADSK_XREC_LAYER_RECONCILED
360
AB
  0
DICTIONARY
  5
55
330
54
100
AcDbDictionary
280
     1
281
     1
  3
ADSK_XREC_LAYER_RECONCILED
360
56
  0
DICTIONARY
  5
AE
330
AD
100
AcDbDictionary
280
     1
281
     1
  3
ADSK_XREC_LAYER_RECONCILED
360
AF
  0
DICTIONARY
  5
73
330
72
100
AcDbDictionary
280
     1
281
     1
  3
ADSK_XREC_LAYER_RECONCILED
360
74
  0
DICTIONARY
  5
96
330
95
100
AcDbDictionary
280
     1
281
     1
  0
DICTIONARY
  5
3
330
2
100
AcDbDictionary
280
     1
281
     1
  3
ACAD_SORTENTS
360
19E
  0
DICTIONARY
  5
42
330
41
100
AcDbDictionary
280
     1
281
     1
  3
ACAD_SORTENTS
360
19D
  0
DICTIONARY
  5
51
102
{ACAD_REACTORS
330
B
102
}
330
B
100
AcDbDictionary
281
     1
  0
DICTIONARY
  5
4C
102
{ACAD_REACTORS
330
B
102
}
330
B
100
AcDbDictionary
281
     1
  0
DICTIONARY
  5
12
102
{ACAD_REACTORS
330
B
102
}
330
B
100
AcDbDictionary
281
     1
  3
Layout1
350
1A
  3
Model
350
11
  0
DICTIONARY
  5
D
102
{ACAD_REACTORS
330
B
102
}
330
B
100
AcDbDictionary
281
     1
  3
ByBlock
350
50
  3
ByLayer
350
4F
  3
Global
350
C
  0
DICTIONARY
  5
4D
102
{ACAD_REACTORS
330
B
102
}
330
B
100
AcDbDictionary
281
     1
  3
Standard
350
57
  0
DICTIONARY
  5
4E
102
{ACAD_REACTORS
330
B
102
}
330
B
100
AcDbDictionary
281
     1
  0
ACDBDICTIONARYWDFLT
  5
A
102
{ACAD_REACTORS
330
B
102
}
330
B
100
AcDbDictionary
281
     1
  3
Medium
350
98
  3
Normal
350
9
  3
Style 1
350
97
100
AcDbDictionaryWithDefault
340
9
  0
DICTIONARY
  5
52
102
{ACAD_REACTORS
330
B
102
}
330
B
100
AcDbDictionary
281
     1
  3
A0
350
5C
  3
A1
350
5D
  3
A2
350
5E
  3
A3
350
5F
  3
A4
350
60
  3
A5
350
61
  3
A6
350
62
  3
A7
350
63
  3
A8
350
64
  3
A9
350
65
  3
B0
350
66
  3
B1
350
67
  3
B2
350
68
  3
B3
350
69
  3
B4
350
6A
  3
B5
350
6B
  3
B6
350
6C
  3
B7
350
6D
  3
B8
350
6E
  3
B9
350
6F
  3
C0
350
70
  0
DICTIONARY
  5
53
102
{ACAD_REACTORS
330
B
102
}
330
B
100
AcDbDictionary
281
     1
  3
Standard
350
58
  0
DICTIONARY
  5
15
102
{ACAD_REACTORS
330
B
102
}
330
B
100
AcDbDictionary
281
     1
  3
2dWireframe
350
14
  3
3dWireframe
350
5B
  3
Realistic
350
5A
  0
XRECORD
  5
1AC
102
{ACAD_REACTORS
330
B
102
}
330
B
100
AcDbXrecord
280
     1
 90
        1
330
58
  0
DICTIONARY
  5
1A2
102
{ACAD_REACTORS
330
B
102
}
330
B
100
AcDbDictionary
281
     1
  3
CANNOSCALE
350
1A6
  3
CMLEADERSTYLE
350
1A4
  3
CTABLESTYLE
350
1A3
  3
DIMASSOC
350
1AA
  3
HIDETEXT
350
1A9
  3
INDEXCTL
350
1A8
  3
MSLTSCALE
350
1A5
  3
SORTENTS
350
1A7
  0
DICTIONARY
  5
1D
102
{ACAD_REACTORS
330
1C
102
}
330
1C
100
AcDbDictionary
281
     1
  0
DICTIONARY
  5
1E
102
{ACAD_REACTORS
330
1C
102
}
330
1C
100
AcDbDictionary
281
     1
  0
DICTIONARY
  5
1F
102
{ACAD_REACTORS
330
1C
102
}
330
1C
100
AcDbDictionary
281
     1
1001
ACAD
1000
<All
  0
XRECORD
  5
8
102
{ACAD_REACTORS
330
7
102
}
330
7
100
AcDbXrecord
280
     1
290
     1
  0
XRECORD
  5
81
102
{ACAD_REACTORS
330
80
102
}
330
80
100
AcDbXrecord
280
     1
290
     1
  0
XRECORD
  5
79
102
{ACAD_REACTORS
330
78
102
}
330
78
100
AcDbXrecord
280
     1
290
     1
  0
XRECORD
  5
85
102
{ACAD_REACTORS
330
84
102
}
330
84
100
AcDbXrecord
280
     1
290
     1
  0
XRECORD
  5
AB
102
{ACAD_REACTORS
330
AA
102
}
330
AA
100
AcDbXrecord
280
     1
290
     1
  0
XRECORD
  5
56
102
{ACAD_REACTORS
330
55
102
}
330
55
100
AcDbXrecord
280
     1
290
     1
  0
XRECORD
  5
AF
102
{ACAD_REACTORS
330
AE
102
}
330
AE
100
AcDbXrecord
280
     1
290
     1
  0
XRECORD
  5
74
102
{ACAD_REACTORS
330
73
102
}
330
73
100
AcDbXrecord
280
     1
290
     1
  0
SORTENTSTABLE
  5
19E
102
{ACAD_REACTORS
330
3
102
}
330
3
100
AcDbSortentsTable
330
2
  0
SORTENTSTABLE
  5
19D
102
{ACAD_REACTORS
330
42
102
}
330
42
100
AcDbSortentsTable
330
41
  0
LAYOUT
  5
1A
102
{ACAD_XDICTIONARY
360
1B1
102
}
102
{ACAD_REACTORS
330
12
102
}
330
12
100
AcDbPlotSettings
  1

  2
C:\PROGRAM FILES\AUTOCAD LT 2000\plotters\DWF ePlot.pc3
  4

  6

 40
0.0
 41
0.0
 42
0.0
 43
0.0
 44
0.0
 45
0.0
 46
0.0
 47
0.0
 48
0.0
 49
0.0
140
0.0
141
0.0
142
1.0
143
1.0
 70
   688
 72
     0
 73
     0
 74
     5
  7
monochrome_140.ctb
 75
    16
147
1.0
148
0.0
149
0.0
100
AcDbLayout
  1
Layout1
 70
     1
 71
     1
 10
0.0
 20
0.0
 11
420.0
 21
297.0
 12
0.0
 22
0.0
 32
0.0
 14
1.000000000000000E+20
 24
1.000000000000000E+20
 34
1.000000000000000E+20
 15
-1.000000000000000E+20
 25
-1.000000000000000E+20
 35
-1.000000000000000E+20
146
0.0
 13
0.0
 23
0.0
 33
0.0
 16
1.0
 26
0.0
 36
0.0
 17
0.0
 27
1.0
 37
0.0
 76
     0
330
17
  0
LAYOUT
  5
11
102
{ACAD_XDICTIONARY
360
1AF
102
}
102
{ACAD_REACTORS
330
12
102
}
330
12
100
AcDbPlotSettings
  1

  2
CutePDF Writer
  4
A4
  6
RODODENDRON 5
 40
3.174999952316284
 41
3.174999952316284
 42
3.175003051757812
 43
3.17498779296875
 44
209.8886566162109
 45
297.0530090332031
 46
-0.230673193931878
 47
5.151510643959028
 48
208982.643663387
 49
112870.1151777704
140
219182.6436633871
141
126890.1151777704
142
1.0
143
50.0
 70
 11940
 72
     1
 73
     0
 74
     4
  7
monochrome_140.ctb
 75
     0
147
0.0199547699619742
148
-208982.643663387
149
-112870.1151777704
100
AcDbLayout
  1
Model
 70
     1
 71
     0
 10
0.0
 20
0.0
 11
12.0
 21
9.0
 12
0.0
 22
0.0
 32
0.0
 14
0.0
 24
0.0
 34
0.0
 15
0.0
 25
0.0
 35
0.0
146
0.0
 13
0.0
 23
0.0
 33
0.0
 16
1.0
 26
0.0
 36
0.0
 17
0.0
 27
1.0
 37
0.0
 76
     0
330
2
331
2A
1001
ACAD_PSEXT
1000
CutePDF Writer
1000
CutePDF Writer
1000
CPW2:
1000

1070
     0
  0
MATERIAL
  5
50
102
{ACAD_XDICTIONARY
360
1B5
102
}
102
{ACAD_REACTORS
330
D
102
}
330
D
100
AcDbMaterial
  1
ByBlock
 73
     1
 78
     1
172
     1
176
     1
270
     1
274
     1
  0
MATERIAL
  5
4F
102
{ACAD_XDICTIONARY
360
1B3
102
}
102
{ACAD_REACTORS
330
D
102
}
330
D
100
AcDbMaterial
  1
ByLayer
 73
     1
 78
     1
172
     1
176
     1
270
     1
274
     1
  0
MATERIAL
  5
C
102
{ACAD_XDICTIONARY
360
1AD
102
}
102
{ACAD_REACTORS
330
D
102
}
330
D
100
AcDbMaterial
  1
Global
 73
     1
 78
     1
172
     1
176
     1
270
     1
274
     1
  0
MLINESTYLE
  5
57
102
{ACAD_REACTORS
330
4D
102
}
330
4D
100
AcDbMlineStyle
  2
STANDARD
 70
     0
  3

 62
   256
 51
90.0
 52
90.0
 71
     2
 49
0.5
 62
   256
  6
BYLAYER
 49
-0.5
 62
   256
  6
BYLAYER
  0
ACDBPLACEHOLDER
  5
98
102
{ACAD_REACTORS
330
A
102
}
330
A
  0
ACDBPLACEHOLDER
  5
9
102
{ACAD_REACTORS
330
A
102
}
330
A
  0
ACDBPLACEHOLDER
  5
97
102
{ACAD_REACTORS
330
A
102
}
330
A
  0
SCALE
  5
5C
102
{ACAD_REACTORS
330
52
102
}
330
52
100
AcDbScale
 70
     0
300
1:1
140
1.0
141
0.1
290
     0
  0
SCALE
  5
5D
102
{ACAD_REACTORS
330
52
102
}
330
52
100
AcDbScale
 70
     0
300
1:2
140
1.0
141
0.2
290
     0
  0
SCALE
  5
5E
102
{ACAD_REACTORS
330
52
102
}
330
52
100
AcDbScale
 70
     0
300
1:2.5
140
1.0
141
0.25
290
     0
  0
SCALE
  5
5F
102
{ACAD_REACTORS
330
52
102
}
330
52
100
AcDbScale
 70
     0
300
1:5
140
1.0
141
0.5
290
     0
  0
SCALE
  5
60
102
{ACAD_REACTORS
330
52
102
}
330
52
100
AcDbScale
 70
     0
300
1:7.5
140
1.0
141
0.75
290
     0
  0
SCALE
  5
61
102
{ACAD_REACTORS
330
52
102
}
330
52
100
AcDbScale
 70
     0
300
1:10
140
1.0
141
1.0
290
     1
  0
SCALE
  5
62
102
{ACAD_REACTORS
330
52
102
}
330
52
100
AcDbScale
 70
     0
300
1:20
140
1.0
141
2.0
290
     0
  0
SCALE
  5
63
102
{ACAD_REACTORS
330
52
102
}
330
52
100
AcDbScale
 70
     0
300
1:25
140
1.0
141
2.5
290
     0
  0
SCALE
  5
64
102
{ACAD_REACTORS
330
52
102
}
330
52
100
AcDbScale
 70
     0
300
1:50
140
1.0
141
5.0
290
     0
  0
SCALE
  5
65
102
{ACAD_REACTORS
330
52
102
}
330
52
100
AcDbScale
 70
     0
300
1:75
140
1.0
141
7.5
290
     0
  0
SCALE
  5
66
102
{ACAD_REACTORS
330
52
102
}
330
52
100
AcDbScale
 70
     0
300
1:100
140
1.0
141
10.0
290
     0
  0
SCALE
  5
67
102
{ACAD_REACTORS
330
52
102
}
330
52
100
AcDbScale
 70
     0
300
1:150
140
1.0
141
15.0
290
     0
  0
SCALE
  5
68
102
{ACAD_REACTORS
330
52
102
}
330
52
100
AcDbScale
 70
     0
300
1:200
140
1.0
141
20.0
290
     0
  0
SCALE
  5
69
102
{ACAD_REACTORS
330
52
102
}
330
52
100
AcDbScale
 70
     0
300
1:250
140
1.0
141
25.0
290
     0
  0
SCALE
  5
6A
102
{ACAD_REACTORS
330
52
102
}
330
52
100
AcDbScale
 70
     0
300
1:500
140
1.0
141
50.0
290
     0
  0
SCALE
  5
6B
102
{ACAD_REACTORS
330
52
102
}
330
52
100
AcDbScale
 70
     0
300
1:750
140
1.0
141
75.0
290
     0
  0
SCALE
  5
6C
102
{ACAD_REACTORS
330
52
102
}
330
52
100
AcDbScale
 70
     0
300
1:1000
140
1.0
141
100.0
290
     0
  0
SCALE
  5
6D
102
{ACAD_REACTORS
330
52
102
}
330
52
100
AcDbScale
 70
     0
300
1:1250
140
1.0
141
125.0
290
     0
  0
SCALE
  5
6E
102
{ACAD_REACTORS
330
52
102
}
330
52
100
AcDbScale
 70
     0
300
1:2000
140
1.0
141
200.0
290
     0
  0
SCALE
  5
6F
102
{ACAD_REACTORS
330
52
102
}
330
52
100
AcDbScale
 70
     0
300
1:2500
140
1.0
141
250.0
290
     0
  0
SCALE
  5
70
102
{ACAD_REACTORS
330
52
102
}
330
52
100
AcDbScale
 70
     0
300
1:5000
140
1.0
141
500.0
290
     0
  0
TABLESTYLE
  5
58
102
{ACAD_XDICTIONARY
360
59
102
}
102
{ACAD_REACTORS
330
53
102
}
330
53
100
AcDbTableStyle
  3
Standard
 70
     0
 71
     0
 40
0.06
 41
0.06
280
     0
281
     0
  7
Standard
140
0.18
170
     2
 62
     0
 63
     7
283
     0
274
    -2
284
     1
 64
     0
275
    -2
285
     1
 65
     0
276
    -2
286
     1
 66
     0
277
    -2
287
     1
 67
     0
278
    -2
288
     1
 68
     0
279
    -2
289
     1
 69
     0
  7
Standard
140
0.25
170
     5
 62
     0
 63
     7
283
     0
274
    -2
284
     1
 64
     0
275
    -2
285
     1
 65
     0
276
    -2
286
     1
 66
     0
277
    -2
287
     1
 67
     0
278
    -2
288
     1
 68
     0
279
    -2
289
     1
 69
     0
  7
Standard
140
0.18
170
     5
 62
     0
 63
     7
283
     0
274
    -2
284
     1
 64
     0
275
    -2
285
     1
 65
     0
276
    -2
286
     1
 66
     0
277
    -2
287
     1
 67
     0
278
    -2
288
     1
 68
     0
279
    -2
289
     1
 69
     0
  0
VISUALSTYLE
  5
14
102
{ACAD_REACTORS
330
15
102
}
330
15
100
AcDbVisualStyle
  2
2dWireframe
 70
     4
 71
     0
 72
     2
 73
     0
 90
        0
 40
-0.6
 41
-30.0
 62
     5
 63
     7
 74
     1
 91
        4
 64
     7
 65
   257
 75
     1
175
     1
 42
1.0
 92
        0
 66
   257
 43
1.0
 76
     1
 77
     6
 78
     2
 67
     7
 79
     5
170
     0
171
     0
290
     0
174
     0
 93
        1
 44
0.0
173
     0
291
     0
 45
0.0
1001
ACAD
1000
AcDbSavedByObjectVersion
1070
     0
  0
VISUALSTYLE
  5
5B
102
{ACAD_REACTORS
330
15
102
}
330
15
100
AcDbVisualStyle
  2
3dWireframe
 70
     5
 71
     0
 72
     2
 73
     0
 90
        0
 40
-0.6
 41
-30.0
 62
     5
 63
     7
 74
     1
 91
        4
 64
     7
 65
   257
 75
     1
175
     1
 42
1.0
 92
        0
 66
   257
 43
1.0
 76
     1
 77
     6
 78
     2
 67
     7
 79
     5
170
     0
171
     0
290
     0
174
     0
 93
        1
 44
0.0
173
     0
291
     0
 45
0.0
1001
ACAD
1000
AcDbSavedByObjectVersion
1070
     0
  0
VISUALSTYLE
  5
5A
102
{ACAD_REACTORS
330
15
102
}
330
15
100
AcDbVisualStyle
  2
Realistic
 70
     8
 71
     2
 72
     2
 73
     0
 90
        0
 40
-0.6
 41
-30.0
 62
     5
 63
     7
 74
     1
 91
        0
 64
     7
 65
   257
 75
     1
175
     1
 42
1.0
 92
        8
 66
     8
 43
1.0
 76
     1
 77
     6
 78
     2
 67
     7
 79
     5
170
     0
171
     0
290
     0
174
     0
 93
       13
 44
0.0
173
     0
291
     0
 45
0.0
1001
ACAD
1000
AcDbSavedByObjectVersion
1070
     0
  0
DICTIONARYVAR
  5
1A6
102
{ACAD_REACTORS
330
1A2
102
}
330
1A2
100
DictionaryVariables
280
     0
  1
1:100
  0
DICTIONARYVAR
  5
1A4
102
{ACAD_REACTORS
330
1A2
102
}
330
1A2
100
DictionaryVariables
280
     0
  1
STANDARD
  0
DICTIONARYVAR
  5
1A3
102
{ACAD_REACTORS
330
1A2
102
}
330
1A2
100
DictionaryVariables
280
     0
  1
STANDARD
  0
DICTIONARYVAR
  5
1AA
102
{ACAD_REACTORS
330
1A2
102
}
330
1A2
100
DictionaryVariables
280
     0
  1
1
  0
DICTIONARYVAR
  5
1A9
102
{ACAD_REACTORS
330
1A2
102
}
330
1A2
100
DictionaryVariables
280
     0
  1
1
  0
DICTIONARYVAR
  5
1A8
102
{ACAD_REACTORS
330
1A2
102
}
330
1A2
100
DictionaryVariables
280
     0
  1
0
  0
DICTIONARYVAR
  5
1A5
102
{ACAD_REACTORS
330
1A2
102
}
330
1A2
100
DictionaryVariables
280
     0
  1
1
  0
DICTIONARYVAR
  5
1A7
102
{ACAD_REACTORS
330
1A2
102
}
330
1A2
100
DictionaryVariables
280
     0
  1
127
  0
DICTIONARY
  5
1B1
330
1A
100
AcDbDictionary
280
     1
281
     1
  3
ACAD_XREC_ROUNDTRIP
360
1B2
  0
DICTIONARY
  5
1AF
330
11
100
AcDbDictionary
280
     1
281
     1
  3
ACAD_XREC_ROUNDTRIP
360
1B0
  0
DICTIONARY
  5
1B5
330
50
100
AcDbDictionary
280
     1
281
     1
  3
ACAD_XREC_ROUNDTRIP
360
1B6
  0
DICTIONARY
  5
1B3
330
4F
100
AcDbDictionary
280
     1
281
     1
  3
ACAD_XREC_ROUNDTRIP
360
1B4
  0
DICTIONARY
  5
1AD
330
C
100
AcDbDictionary
280
     1
281
     1
  3
ACAD_XREC_ROUNDTRIP
360
1AE
  0
DICTIONARY
  5
59
330
58
100
AcDbDictionary
280
     1
281
     1
  3
ACAD_ROUNDTRIP_2008_TABLESTYLE_CELLSTYLEMAP
360
1AB
  3
ACAD_XREC_ROUNDTRIP
360
1B7
  0
XRECORD
  5
1B2
102
{ACAD_REACTORS
330
1B1
102
}
330
1B1
100
AcDbXrecord
280
     1
102
SHADEPLOT
 70
     0
102
SHADEPLOTRESLEVEL
 70
     2
102
SHADEPLOTCUSTOMDPI
 70
   300
  0
XRECORD
  5
1B0
102
{ACAD_REACTORS
330
1AF
102
}
330
1AF
100
AcDbXrecord
280
     1
102
SHADEPLOT
 70
     1
102
SHADEPLOTRESLEVEL
 70
     2
102
SHADEPLOTCUSTOMDPI
 70
   300
  0
XRECORD
  5
1B6
102
{ACAD_REACTORS
330
1B5
102
}
330
1B5
100
AcDbXrecord
280
     1
102
MATERIAL
148
0.0
149
0.0
149
0.0
 93
        0
 94
       63
282
     0
 72
     1
 77
     1
171
     1
175
     1
179
     1
273
     0
  0
XRECORD
  5
1B4
102
{ACAD_REACTORS
330
1B3
102
}
330
1B3
100
AcDbXrecord
280
     1
102
MATERIAL
148
0.0
149
0.0
149
0.0
 93
        0
 94
       63
282
     0
 72
     1
 77
     1
171
     1
175
     1
179
     1
273
     0
  0
XRECORD
  5
1AE
102
{ACAD_REACTORS
330
1AD
102
}
330
1AD
100
AcDbXrecord
280
     1
102
MATERIAL
148
0.0
149
0.0
149
0.0
 93
        0
 94
       63
282
     0
 72
     1
 77
     1
171
     1
175
     1
179
     1
273
     0
  0
CELLSTYLEMAP
  5
1AB
102
{ACAD_REACTORS
330
59
102
}
330
59
100
AcDbCellStyleMap
 90
        3
300
CELLSTYLE
  1
TABLEFORMAT_BEGIN
 90
        5
170
     1
 91
        0
 92
    32768
 62
   257
 93
        1
300
CONTENTFORMAT
  1
CONTENTFORMAT_BEGIN
 90
        0
 91
        0
 92
        4
 93
        0
300

 40
0.0
140
1.0
 94
        5
 62
     0
340
22
144
0.25
309
CONTENTFORMAT_END
171
     0
 94
        6
 95
        1
302
GRIDFORMAT
  1
GRIDFORMAT_BEGIN
 90
        0
 91
        1
 62
     0
 92
       -2
340
0
 93
        0
 40
0.045
309
GRIDFORMAT_END
 95
        2
302
GRIDFORMAT
  1
GRIDFORMAT_BEGIN
 90
        0
 91
        1
 62
     0
 92
       -2
340
0
 93
        0
 40
0.045
309
GRIDFORMAT_END
 95
        4
302
GRIDFORMAT
  1
GRIDFORMAT_BEGIN
 90
        0
 91
        1
 62
     0
 92
       -2
340
0
 93
        0
 40
0.045
309
GRIDFORMAT_END
 95
        8
302
GRIDFORMAT
  1
GRIDFORMAT_BEGIN
 90
        0
 91
        1
 62
     0
 92
       -2
340
0
 93
        0
 40
0.045
309
GRIDFORMAT_END
 95
       16
302
GRIDFORMAT
  1
GRIDFORMAT_BEGIN
 90
        0
 91
        1
 62
     0
 92
       -2
340
0
 93
        0
 40
0.045
309
GRIDFORMAT_END
 95
       32
302
GRIDFORMAT
  1
GRIDFORMAT_BEGIN
 90
        0
 91
        1
 62
     0
 92
       -2
340
0
 93
        0
 40
0.045
309
GRIDFORMAT_END
309
TABLEFORMAT_END
  1
CELLSTYLE_BEGIN
 90
        1
 91
        1
300
_TITLE
309
CELLSTYLE_END
300
CELLSTYLE
  1
TABLEFORMAT_BEGIN
 90
        5
170
     1
 91
        0
 92
        0
 62
   257
 93
        1
300
CONTENTFORMAT
  1
CONTENTFORMAT_BEGIN
 90
        0
 91
        0
 92
        4
 93
        0
300

 40
0.0
140
1.0
 94
        5
 62
     0
340
22
144
0.18
309
CONTENTFORMAT_END
171
     0
 94
        6
 95
        1
302
GRIDFORMAT
  1
GRIDFORMAT_BEGIN
 90
        0
 91
        1
 62
     0
 92
       -2
340
0
 93
        0
 40
0.045
309
GRIDFORMAT_END
 95
        2
302
GRIDFORMAT
  1
GRIDFORMAT_BEGIN
 90
        0
 91
        1
 62
     0
 92
       -2
340
0
 93
        0
 40
0.045
309
GRIDFORMAT_END
 95
        4
302
GRIDFORMAT
  1
GRIDFORMAT_BEGIN
 90
        0
 91
        1
 62
     0
 92
       -2
340
0
 93
        0
 40
0.045
309
GRIDFORMAT_END
 95
        8
302
GRIDFORMAT
  1
GRIDFORMAT_BEGIN
 90
        0
 91
        1
 62
     0
 92
       -2
340
0
 93
        0
 40
0.045
309
GRIDFORMAT_END
 95
       16
302
GRIDFORMAT
  1
GRIDFORMAT_BEGIN
 90
        0
 91
        1
 62
     0
 92
       -2
340
0
 93
        0
 40
0.045
309
GRIDFORMAT_END
 95
       32
302
GRIDFORMAT
  1
GRIDFORMAT_BEGIN
 90
        0
 91
        1
 62
     0
 92
       -2
340
0
 93
        0
 40
0.045
309
GRIDFORMAT_END
309
TABLEFORMAT_END
  1
CELLSTYLE_BEGIN
 90
        2
 91
        1
300
_HEADER
309
CELLSTYLE_END
300
CELLSTYLE
  1
TABLEFORMAT_BEGIN
 90
        5
170
     1
 91
        0
 92
        0
 62
   257
 93
        1
300
CONTENTFORMAT
  1
CONTENTFORMAT_BEGIN
 90
        0
 91
        0
 92
        4
 93
        0
300

 40
0.0
140
1.0
 94
        2
 62
     0
340
22
144
0.18
309
CONTENTFORMAT_END
171
     0
 94
        6
 95
        1
302
GRIDFORMAT
  1
GRIDFORMAT_BEGIN
 90
        0
 91
        1
 62
     0
 92
       -2
340
0
 93
        0
 40
0.045
309
GRIDFORMAT_END
 95
        2
302
GRIDFORMAT
  1
GRIDFORMAT_BEGIN
 90
        0
 91
        1
 62
     0
 92
       -2
340
0
 93
        0
 40
0.045
309
GRIDFORMAT_END
 95
        4
302
GRIDFORMAT
  1
GRIDFORMAT_BEGIN
 90
        0
 91
        1
 62
     0
 92
       -2
340
0
 93
        0
 40
0.045
309
GRIDFORMAT_END
 95
        8
302
GRIDFORMAT
  1
GRIDFORMAT_BEGIN
 90
        0
 91
        1
 62
     0
 92
       -2
340
0
 93
        0
 40
0.045
309
GRIDFORMAT_END
 95
       16
302
GRIDFORMAT
  1
GRIDFORMAT_BEGIN
 90
        0
 91
        1
 62
     0
 92
       -2
340
0
 93
        0
 40
0.045
309
GRIDFORMAT_END
 95
       32
302
GRIDFORMAT
  1
GRIDFORMAT_BEGIN
 90
        0
 91
        1
 62
     0
 92
       -2
340
0
 93
        0
 40
0.045
309
GRIDFORMAT_END
309
TABLEFORMAT_END
  1
CELLSTYLE_BEGIN
 90
        3
 91
        2
300
_DATA
309
CELLSTYLE_END
  0
XRECORD
  5
1B7
102
{ACAD_REACTORS
330
59
102
}
330
59
100
AcDbXrecord
280
     1
102
ACAD_ROUNDTRIP_PRE2007_TABLESTYLE
 90
        4
 91
        0
  1

 92
        4
 93
        0
  2

 94
        4
 95
        0
  3

  0
ENDSEC
  0
EOF
