  0
SECTION
  2
HEADER
  9
$ACADVER
  1
AC1015
  9
$ACADMAINTVER
 70
    18
  9
$DWGCODEPAGE
  3
ANSI_1250
  9
$INSBASE
 10
0.0
 20
0.0
 30
0.0
  9
$EXTMIN
 10
1.000000000000000E+20
 20
1.000000000000000E+20
 30
1.000000000000000E+20
  9
$EXTMAX
 10
0.0
 20
0.0
 30
0.0
  9
$LIMMIN
 10
0.0
 20
0.0
  9
$LIMMAX
 10
420.0
 20
297.0
  9
$ORTHOMODE
 70
     1
  9
$REGENMODE
 70
     1
  9
$FILLMODE
 70
     1
  9
$QTEXTMODE
 70
     0
  9
$MIRRTEXT
 70
     0
  9
$LTSCALE
 40
75.0
  9
$ATTMODE
 70
     1
  9
$TEXTSIZE
 40
20.0
  9
$TRACEWID
 40
1.0
  9
$TEXTSTYLE
  7
ROMANS
  9
$CLAYER
  8
0Wymiary-PL
  9
$CELTYPE
  6
ByLayer
  9
$CECOLOR
 62
   256
  9
$CELTSCALE
 40
1.0
  9
$DISPSILH
 70
     0
  9
$DIMSCALE
 40
1.0
  9
$DIMASZ
 40
1.0
  9
$DIMEXO
 40
43.0
  9
$DIMDLI
 40
24.0
  9
$DIMRND
 40
0.5
  9
$DIMDLE
 40
12.0
  9
$DIMEXE
 40
13.0
  9
$DIMTP
 40
0.0
  9
$DIMTM
 40
0.0
  9
$DIMTXT
 40
30.0
  9
$DIMCEN
 40
0.0
  9
$DIMTSZ
 40
0.0
  9
$DIMTOL
 70
     0
  9
$DIMLIM
 70
     0
  9
$DIMTIH
 70
     0
  9
$DIMTOH
 70
     0
  9
$DIMSE1
 70
     1
  9
$DIMSE2
 70
     1
  9
$DIMTAD
 70
     1
  9
$DIMZIN
 70
     8
  9
$DIMBLK
  1
B-DIM_W
  9
$DIMASO
 70
     1
  9
$DIMSHO
 70
     1
  9
$DIMPOST
  1

  9
$DIMAPOST
  1

  9
$DIMALT
 70
     0
  9
$DIMALTD
 70
     2
  9
$DIMALTF
 40
25.4
  9
$DIMLFAC
 40
1.0
  9
$DIMTOFL
 70
     1
  9
$DIMTVP
 40
1.0
  9
$DIMTIX
 70
     1
  9
$DIMSOXD
 70
     0
  9
$DIMSAH
 70
     0
  9
$DIMBLK1
  1

  9
$DIMBLK2
  1

  9
$DIMSTYLE
  2
100-PRw
  9
$DIMCLRD
 70
     1
  9
$DIMCLRE
 70
     1
  9
$DIMCLRT
 70
   140
  9
$DIMTFAC
 40
1.0
  9
$DIMGAP
 40
8.0
  9
$DIMJUST
 70
     0
  9
$DIMSD1
 70
     0
  9
$DIMSD2
 70
     0
  9
$DIMTOLJ
 70
     1
  9
$DIMTZIN
 70
     0
  9
$DIMALTZ
 70
     0
  9
$DIMALTTZ
 70
     0
  9
$DIMUPT
 70
     0
  9
$DIMDEC
 70
     1
  9
$DIMTDEC
 70
     1
  9
$DIMALTU
 70
     2
  9
$DIMALTTD
 70
     2
  9
$DIMTXSTY
  7
ROMANS
  9
$DIMAUNIT
 70
     0
  9
$DIMADEC
 70
     0
  9
$DIMALTRND
 40
0.0
  9
$DIMAZIN
 70
     0
  9
$DIMDSEP
 70
    46
  9
$DIMATFIT
 70
     3
  9
$DIMFRAC
 70
     0
  9
$DIMLDRBLK
  1
Dot
  9
$DIMLUNIT
 70
     2
  9
$DIMLWD
 70
     5
  9
$DIMLWE
 70
    -2
  9
$DIMTMOVE
 70
     2
  9
$LUNITS
 70
     2
  9
$LUPREC
 70
     1
  9
$SKETCHINC
 40
1.0
  9
$FILLETRAD
 40
0.0
  9
$AUNITS
 70
     0
  9
$AUPREC
 70
     0
  9
$MENU
  1
.
  9
$ELEVATION
 40
0.0
  9
$PELEVATION
 40
0.0
  9
$THICKNESS
 40
0.0
  9
$LIMCHECK
 70
     0
  9
$CHAMFERA
 40
0.0
  9
$CHAMFERB
 40
0.0
  9
$CHAMFERC
 40
20.0
  9
$CHAMFERD
 40
0.0
  9
$SKPOLY
 70
     0
  9
$TDCREATE
 40
2452027.670547454
  9
$TDUCREATE
 40
2452027.587214121
  9
$TDUPDATE
 40
2454964.499617685
  9
$TDUUPDATE
 40
2454964.416284352
  9
$TDINDWG
 40
9.3191705787
  9
$TDUSRTIMER
 40
9.3191705787
  9
$USRTIMER
 70
     1
  9
$ANGBASE
 50
0.0
  9
$ANGDIR
 70
     0
  9
$PDMODE
 70
     0
  9
$PDSIZE
 40
0.0
  9
$PLINEWID
 40
0.0
  9
$SPLFRAME
 70
     0
  9
$SPLINETYPE
 70
     6
  9
$SPLINESEGS
 70
     8
  9
$HANDSEED
  5
32C
  9
$SURFTAB1
 70
     6
  9
$SURFTAB2
 70
     6
  9
$SURFTYPE
 70
     6
  9
$SURFU
 70
     6
  9
$SURFV
 70
     6
  9
$UCSBASE
  2

  9
$UCSNAME
  2

  9
$UCSORG
 10
0.0
 20
0.0
 30
0.0
  9
$UCSXDIR
 10
1.0
 20
0.0
 30
0.0
  9
$UCSYDIR
 10
0.0
 20
1.0
 30
0.0
  9
$UCSORTHOREF
  2

  9
$UCSORTHOVIEW
 70
     0
  9
$UCSORGTOP
 10
0.0
 20
0.0
 30
0.0
  9
$UCSORGBOTTOM
 10
0.0
 20
0.0
 30
0.0
  9
$UCSORGLEFT
 10
0.0
 20
0.0
 30
0.0
  9
$UCSORGRIGHT
 10
0.0
 20
0.0
 30
0.0
  9
$UCSORGFRONT
 10
0.0
 20
0.0
 30
0.0
  9
$UCSORGBACK
 10
0.0
 20
0.0
 30
0.0
  9
$PUCSBASE
  2

  9
$PUCSNAME
  2

  9
$PUCSORG
 10
0.0
 20
0.0
 30
0.0
  9
$PUCSXDIR
 10
1.0
 20
0.0
 30
0.0
  9
$PUCSYDIR
 10
0.0
 20
1.0
 30
0.0
  9
$PUCSORTHOREF
  2

  9
$PUCSORTHOVIEW
 70
     0
  9
$PUCSORGTOP
 10
0.0
 20
0.0
 30
0.0
  9
$PUCSORGBOTTOM
 10
0.0
 20
0.0
 30
0.0
  9
$PUCSORGLEFT
 10
0.0
 20
0.0
 30
0.0
  9
$PUCSORGRIGHT
 10
0.0
 20
0.0
 30
0.0
  9
$PUCSORGFRONT
 10
0.0
 20
0.0
 30
0.0
  9
$PUCSORGBACK
 10
0.0
 20
0.0
 30
0.0
  9
$USERI1
 70
     0
  9
$USERI2
 70
     0
  9
$USERI3
 70
     0
  9
$USERI4
 70
     0
  9
$USERI5
 70
     0
  9
$USERR1
 40
0.0
  9
$USERR2
 40
0.0
  9
$USERR3
 40
0.0
  9
$USERR4
 40
0.0
  9
$USERR5
 40
0.0
  9
$WORLDVIEW
 70
     1
  9
$SHADEDGE
 70
     3
  9
$SHADEDIF
 70
    70
  9
$TILEMODE
 70
     1
  9
$MAXACTVP
 70
    64
  9
$PINSBASE
 10
0.0
 20
0.0
 30
0.0
  9
$PLIMCHECK
 70
     0
  9
$PEXTMIN
 10
1.049999952316284
 20
0.7999999523162842
 30
0.0
  9
$PEXTMAX
 10
9.449999570846559
 20
7.199999570846558
 30
0.0
  9
$PLIMMIN
 10
-0.2500002402958907
 20
-0.2499999962453767
  9
$PLIMMAX
 10
10.74999951940822
 20
8.249999763458733
  9
$UNITMODE
 70
     0
  9
$VISRETAIN
 70
     1
  9
$PLINEGEN
 70
     0
  9
$PSLTSCALE
 70
     1
  9
$TREEDEPTH
 70
  3020
  9
$CMLSTYLE
  2
Standard
  9
$CMLJUST
 70
     0
  9
$CMLSCALE
 40
20.0
  9
$PROXYGRAPHICS
 70
     1
  9
$MEASUREMENT
 70
     0
  9
$CELWEIGHT
370
    -1
  9
$ENDCAPS
280
     0
  9
$JOINSTYLE
280
     0
  9
$LWDISPLAY
290
     0
  9
$INSUNITS
 70
     5
  9
$HYPERLINKBASE
  1

  9
$STYLESHEET
  1

  9
$XEDIT
290
     1
  9
$CEPSNTYPE
380
     0
  9
$PSTYLEMODE
290
     1
  9
$FINGERPRINTGUID
  2
{D0F55B8E-434D-42D4-B1E9-39EADA9E1816}
  9
$VERSIONGUID
  2
{FF3DC0A0-A191-45B9-B52B-4E083C5A5969}
  9
$EXTNAMES
290
     1
  9
$PSVPSCALE
 40
0.0
  9
$OLESTARTUP
290
     0
  0
ENDSEC
  0
SECTION
  2
CLASSES
  0
CLASS
  1
ACDBDICTIONARYWDFLT
  2
AcDbDictionaryWithDefault
  3
ObjectDBX Classes
 90
        0
280
     0
281
     0
  0
CLASS
  1
ACDBPLACEHOLDER
  2
AcDbPlaceHolder
  3
ObjectDBX Classes
 90
        0
280
     0
281
     0
  0
CLASS
  1
LAYOUT
  2
AcDbLayout
  3
ObjectDBX Classes
 90
        0
280
     0
281
     0
  0
CLASS
  1
DICTIONARYVAR
  2
AcDbDictionaryVar
  3
ObjectDBX Classes
 90
        0
280
     0
281
     0
  0
CLASS
  1
SORTENTSTABLE
  2
AcDbSortentsTable
  3
ObjectDBX Classes
 90
        0
280
     0
281
     0
  0
CLASS
  1
AEC_VARS_DWG_SETUP
  2
AecDbVarsDwgSetup
  3
AecBase50|Product Desc: Autodesk Architectural Desktop 2007 |Company: Autodesk,Inc. |WEB Address: www.autodesk.com
 90
    32897
280
     0
281
     0
  0
CLASS
  1
AEC_DISP_REP_CONFIG
  2
AecDbDispRepConfig
  3
AecBase50|Product Desc: Autodesk Architectural Desktop 2007 |Company: Autodesk,Inc. |WEB Address: www.autodesk.com
 90
    32897
280
     0
281
     0
  0
CLASS
  1
AEC_DISP_REP_SET
  2
AecDbDispRepSet
  3
AecBase50|Product Desc: Autodesk Architectural Desktop 2007 |Company: Autodesk,Inc. |WEB Address: www.autodesk.com
 90
    32897
280
     0
281
     0
  0
CLASS
  1
AEC_DISP_REP_2D_SECTION
  2
AecDbDispRep2dSection
  3
AecBase50|Product Desc: Autodesk Architectural Desktop 2007 |Company: Autodesk,Inc. |WEB Address: www.autodesk.com
 90
    32897
280
     0
281
     0
  0
CLASS
  1
AEC_DISP_REP_ANCHOR_BUB_TO_GRID
  2
AecDbDispRepAnchorBubToGrid
  3
AecStructureBase50|Product Desc: Autodesk Architectural Desktop 2007 |Company: Autodesk,Inc. |WEB Address: www.autodesk.com
 90
    32897
280
     0
281
     0
  0
CLASS
  1
AEC_DISP_REP_ANCHOR_BUB_TO_GRID_MODEL
  2
AecDbDispRepAnchorBubToGridMdl
  3
AecStructureBase50|Product Desc: Autodesk Architectural Desktop 2007 |Company: Autodesk,Inc. |WEB Address: www.autodesk.com
 90
    32897
280
     0
281
     0
  0
CLASS
  1
AEC_DISP_REP_ANCHOR_ENT_TO_NODE
  2
AecDbDispRepAnchorEntToNode
  3
AecBaseEx50|Product Desc: Autodesk Architectural Desktop 2007 |Company: Autodesk,Inc. |WEB Address: www.autodesk.com
 90
    32897
280
     0
281
     0
  0
CLASS
  1
AEC_DISP_REP_ANCHOR_TAG_TO_ENT
  2
AecDbDispRepAnchorTagToEnt
  3
AecScheduleData50|Product Desc: Autodesk Architectural Desktop 2007 |Company: Autodesk,Inc. |WEB Address: www.autodesk.com
 90
    32897
280
     0
281
     0
  0
CLASS
  1
AEC_DISP_REP_AREA
  2
AecDbDispRepArea
  3
AecAreaCalculationBase50|Product Desc: Autodesk Architectural Desktop 2007 |Company: Autodesk,Inc. |WEB Address: www.autodesk.com
 90
    32897
280
     0
281
     0
  0
CLASS
  1
AEC_DISP_REP_AREA_DECOMPOSED
  2
AecDbDispRepAreaDecomposed
  3
AecAreaCalculationBase50|Product Desc: Autodesk Architectural Desktop 2007 |Company: Autodesk,Inc. |WEB Address: www.autodesk.com
 90
    32897
280
     0
281
     0
  0
CLASS
  1
AEC_DISP_REP_AREAGROUP
  2
AecDbDispRepAreaGroup
  3
AecAreaCalculationBase50|Product Desc: Autodesk Architectural Desktop 2007 |Company: Autodesk,Inc. |WEB Address: www.autodesk.com
 90
    32897
280
     0
281
     0
  0
CLASS
  1
AEC_DISP_REP_BDG_ELEVLINE_MODEL
  2
AecDbDispRepBdgElevLineModel
  3
AecArchBase50|Product Desc: Autodesk Architectural Desktop 2007 |Company: Autodesk,Inc. |WEB Address: www.autodesk.com
 90
    32897
280
     0
281
     0
  0
CLASS
  1
AEC_DISP_REP_BDG_SECTIONLINE_PLAN
  2
AecDbDispRepBdgElevLinePlan
  3
AecArchBase50|Product Desc: Autodesk Architectural Desktop 2007 |Company: Autodesk,Inc. |WEB Address: www.autodesk.com
 90
    32897
280
     0
281
     0
  0
CLASS
  1
AEC_DISP_REP_BDG_SECTIONLINE_MODEL
  2
AecDbDispRepBdgSectionLineModel
  3
AecArchBase50|Product Desc: Autodesk Architectural Desktop 2007 |Company: Autodesk,Inc. |WEB Address: www.autodesk.com
 90
    32897
280
     0
281
     0
  0
CLASS
  1
AEC_DISP_REP_BDG_SECTIONLINE_PLAN
  2
AecDbDispRepBdgSectionLinePlan
  3
AecArchBase50|Product Desc: Autodesk Architectural Desktop 2007 |Company: Autodesk,Inc. |WEB Address: www.autodesk.com
 90
    32897
280
     0
281
     0
  0
CLASS
  1
AEC_DISP_REP_BDG_SECTION_SUBDIV
  2
AecDbDispRepBdgSectionSubDiv
  3
AecArchBase50|Product Desc: Autodesk Architectural Desktop 2007 |Company: Autodesk,Inc. |WEB Address: www.autodesk.com
 90
    32897
280
     0
281
     0
  0
CLASS
  1
AEC_DISP_REP_CAMERA
  2
AecDbDispRepCamera
  3
AecBase50|Product Desc: Autodesk Architectural Desktop 2007 |Company: Autodesk,Inc. |WEB Address: www.autodesk.com
 90
    32897
280
     0
281
     0
  0
CLASS
  1
AEC_DISP_REP_CEILING_GRID
  2
AecDbDispRepCeilingGrid
  3
AecArchBase50|Product Desc: Autodesk Architectural Desktop 2007 |Company: Autodesk,Inc. |WEB Address: www.autodesk.com
 90
    33661
280
     0
281
     0
  0
CLASS
  1
AEC_DISP_REP_CEILING_GRID_MODEL
  2
AecDbDispRepCeilingGridModel
  3
AecArchBase50|Product Desc: Autodesk Architectural Desktop 2007 |Company: Autodesk,Inc. |WEB Address: www.autodesk.com
 90
    32897
280
     0
281
     0
  0
CLASS
  1
AEC_DISP_REP_CEILING_GRID_RCP
  2
AecDbDispRepCeilingGridRcp
  3
AecArchBase50|Product Desc: Autodesk Architectural Desktop 2007 |Company: Autodesk,Inc. |WEB Address: www.autodesk.com
 90
    32897
280
     0
281
     0
  0
CLASS
  1
AEC_DISP_REP_CLIP_VOLUME_MODEL
  2
AecDbDispRepClipVolModel
  3
AecBase50|Product Desc: Autodesk Architectural Desktop 2007 |Company: Autodesk,Inc. |WEB Address: www.autodesk.com
 90
    32897
280
     0
281
     0
  0
CLASS
  1
AEC_DISP_REP_CLIP_VOLUME_PLAN
  2
AecDbDispRepClipVolPlan
  3
AecBase50|Product Desc: Autodesk Architectural Desktop 2007 |Company: Autodesk,Inc. |WEB Address: www.autodesk.com
 90
    32897
280
     0
281
     0
  0
CLASS
  1
AEC_DISP_REP_CLIP_VOLUME_RESULT_SUBDIV
  2
AecDbDispRepClipVolResSubDiv
  3
AecBase50|Product Desc: Autodesk Architectural Desktop 2007 |Company: Autodesk,Inc. |WEB Address: www.autodesk.com
 90
    32897
280
     0
281
     0
  0
CLASS
  1
AEC_DISP_REP_CLIP_VOLUME_RESULT
  2
AecDbDispRepClipVolResult
  3
AecBase50|Product Desc: Autodesk Architectural Desktop 2007 |Company: Autodesk,Inc. |WEB Address: www.autodesk.com
 90
    32897
280
     0
281
     0
  0
CLASS
  1
AEC_DISP_REP_COLUMN_GRID
  2
AecDbDispRepColumnGrid
  3
AecStructureBase50|Product Desc: Autodesk Architectural Desktop 2007 |Company: Autodesk,Inc. |WEB Address: www.autodesk.com
 90
    32897
280
     0
281
     0
  0
CLASS
  1
AEC_DISP_REP_COLUMN_GRID_MODEL
  2
AecDbDispRepColumnGridModel
  3
AecStructureBase50|Product Desc: Autodesk Architectural Desktop 2007 |Company: Autodesk,Inc. |WEB Address: www.autodesk.com
 90
    32897
280
     0
281
     0
  0
CLASS
  1
AEC_DISP_REP_CURTAIN_WALL_LAYOUT_MODEL
  2
AecDbDispRepCurtainWallLayoutModel
  3
AecArchBase50|Product Desc: Autodesk Architectural Desktop 2007 |Company: Autodesk,Inc. |WEB Address: www.autodesk.com
 90
    32897
280
     0
281
     0
  0
CLASS
  1
AEC_DISP_REP_CURTAIN_WALL_LAYOUT_PLAN
  2
AecDbDispRepCurtainWallLayoutPlan
  3
AecArchBase50|Product Desc: Autodesk Architectural Desktop 2007 |Company: Autodesk,Inc. |WEB Address: www.autodesk.com
 90
    32897
280
     0
281
     0
  0
CLASS
  1
AEC_DISP_REP_CURTAIN_WALL_UNIT_MODEL
  2
AecDbDispRepCurtainWallUnitModel
  3
AecArchBase50|Product Desc: Autodesk Architectural Desktop 2007 |Company: Autodesk,Inc. |WEB Address: www.autodesk.com
 90
    32897
280
     0
281
     0
  0
CLASS
  1
AEC_DISP_REP_CURTAIN_WALL_UNIT_PLAN
  2
AecDbDispRepCurtainWallUnitPlan
  3
AecArchBase50|Product Desc: Autodesk Architectural Desktop 2007 |Company: Autodesk,Inc. |WEB Address: www.autodesk.com
 90
    32897
280
     0
281
     0
  0
CLASS
  1
AEC_DB_DISP_REP_DIM_GROUP_PLAN
  2
AecDbDispRepDimGroupPlan
  3
AecArchDACHBase50|Product Desc: Autodesk Architectural Desktop 2007 |Company: Autodesk,Inc. |WEB Address: www.autodesk.com
 90
    32897
280
     0
281
     0
  0
CLASS
  1
AEC_DISP_REP_DOOR_MODEL
  2
AecDbDispRepDoorModel
  3
AecArchBase50|Product Desc: Autodesk Architectural Desktop 2007 |Company: Autodesk,Inc. |WEB Address: www.autodesk.com
 90
    32897
280
     0
281
     0
  0
CLASS
  1
AEC_DISP_REP_DOOR_NOMINAL
  2
AecDbDispRepDoorNominal
  3
AecArchBase50|Product Desc: Autodesk Architectural Desktop 2007 |Company: Autodesk,Inc. |WEB Address: www.autodesk.com
 90
    32897
280
     0
281
     0
  0
CLASS
  1
AEC_DISP_REP_DOOR_PLAN
  2
AecDbDispRepDoorPlan
  3
AecArchBase50|Product Desc: Autodesk Architectural Desktop 2007 |Company: Autodesk,Inc. |WEB Address: www.autodesk.com
 90
    32897
280
     0
281
     0
  0
CLASS
  1
AEC_DISP_REP_EDITINPLACEPROFILE
  2
AecDbDispRepEditInPlaceProfile
  3
AecBase50|Product Desc: Autodesk Architectural Desktop 2007 |Company: Autodesk,Inc. |WEB Address: www.autodesk.com
 90
    32897
280
     0
281
     0
  0
CLASS
  1
AEC_DISP_REP_ENT_REF
  2
AecDbDispRepEntRef
  3
AecBase50|Product Desc: Autodesk Architectural Desktop 2007 |Company: Autodesk,Inc. |WEB Address: www.autodesk.com
 90
    32897
280
     0
281
     0
  0
CLASS
  1
AEC_DISP_REP_LAYOUT_CURVE
  2
AecDbDispRepLayoutCurve
  3
AecBase50|Product Desc: Autodesk Architectural Desktop 2007 |Company: Autodesk,Inc. |WEB Address: www.autodesk.com
 90
    32897
280
     0
281
     0
  0
CLASS
  1
AEC_DISP_REP_LAYOUT_GRID2D
  2
AecDbDispRepLayoutGrid2d
  3
AecBase50|Product Desc: Autodesk Architectural Desktop 2007 |Company: Autodesk,Inc. |WEB Address: www.autodesk.com
 90
    32897
280
     0
281
     0
  0
CLASS
  1
AEC_DISP_REP_LAYOUT_GRID3D
  2
AecDbDispRepLayoutGrid3d
  3
AecBase50|Product Desc: Autodesk Architectural Desktop 2007 |Company: Autodesk,Inc. |WEB Address: www.autodesk.com
 90
    32897
280
     0
281
     0
  0
CLASS
  1
AEC_DISP_REP_MASKBLOCK_REF
  2
AecDbDispRepMaskBlockRef
  3
AecBase50|Product Desc: Autodesk Architectural Desktop 2007 |Company: Autodesk,Inc. |WEB Address: www.autodesk.com
 90
    32897
280
     0
281
     0
  0
CLASS
  1
AEC_DISP_REP_MASKBLOCK_REF_RCP
  2
AecDbDispRepMaskBlockRefRcp
  3
AecArchBase50|Product Desc: Autodesk Architectural Desktop 2007 |Company: Autodesk,Inc. |WEB Address: www.autodesk.com
 90
    32897
280
     0
281
     0
  0
CLASS
  1
AEC_DISP_REP_MASS_ELEM_MODEL
  2
AecDbDispRepMassElemModel
  3
AecBaseEx50|Product Desc: Autodesk Architectural Desktop 2007 |Company: Autodesk,Inc. |WEB Address: www.autodesk.com
 90
    32897
280
     0
281
     0
  0
CLASS
  1
AEC_DISP_REP_MASS_ELEM_SCHEM
  2
AecDbDispRepMassElemSchem
  3
AecBaseEx50|Product Desc: Autodesk Architectural Desktop 2007 |Company: Autodesk,Inc. |WEB Address: www.autodesk.com
 90
    32897
280
     0
281
     0
  0
CLASS
  1
AEC_DISP_REP_MASS_GROUP_MODEL
  2
AecDbDispRepMassGroupModel
  3
AecBaseEx50|Product Desc: Autodesk Architectural Desktop 2007 |Company: Autodesk,Inc. |WEB Address: www.autodesk.com
 90
    32897
280
     0
281
     0
  0
CLASS
  1
AEC_DISP_REP_MASS_GROUP_PLAN
  2
AecDbDispRepMassGroupPlan
  3
AecBaseEx50|Product Desc: Autodesk Architectural Desktop 2007 |Company: Autodesk,Inc. |WEB Address: www.autodesk.com
 90
    32897
280
     0
281
     0
  0
CLASS
  1
AEC_DISP_REP_MATERIAL
  2
AecDbDispRepMaterial
  3
AecBase50|Product Desc: Autodesk Architectural Desktop 2007 |Company: Autodesk,Inc. |WEB Address: www.autodesk.com
 90
    32897
280
     0
281
     0
  0
CLASS
  1
AEC_DISP_REP_MVBLOCK_REF
  2
AecDbDispRepMvBlockRef
  3
AecBase50|Product Desc: Autodesk Architectural Desktop 2007 |Company: Autodesk,Inc. |WEB Address: www.autodesk.com
 90
    32897
280
     0
281
     0
  0
CLASS
  1
AEC_DISP_REP_MVBLOCK_REF_MODEL
  2
AecDbDispRepMvBlockRefModel
  3
AecBase50|Product Desc: Autodesk Architectural Desktop 2007 |Company: Autodesk,Inc. |WEB Address: www.autodesk.com
 90
    32897
280
     0
281
     0
  0
CLASS
  1
AEC_DISP_REP_OPENING
  2
AecDbDispRepOpening
  3
AecArchBase50|Product Desc: Autodesk Architectural Desktop 2007 |Company: Autodesk,Inc. |WEB Address: www.autodesk.com
 90
    32897
280
     0
281
     0
  0
CLASS
  1
AEC_DISP_REP_OPENING_MODEL
  2
AecDbDispRepOpeningModel
  3
AecArchBase50|Product Desc: Autodesk Architectural Desktop 2007 |Company: Autodesk,Inc. |WEB Address: www.autodesk.com
 90
    32897
280
     0
281
     0
  0
CLASS
  1
AEC_DISP_REP_POLYGON_MODEL
  2
AecDbDispRepPolygonModel
  3
AecBaseEx50|Product Desc: Autodesk Architectural Desktop 2007 |Company: Autodesk,Inc. |WEB Address: www.autodesk.com
 90
    32897
280
     0
281
     0
  0
CLASS
  1
AEC_DISP_REP_RAILING_MODEL
  2
AecDbDispRepRailingModel
  3
AecArchBase50|Product Desc: Autodesk Architectural Desktop 2007 |Company: Autodesk,Inc. |WEB Address: www.autodesk.com
 90
    32897
280
     0
281
     0
  0
CLASS
  1
AEC_DISP_REP_RAILING_PLAN
  2
AecDbDispRepRailingPlan
  3
AecArchBase50|Product Desc: Autodesk Architectural Desktop 2007 |Company: Autodesk,Inc. |WEB Address: www.autodesk.com
 90
    32897
280
     0
281
     0
  0
CLASS
  1
AEC_DISP_REP_ROOF_MODEL
  2
AecDbDispRepRoofModel
  3
AecArchBase50|Product Desc: Autodesk Architectural Desktop 2007 |Company: Autodesk,Inc. |WEB Address: www.autodesk.com
 90
    32897
280
     0
281
     0
  0
CLASS
  1
AEC_DISP_REP_ROOF_PLAN
  2
AecDbDispRepRoofPlan
  3
AecArchBase50|Product Desc: Autodesk Architectural Desktop 2007 |Company: Autodesk,Inc. |WEB Address: www.autodesk.com
 90
    32897
280
     0
281
     0
  0
CLASS
  1
AEC_DISP_REP_ROOFSLAB_MODEL
  2
AecDbDispRepRoofSlabModel
  3
AecArchBase50|Product Desc: Autodesk Architectural Desktop 2007 |Company: Autodesk,Inc. |WEB Address: www.autodesk.com
 90
    32897
280
     0
281
     0
  0
CLASS
  1
AEC_DISP_REP_ROOFSLAB_PLAN
  2
AecDbDispRepRoofSlabPlan
  3
AecArchBase50|Product Desc: Autodesk Architectural Desktop 2007 |Company: Autodesk,Inc. |WEB Address: www.autodesk.com
 90
    32897
280
     0
281
     0
  0
CLASS
  1
AEC_DISP_REP_SCHEDULE_TABLE
  2
AecDbDispRepScheduleTable
  3
AecSchedule50|Product Desc: Autodesk Architectural Desktop 2007 |Company: Autodesk,Inc. |WEB Address: www.autodesk.com
 90
    32897
280
     0
281
     0
  0
CLASS
  1
AEC_DISP_REP_SLAB_MODEL
  2
AecDbDispRepSlabModel
  3
AecArchBase50|Product Desc: Autodesk Architectural Desktop 2007 |Company: Autodesk,Inc. |WEB Address: www.autodesk.com
 90
    32897
280
     0
281
     0
  0
CLASS
  1
AEC_DISP_REP_SLAB_PLAN
  2
AecDbDispRepSlabPlan
  3
AecArchBase50|Product Desc: Autodesk Architectural Desktop 2007 |Company: Autodesk,Inc. |WEB Address: www.autodesk.com
 90
    32897
280
     0
281
     0
  0
CLASS
  1
AEC_DISP_REP_SLICE
  2
AecDbDispRepSlice
  3
AecBase50|Product Desc: Autodesk Architectural Desktop 2007 |Company: Autodesk,Inc. |WEB Address: www.autodesk.com
 90
    32897
280
     0
281
     0
  0
CLASS
  1
AEC_DISP_REP_SPACE_BOUNDARY_MODEL
  2
AecDbDispRepSpaceBoundaryModel
  3
AecArchBase50|Product Desc: Autodesk Architectural Desktop 2007 |Company: Autodesk,Inc. |WEB Address: www.autodesk.com
 90
    32897
280
     0
281
     0
  0
CLASS
  1
AEC_DISP_REP_SPACE_BOUNDARY_PLAN
  2
AecDbDispRepSpaceBoundaryPlan
  3
AecArchBase50|Product Desc: Autodesk Architectural Desktop 2007 |Company: Autodesk,Inc. |WEB Address: www.autodesk.com
 90
    32897
280
     0
281
     0
  0
CLASS
  1
AEC_DISP_REP_SPACE_BOUNDARY_SCHEM
  2
AecDbDispRepSpaceBoundarySketch
  3
AecArchBase50|Product Desc: Autodesk Architectural Desktop 2007 |Company: Autodesk,Inc. |WEB Address: www.autodesk.com
 90
    32897
280
     0
281
     0
  0
CLASS
  1
AEC_DISP_REP_SPACE_MODEL
  2
AecDbDispRepSpaceModel
  3
AecArchBase50|Product Desc: Autodesk Architectural Desktop 2007 |Company: Autodesk,Inc. |WEB Address: www.autodesk.com
 90
    32897
280
     0
281
     0
  0
CLASS
  1
AEC_DISP_REP_SPACE_PLAN
  2
AecDbDispRepSpacePlan
  3
AecArchBase50|Product Desc: Autodesk Architectural Desktop 2007 |Company: Autodesk,Inc. |WEB Address: www.autodesk.com
 90
    32897
280
     0
281
     0
  0
CLASS
  1
AEC_DISP_REP_STAIR_MODEL
  2
AecDbDispRepStairModel
  3
AecArchBase50|Product Desc: Autodesk Architectural Desktop 2007 |Company: Autodesk,Inc. |WEB Address: www.autodesk.com
 90
    32897
280
     0
281
     0
  0
CLASS
  1
AEC_DISP_REP_STAIR_PLAN
  2
AecDbDispRepStairPlan
  3
AecArchBase50|Product Desc: Autodesk Architectural Desktop 2007 |Company: Autodesk,Inc. |WEB Address: www.autodesk.com
 90
    32897
280
     0
281
     0
  0
CLASS
  1
AEC_DISP_REP_WALL_GRAPH
  2
AecDbDispRepWallGraph
  3
AecArchBase50|Product Desc: Autodesk Architectural Desktop 2007 |Company: Autodesk,Inc. |WEB Address: www.autodesk.com
 90
    32897
280
     0
281
     0
  0
CLASS
  1
AEC_DISP_REP_WALL_MODEL
  2
AecDbDispRepWallModel
  3
AecArchBase50|Product Desc: Autodesk Architectural Desktop 2007 |Company: Autodesk,Inc. |WEB Address: www.autodesk.com
 90
    32897
280
     0
281
     0
  0
CLASS
  1
AEC_DISP_REP_WALL_PLAN
  2
AecDbDispRepWallPlan
  3
AecArchBase50|Product Desc: Autodesk Architectural Desktop 2007 |Company: Autodesk,Inc. |WEB Address: www.autodesk.com
 90
    32897
280
     0
281
     0
  0
CLASS
  1
AEC_DISP_REP_WALL_SCHEM
  2
AecDbDispRepWallSchem
  3
AecArchBase50|Product Desc: Autodesk Architectural Desktop 2007 |Company: Autodesk,Inc. |WEB Address: www.autodesk.com
 90
    32897
280
     0
281
     0
  0
CLASS
  1
AEC_DISP_REP_WINDOW_ASSEMBLY_MODEL
  2
AecDbDispRepWindowAssemblyModel
  3
AecArchBase50|Product Desc: Autodesk Architectural Desktop 2007 |Company: Autodesk,Inc. |WEB Address: www.autodesk.com
 90
    32897
280
     0
281
     0
  0
CLASS
  1
AEC_DISP_REP_WINDOW_ASSEMBLY_PLAN
  2
AecDbDispRepWindowAssemblyPlan
  3
AecArchBase50|Product Desc: Autodesk Architectural Desktop 2007 |Company: Autodesk,Inc. |WEB Address: www.autodesk.com
 90
    32897
280
     0
281
     0
  0
CLASS
  1
AEC_AECDBDISPREPWINDOWASSEMBLYPLAN100
  2
AecDbDispRepWindowAssemblyPlan100
  3
AecArchDACHBase50|Product Desc: Autodesk Architectural Desktop 2007 |Company: Autodesk,Inc. |WEB Address: www.autodesk.com
 90
    32897
280
     0
281
     0
  0
CLASS
  1
AEC_DISP_REP_WINDOW_MODEL
  2
AecDbDispRepWindowModel
  3
AecArchBase50|Product Desc: Autodesk Architectural Desktop 2007 |Company: Autodesk,Inc. |WEB Address: www.autodesk.com
 90
    32897
280
     0
281
     0
  0
CLASS
  1
AEC_DISP_REP_WINDOW_NOMINAL
  2
AecDbDispRepWindowNominal
  3
AecArchBase50|Product Desc: Autodesk Architectural Desktop 2007 |Company: Autodesk,Inc. |WEB Address: www.autodesk.com
 90
    32897
280
     0
281
     0
  0
CLASS
  1
AEC_DISP_REP_WINDOW_PLAN
  2
AecDbDispRepWindowPlan
  3
AecArchBase50|Product Desc: Autodesk Architectural Desktop 2007 |Company: Autodesk,Inc. |WEB Address: www.autodesk.com
 90
    32897
280
     0
281
     0
  0
CLASS
  1
AECS_DISP_REP_MEMBER_LOGICAL
  2
AecsDbDispRepMemberLogical
  3
AecStructureBase50|Product Desc: Autodesk Architectural Desktop 2007 |Company: Autodesk,Inc. |WEB Address: www.autodesk.com
 90
    32897
280
     0
281
     0
  0
CLASS
  1
AECS_DISP_REP_MEMBER_MODEL_DESIGN
  2
AecsDbDispRepMemberModelDesign
  3
AecStructureBase50|Product Desc: Autodesk Architectural Desktop 2007 |Company: Autodesk,Inc. |WEB Address: www.autodesk.com
 90
    32897
280
     0
281
     0
  0
CLASS
  1
AECS_DISP_REP_MEMBER_PLAN_DESIGN
  2
AecsDbDispRepMemberPlanDesign
  3
AecStructureBase50|Product Desc: Autodesk Architectural Desktop 2007 |Company: Autodesk,Inc. |WEB Address: www.autodesk.com
 90
    32897
280
     0
281
     0
  0
CLASS
  1
AEC_DISP_PROPS_ENT
  2
AecDbDispPropsEnt
  3
AecBase50|Product Desc: Autodesk Architectural Desktop 2007 |Company: Autodesk,Inc. |WEB Address: www.autodesk.com
 90
    32897
280
     0
281
     0
  0
CLASS
  1
AEC_DISP_PROPS_CLIP_VOLUME
  2
AecDbDispPropsClipVol
  3
AecBase50|Product Desc: Autodesk Architectural Desktop 2007 |Company: Autodesk,Inc. |WEB Address: www.autodesk.com
 90
    32897
280
     0
281
     0
  0
CLASS
  1
AEC_DISP_PROPS_SLICE
  2
AecDbDispPropsSlice
  3
AecBase50|Product Desc: Autodesk Architectural Desktop 2007 |Company: Autodesk,Inc. |WEB Address: www.autodesk.com
 90
    32897
280
     0
281
     0
  0
CLASS
  1
AEC_DISP_PROPS_ROOFSLAB_PLAN
  2
AecDbDispPropsRoofSlabPlan
  3
AecArchBase50|Product Desc: Autodesk Architectural Desktop 2007 |Company: Autodesk,Inc. |WEB Address: www.autodesk.com
 90
    32897
280
     0
281
     0
  0
CLASS
  1
AEC_DISP_PROPS_GRID_ASSEMBLY_MODEL
  2
AecDbDispPropsGridAssemblyModel
  3
AecArchBase50|Product Desc: Autodesk Architectural Desktop 2007 |Company: Autodesk,Inc. |WEB Address: www.autodesk.com
 90
    32897
280
     0
281
     0
  0
CLASS
  1
AEC_DISP_PROPS_ROOF
  2
AecDbDispPropsRoof
  3
AecArchBase50|Product Desc: Autodesk Architectural Desktop 2007 |Company: Autodesk,Inc. |WEB Address: www.autodesk.com
 90
    32897
280
     0
281
     0
  0
CLASS
  1
AEC_DISP_PROPS_SPACE_MODEL
  2
AecDbDispPropsSpaceModel
  3
AecArchBase50|Product Desc: Autodesk Architectural Desktop 2007 |Company: Autodesk,Inc. |WEB Address: www.autodesk.com
 90
    32897
280
     0
281
     0
  0
CLASS
  1
AEC_DISP_PROPS_EDITINPLACEPROFILE_MODEL
  2
AecDbDispPropsEditInPlaceProfile
  3
AecBase50|Product Desc: Autodesk Architectural Desktop 2007 |Company: Autodesk,Inc. |WEB Address: www.autodesk.com
 90
    32897
280
     0
281
     0
  0
CLASS
  1
AEC_DISP_PROPS_DOOR
  2
AecDbDispPropsDoor
  3
AecArchBase50|Product Desc: Autodesk Architectural Desktop 2007 |Company: Autodesk,Inc. |WEB Address: www.autodesk.com
 90
    32897
280
     0
281
     0
  0
CLASS
  1
AEC_DISP_PROPS_MASKBLOCK
  2
AecDbDispPropsMaskBlock
  3
AecBase50|Product Desc: Autodesk Architectural Desktop 2007 |Company: Autodesk,Inc. |WEB Address: www.autodesk.com
 90
    32897
280
     0
281
     0
  0
CLASS
  1
AEC_DISP_PROPS_SPACE_PLAN
  2
AecDbDispPropsSpacePlan
  3
AecArchBase50|Product Desc: Autodesk Architectural Desktop 2007 |Company: Autodesk,Inc. |WEB Address: www.autodesk.com
 90
    32897
280
     0
281
     0
  0
CLASS
  1
AEC_DISP_PROPS_RAILING_PLAN
  2
AecDbDispPropsRailingPlan
  3
AecArchBase50|Product Desc: Autodesk Architectural Desktop 2007 |Company: Autodesk,Inc. |WEB Address: www.autodesk.com
 90
    32897
280
     0
281
     0
  0
CLASS
  1
AEC_DISP_PROPS_LAYOUT_GRID2D
  2
AecDbDispPropsLayoutGrid2d
  3
AecBase50|Product Desc: Autodesk Architectural Desktop 2007 |Company: Autodesk,Inc. |WEB Address: www.autodesk.com
 90
    32897
280
     0
281
     0
  0
CLASS
  1
AEC_DISP_PROPS_CLIP_VOLUME_RESULT
  2
AecDbDispPropsClipVolResSubDiv
  3
AecBase50|Product Desc: Autodesk Architectural Desktop 2007 |Company: Autodesk,Inc. |WEB Address: www.autodesk.com
 90
    32897
280
     0
281
     0
  0
CLASS
  1
AEC_DISP_PROPS_STAIR_MODEL
  2
AecDbDispPropsStairModel
  3
AecArchBase50|Product Desc: Autodesk Architectural Desktop 2007 |Company: Autodesk,Inc. |WEB Address: www.autodesk.com
 90
    32897
280
     0
281
     0
  0
CLASS
  1
AEC_DISP_PROPS_LAYOUT_CURVE
  2
AecDbDispPropsLayoutCurve
  3
AecBase50|Product Desc: Autodesk Architectural Desktop 2007 |Company: Autodesk,Inc. |WEB Address: www.autodesk.com
 90
    32897
280
     0
281
     0
  0
CLASS
  1
AEC_DISP_PROPS_POLYGON_MODEL
  2
AecDbDispPropsPolygonModel
  3
AecBaseEx50|Product Desc: Autodesk Architectural Desktop 2007 |Company: Autodesk,Inc. |WEB Address: www.autodesk.com
 90
    32897
280
     0
281
     0
  0
CLASS
  1
AEC_DISP_PROPS_MASS_GROUP
  2
AecDbDispPropsMassGroup
  3
AecBaseEx50|Product Desc: Autodesk Architectural Desktop 2007 |Company: Autodesk,Inc. |WEB Address: www.autodesk.com
 90
    32897
280
     0
281
     0
  0
CLASS
  1
AEC_DISP_PROPS_STAIR_PLAN
  2
AecDbDispPropsStairPlan
  3
AecArchBase50|Product Desc: Autodesk Architectural Desktop 2007 |Company: Autodesk,Inc. |WEB Address: www.autodesk.com
 90
    32897
280
     0
281
     0
  0
CLASS
  1
AEC_DISP_PROPS_OPENING
  2
AecDbDispPropsOpening
  3
AecArchBase50|Product Desc: Autodesk Architectural Desktop 2007 |Company: Autodesk,Inc. |WEB Address: www.autodesk.com
 90
    32897
280
     0
281
     0
  0
CLASS
  1
AEC_DISP_PROPS_WALL_GRAPH
  2
AecDbDispPropsWallGraph
  3
AecArchBase50|Product Desc: Autodesk Architectural Desktop 2007 |Company: Autodesk,Inc. |WEB Address: www.autodesk.com
 90
    32897
280
     0
281
     0
  0
CLASS
  1
AEC_DISP_PROPS_DOOR_NOMINAL
  2
AecDbDispPropsDoorNominal
  3
AecArchBase50|Product Desc: Autodesk Architectural Desktop 2007 |Company: Autodesk,Inc. |WEB Address: www.autodesk.com
 90
    32897
280
     0
281
     0
  0
CLASS
  1
AEC_DISP_PROPS_SLAB
  2
AecDbDispPropsSlab
  3
AecArchBase50|Product Desc: Autodesk Architectural Desktop 2007 |Company: Autodesk,Inc. |WEB Address: www.autodesk.com
 90
    32897
280
     0
281
     0
  0
CLASS
  1
AEC_DISP_PROPS_WALL_MODEL
  2
AecDbDispPropsWallModel
  3
AecArchBase50|Product Desc: Autodesk Architectural Desktop 2007 |Company: Autodesk,Inc. |WEB Address: www.autodesk.com
 90
    32897
280
     0
281
     0
  0
CLASS
  1
AEC_DISP_PROPS_MATERIAL
  2
AecDbDispPropsMaterial
  3
AecBase50|Product Desc: Autodesk Architectural Desktop 2007 |Company: Autodesk,Inc. |WEB Address: www.autodesk.com
 90
    32897
280
     0
281
     0
  0
CLASS
  1
AEC_DISP_PROPS_WINDOW
  2
AecDbDispPropsWindow
  3
AecArchBase50|Product Desc: Autodesk Architectural Desktop 2007 |Company: Autodesk,Inc. |WEB Address: www.autodesk.com
 90
    32897
280
     0
281
     0
  0
CLASS
  1
AEC_DISP_PROPS_LAYOUT_GRID3D
  2
AecDbDispPropsLayoutGrid3d
  3
AecBase50|Product Desc: Autodesk Architectural Desktop 2007 |Company: Autodesk,Inc. |WEB Address: www.autodesk.com
 90
    32897
280
     0
281
     0
  0
CLASS
  1
AEC_DISP_PROPS_GRID_ASSEMBLY_PLAN
  2
AecDbDispPropsGridAssemblyPlan
  3
AecArchBase50|Product Desc: Autodesk Architectural Desktop 2007 |Company: Autodesk,Inc. |WEB Address: www.autodesk.com
 90
    32897
280
     0
281
     0
  0
CLASS
  1
AEC_DISP_PROPS_WALL_SCHEM
  2
AecDbDispPropsWallSchem
  3
AecArchBase50|Product Desc: Autodesk Architectural Desktop 2007 |Company: Autodesk,Inc. |WEB Address: www.autodesk.com
 90
    32897
280
     0
281
     0
  0
CLASS
  1
AEC_DISP_PROPS_WALL_PLAN
  2
AecDbDispPropsWallPlan
  3
AecArchBase50|Product Desc: Autodesk Architectural Desktop 2007 |Company: Autodesk,Inc. |WEB Address: www.autodesk.com
 90
    32897
280
     0
281
     0
  0
CLASS
  1
AEC_DISP_PROPS_SPACE_BOUNDARY
  2
AecDbDispPropsSpaceBoundary
  3
AecArchBase50|Product Desc: Autodesk Architectural Desktop 2007 |Company: Autodesk,Inc. |WEB Address: www.autodesk.com
 90
    32897
280
     0
281
     0
  0
CLASS
  1
AEC_DISP_PROPS_SLAB_PLAN
  2
AecDbDispPropsSlabPlan
  3
AecArchBase50|Product Desc: Autodesk Architectural Desktop 2007 |Company: Autodesk,Inc. |WEB Address: www.autodesk.com
 90
    32897
280
     0
281
     0
  0
CLASS
  1
AEC_DISP_PROPS_RAILING_MODEL
  2
AecDbDispPropsRailingModel
  3
AecArchBase50|Product Desc: Autodesk Architectural Desktop 2007 |Company: Autodesk,Inc. |WEB Address: www.autodesk.com
 90
    32897
280
     0
281
     0
  0
CLASS
  1
AEC_DISP_PROPS_MASS_ELEM_MODEL
  2
AecDbDispPropsMassElem
  3
AecBaseEx50|Product Desc: Autodesk Architectural Desktop 2007 |Company: Autodesk,Inc. |WEB Address: www.autodesk.com
 90
    32897
280
     0
281
     0
  0
CLASS
  1
AEC_DISP_PROPS_DIM
  2
AecDbDispPropsDimGroup
  3
AecArchDACHBase50|Product Desc: Autodesk Architectural Desktop 2007 |Company: Autodesk,Inc. |WEB Address: www.autodesk.com
 90
    32897
280
     0
281
     0
  0
CLASS
  1
AEC_DISP_PROPS_ROOFSLAB
  2
AecDbDispPropsRoofSlab
  3
AecArchBase50|Product Desc: Autodesk Architectural Desktop 2007 |Company: Autodesk,Inc. |WEB Address: www.autodesk.com
 90
    32897
280
     0
281
     0
  0
CLASS
  1
AEC_DISP_PROPS_ENT_REF
  2
AecDbDispPropsEntRef
  3
AecBase50|Product Desc: Autodesk Architectural Desktop 2007 |Company: Autodesk,Inc. |WEB Address: www.autodesk.com
 90
    32897
280
     0
281
     0
  0
CLASS
  1
AEC_DISP_PROPS_2D_SECTION
  2
AecDbDispProps2dSection
  3
AecBase50|Product Desc: Autodesk Architectural Desktop 2007 |Company: Autodesk,Inc. |WEB Address: www.autodesk.com
 90
    32897
280
     0
281
     0
  0
CLASS
  1
AECS_DISP_PROPS_MEMBER_LOGICAL
  2
AecsDbDispPropsMemberLogical
  3
AecStructureBase50|Product Desc: Autodesk Architectural Desktop 2007 |Company: Autodesk,Inc. |WEB Address: www.autodesk.com
 90
    32897
280
     0
281
     0
  0
CLASS
  1
AEC_DISP_PROPS_AREA_DECOMPOSED
  2
AecDbDispPropsAreaDecomposed
  3
AecAreaCalculationBase50|Product Desc: Autodesk Architectural Desktop 2007 |Company: Autodesk,Inc. |WEB Address: www.autodesk.com
 90
    32897
280
     0
281
     0
  0
CLASS
  1
AEC_DISP_PROPS_CAMERA
  2
AecDbDispPropsCamera
  3
AecBase50|Product Desc: Autodesk Architectural Desktop 2007 |Company: Autodesk,Inc. |WEB Address: www.autodesk.com
 90
    32897
280
     0
281
     0
  0
CLASS
  1
AECS_DISP_PROPS_MEMBER
  2
AecsDbDispPropsMember
  3
AecStructureBase50|Product Desc: Autodesk Architectural Desktop 2007 |Company: Autodesk,Inc. |WEB Address: www.autodesk.com
 90
    32897
280
     0
281
     0
  0
CLASS
  1
AECS_DISP_PROPS_MEMBER_PLAN
  2
AecsDbDispPropsMemberPlan
  3
AecStructureBase50|Product Desc: Autodesk Architectural Desktop 2007 |Company: Autodesk,Inc. |WEB Address: www.autodesk.com
 90
    32897
280
     0
281
     0
  0
CLASS
  1
AEC_DISP_PROPS_AREAGROUP
  2
AecDbDispPropsAreaGroup
  3
AecAreaCalculationBase50|Product Desc: Autodesk Architectural Desktop 2007 |Company: Autodesk,Inc. |WEB Address: www.autodesk.com
 90
    32897
280
     0
281
     0
  0
CLASS
  1
AEC_DISP_PROPS_WINDOW_NOMINAL
  2
AecDbDispPropsWindowNominal
  3
AecArchBase50|Product Desc: Autodesk Architectural Desktop 2007 |Company: Autodesk,Inc. |WEB Address: www.autodesk.com
 90
    32897
280
     0
281
     0
  0
CLASS
  1
AEC_DISP_PROPS_AREA
  2
AecDbDispPropsArea
  3
AecAreaCalculationBase50|Product Desc: Autodesk Architectural Desktop 2007 |Company: Autodesk,Inc. |WEB Address: www.autodesk.com
 90
    32897
280
     0
281
     0
  0
CLASS
  1
AEC_DISP_PROPS_SCHEDULE_TABLE
  2
AecDbDispPropsScheduleTable
  3
AecSchedule50|Product Desc: Autodesk Architectural Desktop 2007 |Company: Autodesk,Inc. |WEB Address: www.autodesk.com
 90
    32897
280
     0
281
     0
  0
CLASS
  1
AEC_LAYERKEY_STYLE
  2
AecDbLayerKeyStyle
  3
AecBase50|Product Desc: Autodesk Architectural Desktop 2007 |Company: Autodesk,Inc. |WEB Address: www.autodesk.com
 90
    32897
280
     0
281
     0
  0
CLASS
  1
AEC_VARS_ARCHBASE
  2
AecDbVarsArchBase
  3
AecArchBase50|Product Desc: Autodesk Architectural Desktop 2007 |Company: Autodesk,Inc. |WEB Address: www.autodesk.com
 90
    32897
280
     0
281
     0
  0
CLASS
  1
AEC_VARS_MUNICH
  2
AecDbVarsMunich
  3
AecArchDACHBase50|Product Desc: Autodesk Architectural Desktop 2007 |Company: Autodesk,Inc. |WEB Address: www.autodesk.com
 90
    32897
280
     0
281
     0
  0
CLASS
  1
AEC_NOTIFICATION_TRACKER
  2
AecDbNotificationTracker
  3
AecBase50|Product Desc: Autodesk Architectural Desktop 2007 |Company: Autodesk,Inc. |WEB Address: www.autodesk.com
 90
    32897
280
     0
281
     0
  0
CLASS
  1
AEC_DISP_REP_ANCHOR
  2
AecDbDispRepAnchor
  3
AecBase50|Product Desc: Autodesk Architectural Desktop 2007 |Company: Autodesk,Inc. |WEB Address: www.autodesk.com
 90
    32897
280
     0
281
     0
  0
CLASS
  1
AEC_DISP_REP_POLYGON_TRUECOLOUR
  2
AecDbDispRepPolygonTrueColour
  3
AecBaseEx50|Product Desc: Autodesk Architectural Desktop 2007 |Company: Autodesk,Inc. |WEB Address: www.autodesk.com
 90
    32897
280
     0
281
     0
  0
CLASS
  1
AEC_DISP_PROPS_POLYGON_TRUECOLOUR
  2
AecDbDispPropsPolygonTrueColour
  3
AecBaseEx50|Product Desc: Autodesk Architectural Desktop 2007 |Company: Autodesk,Inc. |WEB Address: www.autodesk.com
 90
    32897
280
     0
281
     0
  0
CLASS
  1
AEC_DISP_REP_BDG_ELEVLINE_RCP
  2
AecDbDispRepBdgElevLineRcp
  3
AecArchBase50|Product Desc: Autodesk Architectural Desktop 2007 |Company: Autodesk,Inc. |WEB Address: www.autodesk.com
 90
    32897
280
     0
281
     0
  0
CLASS
  1
AEC_DISP_REP_BDG_SECTIONLINE_RCP
  2
AecDbDispRepBdgSectionLineRcp
  3
AecArchBase50|Product Desc: Autodesk Architectural Desktop 2007 |Company: Autodesk,Inc. |WEB Address: www.autodesk.com
 90
    32897
280
     0
281
     0
  0
CLASS
  1
AEC_DISP_REP_BDG_SECTION_MODEL
  2
AecDbDispRepBdgSectionModel
  3
AecArchBase50|Product Desc: Autodesk Architectural Desktop 2007 |Company: Autodesk,Inc. |WEB Address: www.autodesk.com
 90
    32897
280
     0
281
     0
  0
CLASS
  1
AEC_DISP_REP_DOOR_ELEV
  2
AecDbDispRepDoorElev
  3
AecArchBase50|Product Desc: Autodesk Architectural Desktop 2007 |Company: Autodesk,Inc. |WEB Address: www.autodesk.com
 90
    32897
280
     0
281
     0
  0
CLASS
  1
AEC_DISP_REP_DOOR_RCP
  2
AecDbDispRepDoorRcp
  3
AecArchBase50|Product Desc: Autodesk Architectural Desktop 2007 |Company: Autodesk,Inc. |WEB Address: www.autodesk.com
 90
    32897
280
     0
281
     0
  0
CLASS
  1
AEC_DISP_REP_DOOR_THRESHOLD_PLAN
  2
AecDbDispRepDoorThresholdPlan
  3
AecArchBase50|Product Desc: Autodesk Architectural Desktop 2007 |Company: Autodesk,Inc. |WEB Address: www.autodesk.com
 90
    32897
280
     0
281
     0
  0
CLASS
  1
AEC_DISP_PROPS_DOOR_THRESHOLD_PLAN
  2
AecDbDispPropsDoorThresholdPlan
  3
AecArchBase50|Product Desc: Autodesk Architectural Desktop 2007 |Company: Autodesk,Inc. |WEB Address: www.autodesk.com
 90
    32897
280
     0
281
     0
  0
CLASS
  1
AEC_DISP_REP_MASS_ELEM_RCP
  2
AecDbDispRepMassElemRcp
  3
AecArchBase50|Product Desc: Autodesk Architectural Desktop 2007 |Company: Autodesk,Inc. |WEB Address: www.autodesk.com
 90
    32897
280
     0
281
     0
  0
CLASS
  1
AEC_DISP_REP_MASS_GROUP_RCP
  2
AecDbDispRepMassGroupRcp
  3
AecArchBase50|Product Desc: Autodesk Architectural Desktop 2007 |Company: Autodesk,Inc. |WEB Address: www.autodesk.com
 90
    32897
280
     0
281
     0
  0
CLASS
  1
AEC_DISP_REP_MVBLOCK_REF_RCP
  2
AecDbDispRepMvBlockRefRcp
  3
AecArchBase50|Product Desc: Autodesk Architectural Desktop 2007 |Company: Autodesk,Inc. |WEB Address: www.autodesk.com
 90
    32897
280
     0
281
     0
  0
CLASS
  1
AEC_DISP_REP_ROOF_RCP
  2
AecDbDispRepRoofRcp
  3
AecArchBase50|Product Desc: Autodesk Architectural Desktop 2007 |Company: Autodesk,Inc. |WEB Address: www.autodesk.com
 90
    32897
280
     0
281
     0
  0
CLASS
  1
AEC_DISP_REP_SPACE_BOUNDARY_DIAGRAM
  2
AecDbDispRepSpaceBoundaryDgrm
  3
AecArchBase50|Product Desc: Autodesk Architectural Desktop 2007 |Company: Autodesk,Inc. |WEB Address: www.autodesk.com
 90
    32897
280
     0
281
     0
  0
CLASS
  1
AEC_DISP_REP_SPACE_RCP
  2
AecDbDispRepSpaceRcp
  3
AecArchBase50|Product Desc: Autodesk Architectural Desktop 2007 |Company: Autodesk,Inc. |WEB Address: www.autodesk.com
 90
    32897
280
     0
281
     0
  0
CLASS
  1
AEC_DISP_REP_SPACE_VOLUME
  2
AecDbDispRepSpaceVolume
  3
AecArchBase50|Product Desc: Autodesk Architectural Desktop 2007 |Company: Autodesk,Inc. |WEB Address: www.autodesk.com
 90
    32897
280
     0
281
     0
  0
CLASS
  1
AEC_DISP_REP_STAIR_PLAN_OVERLAPPING
  2
AecDbDispRepStairPlanOverlapping
  3
AecArchBase50|Product Desc: Autodesk Architectural Desktop 2007 |Company: Autodesk,Inc. |WEB Address: www.autodesk.com
 90
    32897
280
     0
281
     0
  0
CLASS
  1
AEC_DISP_PROPS_STAIR_PLAN_OVERLAPPING
  2
AecDbDispPropsStairPlanOverlapping
  3
AecArchBase50|Product Desc: Autodesk Architectural Desktop 2007 |Company: Autodesk,Inc. |WEB Address: www.autodesk.com
 90
    32897
280
     0
281
     0
  0
CLASS
  1
AEC_DISP_REP_STAIR_RCP
  2
AecDbDispRepStairRcp
  3
AecArchBase50|Product Desc: Autodesk Architectural Desktop 2007 |Company: Autodesk,Inc. |WEB Address: www.autodesk.com
 90
    32897
280
     0
281
     0
  0
CLASS
  1
AEC_DISP_REP_WALL_RCP
  2
AecDbDispRepWallRcp
  3
AecArchBase50|Product Desc: Autodesk Architectural Desktop 2007 |Company: Autodesk,Inc. |WEB Address: www.autodesk.com
 90
    32897
280
     0
281
     0
  0
CLASS
  1
AEC_DISP_REP_WINDOWASSEMBLY_SILL_PLAN
  2
AecDbDispRepWindowAssemblySillPlan
  3
AecArchBase50|Product Desc: Autodesk Architectural Desktop 2007 |Company: Autodesk,Inc. |WEB Address: www.autodesk.com
 90
    32897
280
     0
281
     0
  0
CLASS
  1
AEC_DISP_PROPS_WINDOW_ASSEMBLY_SILL_PLAN
  2
AecDbDispPropsWindowAssemblySillPlan
  3
AecArchBase50|Product Desc: Autodesk Architectural Desktop 2007 |Company: Autodesk,Inc. |WEB Address: www.autodesk.com
 90
    32897
280
     0
281
     0
  0
CLASS
  1
AEC_DISP_REP_WINDOW_ELEV
  2
AecDbDispRepWindowElev
  3
AecArchBase50|Product Desc: Autodesk Architectural Desktop 2007 |Company: Autodesk,Inc. |WEB Address: www.autodesk.com
 90
    32897
280
     0
281
     0
  0
CLASS
  1
AEC_DISP_REP_WINDOW_RCP
  2
AecDbDispRepWindowRcp
  3
AecArchBase50|Product Desc: Autodesk Architectural Desktop 2007 |Company: Autodesk,Inc. |WEB Address: www.autodesk.com
 90
    32897
280
     0
281
     0
  0
CLASS
  1
AEC_DISP_REP_WINDOW_SILL_PLAN
  2
AecDbDispRepWindowSillPlan
  3
AecArchBase50|Product Desc: Autodesk Architectural Desktop 2007 |Company: Autodesk,Inc. |WEB Address: www.autodesk.com
 90
    32897
280
     0
281
     0
  0
CLASS
  1
AEC_DISP_PROPS_WINDOW_SILL_PLAN
  2
AecDbDispPropsWindowSillPlan
  3
AecArchBase50|Product Desc: Autodesk Architectural Desktop 2007 |Company: Autodesk,Inc. |WEB Address: www.autodesk.com
 90
    32897
280
     0
281
     0
  0
CLASS
  1
AEC_DISP_REP_ANCHOR_BUB_TO_GRID_RCP
  2
AecDbDispRepAnchorBubToGridRcp
  3
AecStructureBase50|Product Desc: Autodesk Architectural Desktop 2007 |Company: Autodesk,Inc. |WEB Address: www.autodesk.com
 90
    32897
280
     0
281
     0
  0
CLASS
  1
AEC_DISP_REP_COLUMN_GRID_RCP
  2
AecDbDispRepColumnGridRcp
  3
AecStructureBase50|Product Desc: Autodesk Architectural Desktop 2007 |Company: Autodesk,Inc. |WEB Address: www.autodesk.com
 90
    32897
280
     0
281
     0
  0
CLASS
  1
AECS_DISP_REP_MEMBER_ELEVATION_DESIGN
  2
AecsDbDispRepMemberElevationDesign
  3
AecStructureBase50|Product Desc: Autodesk Architectural Desktop 2007 |Company: Autodesk,Inc. |WEB Address: www.autodesk.com
 90
    32897
280
     0
281
     0
  0
CLASS
  1
AECS_DISP_PROPS_MEMBER_PROJECTED
  2
AecsDbDispPropsMemberProjected
  3
AecStructureBase50|Product Desc: Autodesk Architectural Desktop 2007 |Company: Autodesk,Inc. |WEB Address: www.autodesk.com
 90
    32897
280
     0
281
     0
  0
CLASS
  1
AECS_DISP_REP_MEMBER_ELEVATION_DETAIL
  2
AecsDbDispRepMemberElevationDetail
  3
AecStructureBase50|Product Desc: Autodesk Architectural Desktop 2007 |Company: Autodesk,Inc. |WEB Address: www.autodesk.com
 90
    32897
280
     0
281
     0
  0
CLASS
  1
AECS_DISP_REP_MEMBER_MODEL_DETAIL
  2
AecsDbDispRepMemberModelDetail
  3
AecStructureBase50|Product Desc: Autodesk Architectural Desktop 2007 |Company: Autodesk,Inc. |WEB Address: www.autodesk.com
 90
    32897
280
     0
281
     0
  0
CLASS
  1
AECS_DISP_REP_MEMBER_PLAN_DETAIL
  2
AecsDbDispRepMemberPlanDetail
  3
AecStructureBase50|Product Desc: Autodesk Architectural Desktop 2007 |Company: Autodesk,Inc. |WEB Address: www.autodesk.com
 90
    32897
280
     0
281
     0
  0
CLASS
  1
AECS_DISP_REP_MEMBER_PLAN_SKETCH
  2
AecsDbDispRepMemberPlanSketch
  3
AecStructureBase50|Product Desc: Autodesk Architectural Desktop 2007 |Company: Autodesk,Inc. |WEB Address: www.autodesk.com
 90
    32897
280
     0
281
     0
  0
CLASS
  1
AECS_DISP_PROPS_MEMBER_PLAN_SKETCH
  2
AecsDbDispPropsMemberPlanSketch
  3
AecStructureBase50|Product Desc: Autodesk Architectural Desktop 2007 |Company: Autodesk,Inc. |WEB Address: www.autodesk.com
 90
    32897
280
     0
281
     0
  0
CLASS
  1
AEC_AECDBDISPREPAREA100
  2
AecDbDispRepArea100
  3
AecArchDACHBase50|Product Desc: Autodesk Architectural Desktop 2007 |Company: Autodesk,Inc. |WEB Address: www.autodesk.com
 90
    32897
280
     0
281
     0
  0
CLASS
  1
AEC_AECDBDISPREPAREAGROUP100
  2
AecDbDispRepAreaGroup100
  3
AecArchDACHBase50|Product Desc: Autodesk Architectural Desktop 2007 |Company: Autodesk,Inc. |WEB Address: www.autodesk.com
 90
    32897
280
     0
281
     0
  0
CLASS
  1
AEC_AECDBDISPREPBDGELEVLINEPLAN100
  2
AecDbDispRepBdgElevLinePlan100
  3
AecArchDACHBase50|Product Desc: Autodesk Architectural Desktop 2007 |Company: Autodesk,Inc. |WEB Address: www.autodesk.com
 90
    32897
280
     0
281
     0
  0
CLASS
  1
AEC_AECDBDISPREPBDGSECTIONLINEPLAN100
  2
AecDbDispRepBdgSectionLinePlan100
  3
AecArchDACHBase50|Product Desc: Autodesk Architectural Desktop 2007 |Company: Autodesk,Inc. |WEB Address: www.autodesk.com
 90
    32897
280
     0
281
     0
  0
CLASS
  1
AEC_AECDBDISPREPCEILINGGRIDPLAN100
  2
AecDbDispRepCeilingGridPlan100
  3
AecArchDACHBase50|Product Desc: Autodesk Architectural Desktop 2007 |Company: Autodesk,Inc. |WEB Address: www.autodesk.com
 90
    32897
280
     0
281
     0
  0
CLASS
  1
AEC_AECDBDISPREPCOLUMNGRIDPLAN100
  2
AecDbDispRepColumnGridPlan100
  3
AecArchDACHBase50|Product Desc: Autodesk Architectural Desktop 2007 |Company: Autodesk,Inc. |WEB Address: www.autodesk.com
 90
    32897
280
     0
281
     0
  0
CLASS
  1
AEC_AECDBDISPREPCURTAINWALLLAYOUTPLAN100
  2
AecDbDispRepCurtainWallLayoutPlan100
  3
AecArchDACHBase50|Product Desc: Autodesk Architectural Desktop 2007 |Company: Autodesk,Inc. |WEB Address: www.autodesk.com
 90
    32897
280
     0
281
     0
  0
CLASS
  1
AEC_AECDBDISPREPCURTAINWALLUNITPLAN100
  2
AecDbDispRepCurtainWallUnitPlan100
  3
AecArchDACHBase50|Product Desc: Autodesk Architectural Desktop 2007 |Company: Autodesk,Inc. |WEB Address: www.autodesk.com
 90
    32897
280
     0
281
     0
  0
CLASS
  1
AEC_AECDBDISPREPMVBLOCKREFPLAN100
  2
AecDbDispRepMvBlockRefPlan100
  3
AecArchDACHBase50|Product Desc: Autodesk Architectural Desktop 2007 |Company: Autodesk,Inc. |WEB Address: www.autodesk.com
 90
    32897
280
     0
281
     0
  0
CLASS
  1
AEC_AECDBDISPREPROOFPLAN100
  2
AecDbDispRepRoofPlan100
  3
AecArchDACHBase50|Product Desc: Autodesk Architectural Desktop 2007 |Company: Autodesk,Inc. |WEB Address: www.autodesk.com
 90
    32897
280
     0
281
     0
  0
CLASS
  1
AEC_AECDBDISPREPROOFSLABPLAN100
  2
AecDbDispRepRoofSlabPlan100
  3
AecArchDACHBase50|Product Desc: Autodesk Architectural Desktop 2007 |Company: Autodesk,Inc. |WEB Address: www.autodesk.com
 90
    32897
280
     0
281
     0
  0
CLASS
  1
AEC_AECDBDISPREPSLABPLAN100
  2
AecDbDispRepSlabPlan100
  3
AecArchDACHBase50|Product Desc: Autodesk Architectural Desktop 2007 |Company: Autodesk,Inc. |WEB Address: www.autodesk.com
 90
    32897
280
     0
281
     0
  0
CLASS
  1
AEC_AECDBDISPREPSPACEBOUNDARYPLAN100
  2
AecDbDispRepSpaceBoundaryPlan100
  3
AecArchDACHBase50|Product Desc: Autodesk Architectural Desktop 2007 |Company: Autodesk,Inc. |WEB Address: www.autodesk.com
 90
    32897
280
     0
281
     0
  0
CLASS
  1
AEC_AECDBDISPREPSPACEPLAN100
  2
AecDbDispRepSpacePlan100
  3
AecArchDACHBase50|Product Desc: Autodesk Architectural Desktop 2007 |Company: Autodesk,Inc. |WEB Address: www.autodesk.com
 90
    32897
280
     0
281
     0
  0
CLASS
  1
AEC_AECDBDISPREPWALLPLAN100
  2
AecDbDispRepWallPlan100
  3
AecArchDACHBase50|Product Desc: Autodesk Architectural Desktop 2007 |Company: Autodesk,Inc. |WEB Address: www.autodesk.com
 90
    32897
280
     0
281
     0
  0
CLASS
  1
AEC_AECDBDISPREPAREA50
  2
AecDbDispRepArea50
  3
AecArchDACHBase50|Product Desc: Autodesk Architectural Desktop 2007 |Company: Autodesk,Inc. |WEB Address: www.autodesk.com
 90
    32897
280
     0
281
     0
  0
CLASS
  1
AEC_AECDBDISPREPAREAGROUP50
  2
AecDbDispRepAreaGroup50
  3
AecArchDACHBase50|Product Desc: Autodesk Architectural Desktop 2007 |Company: Autodesk,Inc. |WEB Address: www.autodesk.com
 90
    32897
280
     0
281
     0
  0
CLASS
  1
AEC_AECDBDISPREPBDGELEVLINEPLAN50
  2
AecDbDispRepBdgElevLinePlan50
  3
AecArchDACHBase50|Product Desc: Autodesk Architectural Desktop 2007 |Company: Autodesk,Inc. |WEB Address: www.autodesk.com
 90
    32897
280
     0
281
     0
  0
CLASS
  1
AEC_AECDBDISPREPBDGSECTIONLINEPLAN50
  2
AecDbDispRepBdgSectionLinePlan50
  3
AecArchDACHBase50|Product Desc: Autodesk Architectural Desktop 2007 |Company: Autodesk,Inc. |WEB Address: www.autodesk.com
 90
    32897
280
     0
281
     0
  0
CLASS
  1
AEC_AECDBDISPREPCEILINGGRIDPLAN50
  2
AecDbDispRepCeilingGridPlan50
  3
AecArchDACHBase50|Product Desc: Autodesk Architectural Desktop 2007 |Company: Autodesk,Inc. |WEB Address: www.autodesk.com
 90
    32897
280
     0
281
     0
  0
CLASS
  1
AEC_AECDBDISPREPCOLUMNGRIDPLAN50
  2
AecDbDispRepColumnGridPlan50
  3
AecArchDACHBase50|Product Desc: Autodesk Architectural Desktop 2007 |Company: Autodesk,Inc. |WEB Address: www.autodesk.com
 90
    32897
280
     0
281
     0
  0
CLASS
  1
AEC_AECDBDISPREPCURTAINWALLLAYOUTPLAN50
  2
AecDbDispRepCurtainWallLayoutPlan50
  3
AecArchDACHBase50|Product Desc: Autodesk Architectural Desktop 2007 |Company: Autodesk,Inc. |WEB Address: www.autodesk.com
 90
    32897
280
     0
281
     0
  0
CLASS
  1
AEC_AECDBDISPREPCURTAINWALLUNITPLAN50
  2
AecDbDispRepCurtainWallUnitPlan50
  3
AecArchDACHBase50|Product Desc: Autodesk Architectural Desktop 2007 |Company: Autodesk,Inc. |WEB Address: www.autodesk.com
 90
    32897
280
     0
281
     0
  0
CLASS
  1
AEC_AECDBDISPREPMVBLOCKREFPLAN50
  2
AecDbDispRepMvBlockRefPlan50
  3
AecArchDACHBase50|Product Desc: Autodesk Architectural Desktop 2007 |Company: Autodesk,Inc. |WEB Address: www.autodesk.com
 90
    32897
280
     0
281
     0
  0
CLASS
  1
AEC_AECDBDISPREPROOFPLAN50
  2
AecDbDispRepRoofPlan50
  3
AecArchDACHBase50|Product Desc: Autodesk Architectural Desktop 2007 |Company: Autodesk,Inc. |WEB Address: www.autodesk.com
 90
    32897
280
     0
281
     0
  0
CLASS
  1
AEC_AECDBDISPREPROOFSLABPLAN50
  2
AecDbDispRepRoofSlabPlan50
  3
AecArchDACHBase50|Product Desc: Autodesk Architectural Desktop 2007 |Company: Autodesk,Inc. |WEB Address: www.autodesk.com
 90
    32897
280
     0
281
     0
  0
CLASS
  1
AEC_AECDBDISPREPSLABPLAN50
  2
AecDbDispRepSlabPlan50
  3
AecArchDACHBase50|Product Desc: Autodesk Architectural Desktop 2007 |Company: Autodesk,Inc. |WEB Address: www.autodesk.com
 90
    32897
280
     0
281
     0
  0
CLASS
  1
AEC_AECDBDISPREPSPACEBOUNDARYPLAN50
  2
AecDbDispRepSpaceBoundaryPlan50
  3
AecArchDACHBase50|Product Desc: Autodesk Architectural Desktop 2007 |Company: Autodesk,Inc. |WEB Address: www.autodesk.com
 90
    32897
280
     0
281
     0
  0
CLASS
  1
AEC_AECDBDISPREPSPACEPLAN50
  2
AecDbDispRepSpacePlan50
  3
AecArchDACHBase50|Product Desc: Autodesk Architectural Desktop 2007 |Company: Autodesk,Inc. |WEB Address: www.autodesk.com
 90
    32897
280
     0
281
     0
  0
CLASS
  1
AEC_AECDBDISPREPWALLPLAN50
  2
AecDbDispRepWallPlan50
  3
AecArchDACHBase50|Product Desc: Autodesk Architectural Desktop 2007 |Company: Autodesk,Inc. |WEB Address: www.autodesk.com
 90
    32897
280
     0
281
     0
  0
CLASS
  1
AEC_AECDBDISPREPWINDOWASSEMBLYPLAN50
  2
AecDbDispRepWindowAssemblyPlan50
  3
AecArchDACHBase50|Product Desc: Autodesk Architectural Desktop 2007 |Company: Autodesk,Inc. |WEB Address: www.autodesk.com
 90
    32897
280
     0
281
     0
  0
CLASS
  1
AEC_DB_DISP_REP_DIM_GROUP_PLAN100
  2
AecDbDispRepDimGroupPlan100
  3
AecArchDACHBase50|Product Desc: Autodesk Architectural Desktop 2007 |Company: Autodesk,Inc. |WEB Address: www.autodesk.com
 90
    32897
280
     0
281
     0
  0
CLASS
  1
AEC_DB_DISP_REP_DIM_GROUP_PLAN50
  2
AecDbDispRepDimGroupPlan50
  3
AecArchDACHBase50|Product Desc: Autodesk Architectural Desktop 2007 |Company: Autodesk,Inc. |WEB Address: www.autodesk.com
 90
    32897
280
     0
281
     0
  0
CLASS
  1
AEC_DISP_REP_DOOR_PLAN_50
  2
AecDbDispRepDoorPlan50
  3
AecArchDACHBase50|Product Desc: Autodesk Architectural Desktop 2007 |Company: Autodesk,Inc. |WEB Address: www.autodesk.com
 90
    32897
280
     0
281
     0
  0
CLASS
  1
AEC_DISP_PROPS_DOOR_PLAN_50
  2
AecDbDispPropsDoorPlan50
  3
AecArchDACHBase50|Product Desc: Autodesk Architectural Desktop 2007 |Company: Autodesk,Inc. |WEB Address: www.autodesk.com
 90
    32897
280
     0
281
     0
  0
CLASS
  1
AEC_DISP_REP_DOOR_PLAN_HEKTO
  2
AecDbDispRepDoorPlanHekto
  3
AecArchDACHBase50|Product Desc: Autodesk Architectural Desktop 2007 |Company: Autodesk,Inc. |WEB Address: www.autodesk.com
 90
    32897
280
     0
281
     0
  0
CLASS
  1
AEC_DISP_PROPS_DOOR_PLAN_100
  2
AecDbDispPropsDoorPlan100
  3
AecArchDACHBase50|Product Desc: Autodesk Architectural Desktop 2007 |Company: Autodesk,Inc. |WEB Address: www.autodesk.com
 90
    32897
280
     0
281
     0
  0
CLASS
  1
AEC_DISP_REP_DOOR_THRESHOLD_SYMBOL_PLAN
  2
AecDbDispRepDoorThresholdSymbolPlan
  3
AecArchDACHBase50|Product Desc: Autodesk Architectural Desktop 2007 |Company: Autodesk,Inc. |WEB Address: www.autodesk.com
 90
    32897
280
     0
281
     0
  0
CLASS
  1
AEC_DISP_PROPS_DOOR_THRESHOLD_SYMBOL_PLAN
  2
AecDbDispPropsDoorThresholdSymbolPlan
  3
AecArchDACHBase50|Product Desc: Autodesk Architectural Desktop 2007 |Company: Autodesk,Inc. |WEB Address: www.autodesk.com
 90
    32897
280
     0
281
     0
  0
CLASS
  1
AEC_DISPREPAECDBDISPREPMASSELEMPLAN100
  2
AecDbDispRepMassElemPlan100
  3
AecArchDACHBase50|Product Desc: Autodesk Architectural Desktop 2007 |Company: Autodesk,Inc. |WEB Address: www.autodesk.com
 90
    32897
280
     0
281
     0
  0
CLASS
  1
AEC_DISPROPSMASSELEMPLANCOMMON
  2
AecDbDispPropsMassElemPlanCommon
  3
AecArchDACHBase50|Product Desc: Autodesk Architectural Desktop 2007 |Company: Autodesk,Inc. |WEB Address: www.autodesk.com
 90
    32897
280
     0
281
     0
  0
CLASS
  1
AEC_DISPREPAECDBDISPREPMASSELEMPLAN50
  2
AecDbDispRepMassElemPlan50
  3
AecArchDACHBase50|Product Desc: Autodesk Architectural Desktop 2007 |Company: Autodesk,Inc. |WEB Address: www.autodesk.com
 90
    32897
280
     0
281
     0
  0
CLASS
  1
AEC_DISPREPAECDBDISPREPMASSGROUPPLAN100
  2
AecDbDispRepMassGroupPlan100
  3
AecArchDACHBase50|Product Desc: Autodesk Architectural Desktop 2007 |Company: Autodesk,Inc. |WEB Address: www.autodesk.com
 90
    32897
280
     0
281
     0
  0
CLASS
  1
AEC_DISPROPSMASSGROUPPLANCOMMON
  2
AecDbDispPropsMassGroupPlanCommon
  3
AecArchDACHBase50|Product Desc: Autodesk Architectural Desktop 2007 |Company: Autodesk,Inc. |WEB Address: www.autodesk.com
 90
    32897
280
     0
281
     0
  0
CLASS
  1
AEC_DISPREPAECDBDISPREPMASSGROUPPLAN50
  2
AecDbDispRepMassGroupPlan50
  3
AecArchDACHBase50|Product Desc: Autodesk Architectural Desktop 2007 |Company: Autodesk,Inc. |WEB Address: www.autodesk.com
 90
    32897
280
     0
281
     0
  0
CLASS
  1
AEC_DISPREPAECDBDISPREPOPENINGPLAN100
  2
AecDbDispRepOpeningPlan100
  3
AecArchDACHBase50|Product Desc: Autodesk Architectural Desktop 2007 |Company: Autodesk,Inc. |WEB Address: www.autodesk.com
 90
    32897
280
     0
281
     0
  0
CLASS
  1
AEC_DISPROPSOPENINGPLANCOMMONHATCHED
  2
AecDbDispPropsOpeningPlanCommonHatched
  3
AecArchDACHBase50|Product Desc: Autodesk Architectural Desktop 2007 |Company: Autodesk,Inc. |WEB Address: www.autodesk.com
 90
    32897
280
     0
281
     0
  0
CLASS
  1
AEC_DISPREPAECDBDISPREPOPENINGPLAN50
  2
AecDbDispRepOpeningPlan50
  3
AecArchDACHBase50|Product Desc: Autodesk Architectural Desktop 2007 |Company: Autodesk,Inc. |WEB Address: www.autodesk.com
 90
    32897
280
     0
281
     0
  0
CLASS
  1
AEC_DISPREPAECDBDISPREPOPENINGPLANREFLECTED
  2
AecDbDispRepOpeningPlanReflected
  3
AecArchDACHBase50|Product Desc: Autodesk Architectural Desktop 2007 |Company: Autodesk,Inc. |WEB Address: www.autodesk.com
 90
    32897
280
     0
281
     0
  0
CLASS
  1
AEC_DISPROPSOPENINGPLANCOMMON
  2
AecDbDispPropsOpeningPlanCommon
  3
AecArchDACHBase50|Product Desc: Autodesk Architectural Desktop 2007 |Company: Autodesk,Inc. |WEB Address: www.autodesk.com
 90
    32897
280
     0
281
     0
  0
CLASS
  1
AEC_DISPREPAECDBDISPREPOPENINGSILLPLAN
  2
AecDbDispRepOpeningSillPlan
  3
AecArchDACHBase50|Product Desc: Autodesk Architectural Desktop 2007 |Company: Autodesk,Inc. |WEB Address: www.autodesk.com
 90
    32897
280
     0
281
     0
  0
CLASS
  1
AEC_DISPROPSOPENINGSILLPLAN
  2
AecDbDispPropsOpeningSillPlan
  3
AecArchDACHBase50|Product Desc: Autodesk Architectural Desktop 2007 |Company: Autodesk,Inc. |WEB Address: www.autodesk.com
 90
    32897
280
     0
281
     0
  0
CLASS
  1
AEC_DISP_REP_RAILING_PLAN_100
  2
AecDbDispRepRailingPlan100
  3
AecArchDACHBase50|Product Desc: Autodesk Architectural Desktop 2007 |Company: Autodesk,Inc. |WEB Address: www.autodesk.com
 90
    32897
280
     0
281
     0
  0
CLASS
  1
AEC_DISP_ROPS_RAILING_PLAN_100
  2
AecDbDispPropsRailingPlan100
  3
AecArchDACHBase50|Product Desc: Autodesk Architectural Desktop 2007 |Company: Autodesk,Inc. |WEB Address: www.autodesk.com
 90
    32897
280
     0
281
     0
  0
CLASS
  1
AEC_DISP_REP_RAILING_PLAN_50
  2
AecDbDispRepRailingPlan50
  3
AecArchDACHBase50|Product Desc: Autodesk Architectural Desktop 2007 |Company: Autodesk,Inc. |WEB Address: www.autodesk.com
 90
    32897
280
     0
281
     0
  0
CLASS
  1
AEC_DISP_ROPS_RAILING_PLAN_50
  2
AecDbDispPropsRailingPlan50
  3
AecArchDACHBase50|Product Desc: Autodesk Architectural Desktop 2007 |Company: Autodesk,Inc. |WEB Address: www.autodesk.com
 90
    32897
280
     0
281
     0
  0
CLASS
  1
AEC_DISP_REP_STAIR_PLAN_100
  2
AecDbDispRepStairPlan100
  3
AecArchDACHBase50|Product Desc: Autodesk Architectural Desktop 2007 |Company: Autodesk,Inc. |WEB Address: www.autodesk.com
 90
    32897
280
     0
281
     0
  0
CLASS
  1
AEC_DISP_ROPS_STAIR_PLAN_100
  2
AecDbDispPropsStairPlan100
  3
AecArchDACHBase50|Product Desc: Autodesk Architectural Desktop 2007 |Company: Autodesk,Inc. |WEB Address: www.autodesk.com
 90
    32897
280
     0
281
     0
  0
CLASS
  1
AEC_DISP_REP_STAIR_PLAN_50
  2
AecDbDispRepStairPlan50
  3
AecArchDACHBase50|Product Desc: Autodesk Architectural Desktop 2007 |Company: Autodesk,Inc. |WEB Address: www.autodesk.com
 90
    32897
280
     0
281
     0
  0
CLASS
  1
AEC_DISP_ROPS_STAIR_PLAN_50
  2
AecDbDispPropsStairPlan50
  3
AecArchDACHBase50|Product Desc: Autodesk Architectural Desktop 2007 |Company: Autodesk,Inc. |WEB Address: www.autodesk.com
 90
    32897
280
     0
281
     0
  0
CLASS
  1
AEC_DISP_REP_WINDOW_PLAN_100
  2
AecDbDispRepWindowPlan100
  3
AecArchDACHBase50|Product Desc: Autodesk Architectural Desktop 2007 |Company: Autodesk,Inc. |WEB Address: www.autodesk.com
 90
    32897
280
     0
281
     0
  0
CLASS
  1
AEC_DISP_PROPS_WINDOW_PLAN_100
  2
AecDbDispPropsWindowPlan100
  3
AecArchDACHBase50|Product Desc: Autodesk Architectural Desktop 2007 |Company: Autodesk,Inc. |WEB Address: www.autodesk.com
 90
    32897
280
     0
281
     0
  0
CLASS
  1
AEC_DISP_REP_WINDOW_PLAN_50
  2
AecDbDispRepWindowPlan50
  3
AecArchDACHBase50|Product Desc: Autodesk Architectural Desktop 2007 |Company: Autodesk,Inc. |WEB Address: www.autodesk.com
 90
    32897
280
     0
281
     0
  0
CLASS
  1
AEC_DISP_PROPS_WINDOW_PLAN_50
  2
AecDbDispPropsWindowPlan50
  3
AecArchDACHBase50|Product Desc: Autodesk Architectural Desktop 2007 |Company: Autodesk,Inc. |WEB Address: www.autodesk.com
 90
    32897
280
     0
281
     0
  0
CLASS
  1
BINRECORD
  2
AcAecBinRecord
  3
AecBase50|Product Desc: Autodesk Architectural Desktop 2007 |Company: Autodesk,Inc. |WEB Address: www.autodesk.com
 90
    32897
280
     0
281
     0
  0
CLASS
  1
SPATIAL_FILTER
  2
AcDbSpatialFilter
  3
ObjectDBX Classes
 90
    32768
280
     0
281
     0
  0
CLASS
  1
AEC_VARS_STRUCTUREBASE
  2
AecsDbVarsStructureBase
  3
AecStructureBase50|Product Desc: Autodesk Architectural Desktop 2007 |Company: Autodesk,Inc. |WEB Address: www.autodesk.com
 90
    32897
280
     0
281
     0
  0
CLASS
  1
DIMASSOC
  2
AcDbDimAssoc
  3
"AcDbDimAssoc|Product Desc:     AcDim ARX App For Dimension|Company:          Autodesk, Inc.|WEB Address:      www.autodesk.com"
 90
    32768
280
     0
281
     0
  0
CLASS
  1
TABLESTYLE
  2
AcDbTableStyle
  3
ObjectDBX Classes
 90
     4095
280
     0
281
     0
  0
CLASS
  1
MATERIAL
  2
AcDbMaterial
  3
ObjectDBX Classes
 90
     1153
280
     0
281
     0
  0
CLASS
  1
VISUALSTYLE
  2
AcDbVisualStyle
  3
ObjectDBX Classes
 90
     4095
280
     0
281
     0
  0
CLASS
  1
EXACXREFPANELOBJECT
  2
ExAcXREFPanelObject
  3
EXAC_ESW
 90
    33793
280
     1
281
     0
  0
CLASS
  1
NPOCOLLECTION
  2
AcDbImpNonPersistentObjectsCollection
  3
ObjectDBX Classes
 90
    33921
280
     0
281
     0
  0
CLASS
  1
AEC_AECDBDISPREPZONE100
  2
AecDbDispRepZonePlan100
  3
AecArchDACHBase50|Product Desc: Autodesk Architectural Desktop 2007 |Company: Autodesk,Inc. |WEB Address: www.autodesk.com
 90
    32897
280
     0
281
     0
  0
CLASS
  1
AEC_DISP_PROPS_ZONE
  2
AecDbDispPropsZone
  3
AecArchBase50|Product Desc: Autodesk Architectural Desktop 2007 |Company: Autodesk,Inc. |WEB Address: www.autodesk.com
 90
    32897
280
     0
281
     0
  0
CLASS
  1
AEC_AECDBDISPREPZONE50
  2
AecDbDispRepZonePlan50
  3
AecArchDACHBase50|Product Desc: Autodesk Architectural Desktop 2007 |Company: Autodesk,Inc. |WEB Address: www.autodesk.com
 90
    32897
280
     0
281
     0
  0
CLASS
  1
AEC_DISP_REP_DISPLAYTHEME
  2
AecDbDispRepDisplayTheme
  3
AecBase50|Product Desc: Autodesk Architectural Desktop 2007 |Company: Autodesk,Inc. |WEB Address: www.autodesk.com
 90
    32897
280
     0
281
     0
  0
CLASS
  1
AEC_DISP_PROPS_DISPLAYTHEME
  2
AecDbDispPropsDisplayTheme
  3
AecBase50|Product Desc: Autodesk Architectural Desktop 2007 |Company: Autodesk,Inc. |WEB Address: www.autodesk.com
 90
    32897
280
     0
281
     0
  0
CLASS
  1
AEC_DISP_REP_ANCHOR_EXT_TAG_TO_ENT
  2
AecDbDispRepAnchorExtendedTagToEnt
  3
AecScheduleData50|Product Desc: Autodesk Architectural Desktop 2007 |Company: Autodesk,Inc. |WEB Address: www.autodesk.com
 90
    32897
280
     0
281
     0
  0
CLASS
  1
AEC_DISP_REP_SPACE_DECOMPOSED
  2
AecDbDispRepSpaceDecomposed
  3
AecArchBase50|Product Desc: Autodesk Architectural Desktop 2007 |Company: Autodesk,Inc. |WEB Address: www.autodesk.com
 90
    32897
280
     0
281
     0
  0
CLASS
  1
AEC_DISP_PROPS_SPACE_DECOMPOSED
  2
AecDbDispPropsSpaceDecomposed
  3
AecArchBase50|Product Desc: Autodesk Architectural Desktop 2007 |Company: Autodesk,Inc. |WEB Address: www.autodesk.com
 90
    32897
280
     0
281
     0
  0
CLASS
  1
AEC_DISP_REP_ZONE
  2
AecDbDispRepZone
  3
AecArchBase50|Product Desc: Autodesk Architectural Desktop 2007 |Company: Autodesk,Inc. |WEB Address: www.autodesk.com
 90
    32897
280
     0
281
     0
  0
CLASS
  1
ACAD_EVALUATION_GRAPH
  2
AcDbEvalGraph
  3
ObjectDBX Classes
 90
    33921
280
     0
281
     0
  0
CLASS
  1
BLOCKFLIPPARAMETER
  2
AcDbBlockFlipParameter
  3
ObjectDBX Classes
 90
    33921
280
     0
281
     0
  0
CLASS
  1
BLOCKFLIPGRIP
  2
AcDbBlockFlipGrip
  3
ObjectDBX Classes
 90
    33921
280
     0
281
     0
  0
CLASS
  1
BLOCKGRIPLOCATIONCOMPONENT
  2
AcDbBlockGripExpr
  3
ObjectDBX Classes
 90
    33921
280
     0
281
     0
  0
CLASS
  1
BLOCKFLIPACTION
  2
AcDbBlockFlipAction
  3
ObjectDBX Classes
 90
    33921
280
     0
281
     0
  0
CLASS
  1
BLOCKROTATIONPARAMETER
  2
AcDbBlockRotationParameter
  3
ObjectDBX Classes
 90
    33921
280
     0
281
     0
  0
CLASS
  1
BLOCKROTATIONGRIP
  2
AcDbBlockRotationGrip
  3
ObjectDBX Classes
 90
    33921
280
     0
281
     0
  0
CLASS
  1
BLOCKROTATEACTION
  2
AcDbBlockRotateAction
  3
ObjectDBX Classes
 90
    33921
280
     0
281
     0
  0
CLASS
  1
BLOCKBASEPOINTPARAMETER
  2
AcDbBlockBasepointParameter
  3
ObjectDBX Classes
 90
    33921
280
     0
281
     0
  0
CLASS
  1
ACDB_DYNAMICBLOCKPURGEPREVENTER_VERSION
  2
AcDbDynamicBlockPurgePreventer
  3
ObjectDBX Classes
 90
    33921
280
     0
281
     0
  0
CLASS
  1
ACDB_BLOCKREPRESENTATION_DATA
  2
AcDbBlockRepresentationData
  3
ObjectDBX Classes
 90
    33921
280
     0
281
     0
  0
CLASS
  1
BLOCKVISIBILITYPARAMETER
  2
AcDbBlockVisibilityParameter
  3
ObjectDBX Classes
 90
    33921
280
     0
281
     0
  0
CLASS
  1
BLOCKVISIBILITYGRIP
  2
AcDbBlockVisibilityGrip
  3
ObjectDBX Classes
 90
    33921
280
     0
281
     0
  0
CLASS
  1
BLOCKLINEARPARAMETER
  2
AcDbBlockLinearParameter
  3
ObjectDBX Classes
 90
    33921
280
     0
281
     0
  0
CLASS
  1
BLOCKSTRETCHACTION
  2
AcDbBlockStretchAction
  3
ObjectDBX Classes
 90
    33921
280
     0
281
     0
  0
CLASS
  1
BLOCKLOOKUPPARAMETER
  2
AcDbBlockLookupParameter
  3
ObjectDBX Classes
 90
    33921
280
     0
281
     0
  0
CLASS
  1
BLOCKLOOKUPGRIP
  2
AcDbBlockLookupGrip
  3
ObjectDBX Classes
 90
    33921
280
     0
281
     0
  0
CLASS
  1
BLOCKLOOKUPACTION
  2
AcDbBlockLookupAction
  3
ObjectDBX Classes
 90
    33921
280
     0
281
     0
  0
CLASS
  1
BLOCKMOVEACTION
  2
AcDbBlockMoveAction
  3
ObjectDBX Classes
 90
    33921
280
     0
281
     0
  0
CLASS
  1
BLOCKLINEARGRIP
  2
AcDbBlockLinearGrip
  3
ObjectDBX Classes
 90
    33921
280
     0
281
     0
  0
CLASS
  1
OBJECT_PTR
  2
CAseDLPNTableRecord
  3
ASE-LPNTableRecord
 90
        1
280
     0
281
     0
  0
CLASS
  1
SCALE
  2
AcDbScale
  3
ObjectDBX Classes
 90
     1153
280
     0
281
     0
  0
CLASS
  1
MLEADERSTYLE
  2
AcDbMLeaderStyle
  3
ACDB_MLEADERSTYLE_CLASS
 90
    36863
280
     0
281
     0
  0
CLASS
  1
CELLSTYLEMAP
  2
AcDbCellStyleMap
  3
ObjectDBX Classes
 90
     1152
280
     0
281
     0
  0
CLASS
  1
AEC_REFEDIT_STATUS_TRACKER
  2
AecDbRefEditStatusTracker
  3
AecArchBase50|Product Desc: Autodesk Architectural Desktop 2007 |Company: Autodesk,Inc. |WEB Address: www.autodesk.com
 90
    32897
280
     0
281
     0
  0
CLASS
  1
AEC_MVBLOCK_REF
  2
AecDbMvBlockRef
  3
AecBase50|Product Desc: Autodesk Architectural Desktop 2007 |Company: Autodesk,Inc. |WEB Address: www.autodesk.com
 90
    33661
280
     0
281
     1
  0
CLASS
  1
AEC_ANCHOR_MVB_TO_UCS
  2
AecDbAnchorMVBToUCS
  3
AecBase50|Product Desc: Autodesk Architectural Desktop 2007 |Company: Autodesk,Inc. |WEB Address: www.autodesk.com
 90
    32897
280
     0
281
     0
  0
CLASS
  1
AEC_CLASSIFICATION_SYSTEM_DEF
  2
AecDbClassificationSystemDef
  3
AecBase50|Product Desc: Autodesk Architectural Desktop 2007 |Company: Autodesk,Inc. |WEB Address: www.autodesk.com
 90
    32897
280
     0
281
     0
  0
CLASS
  1
AEC_CLASSIFICATION_DEF
  2
AecDbClassificationDef
  3
AecBase50|Product Desc: Autodesk Architectural Desktop 2007 |Company: Autodesk,Inc. |WEB Address: www.autodesk.com
 90
    32897
280
     0
281
     0
  0
CLASS
  1
AEC_MVBLOCK_DEF
  2
AecDbMvBlockDef
  3
AecBase50|Product Desc: Autodesk Architectural Desktop 2007 |Company: Autodesk,Inc. |WEB Address: www.autodesk.com
 90
    32897
280
     0
281
     0
  0
CLASS
  1
AEC_SPACE
  2
AecDbSpace
  3
AecArchBase50|Product Desc: Autodesk Architectural Desktop 2007 |Company: Autodesk,Inc. |WEB Address: www.autodesk.com
 90
    33661
280
     0
281
     1
  0
CLASS
  1
AecDbPropertySet
  2
AecDbPropertySet
  3
AecScheduleData50|Product Desc: Autodesk Architectural Desktop 2007 |Company: Autodesk,Inc. |WEB Address: www.autodesk.com
 90
    32897
280
     0
281
     0
  0
CLASS
  1
AEC_CLEANUP_GROUP_DEF
  2
AecDbCleanupGroupDef
  3
AecArchBase50|Product Desc: Autodesk Architectural Desktop 2007 |Company: Autodesk,Inc. |WEB Address: www.autodesk.com
 90
    32897
280
     0
281
     0
  0
CLASS
  1
AEC_ENDCAP_STYLE
  2
AecDbEndcapStyle
  3
AecArchBase50|Product Desc: Autodesk Architectural Desktop 2007 |Company: Autodesk,Inc. |WEB Address: www.autodesk.com
 90
    32897
280
     0
281
     0
  0
CLASS
  1
AEC_LIST_DEF
  2
AecDbListDefinition
  3
AecBase50|Product Desc: Autodesk Architectural Desktop 2007 |Company: Autodesk,Inc. |WEB Address: www.autodesk.com
 90
    32897
280
     0
281
     0
  0
CLASS
  1
AEC_LIST_DEF
  2
AecDbListItem
  3
AecBase50|Product Desc: Autodesk Architectural Desktop 2007 |Company: Autodesk,Inc. |WEB Address: www.autodesk.com
 90
    32897
280
     0
281
     0
  0
CLASS
  1
AEC_MATERIAL_DEF
  2
AecDbMaterialDef
  3
AecBase50|Product Desc: Autodesk Architectural Desktop 2007 |Company: Autodesk,Inc. |WEB Address: www.autodesk.com
 90
    32897
280
     0
281
     0
  0
CLASS
  1
AEC_FRAME_DEF
  2
AecDbOpeningEndcapStyle
  3
AecArchBase50|Product Desc: Autodesk Architectural Desktop 2007 |Company: Autodesk,Inc. |WEB Address: www.autodesk.com
 90
    32897
280
     0
281
     0
  0
CLASS
  1
AEC_SCHEDULE_DATA_FORMAT
  2
AecDbScheduleDataFormat
  3
AecScheduleData50|Product Desc: Autodesk Architectural Desktop 2007 |Company: Autodesk,Inc. |WEB Address: www.autodesk.com
 90
    32897
280
     0
281
     0
  0
CLASS
  1
AEC_PROPERTY_SET_DEF
  2
AecDbPropertySetDef
  3
AecScheduleData50|Product Desc: Autodesk Architectural Desktop 2007 |Company: Autodesk,Inc. |WEB Address: www.autodesk.com
 90
    32897
280
     0
281
     0
  0
CLASS
  1
AEC_ROOFSLAB_STYLE
  2
AecDbRoofSlabStyle
  3
AecArchBase50|Product Desc: Autodesk Architectural Desktop 2007 |Company: Autodesk,Inc. |WEB Address: www.autodesk.com
 90
    32897
280
     0
281
     0
  0
CLASS
  1
AEC_ROOFSLABEDGE_STYLE
  2
AecDbRoofSlabEdgeStyle
  3
AecArchBase50|Product Desc: Autodesk Architectural Desktop 2007 |Company: Autodesk,Inc. |WEB Address: www.autodesk.com
 90
    32897
280
     0
281
     0
  0
CLASS
  1
AEC_SLAB_STYLE
  2
AecDbSlabStyle
  3
AecArchBase50|Product Desc: Autodesk Architectural Desktop 2007 |Company: Autodesk,Inc. |WEB Address: www.autodesk.com
 90
    32897
280
     0
281
     0
  0
CLASS
  1
AEC_SLABEDGE_STYLE
  2
AecDbSlabEdgeStyle
  3
AecArchBase50|Product Desc: Autodesk Architectural Desktop 2007 |Company: Autodesk,Inc. |WEB Address: www.autodesk.com
 90
    32897
280
     0
281
     0
  0
CLASS
  1
AEC_SPACE_STYLES
  2
AecDbSpaceStyle
  3
AecArchBase50|Product Desc: Autodesk Architectural Desktop 2007 |Company: Autodesk,Inc. |WEB Address: www.autodesk.com
 90
    32897
280
     0
281
     0
  0
CLASS
  1
AEC_WALL_STYLE
  2
AecDbWallStyle
  3
AecArchBase50|Product Desc: Autodesk Architectural Desktop 2007 |Company: Autodesk,Inc. |WEB Address: www.autodesk.com
 90
    32897
280
     0
281
     0
  0
CLASS
  1
AEC_SCHEDULE_TABLE_STYLE
  2
AecDbScheduleTableStyle
  3
AecSchedule50|Product Desc: Autodesk Architectural Desktop 2007 |Company: Autodesk,Inc. |WEB Address: www.autodesk.com
 90
    32897
280
     0
281
     0
  0
CLASS
  1
AEC_SCHEDULE_TABLE
  2
AecDbScheduleTable
  3
AecSchedule50|Product Desc: Autodesk Architectural Desktop 2007 |Company: Autodesk,Inc. |WEB Address: www.autodesk.com
 90
    33661
280
     0
281
     1
  0
CLASS
  1
SOLID_BACKGROUND
  2
AcDbSolidBackground
  3
SCENEOE
 90
    36863
280
     0
281
     0
  0
ENDSEC
  0
SECTION
  2
TABLES
  0
TABLE
  2
VPORT
  5
280
330
0
100
AcDbSymbolTable
 70
     1
  0
VPORT
  5
281
330
280
100
AcDbSymbolTableRecord
100
AcDbViewportTableRecord
  2
*Active
 70
     0
 10
0.0
 20
0.0
 11
1.0
 21
1.0
 12
219927.3408234514
 22
136945.7365558472
 13
0.0
 23
0.0
 14
10.0
 24
10.0
 15
10.0
 25
10.0
 16
0.0
 26
0.0
 36
1.0
 17
0.0
 27
0.0
 37
0.0
 40
8681.36083547157
 41
2.297668038408779
 42
50.0
 43
0.0
 44
0.0
 50
0.0
 51
0.0
 71
     0
 72
  1000
 73
     1
 74
     1
 75
     0
 76
     0
 77
     0
 78
     0
281
     0
 65
     1
110
0.0
120
0.0
130
0.0
111
1.0
121
0.0
131
0.0
112
0.0
122
1.0
132
0.0
 79
     0
146
0.0
  0
ENDTAB
  0
TABLE
  2
LTYPE
  5
27B
330
0
100
AcDbSymbolTable
 70
     3
  0
LTYPE
  5
27C
330
27B
100
AcDbSymbolTableRecord
100
AcDbLinetypeTableRecord
  2
ByBlock
 70
     0
  3

 72
    65
 73
     0
 40
0.0
  0
LTYPE
  5
27D
330
27B
100
AcDbSymbolTableRecord
100
AcDbLinetypeTableRecord
  2
ByLayer
 70
     0
  3

 72
    65
 73
     0
 40
0.0
  0
LTYPE
  5
E
330
27B
100
AcDbSymbolTableRecord
100
AcDbLinetypeTableRecord
  2
Continuous
 70
     0
  3
Solid line
 72
    65
 73
     0
 40
0.0
  0
LTYPE
  5
14
330
27B
100
AcDbSymbolTableRecord
100
AcDbLinetypeTableRecord
  2
HIDDEN
 70
     0
  3
Hidden __ __ __ __ __ __ __ __ __ __ __ __ __ _
 72
    65
 73
     2
 40
0.375
 49
0.25
 74
     0
 49
-0.125
 74
     0
  0
LTYPE
  5
D6
330
27B
100
AcDbSymbolTableRecord
100
AcDbLinetypeTableRecord
  2
DASHED
 70
     0
  3
Dashed __ __ __ __ __ __ __ __ __ __ __ __ __ _
 72
    65
 73
     2
 40
0.75
 49
0.5
 74
     0
 49
-0.25
 74
     0
  0
ENDTAB
  0
TABLE
  2
LAYER
  5
273
102
{ACAD_XDICTIONARY
360
274
102
}
330
0
100
AcDbSymbolTable
 70
     7
  0
LAYER
  5
6
102
{ACAD_XDICTIONARY
360
7
102
}
330
273
100
AcDbSymbolTableRecord
100
AcDbLayerTableRecord
  2
0
 70
     0
 62
     7
  6
Continuous
370
    -3
390
9
1001
RAK
1000
{ACET-LAYISO
1070
     0
1070
     7
1000
Continuous
1071
       -3
1071
        1
1005
9
1000
ACET-LAYISO}
  0
LAYER
  5
111
330
273
100
AcDbSymbolTableRecord
100
AcDbLayerTableRecord
  2
DEFPOINTS
 70
     0
 62
     7
  6
Continuous
290
     0
370
    -3
390
9
1001
RAK
1000
{ACET-LAYISO
1070
     0
1070
     7
1000
Continuous
1071
       -3
1071
        0
1005
9
1000
ACET-LAYISO}
  0
LAYER
  5
1C
102
{ACAD_XDICTIONARY
360
1D
102
}
330
273
100
AcDbSymbolTableRecord
100
AcDbLayerTableRecord
  2
RAMKI-A4
 70
     0
 62
     2
  6
Continuous
290
     0
370
    -3
390
9
1001
RAK
1000
{ACET-LAYISO
1070
     0
1070
     2
1000
Continuous
1071
       -3
1071
        0
1005
9
1000
ACET-LAYISO}
  0
LAYER
  5
FE
102
{ACAD_XDICTIONARY
360
FF
102
}
330
273
100
AcDbSymbolTableRecord
100
AcDbLayerTableRecord
  2
0Wymiary-PL
 70
     0
 62
     1
  6
Continuous
370
     5
390
9
  0
LAYER
  5
16
102
{ACAD_XDICTIONARY
360
17
102
}
330
273
100
AcDbSymbolTableRecord
100
AcDbLayerTableRecord
  2
0Napisy-PL
 70
     0
 62
   140
  6
Continuous
370
    15
390
9
1001
RAK
1000
{ACET-LAYISO
1070
     0
1070
   140
1000
Continuous
1071
       15
1071
        1
1005
9
1000
ACET-LAYISO}
  0
LAYER
  5
11
102
{ACAD_XDICTIONARY
360
12
102
}
330
273
100
AcDbSymbolTableRecord
100
AcDbLayerTableRecord
  2
0Napisy
 70
     0
 62
   140
  6
Continuous
370
    15
390
9
1001
RAK
1000
{ACET-LAYISO
1070
     0
1070
    33
1000
Continuous
1071
       18
1071
        1
1005
9
1000
ACET-LAYISO}
  0
LAYER
  5
28D
330
273
100
AcDbSymbolTableRecord
100
AcDbLayerTableRecord
  2
WYMIARY
 70
     0
 62
     1
  6
Continuous
370
    -3
390
9
1001
RAK
1000
{ACET-LAYISO
1070
     0
1070
     1
1000
CONTINUOUS
1071
       -3
1071
        1
1005
9
1000
ACET-LAYISO}
  0
ENDTAB
  0
TABLE
  2
STYLE
  5
278
330
0
100
AcDbSymbolTable
 70
     4
  0
STYLE
  5
279
330
278
100
AcDbSymbolTableRecord
100
AcDbTextStyleTableRecord
  2
Standard
 70
     0
 40
0.0
 41
1.0
 50
0.0
 71
     0
 42
2.5
  3
txt
  4

  0
STYLE
  5
10F
330
278
100
AcDbSymbolTableRecord
100
AcDbTextStyleTableRecord
  2
ROMANS
 70
     0
 40
0.0
 41
0.9
 50
0.0
 71
     0
 42
20.0
  3
romans.shx
  4

  0
STYLE
  5
19
330
278
100
AcDbSymbolTableRecord
100
AcDbTextStyleTableRecord
  2
AVA
 70
     0
 40
0.0
 41
1.0
 50
0.0
 71
     0
 42
158.5644099714409
  3
ARIAL.TTF
  4

1001
ACAD
1000
Arial CE
1071
    60962
  0
STYLE
  5
20
330
278
100
AcDbSymbolTableRecord
100
AcDbTextStyleTableRecord
  2
ARIAL
 70
     0
 40
0.0
 41
1.0
 50
0.0
 71
     0
 42
20.0
  3
ARIAL.TTF
  4

1001
ACAD
1000
Arial CE
1071
    60962
  0
ENDTAB
  0
TABLE
  2
VIEW
  5
27E
330
0
100
AcDbSymbolTable
 70
     1
  0
VIEW
  5
269
330
27E
100
AcDbSymbolTableRecord
100
AcDbViewTableRecord
  2
RODODENDRON 5
 70
     0
 40
14020.0
 10
220287.1664355166
 20
148687.514558954
 41
10200.00000000003
 11
0.0
 21
0.0
 31
1.0
 12
0.0
 22
0.0
 32
0.0
 42
50.0
 43
0.0
 44
0.0
 50
0.0
 71
     0
281
     0
 72
     1
110
0.0
120
0.0
130
0.0
111
1.0
121
0.0
131
0.0
112
0.0
122
1.0
132
0.0
 79
     0
146
0.0
  0
ENDTAB
  0
TABLE
  2
UCS
  5
27F
330
0
100
AcDbSymbolTable
 70
     0
  0
ENDTAB
  0
TABLE
  2
APPID
  5
282
330
0
100
AcDbSymbolTable
 70
     5
  0
APPID
  5
1A
330
282
100
AcDbSymbolTableRecord
100
AcDbRegAppTableRecord
  2
ACAD
 70
     0
  0
APPID
  5
F
330
282
100
AcDbSymbolTableRecord
100
AcDbRegAppTableRecord
  2
RAK
 70
     0
  0
APPID
  5
26C
330
282
100
AcDbSymbolTableRecord
100
AcDbRegAppTableRecord
  2
ACAD_PSEXT
 70
     0
  0
APPID
  5
22
330
282
100
AcDbSymbolTableRecord
100
AcDbRegAppTableRecord
  2
DCO15
 70
     0
  0
APPID
  5
21
330
282
100
AcDbSymbolTableRecord
100
AcDbRegAppTableRecord
  2
AcDbBlockRepETag
 70
     0
  0
ENDTAB
  0
TABLE
  2
DIMSTYLE
  5
283
330
0
100
AcDbSymbolTable
 70
     3
100
AcDbDimStyleTable
 71
     3
340
284
340
115
340
28F
  0
DIMSTYLE
105
115
102
{ACAD_REACTORS
330
FD
330
116
330
121
330
12C
330
137
330
144
330
222
330
22D
330
238
330
243
330
24E
330
25B
102
}
330
283
100
AcDbSymbolTableRecord
100
AcDbDimStyleTableRecord
  2
500
 70
     0
 41
30.0
 42
43.0
 43
0.0
 44
13.0
 45
0.5
 46
12.0
 73
     0
 74
     0
 75
     1
 76
     1
 78
    12
140
80.0
141
0.0
145
1.0
147
0.0
172
     1
174
     1
176
     1
177
     1
178
   140
271
     1
272
     1
279
     2
340
10F
341
105
342
105
  0
DIMSTYLE
105
28F
330
283
100
AcDbSymbolTableRecord
100
AcDbDimStyleTableRecord
  2
Standard
 70
     0
340
279
  0
DIMSTYLE
105
284
330
283
100
AcDbSymbolTableRecord
100
AcDbDimStyleTableRecord
  2
100-PRw
 70
     0
 41
1.0
 42
43.0
 43
24.0
 44
13.0
 45
0.5
 46
12.0
 73
     0
 74
     0
 75
     1
 76
     1
 77
     1
 78
     8
140
30.0
141
0.0
145
1.0
147
8.0
172
     1
174
     1
176
     1
177
     1
178
   140
271
     1
272
     1
279
     2
340
10F
341
285
342
28A
371
     5
  0
ENDTAB
  0
TABLE
  2
BLOCK_RECORD
  5
1
330
0
100
AcDbSymbolTable
 70
    15
  0
BLOCK_RECORD
  5
2
102
{ACAD_XDICTIONARY
360
3
102
}
330
1
100
AcDbSymbolTableRecord
100
AcDbBlockTableRecord
  2
*Model_Space
340
267
  0
BLOCK_RECORD
  5
26D
330
1
100
AcDbSymbolTableRecord
100
AcDbBlockTableRecord
  2
*Paper_Space
340
270
  0
BLOCK_RECORD
  5
105
102
{ACAD_XDICTIONARY
360
106
102
}
330
1
100
AcDbSymbolTableRecord
100
AcDbBlockTableRecord
  2
B-DIM
340
0
102
{BLKREFS
331
125
331
126
331
130
331
131
331
13D
331
13E
331
148
331
149
331
23C
331
23D
331
247
331
248
331
254
331
255
331
25F
331
260
331
104
331
10D
331
11A
331
11B
331
231
331
232
331
226
331
227
102
}
  0
BLOCK_RECORD
  5
285
330
1
100
AcDbSymbolTableRecord
100
AcDbBlockTableRecord
  2
_Dot
340
0
  0
BLOCK_RECORD
  5
28A
330
1
100
AcDbSymbolTableRecord
100
AcDbBlockTableRecord
  2
B-DIM_W
340
0
310
2800000020000000200000000100080000000000000400000000000000000000000000000000000000000000000080000080000000808000800000008000800080800000C0C0C000C0DCC000F0CAA6000020400000206000002080000020A0000020C0000020E00000400000004020000040400000406000004080000040A0
310
000040C0000040E00000600000006020000060400000606000006080000060A0000060C0000060E00000800000008020000080400000806000008080000080A0000080C0000080E00000A0000000A0200000A0400000A0600000A0800000A0A00000A0C00000A0E00000C0000000C0200000C0400000C0600000C0800000C0
310
A00000C0C00000C0E00000E0000000E0200000E0400000E0600000E0800000E0A00000E0C00000E0E00040000000400020004000400040006000400080004000A0004000C0004000E00040200000402020004020400040206000402080004020A0004020C0004020E000404000004040200040404000404060004040800040
310
40A0004040C0004040E00040600000406020004060400040606000406080004060A0004060C0004060E00040800000408020004080400040806000408080004080A0004080C0004080E00040A0000040A0200040A0400040A0600040A0800040A0A00040A0C00040A0E00040C0000040C0200040C0400040C0600040C08000
310
40C0A00040C0C00040C0E00040E0000040E0200040E0400040E0600040E0800040E0A00040E0C00040E0E00080000000800020008000400080006000800080008000A0008000C0008000E00080200000802020008020400080206000802080008020A0008020C0008020E00080400000804020008040400080406000804080
310
008040A0008040C0008040E00080600000806020008060400080606000806080008060A0008060C0008060E00080800000808020008080400080806000808080008080A0008080C0008080E00080A0000080A0200080A0400080A0600080A0800080A0A00080A0C00080A0E00080C0000080C0200080C0400080C0600080C0
310
800080C0A00080C0C00080C0E00080E0000080E0200080E0400080E0600080E0800080E0A00080E0C00080E0E000C0000000C0002000C0004000C0006000C0008000C000A000C000C000C000E000C0200000C0202000C0204000C0206000C0208000C020A000C020C000C020E000C0400000C0402000C0404000C0406000C0
310
408000C040A000C040C000C040E000C0600000C0602000C0604000C0606000C0608000C060A000C060C000C060E000C0800000C0802000C0804000C0806000C0808000C080A000C080C000C080E000C0A00000C0A02000C0A04000C0A06000C0A08000C0A0A000C0A0C000C0A0E000C0C00000C0C02000C0C04000C0C06000
310
C0C08000C0C0A000F0FBFF00A4A0A000808080000000FF0000FF000000FFFF00FF000000FF00FF00FFFF0000FFFFFF0000000000000000000000000000000000000000000000000000000000000000000000000000000000000000000000000000000000000000000000000000000000000000000000000000000000000000
310
00000000000000000000000000000000000000000000000000000000000000000000000000000000000000000000000000000000000000000000000000000000000000000000000000000000000000000000000000000000000000000000000000000000000000000000000000000000000000000000000000000000000000
310
00000000000000000000000000000000000000000000000000000000000000000000000000000000000000000000000000000000000000000000000000000000000000000000000000000000000000000000000000000000000000000000000000000000000000000000000000000000000000000000000000000000000000
310
00000000000000000000000000000000000000F9F9F9F9F9F9F900000000000000000000000000000000000000000000000000F9000000000000F9F9F9F9F9F900000000000000000000000000000000000000F9000000000000000000000000F9F9F9F9F90000000000000000000000000000F90000000000000000000000
310
000000000000F9F9F9F9F9F90000000000000000F90000000000000000000000000000000000000000000000F9F9F9F9F9F90000F900000000000000000000000000000000000000000000F9F9F9F9F9F9F90000F90000000000000000000000000000F9F9F9F9F9F9F9F9000000000000000000F900000000000000F9F9F9
310
F9F9F9F90000000000000000000000000000000000F9F9F9F9F9F9F9F90000000000000000000000000000000000000000000000000000000000000000000000000000000000000000000000000000000000000000000000000000000000000000000000000000000000000000000000000000000000000000000000000000
310
00000000000000000000000000000000000000000000000000000000000000000000000000000000000000000000000000000000000000000000000000000000000000000000000000000000000000000000000000000000000000000000000000000000000000000000000000000000000000000000000000000000000000
310
00000000000000000000000000000000000000000000000000000000000000000000000000000000000000000000000000000000000000000000000000000000000000000000000000000000000000000000000000000000000000000000000000000000000000000000000000000000000000000000000000000000000000
310
0000000000000000000000000000000000000000000000000000000000000000000000000000000000000000000000000000000000000000
  0
BLOCK_RECORD
  5
101
330
1
100
AcDbSymbolTableRecord
100
AcDbBlockTableRecord
  2
*D3
340
0
  0
BLOCK_RECORD
  5
117
330
1
100
AcDbSymbolTableRecord
100
AcDbBlockTableRecord
  2
*D4
340
0
  0
BLOCK_RECORD
  5
122
330
1
100
AcDbSymbolTableRecord
100
AcDbBlockTableRecord
  2
*D5
340
0
  0
BLOCK_RECORD
  5
12D
330
1
100
AcDbSymbolTableRecord
100
AcDbBlockTableRecord
  2
*D6
340
0
  0
BLOCK_RECORD
  5
138
330
1
100
AcDbSymbolTableRecord
100
AcDbBlockTableRecord
  2
*D7
340
0
  0
BLOCK_RECORD
  5
145
330
1
100
AcDbSymbolTableRecord
100
AcDbBlockTableRecord
  2
*D8
340
0
  0
BLOCK_RECORD
  5
223
330
1
100
AcDbSymbolTableRecord
100
AcDbBlockTableRecord
  2
*D9
340
0
  0
BLOCK_RECORD
  5
22E
330
1
100
AcDbSymbolTableRecord
100
AcDbBlockTableRecord
  2
*D10
340
0
  0
BLOCK_RECORD
  5
239
330
1
100
AcDbSymbolTableRecord
100
AcDbBlockTableRecord
  2
*D11
340
0
  0
BLOCK_RECORD
  5
244
330
1
100
AcDbSymbolTableRecord
100
AcDbBlockTableRecord
  2
*D12
340
0
  0
BLOCK_RECORD
  5
24F
330
1
100
AcDbSymbolTableRecord
100
AcDbBlockTableRecord
  2
*D13
340
0
  0
BLOCK_RECORD
  5
25C
330
1
100
AcDbSymbolTableRecord
100
AcDbBlockTableRecord
  2
*D14
340
0
  0
ENDTAB
  0
ENDSEC
  0
SECTION
  2
BLOCKS
  0
BLOCK
  5
5
330
2
100
AcDbEntity
  8
0
100
AcDbBlockBegin
  2
*Model_Space
 70
     0
 10
0.0
 20
0.0
 30
0.0
  3
*Model_Space
  1

  0
ENDBLK
  5
266
330
2
100
AcDbEntity
  8
0
100
AcDbBlockEnd
  0
BLOCK
  5
26E
330
26D
100
AcDbEntity
 67
     1
  8
0
100
AcDbBlockBegin
  2
*Paper_Space
 70
     0
 10
0.0
 20
0.0
 30
0.0
  3
*Paper_Space
  1

  0
ENDBLK
  5
26F
330
26D
100
AcDbEntity
 67
     1
  8
0
100
AcDbBlockEnd
  0
BLOCK
  5
108
330
105
100
AcDbEntity
  8
0
100
AcDbBlockBegin
  2
B-DIM
 70
     0
 10
0.0
 20
0.0
 30
0.0
  3
B-DIM
  1

  0
LINE
  5
109
330
105
100
AcDbEntity
  8
0
 62
     1
100
AcDbLine
 10
0.000000000000091
 20
-1.1
 30
0.0
 11
0.000000000000091
 21
1.1
 31
0.0
  0
LWPOLYLINE
  5
10A
330
105
100
AcDbEntity
  8
0
 62
     1
100
AcDbPolyline
 90
        2
 70
     0
 43
0.3
 10
-0.7071067811864851
 20
-0.7071067811864851
 10
0.707106781186576
 20
0.707106781186576
  0
LINE
  5
10B
330
105
100
AcDbEntity
  8
0
 62
     1
100
AcDbLine
 10
1.20000000000009
 20
0.0
 30
0.0
 11
-1.199999999999909
 21
0.0
 31
0.0
  0
ENDBLK
  5
10C
330
105
100
AcDbEntity
  8
0
100
AcDbBlockEnd
  0
BLOCK
  5
286
330
285
100
AcDbEntity
  8
0
100
AcDbBlockBegin
  2
_Dot
 70
     0
 10
0.0
 20
0.0
 30
0.0
  3
_Dot
  1

  0
LWPOLYLINE
  5
287
330
285
100
AcDbEntity
  8
0
  6
ByBlock
 62
     0
100
AcDbPolyline
 90
        2
 70
     1
 43
0.5
 10
-0.25
 20
0.0
 42
1.0
 10
0.25
 20
0.0
 42
1.0
  0
LINE
  5
288
330
285
100
AcDbEntity
  8
0
  6
ByBlock
 62
     0
370
    -2
100
AcDbLine
 10
-0.5
 20
0.0
 30
0.0
 11
-1.0
 21
0.0
 31
0.0
  0
ENDBLK
  5
289
330
285
100
AcDbEntity
  8
0
100
AcDbBlockEnd
  0
BLOCK
  5
28B
330
28A
100
AcDbEntity
  8
0
 48
4.0
100
AcDbBlockBegin
  2
B-DIM_W
 70
     0
 10
0.0
 20
0.0
 30
0.0
  3
B-DIM_W
  1

  0
SOLID
  5
28C
330
28A
100
AcDbEntity
  8
WYMIARY
 62
     1
 48
4.0
100
AcDbTrace
 10
-18.00000000000182
 20
3.000000000001818
 30
0.0
 11
0.0
 21
0.0
 31
0.0
 12
-18.00000000000182
 22
-3.000000000001818
 32
0.0
 13
-18.00000000000182
 23
-3.000000000001818
 33
0.0
  0
ENDBLK
  5
28E
330
28A
100
AcDbEntity
  8
0
 48
4.0
100
AcDbBlockEnd
  0
BLOCK
  5
102
330
101
100
AcDbEntity
  8
0
100
AcDbBlockBegin
  2
*D3
 70
     1
 10
0.0
 20
0.0
 30
0.0
  3
*D3
  1

  0
LINE
  5
103
330
101
100
AcDbEntity
  8
0Wymiary-PL
 62
     1
370
    -2
100
AcDbLine
 10
218073.8826969502
 20
135579.4521771783
 30
0.0
 11
218647.2659994504
 21
135579.4521771783
 31
0.0
  0
INSERT
  5
104
330
101
100
AcDbEntity
  8
0Wymiary-PL
 62
     1
370
    -2
100
AcDbBlockReference
  2
B-DIM
 10
218043.8826969503
 20
135579.4521771783
 30
0.0
 41
30.0
 42
30.0
 43
30.0
 50
180.0
  0
INSERT
  5
10D
330
101
100
AcDbEntity
  8
0Wymiary-PL
 62
     1
370
    -2
100
AcDbBlockReference
  2
B-DIM
 10
218677.2659994504
 20
135579.4521771783
 30
0.0
 41
30.0
 42
30.0
 43
30.0
  0
MTEXT
  5
10E
330
101
100
AcDbEntity
  8
0Wymiary-PL
 62
   140
100
AcDbMText
 10
218360.5743482003
 20
135659.4521771783
 30
0.0
 40
80.0
 41
0.0
 71
     5
 72
     1
  1
\A1;634
  7
ROMANS
 73
     1
 44
1.0
1001
ACAD
1000
MTEXTBEGIN
1070
    73
1070
     1
1070
    44
1040
1.0
1070
    74
1070
     0
1000
MTEXTEND
  0
POINT
  5
110
330
101
100
AcDbEntity
  8
DEFPOINTS
 62
     0
100
AcDbPoint
 10
218043.8826969503
 20
135920.4215176159
 30
0.0
  0
POINT
  5
112
330
101
100
AcDbEntity
  8
DEFPOINTS
 62
     0
100
AcDbPoint
 10
218677.2659994504
 20
135920.4215176159
 30
0.0
  0
POINT
  5
113
330
101
100
AcDbEntity
  8
DEFPOINTS
 62
     0
100
AcDbPoint
 10
218677.2659994504
 20
135579.4521771783
 30
0.0
  0
ENDBLK
  5
114
330
101
100
AcDbEntity
  8
0
100
AcDbBlockEnd
  0
BLOCK
  5
118
330
117
100
AcDbEntity
  8
0
100
AcDbBlockBegin
  2
*D4
 70
     1
 10
0.0
 20
0.0
 30
0.0
  3
*D4
  1

  0
LINE
  5
119
330
117
100
AcDbEntity
  8
0Wymiary-PL
 62
     1
370
    -2
100
AcDbLine
 10
218707.2659994504
 20
135579.4521771783
 30
0.0
 11
219063.8826969502
 21
135579.4521771783
 31
0.0
  0
INSERT
  5
11A
330
117
100
AcDbEntity
  8
0Wymiary-PL
 62
     1
370
    -2
100
AcDbBlockReference
  2
B-DIM
 10
218677.2659994504
 20
135579.4521771783
 30
0.0
 41
30.0
 42
30.0
 43
30.0
 50
180.0
  0
INSERT
  5
11B
330
117
100
AcDbEntity
  8
0Wymiary-PL
 62
     1
370
    -2
100
AcDbBlockReference
  2
B-DIM
 10
219093.8826969503
 20
135579.4521771783
 30
0.0
 41
30.0
 42
30.0
 43
30.0
  0
MTEXT
  5
11C
330
117
100
AcDbEntity
  8
0Wymiary-PL
 62
   140
100
AcDbMText
 10
218885.5743482003
 20
135659.4521771783
 30
0.0
 40
80.0
 41
0.0
 71
     5
 72
     1
  1
\A1;416
  7
ROMANS
 73
     1
 44
1.0
1001
ACAD
1000
MTEXTBEGIN
1070
    73
1070
     1
1070
    44
1040
1.0
1070
    74
1070
     0
1000
MTEXTEND
  0
POINT
  5
11D
330
117
100
AcDbEntity
  8
DEFPOINTS
 62
     0
100
AcDbPoint
 10
218677.2659994504
 20
135920.4215176159
 30
0.0
  0
POINT
  5
11E
330
117
100
AcDbEntity
  8
DEFPOINTS
 62
     0
100
AcDbPoint
 10
219093.8826969503
 20
135881.4353320013
 30
0.0
  0
POINT
  5
11F
330
117
100
AcDbEntity
  8
DEFPOINTS
 62
     0
100
AcDbPoint
 10
219093.8826969503
 20
135579.4521771783
 30
0.0
  0
ENDBLK
  5
120
330
117
100
AcDbEntity
  8
0
100
AcDbBlockEnd
  0
BLOCK
  5
123
330
122
100
AcDbEntity
  8
0
100
AcDbBlockBegin
  2
*D5
 70
     1
 10
0.0
 20
0.0
 30
0.0
  3
*D5
  1

  0
LINE
  5
124
330
122
100
AcDbEntity
  8
0Wymiary-PL
 62
     1
370
    -2
100
AcDbLine
 10
218073.8826969502
 20
135404.5923727044
 30
0.0
 11
219063.8826969502
 21
135404.5923727044
 31
0.0
  0
INSERT
  5
125
330
122
100
AcDbEntity
  8
0Wymiary-PL
 62
     1
370
    -2
100
AcDbBlockReference
  2
B-DIM
 10
218043.8826969503
 20
135404.5923727044
 30
0.0
 41
30.0
 42
30.0
 43
30.0
 50
180.0
  0
INSERT
  5
126
330
122
100
AcDbEntity
  8
0Wymiary-PL
 62
     1
370
    -2
100
AcDbBlockReference
  2
B-DIM
 10
219093.8826969503
 20
135404.5923727044
 30
0.0
 41
30.0
 42
30.0
 43
30.0
  0
MTEXT
  5
127
330
122
100
AcDbEntity
  8
0Wymiary-PL
 62
   140
100
AcDbMText
 10
218568.8826969502
 20
135484.5923727044
 30
0.0
 40
80.0
 41
0.0
 71
     5
 72
     1
  1
\A1;1050
  7
ROMANS
 73
     1
 44
1.0
1001
ACAD
1000
MTEXTBEGIN
1070
    73
1070
     1
1070
    44
1040
1.0
1070
    74
1070
     0
1000
MTEXTEND
  0
POINT
  5
128
330
122
100
AcDbEntity
  8
DEFPOINTS
 62
     0
100
AcDbPoint
 10
218043.8826969503
 20
135920.4215176159
 30
0.0
  0
POINT
  5
129
330
122
100
AcDbEntity
  8
DEFPOINTS
 62
     0
100
AcDbPoint
 10
219093.8826969503
 20
135920.4215176159
 30
0.0
  0
POINT
  5
12A
330
122
100
AcDbEntity
  8
DEFPOINTS
 62
     0
100
AcDbPoint
 10
219093.8826969503
 20
135404.5923727044
 30
0.0
  0
ENDBLK
  5
12B
330
122
100
AcDbEntity
  8
0
100
AcDbBlockEnd
  0
BLOCK
  5
12E
330
12D
100
AcDbEntity
  8
0
100
AcDbBlockBegin
  2
*D6
 70
     1
 10
0.0
 20
0.0
 30
0.0
  3
*D6
  1

  0
LINE
  5
12F
330
12D
100
AcDbEntity
  8
0Wymiary-PL
 62
     1
370
    -2
100
AcDbLine
 10
219280.6307860397
 20
135911.4353320013
 30
0.0
 11
219280.6307860397
 21
136722.1933379234
 31
0.0
  0
INSERT
  5
130
330
12D
100
AcDbEntity
  8
0Wymiary-PL
 62
     1
370
    -2
100
AcDbBlockReference
  2
B-DIM
 10
219280.6307860397
 20
135881.4353320013
 30
0.0
 41
30.0
 42
30.0
 43
30.0
 50
270.0
  0
INSERT
  5
131
330
12D
100
AcDbEntity
  8
0Wymiary-PL
 62
     1
370
    -2
100
AcDbBlockReference
  2
B-DIM
 10
219280.6307860397
 20
136752.1933379234
 30
0.0
 41
30.0
 42
30.0
 43
30.0
 50
90.0
  0
MTEXT
  5
132
330
12D
100
AcDbEntity
  8
0Wymiary-PL
 62
   140
100
AcDbMText
 10
219200.6307860397
 20
136316.8143349624
 30
0.0
 40
80.0
 41
0.0
 71
     5
 72
     1
  1
\A1;871
  7
ROMANS
 11
0.0000000000000001
 21
1.0
 31
0.0
 73
     1
 44
1.0
1001
ACAD
1000
MTEXTBEGIN
1070
    73
1070
     1
1070
    44
1040
1.0
1070
    74
1070
     0
1000
MTEXTEND
  0
POINT
  5
133
330
12D
100
AcDbEntity
  8
DEFPOINTS
 62
     0
100
AcDbPoint
 10
219093.8826969502
 20
135881.4353320013
 30
0.0
  0
POINT
  5
134
330
12D
100
AcDbEntity
  8
DEFPOINTS
 62
     0
100
AcDbPoint
 10
219093.8826969503
 20
136752.1933379234
 30
0.0
  0
POINT
  5
135
330
12D
100
AcDbEntity
  8
DEFPOINTS
 62
     0
100
AcDbPoint
 10
219280.6307860397
 20
136752.1933379234
 30
0.0
  0
ENDBLK
  5
136
330
12D
100
AcDbEntity
  8
0
100
AcDbBlockEnd
  0
BLOCK
  5
139
330
138
100
AcDbEntity
  8
0
100
AcDbBlockBegin
  2
*D7
 70
     1
 10
0.0
 20
0.0
 30
0.0
  3
*D7
  1

  0
LINE
  5
13A
330
138
100
AcDbEntity
  8
0Wymiary-PL
 62
     1
370
    -2
100
AcDbLine
 10
219280.6307860397
 20
136722.1933379234
 30
0.0
 11
219280.6307860397
 21
136692.1933379234
 31
0.0
  0
LINE
  5
13B
330
138
100
AcDbEntity
  8
0Wymiary-PL
 62
     1
370
    -2
100
AcDbLine
 10
219280.6307860397
 20
136911.1933379234
 30
0.0
 11
219280.6307860397
 21
136941.1933379234
 31
0.0
  0
LINE
  5
13C
330
138
100
AcDbEntity
  8
0Wymiary-PL
 62
     1
370
    -2
100
AcDbLine
 10
219280.6307860397
 20
136752.1933379234
 30
0.0
 11
219280.6307860397
 21
136881.1933379234
 31
0.0
  0
INSERT
  5
13D
330
138
100
AcDbEntity
  8
0Wymiary-PL
 62
     1
370
    -2
100
AcDbBlockReference
  2
B-DIM
 10
219280.6307860397
 20
136752.1933379234
 30
0.0
 41
30.0
 42
30.0
 43
30.0
 50
90.0
  0
INSERT
  5
13E
330
138
100
AcDbEntity
  8
0Wymiary-PL
 62
     1
370
    -2
100
AcDbBlockReference
  2
B-DIM
 10
219280.6307860397
 20
136881.1933379234
 30
0.0
 41
30.0
 42
30.0
 43
30.0
 50
270.0
  0
MTEXT
  5
13F
330
138
100
AcDbEntity
  8
0Wymiary-PL
 62
   140
100
AcDbMText
 10
219200.6307860397
 20
136816.6933379234
 30
0.0
 40
80.0
 41
0.0
 71
     5
 72
     1
  1
\A1;129
  7
ROMANS
 11
0.0000000000000001
 21
1.0
 31
0.0
 73
     1
 44
1.0
1001
ACAD
1000
MTEXTBEGIN
1070
    73
1070
     1
1070
    44
1040
1.0
1070
    74
1070
     0
1000
MTEXTEND
  0
POINT
  5
140
330
138
100
AcDbEntity
  8
DEFPOINTS
 62
     0
100
AcDbPoint
 10
219093.8826969503
 20
136752.1933379234
 30
0.0
  0
POINT
  5
141
330
138
100
AcDbEntity
  8
DEFPOINTS
 62
     0
100
AcDbPoint
 10
218730.2226969503
 20
136881.1933379234
 30
0.0
  0
POINT
  5
142
330
138
100
AcDbEntity
  8
DEFPOINTS
 62
     0
100
AcDbPoint
 10
219280.6307860397
 20
136881.1933379234
 30
0.0
  0
ENDBLK
  5
143
330
138
100
AcDbEntity
  8
0
100
AcDbBlockEnd
  0
BLOCK
  5
146
330
145
100
AcDbEntity
  8
0
100
AcDbBlockBegin
  2
*D8
 70
     1
 10
0.0
 20
0.0
 30
0.0
  3
*D8
  1

  0
LINE
  5
147
330
145
100
AcDbEntity
  8
0Wymiary-PL
 62
     1
370
    -2
100
AcDbLine
 10
219442.5034812701
 20
135911.2641369645
 30
0.0
 11
219442.5034812701
 21
136851.1933379234
 31
0.0
  0
INSERT
  5
148
330
145
100
AcDbEntity
  8
0Wymiary-PL
 62
     1
370
    -2
100
AcDbBlockReference
  2
B-DIM
 10
219442.5034812701
 20
135881.2641369645
 30
0.0
 41
30.0
 42
30.0
 43
30.0
 50
270.0
  0
INSERT
  5
149
330
145
100
AcDbEntity
  8
0Wymiary-PL
 62
     1
370
    -2
100
AcDbBlockReference
  2
B-DIM
 10
219442.5034812701
 20
136881.1933379234
 30
0.0
 41
30.0
 42
30.0
 43
30.0
 50
90.0
  0
MTEXT
  5
14A
330
145
100
AcDbEntity
  8
0Wymiary-PL
 62
   140
100
AcDbMText
 10
219362.5034812701
 20
136381.228737444
 30
0.0
 40
80.0
 41
0.0
 71
     5
 72
     1
  1
\A1;1000
  7
ROMANS
 11
0.0000000000000001
 21
1.0
 31
0.0
 73
     1
 44
1.0
1001
ACAD
1000
MTEXTBEGIN
1070
    73
1070
     1
1070
    44
1040
1.0
1070
    74
1070
     0
1000
MTEXTEND
  0
POINT
  5
14B
330
145
100
AcDbEntity
  8
DEFPOINTS
 62
     0
100
AcDbPoint
 10
218914.1026791638
 20
135881.2641369645
 30
0.0
  0
POINT
  5
14C
330
145
100
AcDbEntity
  8
DEFPOINTS
 62
     0
100
AcDbPoint
 10
218497.5526969502
 20
136881.1933379234
 30
0.0
  0
POINT
  5
14D
330
145
100
AcDbEntity
  8
DEFPOINTS
 62
     0
100
AcDbPoint
 10
219442.5034812701
 20
136881.1933379234
 30
0.0
  0
ENDBLK
  5
14E
330
145
100
AcDbEntity
  8
0
100
AcDbBlockEnd
  0
BLOCK
  5
224
330
223
100
AcDbEntity
  8
0
100
AcDbBlockBegin
  2
*D9
 70
     1
 10
0.0
 20
0.0
 30
0.0
  3
*D9
  1

  0
LINE
  5
225
330
223
100
AcDbEntity
  8
0Wymiary-PL
 62
     1
370
    -2
100
AcDbLine
 10
222725.8957927948
 20
135579.4521771783
 30
0.0
 11
222152.5124902947
 21
135579.4521771783
 31
0.0
  0
INSERT
  5
226
330
223
100
AcDbEntity
  8
0Wymiary-PL
 62
     1
370
    -2
100
AcDbBlockReference
  2
B-DIM
 10
222755.8957927948
 20
135579.4521771783
 30
0.0
 41
30.0
 42
30.0
 43
30.0
  0
INSERT
  5
227
330
223
100
AcDbEntity
  8
0Wymiary-PL
 62
     1
370
    -2
100
AcDbBlockReference
  2
B-DIM
 10
222122.5124902947
 20
135579.4521771783
 30
0.0
 41
30.0
 42
30.0
 43
30.0
 50
180.0
  0
MTEXT
  5
228
330
223
100
AcDbEntity
  8
0Wymiary-PL
 62
   140
100
AcDbMText
 10
222439.2041415448
 20
135659.4521771783
 30
0.0
 40
80.0
 41
0.0
 71
     5
 72
     1
  1
\A1;634
  7
ROMANS
 73
     1
 44
1.0
1001
ACAD
1000
MTEXTBEGIN
1070
    73
1070
     1
1070
    44
1040
1.0
1070
    74
1070
     0
1000
MTEXTEND
  0
POINT
  5
229
330
223
100
AcDbEntity
  8
DEFPOINTS
 62
     0
100
AcDbPoint
 10
222755.8957927948
 20
135920.4215176159
 30
0.0
  0
POINT
  5
22A
330
223
100
AcDbEntity
  8
DEFPOINTS
 62
     0
100
AcDbPoint
 10
222122.5124902947
 20
135920.4215176159
 30
0.0
  0
POINT
  5
22B
330
223
100
AcDbEntity
  8
DEFPOINTS
 62
     0
100
AcDbPoint
 10
222122.5124902947
 20
135579.4521771783
 30
0.0
  0
ENDBLK
  5
22C
330
223
100
AcDbEntity
  8
0
100
AcDbBlockEnd
  0
BLOCK
  5
22F
330
22E
100
AcDbEntity
  8
0
100
AcDbBlockBegin
  2
*D10
 70
     1
 10
0.0
 20
0.0
 30
0.0
  3
*D10
  1

  0
LINE
  5
230
330
22E
100
AcDbEntity
  8
0Wymiary-PL
 62
     1
370
    -2
100
AcDbLine
 10
222092.5124902947
 20
135579.4521771783
 30
0.0
 11
221735.8957927948
 21
135579.4521771783
 31
0.0
  0
INSERT
  5
231
330
22E
100
AcDbEntity
  8
0Wymiary-PL
 62
     1
370
    -2
100
AcDbBlockReference
  2
B-DIM
 10
222122.5124902947
 20
135579.4521771783
 30
0.0
 41
30.0
 42
30.0
 43
30.0
  0
INSERT
  5
232
330
22E
100
AcDbEntity
  8
0Wymiary-PL
 62
     1
370
    -2
100
AcDbBlockReference
  2
B-DIM
 10
221705.8957927948
 20
135579.4521771783
 30
0.0
 41
30.0
 42
30.0
 43
30.0
 50
180.0
  0
MTEXT
  5
233
330
22E
100
AcDbEntity
  8
0Wymiary-PL
 62
   140
100
AcDbMText
 10
221914.2041415448
 20
135659.4521771783
 30
0.0
 40
80.0
 41
0.0
 71
     5
 72
     1
  1
\A1;416
  7
ROMANS
 73
     1
 44
1.0
1001
ACAD
1000
MTEXTBEGIN
1070
    73
1070
     1
1070
    44
1040
1.0
1070
    74
1070
     0
1000
MTEXTEND
  0
POINT
  5
234
330
22E
100
AcDbEntity
  8
DEFPOINTS
 62
     0
100
AcDbPoint
 10
222122.5124902947
 20
135920.4215176159
 30
0.0
  0
POINT
  5
235
330
22E
100
AcDbEntity
  8
DEFPOINTS
 62
     0
100
AcDbPoint
 10
221705.8957927948
 20
135881.4353320013
 30
0.0
  0
POINT
  5
236
330
22E
100
AcDbEntity
  8
DEFPOINTS
 62
     0
100
AcDbPoint
 10
221705.8957927948
 20
135579.4521771783
 30
0.0
  0
ENDBLK
  5
237
330
22E
100
AcDbEntity
  8
0
100
AcDbBlockEnd
  0
BLOCK
  5
23A
330
239
100
AcDbEntity
  8
0
100
AcDbBlockBegin
  2
*D11
 70
     1
 10
0.0
 20
0.0
 30
0.0
  3
*D11
  1

  0
LINE
  5
23B
330
239
100
AcDbEntity
  8
0Wymiary-PL
 62
     1
370
    -2
100
AcDbLine
 10
222725.8957927948
 20
135404.5923727044
 30
0.0
 11
221735.8957927948
 21
135404.5923727044
 31
0.0
  0
INSERT
  5
23C
330
239
100
AcDbEntity
  8
0Wymiary-PL
 62
     1
370
    -2
100
AcDbBlockReference
  2
B-DIM
 10
222755.8957927948
 20
135404.5923727044
 30
0.0
 41
30.0
 42
30.0
 43
30.0
  0
INSERT
  5
23D
330
239
100
AcDbEntity
  8
0Wymiary-PL
 62
     1
370
    -2
100
AcDbBlockReference
  2
B-DIM
 10
221705.8957927948
 20
135404.5923727044
 30
0.0
 41
30.0
 42
30.0
 43
30.0
 50
180.0
  0
MTEXT
  5
23E
330
239
100
AcDbEntity
  8
0Wymiary-PL
 62
   140
100
AcDbMText
 10
222230.8957927948
 20
135484.5923727044
 30
0.0
 40
80.0
 41
0.0
 71
     5
 72
     1
  1
\A1;1050
  7
ROMANS
 73
     1
 44
1.0
1001
ACAD
1000
MTEXTBEGIN
1070
    73
1070
     1
1070
    44
1040
1.0
1070
    74
1070
     0
1000
MTEXTEND
  0
POINT
  5
23F
330
239
100
AcDbEntity
  8
DEFPOINTS
 62
     0
100
AcDbPoint
 10
222755.8957927948
 20
135920.4215176159
 30
0.0
  0
POINT
  5
240
330
239
100
AcDbEntity
  8
DEFPOINTS
 62
     0
100
AcDbPoint
 10
221705.8957927948
 20
135920.4215176159
 30
0.0
  0
POINT
  5
241
330
239
100
AcDbEntity
  8
DEFPOINTS
 62
     0
100
AcDbPoint
 10
221705.8957927948
 20
135404.5923727044
 30
0.0
  0
ENDBLK
  5
242
330
239
100
AcDbEntity
  8
0
100
AcDbBlockEnd
  0
BLOCK
  5
245
330
244
100
AcDbEntity
  8
0
100
AcDbBlockBegin
  2
*D12
 70
     1
 10
0.0
 20
0.0
 30
0.0
  3
*D12
  1

  0
LINE
  5
246
330
244
100
AcDbEntity
  8
0Wymiary-PL
 62
     1
370
    -2
100
AcDbLine
 10
221519.1477037054
 20
135911.4353320013
 30
0.0
 11
221519.1477037054
 21
136722.1933379234
 31
0.0
  0
INSERT
  5
247
330
244
100
AcDbEntity
  8
0Wymiary-PL
 62
     1
370
    -2
100
AcDbBlockReference
  2
B-DIM
 10
221519.1477037054
 20
135881.4353320013
 30
0.0
 41
30.0
 42
30.0
 43
30.0
 50
270.0
  0
INSERT
  5
248
330
244
100
AcDbEntity
  8
0Wymiary-PL
 62
     1
370
    -2
100
AcDbBlockReference
  2
B-DIM
 10
221519.1477037054
 20
136752.1933379234
 30
0.0
 41
30.0
 42
30.0
 43
30.0
 50
90.0
  0
MTEXT
  5
249
330
244
100
AcDbEntity
  8
0Wymiary-PL
 62
   140
100
AcDbMText
 10
221439.1477037053
 20
136316.8143349624
 30
0.0
 40
80.0
 41
0.0
 71
     5
 72
     1
  1
\A1;871
  7
ROMANS
 11
0.0000000000000001
 21
1.0
 31
0.0
 73
     1
 44
1.0
1001
ACAD
1000
MTEXTBEGIN
1070
    73
1070
     1
1070
    44
1040
1.0
1070
    74
1070
     0
1000
MTEXTEND
  0
POINT
  5
24A
330
244
100
AcDbEntity
  8
DEFPOINTS
 62
     0
100
AcDbPoint
 10
221705.8957927949
 20
135881.4353320013
 30
0.0
  0
POINT
  5
24B
330
244
100
AcDbEntity
  8
DEFPOINTS
 62
     0
100
AcDbPoint
 10
221705.8957927948
 20
136752.1933379234
 30
0.0
  0
POINT
  5
24C
330
244
100
AcDbEntity
  8
DEFPOINTS
 62
     0
100
AcDbPoint
 10
221519.1477037054
 20
136752.1933379234
 30
0.0
  0
ENDBLK
  5
24D
330
244
100
AcDbEntity
  8
0
100
AcDbBlockEnd
  0
BLOCK
  5
250
330
24F
100
AcDbEntity
  8
0
100
AcDbBlockBegin
  2
*D13
 70
     1
 10
0.0
 20
0.0
 30
0.0
  3
*D13
  1

  0
LINE
  5
251
330
24F
100
AcDbEntity
  8
0Wymiary-PL
 62
     1
370
    -2
100
AcDbLine
 10
221519.1477037054
 20
136722.1933379234
 30
0.0
 11
221519.1477037054
 21
136692.1933379234
 31
0.0
  0
LINE
  5
252
330
24F
100
AcDbEntity
  8
0Wymiary-PL
 62
     1
370
    -2
100
AcDbLine
 10
221519.1477037054
 20
136911.1933379234
 30
0.0
 11
221519.1477037054
 21
136941.1933379234
 31
0.0
  0
LINE
  5
253
330
24F
100
AcDbEntity
  8
0Wymiary-PL
 62
     1
370
    -2
100
AcDbLine
 10
221519.1477037054
 20
136752.1933379234
 30
0.0
 11
221519.1477037054
 21
136881.1933379234
 31
0.0
  0
INSERT
  5
254
330
24F
100
AcDbEntity
  8
0Wymiary-PL
 62
     1
370
    -2
100
AcDbBlockReference
  2
B-DIM
 10
221519.1477037054
 20
136752.1933379234
 30
0.0
 41
30.0
 42
30.0
 43
30.0
 50
90.0
  0
INSERT
  5
255
330
24F
100
AcDbEntity
  8
0Wymiary-PL
 62
     1
370
    -2
100
AcDbBlockReference
  2
B-DIM
 10
221519.1477037054
 20
136881.1933379234
 30
0.0
 41
30.0
 42
30.0
 43
30.0
 50
270.0
  0
MTEXT
  5
256
330
24F
100
AcDbEntity
  8
0Wymiary-PL
 62
   140
100
AcDbMText
 10
221439.1477037053
 20
136816.6933379234
 30
0.0
 40
80.0
 41
0.0
 71
     5
 72
     1
  1
\A1;129
  7
ROMANS
 11
0.0000000000000001
 21
1.0
 31
0.0
 73
     1
 44
1.0
1001
ACAD
1000
MTEXTBEGIN
1070
    73
1070
     1
1070
    44
1040
1.0
1070
    74
1070
     0
1000
MTEXTEND
  0
POINT
  5
257
330
24F
100
AcDbEntity
  8
DEFPOINTS
 62
     0
100
AcDbPoint
 10
221705.8957927948
 20
136752.1933379234
 30
0.0
  0
POINT
  5
258
330
24F
100
AcDbEntity
  8
DEFPOINTS
 62
     0
100
AcDbPoint
 10
222069.5557927948
 20
136881.1933379234
 30
0.0
  0
POINT
  5
259
330
24F
100
AcDbEntity
  8
DEFPOINTS
 62
     0
100
AcDbPoint
 10
221519.1477037054
 20
136881.1933379234
 30
0.0
  0
ENDBLK
  5
25A
330
24F
100
AcDbEntity
  8
0
100
AcDbBlockEnd
  0
BLOCK
  5
25D
330
25C
100
AcDbEntity
  8
0
100
AcDbBlockBegin
  2
*D14
 70
     1
 10
0.0
 20
0.0
 30
0.0
  3
*D14
  1

  0
LINE
  5
25E
330
25C
100
AcDbEntity
  8
0Wymiary-PL
 62
     1
370
    -2
100
AcDbLine
 10
221357.275008475
 20
135911.2641369645
 30
0.0
 11
221357.275008475
 21
136851.1933379234
 31
0.0
  0
INSERT
  5
25F
330
25C
100
AcDbEntity
  8
0Wymiary-PL
 62
     1
370
    -2
100
AcDbBlockReference
  2
B-DIM
 10
221357.275008475
 20
135881.2641369645
 30
0.0
 41
30.0
 42
30.0
 43
30.0
 50
270.0
  0
INSERT
  5
260
330
25C
100
AcDbEntity
  8
0Wymiary-PL
 62
     1
370
    -2
100
AcDbBlockReference
  2
B-DIM
 10
221357.275008475
 20
136881.1933379234
 30
0.0
 41
30.0
 42
30.0
 43
30.0
 50
90.0
  0
MTEXT
  5
261
330
25C
100
AcDbEntity
  8
0Wymiary-PL
 62
   140
100
AcDbMText
 10
221277.275008475
 20
136381.228737444
 30
0.0
 40
80.0
 41
0.0
 71
     5
 72
     1
  1
\A1;1000
  7
ROMANS
 11
0.0000000000000001
 21
1.0
 31
0.0
 73
     1
 44
1.0
1001
ACAD
1000
MTEXTBEGIN
1070
    73
1070
     1
1070
    44
1040
1.0
1070
    74
1070
     0
1000
MTEXTEND
  0
POINT
  5
262
330
25C
100
AcDbEntity
  8
DEFPOINTS
 62
     0
100
AcDbPoint
 10
221885.6758105813
 20
135881.2641369645
 30
0.0
  0
POINT
  5
263
330
25C
100
AcDbEntity
  8
DEFPOINTS
 62
     0
100
AcDbPoint
 10
222302.2257927949
 20
136881.1933379234
 30
0.0
  0
POINT
  5
264
330
25C
100
AcDbEntity
  8
DEFPOINTS
 62
     0
100
AcDbPoint
 10
221357.275008475
 20
136881.1933379234
 30
0.0
  0
ENDBLK
  5
265
330
25C
100
AcDbEntity
  8
0
100
AcDbBlockEnd
  0
ENDSEC
  0
SECTION
  2
ENTITIES
  0
LINE
  5
10
330
2
100
AcDbEntity
  8
0Napisy
  6
HIDDEN
 62
     1
370
     5
100
AcDbLine
 10
220399.8892448725
 20
132297.6012553763
 30
0.0
 11
220399.8892448725
 21
138473.1198157809
 31
0.0
  0
TEXT
  5
15
330
2
100
AcDbEntity
  8
0Napisy-PL
370
     5
100
AcDbText
 10
216666.4297817526
 20
141116.3055269018
 30
0.0
 40
150.0
  1
"DOM POD LICZI"
  7
AVA
100
AcDbText
  0
LWPOLYLINE
  5
1B
330
2
100
AcDbEntity
  8
RAMKI-A4
370
     5
100
AcDbPolyline
 90
        4
 70
     1
 43
0.0
 10
215187.2000545948
 20
127657.5157057546
 10
215187.2000545948
 20
141677.5157057546
 10
225387.2000545948
 20
141677.5157057546
 10
225387.2000545948
 20
127657.5157057546
  0
MTEXT
  5
1F
102
{ACAD_XDICTIONARY
360
320
102
}
330
2
100
AcDbEntity
  8
0Napisy
100
AcDbMText
 10
216765.396492656
 20
140932.3689550166
 30
0.0
 40
150.0
 41
0.0
 71
     1
 72
     5
  1
{\fArial|b0|i0|c238|p34;MO\U+017BNA WKLEI\U+0106 DO PROJEKTU ZAGOSPODAROWANIA TERENU}
  7
ARIAL
 73
     1
 44
1.0
1001
AcDbBlockRepETag
1070
     1
1071
      383
1005
1F
1001
DCO15
1071
        1
1071
        1
1000
_tabelka_-_inform_i_etykiety_Link1
1004
19000000
1000
_tabelka_Arial151
1001
ACAD
1000
MTEXTBEGIN
1070
    73
1070
     1
1070
    44
1040
1.0
1070
    74
1070
     0
1000
MTEXTEND
  0
MTEXT
  5
23
102
{ACAD_XDICTIONARY
360
322
102
}
330
2
100
AcDbEntity
  8
0Napisy
100
AcDbMText
 10
220212.6558968869
 20
132370.0274562156
 30
0.0
 40
100.0
 41
0.0
 71
     1
 72
     5
  1
{\fArial|b0|i0|c238|p34;O\U+015A ODBICIA LUSTRZANEGO}
  7
ARIAL
 11
0.0000000000000001
 21
1.0
 31
0.0
 73
     1
 44
1.0
1001
AcDbBlockRepETag
1070
     1
1071
      383
1005
1F
1001
DCO15
1071
        1
1071
        1
1000
_tabelka_-_inform_i_etykiety_Link1
1004
1B000000
1000
_tabelka_Arial151
1001
ACAD
1000
MTEXTBEGIN
1070
    73
1070
     1
1070
    44
1040
1.0
1070
    74
1070
     0
1000
MTEXTEND
  0
MTEXT
  5
24
330
2
100
AcDbEntity
  8
0Napisy
100
AcDbMText
 10
216789.6764640862
 20
128621.06909775
 30
0.0
 40
100.0
 41
0.0
 71
     1
 72
     5
  1
{\fArial|b0|i0|c238|p34;OBRYS  BUDYNKU}
  7
ARIAL
 73
     1
 44
1.0
1001
AcDbBlockRepETag
1070
     1
1071
      383
1005
1F
1001
DCO15
1071
        1
1071
        1
1000
_tabelka_-_inform_i_etykiety_Link1
1004
1A000000
1000
_tabelka_Arial151
1001
ACAD
1000
MTEXTBEGIN
1070
    73
1070
     1
1070
    44
1040
1.0
1070
    74
1070
     0
1000
MTEXTEND
  0
MTEXT
  5
25
330
2
100
AcDbEntity
  8
0Napisy
100
AcDbMText
 10
216789.6764640862
 20
128371.0690977501
 30
0.0
 40
100.0
 41
0.0
 71
     1
 72
     5
  1
{\fArial|b0|i0|c238|p34;Skala:}
  7
ARIAL
 73
     1
 44
1.0
1001
AcDbBlockRepETag
1070
     1
1071
      383
1005
1F
1001
DCO15
1071
        1
1071
        1
1000
_tabelka_-_inform_i_etykiety_Link1
1004
08000000
1000
_tabelka_Arial151
1001
ACAD
1000
MTEXTBEGIN
1070
    73
1070
     1
1070
    44
1040
1.0
1070
    74
1070
     0
1000
MTEXTEND
  0
TEXT
  5
26
330
2
100
AcDbEntity
  8
0Napisy
100
AcDbText
 10
217457.3675813689
 20
128269.3637771498
 30
0.0
 40
100.0
  1
1:500
  7
ARIAL
100
AcDbText
1001
AcDbBlockRepETag
1070
     1
1071
      383
1005
1F
1001
DCO15
1071
        1
1071
        1
1000
_tabelka_-_inform_i_etykiety_Link1
1004
08000000
1000
_tabelka_Arial151
  0
LWPOLYLINE
  5
27
330
2
100
AcDbEntity
  8
0
 62
     0
370
     5
100
AcDbPolyline
 90
        3
 70
     0
 43
0.0
 38
-2.0
 10
217743.8826969503
 20
136777.1933379234
 10
217743.8826969503
 20
137052.1933379234
 10
218324.8826969502
 20
137052.1933379234
  0
LWPOLYLINE
  5
28
330
2
100
AcDbEntity
  8
0
 62
     0
370
     5
100
AcDbPolyline
 90
        3
 70
     0
 43
0.0
 38
-47.0
 10
217683.8826969502
 20
136777.1933379234
 10
217683.8826969502
 20
137112.1933379234
 10
218324.8826969502
 20
137112.1933379234
  0
LWPOLYLINE
  5
29
330
2
100
AcDbEntity
  8
0
 62
     0
370
     5
100
AcDbPolyline
 90
        2
 70
     0
 43
0.0
 38
-2.0
 10
217843.8826969502
 20
136202.9566465918
 10
217843.8826969502
 20
136646.8534053797
  0
POLYLINE
  5
2A
330
2
100
AcDbEntity
  8
0
 62
     0
370
     5
100
AcDbPolygonMesh
 66
     1
 10
0.0
 20
0.0
 30
0.0
 70
    16
 71
     2
 72
    26
  0
VERTEX
  5
2B
330
2A
100
AcDbEntity
  8
0
 62
     0
370
     5
100
AcDbVertex
100
AcDbPolygonMeshVertex
 10
217843.8826969502
 20
136646.8534053797
 30
-2.0
 70
    64
  0
VERTEX
  5
2C
330
2A
100
AcDbEntity
  8
0
 62
     0
370
     5
100
AcDbVertex
100
AcDbPolygonMeshVertex
 10
217843.8826969502
 20
136629.0975350282
 30
-2.0
 70
    64
  0
VERTEX
  5
2D
330
2A
100
AcDbEntity
  8
0
 62
     0
370
     5
100
AcDbVertex
100
AcDbPolygonMeshVertex
 10
217843.8826969502
 20
136611.3416646766
 30
-2.0
 70
    64
  0
VERTEX
  5
2E
330
2A
100
AcDbEntity
  8
0
 62
     0
370
     5
100
AcDbVertex
100
AcDbPolygonMeshVertex
 10
217843.8826969502
 20
136593.5857943252
 30
-2.0
 70
    64
  0
VERTEX
  5
2F
330
2A
100
AcDbEntity
  8
0
 62
     0
370
     5
100
AcDbVertex
100
AcDbPolygonMeshVertex
 10
217843.8826969502
 20
136575.8299239736
 30
-2.0
 70
    64
  0
VERTEX
  5
30
330
2A
100
AcDbEntity
  8
0
 62
     0
370
     5
100
AcDbVertex
100
AcDbPolygonMeshVertex
 10
217843.8826969502
 20
136558.0740536221
 30
-2.0
 70
    64
  0
VERTEX
  5
31
330
2A
100
AcDbEntity
  8
0
 62
     0
370
     5
100
AcDbVertex
100
AcDbPolygonMeshVertex
 10
217843.8826969502
 20
136540.3181832706
 30
-2.0
 70
    64
  0
VERTEX
  5
32
330
2A
100
AcDbEntity
  8
0
 62
     0
370
     5
100
AcDbVertex
100
AcDbPolygonMeshVertex
 10
217843.8826969502
 20
136522.5623129191
 30
-2.0
 70
    64
  0
VERTEX
  5
33
330
2A
100
AcDbEntity
  8
0
 62
     0
370
     5
100
AcDbVertex
100
AcDbPolygonMeshVertex
 10
217843.8826969502
 20
136504.8064425676
 30
-2.0
 70
    64
  0
VERTEX
  5
34
330
2A
100
AcDbEntity
  8
0
 62
     0
370
     5
100
AcDbVertex
100
AcDbPolygonMeshVertex
 10
217843.8826969502
 20
136487.050572216
 30
-2.0
 70
    64
  0
VERTEX
  5
35
330
2A
100
AcDbEntity
  8
0
 62
     0
370
     5
100
AcDbVertex
100
AcDbPolygonMeshVertex
 10
217843.8826969502
 20
136469.2947018645
 30
-2.0
 70
    64
  0
VERTEX
  5
36
330
2A
100
AcDbEntity
  8
0
 62
     0
370
     5
100
AcDbVertex
100
AcDbPolygonMeshVertex
 10
217843.8826969502
 20
136451.538831513
 30
-2.0
 70
    64
  0
VERTEX
  5
37
330
2A
100
AcDbEntity
  8
0
 62
     0
370
     5
100
AcDbVertex
100
AcDbPolygonMeshVertex
 10
217843.8826969502
 20
136433.7829611615
 30
-2.0
 70
    64
  0
VERTEX
  5
38
330
2A
100
AcDbEntity
  8
0
 62
     0
370
     5
100
AcDbVertex
100
AcDbPolygonMeshVertex
 10
217843.8826969502
 20
136416.02709081
 30
-2.0
 70
    64
  0
VERTEX
  5
39
330
2A
100
AcDbEntity
  8
0
 62
     0
370
     5
100
AcDbVertex
100
AcDbPolygonMeshVertex
 10
217843.8826969502
 20
136398.2712204585
 30
-2.0
 70
    64
  0
VERTEX
  5
3A
330
2A
100
AcDbEntity
  8
0
 62
     0
370
     5
100
AcDbVertex
100
AcDbPolygonMeshVertex
 10
217843.8826969502
 20
136380.515350107
 30
-2.0
 70
    64
  0
VERTEX
  5
3B
330
2A
100
AcDbEntity
  8
0
 62
     0
370
     5
100
AcDbVertex
100
AcDbPolygonMeshVertex
 10
217843.8826969502
 20
136362.7594797554
 30
-2.0
 70
    64
  0
VERTEX
  5
3C
330
2A
100
AcDbEntity
  8
0
 62
     0
370
     5
100
AcDbVertex
100
AcDbPolygonMeshVertex
 10
217843.8826969502
 20
136345.0036094039
 30
-2.0
 70
    64
  0
VERTEX
  5
3D
330
2A
100
AcDbEntity
  8
0
 62
     0
370
     5
100
AcDbVertex
100
AcDbPolygonMeshVertex
 10
217843.8826969502
 20
136327.2477390524
 30
-2.0
 70
    64
  0
VERTEX
  5
3E
330
2A
100
AcDbEntity
  8
0
 62
     0
370
     5
100
AcDbVertex
100
AcDbPolygonMeshVertex
 10
217843.8826969502
 20
136309.4918687009
 30
-2.0
 70
    64
  0
VERTEX
  5
3F
330
2A
100
AcDbEntity
  8
0
 62
     0
370
     5
100
AcDbVertex
100
AcDbPolygonMeshVertex
 10
217843.8826969502
 20
136291.7359983494
 30
-2.0
 70
    64
  0
VERTEX
  5
40
330
2A
100
AcDbEntity
  8
0
 62
     0
370
     5
100
AcDbVertex
100
AcDbPolygonMeshVertex
 10
217843.8826969502
 20
136273.9801279978
 30
-2.0
 70
    64
  0
VERTEX
  5
41
330
2A
100
AcDbEntity
  8
0
 62
     0
370
     5
100
AcDbVertex
100
AcDbPolygonMeshVertex
 10
217843.8826969502
 20
136256.2242576463
 30
-2.0
 70
    64
  0
VERTEX
  5
42
330
2A
100
AcDbEntity
  8
0
 62
     0
370
     5
100
AcDbVertex
100
AcDbPolygonMeshVertex
 10
217843.8826969502
 20
136238.4683872948
 30
-2.0
 70
    64
  0
VERTEX
  5
43
330
2A
100
AcDbEntity
  8
0
 62
     0
370
     5
100
AcDbVertex
100
AcDbPolygonMeshVertex
 10
217843.8826969502
 20
136220.7125169433
 30
-2.0
 70
    64
  0
VERTEX
  5
44
330
2A
100
AcDbEntity
  8
0
 62
     0
370
     5
100
AcDbVertex
100
AcDbPolygonMeshVertex
 10
217843.8826969502
 20
136202.9566465918
 30
-2.0
 70
    64
  0
VERTEX
  5
45
330
2A
100
AcDbEntity
  8
0
 62
     0
370
     5
100
AcDbVertex
100
AcDbPolygonMeshVertex
 10
217783.8826969503
 20
136646.8534053797
 30
-47.0
 70
    64
  0
VERTEX
  5
46
330
2A
100
AcDbEntity
  8
0
 62
     0
370
     5
100
AcDbVertex
100
AcDbPolygonMeshVertex
 10
217783.8826969503
 20
136629.0975350282
 30
-47.0
 70
    64
  0
VERTEX
  5
47
330
2A
100
AcDbEntity
  8
0
 62
     0
370
     5
100
AcDbVertex
100
AcDbPolygonMeshVertex
 10
217783.8826969503
 20
136611.3416646766
 30
-47.0
 70
    64
  0
VERTEX
  5
48
330
2A
100
AcDbEntity
  8
0
 62
     0
370
     5
100
AcDbVertex
100
AcDbPolygonMeshVertex
 10
217783.8826969503
 20
136593.5857943252
 30
-47.0
 70
    64
  0
VERTEX
  5
49
330
2A
100
AcDbEntity
  8
0
 62
     0
370
     5
100
AcDbVertex
100
AcDbPolygonMeshVertex
 10
217783.8826969503
 20
136575.8299239736
 30
-47.0
 70
    64
  0
VERTEX
  5
4A
330
2A
100
AcDbEntity
  8
0
 62
     0
370
     5
100
AcDbVertex
100
AcDbPolygonMeshVertex
 10
217783.8826969503
 20
136558.0740536221
 30
-47.0
 70
    64
  0
VERTEX
  5
4B
330
2A
100
AcDbEntity
  8
0
 62
     0
370
     5
100
AcDbVertex
100
AcDbPolygonMeshVertex
 10
217783.8826969503
 20
136540.3181832706
 30
-47.0
 70
    64
  0
VERTEX
  5
4C
330
2A
100
AcDbEntity
  8
0
 62
     0
370
     5
100
AcDbVertex
100
AcDbPolygonMeshVertex
 10
217783.8826969503
 20
136522.5623129191
 30
-47.0
 70
    64
  0
VERTEX
  5
4D
330
2A
100
AcDbEntity
  8
0
 62
     0
370
     5
100
AcDbVertex
100
AcDbPolygonMeshVertex
 10
217783.8826969503
 20
136504.8064425676
 30
-47.0
 70
    64
  0
VERTEX
  5
4E
330
2A
100
AcDbEntity
  8
0
 62
     0
370
     5
100
AcDbVertex
100
AcDbPolygonMeshVertex
 10
217783.8826969503
 20
136487.050572216
 30
-47.0
 70
    64
  0
VERTEX
  5
4F
330
2A
100
AcDbEntity
  8
0
 62
     0
370
     5
100
AcDbVertex
100
AcDbPolygonMeshVertex
 10
217783.8826969503
 20
136469.2947018645
 30
-47.0
 70
    64
  0
VERTEX
  5
50
330
2A
100
AcDbEntity
  8
0
 62
     0
370
     5
100
AcDbVertex
100
AcDbPolygonMeshVertex
 10
217783.8826969503
 20
136451.538831513
 30
-47.0
 70
    64
  0
VERTEX
  5
51
330
2A
100
AcDbEntity
  8
0
 62
     0
370
     5
100
AcDbVertex
100
AcDbPolygonMeshVertex
 10
217783.8826969503
 20
136433.7829611615
 30
-47.0
 70
    64
  0
VERTEX
  5
52
330
2A
100
AcDbEntity
  8
0
 62
     0
370
     5
100
AcDbVertex
100
AcDbPolygonMeshVertex
 10
217783.8826969503
 20
136416.02709081
 30
-47.0
 70
    64
  0
VERTEX
  5
53
330
2A
100
AcDbEntity
  8
0
 62
     0
370
     5
100
AcDbVertex
100
AcDbPolygonMeshVertex
 10
217783.8826969503
 20
136398.2712204585
 30
-47.0
 70
    64
  0
VERTEX
  5
54
330
2A
100
AcDbEntity
  8
0
 62
     0
370
     5
100
AcDbVertex
100
AcDbPolygonMeshVertex
 10
217783.8826969503
 20
136380.515350107
 30
-47.0
 70
    64
  0
VERTEX
  5
55
330
2A
100
AcDbEntity
  8
0
 62
     0
370
     5
100
AcDbVertex
100
AcDbPolygonMeshVertex
 10
217783.8826969503
 20
136362.7594797554
 30
-47.0
 70
    64
  0
VERTEX
  5
56
330
2A
100
AcDbEntity
  8
0
 62
     0
370
     5
100
AcDbVertex
100
AcDbPolygonMeshVertex
 10
217783.8826969503
 20
136345.0036094039
 30
-47.0
 70
    64
  0
VERTEX
  5
57
330
2A
100
AcDbEntity
  8
0
 62
     0
370
     5
100
AcDbVertex
100
AcDbPolygonMeshVertex
 10
217783.8826969503
 20
136327.2477390524
 30
-47.0
 70
    64
  0
VERTEX
  5
58
330
2A
100
AcDbEntity
  8
0
 62
     0
370
     5
100
AcDbVertex
100
AcDbPolygonMeshVertex
 10
217783.8826969503
 20
136309.4918687009
 30
-47.0
 70
    64
  0
VERTEX
  5
59
330
2A
100
AcDbEntity
  8
0
 62
     0
370
     5
100
AcDbVertex
100
AcDbPolygonMeshVertex
 10
217783.8826969503
 20
136291.7359983494
 30
-47.0
 70
    64
  0
VERTEX
  5
5A
330
2A
100
AcDbEntity
  8
0
 62
     0
370
     5
100
AcDbVertex
100
AcDbPolygonMeshVertex
 10
217783.8826969503
 20
136273.9801279978
 30
-47.0
 70
    64
  0
VERTEX
  5
5B
330
2A
100
AcDbEntity
  8
0
 62
     0
370
     5
100
AcDbVertex
100
AcDbPolygonMeshVertex
 10
217783.8826969503
 20
136256.2242576463
 30
-47.0
 70
    64
  0
VERTEX
  5
5C
330
2A
100
AcDbEntity
  8
0
 62
     0
370
     5
100
AcDbVertex
100
AcDbPolygonMeshVertex
 10
217783.8826969503
 20
136238.4683872948
 30
-47.0
 70
    64
  0
VERTEX
  5
5D
330
2A
100
AcDbEntity
  8
0
 62
     0
370
     5
100
AcDbVertex
100
AcDbPolygonMeshVertex
 10
217783.8826969503
 20
136220.7125169433
 30
-47.0
 70
    64
  0
VERTEX
  5
5E
330
2A
100
AcDbEntity
  8
0
 62
     0
370
     5
100
AcDbVertex
100
AcDbPolygonMeshVertex
 10
217783.8826969503
 20
136202.9566465918
 30
-47.0
 70
    64
  0
SEQEND
  5
5F
330
2A
100
AcDbEntity
  8
0
 62
     0
370
     5
  0
POLYLINE
  5
60
330
2
100
AcDbEntity
  8
0
 62
     0
370
     5
100
AcDbPolygonMesh
 66
     1
 10
0.0
 20
0.0
 30
0.0
 70
    16
 71
     2
 72
    41
  0
VERTEX
  5
61
330
60
100
AcDbEntity
  8
0
 62
     0
370
     5
100
AcDbVertex
100
AcDbPolygonMeshVertex
 10
217743.8826969503
 20
136777.1933379234
 30
-2.0
 70
    64
  0
VERTEX
  5
62
330
60
100
AcDbEntity
  8
0
 62
     0
370
     5
100
AcDbVertex
100
AcDbPolygonMeshVertex
 10
217743.8826969503
 20
136798.5933379234
 30
-2.0
 70
    64
  0
VERTEX
  5
63
330
60
100
AcDbEntity
  8
0
 62
     0
370
     5
100
AcDbVertex
100
AcDbPolygonMeshVertex
 10
217743.8826969503
 20
136819.9933379234
 30
-2.0
 70
    64
  0
VERTEX
  5
64
330
60
100
AcDbEntity
  8
0
 62
     0
370
     5
100
AcDbVertex
100
AcDbPolygonMeshVertex
 10
217743.8826969503
 20
136841.3933379234
 30
-2.0
 70
    64
  0
VERTEX
  5
65
330
60
100
AcDbEntity
  8
0
 62
     0
370
     5
100
AcDbVertex
100
AcDbPolygonMeshVertex
 10
217743.8826969503
 20
136862.7933379234
 30
-2.0
 70
    64
  0
VERTEX
  5
66
330
60
100
AcDbEntity
  8
0
 62
     0
370
     5
100
AcDbVertex
100
AcDbPolygonMeshVertex
 10
217743.8826969503
 20
136884.1933379234
 30
-2.0
 70
    64
  0
VERTEX
  5
67
330
60
100
AcDbEntity
  8
0
 62
     0
370
     5
100
AcDbVertex
100
AcDbPolygonMeshVertex
 10
217743.8826969503
 20
136905.5933379234
 30
-2.0
 70
    64
  0
VERTEX
  5
68
330
60
100
AcDbEntity
  8
0
 62
     0
370
     5
100
AcDbVertex
100
AcDbPolygonMeshVertex
 10
217743.8826969503
 20
136926.9933379233
 30
-2.0
 70
    64
  0
VERTEX
  5
69
330
60
100
AcDbEntity
  8
0
 62
     0
370
     5
100
AcDbVertex
100
AcDbPolygonMeshVertex
 10
217743.8826969503
 20
136948.3933379234
 30
-2.0
 70
    64
  0
VERTEX
  5
6A
330
60
100
AcDbEntity
  8
0
 62
     0
370
     5
100
AcDbVertex
100
AcDbPolygonMeshVertex
 10
217743.8826969503
 20
136969.7933379234
 30
-2.0
 70
    64
  0
VERTEX
  5
6B
330
60
100
AcDbEntity
  8
0
 62
     0
370
     5
100
AcDbVertex
100
AcDbPolygonMeshVertex
 10
217743.8826969503
 20
136991.1933379234
 30
-2.0
 70
    64
  0
VERTEX
  5
6C
330
60
100
AcDbEntity
  8
0
 62
     0
370
     5
100
AcDbVertex
100
AcDbPolygonMeshVertex
 10
217743.8826969503
 20
137012.5933379234
 30
-2.0
 70
    64
  0
VERTEX
  5
6D
330
60
100
AcDbEntity
  8
0
 62
     0
370
     5
100
AcDbVertex
100
AcDbPolygonMeshVertex
 10
217743.8826969503
 20
137033.9933379234
 30
-2.0
 70
    64
  0
VERTEX
  5
6E
330
60
100
AcDbEntity
  8
0
 62
     0
370
     5
100
AcDbVertex
100
AcDbPolygonMeshVertex
 10
217747.0826969502
 20
137052.1933379234
 30
-2.0
 70
    64
  0
VERTEX
  5
6F
330
60
100
AcDbEntity
  8
0
 62
     0
370
     5
100
AcDbVertex
100
AcDbPolygonMeshVertex
 10
217768.4826969502
 20
137052.1933379234
 30
-2.0
 70
    64
  0
VERTEX
  5
70
330
60
100
AcDbEntity
  8
0
 62
     0
370
     5
100
AcDbVertex
100
AcDbPolygonMeshVertex
 10
217789.8826969502
 20
137052.1933379234
 30
-2.0
 70
    64
  0
VERTEX
  5
71
330
60
100
AcDbEntity
  8
0
 62
     0
370
     5
100
AcDbVertex
100
AcDbPolygonMeshVertex
 10
217811.2826969503
 20
137052.1933379234
 30
-2.0
 70
    64
  0
VERTEX
  5
72
330
60
100
AcDbEntity
  8
0
 62
     0
370
     5
100
AcDbVertex
100
AcDbPolygonMeshVertex
 10
217832.6826969502
 20
137052.1933379234
 30
-2.0
 70
    64
  0
VERTEX
  5
73
330
60
100
AcDbEntity
  8
0
 62
     0
370
     5
100
AcDbVertex
100
AcDbPolygonMeshVertex
 10
217854.0826969502
 20
137052.1933379234
 30
-2.0
 70
    64
  0
VERTEX
  5
74
330
60
100
AcDbEntity
  8
0
 62
     0
370
     5
100
AcDbVertex
100
AcDbPolygonMeshVertex
 10
217875.4826969502
 20
137052.1933379234
 30
-2.0
 70
    64
  0
VERTEX
  5
75
330
60
100
AcDbEntity
  8
0
 62
     0
370
     5
100
AcDbVertex
100
AcDbPolygonMeshVertex
 10
217896.8826969502
 20
137052.1933379234
 30
-2.0
 70
    64
  0
VERTEX
  5
76
330
60
100
AcDbEntity
  8
0
 62
     0
370
     5
100
AcDbVertex
100
AcDbPolygonMeshVertex
 10
217918.2826969503
 20
137052.1933379234
 30
-2.0
 70
    64
  0
VERTEX
  5
77
330
60
100
AcDbEntity
  8
0
 62
     0
370
     5
100
AcDbVertex
100
AcDbPolygonMeshVertex
 10
217939.6826969502
 20
137052.1933379234
 30
-2.0
 70
    64
  0
VERTEX
  5
78
330
60
100
AcDbEntity
  8
0
 62
     0
370
     5
100
AcDbVertex
100
AcDbPolygonMeshVertex
 10
217961.0826969502
 20
137052.1933379234
 30
-2.0
 70
    64
  0
VERTEX
  5
79
330
60
100
AcDbEntity
  8
0
 62
     0
370
     5
100
AcDbVertex
100
AcDbPolygonMeshVertex
 10
217982.4826969502
 20
137052.1933379234
 30
-2.0
 70
    64
  0
VERTEX
  5
7A
330
60
100
AcDbEntity
  8
0
 62
     0
370
     5
100
AcDbVertex
100
AcDbPolygonMeshVertex
 10
218003.8826969502
 20
137052.1933379234
 30
-2.0
 70
    64
  0
VERTEX
  5
7B
330
60
100
AcDbEntity
  8
0
 62
     0
370
     5
100
AcDbVertex
100
AcDbPolygonMeshVertex
 10
218025.2826969502
 20
137052.1933379234
 30
-2.0
 70
    64
  0
VERTEX
  5
7C
330
60
100
AcDbEntity
  8
0
 62
     0
370
     5
100
AcDbVertex
100
AcDbPolygonMeshVertex
 10
218046.6826969502
 20
137052.1933379234
 30
-2.0
 70
    64
  0
VERTEX
  5
7D
330
60
100
AcDbEntity
  8
0
 62
     0
370
     5
100
AcDbVertex
100
AcDbPolygonMeshVertex
 10
218068.0826969502
 20
137052.1933379234
 30
-2.0
 70
    64
  0
VERTEX
  5
7E
330
60
100
AcDbEntity
  8
0
 62
     0
370
     5
100
AcDbVertex
100
AcDbPolygonMeshVertex
 10
218089.4826969502
 20
137052.1933379234
 30
-2.0
 70
    64
  0
VERTEX
  5
7F
330
60
100
AcDbEntity
  8
0
 62
     0
370
     5
100
AcDbVertex
100
AcDbPolygonMeshVertex
 10
218110.8826969502
 20
137052.1933379234
 30
-2.0
 70
    64
  0
VERTEX
  5
80
330
60
100
AcDbEntity
  8
0
 62
     0
370
     5
100
AcDbVertex
100
AcDbPolygonMeshVertex
 10
218132.2826969502
 20
137052.1933379234
 30
-2.0
 70
    64
  0
VERTEX
  5
81
330
60
100
AcDbEntity
  8
0
 62
     0
370
     5
100
AcDbVertex
100
AcDbPolygonMeshVertex
 10
218153.6826969502
 20
137052.1933379234
 30
-2.0
 70
    64
  0
VERTEX
  5
82
330
60
100
AcDbEntity
  8
0
 62
     0
370
     5
100
AcDbVertex
100
AcDbPolygonMeshVertex
 10
218175.0826969502
 20
137052.1933379234
 30
-2.0
 70
    64
  0
VERTEX
  5
83
330
60
100
AcDbEntity
  8
0
 62
     0
370
     5
100
AcDbVertex
100
AcDbPolygonMeshVertex
 10
218196.4826969502
 20
137052.1933379234
 30
-2.0
 70
    64
  0
VERTEX
  5
84
330
60
100
AcDbEntity
  8
0
 62
     0
370
     5
100
AcDbVertex
100
AcDbPolygonMeshVertex
 10
218217.8826969503
 20
137052.1933379234
 30
-2.0
 70
    64
  0
VERTEX
  5
85
330
60
100
AcDbEntity
  8
0
 62
     0
370
     5
100
AcDbVertex
100
AcDbPolygonMeshVertex
 10
218239.2826969502
 20
137052.1933379234
 30
-2.0
 70
    64
  0
VERTEX
  5
86
330
60
100
AcDbEntity
  8
0
 62
     0
370
     5
100
AcDbVertex
100
AcDbPolygonMeshVertex
 10
218260.6826969502
 20
137052.1933379234
 30
-2.0
 70
    64
  0
VERTEX
  5
87
330
60
100
AcDbEntity
  8
0
 62
     0
370
     5
100
AcDbVertex
100
AcDbPolygonMeshVertex
 10
218282.0826969502
 20
137052.1933379234
 30
-2.0
 70
    64
  0
VERTEX
  5
88
330
60
100
AcDbEntity
  8
0
 62
     0
370
     5
100
AcDbVertex
100
AcDbPolygonMeshVertex
 10
218303.4826969502
 20
137052.1933379234
 30
-2.0
 70
    64
  0
VERTEX
  5
89
330
60
100
AcDbEntity
  8
0
 62
     0
370
     5
100
AcDbVertex
100
AcDbPolygonMeshVertex
 10
218324.8826969502
 20
137052.1933379234
 30
-2.0
 70
    64
  0
VERTEX
  5
8A
330
60
100
AcDbEntity
  8
0
 62
     0
370
     5
100
AcDbVertex
100
AcDbPolygonMeshVertex
 10
217683.8826969502
 20
136777.1933379234
 30
-47.0
 70
    64
  0
VERTEX
  5
8B
330
60
100
AcDbEntity
  8
0
 62
     0
370
     5
100
AcDbVertex
100
AcDbPolygonMeshVertex
 10
217683.8826969502
 20
136801.5933379234
 30
-47.0
 70
    64
  0
VERTEX
  5
8C
330
60
100
AcDbEntity
  8
0
 62
     0
370
     5
100
AcDbVertex
100
AcDbPolygonMeshVertex
 10
217683.8826969502
 20
136825.9933379234
 30
-47.0
 70
    64
  0
VERTEX
  5
8D
330
60
100
AcDbEntity
  8
0
 62
     0
370
     5
100
AcDbVertex
100
AcDbPolygonMeshVertex
 10
217683.8826969502
 20
136850.3933379234
 30
-47.0
 70
    64
  0
VERTEX
  5
8E
330
60
100
AcDbEntity
  8
0
 62
     0
370
     5
100
AcDbVertex
100
AcDbPolygonMeshVertex
 10
217683.8826969502
 20
136874.7933379234
 30
-47.0
 70
    64
  0
VERTEX
  5
8F
330
60
100
AcDbEntity
  8
0
 62
     0
370
     5
100
AcDbVertex
100
AcDbPolygonMeshVertex
 10
217683.8826969502
 20
136899.1933379234
 30
-47.0
 70
    64
  0
VERTEX
  5
90
330
60
100
AcDbEntity
  8
0
 62
     0
370
     5
100
AcDbVertex
100
AcDbPolygonMeshVertex
 10
217683.8826969502
 20
136923.5933379234
 30
-47.0
 70
    64
  0
VERTEX
  5
91
330
60
100
AcDbEntity
  8
0
 62
     0
370
     5
100
AcDbVertex
100
AcDbPolygonMeshVertex
 10
217683.8826969502
 20
136947.9933379234
 30
-47.0
 70
    64
  0
VERTEX
  5
92
330
60
100
AcDbEntity
  8
0
 62
     0
370
     5
100
AcDbVertex
100
AcDbPolygonMeshVertex
 10
217683.8826969502
 20
136972.3933379234
 30
-47.0
 70
    64
  0
VERTEX
  5
93
330
60
100
AcDbEntity
  8
0
 62
     0
370
     5
100
AcDbVertex
100
AcDbPolygonMeshVertex
 10
217683.8826969502
 20
136996.7933379234
 30
-47.0
 70
    64
  0
VERTEX
  5
94
330
60
100
AcDbEntity
  8
0
 62
     0
370
     5
100
AcDbVertex
100
AcDbPolygonMeshVertex
 10
217683.8826969502
 20
137021.1933379234
 30
-47.0
 70
    64
  0
VERTEX
  5
95
330
60
100
AcDbEntity
  8
0
 62
     0
370
     5
100
AcDbVertex
100
AcDbPolygonMeshVertex
 10
217683.8826969502
 20
137045.5933379234
 30
-47.0
 70
    64
  0
VERTEX
  5
96
330
60
100
AcDbEntity
  8
0
 62
     0
370
     5
100
AcDbVertex
100
AcDbPolygonMeshVertex
 10
217683.8826969502
 20
137069.9933379234
 30
-47.0
 70
    64
  0
VERTEX
  5
97
330
60
100
AcDbEntity
  8
0
 62
     0
370
     5
100
AcDbVertex
100
AcDbPolygonMeshVertex
 10
217683.8826969502
 20
137094.3933379234
 30
-47.0
 70
    64
  0
VERTEX
  5
98
330
60
100
AcDbEntity
  8
0
 62
     0
370
     5
100
AcDbVertex
100
AcDbPolygonMeshVertex
 10
217690.4826969503
 20
137112.1933379234
 30
-47.0
 70
    64
  0
VERTEX
  5
99
330
60
100
AcDbEntity
  8
0
 62
     0
370
     5
100
AcDbVertex
100
AcDbPolygonMeshVertex
 10
217714.8826969502
 20
137112.1933379234
 30
-47.0
 70
    64
  0
VERTEX
  5
9A
330
60
100
AcDbEntity
  8
0
 62
     0
370
     5
100
AcDbVertex
100
AcDbPolygonMeshVertex
 10
217739.2826969502
 20
137112.1933379234
 30
-47.0
 70
    64
  0
VERTEX
  5
9B
330
60
100
AcDbEntity
  8
0
 62
     0
370
     5
100
AcDbVertex
100
AcDbPolygonMeshVertex
 10
217763.6826969502
 20
137112.1933379234
 30
-47.0
 70
    64
  0
VERTEX
  5
9C
330
60
100
AcDbEntity
  8
0
 62
     0
370
     5
100
AcDbVertex
100
AcDbPolygonMeshVertex
 10
217788.0826969502
 20
137112.1933379234
 30
-47.0
 70
    64
  0
VERTEX
  5
9D
330
60
100
AcDbEntity
  8
0
 62
     0
370
     5
100
AcDbVertex
100
AcDbPolygonMeshVertex
 10
217812.4826969503
 20
137112.1933379234
 30
-47.0
 70
    64
  0
VERTEX
  5
9E
330
60
100
AcDbEntity
  8
0
 62
     0
370
     5
100
AcDbVertex
100
AcDbPolygonMeshVertex
 10
217836.8826969502
 20
137112.1933379234
 30
-47.0
 70
    64
  0
VERTEX
  5
9F
330
60
100
AcDbEntity
  8
0
 62
     0
370
     5
100
AcDbVertex
100
AcDbPolygonMeshVertex
 10
217861.2826969502
 20
137112.1933379234
 30
-47.0
 70
    64
  0
VERTEX
  5
A0
330
60
100
AcDbEntity
  8
0
 62
     0
370
     5
100
AcDbVertex
100
AcDbPolygonMeshVertex
 10
217885.6826969502
 20
137112.1933379234
 30
-47.0
 70
    64
  0
VERTEX
  5
A1
330
60
100
AcDbEntity
  8
0
 62
     0
370
     5
100
AcDbVertex
100
AcDbPolygonMeshVertex
 10
217910.0826969502
 20
137112.1933379234
 30
-47.0
 70
    64
  0
VERTEX
  5
A2
330
60
100
AcDbEntity
  8
0
 62
     0
370
     5
100
AcDbVertex
100
AcDbPolygonMeshVertex
 10
217934.4826969503
 20
137112.1933379234
 30
-47.0
 70
    64
  0
VERTEX
  5
A3
330
60
100
AcDbEntity
  8
0
 62
     0
370
     5
100
AcDbVertex
100
AcDbPolygonMeshVertex
 10
217958.8826969502
 20
137112.1933379234
 30
-47.0
 70
    64
  0
VERTEX
  5
A4
330
60
100
AcDbEntity
  8
0
 62
     0
370
     5
100
AcDbVertex
100
AcDbPolygonMeshVertex
 10
217983.2826969502
 20
137112.1933379234
 30
-47.0
 70
    64
  0
VERTEX
  5
A5
330
60
100
AcDbEntity
  8
0
 62
     0
370
     5
100
AcDbVertex
100
AcDbPolygonMeshVertex
 10
218007.6826969502
 20
137112.1933379234
 30
-47.0
 70
    64
  0
VERTEX
  5
A6
330
60
100
AcDbEntity
  8
0
 62
     0
370
     5
100
AcDbVertex
100
AcDbPolygonMeshVertex
 10
218032.0826969502
 20
137112.1933379234
 30
-47.0
 70
    64
  0
VERTEX
  5
A7
330
60
100
AcDbEntity
  8
0
 62
     0
370
     5
100
AcDbVertex
100
AcDbPolygonMeshVertex
 10
218056.4826969503
 20
137112.1933379234
 30
-47.0
 70
    64
  0
VERTEX
  5
A8
330
60
100
AcDbEntity
  8
0
 62
     0
370
     5
100
AcDbVertex
100
AcDbPolygonMeshVertex
 10
218080.8826969502
 20
137112.1933379234
 30
-47.0
 70
    64
  0
VERTEX
  5
A9
330
60
100
AcDbEntity
  8
0
 62
     0
370
     5
100
AcDbVertex
100
AcDbPolygonMeshVertex
 10
218105.2826969502
 20
137112.1933379234
 30
-47.0
 70
    64
  0
VERTEX
  5
AA
330
60
100
AcDbEntity
  8
0
 62
     0
370
     5
100
AcDbVertex
100
AcDbPolygonMeshVertex
 10
218129.6826969502
 20
137112.1933379234
 30
-47.0
 70
    64
  0
VERTEX
  5
AB
330
60
100
AcDbEntity
  8
0
 62
     0
370
     5
100
AcDbVertex
100
AcDbPolygonMeshVertex
 10
218154.0826969502
 20
137112.1933379234
 30
-47.0
 70
    64
  0
VERTEX
  5
AC
330
60
100
AcDbEntity
  8
0
 62
     0
370
     5
100
AcDbVertex
100
AcDbPolygonMeshVertex
 10
218178.4826969503
 20
137112.1933379234
 30
-47.0
 70
    64
  0
VERTEX
  5
AD
330
60
100
AcDbEntity
  8
0
 62
     0
370
     5
100
AcDbVertex
100
AcDbPolygonMeshVertex
 10
218202.8826969502
 20
137112.1933379234
 30
-47.0
 70
    64
  0
VERTEX
  5
AE
330
60
100
AcDbEntity
  8
0
 62
     0
370
     5
100
AcDbVertex
100
AcDbPolygonMeshVertex
 10
218227.2826969502
 20
137112.1933379234
 30
-47.0
 70
    64
  0
VERTEX
  5
AF
330
60
100
AcDbEntity
  8
0
 62
     0
370
     5
100
AcDbVertex
100
AcDbPolygonMeshVertex
 10
218251.6826969502
 20
137112.1933379234
 30
-47.0
 70
    64
  0
VERTEX
  5
B0
330
60
100
AcDbEntity
  8
0
 62
     0
370
     5
100
AcDbVertex
100
AcDbPolygonMeshVertex
 10
218276.0826969502
 20
137112.1933379234
 30
-47.0
 70
    64
  0
VERTEX
  5
B1
330
60
100
AcDbEntity
  8
0
 62
     0
370
     5
100
AcDbVertex
100
AcDbPolygonMeshVertex
 10
218300.4826969503
 20
137112.1933379234
 30
-47.0
 70
    64
  0
VERTEX
  5
B2
330
60
100
AcDbEntity
  8
0
 62
     0
370
     5
100
AcDbVertex
100
AcDbPolygonMeshVertex
 10
218324.8826969502
 20
137112.1933379234
 30
-47.0
 70
    64
  0
SEQEND
  5
B3
330
60
100
AcDbEntity
  8
0
 62
     0
370
     5
  0
LWPOLYLINE
  5
B4
330
2
100
AcDbEntity
  8
0
 62
     0
370
     5
100
AcDbPolyline
 90
        2
 70
     0
 43
0.0
 38
-47.0
 10
217783.8826969503
 20
136202.9566465918
 10
217783.8826969503
 20
136646.8534053797
  0
LINE
  5
B5
330
2
100
AcDbEntity
  8
0
  6
Continuous
 62
     0
370
     5
100
AcDbLine
 10
217743.8826969503
 20
137052.1933379234
 30
0.0
 11
218324.8826969502
 21
137052.1933379234
 31
0.0
  0
LINE
  5
B6
330
2
100
AcDbEntity
  8
0
  6
Continuous
 62
     0
370
     5
100
AcDbLine
 10
217843.8826969502
 20
136262.9566465918
 30
0.0
 11
218043.8826969503
 21
136262.9566465918
 31
0.0
  0
LINE
  5
B7
330
2
100
AcDbEntity
  8
0
  6
Continuous
 62
     0
370
     5
100
AcDbLine
 10
217743.8826969503
 20
136752.1933379234
 30
0.0
 11
217843.8826969502
 21
136752.1933379234
 31
0.0
  0
LINE
  5
B8
330
2
100
AcDbEntity
  8
0
  6
Continuous
 62
     0
370
     5
100
AcDbLine
 10
218264.8826969503
 20
136752.1933379234
 30
0.0
 11
218264.8826969503
 21
137052.1933379234
 31
0.0
  0
LINE
  5
B9
330
2
100
AcDbEntity
  8
0
  6
Continuous
 62
     0
370
     5
100
AcDbLine
 10
217813.8826969503
 20
136752.1933379234
 30
0.0
 11
217813.8826969503
 21
136646.8534053797
 31
0.0
  0
LINE
  5
BA
330
2
100
AcDbEntity
  8
0
  6
Continuous
 62
     0
370
     5
100
AcDbLine
 10
217843.8826969502
 20
136232.9566465918
 30
0.0
 11
218043.8826969503
 21
136232.9566465918
 31
0.0
  0
LINE
  5
BB
330
2
100
AcDbEntity
  8
0
  6
Continuous
 62
     0
370
     5
100
AcDbLine
 10
218294.8826969502
 20
136881.1933379234
 30
0.0
 11
218294.8826969502
 21
137052.1933379234
 31
0.0
  0
LINE
  5
BC
330
2
100
AcDbEntity
  8
0
  6
Continuous
 62
     0
370
     5
100
AcDbLine
 10
217743.8826969503
 20
137052.1933379234
 30
0.0
 11
217743.8826969503
 21
136752.1933379234
 31
0.0
  0
LINE
  5
BD
330
2
100
AcDbEntity
  8
0
  6
Continuous
 62
     0
370
     5
100
AcDbLine
 10
217783.8826969503
 20
136752.1933379234
 30
0.0
 11
217783.8826969503
 21
136646.8534053797
 31
0.0
  0
LINE
  5
BE
330
2
100
AcDbEntity
  8
0
  6
Continuous
 62
     0
370
     5
100
AcDbLine
 10
217783.8826969503
 20
136646.8534053797
 30
0.0
 11
217843.8826969502
 21
136646.8534053797
 31
0.0
  0
LINE
  5
BF
330
2
100
AcDbEntity
  8
0
  6
Continuous
 62
     0
370
     5
100
AcDbLine
 10
217843.8826969502
 20
136202.9566465918
 30
0.0
 11
217843.8826969502
 21
136752.1933379234
 31
0.0
  0
LINE
  5
C0
330
2
100
AcDbEntity
  8
0
  6
Continuous
 62
     0
370
     5
100
AcDbLine
 10
217843.8826969502
 20
136202.9566465918
 30
0.0
 11
218043.8826969503
 21
136202.9566465918
 31
0.0
  0
LINE
  5
C1
330
2
100
AcDbEntity
  8
0
  6
Continuous
 62
     0
370
     5
100
AcDbLine
 10
218324.8826969502
 20
136881.1933379234
 30
0.0
 11
218324.8826969502
 21
137052.1933379234
 31
0.0
  0
LINE
  5
C2
330
2
100
AcDbEntity
  8
0
  6
Continuous
 62
     0
370
     5
100
AcDbLine
 10
218449.314134279
 20
135920.4215176159
 30
0.0
 11
218449.314134279
 21
135770.4215176159
 31
0.0
  0
LINE
  5
C3
330
2
100
AcDbEntity
  8
0
  6
Continuous
 62
     0
370
     5
100
AcDbLine
 10
218449.314134279
 20
135770.4215176159
 30
0.0
 11
218677.2659994504
 21
135770.4215176159
 31
0.0
  0
LINE
  5
C4
330
2
100
AcDbEntity
  8
0
  6
Continuous
 62
     0
370
     5
100
AcDbLine
 10
218677.2659994504
 20
135770.4215176159
 30
0.0
 11
218677.2659994504
 21
135920.4215176159
 31
0.0
  0
LINE
  5
C5
330
2
100
AcDbEntity
  8
0
  6
Continuous
 62
     0
370
     5
100
AcDbLine
 10
218449.314134279
 20
135800.4215176159
 30
0.0
 11
218677.2659994504
 21
135800.4215176159
 31
0.0
  0
LINE
  5
C6
330
2
100
AcDbEntity
  8
0
  6
Continuous
 62
     0
370
     5
100
AcDbLine
 10
218449.314134279
 20
135830.4215176159
 30
0.0
 11
218677.2659994504
 21
135830.4215176159
 31
0.0
  0
LINE
  5
C7
330
2
100
AcDbEntity
  8
0
  6
Continuous
 62
     0
370
     5
100
AcDbLine
 10
218677.2659994504
 20
135920.4215176159
 30
0.0
 11
218449.314134279
 21
135920.4215176159
 31
0.0
  0
LINE
  5
C8
330
2
100
AcDbEntity
  8
0
  6
Continuous
 62
     0
370
     5
390
C9
100
AcDbLine
 10
217843.8826969502
 20
136752.1933379234
 30
0.0
 11
217843.8826969502
 21
136777.1933379234
 31
0.0
  0
LINE
  5
CA
330
2
100
AcDbEntity
  8
0
  6
Continuous
 62
     0
370
     5
390
C9
100
AcDbLine
 10
217843.8826969502
 20
136777.1933379234
 30
0.0
 11
217683.8826969502
 21
136777.1933379234
 31
0.0
  0
LINE
  5
CB
330
2
100
AcDbEntity
  8
0
  6
Continuous
 62
     0
370
     5
390
C9
100
AcDbLine
 10
217683.8826969502
 20
136777.1933379234
 30
0.0
 11
217683.8826969502
 21
136752.1933379234
 31
0.0
  0
LINE
  5
CC
330
2
100
AcDbEntity
  8
0
  6
Continuous
 62
     0
370
     5
390
C9
100
AcDbLine
 10
217683.8826969502
 20
136752.1933379234
 30
0.0
 11
217843.8826969502
 21
136752.1933379234
 31
0.0
  0
LINE
  5
CD
330
2
100
AcDbEntity
  8
0
  6
Continuous
 62
     0
370
     5
390
C9
100
AcDbLine
 10
218449.314134279
 20
135920.4215176159
 30
0.0
 11
218437.314134279
 21
135920.4215176159
 31
0.0
  0
LINE
  5
CE
330
2
100
AcDbEntity
  8
0
  6
Continuous
 62
     0
370
     5
390
C9
100
AcDbLine
 10
218437.314134279
 20
135920.4215176159
 30
0.0
 11
218437.314134279
 21
135770.4215176159
 31
0.0
  0
LINE
  5
CF
330
2
100
AcDbEntity
  8
0
  6
Continuous
 62
     0
370
     5
390
C9
100
AcDbLine
 10
218437.314134279
 20
135770.4215176159
 30
0.0
 11
218449.314134279
 21
135770.4215176159
 31
0.0
  0
LINE
  5
D0
330
2
100
AcDbEntity
  8
0
  6
Continuous
 62
     0
370
     5
390
C9
100
AcDbLine
 10
218449.314134279
 20
135770.4215176159
 30
0.0
 11
218449.314134279
 21
135920.4215176159
 31
0.0
  0
LINE
  5
D1
330
2
100
AcDbEntity
  8
0
  6
Continuous
 62
     0
370
     5
390
C9
100
AcDbLine
 10
218677.2659994504
 20
135770.4215176159
 30
0.0
 11
218689.2659994504
 21
135770.4215176159
 31
0.0
  0
LINE
  5
D2
330
2
100
AcDbEntity
  8
0
  6
Continuous
 62
     0
370
     5
390
C9
100
AcDbLine
 10
218689.2659994504
 20
135770.4215176159
 30
0.0
 11
218689.2634950927
 21
135881.2243499919
 31
0.0
  0
HATCH
  5
D3
330
2
100
AcDbEntity
  8
0
 62
     0
370
     5
100
AcDbHatch
 10
0.0
 20
0.0
 30
0.0
210
0.0
220
0.0
230
1.0
  2
SOLID
 70
     1
 71
     1
 91
        1
 92
        7
 72
     0
 73
     1
 93
        8
 10
218737.2226969502
 20
135980.4215176159
 10
218635.2226969502
 20
135980.4215176159
 10
218635.2226969502
 20
135920.4215176159
 10
218677.2659994504
 20
135920.4215176159
 10
218677.2659994504
 20
135881.2180940957
 10
218765.566555969
 20
135881.2641369645
 10
218765.5462136328
 20
135941.2641345141
 10
218737.2226969502
 20
135941.2493656834
 97
        8
330
EA
330
E8
330
E9
330
D4
330
DB
330
DD
330
DC
330
F2
 75
     0
 76
     1
 47
2.567217669073031
 98
        1
 10
218714.1080965046
 20
135954.7241401448
1001
ACAD
1010
0.0
1020
0.0
1030
0.0
  0
LINE
  5
D4
102
{ACAD_REACTORS
330
D3
102
}
330
2
100
AcDbEntity
  8
0
  6
Continuous
 62
     0
370
     5
390
C9
100
AcDbLine
 10
218677.2659994504
 20
135920.4215176159
 30
0.0
 11
218677.2659994504
 21
135770.4215176159
 31
0.0
  0
LINE
  5
D5
330
2
100
AcDbEntity
  8
0
  6
DASHED
 62
     0
370
     5
390
C9
100
AcDbLine
 10
218674.7875381213
 20
135920.4215176159
 30
0.0
 11
218488.314134279
 21
135920.4215176159
 31
0.0
  0
HATCH
  5
D7
330
2
100
AcDbEntity
  8
0
 62
     0
370
     5
100
AcDbHatch
 10
0.0
 20
0.0
 30
0.0
210
0.0
220
0.0
230
1.0
  2
SOLID
 70
     1
 71
     1
 91
        1
 92
        7
 72
     0
 73
     1
 93
       22
 10
218103.8826969502
 20
136692.1933379234
 10
218324.8826969502
 20
136692.1933379234
 10
218324.8826969502
 20
136821.1933379234
 10
218670.2226969503
 20
136821.1933379234
 10
218670.2226969503
 20
136692.1933379234
 10
219033.8826969503
 20
136692.1933379234
 10
219033.8826969501
 20
135941.4040541476
 10
219005.5352373357
 20
135941.3892728324
 10
219005.5665233419
 20
135881.3892809891
 10
219093.8826969502
 20
135881.4353320012
 10
219093.8826969503
 20
136111.3073339533
 10
219093.8826969503
 20
136752.1933379234
 10
218730.2226969503
 20
136752.1933379234
 10
218730.2226969503
 20
136842.1933379234
 10
218730.2226969502
 20
136881.1933379234
 10
218264.8826969503
 20
136881.1933379234
 10
218264.8826969502
 20
136752.1933379234
 10
218043.8826969503
 20
136752.1933379234
 10
218043.8826969503
 20
135920.4215176159
 10
218525.2226969502
 20
135920.4215176159
 10
218525.2226969502
 20
135980.4215176159
 10
218103.8826969503
 20
135980.4215176159
 97
       22
330
E2
330
F9
330
E6
330
F7
330
EF
330
DF
330
DA
330
D8
330
D9
330
E0
330
DE
330
EE
330
F5
330
ED
330
E5
330
F8
330
E1
330
E3
330
F3
330
EC
330
F4
330
E4
 75
     0
 76
     1
 47
2.567217669073031
 98
        1
 10
218069.2374847208
 20
136386.0167345281
1001
ACAD
1010
0.0
1020
0.0
1030
0.0
  0
LINE
  5
D8
102
{ACAD_REACTORS
330
D7
102
}
330
2
100
AcDbEntity
  8
0
  6
Continuous
 62
     0
370
     5
100
AcDbLine
 10
219005.5352373357
 20
135941.3892728324
 30
0.0
 11
219005.5665233419
 21
135881.3892809891
 31
0.0
  0
LINE
  5
D9
102
{ACAD_REACTORS
330
D7
102
}
330
2
100
AcDbEntity
  8
0
  6
Continuous
 62
     0
370
     5
100
AcDbLine
 10
219005.5665233419
 20
135881.3892809891
 30
0.0
 11
219093.8826969502
 21
135881.4353320013
 31
0.0
  0
LINE
  5
DA
102
{ACAD_REACTORS
330
D7
102
}
330
2
100
AcDbEntity
  8
0
  6
Continuous
 62
     0
370
     5
100
AcDbLine
 10
219005.5352373357
 20
135941.3892728324
 30
0.0
 11
219033.8826969502
 21
135941.4040541476
 31
0.0
  0
LINE
  5
DB
102
{ACAD_REACTORS
330
D3
102
}
330
2
100
AcDbEntity
  8
0
  6
Continuous
 62
     0
370
     5
100
AcDbLine
 10
218677.2226969502
 20
135881.2180715163
 30
0.0
 11
218765.566555969
 21
135881.2641369645
 31
0.0
  0
LINE
  5
DC
102
{ACAD_REACTORS
330
D3
102
}
330
2
100
AcDbEntity
  8
0
  6
Continuous
 62
     0
370
     5
100
AcDbLine
 10
218737.2226969502
 20
135941.2493656834
 30
0.0
 11
218765.5352699628
 21
135941.2641288077
 31
0.0
  0
LINE
  5
DD
102
{ACAD_REACTORS
330
D3
102
}
330
2
100
AcDbEntity
  8
0
  6
Continuous
 62
     0
370
     5
100
AcDbLine
 10
218765.566555969
 20
135881.2641369645
 30
0.0
 11
218765.546220065
 21
135941.2451626745
 31
0.0
  0
LINE
  5
DE
102
{ACAD_REACTORS
330
D7
102
}
330
2
100
AcDbEntity
  8
0
  6
Continuous
 62
     0
370
     5
100
AcDbLine
 10
219093.8826969502
 20
135881.4353320013
 30
0.0
 11
219093.8826969503
 21
136752.1933379234
 31
0.0
  0
LINE
  5
DF
102
{ACAD_REACTORS
330
D7
102
}
330
2
100
AcDbEntity
  8
0
  6
Continuous
 62
     0
370
     5
100
AcDbLine
 10
219033.8826969502
 20
135941.4040541476
 30
0.0
 11
219033.8826969503
 21
136692.1933379234
 31
0.0
  0
LINE
  5
E0
102
{ACAD_REACTORS
330
D7
102
}
330
2
100
AcDbEntity
  8
0
  6
Continuous
 62
     0
370
     5
100
AcDbLine
 10
219093.8826969503
 20
135881.4353320013
 30
0.0
 11
219093.8826969503
 21
136111.3073339533
 31
0.0
  0
LINE
  5
E1
102
{ACAD_REACTORS
330
D7
102
}
330
2
100
AcDbEntity
  8
0
  6
Continuous
 62
     0
370
     5
100
AcDbLine
 10
218043.8826969502
 20
136752.1933379234
 30
0.0
 11
218264.8826969503
 21
136752.1933379234
 31
0.0
  0
LINE
  5
E2
102
{ACAD_REACTORS
330
D7
102
}
330
2
100
AcDbEntity
  8
0
  6
Continuous
 62
     0
370
     5
100
AcDbLine
 10
218103.8826969502
 20
136692.1933379234
 30
0.0
 11
218324.8826969502
 21
136692.1933379234
 31
0.0
  0
LINE
  5
E3
102
{ACAD_REACTORS
330
D7
102
}
330
2
100
AcDbEntity
  8
0
  6
Continuous
 62
     0
370
     5
100
AcDbLine
 10
218043.8826969503
 20
135920.4215176159
 30
0.0
 11
218043.8826969502
 21
136752.1933379234
 31
0.0
  0
LINE
  5
E4
102
{ACAD_REACTORS
330
D7
102
}
330
2
100
AcDbEntity
  8
0
  6
Continuous
 62
     0
370
     5
100
AcDbLine
 10
218103.8826969503
 20
135980.4215176159
 30
0.0
 11
218103.8826969502
 21
136692.1933379234
 31
0.0
  0
LINE
  5
E5
102
{ACAD_REACTORS
330
D7
102
}
330
2
100
AcDbEntity
  8
0
  6
Continuous
 62
     0
370
     5
100
AcDbLine
 10
218730.2226969503
 20
136881.1933379234
 30
0.0
 11
218264.8826969503
 21
136881.1933379234
 31
0.0
  0
LINE
  5
E6
102
{ACAD_REACTORS
330
D7
102
}
330
2
100
AcDbEntity
  8
0
  6
Continuous
 62
     0
370
     5
100
AcDbLine
 10
218670.2226969503
 20
136821.1933379234
 30
0.0
 11
218324.8826969502
 21
136821.1933379234
 31
0.0
  0
LINE
  5
E7
330
2
100
AcDbEntity
  8
0
  6
Continuous
 62
     0
370
     5
100
AcDbLine
 10
219093.8826969503
 20
136752.1933379234
 30
0.0
 11
219026.0826969502
 21
136752.1933379234
 31
0.0
  0
LINE
  5
E8
102
{ACAD_REACTORS
330
D3
102
}
330
2
100
AcDbEntity
  8
0
  6
Continuous
 62
     0
370
     5
100
AcDbLine
 10
218635.2226969502
 20
135980.4215176159
 30
0.0
 11
218635.2226969502
 21
135920.4215176159
 31
0.0
  0
LINE
  5
E9
102
{ACAD_REACTORS
330
D3
102
}
330
2
100
AcDbEntity
  8
0
  6
Continuous
 62
     0
370
     5
100
AcDbLine
 10
218635.2226969502
 20
135920.4215176159
 30
0.0
 11
218677.2659994504
 21
135920.4215176159
 31
0.0
  0
LINE
  5
EA
102
{ACAD_REACTORS
330
D3
102
}
330
2
100
AcDbEntity
  8
0
  6
Continuous
 62
     0
370
     5
100
AcDbLine
 10
218635.2226969502
 20
135980.4215176159
 30
0.0
 11
218737.2226969502
 21
135980.4215176159
 31
0.0
  0
LINE
  5
EB
330
2
100
AcDbEntity
  8
0
  6
Continuous
 62
     0
370
     5
100
AcDbLine
 10
218437.314134279
 20
135920.4215176159
 30
0.0
 11
218525.2226969502
 21
135920.4215176159
 31
0.0
  0
LINE
  5
EC
102
{ACAD_REACTORS
330
D7
102
}
330
2
100
AcDbEntity
  8
0
  6
Continuous
 62
     0
370
     5
100
AcDbLine
 10
218525.2226969502
 20
135920.4215176159
 30
0.0
 11
218525.2226969502
 21
135980.4215176159
 31
0.0
  0
LINE
  5
ED
102
{ACAD_REACTORS
330
D7
102
}
330
2
100
AcDbEntity
  8
0
  6
Continuous
 62
     0
370
     5
100
AcDbLine
 10
218730.2226969503
 20
136752.1933379234
 30
0.0
 11
218730.2226969503
 21
136881.1933379234
 31
0.0
  0
LINE
  5
EE
102
{ACAD_REACTORS
330
D7
102
}
330
2
100
AcDbEntity
  8
0
  6
Continuous
 62
     0
370
     5
100
AcDbLine
 10
218730.2226969503
 20
136752.1933379234
 30
0.0
 11
219093.8826969503
 21
136752.1933379234
 31
0.0
  0
LINE
  5
EF
102
{ACAD_REACTORS
330
D7
102
}
330
2
100
AcDbEntity
  8
0
  6
Continuous
 62
     0
370
     5
100
AcDbLine
 10
218670.2226969503
 20
136692.1933379234
 30
0.0
 11
219033.8826969503
 21
136692.1933379234
 31
0.0
  0
LINE
  5
F0
330
2
100
AcDbEntity
  8
0
  6
DASHED
 62
     0
370
     5
390
C9
100
AcDbLine
 10
218730.2226969503
 20
136752.1933379234
 30
0.0
 11
218730.2226969503
 21
136842.1933379234
 31
0.0
  0
LINE
  5
F1
330
2
100
AcDbEntity
  8
0
  6
Continuous
 62
     0
370
     5
100
AcDbLine
 10
218677.2226969502
 20
135920.4215176159
 30
0.0
 11
218677.2226969502
 21
135881.2180715163
 31
0.0
  0
LINE
  5
F2
102
{ACAD_REACTORS
330
D3
102
}
330
2
100
AcDbEntity
  8
0
  6
Continuous
 62
     0
370
     5
100
AcDbLine
 10
218737.2226969502
 20
135980.4215176159
 30
0.0
 11
218737.2226969502
 21
135941.2493656834
 31
0.0
  0
LINE
  5
F3
102
{ACAD_REACTORS
330
D7
102
}
330
2
100
AcDbEntity
  8
0
  6
Continuous
 62
     0
370
     5
100
AcDbLine
 10
218043.8826969503
 20
135920.4215176159
 30
0.0
 11
218525.2226969502
 21
135920.4215176159
 31
0.0
  0
LINE
  5
F4
102
{ACAD_REACTORS
330
D7
102
}
330
2
100
AcDbEntity
  8
0
  6
Continuous
 62
     0
370
     5
100
AcDbLine
 10
218103.8826969503
 20
135980.4215176159
 30
0.0
 11
218525.2226969502
 21
135980.4215176159
 31
0.0
  0
LINE
  5
F5
102
{ACAD_REACTORS
330
D7
102
}
330
2
100
AcDbEntity
  8
0
  6
Continuous
 62
     0
370
     5
390
F6
100
AcDbLine
 10
218730.2226969503
 20
136752.1933379234
 30
0.0
 11
218730.2226969503
 21
136842.1933379234
 31
0.0
  0
LINE
  5
F7
102
{ACAD_REACTORS
330
D7
102
}
330
2
100
AcDbEntity
  8
0
  6
Continuous
 62
     0
370
     5
390
F6
100
AcDbLine
 10
218670.2226969503
 20
136692.1933379234
 30
0.0
 11
218670.2226969503
 21
136821.1933379234
 31
0.0
  0
LINE
  5
F8
102
{ACAD_REACTORS
330
D7
102
}
330
2
100
AcDbEntity
  8
0
  6
Continuous
 62
     0
370
     5
100
AcDbLine
 10
218264.8826969503
 20
136881.1933379234
 30
0.0
 11
218264.8826969503
 21
136752.1933379234
 31
0.0
  0
LINE
  5
F9
102
{ACAD_REACTORS
330
D7
102
}
330
2
100
AcDbEntity
  8
0
  6
Continuous
 62
     0
370
     5
100
AcDbLine
 10
218324.8826969502
 20
136821.1933379234
 30
0.0
 11
218324.8826969502
 21
136692.1933379234
 31
0.0
  0
LINE
  5
FA
330
2
100
AcDbEntity
  8
0
 62
     0
370
     5
100
AcDbLine
 10
218765.546220065
 20
135941.2451626745
 30
0.0
 11
219005.5352472283
 21
135941.3703009945
 31
0.0
  0
LINE
  5
FB
330
2
100
AcDbEntity
  8
0
 62
     0
370
     5
100
AcDbLine
 10
218765.566555969
 20
135881.2641369645
 30
0.0
 11
219005.7832791508
 21
135881.2641369645
 31
0.0
  0
LINE
  5
FC
330
2
100
AcDbEntity
  8
0
 62
     0
370
     5
100
AcDbLine
 10
218525.2226969502
 20
135980.4215176159
 30
0.0
 11
218635.2226969502
 21
135980.421517616
 31
0.0
  0
DIMENSION
  5
FD
330
2
100
AcDbEntity
  8
0Wymiary-PL
100
AcDbDimension
  2
*D3
 10
218677.2659994504
 20
135579.4521771783
 30
0.0
 11
218360.5743482003
 21
135659.4521771783
 31
0.0
  1
634
 71
     5
 42
633.3833025001513
  3
500
100
AcDbAlignedDimension
 13
218043.8826969503
 23
135920.4215176159
 33
0.0
 14
218677.2659994504
 24
135920.4215176159
 34
0.0
100
AcDbRotatedDimension
  0
DIMENSION
  5
116
330
2
100
AcDbEntity
  8
0Wymiary-PL
100
AcDbDimension
  2
*D4
 10
219093.8826969503
 20
135579.4521771783
 30
0.0
 11
218885.5743482003
 21
135659.4521771783
 31
0.0
  1
416
 71
     5
 42
416.6166974998486
  3
500
100
AcDbAlignedDimension
 13
218677.2659994504
 23
135920.4215176159
 33
0.0
 14
219093.8826969503
 24
135881.4353320013
 34
0.0
100
AcDbRotatedDimension
  0
DIMENSION
  5
121
330
2
100
AcDbEntity
  8
0Wymiary-PL
100
AcDbDimension
  2
*D5
 10
219093.8826969503
 20
135404.5923727044
 30
0.0
 11
218568.8826969502
 21
135484.5923727044
 31
0.0
 71
     5
 42
1049.999999999971
  3
500
100
AcDbAlignedDimension
 13
218043.8826969503
 23
135920.4215176159
 33
0.0
 14
219093.8826969503
 24
135920.4215176159
 34
0.0
100
AcDbRotatedDimension
  0
DIMENSION
  5
12C
330
2
100
AcDbEntity
  8
0Wymiary-PL
100
AcDbDimension
  2
*D6
 10
219280.6307860397
 20
136752.1933379234
 30
0.0
 11
219200.6307860397
 21
136316.8143349624
 31
0.0
 71
     5
 42
870.7580059221072
  3
500
100
AcDbAlignedDimension
 13
219093.8826969502
 23
135881.4353320013
 33
0.0
 14
219093.8826969503
 24
136752.1933379234
 34
0.0
 50
90.0
100
AcDbRotatedDimension
  0
DIMENSION
  5
137
330
2
100
AcDbEntity
  8
0Wymiary-PL
100
AcDbDimension
  2
*D7
 10
219280.6307860397
 20
136881.1933379234
 30
0.0
 11
219200.6307860397
 21
136816.6933379234
 31
0.0
 71
     5
 42
129.0
  3
500
100
AcDbAlignedDimension
 13
219093.8826969503
 23
136752.1933379234
 33
0.0
 14
218730.2226969503
 24
136881.1933379234
 34
0.0
 50
90.0
100
AcDbRotatedDimension
  0
DIMENSION
  5
144
330
2
100
AcDbEntity
  8
0Wymiary-PL
100
AcDbDimension
  2
*D8
 10
219442.5034812701
 20
136881.1933379234
 30
0.0
 11
219362.5034812701
 21
136381.228737444
 31
0.0
 71
     5
 42
999.929200958868
  3
500
100
AcDbAlignedDimension
 13
218914.1026791638
 23
135881.2641369645
 33
0.0
 14
218497.5526969502
 24
136881.1933379234
 34
0.0
 50
90.0
100
AcDbRotatedDimension
  0
LWPOLYLINE
  5
14F
330
2
100
AcDbEntity
  8
0
 62
     0
370
     5
100
AcDbPolyline
 90
        3
 70
     0
 43
0.0
 38
-2.0
 10
223055.8957927948
 20
136777.1933379234
 10
223055.8957927948
 20
137052.1933379234
 10
222474.8957927948
 20
137052.1933379234
  0
LWPOLYLINE
  5
150
330
2
100
AcDbEntity
  8
0
 62
     0
370
     5
100
AcDbPolyline
 90
        3
 70
     0
 43
0.0
 38
-47.0
 10
223115.8957927949
 20
136777.1933379234
 10
223115.8957927949
 20
137112.1933379234
 10
222474.8957927948
 20
137112.1933379234
  0
LWPOLYLINE
  5
151
330
2
100
AcDbEntity
  8
0
 62
     0
370
     5
100
AcDbPolyline
 90
        2
 70
     0
 43
0.0
 38
-2.0
 10
222955.8957927948
 20
136202.9566465918
 10
222955.8957927948
 20
136646.8534053797
  0
POLYLINE
  5
152
330
2
100
AcDbEntity
  8
0
 62
     0
370
     5
100
AcDbPolygonMesh
 66
     1
 10
0.0
 20
0.0
 30
0.0
 70
    16
 71
     2
 72
    26
  0
VERTEX
  5
153
330
152
100
AcDbEntity
  8
0
 62
     0
370
     5
100
AcDbVertex
100
AcDbPolygonMeshVertex
 10
222955.8957927948
 20
136202.9566465918
 30
-2.0
 70
    64
  0
VERTEX
  5
154
330
152
100
AcDbEntity
  8
0
 62
     0
370
     5
100
AcDbVertex
100
AcDbPolygonMeshVertex
 10
222955.8957927948
 20
136220.7125169433
 30
-2.0
 70
    64
  0
VERTEX
  5
155
330
152
100
AcDbEntity
  8
0
 62
     0
370
     5
100
AcDbVertex
100
AcDbPolygonMeshVertex
 10
222955.8957927948
 20
136238.4683872948
 30
-2.0
 70
    64
  0
VERTEX
  5
156
330
152
100
AcDbEntity
  8
0
 62
     0
370
     5
100
AcDbVertex
100
AcDbPolygonMeshVertex
 10
222955.8957927948
 20
136256.2242576463
 30
-2.0
 70
    64
  0
VERTEX
  5
157
330
152
100
AcDbEntity
  8
0
 62
     0
370
     5
100
AcDbVertex
100
AcDbPolygonMeshVertex
 10
222955.8957927948
 20
136273.9801279978
 30
-2.0
 70
    64
  0
VERTEX
  5
158
330
152
100
AcDbEntity
  8
0
 62
     0
370
     5
100
AcDbVertex
100
AcDbPolygonMeshVertex
 10
222955.8957927948
 20
136291.7359983494
 30
-2.0
 70
    64
  0
VERTEX
  5
159
330
152
100
AcDbEntity
  8
0
 62
     0
370
     5
100
AcDbVertex
100
AcDbPolygonMeshVertex
 10
222955.8957927948
 20
136309.4918687009
 30
-2.0
 70
    64
  0
VERTEX
  5
15A
330
152
100
AcDbEntity
  8
0
 62
     0
370
     5
100
AcDbVertex
100
AcDbPolygonMeshVertex
 10
222955.8957927948
 20
136327.2477390524
 30
-2.0
 70
    64
  0
VERTEX
  5
15B
330
152
100
AcDbEntity
  8
0
 62
     0
370
     5
100
AcDbVertex
100
AcDbPolygonMeshVertex
 10
222955.8957927948
 20
136345.0036094039
 30
-2.0
 70
    64
  0
VERTEX
  5
15C
330
152
100
AcDbEntity
  8
0
 62
     0
370
     5
100
AcDbVertex
100
AcDbPolygonMeshVertex
 10
222955.8957927948
 20
136362.7594797554
 30
-2.0
 70
    64
  0
VERTEX
  5
15D
330
152
100
AcDbEntity
  8
0
 62
     0
370
     5
100
AcDbVertex
100
AcDbPolygonMeshVertex
 10
222955.8957927948
 20
136380.515350107
 30
-2.0
 70
    64
  0
VERTEX
  5
15E
330
152
100
AcDbEntity
  8
0
 62
     0
370
     5
100
AcDbVertex
100
AcDbPolygonMeshVertex
 10
222955.8957927948
 20
136398.2712204585
 30
-2.0
 70
    64
  0
VERTEX
  5
15F
330
152
100
AcDbEntity
  8
0
 62
     0
370
     5
100
AcDbVertex
100
AcDbPolygonMeshVertex
 10
222955.8957927948
 20
136416.02709081
 30
-2.0
 70
    64
  0
VERTEX
  5
160
330
152
100
AcDbEntity
  8
0
 62
     0
370
     5
100
AcDbVertex
100
AcDbPolygonMeshVertex
 10
222955.8957927948
 20
136433.7829611615
 30
-2.0
 70
    64
  0
VERTEX
  5
161
330
152
100
AcDbEntity
  8
0
 62
     0
370
     5
100
AcDbVertex
100
AcDbPolygonMeshVertex
 10
222955.8957927948
 20
136451.538831513
 30
-2.0
 70
    64
  0
VERTEX
  5
162
330
152
100
AcDbEntity
  8
0
 62
     0
370
     5
100
AcDbVertex
100
AcDbPolygonMeshVertex
 10
222955.8957927948
 20
136469.2947018645
 30
-2.0
 70
    64
  0
VERTEX
  5
163
330
152
100
AcDbEntity
  8
0
 62
     0
370
     5
100
AcDbVertex
100
AcDbPolygonMeshVertex
 10
222955.8957927948
 20
136487.050572216
 30
-2.0
 70
    64
  0
VERTEX
  5
164
330
152
100
AcDbEntity
  8
0
 62
     0
370
     5
100
AcDbVertex
100
AcDbPolygonMeshVertex
 10
222955.8957927948
 20
136504.8064425676
 30
-2.0
 70
    64
  0
VERTEX
  5
165
330
152
100
AcDbEntity
  8
0
 62
     0
370
     5
100
AcDbVertex
100
AcDbPolygonMeshVertex
 10
222955.8957927948
 20
136522.5623129191
 30
-2.0
 70
    64
  0
VERTEX
  5
166
330
152
100
AcDbEntity
  8
0
 62
     0
370
     5
100
AcDbVertex
100
AcDbPolygonMeshVertex
 10
222955.8957927948
 20
136540.3181832706
 30
-2.0
 70
    64
  0
VERTEX
  5
167
330
152
100
AcDbEntity
  8
0
 62
     0
370
     5
100
AcDbVertex
100
AcDbPolygonMeshVertex
 10
222955.8957927948
 20
136558.0740536221
 30
-2.0
 70
    64
  0
VERTEX
  5
168
330
152
100
AcDbEntity
  8
0
 62
     0
370
     5
100
AcDbVertex
100
AcDbPolygonMeshVertex
 10
222955.8957927948
 20
136575.8299239736
 30
-2.0
 70
    64
  0
VERTEX
  5
169
330
152
100
AcDbEntity
  8
0
 62
     0
370
     5
100
AcDbVertex
100
AcDbPolygonMeshVertex
 10
222955.8957927948
 20
136593.5857943252
 30
-2.0
 70
    64
  0
VERTEX
  5
16A
330
152
100
AcDbEntity
  8
0
 62
     0
370
     5
100
AcDbVertex
100
AcDbPolygonMeshVertex
 10
222955.8957927948
 20
136611.3416646766
 30
-2.0
 70
    64
  0
VERTEX
  5
16B
330
152
100
AcDbEntity
  8
0
 62
     0
370
     5
100
AcDbVertex
100
AcDbPolygonMeshVertex
 10
222955.8957927948
 20
136629.0975350282
 30
-2.0
 70
    64
  0
VERTEX
  5
16C
330
152
100
AcDbEntity
  8
0
 62
     0
370
     5
100
AcDbVertex
100
AcDbPolygonMeshVertex
 10
222955.8957927948
 20
136646.8534053797
 30
-2.0
 70
    64
  0
VERTEX
  5
16D
330
152
100
AcDbEntity
  8
0
 62
     0
370
     5
100
AcDbVertex
100
AcDbPolygonMeshVertex
 10
223015.8957927948
 20
136202.9566465918
 30
-47.0
 70
    64
  0
VERTEX
  5
16E
330
152
100
AcDbEntity
  8
0
 62
     0
370
     5
100
AcDbVertex
100
AcDbPolygonMeshVertex
 10
223015.8957927948
 20
136220.7125169433
 30
-47.0
 70
    64
  0
VERTEX
  5
16F
330
152
100
AcDbEntity
  8
0
 62
     0
370
     5
100
AcDbVertex
100
AcDbPolygonMeshVertex
 10
223015.8957927948
 20
136238.4683872948
 30
-47.0
 70
    64
  0
VERTEX
  5
170
330
152
100
AcDbEntity
  8
0
 62
     0
370
     5
100
AcDbVertex
100
AcDbPolygonMeshVertex
 10
223015.8957927948
 20
136256.2242576463
 30
-47.0
 70
    64
  0
VERTEX
  5
171
330
152
100
AcDbEntity
  8
0
 62
     0
370
     5
100
AcDbVertex
100
AcDbPolygonMeshVertex
 10
223015.8957927948
 20
136273.9801279978
 30
-47.0
 70
    64
  0
VERTEX
  5
172
330
152
100
AcDbEntity
  8
0
 62
     0
370
     5
100
AcDbVertex
100
AcDbPolygonMeshVertex
 10
223015.8957927948
 20
136291.7359983494
 30
-47.0
 70
    64
  0
VERTEX
  5
173
330
152
100
AcDbEntity
  8
0
 62
     0
370
     5
100
AcDbVertex
100
AcDbPolygonMeshVertex
 10
223015.8957927948
 20
136309.4918687009
 30
-47.0
 70
    64
  0
VERTEX
  5
174
330
152
100
AcDbEntity
  8
0
 62
     0
370
     5
100
AcDbVertex
100
AcDbPolygonMeshVertex
 10
223015.8957927948
 20
136327.2477390524
 30
-47.0
 70
    64
  0
VERTEX
  5
175
330
152
100
AcDbEntity
  8
0
 62
     0
370
     5
100
AcDbVertex
100
AcDbPolygonMeshVertex
 10
223015.8957927948
 20
136345.0036094039
 30
-47.0
 70
    64
  0
VERTEX
  5
176
330
152
100
AcDbEntity
  8
0
 62
     0
370
     5
100
AcDbVertex
100
AcDbPolygonMeshVertex
 10
223015.8957927948
 20
136362.7594797554
 30
-47.0
 70
    64
  0
VERTEX
  5
177
330
152
100
AcDbEntity
  8
0
 62
     0
370
     5
100
AcDbVertex
100
AcDbPolygonMeshVertex
 10
223015.8957927948
 20
136380.515350107
 30
-47.0
 70
    64
  0
VERTEX
  5
178
330
152
100
AcDbEntity
  8
0
 62
     0
370
     5
100
AcDbVertex
100
AcDbPolygonMeshVertex
 10
223015.8957927948
 20
136398.2712204585
 30
-47.0
 70
    64
  0
VERTEX
  5
179
330
152
100
AcDbEntity
  8
0
 62
     0
370
     5
100
AcDbVertex
100
AcDbPolygonMeshVertex
 10
223015.8957927948
 20
136416.02709081
 30
-47.0
 70
    64
  0
VERTEX
  5
17A
330
152
100
AcDbEntity
  8
0
 62
     0
370
     5
100
AcDbVertex
100
AcDbPolygonMeshVertex
 10
223015.8957927948
 20
136433.7829611615
 30
-47.0
 70
    64
  0
VERTEX
  5
17B
330
152
100
AcDbEntity
  8
0
 62
     0
370
     5
100
AcDbVertex
100
AcDbPolygonMeshVertex
 10
223015.8957927948
 20
136451.538831513
 30
-47.0
 70
    64
  0
VERTEX
  5
17C
330
152
100
AcDbEntity
  8
0
 62
     0
370
     5
100
AcDbVertex
100
AcDbPolygonMeshVertex
 10
223015.8957927948
 20
136469.2947018645
 30
-47.0
 70
    64
  0
VERTEX
  5
17D
330
152
100
AcDbEntity
  8
0
 62
     0
370
     5
100
AcDbVertex
100
AcDbPolygonMeshVertex
 10
223015.8957927948
 20
136487.050572216
 30
-47.0
 70
    64
  0
VERTEX
  5
17E
330
152
100
AcDbEntity
  8
0
 62
     0
370
     5
100
AcDbVertex
100
AcDbPolygonMeshVertex
 10
223015.8957927948
 20
136504.8064425676
 30
-47.0
 70
    64
  0
VERTEX
  5
17F
330
152
100
AcDbEntity
  8
0
 62
     0
370
     5
100
AcDbVertex
100
AcDbPolygonMeshVertex
 10
223015.8957927948
 20
136522.5623129191
 30
-47.0
 70
    64
  0
VERTEX
  5
180
330
152
100
AcDbEntity
  8
0
 62
     0
370
     5
100
AcDbVertex
100
AcDbPolygonMeshVertex
 10
223015.8957927948
 20
136540.3181832706
 30
-47.0
 70
    64
  0
VERTEX
  5
181
330
152
100
AcDbEntity
  8
0
 62
     0
370
     5
100
AcDbVertex
100
AcDbPolygonMeshVertex
 10
223015.8957927948
 20
136558.0740536221
 30
-47.0
 70
    64
  0
VERTEX
  5
182
330
152
100
AcDbEntity
  8
0
 62
     0
370
     5
100
AcDbVertex
100
AcDbPolygonMeshVertex
 10
223015.8957927948
 20
136575.8299239736
 30
-47.0
 70
    64
  0
VERTEX
  5
183
330
152
100
AcDbEntity
  8
0
 62
     0
370
     5
100
AcDbVertex
100
AcDbPolygonMeshVertex
 10
223015.8957927948
 20
136593.5857943252
 30
-47.0
 70
    64
  0
VERTEX
  5
184
330
152
100
AcDbEntity
  8
0
 62
     0
370
     5
100
AcDbVertex
100
AcDbPolygonMeshVertex
 10
223015.8957927948
 20
136611.3416646766
 30
-47.0
 70
    64
  0
VERTEX
  5
185
330
152
100
AcDbEntity
  8
0
 62
     0
370
     5
100
AcDbVertex
100
AcDbPolygonMeshVertex
 10
223015.8957927948
 20
136629.0975350282
 30
-47.0
 70
    64
  0
VERTEX
  5
186
330
152
100
AcDbEntity
  8
0
 62
     0
370
     5
100
AcDbVertex
100
AcDbPolygonMeshVertex
 10
223015.8957927948
 20
136646.8534053797
 30
-47.0
 70
    64
  0
SEQEND
  5
187
330
152
100
AcDbEntity
  8
0
 62
     0
370
     5
  0
POLYLINE
  5
188
330
2
100
AcDbEntity
  8
0
 62
     0
370
     5
100
AcDbPolygonMesh
 66
     1
 10
0.0
 20
0.0
 30
0.0
 70
    16
 71
     2
 72
    41
  0
VERTEX
  5
189
330
188
100
AcDbEntity
  8
0
 62
     0
370
     5
100
AcDbVertex
100
AcDbPolygonMeshVertex
 10
222474.8957927948
 20
137052.1933379234
 30
-2.0
 70
    64
  0
VERTEX
  5
18A
330
188
100
AcDbEntity
  8
0
 62
     0
370
     5
100
AcDbVertex
100
AcDbPolygonMeshVertex
 10
222496.2957927948
 20
137052.1933379234
 30
-2.0
 70
    64
  0
VERTEX
  5
18B
330
188
100
AcDbEntity
  8
0
 62
     0
370
     5
100
AcDbVertex
100
AcDbPolygonMeshVertex
 10
222517.6957927949
 20
137052.1933379234
 30
-2.0
 70
    64
  0
VERTEX
  5
18C
330
188
100
AcDbEntity
  8
0
 62
     0
370
     5
100
AcDbVertex
100
AcDbPolygonMeshVertex
 10
222539.0957927948
 20
137052.1933379234
 30
-2.0
 70
    64
  0
VERTEX
  5
18D
330
188
100
AcDbEntity
  8
0
 62
     0
370
     5
100
AcDbVertex
100
AcDbPolygonMeshVertex
 10
222560.4957927949
 20
137052.1933379234
 30
-2.0
 70
    64
  0
VERTEX
  5
18E
330
188
100
AcDbEntity
  8
0
 62
     0
370
     5
100
AcDbVertex
100
AcDbPolygonMeshVertex
 10
222581.8957927948
 20
137052.1933379234
 30
-2.0
 70
    64
  0
VERTEX
  5
18F
330
188
100
AcDbEntity
  8
0
 62
     0
370
     5
100
AcDbVertex
100
AcDbPolygonMeshVertex
 10
222603.2957927948
 20
137052.1933379234
 30
-2.0
 70
    64
  0
VERTEX
  5
190
330
188
100
AcDbEntity
  8
0
 62
     0
370
     5
100
AcDbVertex
100
AcDbPolygonMeshVertex
 10
222624.6957927949
 20
137052.1933379234
 30
-2.0
 70
    64
  0
VERTEX
  5
191
330
188
100
AcDbEntity
  8
0
 62
     0
370
     5
100
AcDbVertex
100
AcDbPolygonMeshVertex
 10
222646.0957927948
 20
137052.1933379234
 30
-2.0
 70
    64
  0
VERTEX
  5
192
330
188
100
AcDbEntity
  8
0
 62
     0
370
     5
100
AcDbVertex
100
AcDbPolygonMeshVertex
 10
222667.4957927949
 20
137052.1933379234
 30
-2.0
 70
    64
  0
VERTEX
  5
193
330
188
100
AcDbEntity
  8
0
 62
     0
370
     5
100
AcDbVertex
100
AcDbPolygonMeshVertex
 10
222688.8957927949
 20
137052.1933379234
 30
-2.0
 70
    64
  0
VERTEX
  5
194
330
188
100
AcDbEntity
  8
0
 62
     0
370
     5
100
AcDbVertex
100
AcDbPolygonMeshVertex
 10
222710.2957927948
 20
137052.1933379234
 30
-2.0
 70
    64
  0
VERTEX
  5
195
330
188
100
AcDbEntity
  8
0
 62
     0
370
     5
100
AcDbVertex
100
AcDbPolygonMeshVertex
 10
222731.6957927949
 20
137052.1933379234
 30
-2.0
 70
    64
  0
VERTEX
  5
196
330
188
100
AcDbEntity
  8
0
 62
     0
370
     5
100
AcDbVertex
100
AcDbPolygonMeshVertex
 10
222753.0957927948
 20
137052.1933379234
 30
-2.0
 70
    64
  0
VERTEX
  5
197
330
188
100
AcDbEntity
  8
0
 62
     0
370
     5
100
AcDbVertex
100
AcDbPolygonMeshVertex
 10
222774.4957927948
 20
137052.1933379234
 30
-2.0
 70
    64
  0
VERTEX
  5
198
330
188
100
AcDbEntity
  8
0
 62
     0
370
     5
100
AcDbVertex
100
AcDbPolygonMeshVertex
 10
222795.8957927949
 20
137052.1933379234
 30
-2.0
 70
    64
  0
VERTEX
  5
199
330
188
100
AcDbEntity
  8
0
 62
     0
370
     5
100
AcDbVertex
100
AcDbPolygonMeshVertex
 10
222817.2957927948
 20
137052.1933379234
 30
-2.0
 70
    64
  0
VERTEX
  5
19A
330
188
100
AcDbEntity
  8
0
 62
     0
370
     5
100
AcDbVertex
100
AcDbPolygonMeshVertex
 10
222838.6957927948
 20
137052.1933379234
 30
-2.0
 70
    64
  0
VERTEX
  5
19B
330
188
100
AcDbEntity
  8
0
 62
     0
370
     5
100
AcDbVertex
100
AcDbPolygonMeshVertex
 10
222860.0957927948
 20
137052.1933379234
 30
-2.0
 70
    64
  0
VERTEX
  5
19C
330
188
100
AcDbEntity
  8
0
 62
     0
370
     5
100
AcDbVertex
100
AcDbPolygonMeshVertex
 10
222881.4957927948
 20
137052.1933379234
 30
-2.0
 70
    64
  0
VERTEX
  5
19D
330
188
100
AcDbEntity
  8
0
 62
     0
370
     5
100
AcDbVertex
100
AcDbPolygonMeshVertex
 10
222902.8957927948
 20
137052.1933379234
 30
-2.0
 70
    64
  0
VERTEX
  5
19E
330
188
100
AcDbEntity
  8
0
 62
     0
370
     5
100
AcDbVertex
100
AcDbPolygonMeshVertex
 10
222924.2957927948
 20
137052.1933379234
 30
-2.0
 70
    64
  0
VERTEX
  5
19F
330
188
100
AcDbEntity
  8
0
 62
     0
370
     5
100
AcDbVertex
100
AcDbPolygonMeshVertex
 10
222945.6957927949
 20
137052.1933379234
 30
-2.0
 70
    64
  0
VERTEX
  5
1A0
330
188
100
AcDbEntity
  8
0
 62
     0
370
     5
100
AcDbVertex
100
AcDbPolygonMeshVertex
 10
222967.0957927949
 20
137052.1933379234
 30
-2.0
 70
    64
  0
VERTEX
  5
1A1
330
188
100
AcDbEntity
  8
0
 62
     0
370
     5
100
AcDbVertex
100
AcDbPolygonMeshVertex
 10
222988.4957927948
 20
137052.1933379234
 30
-2.0
 70
    64
  0
VERTEX
  5
1A2
330
188
100
AcDbEntity
  8
0
 62
     0
370
     5
100
AcDbVertex
100
AcDbPolygonMeshVertex
 10
223009.8957927948
 20
137052.1933379234
 30
-2.0
 70
    64
  0
VERTEX
  5
1A3
330
188
100
AcDbEntity
  8
0
 62
     0
370
     5
100
AcDbVertex
100
AcDbPolygonMeshVertex
 10
223031.2957927948
 20
137052.1933379234
 30
-2.0
 70
    64
  0
VERTEX
  5
1A4
330
188
100
AcDbEntity
  8
0
 62
     0
370
     5
100
AcDbVertex
100
AcDbPolygonMeshVertex
 10
223052.6957927949
 20
137052.1933379234
 30
-2.0
 70
    64
  0
VERTEX
  5
1A5
330
188
100
AcDbEntity
  8
0
 62
     0
370
     5
100
AcDbVertex
100
AcDbPolygonMeshVertex
 10
223055.8957927948
 20
137033.9933379234
 30
-2.0
 70
    64
  0
VERTEX
  5
1A6
330
188
100
AcDbEntity
  8
0
 62
     0
370
     5
100
AcDbVertex
100
AcDbPolygonMeshVertex
 10
223055.8957927948
 20
137012.5933379234
 30
-2.0
 70
    64
  0
VERTEX
  5
1A7
330
188
100
AcDbEntity
  8
0
 62
     0
370
     5
100
AcDbVertex
100
AcDbPolygonMeshVertex
 10
223055.8957927948
 20
136991.1933379234
 30
-2.0
 70
    64
  0
VERTEX
  5
1A8
330
188
100
AcDbEntity
  8
0
 62
     0
370
     5
100
AcDbVertex
100
AcDbPolygonMeshVertex
 10
223055.8957927948
 20
136969.7933379234
 30
-2.0
 70
    64
  0
VERTEX
  5
1A9
330
188
100
AcDbEntity
  8
0
 62
     0
370
     5
100
AcDbVertex
100
AcDbPolygonMeshVertex
 10
223055.8957927948
 20
136948.3933379234
 30
-2.0
 70
    64
  0
VERTEX
  5
1AA
330
188
100
AcDbEntity
  8
0
 62
     0
370
     5
100
AcDbVertex
100
AcDbPolygonMeshVertex
 10
223055.8957927948
 20
136926.9933379233
 30
-2.0
 70
    64
  0
VERTEX
  5
1AB
330
188
100
AcDbEntity
  8
0
 62
     0
370
     5
100
AcDbVertex
100
AcDbPolygonMeshVertex
 10
223055.8957927948
 20
136905.5933379234
 30
-2.0
 70
    64
  0
VERTEX
  5
1AC
330
188
100
AcDbEntity
  8
0
 62
     0
370
     5
100
AcDbVertex
100
AcDbPolygonMeshVertex
 10
223055.8957927948
 20
136884.1933379234
 30
-2.0
 70
    64
  0
VERTEX
  5
1AD
330
188
100
AcDbEntity
  8
0
 62
     0
370
     5
100
AcDbVertex
100
AcDbPolygonMeshVertex
 10
223055.8957927948
 20
136862.7933379234
 30
-2.0
 70
    64
  0
VERTEX
  5
1AE
330
188
100
AcDbEntity
  8
0
 62
     0
370
     5
100
AcDbVertex
100
AcDbPolygonMeshVertex
 10
223055.8957927948
 20
136841.3933379234
 30
-2.0
 70
    64
  0
VERTEX
  5
1AF
330
188
100
AcDbEntity
  8
0
 62
     0
370
     5
100
AcDbVertex
100
AcDbPolygonMeshVertex
 10
223055.8957927948
 20
136819.9933379234
 30
-2.0
 70
    64
  0
VERTEX
  5
1B0
330
188
100
AcDbEntity
  8
0
 62
     0
370
     5
100
AcDbVertex
100
AcDbPolygonMeshVertex
 10
223055.8957927948
 20
136798.5933379234
 30
-2.0
 70
    64
  0
VERTEX
  5
1B1
330
188
100
AcDbEntity
  8
0
 62
     0
370
     5
100
AcDbVertex
100
AcDbPolygonMeshVertex
 10
223055.8957927948
 20
136777.1933379234
 30
-2.0
 70
    64
  0
VERTEX
  5
1B2
330
188
100
AcDbEntity
  8
0
 62
     0
370
     5
100
AcDbVertex
100
AcDbPolygonMeshVertex
 10
222474.8957927948
 20
137112.1933379234
 30
-47.0
 70
    64
  0
VERTEX
  5
1B3
330
188
100
AcDbEntity
  8
0
 62
     0
370
     5
100
AcDbVertex
100
AcDbPolygonMeshVertex
 10
222499.2957927948
 20
137112.1933379234
 30
-47.0
 70
    64
  0
VERTEX
  5
1B4
330
188
100
AcDbEntity
  8
0
 62
     0
370
     5
100
AcDbVertex
100
AcDbPolygonMeshVertex
 10
222523.6957927949
 20
137112.1933379234
 30
-47.0
 70
    64
  0
VERTEX
  5
1B5
330
188
100
AcDbEntity
  8
0
 62
     0
370
     5
100
AcDbVertex
100
AcDbPolygonMeshVertex
 10
222548.0957927949
 20
137112.1933379234
 30
-47.0
 70
    64
  0
VERTEX
  5
1B6
330
188
100
AcDbEntity
  8
0
 62
     0
370
     5
100
AcDbVertex
100
AcDbPolygonMeshVertex
 10
222572.4957927948
 20
137112.1933379234
 30
-47.0
 70
    64
  0
VERTEX
  5
1B7
330
188
100
AcDbEntity
  8
0
 62
     0
370
     5
100
AcDbVertex
100
AcDbPolygonMeshVertex
 10
222596.8957927948
 20
137112.1933379234
 30
-47.0
 70
    64
  0
VERTEX
  5
1B8
330
188
100
AcDbEntity
  8
0
 62
     0
370
     5
100
AcDbVertex
100
AcDbPolygonMeshVertex
 10
222621.2957927948
 20
137112.1933379234
 30
-47.0
 70
    64
  0
VERTEX
  5
1B9
330
188
100
AcDbEntity
  8
0
 62
     0
370
     5
100
AcDbVertex
100
AcDbPolygonMeshVertex
 10
222645.6957927949
 20
137112.1933379234
 30
-47.0
 70
    64
  0
VERTEX
  5
1BA
330
188
100
AcDbEntity
  8
0
 62
     0
370
     5
100
AcDbVertex
100
AcDbPolygonMeshVertex
 10
222670.0957927949
 20
137112.1933379234
 30
-47.0
 70
    64
  0
VERTEX
  5
1BB
330
188
100
AcDbEntity
  8
0
 62
     0
370
     5
100
AcDbVertex
100
AcDbPolygonMeshVertex
 10
222694.4957927948
 20
137112.1933379234
 30
-47.0
 70
    64
  0
VERTEX
  5
1BC
330
188
100
AcDbEntity
  8
0
 62
     0
370
     5
100
AcDbVertex
100
AcDbPolygonMeshVertex
 10
222718.8957927948
 20
137112.1933379234
 30
-47.0
 70
    64
  0
VERTEX
  5
1BD
330
188
100
AcDbEntity
  8
0
 62
     0
370
     5
100
AcDbVertex
100
AcDbPolygonMeshVertex
 10
222743.2957927948
 20
137112.1933379234
 30
-47.0
 70
    64
  0
VERTEX
  5
1BE
330
188
100
AcDbEntity
  8
0
 62
     0
370
     5
100
AcDbVertex
100
AcDbPolygonMeshVertex
 10
222767.6957927949
 20
137112.1933379234
 30
-47.0
 70
    64
  0
VERTEX
  5
1BF
330
188
100
AcDbEntity
  8
0
 62
     0
370
     5
100
AcDbVertex
100
AcDbPolygonMeshVertex
 10
222792.0957927949
 20
137112.1933379234
 30
-47.0
 70
    64
  0
VERTEX
  5
1C0
330
188
100
AcDbEntity
  8
0
 62
     0
370
     5
100
AcDbVertex
100
AcDbPolygonMeshVertex
 10
222816.4957927948
 20
137112.1933379234
 30
-47.0
 70
    64
  0
VERTEX
  5
1C1
330
188
100
AcDbEntity
  8
0
 62
     0
370
     5
100
AcDbVertex
100
AcDbPolygonMeshVertex
 10
222840.8957927948
 20
137112.1933379234
 30
-47.0
 70
    64
  0
VERTEX
  5
1C2
330
188
100
AcDbEntity
  8
0
 62
     0
370
     5
100
AcDbVertex
100
AcDbPolygonMeshVertex
 10
222865.2957927948
 20
137112.1933379234
 30
-47.0
 70
    64
  0
VERTEX
  5
1C3
330
188
100
AcDbEntity
  8
0
 62
     0
370
     5
100
AcDbVertex
100
AcDbPolygonMeshVertex
 10
222889.6957927949
 20
137112.1933379234
 30
-47.0
 70
    64
  0
VERTEX
  5
1C4
330
188
100
AcDbEntity
  8
0
 62
     0
370
     5
100
AcDbVertex
100
AcDbPolygonMeshVertex
 10
222914.0957927949
 20
137112.1933379234
 30
-47.0
 70
    64
  0
VERTEX
  5
1C5
330
188
100
AcDbEntity
  8
0
 62
     0
370
     5
100
AcDbVertex
100
AcDbPolygonMeshVertex
 10
222938.4957927948
 20
137112.1933379234
 30
-47.0
 70
    64
  0
VERTEX
  5
1C6
330
188
100
AcDbEntity
  8
0
 62
     0
370
     5
100
AcDbVertex
100
AcDbPolygonMeshVertex
 10
222962.8957927948
 20
137112.1933379234
 30
-47.0
 70
    64
  0
VERTEX
  5
1C7
330
188
100
AcDbEntity
  8
0
 62
     0
370
     5
100
AcDbVertex
100
AcDbPolygonMeshVertex
 10
222987.2957927948
 20
137112.1933379234
 30
-47.0
 70
    64
  0
VERTEX
  5
1C8
330
188
100
AcDbEntity
  8
0
 62
     0
370
     5
100
AcDbVertex
100
AcDbPolygonMeshVertex
 10
223011.6957927949
 20
137112.1933379234
 30
-47.0
 70
    64
  0
VERTEX
  5
1C9
330
188
100
AcDbEntity
  8
0
 62
     0
370
     5
100
AcDbVertex
100
AcDbPolygonMeshVertex
 10
223036.0957927949
 20
137112.1933379234
 30
-47.0
 70
    64
  0
VERTEX
  5
1CA
330
188
100
AcDbEntity
  8
0
 62
     0
370
     5
100
AcDbVertex
100
AcDbPolygonMeshVertex
 10
223060.4957927948
 20
137112.1933379234
 30
-47.0
 70
    64
  0
VERTEX
  5
1CB
330
188
100
AcDbEntity
  8
0
 62
     0
370
     5
100
AcDbVertex
100
AcDbPolygonMeshVertex
 10
223084.8957927948
 20
137112.1933379234
 30
-47.0
 70
    64
  0
VERTEX
  5
1CC
330
188
100
AcDbEntity
  8
0
 62
     0
370
     5
100
AcDbVertex
100
AcDbPolygonMeshVertex
 10
223109.2957927948
 20
137112.1933379234
 30
-47.0
 70
    64
  0
VERTEX
  5
1CD
330
188
100
AcDbEntity
  8
0
 62
     0
370
     5
100
AcDbVertex
100
AcDbPolygonMeshVertex
 10
223115.8957927949
 20
137094.3933379234
 30
-47.0
 70
    64
  0
VERTEX
  5
1CE
330
188
100
AcDbEntity
  8
0
 62
     0
370
     5
100
AcDbVertex
100
AcDbPolygonMeshVertex
 10
223115.8957927949
 20
137069.9933379234
 30
-47.0
 70
    64
  0
VERTEX
  5
1CF
330
188
100
AcDbEntity
  8
0
 62
     0
370
     5
100
AcDbVertex
100
AcDbPolygonMeshVertex
 10
223115.8957927949
 20
137045.5933379234
 30
-47.0
 70
    64
  0
VERTEX
  5
1D0
330
188
100
AcDbEntity
  8
0
 62
     0
370
     5
100
AcDbVertex
100
AcDbPolygonMeshVertex
 10
223115.8957927949
 20
137021.1933379234
 30
-47.0
 70
    64
  0
VERTEX
  5
1D1
330
188
100
AcDbEntity
  8
0
 62
     0
370
     5
100
AcDbVertex
100
AcDbPolygonMeshVertex
 10
223115.8957927949
 20
136996.7933379234
 30
-47.0
 70
    64
  0
VERTEX
  5
1D2
330
188
100
AcDbEntity
  8
0
 62
     0
370
     5
100
AcDbVertex
100
AcDbPolygonMeshVertex
 10
223115.8957927949
 20
136972.3933379234
 30
-47.0
 70
    64
  0
VERTEX
  5
1D3
330
188
100
AcDbEntity
  8
0
 62
     0
370
     5
100
AcDbVertex
100
AcDbPolygonMeshVertex
 10
223115.8957927949
 20
136947.9933379234
 30
-47.0
 70
    64
  0
VERTEX
  5
1D4
330
188
100
AcDbEntity
  8
0
 62
     0
370
     5
100
AcDbVertex
100
AcDbPolygonMeshVertex
 10
223115.8957927949
 20
136923.5933379234
 30
-47.0
 70
    64
  0
VERTEX
  5
1D5
330
188
100
AcDbEntity
  8
0
 62
     0
370
     5
100
AcDbVertex
100
AcDbPolygonMeshVertex
 10
223115.8957927949
 20
136899.1933379234
 30
-47.0
 70
    64
  0
VERTEX
  5
1D6
330
188
100
AcDbEntity
  8
0
 62
     0
370
     5
100
AcDbVertex
100
AcDbPolygonMeshVertex
 10
223115.8957927949
 20
136874.7933379234
 30
-47.0
 70
    64
  0
VERTEX
  5
1D7
330
188
100
AcDbEntity
  8
0
 62
     0
370
     5
100
AcDbVertex
100
AcDbPolygonMeshVertex
 10
223115.8957927949
 20
136850.3933379234
 30
-47.0
 70
    64
  0
VERTEX
  5
1D8
330
188
100
AcDbEntity
  8
0
 62
     0
370
     5
100
AcDbVertex
100
AcDbPolygonMeshVertex
 10
223115.8957927949
 20
136825.9933379234
 30
-47.0
 70
    64
  0
VERTEX
  5
1D9
330
188
100
AcDbEntity
  8
0
 62
     0
370
     5
100
AcDbVertex
100
AcDbPolygonMeshVertex
 10
223115.8957927949
 20
136801.5933379234
 30
-47.0
 70
    64
  0
VERTEX
  5
1DA
330
188
100
AcDbEntity
  8
0
 62
     0
370
     5
100
AcDbVertex
100
AcDbPolygonMeshVertex
 10
223115.8957927949
 20
136777.1933379234
 30
-47.0
 70
    64
  0
SEQEND
  5
1DB
330
188
100
AcDbEntity
  8
0
 62
     0
370
     5
  0
LWPOLYLINE
  5
1DC
330
2
100
AcDbEntity
  8
0
 62
     0
370
     5
100
AcDbPolyline
 90
        2
 70
     0
 43
0.0
 38
-47.0
 10
223015.8957927948
 20
136202.9566465918
 10
223015.8957927948
 20
136646.8534053797
  0
LINE
  5
1DD
330
2
100
AcDbEntity
  8
0
  6
Continuous
 62
     0
370
     5
100
AcDbLine
 10
223055.8957927948
 20
137052.1933379234
 30
0.0
 11
222474.8957927948
 21
137052.1933379234
 31
0.0
  0
LINE
  5
1DE
330
2
100
AcDbEntity
  8
0
  6
Continuous
 62
     0
370
     5
100
AcDbLine
 10
222955.8957927948
 20
136262.9566465918
 30
0.0
 11
222755.8957927948
 21
136262.9566465918
 31
0.0
  0
LINE
  5
1DF
330
2
100
AcDbEntity
  8
0
  6
Continuous
 62
     0
370
     5
100
AcDbLine
 10
223055.8957927948
 20
136752.1933379234
 30
0.0
 11
222955.8957927948
 21
136752.1933379234
 31
0.0
  0
LINE
  5
1E0
330
2
100
AcDbEntity
  8
0
  6
Continuous
 62
     0
370
     5
100
AcDbLine
 10
222534.8957927948
 20
136752.1933379234
 30
0.0
 11
222534.8957927948
 21
137052.1933379234
 31
0.0
  0
LINE
  5
1E1
330
2
100
AcDbEntity
  8
0
  6
Continuous
 62
     0
370
     5
100
AcDbLine
 10
222985.8957927948
 20
136752.1933379234
 30
0.0
 11
222985.8957927948
 21
136646.8534053797
 31
0.0
  0
LINE
  5
1E2
330
2
100
AcDbEntity
  8
0
  6
Continuous
 62
     0
370
     5
100
AcDbLine
 10
222955.8957927948
 20
136232.9566465918
 30
0.0
 11
222755.8957927948
 21
136232.9566465918
 31
0.0
  0
LINE
  5
1E3
330
2
100
AcDbEntity
  8
0
  6
Continuous
 62
     0
370
     5
100
AcDbLine
 10
222504.8957927949
 20
136881.1933379234
 30
0.0
 11
222504.8957927949
 21
137052.1933379234
 31
0.0
  0
LINE
  5
1E4
330
2
100
AcDbEntity
  8
0
  6
Continuous
 62
     0
370
     5
100
AcDbLine
 10
223055.8957927948
 20
137052.1933379234
 30
0.0
 11
223055.8957927948
 21
136752.1933379234
 31
0.0
  0
LINE
  5
1E5
330
2
100
AcDbEntity
  8
0
  6
Continuous
 62
     0
370
     5
100
AcDbLine
 10
223015.8957927948
 20
136752.1933379234
 30
0.0
 11
223015.8957927948
 21
136646.8534053797
 31
0.0
  0
LINE
  5
1E6
330
2
100
AcDbEntity
  8
0
  6
Continuous
 62
     0
370
     5
100
AcDbLine
 10
223015.8957927948
 20
136646.8534053797
 30
0.0
 11
222955.8957927948
 21
136646.8534053797
 31
0.0
  0
LINE
  5
1E7
330
2
100
AcDbEntity
  8
0
  6
Continuous
 62
     0
370
     5
100
AcDbLine
 10
222955.8957927948
 20
136202.9566465918
 30
0.0
 11
222955.8957927948
 21
136752.1933379234
 31
0.0
  0
LINE
  5
1E8
330
2
100
AcDbEntity
  8
0
  6
Continuous
 62
     0
370
     5
100
AcDbLine
 10
222955.8957927948
 20
136202.9566465918
 30
0.0
 11
222755.8957927948
 21
136202.9566465918
 31
0.0
  0
LINE
  5
1E9
330
2
100
AcDbEntity
  8
0
  6
Continuous
 62
     0
370
     5
100
AcDbLine
 10
222474.8957927948
 20
136881.1933379234
 30
0.0
 11
222474.8957927948
 21
137052.1933379234
 31
0.0
  0
LINE
  5
1EA
330
2
100
AcDbEntity
  8
0
  6
Continuous
 62
     0
370
     5
100
AcDbLine
 10
222350.4643554661
 20
135920.4215176159
 30
0.0
 11
222350.4643554661
 21
135770.4215176159
 31
0.0
  0
LINE
  5
1EB
330
2
100
AcDbEntity
  8
0
  6
Continuous
 62
     0
370
     5
100
AcDbLine
 10
222350.4643554661
 20
135770.4215176159
 30
0.0
 11
222122.5124902947
 21
135770.4215176159
 31
0.0
  0
LINE
  5
1EC
330
2
100
AcDbEntity
  8
0
  6
Continuous
 62
     0
370
     5
100
AcDbLine
 10
222122.5124902947
 20
135770.4215176159
 30
0.0
 11
222122.5124902947
 21
135920.4215176159
 31
0.0
  0
LINE
  5
1ED
330
2
100
AcDbEntity
  8
0
  6
Continuous
 62
     0
370
     5
100
AcDbLine
 10
222350.4643554661
 20
135800.4215176159
 30
0.0
 11
222122.5124902947
 21
135800.4215176159
 31
0.0
  0
LINE
  5
1EE
330
2
100
AcDbEntity
  8
0
  6
Continuous
 62
     0
370
     5
100
AcDbLine
 10
222350.4643554661
 20
135830.4215176159
 30
0.0
 11
222122.5124902947
 21
135830.4215176159
 31
0.0
  0
LINE
  5
1EF
330
2
100
AcDbEntity
  8
0
  6
Continuous
 62
     0
370
     5
100
AcDbLine
 10
222122.5124902947
 20
135920.4215176159
 30
0.0
 11
222350.4643554661
 21
135920.4215176159
 31
0.0
  0
LINE
  5
1F0
330
2
100
AcDbEntity
  8
0
  6
Continuous
 62
     0
370
     5
390
C9
100
AcDbLine
 10
222955.8957927948
 20
136752.1933379234
 30
0.0
 11
222955.8957927948
 21
136777.1933379234
 31
0.0
  0
LINE
  5
1F1
330
2
100
AcDbEntity
  8
0
  6
Continuous
 62
     0
370
     5
390
C9
100
AcDbLine
 10
222955.8957927948
 20
136777.1933379234
 30
0.0
 11
223115.8957927949
 21
136777.1933379234
 31
0.0
  0
LINE
  5
1F2
330
2
100
AcDbEntity
  8
0
  6
Continuous
 62
     0
370
     5
390
C9
100
AcDbLine
 10
223115.8957927949
 20
136777.1933379234
 30
0.0
 11
223115.8957927949
 21
136752.1933379234
 31
0.0
  0
LINE
  5
1F3
330
2
100
AcDbEntity
  8
0
  6
Continuous
 62
     0
370
     5
390
C9
100
AcDbLine
 10
223115.8957927949
 20
136752.1933379234
 30
0.0
 11
222955.8957927948
 21
136752.1933379234
 31
0.0
  0
LINE
  5
1F4
330
2
100
AcDbEntity
  8
0
  6
Continuous
 62
     0
370
     5
390
C9
100
AcDbLine
 10
222350.4643554661
 20
135920.4215176159
 30
0.0
 11
222362.4643554661
 21
135920.4215176159
 31
0.0
  0
LINE
  5
1F5
330
2
100
AcDbEntity
  8
0
  6
Continuous
 62
     0
370
     5
390
C9
100
AcDbLine
 10
222362.4643554661
 20
135920.4215176159
 30
0.0
 11
222362.4643554661
 21
135770.4215176159
 31
0.0
  0
LINE
  5
1F6
330
2
100
AcDbEntity
  8
0
  6
Continuous
 62
     0
370
     5
390
C9
100
AcDbLine
 10
222362.4643554661
 20
135770.4215176159
 30
0.0
 11
222350.4643554661
 21
135770.4215176159
 31
0.0
  0
LINE
  5
1F7
330
2
100
AcDbEntity
  8
0
  6
Continuous
 62
     0
370
     5
390
C9
100
AcDbLine
 10
222350.4643554661
 20
135770.4215176159
 30
0.0
 11
222350.4643554661
 21
135920.4215176159
 31
0.0
  0
LINE
  5
1F8
330
2
100
AcDbEntity
  8
0
  6
Continuous
 62
     0
370
     5
390
C9
100
AcDbLine
 10
222122.5124902947
 20
135770.4215176159
 30
0.0
 11
222110.5124902947
 21
135770.4215176159
 31
0.0
  0
LINE
  5
1F9
330
2
100
AcDbEntity
  8
0
  6
Continuous
 62
     0
370
     5
390
C9
100
AcDbLine
 10
222110.5124902947
 20
135770.4215176159
 30
0.0
 11
222110.5149946524
 21
135881.2243499919
 31
0.0
  0
HATCH
  5
1FA
330
2
100
AcDbEntity
  8
0
 62
     0
370
     5
100
AcDbHatch
 10
0.0
 20
0.0
 30
0.0
210
0.0
220
0.0
230
1.0
  2
SOLID
 70
     1
 71
     1
 91
        1
 92
        7
 72
     0
 73
     1
 93
        8
 10
222062.5557927949
 20
135941.2493656834
 10
222034.2322761123
 20
135941.2641345141
 10
222034.2119337761
 20
135881.2641369645
 10
222122.5124902947
 20
135881.2180940956
 10
222122.5124902947
 20
135920.4215176159
 10
222164.5557927948
 20
135920.4215176159
 10
222164.5557927949
 20
135980.4215176159
 10
222062.5557927949
 20
135980.4215176159
 97
        8
330
210
330
20E
330
20F
330
1FB
330
201
330
203
330
202
330
218
 75
     0
 76
     1
 47
2.567217669073031
 98
        1
 10
222085.6703932405
 20
135954.7241401448
1001
ACAD
1010
0.0
1020
0.0
1030
0.0
  0
LINE
  5
1FB
102
{ACAD_REACTORS
330
1FA
102
}
330
2
100
AcDbEntity
  8
0
  6
Continuous
 62
     0
370
     5
390
C9
100
AcDbLine
 10
222122.5124902947
 20
135920.4215176159
 30
0.0
 11
222122.5124902947
 21
135770.4215176159
 31
0.0
  0
LINE
  5
1FC
330
2
100
AcDbEntity
  8
0
  6
DASHED
 62
     0
370
     5
390
C9
100
AcDbLine
 10
222124.9909516238
 20
135920.4215176159
 30
0.0
 11
222311.4643554661
 21
135920.4215176159
 31
0.0
  0
HATCH
  5
1FD
330
2
100
AcDbEntity
  8
0
 62
     0
370
     5
100
AcDbHatch
 10
0.0
 20
0.0
 30
0.0
210
0.0
220
0.0
230
1.0
  2
SOLID
 70
     1
 71
     0
 91
        1
 92
        7
 72
     0
 73
     1
 93
       22
 10
222695.8957927949
 20
136692.1933379234
 10
222474.8957927949
 20
136692.1933379234
 10
222474.8957927948
 20
136821.1933379234
 10
222129.5557927948
 20
136821.1933379234
 10
222129.5557927948
 20
136692.1933379234
 10
221765.8957927948
 20
136692.1933379234
 10
221765.8957927949
 20
135941.4040541476
 10
221794.2432524094
 20
135941.3892728324
 10
221794.2119664032
 20
135881.3892809891
 10
221705.8957927949
 20
135881.4353320012
 10
221705.8957927948
 20
136111.3073339533
 10
221705.8957927948
 20
136752.1933379234
 10
222069.5557927948
 20
136752.1933379234
 10
222069.5557927948
 20
136842.1933379234
 10
222069.5557927949
 20
136881.1933379234
 10
222534.8957927948
 20
136881.1933379234
 10
222534.8957927948
 20
136752.1933379234
 10
222755.8957927948
 20
136752.1933379234
 10
222755.8957927948
 20
135920.4215176159
 10
222274.5557927949
 20
135920.4215176159
 10
222274.5557927948
 20
135980.4215176159
 10
222695.8957927948
 20
135980.4215176159
 97
        0
 75
     0
 76
     1
 47
2.567217669073031
 98
        1
 10
222730.5410050243
 20
136386.0167345281
1001
ACAD
1010
0.0
1020
0.0
1030
0.0
  0
LINE
  5
1FE
330
2
100
AcDbEntity
  8
0
  6
Continuous
 62
     0
370
     5
100
AcDbLine
 10
221794.2432524094
 20
135941.3892728324
 30
0.0
 11
221794.2119664032
 21
135881.3892809891
 31
0.0
  0
LINE
  5
1FF
330
2
100
AcDbEntity
  8
0
  6
Continuous
 62
     0
370
     5
100
AcDbLine
 10
221794.2119664032
 20
135881.3892809891
 30
0.0
 11
221705.8957927949
 21
135881.4353320013
 31
0.0
  0
LINE
  5
200
330
2
100
AcDbEntity
  8
0
  6
Continuous
 62
     0
370
     5
100
AcDbLine
 10
221794.2432524094
 20
135941.3892728324
 30
0.0
 11
221765.8957927949
 21
135941.4040541476
 31
0.0
  0
LINE
  5
201
102
{ACAD_REACTORS
330
1FA
102
}
330
2
100
AcDbEntity
  8
0
  6
Continuous
 62
     0
370
     5
100
AcDbLine
 10
222122.5557927948
 20
135881.2180715163
 30
0.0
 11
222034.2119337761
 21
135881.2641369645
 31
0.0
  0
LINE
  5
202
102
{ACAD_REACTORS
330
1FA
102
}
330
2
100
AcDbEntity
  8
0
  6
Continuous
 62
     0
370
     5
100
AcDbLine
 10
222062.5557927949
 20
135941.2493656834
 30
0.0
 11
222034.2432197822
 21
135941.2641288077
 31
0.0
  0
LINE
  5
203
102
{ACAD_REACTORS
330
1FA
102
}
330
2
100
AcDbEntity
  8
0
  6
Continuous
 62
     0
370
     5
100
AcDbLine
 10
222034.2119337761
 20
135881.2641369645
 30
0.0
 11
222034.2322696801
 21
135941.2451626745
 31
0.0
  0
LINE
  5
204
330
2
100
AcDbEntity
  8
0
  6
Continuous
 62
     0
370
     5
100
AcDbLine
 10
221705.8957927949
 20
135881.4353320013
 30
0.0
 11
221705.8957927948
 21
136752.1933379234
 31
0.0
  0
LINE
  5
205
330
2
100
AcDbEntity
  8
0
  6
Continuous
 62
     0
370
     5
100
AcDbLine
 10
221765.8957927949
 20
135941.4040541476
 30
0.0
 11
221765.8957927948
 21
136692.1933379234
 31
0.0
  0
LINE
  5
206
330
2
100
AcDbEntity
  8
0
  6
Continuous
 62
     0
370
     5
100
AcDbLine
 10
221705.8957927948
 20
135881.4353320013
 30
0.0
 11
221705.8957927948
 21
136111.3073339533
 31
0.0
  0
LINE
  5
207
330
2
100
AcDbEntity
  8
0
  6
Continuous
 62
     0
370
     5
100
AcDbLine
 10
222755.8957927949
 20
136752.1933379234
 30
0.0
 11
222534.8957927948
 21
136752.1933379234
 31
0.0
  0
LINE
  5
208
330
2
100
AcDbEntity
  8
0
  6
Continuous
 62
     0
370
     5
100
AcDbLine
 10
222695.8957927949
 20
136692.1933379234
 30
0.0
 11
222474.8957927948
 21
136692.1933379234
 31
0.0
  0
LINE
  5
209
330
2
100
AcDbEntity
  8
0
  6
Continuous
 62
     0
370
     5
100
AcDbLine
 10
222755.8957927948
 20
135920.4215176159
 30
0.0
 11
222755.8957927949
 21
136752.1933379234
 31
0.0
  0
LINE
  5
20A
330
2
100
AcDbEntity
  8
0
  6
Continuous
 62
     0
370
     5
100
AcDbLine
 10
222695.8957927948
 20
135980.4215176159
 30
0.0
 11
222695.8957927949
 21
136692.1933379234
 31
0.0
  0
LINE
  5
20B
330
2
100
AcDbEntity
  8
0
  6
Continuous
 62
     0
370
     5
100
AcDbLine
 10
222069.5557927948
 20
136881.1933379234
 30
0.0
 11
222534.8957927948
 21
136881.1933379234
 31
0.0
  0
LINE
  5
20C
330
2
100
AcDbEntity
  8
0
  6
Continuous
 62
     0
370
     5
100
AcDbLine
 10
222129.5557927948
 20
136821.1933379234
 30
0.0
 11
222474.8957927948
 21
136821.1933379234
 31
0.0
  0
LINE
  5
20D
330
2
100
AcDbEntity
  8
0
  6
Continuous
 62
     0
370
     5
100
AcDbLine
 10
221705.8957927948
 20
136752.1933379234
 30
0.0
 11
221773.6957927948
 21
136752.1933379234
 31
0.0
  0
LINE
  5
20E
102
{ACAD_REACTORS
330
1FA
102
}
330
2
100
AcDbEntity
  8
0
  6
Continuous
 62
     0
370
     5
100
AcDbLine
 10
222164.5557927949
 20
135980.4215176159
 30
0.0
 11
222164.5557927948
 21
135920.4215176159
 31
0.0
  0
LINE
  5
20F
102
{ACAD_REACTORS
330
1FA
102
}
330
2
100
AcDbEntity
  8
0
  6
Continuous
 62
     0
370
     5
100
AcDbLine
 10
222164.5557927948
 20
135920.4215176159
 30
0.0
 11
222122.5124902947
 21
135920.4215176159
 31
0.0
  0
LINE
  5
210
102
{ACAD_REACTORS
330
1FA
102
}
330
2
100
AcDbEntity
  8
0
  6
Continuous
 62
     0
370
     5
100
AcDbLine
 10
222164.5557927949
 20
135980.4215176159
 30
0.0
 11
222062.5557927949
 21
135980.4215176159
 31
0.0
  0
LINE
  5
211
330
2
100
AcDbEntity
  8
0
  6
Continuous
 62
     0
370
     5
100
AcDbLine
 10
222362.4643554661
 20
135920.4215176159
 30
0.0
 11
222274.5557927948
 21
135920.4215176159
 31
0.0
  0
LINE
  5
212
330
2
100
AcDbEntity
  8
0
  6
Continuous
 62
     0
370
     5
100
AcDbLine
 10
222274.5557927948
 20
135920.4215176159
 30
0.0
 11
222274.5557927948
 21
135980.4215176159
 31
0.0
  0
LINE
  5
213
330
2
100
AcDbEntity
  8
0
  6
Continuous
 62
     0
370
     5
100
AcDbLine
 10
222069.5557927948
 20
136752.1933379234
 30
0.0
 11
222069.5557927948
 21
136881.1933379234
 31
0.0
  0
LINE
  5
214
330
2
100
AcDbEntity
  8
0
  6
Continuous
 62
     0
370
     5
100
AcDbLine
 10
222069.5557927948
 20
136752.1933379234
 30
0.0
 11
221705.8957927948
 21
136752.1933379234
 31
0.0
  0
LINE
  5
215
330
2
100
AcDbEntity
  8
0
  6
Continuous
 62
     0
370
     5
100
AcDbLine
 10
222129.5557927948
 20
136692.1933379234
 30
0.0
 11
221765.8957927948
 21
136692.1933379234
 31
0.0
  0
LINE
  5
216
330
2
100
AcDbEntity
  8
0
  6
DASHED
 62
     0
370
     5
390
C9
100
AcDbLine
 10
222069.5557927948
 20
136752.1933379234
 30
0.0
 11
222069.5557927948
 21
136842.1933379234
 31
0.0
  0
LINE
  5
217
330
2
100
AcDbEntity
  8
0
  6
Continuous
 62
     0
370
     5
100
AcDbLine
 10
222122.5557927948
 20
135920.4215176159
 30
0.0
 11
222122.5557927948
 21
135881.2180715163
 31
0.0
  0
LINE
  5
218
102
{ACAD_REACTORS
330
1FA
102
}
330
2
100
AcDbEntity
  8
0
  6
Continuous
 62
     0
370
     5
100
AcDbLine
 10
222062.5557927949
 20
135980.4215176159
 30
0.0
 11
222062.5557927949
 21
135941.2493656834
 31
0.0
  0
LINE
  5
219
330
2
100
AcDbEntity
  8
0
  6
Continuous
 62
     0
370
     5
100
AcDbLine
 10
222755.8957927948
 20
135920.4215176159
 30
0.0
 11
222274.5557927948
 21
135920.4215176159
 31
0.0
  0
LINE
  5
21A
330
2
100
AcDbEntity
  8
0
  6
Continuous
 62
     0
370
     5
100
AcDbLine
 10
222695.8957927948
 20
135980.4215176159
 30
0.0
 11
222274.5557927948
 21
135980.4215176159
 31
0.0
  0
LINE
  5
21B
330
2
100
AcDbEntity
  8
0
  6
Continuous
 62
     0
370
     5
390
F6
100
AcDbLine
 10
222069.5557927948
 20
136752.1933379234
 30
0.0
 11
222069.5557927948
 21
136842.1933379234
 31
0.0
  0
LINE
  5
21C
330
2
100
AcDbEntity
  8
0
  6
Continuous
 62
     0
370
     5
390
F6
100
AcDbLine
 10
222129.5557927948
 20
136692.1933379234
 30
0.0
 11
222129.5557927948
 21
136821.1933379234
 31
0.0
  0
LINE
  5
21D
330
2
100
AcDbEntity
  8
0
  6
Continuous
 62
     0
370
     5
100
AcDbLine
 10
222534.8957927948
 20
136881.1933379234
 30
0.0
 11
222534.8957927948
 21
136752.1933379234
 31
0.0
  0
LINE
  5
21E
330
2
100
AcDbEntity
  8
0
  6
Continuous
 62
     0
370
     5
100
AcDbLine
 10
222474.8957927948
 20
136821.1933379234
 30
0.0
 11
222474.8957927948
 21
136692.1933379234
 31
0.0
  0
LINE
  5
21F
330
2
100
AcDbEntity
  8
0
 62
     0
370
     5
100
AcDbLine
 10
222034.2322696801
 20
135941.2451626745
 30
0.0
 11
221794.2432425168
 21
135941.3703009945
 31
0.0
  0
LINE
  5
220
330
2
100
AcDbEntity
  8
0
 62
     0
370
     5
100
AcDbLine
 10
222034.2119337761
 20
135881.2641369645
 30
0.0
 11
221793.9952105943
 21
135881.2641369645
 31
0.0
  0
LINE
  5
221
330
2
100
AcDbEntity
  8
0
 62
     0
370
     5
100
AcDbLine
 10
222274.5557927948
 20
135980.4215176159
 30
0.0
 11
222164.5557927949
 21
135980.421517616
 31
0.0
  0
DIMENSION
  5
222
330
2
100
AcDbEntity
  8
0Wymiary-PL
100
AcDbDimension
  2
*D9
 10
222122.5124902947
 20
135579.4521771783
 30
0.0
 11
222439.2041415448
 21
135659.4521771783
 31
0.0
  1
634
 71
     5
 42
633.3833025001513
  3
500
100
AcDbAlignedDimension
 13
222755.8957927948
 23
135920.4215176159
 33
0.0
 14
222122.5124902947
 24
135920.4215176159
 34
0.0
 50
180.0
100
AcDbRotatedDimension
  0
DIMENSION
  5
22D
330
2
100
AcDbEntity
  8
0Wymiary-PL
100
AcDbDimension
  2
*D10
 10
221705.8957927948
 20
135579.4521771783
 30
0.0
 11
221914.2041415448
 21
135659.4521771783
 31
0.0
  1
416
 71
     5
 42
416.6166974998486
  3
500
100
AcDbAlignedDimension
 13
222122.5124902947
 23
135920.4215176159
 33
0.0
 14
221705.8957927948
 24
135881.4353320013
 34
0.0
 50
180.0
100
AcDbRotatedDimension
  0
DIMENSION
  5
238
330
2
100
AcDbEntity
  8
0Wymiary-PL
100
AcDbDimension
  2
*D11
 10
221705.8957927948
 20
135404.5923727044
 30
0.0
 11
222230.8957927948
 21
135484.5923727044
 31
0.0
 71
     5
 42
1049.999999999971
  3
500
100
AcDbAlignedDimension
 13
222755.8957927948
 23
135920.4215176159
 33
0.0
 14
221705.8957927948
 24
135920.4215176159
 34
0.0
 50
180.0
100
AcDbRotatedDimension
  0
DIMENSION
  5
243
330
2
100
AcDbEntity
  8
0Wymiary-PL
100
AcDbDimension
  2
*D12
 10
221519.1477037054
 20
136752.1933379234
 30
0.0
 11
221439.1477037053
 21
136316.8143349624
 31
0.0
 71
     5
 42
870.7580059221072
  3
500
100
AcDbAlignedDimension
 13
221705.8957927949
 23
135881.4353320013
 33
0.0
 14
221705.8957927948
 24
136752.1933379234
 34
0.0
 50
90.0
100
AcDbRotatedDimension
  0
DIMENSION
  5
24E
330
2
100
AcDbEntity
  8
0Wymiary-PL
100
AcDbDimension
  2
*D13
 10
221519.1477037054
 20
136881.1933379234
 30
0.0
 11
221439.1477037053
 21
136816.6933379234
 31
0.0
 71
     5
 42
129.0
  3
500
100
AcDbAlignedDimension
 13
221705.8957927948
 23
136752.1933379234
 33
0.0
 14
222069.5557927948
 24
136881.1933379234
 34
0.0
 50
90.0
100
AcDbRotatedDimension
  0
DIMENSION
  5
25B
330
2
100
AcDbEntity
  8
0Wymiary-PL
100
AcDbDimension
  2
*D14
 10
221357.275008475
 20
136881.1933379234
 30
0.0
 11
221277.275008475
 21
136381.228737444
 31
0.0
 71
     5
 42
999.929200958868
  3
500
100
AcDbAlignedDimension
 13
221885.6758105813
 23
135881.2641369645
 33
0.0
 14
222302.2257927949
 24
136881.1933379234
 34
0.0
 50
90.0
100
AcDbRotatedDimension
  0
ENDSEC
  0
SECTION
  2
OBJECTS
  0
DICTIONARY
  5
B
330
0
100
AcDbDictionary
281
     1
  3
ACAD_COLOR
350
296
  3
ACAD_GROUP
350
291
  3
ACAD_LAYOUT
350
268
  3
ACAD_MATERIAL
350
D
  3
ACAD_MLINESTYLE
350
292
  3
ACAD_PLOTSETTINGS
350
293
  3
ACAD_PLOTSTYLENAME
350
A
  3
ACAD_SCALELIST
350
297
  3
ACAD_TABLESTYLE
350
298
  3
ACAD_VISUALSTYLE
350
26B
  3
ACDB_RECOMPOSE_DATA
350
31C
  3
AcDbVariableDictionary
350
310
  3
CONLABELDictionary
350
2CD
  3
CONLDEFDictionary
350
2B5
  3
DWGPROPS
350
31D
  0
DICTIONARY
  5
274
330
273
100
AcDbDictionary
280
     1
281
     1
  3
ACAD_LAYERFILTERS
360
275
  3
ACAD_LAYERSTATES
360
276
  3
ACLYDICTIONARY
360
277
  0
DICTIONARY
  5
7
330
6
100
AcDbDictionary
280
     1
281
     1
  3
ADSK_XREC_LAYER_RECONCILED
360
8
  0
DICTIONARY
  5
1D
330
1C
100
AcDbDictionary
280
     1
281
     1
  3
ADSK_XREC_LAYER_RECONCILED
360
1E
  0
DICTIONARY
  5
FF
330
FE
100
AcDbDictionary
280
     1
281
     1
  3
ADSK_XREC_LAYER_RECONCILED
360
100
  0
DICTIONARY
  5
17
330
16
100
AcDbDictionary
280
     1
281
     1
  3
ADSK_XREC_LAYER_RECONCILED
360
18
  0
DICTIONARY
  5
12
330
11
100
AcDbDictionary
280
     1
281
     1
  3
ADSK_XREC_LAYER_RECONCILED
360
13
  0
DICTIONARY
  5
3
330
2
100
AcDbDictionary
280
     1
281
     1
  3
ACAD_SORTENTS
360
2B4
  0
DICTIONARY
  5
106
330
105
100
AcDbDictionary
280
     1
281
     1
  3
ACAD_SORTENTS
360
2B3
  0
DICTIONARY
  5
320
330
1F
100
AcDbDictionary
280
     1
281
     1
  3
ACAD_MTEXT_RT
360
321
  0
DICTIONARY
  5
322
330
23
100
AcDbDictionary
280
     1
281
     1
  3
ACAD_MTEXT_RT
360
323
  0
DICTIONARY
  5
296
102
{ACAD_REACTORS
330
B
102
}
330
B
100
AcDbDictionary
281
     1
  0
DICTIONARY
  5
291
102
{ACAD_REACTORS
330
B
102
}
330
B
100
AcDbDictionary
281
     1
  0
DICTIONARY
  5
268
102
{ACAD_REACTORS
330
B
102
}
330
B
100
AcDbDictionary
281
     1
  3
Layout1
350
270
  3
Model
350
267
  0
DICTIONARY
  5
D
102
{ACAD_REACTORS
330
B
102
}
330
B
100
AcDbDictionary
281
     1
  3
ByBlock
350
295
  3
ByLayer
350
294
  3
Global
350
C
  0
DICTIONARY
  5
292
102
{ACAD_REACTORS
330
B
102
}
330
B
100
AcDbDictionary
281
     1
  3
Standard
350
299
  0
DICTIONARY
  5
293
102
{ACAD_REACTORS
330
B
102
}
330
B
100
AcDbDictionary
281
     1
  0
ACDBDICTIONARYWDFLT
  5
A
102
{ACAD_REACTORS
330
B
102
}
330
B
100
AcDbDictionary
281
     1
  3
Fine
350
F6
  3
Medium
350
C9
  3
Normal
350
9
100
AcDbDictionaryWithDefault
340
9
  0
DICTIONARY
  5
297
102
{ACAD_REACTORS
330
B
102
}
330
B
100
AcDbDictionary
281
     1
  3
A0
350
29E
  3
A1
350
29F
  3
A2
350
2A0
  3
A3
350
2A1
  3
A4
350
2A2
  3
A5
350
2A3
  3
A6
350
2A4
  3
A7
350
2A5
  3
A8
350
2A6
  3
A9
350
2A7
  3
B0
350
2A8
  3
B1
350
2A9
  3
B2
350
2AA
  3
B3
350
2AB
  3
B4
350
2AC
  3
B5
350
2AD
  3
B6
350
2AE
  3
B7
350
2AF
  3
B8
350
2B0
  3
B9
350
2B1
  3
C0
350
2B2
  0
DICTIONARY
  5
298
102
{ACAD_REACTORS
330
B
102
}
330
B
100
AcDbDictionary
281
     1
  3
Standard
350
29A
  0
DICTIONARY
  5
26B
102
{ACAD_REACTORS
330
B
102
}
330
B
100
AcDbDictionary
281
     1
  3
2dWireframe
350
26A
  3
3dWireframe
350
29D
  3
Realistic
350
29C
  0
XRECORD
  5
31C
102
{ACAD_REACTORS
330
B
102
}
330
B
100
AcDbXrecord
280
     1
 90
        1
330
29A
  0
DICTIONARY
  5
310
102
{ACAD_REACTORS
330
B
102
}
330
B
100
AcDbDictionary
281
     1
  3
CANNOSCALE
350
314
  3
CMLEADERSTYLE
350
312
  3
CTABLESTYLE
350
311
  3
DIMASSOC
350
318
  3
HIDETEXT
350
317
  3
INDEXCTL
350
316
  3
MSLTSCALE
350
313
  3
SORTENTS
350
315
  0
DICTIONARY
  5
2CD
102
{ACAD_REACTORS
330
B
102
}
330
B
100
AcDbDictionary
281
     1
  3
_el_wzb_Left_nazw_romans16
350
30F
  3
_elementy_wiezby_SKROT_Romans16
350
30E
  3
_materialy_przegrod_pl_Label1
350
30D
  3
_nazwy_przegrod_romans18
350
30C
  3
_nazwy_rysunkow_Arial37
350
30B
  3
_nazwy_rysunkow_Romans18
350
30A
  3
_opisy_rozne_II_Label1
350
309
  3
_opisy_rozne_II_Link1Label1
350
308
  3
_posadzki_do_zestawienia_pomieszczen_Romans17
350
307
  3
_rozne_opisy_rys_R16_right
350
306
  3
_rozne_opisy_rys_Romans12
350
305
  3
_rozne_opisy_rys_Romans16
350
304
  3
_tabelka_-_inform_i_etykiety_Romans13
350
303
  3
_tabelka_Arial15-center
350
302
  3
_tabelka_Arial151
350
301
  3
_tabelka_Romans 10
350
300
  3
_tabelka_Romans13
350
2FF
  3
_tabelka_Romans19
350
2FE
  3
ALFABET-Arial20
350
2FD
  3
ALFABET-Arial26
350
2FC
  3
ALFABET-Arial37
350
2FB
  3
Arial_27
350
2FA
  3
arkusz_nazwy_Arial_35_DwieLinie
350
2F9
  3
arkusz_nazwy_Romans_18
350
2F8
  3
jednostki-Arial18
350
2F7
  3
jednostki-Arial30
350
2F6
  3
jednostki-Romans16
350
2F5
  3
jednostki_arial6.6kursywa
350
2F4
  3
jednostki_ROMANS11
350
2F3
  3
jednostki_ROMANS15
350
2F2
  3
jednostki_Romans7
350
2F1
  3
jednostkiLabel1
350
2F0
  3
jednostkiRomans22
350
2EF
  3
konstr_drew_arial6.6kursywa
350
2EE
  3
konstr_drew_romans7
350
2ED
  3
konstr_stalarial9kursywa
350
2EC
  3
konstr_stalLabel1
350
2EB
  3
konstr_stalLabel2
350
2EA
  3
miesiace-Romans17
350
2E9
  3
pomieszczenia-Arial 15
350
2E8
  3
pomieszczenia-Romans17
350
2E7
  3
romans16
350
2E6
  3
Romans_17
350
2E5
  3
schematy_arial15
350
2E4
  3
schematy_arial20
350
2E3
  3
schematy_arial37
350
2E2
  3
schematy_romans15
350
2E1
  3
schematy_romans15Right
350
2E0
  3
stolarka-Arial14
350
2DF
  3
stolarka-Romans1607
350
2DE
  3
stolarka-Romans1608
350
2DD
  3
stolarkaLabel1
350
2DC
  3
szczegoly_arial12kursywa
350
2DB
  3
szczegoly_arial6.6kursRight
350
2DA
  3
szczegoly_arial6.6kursywa
350
2D9
  3
szczegoly_Romans7
350
2D8
  3
szczegoly_romans7_right
350
2D7
  3
tbl_PRZEGRODY
350
2D6
  3
uwag_og_na_ark_Arial18
350
2D5
  3
uwagi_na_schematachLabel1
350
2D4
  3
uwagi_na_schematachLabel2
350
2D3
  3
uwagi_na_schematachRight
350
2D2
  3
zbroj_plyty_arial22
350
2D1
  3
zbroj_plyty_romans12
350
2D0
  3
zbroj_plyty_romans12Right
350
2CF
  3
zbroj_plyty_romans9
350
2CE
  0
DICTIONARY
  5
2B5
102
{ACAD_REACTORS
330
B
102
}
330
B
100
AcDbDictionary
281
     1
  3
_elementy_wiezby_Link1
350
2CC
  3
_materialy_przegrod_pl_Link1
350
2CB
  3
_nazwy_przegrod_pl_Link1
350
2CA
  3
_nazwy_rysunkow_Arial37
350
2C9
  3
_opisy_rozne_II_Link1
350
2C8
  3
_opisy_rozne_II_Link2
350
2C7
  3
_posadzki_do_zestawienia_pomieszczen_Link1
350
2C6
  3
_rozne_opisy_rys_Link1
350
2C5
  3
_tabelka_-_inform_i_etykiety_Link1
350
2C4
  3
_uwagi_ogolne_na_arkuszu_Link1
350
2C3
  3
ALFABETLink1
350
2C2
  3
arkusz_nazwyLink2
350
2C1
  3
jednostkiLink1
350
2C0
  3
konstr_drewLink1
350
2BF
  3
konstr_stalLink1
350
2BE
  3
miesiaceLink1
350
2BD
  3
pomieszczeniaLink1
350
2BC
  3
schematyLink1
350
2BB
  3
stolarkaLink1
350
2BA
  3
szczegolyLink1
350
2B9
  3
tbl_PRZEGRODYLink1
350
2B8
  3
uwagi_na_schematachLink1
350
2B7
  3
zbroj_plytyLink1
350
2B6
  0
XRECORD
  5
31D
102
{ACAD_REACTORS
330
B
102
}
330
B
100
AcDbXrecord
280
     1
  1
DWGPROPS COOKIE
  2

  3

  4

  6

  7

  8
magdalena.jozwik
  9

300
=
301
=
302
=
303
=
304
=
305
=
306
=
307
=
308
=
309
=
 40
9.319170393518518
 41
2452027.670547454
 42
2454964.499617685
  1

 90
        0
  0
DICTIONARY
  5
275
102
{ACAD_REACTORS
330
274
102
}
330
274
100
AcDbDictionary
281
     1
  0
DICTIONARY
  5
276
102
{ACAD_REACTORS
330
274
102
}
330
274
100
AcDbDictionary
281
     1
  0
DICTIONARY
  5
277
102
{ACAD_REACTORS
330
274
102
}
330
274
100
AcDbDictionary
281
     1
1001
ACAD
1000
<All
  0
XRECORD
  5
8
102
{ACAD_REACTORS
330
7
102
}
330
7
100
AcDbXrecord
280
     1
290
     1
  0
XRECORD
  5
1E
102
{ACAD_REACTORS
330
1D
102
}
330
1D
100
AcDbXrecord
280
     1
290
     1
  0
XRECORD
  5
100
102
{ACAD_REACTORS
330
FF
102
}
330
FF
100
AcDbXrecord
280
     1
290
     1
  0
XRECORD
  5
18
102
{ACAD_REACTORS
330
17
102
}
330
17
100
AcDbXrecord
280
     1
290
     1
  0
XRECORD
  5
13
102
{ACAD_REACTORS
330
12
102
}
330
12
100
AcDbXrecord
280
     1
290
     1
  0
SORTENTSTABLE
  5
2B4
102
{ACAD_REACTORS
330
3
102
}
330
3
100
AcDbSortentsTable
330
2
  0
SORTENTSTABLE
  5
2B3
102
{ACAD_REACTORS
330
106
102
}
330
106
100
AcDbSortentsTable
330
105
  0
XRECORD
  5
321
102
{ACAD_REACTORS
330
320
102
}
330
320
100
AcDbXrecord
280
     1
 40
264312.0
  1
{\fArial|b0|i0|c238|p34;MOŻNA WKLEIĆ DO PROJEKTU ZAGOSPODAROWANIA TERENU}
  0
XRECORD
  5
323
102
{ACAD_REACTORS
330
322
102
}
330
322
100
AcDbXrecord
280
     1
 40
106589.0
  1
{\fArial|b0|i0|c238|p34;OŚ ODBICIA LUSTRZANEGO}
  0
LAYOUT
  5
270
102
{ACAD_XDICTIONARY
360
271
102
}
102
{ACAD_REACTORS
330
268
102
}
330
268
100
AcDbPlotSettings
  1

  2
none_device
  4
Letter_(8.50_x_11.00_Inches)
  6

 40
6.349999904632568
 41
6.349999904632568
 42
6.350006103515625
 43
6.350006103515625
 44
215.8999938964844
 45
279.3999938964844
 46
0.0
 47
0.0
 48
0.0
 49
0.0
140
0.0
141
0.0
142
1.0
143
1.0
 70
   688
 72
     0
 73
     1
 74
     5
  7
monochrome_140.ctb
 75
    16
147
1.0
148
0.0
149
0.0
100
AcDbLayout
  1
Layout1
 70
     1
 71
     1
 10
-0.2500002402958907
 20
-0.2499999962453767
 11
10.74999951940822
 21
8.249999763458733
 12
0.0
 22
0.0
 32
0.0
 14
1.049999952316284
 24
0.7999999523162842
 34
0.0
 15
9.449999570846559
 25
7.199999570846558
 35
0.0
146
0.0
 13
0.0
 23
0.0
 33
0.0
 16
1.0
 26
0.0
 36
0.0
 17
0.0
 27
1.0
 37
0.0
 76
     0
330
26D
1001
ACAD_PSEXT
1000
None
1000
None
1000
Not applicable
1000
The layout will not be plotted unless a new plotter configuration name is selected.
1070
     0
  0
LAYOUT
  5
267
102
{ACAD_XDICTIONARY
360
324
102
}
102
{ACAD_REACTORS
330
268
102
}
330
268
100
AcDbPlotSettings
  1

  2
PDFCreator
  4
A4
  6
RODODENDRON 5
 40
3.174999952316284
 41
3.174999952316284
 42
3.175003051757812
 43
3.17498779296875
 44
209.8886566162109
 45
297.0530090332031
 46
-0.230673193931878
 47
5.151510643959028
 48
215187.2000545948
 49
127657.5157057546
140
225387.2000545948
141
141677.5157057546
142
1.0
143
50.0
 70
 11940
 72
     1
 73
     0
 74
     4
  7
monochrome_140.ctb
 75
     0
147
0.0195999191789066
148
-215187.2000545948
149
-127657.5157057546
100
AcDbLayout
  1
Model
 70
     1
 71
     0
 10
0.0
 20
0.0
 11
12.0
 21
9.0
 12
0.0
 22
0.0
 32
0.0
 14
0.0
 24
0.0
 34
0.0
 15
0.0
 25
0.0
 35
0.0
146
0.0
 13
0.0
 23
0.0
 33
0.0
 16
1.0
 26
0.0
 36
0.0
 17
0.0
 27
1.0
 37
0.0
 76
     0
330
2
331
281
1001
ACAD_PSEXT
1000
PDFCreator
1000
PDFCreator
1000
PDFCreator:
1000
eDoc Printer
1070
     0
  0
MATERIAL
  5
295
102
{ACAD_XDICTIONARY
360
329
102
}
102
{ACAD_REACTORS
330
D
102
}
330
D
100
AcDbMaterial
  1
ByBlock
 73
     1
 78
     1
172
     1
176
     1
270
     1
274
     1
  0
MATERIAL
  5
294
102
{ACAD_XDICTIONARY
360
327
102
}
102
{ACAD_REACTORS
330
D
102
}
330
D
100
AcDbMaterial
  1
ByLayer
 73
     1
 78
     1
172
     1
176
     1
270
     1
274
     1
  0
MATERIAL
  5
C
102
{ACAD_XDICTIONARY
360
31E
102
}
102
{ACAD_REACTORS
330
D
102
}
330
D
100
AcDbMaterial
  1
Global
 73
     1
 78
     1
172
     1
176
     1
270
     1
274
     1
  0
MLINESTYLE
  5
299
102
{ACAD_REACTORS
330
292
102
}
330
292
100
AcDbMlineStyle
  2
STANDARD
 70
     0
  3

 62
   256
 51
90.0
 52
90.0
 71
     2
 49
0.5
 62
   256
  6
BYLAYER
 49
-0.5
 62
   256
  6
BYLAYER
  0
ACDBPLACEHOLDER
  5
F6
102
{ACAD_REACTORS
330
A
102
}
330
A
  0
ACDBPLACEHOLDER
  5
C9
102
{ACAD_REACTORS
330
A
102
}
330
A
  0
ACDBPLACEHOLDER
  5
9
102
{ACAD_REACTORS
330
A
102
}
330
A
  0
SCALE
  5
29E
102
{ACAD_REACTORS
330
297
102
}
330
297
100
AcDbScale
 70
     0
300
1:1
140
1.0
141
0.1
290
     0
  0
SCALE
  5
29F
102
{ACAD_REACTORS
330
297
102
}
330
297
100
AcDbScale
 70
     0
300
1:2
140
1.0
141
0.2
290
     0
  0
SCALE
  5
2A0
102
{ACAD_REACTORS
330
297
102
}
330
297
100
AcDbScale
 70
     0
300
1:2.5
140
1.0
141
0.25
290
     0
  0
SCALE
  5
2A1
102
{ACAD_REACTORS
330
297
102
}
330
297
100
AcDbScale
 70
     0
300
1:5
140
1.0
141
0.5
290
     0
  0
SCALE
  5
2A2
102
{ACAD_REACTORS
330
297
102
}
330
297
100
AcDbScale
 70
     0
300
1:7.5
140
1.0
141
0.75
290
     0
  0
SCALE
  5
2A3
102
{ACAD_REACTORS
330
297
102
}
330
297
100
AcDbScale
 70
     0
300
1:10
140
1.0
141
1.0
290
     1
  0
SCALE
  5
2A4
102
{ACAD_REACTORS
330
297
102
}
330
297
100
AcDbScale
 70
     0
300
1:20
140
1.0
141
2.0
290
     0
  0
SCALE
  5
2A5
102
{ACAD_REACTORS
330
297
102
}
330
297
100
AcDbScale
 70
     0
300
1:25
140
1.0
141
2.5
290
     0
  0
SCALE
  5
2A6
102
{ACAD_REACTORS
330
297
102
}
330
297
100
AcDbScale
 70
     0
300
1:50
140
1.0
141
5.0
290
     0
  0
SCALE
  5
2A7
102
{ACAD_REACTORS
330
297
102
}
330
297
100
AcDbScale
 70
     0
300
1:75
140
1.0
141
7.5
290
     0
  0
SCALE
  5
2A8
102
{ACAD_REACTORS
330
297
102
}
330
297
100
AcDbScale
 70
     0
300
1:100
140
1.0
141
10.0
290
     0
  0
SCALE
  5
2A9
102
{ACAD_REACTORS
330
297
102
}
330
297
100
AcDbScale
 70
     0
300
1:150
140
1.0
141
15.0
290
     0
  0
SCALE
  5
2AA
102
{ACAD_REACTORS
330
297
102
}
330
297
100
AcDbScale
 70
     0
300
1:200
140
1.0
141
20.0
290
     0
  0
SCALE
  5
2AB
102
{ACAD_REACTORS
330
297
102
}
330
297
100
AcDbScale
 70
     0
300
1:250
140
1.0
141
25.0
290
     0
  0
SCALE
  5
2AC
102
{ACAD_REACTORS
330
297
102
}
330
297
100
AcDbScale
 70
     0
300
1:500
140
1.0
141
50.0
290
     0
  0
SCALE
  5
2AD
102
{ACAD_REACTORS
330
297
102
}
330
297
100
AcDbScale
 70
     0
300
1:750
140
1.0
141
75.0
290
     0
  0
SCALE
  5
2AE
102
{ACAD_REACTORS
330
297
102
}
330
297
100
AcDbScale
 70
     0
300
1:1000
140
1.0
141
100.0
290
     0
  0
SCALE
  5
2AF
102
{ACAD_REACTORS
330
297
102
}
330
297
100
AcDbScale
 70
     0
300
1:1250
140
1.0
141
125.0
290
     0
  0
SCALE
  5
2B0
102
{ACAD_REACTORS
330
297
102
}
330
297
100
AcDbScale
 70
     0
300
1:2000
140
1.0
141
200.0
290
     0
  0
SCALE
  5
2B1
102
{ACAD_REACTORS
330
297
102
}
330
297
100
AcDbScale
 70
     0
300
1:2500
140
1.0
141
250.0
290
     0
  0
SCALE
  5
2B2
102
{ACAD_REACTORS
330
297
102
}
330
297
100
AcDbScale
 70
     0
300
1:5000
140
1.0
141
500.0
290
     0
  0
TABLESTYLE
  5
29A
102
{ACAD_XDICTIONARY
360
29B
102
}
102
{ACAD_REACTORS
330
298
102
}
330
298
100
AcDbTableStyle
  3
Standard
 70
     0
 71
     0
 40
0.06
 41
0.06
280
     0
281
     0
  7
Standard
140
0.18
170
     2
 62
     0
 63
     7
283
     0
274
    -2
284
     1
 64
     0
275
    -2
285
     1
 65
     0
276
    -2
286
     1
 66
     0
277
    -2
287
     1
 67
     0
278
    -2
288
     1
 68
     0
279
    -2
289
     1
 69
     0
  7
Standard
140
0.25
170
     5
 62
     0
 63
     7
283
     0
274
    -2
284
     1
 64
     0
275
    -2
285
     1
 65
     0
276
    -2
286
     1
 66
     0
277
    -2
287
     1
 67
     0
278
    -2
288
     1
 68
     0
279
    -2
289
     1
 69
     0
  7
Standard
140
0.18
170
     5
 62
     0
 63
     7
283
     0
274
    -2
284
     1
 64
     0
275
    -2
285
     1
 65
     0
276
    -2
286
     1
 66
     0
277
    -2
287
     1
 67
     0
278
    -2
288
     1
 68
     0
279
    -2
289
     1
 69
     0
  0
VISUALSTYLE
  5
26A
102
{ACAD_REACTORS
330
26B
102
}
330
26B
100
AcDbVisualStyle
  2
2dWireframe
 70
     4
 71
     0
 72
     2
 73
     0
 90
        0
 40
-0.6
 41
-30.0
 62
     5
 63
     7
 74
     1
 91
        4
 64
     7
 65
   257
 75
     1
175
     1
 42
1.0
 92
        0
 66
   257
 43
1.0
 76
     1
 77
     6
 78
     2
 67
     7
 79
     5
170
     0
171
     0
290
     0
174
     0
 93
        1
 44
0.0
173
     0
291
     0
 45
0.0
1001
ACAD
1000
AcDbSavedByObjectVersion
1070
     0
  0
VISUALSTYLE
  5
29D
102
{ACAD_REACTORS
330
26B
102
}
330
26B
100
AcDbVisualStyle
  2
3dWireframe
 70
     5
 71
     0
 72
     2
 73
     0
 90
        0
 40
-0.6
 41
-30.0
 62
     5
 63
     7
 74
     1
 91
        4
 64
     7
 65
   257
 75
     1
175
     1
 42
1.0
 92
        0
 66
   257
 43
1.0
 76
     1
 77
     6
 78
     2
 67
     7
 79
     5
170
     0
171
     0
290
     0
174
     0
 93
        1
 44
0.0
173
     0
291
     0
 45
0.0
1001
ACAD
1000
AcDbSavedByObjectVersion
1070
     0
  0
VISUALSTYLE
  5
29C
102
{ACAD_REACTORS
330
26B
102
}
330
26B
100
AcDbVisualStyle
  2
Realistic
 70
     8
 71
     2
 72
     2
 73
     0
 90
        0
 40
-0.6
 41
-30.0
 62
     5
 63
     7
 74
     1
 91
        0
 64
     7
 65
   257
 75
     1
175
     1
 42
1.0
 92
        8
 66
     8
 43
1.0
 76
     1
 77
     6
 78
     2
 67
     7
 79
     5
170
     0
171
     0
290
     0
174
     0
 93
       13
 44
0.0
173
     0
291
     0
 45
0.0
1001
ACAD
1000
AcDbSavedByObjectVersion
1070
     0
  0
DICTIONARYVAR
  5
314
102
{ACAD_REACTORS
330
310
102
}
330
310
100
DictionaryVariables
280
     0
  1
1:100
  0
DICTIONARYVAR
  5
312
102
{ACAD_REACTORS
330
310
102
}
330
310
100
DictionaryVariables
280
     0
  1
STANDARD
  0
DICTIONARYVAR
  5
311
102
{ACAD_REACTORS
330
310
102
}
330
310
100
DictionaryVariables
280
     0
  1
STANDARD
  0
DICTIONARYVAR
  5
318
102
{ACAD_REACTORS
330
310
102
}
330
310
100
DictionaryVariables
280
     0
  1
1
  0
DICTIONARYVAR
  5
317
102
{ACAD_REACTORS
330
310
102
}
330
310
100
DictionaryVariables
280
     0
  1
1
  0
DICTIONARYVAR
  5
316
102
{ACAD_REACTORS
330
310
102
}
330
310
100
DictionaryVariables
280
     0
  1
0
  0
DICTIONARYVAR
  5
313
102
{ACAD_REACTORS
330
310
102
}
330
310
100
DictionaryVariables
280
     0
  1
1
  0
DICTIONARYVAR
  5
315
102
{ACAD_REACTORS
330
310
102
}
330
310
100
DictionaryVariables
280
     0
  1
127
  0
OBJECT_PTR
  5
30F
102
{ACAD_REACTORS
330
2CD
102
}
330
2CD
1001
DCO15
1000
jet_dbsamples..."elementy wiezby"(_el_wzb_Left_nazw_romans16)
1000
nazw_el_wiezb
1040
1.0
1040
1.0
1040
0.0
1040
0.0
1040
0.0
1040
0.0
1040
0.0
1040
15.0
1071
        0
1071
      256
1071
        7
1071
        5
1071
        1
1000
ROMANS
1000
ByLayer
1000
#(nazw_el_wiezb)
  0
OBJECT_PTR
  5
30E
102
{ACAD_REACTORS
330
2CD
102
}
330
2CD
1001
DCO15
1000
jet_dbsamples..."elementy wiezby"(_elementy_wiezby_SKROT_Romans16)
1000
skrot_el_wiezb
1040
1.0
1040
1.0
1040
0.0
1040
0.0
1040
0.0
1040
0.0
1040
0.0
1040
16.0
1071
        0
1071
      256
1071
        9
1071
        5
1071
        1
1000
ROMANS
1000
ByLayer
1000
#(skrot_el_wiezb)
  0
OBJECT_PTR
  5
30D
102
{ACAD_REACTORS
330
2CD
102
}
330
2CD
1001
DCO15
1000
jet_dbsamples..."materialy przegrod pl"(_materialy_przegrod_pl_Label1)
1000
nazw_mat
1040
1.0
1040
1.0
1040
0.0
1040
0.0
1040
0.0
1040
0.0
1040
0.0
1040
17.0
1071
        0
1071
      256
1071
        7
1071
        5
1071
        1
1000
ROMANS
1000
ByLayer
1000
#(nazw_mat)
  0
OBJECT_PTR
  5
30C
102
{ACAD_REACTORS
330
2CD
102
}
330
2CD
1001
DCO15
1000
jet_dbsamples..."nazwy przegrod pl"(_nazwy_przegrod_romans18)
1000
nzw_przegrody
1040
1.0
1040
1.0
1040
0.0
1040
0.0
1040
0.0
1040
0.0
1040
0.0
1040
17.0
1071
        0
1071
      256
1071
        7
1071
        5
1071
        1
1000
ROMANS
1000
ByLayer
1000
{\L\C2;#(nzw_przegrody)}
  0
OBJECT_PTR
  5
30B
102
{ACAD_REACTORS
330
2CD
102
}
330
2CD
1001
DCO15
1000
jet_dbsamples..."nazwy rysunkow"(_nazwy_rysunkow_Arial37)
1000
1linia
1000
2linia
1000
3linia
1040
1.0
1040
1.0
1040
0.0
1040
0.0
1040
0.0
1040
0.0
1040
0.0
1040
37.0
1071
        0
1071
      256
1071
        1
1071
        5
1071
        1
1000
ROMANS
1000
ByLayer
1000
{\fArial|b0|i0|c238|p34;#(1linia)\P#(2linia)\P#(3linia)}
  0
OBJECT_PTR
  5
30A
102
{ACAD_REACTORS
330
2CD
102
}
330
2CD
1001
DCO15
1000
jet_dbsamples..."nazwy rysunkow"(_nazwy_rysunkow_Romans18)
1000
1linia
1000
2linia
1000
3linia
1040
1.0
1040
1.0
1040
0.0
1040
0.0
1040
0.0
1040
0.0
1040
0.0
1040
18.0
1071
        0
1071
      256
1071
        2
1071
        5
1071
        1
1000
ROMANS
1000
ByLayer
1000
{\Fromans.shx|c238;#(1linia)\P#(2linia)\P#(3linia)}
  0
OBJECT_PTR
  5
309
102
{ACAD_REACTORS
330
2CD
102
}
330
2CD
1001
DCO15
1000
jet_dbsamples..."opisy rozne II"(_opisy_rozne_II_Label1)
1000
opis różny
1040
1.0
1040
1.0
1040
0.0
1040
0.0
1040
0.0
1040
0.0
1040
0.0
1040
10.0
1071
        0
1071
      256
1071
        1
1071
        5
1071
        1
1000
ROMANS
1000
ByLayer
1000
#(opis różny)
  0
OBJECT_PTR
  5
308
102
{ACAD_REACTORS
330
2CD
102
}
330
2CD
1001
DCO15
1000
jet_dbsamples..."opisy rozne II"(_opisy_rozne_II_Link1Label1)
1000
opis różny
1040
1.0
1040
1.0
1040
0.0
1040
0.0
1040
0.0
1040
0.0
1040
0.0
1040
10.0
1071
        0
1071
      256
1071
        1
1071
        5
1071
        1
1000
ROMANS
1000
ByLayer
1000
#(opis różny)
  0
OBJECT_PTR
  5
307
102
{ACAD_REACTORS
330
2CD
102
}
330
2CD
1001
DCO15
1000
jet_dbsamples..."posadzki do zestawienia pomieszczen"(_posadzki_do_zestawienia_pomieszczen_Romans17)
1000
nazwa_pos
1040
1.0
1040
1.0
1040
0.0
1040
0.0
1040
0.0
1040
0.0
1040
0.0
1040
17.0
1071
        0
1071
      256
1071
        7
1071
        5
1071
        1
1000
ROMANS
1000
ByLayer
1000
#(nazwa_pos)
  0
OBJECT_PTR
  5
306
102
{ACAD_REACTORS
330
2CD
102
}
330
2CD
1001
DCO15
1000
jet_dbsamples..."rozne opisy rys"(_rozne_opisy_rys_R16_right)
1000
1L
1000
2L
1000
3L
1000
4L
1000
5L
1040
1.0
1040
1.0
1040
0.0
1040
0.0
1040
0.0
1040
0.0
1040
0.0
1040
16.0
1071
        0
1071
      256
1071
        3
1071
        5
1071
        1
1000
ROMANS
1000
ByLayer
1000
#(1L)\P#(2L)\P#(3L)\P#(4L)\P#(5L)
  0
OBJECT_PTR
  5
305
102
{ACAD_REACTORS
330
2CD
102
}
330
2CD
1001
DCO15
1000
jet_dbsamples..."rozne opisy rys"(_rozne_opisy_rys_Romans12)
1000
1L
1000
2L
1000
3L
1000
4L
1000
5L
1040
1.0
1040
1.0
1040
0.0
1040
0.0
1040
0.0
1040
0.0
1040
0.0
1040
13.0
1071
        0
1071
      256
1071
        1
1071
        5
1071
        1
1000
ROMANS
1000
ByLayer
1000
#(1L)\P#(2L)\P#(3L)\P#(4L)\P#(5L)
  0
OBJECT_PTR
  5
304
102
{ACAD_REACTORS
330
2CD
102
}
330
2CD
1001
DCO15
1000
jet_dbsamples..."rozne opisy rys"(_rozne_opisy_rys_Romans16)
1000
1L
1000
2L
1000
3L
1000
4L
1000
5L
1040
1.0
1040
1.0
1040
0.0
1040
0.0
1040
0.0
1040
0.0
1040
0.0
1040
16.0
1071
        0
1071
      256
1071
        1
1071
        5
1071
        1
1000
ROMANS
1000
ByLayer
1000
#(1L)\P#(2L)\P#(3L)\P#(4L)\P#(5L)
  0
OBJECT_PTR
  5
303
102
{ACAD_REACTORS
330
2CD
102
}
330
2CD
1001
DCO15
1000
jet_dbsamples..."tabelka - inform i etykiety"(_tabelka_-_inform_i_etykiety_Romans13)
1000
1linia
1000
2linia_ewentualna
1000
3linia_ewentualna
1040
1.0
1040
1.0
1040
0.0
1040
0.0
1040
0.0
1040
0.0
1040
0.0
1040
13.0
1071
        0
1071
      256
1071
        1
1071
        5
1071
        1
1000
ROMANS
1000
ByLayer
1000
#(1linia)\P#(2linia_ewentualna)\P#(3linia_ewentualna)
  0
OBJECT_PTR
  5
302
102
{ACAD_REACTORS
330
2CD
102
}
330
2CD
1001
DCO15
1000
jet_dbsamples..."tabelka - inform i etykiety"(_tabelka_Arial15-center)
1000
1linia
1000
2linia_ewentualna
1000
3linia_ewentualna
1040
1.0
1040
1.0
1040
0.0
1040
0.0
1040
0.0
1040
0.0
1040
0.0
1040
15.0
1071
        0
1071
      256
1071
        2
1071
        5
1071
        1
1000
ROMANS
1000
ByLayer
1000
{\fArial|b0|i0|c238|p34;#(1linia)\P#(2linia_ewentualna)\P#(3linia_ewentualna)}
  0
OBJECT_PTR
  5
301
102
{ACAD_REACTORS
330
2CD
102
}
330
2CD
1001
DCO15
1000
jet_dbsamples..."tabelka - inform i etykiety"(_tabelka_Arial151)
1000
1linia
1040
1.0
1040
1.0
1040
0.0
1040
0.0
1040
0.0
1040
0.0
1040
0.0
1040
15.0
1071
        0
1071
      256
1071
        1
1071
        5
1071
        1
1000
ARIAL
1000
ByLayer
1000
{\fArial|b0|i0|c238|p34;#(1linia)}
  0
OBJECT_PTR
  5
300
102
{ACAD_REACTORS
330
2CD
102
}
330
2CD
1001
DCO15
1000
jet_dbsamples..."tabelka - inform i etykiety"(_tabelka_Romans 10)
1000
1linia
1000
2linia_ewentualna
1000
3linia_ewentualna
1040
1.0
1040
1.0
1040
0.0
1040
0.0
1040
0.0
1040
0.0
1040
0.0
1040
10.0
1071
        0
1071
      256
1071
        1
1071
        5
1071
        1
1000
ARIAL
1000
ByLayer
1000
#(1linia)\P#(2linia_ewentualna)\P#(3linia_ewentualna)
  0
OBJECT_PTR
  5
2FF
102
{ACAD_REACTORS
330
2CD
102
}
330
2CD
1001
DCO15
1000
jet_dbsamples..."tabelka - inform i etykiety"(_tabelka_Romans13)
1000
1linia
1000
2linia_ewentualna
1000
3linia_ewentualna
1040
1.0
1040
1.0
1040
0.0
1040
0.0
1040
0.0
1040
0.0
1040
0.0
1040
13.0
1071
        0
1071
      256
1071
        1
1071
        5
1071
        1
1000
ARIAL
1000
ByLayer
1000
#(1linia)\P#(2linia_ewentualna)\P#(3linia_ewentualna)
  0
OBJECT_PTR
  5
2FE
102
{ACAD_REACTORS
330
2CD
102
}
330
2CD
1001
DCO15
1000
jet_dbsamples..."tabelka - inform i etykiety"(_tabelka_Romans19)
1000
1linia
1000
2linia_ewentualna
1000
3linia_ewentualna
1040
1.0
1040
1.0
1040
0.0
1040
0.0
1040
0.0
1040
0.0
1040
0.0
1040
19.0
1071
        0
1071
      256
1071
        2
1071
        5
1071
        1
1000
ARIAL
1000
ByLayer
1000
#(1linia)\P#(2linia_ewentualna)\P#(3linia_ewentualna)
  0
OBJECT_PTR
  5
2FD
102
{ACAD_REACTORS
330
2CD
102
}
330
2CD
1001
DCO15
1000
jet_dbsamples...ALFABET(ALFABET-Arial20)
1000
liter_alf
1040
1.0
1040
1.0
1040
0.0
1040
0.0
1040
0.0
1040
0.0
1040
0.0
1040
20.0
1071
        0
1071
      256
1071
        7
1071
        5
1071
        1
1000
ARIAL
1000
ByLayer
1000
{\fArial|b0|i0|c238|p34;#(liter_alf)}
  0
OBJECT_PTR
  5
2FC
102
{ACAD_REACTORS
330
2CD
102
}
330
2CD
1001
DCO15
1000
jet_dbsamples...ALFABET(ALFABET-Arial26)
1000
liter_alf
1040
1.0
1040
1.0
1040
0.0
1040
0.0
1040
0.0
1040
0.0
1040
0.0
1040
26.0
1071
        0
1071
      256
1071
        7
1071
        5
1071
        1
1000
ARIAL
1000
ByLayer
1000
{\fArial|b0|i0|c238|p34;\C140;#(liter_alf)}
  0
OBJECT_PTR
  5
2FB
102
{ACAD_REACTORS
330
2CD
102
}
330
2CD
1001
DCO15
1000
jet_dbsamples...ALFABET(ALFABET-Arial37)
1000
liter_alf
1040
1.0
1040
1.0
1040
0.0
1040
0.0
1040
0.0
1040
0.0
1040
0.0
1040
37.0
1071
        0
1071
      256
1071
        7
1071
        5
1071
        1
1000
ARIAL
1000
ByLayer
1000
{\fArial|b0|i0|c238|p34;#(liter_alf)}
  0
OBJECT_PTR
  5
2FA
102
{ACAD_REACTORS
330
2CD
102
}
330
2CD
1001
DCO15
1000
jet_dbsamples..."uwagi ogolne na arkuszu"(Arial_27)
1000
1naglowek
1000
1linia
1000
2linia
1000
3linia
1000
4linia
1000
5linia
1000
6linia
1000
7linia
1000
8linia
1000
9linia
1000
10linia
1000
11linia
1000
12linia
1040
1.0
1040
1.0
1040
0.0
1040
0.0
1040
0.0
1040
0.0
1040
0.0
1040
26.0
1071
        0
1071
      256
1071
        1
1071
        5
1071
        1
1000
ARIAL
1000
ByLayer
1000
{\fArial|b0|i0|c238|p34;#(1naglowek)\P#(1linia)\P#(2linia)\P#(3linia)\P#(4linia)\P#(5linia)\P#(6linia)\P#(7linia)\P#(8linia)\P#(9linia)\P#(10linia)\P#(11linia)\P#(12linia)}
  0
OBJECT_PTR
  5
2F9
102
{ACAD_REACTORS
330
2CD
102
}
330
2CD
1001
DCO15
1000
konstr...arkusz_nazwy(arkusz_nazwy_Arial_35_DwieLinie)
1000
Nazwa rysunku
1000
Nazwa rysunku_2
1040
1.0
1040
1.0
1040
0.0
1040
0.0
1040
0.0
1040
0.0
1040
0.0
1040
35.0
1071
        0
1071
      256
1071
        2
1071
        5
1071
        1
1000
ARIAL
1000
ByLayer
1000
#(Nazwa rysunku)\P#(Nazwa rysunku_2)
  0
OBJECT_PTR
  5
2F8
102
{ACAD_REACTORS
330
2CD
102
}
330
2CD
1001
DCO15
1000
konstr...arkusz_nazwy(arkusz_nazwy_Romans_18)
1000
Nazwa rysunku
1000
Nazwa rysunku_2
1040
1.0
1040
1.0
1040
0.0
1040
0.0
1040
0.0
1040
0.0
1040
0.0
1040
18.0
1071
        0
1071
      256
1071
        2
1071
        5
1071
        1
1000
ROMANS
1000
ByLayer
1000
#(Nazwa rysunku) #(Nazwa rysunku_2)
  0
OBJECT_PTR
  5
2F7
102
{ACAD_REACTORS
330
2CD
102
}
330
2CD
1001
DCO15
1000
jet_dbsamples...jednostki(jednostki-Arial18)
1000
jedn
1040
1.0
1040
1.0
1040
0.0
1040
0.0
1040
0.0
1040
0.0
1040
0.0
1040
18.0
1071
        0
1071
      256
1071
        7
1071
        5
1071
        1
1000
ARIAL
1000
ByLayer
1000
{\fArial|b0|i0|c238|p34;#(jedn)}
  0
OBJECT_PTR
  5
2F6
102
{ACAD_REACTORS
330
2CD
102
}
330
2CD
1001
DCO15
1000
jet_dbsamples...jednostki(jednostki-Arial30)
1000
jedn
1040
1.0
1040
1.0
1040
0.0
1040
0.0
1040
0.0
1040
0.0
1040
0.0
1040
30.0
1071
        0
1071
      256
1071
        7
1071
        5
1071
        1
1000
ARIAL
1000
ByLayer
1000
{\fArial|b0|i0|c238|p34;#(jedn)}
  0
OBJECT_PTR
  5
2F5
102
{ACAD_REACTORS
330
2CD
102
}
330
2CD
1001
DCO15
1000
jet_dbsamples...jednostki(jednostki-Romans16)
1000
jedn
1040
1.0
1040
1.0
1040
0.0
1040
0.0
1040
0.0
1040
0.0
1040
0.0
1040
16.0
1071
        0
1071
      256
1071
        7
1071
        5
1071
        1
1000
ARIAL
1000
ByLayer
1000
#(jedn)
  0
OBJECT_PTR
  5
2F4
102
{ACAD_REACTORS
330
2CD
102
}
330
2CD
1001
DCO15
1000
KONSTR...jednostki(jednostki_arial6.6kursywa)
1000
JEDNOSTKI
1040
1.0
1040
1.0
1040
0.0
1040
0.0
1040
0.0
1040
0.0
1040
0.0
1040
6.599999999999999
1071
        0
1071
      256
1071
        1
1071
        5
1071
        1
1000
ROMANS
1000
ByLayer
1000
{\fArial|b0|i1|c0|p34;#(JEDNOSTKI)}
  0
OBJECT_PTR
  5
2F3
102
{ACAD_REACTORS
330
2CD
102
}
330
2CD
1001
DCO15
1000
KONSTR...jednostki(jednostki_ROMANS11)
1000
JEDNOSTKI
1040
1.0
1040
1.0
1040
0.0
1040
0.0
1040
0.0
1040
0.0
1040
0.0
1040
11.0
1071
        0
1071
      256
1071
        1
1071
        5
1071
        1
1000
ROMANS
1000
ByLayer
1000
#(JEDNOSTKI)
  0
OBJECT_PTR
  5
2F2
102
{ACAD_REACTORS
330
2CD
102
}
330
2CD
1001
DCO15
1000
KONSTR...jednostki(jednostki_ROMANS15)
1000
JEDNOSTKI
1040
1.0
1040
1.0
1040
0.0
1040
0.0
1040
0.0
1040
0.0
1040
0.0
1040
15.0
1071
        0
1071
      256
1071
        1
1071
        5
1071
        1
1000
ROMANS
1000
ByLayer
1000
#(JEDNOSTKI)
  0
OBJECT_PTR
  5
2F1
102
{ACAD_REACTORS
330
2CD
102
}
330
2CD
1001
DCO15
1000
KONSTR...jednostki(jednostki_Romans7)
1000
JEDNOSTKI
1040
1.0
1040
1.0
1040
0.0
1040
0.0
1040
0.0
1040
0.0
1040
0.0
1040
7.0
1071
        0
1071
      256
1071
        1
1071
        5
1071
        1
1000
ROMANS
1000
ByLayer
1000
#(JEDNOSTKI)
  0
OBJECT_PTR
  5
2F0
102
{ACAD_REACTORS
330
2CD
102
}
330
2CD
1001
DCO15
1000
KONSTR...jednostki(jednostkiLabel1)
1000
JEDNOSTKI
1040
1.0
1040
1.0
1040
0.0
1040
0.0
1040
0.0
1040
0.0
1040
0.0
1040
11.0
1071
        0
1071
      256
1071
        7
1071
        5
1071
        1
1000
ROMANS
1000
ByLayer
1000
#(JEDNOSTKI)
  0
OBJECT_PTR
  5
2EF
102
{ACAD_REACTORS
330
2CD
102
}
330
2CD
1001
DCO15
1000
KONSTR...jednostki(jednostkiRomans22)
1000
JEDNOSTKI
1040
1.0
1040
1.0
1040
0.0
1040
0.0
1040
0.0
1040
0.0
1040
0.0
1040
22.4
1071
        0
1071
      256
1071
        7
1071
        5
1071
        1
1000
ROMANS
1000
ByLayer
1000
#(JEDNOSTKI)
  0
OBJECT_PTR
  5
2EE
102
{ACAD_REACTORS
330
2CD
102
}
330
2CD
1001
DCO15
1000
KONSTR...konstr_drew(konstr_drew_arial6.6kursywa)
1000
1L
1000
2L
1000
3L
1000
4L
1000
5L
1040
1.0
1040
1.0
1040
0.0
1040
0.0
1040
0.0
1040
0.0
1040
0.0
1040
6.599999999999999
1071
        0
1071
      256
1071
        1
1071
        5
1071
        1
1000
ROMANS
1000
ByLayer
1000
{\fArial|b0|i1|c238|p34;#(1L)\P#(2L)\P#(3L)\P#(4L)\P#(5L)}
  0
OBJECT_PTR
  5
2ED
102
{ACAD_REACTORS
330
2CD
102
}
330
2CD
1001
DCO15
1000
KONSTR...konstr_drew(konstr_drew_romans7)
1000
1L
1000
2L
1000
3L
1000
4L
1000
5L
1000
6L
1040
1.0
1040
1.0
1040
0.0
1040
0.0
1040
0.0
1040
0.0
1040
0.0
1040
7.0
1071
        0
1071
      256
1071
        1
1071
        5
1071
        1
1000
ROMANS
1000
ByLayer
1000
#(1L)\P#(2L)\P#(3L)\P#(4L)\P#(5L)\P#(6L)
  0
OBJECT_PTR
  5
2EC
102
{ACAD_REACTORS
330
2CD
102
}
330
2CD
1001
DCO15
1000
KONSTR...konstr_stal(konstr_stalarial9kursywa)
1000
1L
1000
2L
1000
3L
1000
4L
1040
1.0
1040
1.0
1040
0.0
1040
0.0
1040
0.0
1040
0.0
1040
0.0
1040
9.0
1071
        0
1071
      256
1071
        1
1071
        5
1071
        1
1000
ROMANS
1000
ByLayer
1000
{\fArial|b0|i1|c238|p34;#(1L)\P#(2L)\P#(3L)\P#(4L)}
  0
OBJECT_PTR
  5
2EB
102
{ACAD_REACTORS
330
2CD
102
}
330
2CD
1001
DCO15
1000
KONSTR...konstr_stal(konstr_stalLabel1)
1000
1L
1000
2L
1000
3L
1000
4L
1040
1.0
1040
1.0
1040
0.0
1040
0.0
1040
0.0
1040
0.0
1040
0.0
1040
6.0
1071
        0
1071
      256
1071
        1
1071
        5
1071
        1
1000
ROMANS
1000
ByLayer
1000
#(1L)\P#(2L)\P#(3L)\P#(4L)
  0
OBJECT_PTR
  5
2EA
102
{ACAD_REACTORS
330
2CD
102
}
330
2CD
1001
DCO15
1000
KONSTR...konstr_stal(konstr_stalLabel2)
1000
1L
1000
2L
1000
3L
1000
4L
1040
1.0
1040
1.0
1040
0.0
1040
0.0
1040
0.0
1040
0.0
1040
0.0
1040
6.0
1071
        0
1071
      256
1071
        1
1071
        5
1071
        1
1000
ROMANS
1000
ByLayer
1000
#(1L)\P#(2L)\P#(3L)\P#(4L)
  0
OBJECT_PTR
  5
2E9
102
{ACAD_REACTORS
330
2CD
102
}
330
2CD
1001
DCO15
1000
jet_dbsamples...miesiace(miesiace-Romans17)
1000
nzw_mies
1040
1.0
1040
1.0
1040
0.0
1040
0.0
1040
0.0
1040
0.0
1040
0.0
1040
17.0
1071
        0
1071
      256
1071
        1
1071
        5
1071
        1
1000
ARIAL
1000
ByLayer
1000
#(nzw_mies)
  0
OBJECT_PTR
  5
2E8
102
{ACAD_REACTORS
330
2CD
102
}
330
2CD
1001
DCO15
1000
jet_dbsamples...pomieszczenia(pomieszczenia-Arial 15)
1000
nazwa
1040
1.0
1040
1.0
1040
0.0
1040
0.0
1040
0.0
1040
0.0
1040
0.0
1040
15.0
1071
        0
1071
      256
1071
        8
1071
        5
1071
        1
1000
ARIAL
1000
ByLayer
1000
{\fArial|b0|i0|c238|p34;#(nazwa)}
  0
OBJECT_PTR
  5
2E7
102
{ACAD_REACTORS
330
2CD
102
}
330
2CD
1001
DCO15
1000
jet_dbsamples...pomieszczenia(pomieszczenia-Romans17)
1000
nazwa
1040
1.0
1040
1.0
1040
0.0
1040
0.0
1040
0.0
1040
0.0
1040
0.0
1040
17.0
1071
        0
1071
      256
1071
        7
1071
        5
1071
        1
1000
ARIAL
1000
ByLayer
1000
#(nazwa)
  0
OBJECT_PTR
  5
2E6
102
{ACAD_REACTORS
330
2CD
102
}
330
2CD
1001
DCO15
1000
jet_dbsamples..."elementy wiezby"(romans16)
1000
nazw_el_wiezb
1040
1.0
1040
1.0
1040
0.0
1040
0.0
1040
0.0
1040
0.0
1040
0.0
1040
16.0
1071
        0
1071
      256
1071
        1
1071
        5
1071
        1
1000
ARIAL
1000
ByLayer
1000
#(nazw_el_wiezb)
  0
OBJECT_PTR
  5
2E5
102
{ACAD_REACTORS
330
2CD
102
}
330
2CD
1001
DCO15
1000
jet_dbsamples..."uwagi ogolne na arkuszu"(Romans_17)
1000
1naglowek
1000
1linia
1000
2linia
1000
3linia
1000
4linia
1000
5linia
1000
6linia
1000
7linia
1000
8linia
1000
9linia
1000
10linia
1000
11linia
1000
12linia
1040
1.0
1040
1.0
1040
0.0
1040
0.0
1040
0.0
1040
0.0
1040
0.0
1040
17.0
1071
        0
1071
      256
1071
        1
1071
        5
1071
        1
1000
ARIAL
1000
ByLayer
1000
#(1naglowek)\P#(1linia)\P#(2linia)\P#(3linia)\P#(4linia)\P#(5linia)\P#(6linia)\P#(7linia)\P#(8linia)\P#(9linia)\P#(10linia)\P#(11linia)\P#(12linia)
  0
OBJECT_PTR
  5
2E4
102
{ACAD_REACTORS
330
2CD
102
}
330
2CD
1001
DCO15
1000
KONSTR...schematy(schematy_arial15)
1000
1L
1000
2L
1000
3L
1000
4L
1000
5L
1040
1.0
1040
1.0
1040
0.0
1040
0.0
1040
0.0
1040
0.0
1040
0.0
1040
15.0
1071
        0
1071
      256
1071
        1
1071
        5
1071
        1
1000
ROMANS
1000
ByLayer
1000
{\fArial|b0|i0|c238|p34;#(1L)\P#(2L)\P#(3L)\P#(4L)\P#(5L)\fArial|b0|i0|c0|p34;}
  0
OBJECT_PTR
  5
2E3
102
{ACAD_REACTORS
330
2CD
102
}
330
2CD
1001
DCO15
1000
KONSTR...schematy(schematy_arial20)
1000
1L
1000
2L
1000
3L
1000
4L
1000
5L
1040
1.0
1040
1.0
1040
0.0
1040
0.0
1040
0.0
1040
0.0
1040
0.0
1040
22.0
1071
        0
1071
      256
1071
        1
1071
        5
1071
        1
1000
ROMANS
1000
ByLayer
1000
{\fArial|b0|i0|c238|p34;#(1L)\P#(2L)\P#(3L)\P#(4L)\P#(5L)}
  0
OBJECT_PTR
  5
2E2
102
{ACAD_REACTORS
330
2CD
102
}
330
2CD
1001
DCO15
1000
KONSTR...schematy(schematy_arial37)
1000
1L
1000
2L
1000
3L
1000
4L
1000
5L
1040
1.0
1040
1.0
1040
0.0
1040
0.0
1040
0.0
1040
0.0
1040
0.0
1040
37.0
1071
        0
1071
      256
1071
        1
1071
        5
1071
        1
1000
ROMANS
1000
ByLayer
1000
{\fArial|b0|i0|c238|p34;#(1L)\P#(2L)\P#(3L)\P#(4L)\P#(5L)}
  0
OBJECT_PTR
  5
2E1
102
{ACAD_REACTORS
330
2CD
102
}
330
2CD
1001
DCO15
1000
KONSTR...schematy(schematy_romans15)
1000
1L
1000
2L
1000
3L
1000
4L
1000
5L
1040
1.0
1040
1.0
1040
0.0
1040
0.0
1040
0.0
1040
0.0
1040
0.0
1040
15.0
1071
        0
1071
      256
1071
        1
1071
        5
1071
        1
1000
ROMANS
1000
ByLayer
1000
#(1L)\P#(2L)\P#(3L)\P#(4L)\P#(5L)
  0
OBJECT_PTR
  5
2E0
102
{ACAD_REACTORS
330
2CD
102
}
330
2CD
1001
DCO15
1000
KONSTR...schematy(schematy_romans15Right)
1000
1L
1000
2L
1000
3L
1000
4L
1000
5L
1040
1.0
1040
1.0
1040
0.0
1040
0.0
1040
0.0
1040
0.0
1040
0.0
1040
15.0
1071
        0
1071
      256
1071
        3
1071
        5
1071
        1
1000
ROMANS
1000
ByLayer
1000
#(1L)\P#(2L)\P#(3L)\P#(4L)\P#(5L)
  0
OBJECT_PTR
  5
2DF
102
{ACAD_REACTORS
330
2CD
102
}
330
2CD
1001
DCO15
1000
jet_dbsamples...stolarka(stolarka-Arial14)
1000
STOL_TKST
1000
STOL_TKST_2linia
1040
1.0
1040
1.0
1040
0.0
1040
0.0
1040
0.0
1040
0.0
1040
0.0
1040
14.0
1071
        0
1071
      256
1071
        1
1071
        5
1071
        1
1000
ARIAL
1000
ByLayer
1000
{\fArial|b0|i0|c238|p34;#(STOL_TKST)\P#(STOL_TKST_2linia)}
  0
OBJECT_PTR
  5
2DE
102
{ACAD_REACTORS
330
2CD
102
}
330
2CD
1001
DCO15
1000
jet_dbsamples...stolarka(stolarka-Romans1607)
1000
STOL_TKST
1000
STOL_TKST_2linia
1040
1.0
1040
1.0
1040
0.0
1040
0.0
1040
0.0
1040
0.0
1040
0.0
1040
16.0
1071
        0
1071
      256
1071
        5
1071
        5
1071
        1
1000
ARIAL
1000
ByLayer
1000
#(STOL_TKST)\P#(STOL_TKST_2linia)
  0
OBJECT_PTR
  5
2DD
102
{ACAD_REACTORS
330
2CD
102
}
330
2CD
1001
DCO15
1000
jet_dbsamples...stolarka(stolarka-Romans1608)
1000
STOL_TKST
1000
STOL_TKST_2linia
1040
1.0
1040
1.0
1040
0.0
1040
0.0
1040
0.0
1040
0.0
1040
0.0
1040
16.0
1071
        0
1071
      256
1071
        5
1071
        5
1071
        1
1000
ROMANS
1000
ByLayer
1000
#(STOL_TKST)\P#(STOL_TKST_2linia)
  0
OBJECT_PTR
  5
2DC
102
{ACAD_REACTORS
330
2CD
102
}
330
2CD
1001
DCO15
1000
jet_dbsamples...stolarka(stolarkaLabel1)
1000
STOL_TKST
1000
STOL_TKST_2linia
1040
1.0
1040
1.0
1040
0.0
1040
0.0
1040
0.0
1040
0.0
1040
0.0
1040
25.0
1071
        0
1071
      256
1071
        1
1071
        5
1071
        1
1000
ROMANS
1000
ByLayer
1000
{\fArial|b0|i0|c238|p34;#(STOL_TKST)\P#(STOL_TKST_2linia)}
  0
OBJECT_PTR
  5
2DB
102
{ACAD_REACTORS
330
2CD
102
}
330
2CD
1001
DCO15
1000
KONSTR...szczegoly(szczegoly_arial12kursywa)
1000
1L
1000
2L
1000
3L
1000
4L
1000
5L
1000
6L
1040
1.0
1040
1.0
1040
0.0
1040
0.0
1040
0.0
1040
0.0
1040
0.0
1040
12.0
1071
        0
1071
      256
1071
        1
1071
        5
1071
        1
1000
ROMANS
1000
ByLayer
1000
{\fArial|b0|i1|c238|p34;#(1L)\P#(2L)\P#(3L)\P#(4L)\P#(5L)\P#(6L)}
  0
OBJECT_PTR
  5
2DA
102
{ACAD_REACTORS
330
2CD
102
}
330
2CD
1001
DCO15
1000
KONSTR...szczegoly(szczegoly_arial6.6kursRight)
1000
1L
1000
2L
1000
3L
1000
4L
1000
5L
1000
6L
1040
1.0
1040
1.0
1040
0.0
1040
0.0
1040
0.0
1040
0.0
1040
0.0
1040
6.599999999999999
1071
        0
1071
      256
1071
        3
1071
        5
1071
        1
1000
ROMANS
1000
ByLayer
1000
{\fArial|b0|i1|c238|p34;#(1L)\P#(2L)\P#(3L)\P#(4L)\P#(5L)\P#(6L)}
  0
OBJECT_PTR
  5
2D9
102
{ACAD_REACTORS
330
2CD
102
}
330
2CD
1001
DCO15
1000
KONSTR...szczegoly(szczegoly_arial6.6kursywa)
1000
1L
1000
2L
1000
3L
1000
4L
1000
5L
1000
6L
1040
1.0
1040
1.0
1040
0.0
1040
0.0
1040
0.0
1040
0.0
1040
0.0
1040
6.599999999999999
1071
        0
1071
      256
1071
        1
1071
        5
1071
        1
1000
ROMANS
1000
ByLayer
1000
{\fArial|b0|i1|c238|p34;#(1L)\P#(2L)\P#(3L)\P#(4L)\P#(5L)\P#(6L)}
  0
OBJECT_PTR
  5
2D8
102
{ACAD_REACTORS
330
2CD
102
}
330
2CD
1001
DCO15
1000
KONSTR...szczegoly(szczegoly_Romans7)
1000
1L
1000
2L
1000
3L
1000
4L
1000
5L
1000
6L
1040
1.0
1040
1.0
1040
0.0
1040
0.0
1040
0.0
1040
0.0
1040
0.0
1040
7.0
1071
        0
1071
      256
1071
        1
1071
        5
1071
        1
1000
ROMANS
1000
ByLayer
1000
#(1L)\P#(2L)\P#(3L)\P#(4L)\P#(5L)\P#(6L)
  0
OBJECT_PTR
  5
2D7
102
{ACAD_REACTORS
330
2CD
102
}
330
2CD
1001
DCO15
1000
KONSTR...szczegoly(szczegoly_romans7_right)
1000
1L
1000
2L
1000
3L
1000
4L
1000
5L
1000
6L
1040
1.0
1040
1.0
1040
0.0
1040
0.0
1040
0.0
1040
0.0
1040
0.0
1040
7.0
1071
        0
1071
      256
1071
        3
1071
        5
1071
        1
1000
ROMANS
1000
ByLayer
1000
#(1L)\P#(2L)\P#(3L)\P#(4L)\P#(5L)\P#(6L)
  0
OBJECT_PTR
  5
2D6
102
{ACAD_REACTORS
330
2CD
102
}
330
2CD
1001
DCO15
1000
jet_dbsamples...tbl_PRZEGRODY(tbl_PRZEGRODY)
1000
nazwa przegrody
1000
1w
1000
2w
1000
3w
1000
4w
1000
5w
1000
6w
1000
7w
1000
8w
1000
9w
1000
10w
1000
11w
1000
12w
1000
13w
1000
14w
1000
15w
1000
16w
1040
1.0
1040
1.0
1040
0.0
1040
0.0
1040
0.0
1040
0.0
1040
0.0
1040
17.0
1071
        0
1071
      256
1071
        1
1071
        5
1071
        1
1000
ROMANS
1000
ByLayer
1000
{\Fromans.shx|c238;\L\C2;#(nazwa przegrody)\C4;\P}#(1w)\P#(2w)\P#(3w)\P#(4w)\P#(5w)\P#(6w)\P#(7w)\P#(8w)\P#(9w)\P#(10w)\P#(11w)\P#(12w)\P#(13w)\P#(14w)\P#(15w)\P#(16w)
  0
OBJECT_PTR
  5
2D5
102
{ACAD_REACTORS
330
2CD
102
}
330
2CD
1001
DCO15
1000
jet_dbsamples..."uwagi ogolne na arkuszu"(uwag_og_na_ark_Arial18)
1000
1naglowek
1000
1linia
1000
2linia
1000
3linia
1000
4linia
1000
5linia
1000
6linia
1000
7linia
1000
8linia
1000
9linia
1000
10linia
1000
11linia
1000
12linia
1040
1.0
1040
1.0
1040
0.0
1040
0.0
1040
0.0
1040
0.0
1040
0.0
1040
18.0
1071
        0
1071
      256
1071
        1
1071
        5
1071
        1
1000
ROMANS
1000
ByLayer
1000
{\fArial|b0|i0|c238|p34;#(1naglowek)\P#(1linia)\P#(2linia)\P#(3linia)\P#(4linia)\P#(5linia)\P#(6linia)\P#(7linia)\P#(8linia)\P#(9linia)\P#(10linia)\P#(11linia)\P#(12linia)}
  0
OBJECT_PTR
  5
2D4
102
{ACAD_REACTORS
330
2CD
102
}
330
2CD
1001
DCO15
1000
KONSTR...uwagi_na_schematach(uwagi_na_schematachLabel1)
1000
1L
1000
2L
1000
3L
1000
4L
1000
5L
1000
6L
1000
7L
1000
8L
1000
9L
1000
10L
1000
11L
1000
12L
1040
1.0
1040
1.0
1040
0.0
1040
0.0
1040
0.0
1040
0.0
1040
0.0
1040
22.4
1071
        0
1071
      256
1071
        1
1071
        5
1071
        1
1000
ROMANS
1000
ByLayer
1000
{\Fromans.shx|c238;#(1L)\P#(2L)\P#(3L)\P#(4L)\P#(5L)\P#(6L)\P#(7L)\P#(8L)\P#(9L)\P#(10L)\P#(11L)\P#(12L)}
  0
OBJECT_PTR
  5
2D3
102
{ACAD_REACTORS
330
2CD
102
}
330
2CD
1001
DCO15
1000
KONSTR...uwagi_na_schematach(uwagi_na_schematachLabel2)
1000
1L
1000
2L
1000
3L
1000
4L
1000
5L
1000
6L
1000
7L
1000
8L
1000
9L
1000
10L
1000
11L
1000
12L
1040
1.0
1040
1.0
1040
0.0
1040
0.0
1040
0.0
1040
0.0
1040
0.0
1040
35.0
1071
        0
1071
      256
1071
        1
1071
        5
1071
        1
1000
ROMANS
1000
ByLayer
1000
{\fArial|b0|i1|c0|p34;#(1L)\P#(2L)\P#(3L)\P#(4L)\P#(5L)\P#(6L)\P#(7L)\P#(8L)\P#(9L)\P#(10L)\P#(11L)\P#(12L)}
  0
OBJECT_PTR
  5
2D2
102
{ACAD_REACTORS
330
2CD
102
}
330
2CD
1001
DCO15
1000
KONSTR...uwagi_na_schematach(uwagi_na_schematachRight)
1000
1L
1000
2L
1000
3L
1000
4L
1000
5L
1000
6L
1000
7L
1000
8L
1000
9L
1000
10L
1000
11L
1000
12L
1040
1.0
1040
1.0
1040
0.0
1040
0.0
1040
0.0
1040
0.0
1040
0.0
1040
22.4
1071
        0
1071
      256
1071
        3
1071
        5
1071
        1
1000
ROMANS
1000
ByLayer
1000
{\Fromans.shx|c238;#(1L)\P#(2L)\P#(3L)\P#(4L)\P#(5L)\P#(6L)\P#(7L)\P#(8L)\P#(9L)\P#(10L)\P#(11L)\P#(12L)}
  0
OBJECT_PTR
  5
2D1
102
{ACAD_REACTORS
330
2CD
102
}
330
2CD
1001
DCO15
1000
KONSTR...zbroj_plyty(zbroj_plyty_arial22)
1000
1L
1000
2L
1000
3L
1040
1.0
1040
1.0
1040
0.0
1040
0.0
1040
0.0
1040
0.0
1040
0.0
1040
22.0
1071
        0
1071
      256
1071
        1
1071
        5
1071
        1
1000
ROMANS
1000
ByLayer
1000
{\fArial|b0|i0|c238|p34;#(1L)\P#(2L)\P#(3L)}
  0
OBJECT_PTR
  5
2D0
102
{ACAD_REACTORS
330
2CD
102
}
330
2CD
1001
DCO15
1000
KONSTR...zbroj_plyty(zbroj_plyty_romans12)
1000
1L
1000
2L
1000
3L
1040
1.0
1040
1.0
1040
0.0
1040
0.0
1040
0.0
1040
0.0
1040
0.0
1040
11.0
1071
        0
1071
      256
1071
        1
1071
        5
1071
        1
1000
ROMANS
1000
ByLayer
1000
#(1L)\P#(2L)\P#(3L)
  0
OBJECT_PTR
  5
2CF
102
{ACAD_REACTORS
330
2CD
102
}
330
2CD
1001
DCO15
1000
KONSTR...zbroj_plyty(zbroj_plyty_romans12Right)
1000
1L
1000
2L
1000
3L
1040
1.0
1040
1.0
1040
0.0
1040
0.0
1040
0.0
1040
0.0
1040
0.0
1040
11.0
1071
        0
1071
      256
1071
        3
1071
        5
1071
        1
1000
ROMANS
1000
ByLayer
1000
#(1L)\P#(2L)\P#(3L)
  0
OBJECT_PTR
  5
2CE
102
{ACAD_REACTORS
330
2CD
102
}
330
2CD
1001
DCO15
1000
KONSTR...zbroj_plyty(zbroj_plyty_romans9)
1000
1L
1000
2L
1000
3L
1040
1.0
1040
1.0
1040
0.0
1040
0.0
1040
0.0
1040
0.0
1040
0.0
1040
9.0
1071
        0
1071
      256
1071
        1
1071
        5
1071
        1
1000
ROMANS
1000
ByLayer
1000
#(1L)\P#(2L)\P#(3L)
  0
OBJECT_PTR
  5
2CC
102
{ACAD_REACTORS
330
2B5
102
}
330
2B5
1001
DCO15
1000
jet_dbsamples..."elementy wiezby"(_elementy_wiezby_Link1)
1000
IDENTYFIKATOR
1000

1000

1070
     4
1070
     0
1070
     0
1070
     0
1070
  1024
  0
OBJECT_PTR
  5
2CB
102
{ACAD_REACTORS
330
2B5
102
}
330
2B5
1001
DCO15
1000
jet_dbsamples..."materialy przegrod pl"(_materialy_przegrod_pl_Link1)
1000
IDENTYFIKATOR
1000

1000

1070
     4
1070
     0
1070
     0
1070
     0
1070
  1024
  0
OBJECT_PTR
  5
2CA
102
{ACAD_REACTORS
330
2B5
102
}
330
2B5
1001
DCO15
1000
jet_dbsamples..."nazwy przegrod pl"(_nazwy_przegrod_pl_Link1)
1000
IDENTYFIKATOR
1000

1000

1070
     4
1070
     0
1070
     0
1070
     0
1070
  1024
  0
OBJECT_PTR
  5
2C9
102
{ACAD_REACTORS
330
2B5
102
}
330
2B5
1001
DCO15
1000
jet_dbsamples..."nazwy rysunkow"(_nazwy_rysunkow_Arial37)
1000
IDENTYFIKATOR
1000

1000

1070
     4
1070
     0
1070
     0
1070
     0
1070
  1024
  0
OBJECT_PTR
  5
2C8
102
{ACAD_REACTORS
330
2B5
102
}
330
2B5
1001
DCO15
1000
jet_dbsamples..."opisy rozne II"(_opisy_rozne_II_Link1)
1000
"opis różny"
1000
1250
1000
ASCII
1070
    12
1070
   200
1070
     0
1070
     0
1070
  1024
  0
OBJECT_PTR
  5
2C7
102
{ACAD_REACTORS
330
2B5
102
}
330
2B5
1001
DCO15
1000
jet_dbsamples..."opisy rozne II"(_opisy_rozne_II_Link2)
1000
IDENTYFIKATOR
1000

1000

1070
     4
1070
     0
1070
     0
1070
     0
1070
  1024
  0
OBJECT_PTR
  5
2C6
102
{ACAD_REACTORS
330
2B5
102
}
330
2B5
1001
DCO15
1000
jet_dbsamples..."posadzki do zestawienia pomieszczen"(_posadzki_do_zestawienia_pomieszczen_Link1)
1000
IDENTYFIKATOR
1000

1000

1070
     4
1070
     0
1070
     0
1070
     0
1070
  1024
  0
OBJECT_PTR
  5
2C5
102
{ACAD_REACTORS
330
2B5
102
}
330
2B5
1001
DCO15
1000
jet_dbsamples..."rozne opisy rys"(_rozne_opisy_rys_Link1)
1000
IDENTYFIKATOR
1000

1000

1070
     4
1070
     0
1070
     0
1070
     0
1070
  1024
  0
OBJECT_PTR
  5
2C4
102
{ACAD_REACTORS
330
2B5
102
}
330
2B5
1001
DCO15
1000
jet_dbsamples..."tabelka - inform i etykiety"(_tabelka_-_inform_i_etykiety_Link1)
1000
IDENTYFIKATOR
1000

1000

1070
     4
1070
     0
1070
     0
1070
     0
1070
  1024
  0
OBJECT_PTR
  5
2C3
102
{ACAD_REACTORS
330
2B5
102
}
330
2B5
1001
DCO15
1000
jet_dbsamples..."uwagi ogolne na arkuszu"(_uwagi_ogolne_na_arkuszu_Link1)
1000
IDENTYFIKATOR
1000

1000

1070
     4
1070
     0
1070
     0
1070
     0
1070
  1024
  0
OBJECT_PTR
  5
2C2
102
{ACAD_REACTORS
330
2B5
102
}
330
2B5
1001
DCO15
1000
jet_dbsamples...ALFABET(ALFABETLink1)
1000
IDENTYFIKATOR
1000

1000

1070
     4
1070
     0
1070
     0
1070
     0
1070
  1024
  0
OBJECT_PTR
  5
2C1
102
{ACAD_REACTORS
330
2B5
102
}
330
2B5
1001
DCO15
1000
konstr...arkusz_nazwy(arkusz_nazwyLink2)
1000
IDENTYFIKATOR
1000

1000

1070
     4
1070
     0
1070
     0
1070
     0
1070
  1024
  0
OBJECT_PTR
  5
2C0
102
{ACAD_REACTORS
330
2B5
102
}
330
2B5
1001
DCO15
1000
jet_dbsamples...jednostki(jednostkiLink1)
1000
IDENTYFIKATOR
1000

1000

1070
     4
1070
     0
1070
     0
1070
     0
1070
  1024
  0
OBJECT_PTR
  5
2BF
102
{ACAD_REACTORS
330
2B5
102
}
330
2B5
1001
DCO15
1000
KONSTR...konstr_drew(konstr_drewLink1)
1000
IDENTYFIKATOR
1000

1000

1070
     4
1070
     0
1070
     0
1070
     0
1070
  1024
  0
OBJECT_PTR
  5
2BE
102
{ACAD_REACTORS
330
2B5
102
}
330
2B5
1001
DCO15
1000
KONSTR...konstr_stal(konstr_stalLink1)
1000
IDENTYFIKATOR
1000

1000

1070
     4
1070
     0
1070
     0
1070
     0
1070
  1024
  0
OBJECT_PTR
  5
2BD
102
{ACAD_REACTORS
330
2B5
102
}
330
2B5
1001
DCO15
1000
jet_dbsamples...miesiace(miesiaceLink1)
1000
IDENTYFIKATOR
1000

1000

1070
     4
1070
     0
1070
     0
1070
     0
1070
  1024
  0
OBJECT_PTR
  5
2BC
102
{ACAD_REACTORS
330
2B5
102
}
330
2B5
1001
DCO15
1000
jet_dbsamples...pomieszczenia(pomieszczeniaLink1)
1000
IDENTYFIKATOR
1000

1000

1070
     4
1070
     0
1070
     0
1070
     0
1070
  1024
  0
OBJECT_PTR
  5
2BB
102
{ACAD_REACTORS
330
2B5
102
}
330
2B5
1001
DCO15
1000
KONSTR...schematy(schematyLink1)
1000
IDENTYFIKATOR
1000

1000

1070
     4
1070
     0
1070
     0
1070
     0
1070
  1024
  0
OBJECT_PTR
  5
2BA
102
{ACAD_REACTORS
330
2B5
102
}
330
2B5
1001
DCO15
1000
jet_dbsamples...stolarka(stolarkaLink1)
1000
IDENTYFIKATOR
1000

1000

1070
     4
1070
     0
1070
     0
1070
     0
1070
  1024
  0
OBJECT_PTR
  5
2B9
102
{ACAD_REACTORS
330
2B5
102
}
330
2B5
1001
DCO15
1000
KONSTR...szczegoly(szczegolyLink1)
1000
IDENTYFIKATOR
1000

1000

1070
     4
1070
     0
1070
     0
1070
     0
1070
  1024
  0
OBJECT_PTR
  5
2B8
102
{ACAD_REACTORS
330
2B5
102
}
330
2B5
1001
DCO15
1000
jet_dbsamples...tbl_PRZEGRODY(tbl_PRZEGRODYLink1)
1000
IDENTYFIKATOR
1000

1000

1070
     4
1070
     0
1070
     0
1070
     0
1070
  1024
  0
OBJECT_PTR
  5
2B7
102
{ACAD_REACTORS
330
2B5
102
}
330
2B5
1001
DCO15
1000
KONSTR...uwagi_na_schematach(uwagi_na_schematachLink1)
1000
IDENTYFIKATOR
1000

1000

1070
     4
1070
     0
1070
     0
1070
     0
1070
  1024
  0
OBJECT_PTR
  5
2B6
102
{ACAD_REACTORS
330
2B5
102
}
330
2B5
1001
DCO15
1000
KONSTR...zbroj_plyty(zbroj_plytyLink1)
1000
IDENTYFIKATOR
1000

1000

1070
     4
1070
     0
1070
     0
1070
     0
1070
  1024
  0
DICTIONARY
  5
271
330
270
100
AcDbDictionary
280
     1
281
     1
  3
ACAD_XREC_ROUNDTRIP
360
326
  3
ADSK_XREC_LAYOUTTHUMBNAIL
360
272
  0
DICTIONARY
  5
324
330
267
100
AcDbDictionary
280
     1
281
     1
  3
ACAD_XREC_ROUNDTRIP
360
325
  0
DICTIONARY
  5
329
330
295
100
AcDbDictionary
280
     1
281
     1
  3
ACAD_XREC_ROUNDTRIP
360
32A
  0
DICTIONARY
  5
327
330
294
100
AcDbDictionary
280
     1
281
     1
  3
ACAD_XREC_ROUNDTRIP
360
328
  0
DICTIONARY
  5
31E
330
C
100
AcDbDictionary
280
     1
281
     1
  3
ACAD_XREC_ROUNDTRIP
360
31F
  0
DICTIONARY
  5
29B
330
29A
100
AcDbDictionary
280
     1
281
     1
  3
ACAD_ROUNDTRIP_2008_TABLESTYLE_CELLSTYLEMAP
360
31B
  3
ACAD_XREC_ROUNDTRIP
360
32B
  0
XRECORD
  5
326
102
{ACAD_REACTORS
330
271
102
}
330
271
100
AcDbXrecord
280
     1
102
SHADEPLOT
 70
     0
102
SHADEPLOTRESLEVEL
 70
     2
102
SHADEPLOTCUSTOMDPI
 70
   300
  0
XRECORD
  5
272
102
{ACAD_REACTORS
330
271
102
}
330
271
100
AcDbXrecord
280
     1
310
28000000B40000008A000000010008000000000008610000000000000000000000010000000000000000000000000000FFFFFF000000000000000000000000000000000000000000000000000000000000000000330000006600000099000000CC000000FF00000000330000333300006633000099330000CC330000FF3300
310
0000660000336600006666000099660000CC660000FF66000000990000339900006699000099990000CC990000FF99000000CC000033CC000066CC000099CC0000CCCC0000FFCC000000FF000033FF000066FF000099FF0000CCFF0000FFFF000000003300330033006600330099003300CC003300FF003300003333003333
310
33006633330099333300CC333300FF33330000663300336633006666330099663300CC663300FF66330000993300339933006699330099993300CC993300FF99330000CC330033CC330066CC330099CC3300CCCC3300FFCC330000FF330033FF330066FF330099FF3300CCFF3300FFFF330000006600330066006600660099
310
006600CC006600FF00660000336600333366006633660099336600CC336600FF33660000666600336666006666660099666600CC666600FF66660000996600339966006699660099996600CC996600FF99660000CC660033CC660066CC660099CC6600CCCC6600FFCC660000FF660033FF660066FF660099FF6600CCFF6600
310
FFFF660000009900330099006600990099009900CC009900FF00990000339900333399006633990099339900CC339900FF33990000669900336699006666990099669900CC669900FF66990000999900339999006699990099999900CC999900FF99990000CC990033CC990066CC990099CC9900CCCC9900FFCC990000FF99
310
0033FF990066FF990099FF9900CCFF9900FFFF99000000CC003300CC006600CC009900CC00CC00CC00FF00CC000033CC003333CC006633CC009933CC00CC33CC00FF33CC000066CC003366CC006666CC009966CC00CC66CC00FF66CC000099CC003399CC006699CC009999CC00CC99CC00FF99CC0000CCCC0033CCCC0066CC
310
CC0099CCCC00CCCCCC00FFCCCC0000FFCC0033FFCC0066FFCC0099FFCC00CCFFCC00FFFFCC000000FF003300FF006600FF009900FF00CC00FF00FF00FF000033FF003333FF006633FF009933FF00CC33FF00FF33FF000066FF003366FF006666FF009966FF00CC66FF00FF66FF000099FF003399FF006699FF009999FF00CC
310
99FF00FF99FF0000CCFF0033CCFF0066CCFF0099CCFF00CCCCFF00FFCCFF0000FFFF0033FFFF0066FFFF0099FFFF00CCFFFF00FFFFFF00000000000D0D0D001A1A1A00282828003535350043434300505050005D5D5D006B6B6B00787878008686860093939300A1A1A100AEAEAE00BBBBBB00C9C9C900D6D6D600E4E4E400
310
F1F1F100FFFFFF0000000000000000000000000000000000000000000000000000000000000000000000000000000000F5F5F5F5F5F5F5F5F5F5F5F5F5F5F5F5F5F5F5F5F5F5F5F5F5F5F5F5F5F5F5F5F5F5F5F5F5F5F5F5F5F5F5F5F5F5F5F5F5F5F5F5F5F5F5F5F5F5F5F5F5F5F5F5F5F5F5F5F5F5F5F5F5F5F5F5F5F5F5
310
F5F5F5F5F5F5F5F5F5F5F5F5F5F5F5F5F5F5F5F5F5F5F5F5F5F5F5F5F5F5F5F5F5F5F5F5F5F5F5F5F5F5F5F5F5F5F5F5F5F5F5F5F5F5F5F5F5F5F5F5F5F5F5F5F5F5F5F5F5F5F5F5F5F5F5F5F5F5F5F5F5F5F5F5F5F5F5F5F5F5F5F5F5F5F5F5F5F5F5F5EFF5E2E2E2E2E2E2E2E2E2E2E2E2E2E2E2E2E2E2E2E2E2E2E2E2E2
310
E2E2E2E2E2E2E2E2E2E2E2E2E2E2E2E2E2E2E2E2E2E2E2E2E2E2E2E2E2E2E2E2E2E2E2E2E2E2E2E2E2E2E2E2E2E2E2E2E2E2E2E2E2E2E2E2E2E2E2E2E2E2E2E2E2E2E2E2E2E2E2E2E2E2E2E2E2E2E2E2E2E2E2E2E2E2E2E2E2E2E2E2E2E2E2E2E2E2E2E2E2E2E2E2E2E2E2E2E2E2E2E2E2E2E2E2E2E2E2E2E2E2E2E2E2E2E2
310
E2E2E2E2E2E2E2E2E2E2E2E2E2E2E2E2E2E2E2E2E2E2E2E2F5F5EFF5E2E2E2E2E2E2E2E2E2E2E2E2E2E2E2E2E2E2E2E2E2E2E2E2E2E2E2E2E2E2E2E2E2E2E2E2E2E2E2E2E2E2E2E2E2E2E2E2E2E2E2E2E2E2E2E2E2E2E2E2E2E2E2E2E2E2E2E2E2E2E2E2E2E2E2E2E2E2E2E2E2E2E2E2E2E2E2E2E2E2E2E2E2E2E2E2E2E2E2
310
E2E2E2E2E2E2E2E2E2E2E2E2E2E2E2E2E2E2E2E2E2E2E2E2E2E2E2E2E2E2E2E2E2E2E2E2E2E2E2E2E2E2E2E2E2E2E2E2E2E2E2E2E2E2E2E2E2E2E2E2E2E2E2E2E2E2E2E2E2E2E2E2E2E2E2E2E2F5F5EFF5E2E2E2E2E2E2E2E2E2E2E2E2E2E2E2E2E2E2E2E2E2E2E2E2E2E2E2E2E2E2E2E2E2E2E2E2E2E2E2E2E2E2E2E2E2E2
310
E2E2E2E2E2E2E2E2E2E2E2E2E2E2E2E2E2E2E2E2E2E2E2E2E2E2E2E2E2E2E2E2E2E2E2E2E2E2E2E2E2E2E2E2E2E2E2E2E2E2E2E2E2E2E2E2E2E2E2E2E2E2E2E2E2E2E2E2E2E2E2E2E2E2E2E2E2E2E2E2E2E2E2E2E2E2E2E2E2E2E2E2E2E2E2E2E2E2E2E2E2E2E2E2E2E2E2E2E2E2E2E2E2E2E2E2E2E2E2E2E2E2E2E2E2E2E2
310
E2E2E2F5F5EFF5E2E2E2F5F5F5F5F5F5F5F5E2E2E2E2E2E2E2E2E2F5F5F5F5F5F5F5F5F5F5F5F5F5F5F5E2E2E2E2E2E2E2E2E2F5F5F5F5F5F5F5F5F5F5F5F5F5F5F5F5E2E2E2E2E2E2E2E2F5F5F5F5F5F5F5F5F5F5F5F5F5F5F5F5E2E2E2E2E2E2E2E2F5F5F5F5F5F5F5F5F5F5F5F5F5F5F5F5E2E2E2E2E2E2E2E2F5F5F5F5
310
F5F5F5F5F5F5F5F5F5F5F5F5E2E2E2E2E2E2E2E2E2F5F5F5F5F5F5F5F5F5F5F5F5F5F5F5E2E2E2E2E2E2E2E2E2F5F5F5F5F5F5F5F5E2E2E2F5F5EFF5E2E2E2F5E2E2E2E2E2E2E2E2E2E2E2E2E2E2E2E2E2E2E2E2E2E2E2E2E2E2E2E2E2E2E2E2E2E2E2E2E2E2E2E2E2E2E2E2E2E2E2E2E2E2E2E2E2E2E2E2E2E2E2E2E2E2E2
310
E2E2E2E2E2E2E2E2E2E2E2E2E2E2E2E2E2E2E2E2E2E2E2E2E2E2E2E2E2E2E2E2E2E2E2E2E2E2E2E2E2E2E2E2E2E2E2E2E2E2E2E2E2E2E2E2E2E2E2E2E2E2E2E2E2E2E2E2E2E2E2E2E2E2E2E2E2E2E2E2E2E2E2E2E2E2E2E2E2E2E2E2E2E2E2E2E2E2E2E2E2E2E2E2E2F5E2E2E2F5F5EFF5E2E2E2F5E2E2E2E2E2E2E2E2E2E2
310
E2E2E2E2E2E2E2E2E2E2E2E2E2E2E2E2E2E2E2E2E2E2E2E2E2E2E2E2E2E2E2E2E2E2E2E2E2E2E2E2E2E2E2E2E2E2E2E2E2E2E2E2E2E2E2E2E2E2E2E2E2E2E2E2E2E2E2E2E2E2E2E2E2E2E2E2E2E2E2E2E2E2E2E2E2E2E2E2E2E2E2E2E2E2E2E2E2E2E2E2E2E2E2E2E2E2E2E2E2E2E2E2E2E2E2E2E2E2E2E2E2E2E2E2E2E2E2
310
E2E2E2E2E2E2E2E2E2E2E2E2E2E2E2E2E2E2E2E2E2E2E2E2E2E2E2E2E2E2E2F5E2E2E2F5F5EFF5E2E2E2F5E2E2E2E2E2E2E2E2E2E2E2E2E2E2E2E2E2E2E2E2E2E2E2E2E2E2E2E2E2E2E2E2E2E2E2E2E2E2E2E2E2E2E2E2E2E2E2E2E2E2E2E2E2E2E2E2E2E2E2E2E2E2E2E2E2E2E2E2E2E2E2E2E2E2E2E2E2E2E2E2E2E2E2E2
310
E2E2E2E2E2E2E2E2E2E2E2E2E2E2E2E2E2E2E2E2E2E2E2E2E2E2E2E2E2E2E2E2E2E2E2E2E2E2E2E2E2E2E2E2E2E2E2E2E2E2E2E2E2E2E2E2E2E2E2E2E2E2E2E2E2E2E2E2E2E2E2E2E2E2E2E2E2E2E2E2E2E2E2E2F5E2E2E2F5F5EFF5E2E2E2F5E2E2E2E2E2E2E2E2E2E2E2E2E2E2E2E2E2E2E2E2E2E2E2E2E2E2E2E2E2E2E2
310
E2E2E2E2E2E2E2E2E2E2E2E2E2E2E2E2E2E2E2E2E2E2E2E2E2E2E2E2E2E2E2E2E2E2E2E2E2E2E2E2E2E2E2E2E2E2E2E2E2E2E2E2E2E2E2E2E2E2E2E2E2E2E2E2E2E2E2E2E2E2E2E2E2E2E2E2E2E2E2E2E2E2E2E2E2E2E2E2E2E2E2E2E2E2E2E2E2E2E2E2E2E2E2E2E2E2E2E2E2E2E2E2E2E2E2E2E2E2E2E2E2E2E2E2E2E2E2
310
E2E2E2E2E2E2E2E2E2E2F5E2E2E2F5F5EFF5E2E2E2F5E2E2E2E2E2E2E2E2E2E2E2E2E2E2E2E2E2E2E2E2E2E2E2E2E2E2E2E2E2E2E2E2E2E2E2E2E2E2E2E2E2E2E2E2E2E2E2E2E2E2E2E2E2E2E2E2E2E2E2E2E2E2E2E2E2E2E2E2E2E2E2E2E2E2E2E2E2E2E2E2E2E2E2E2E2E2E2E2E2E2E2E2E2E2E2E2E2E2E2E2E2E2E2E2E2
310
E2E2E2E2E2E2E2E2E2E2E2E2E2E2E2E2E2E2E2E2E2E2E2E2E2E2E2E2E2E2E2E2E2E2E2E2E2E2E2E2E2E2E2E2E2E2E2E2E2E2E2E2E2E2E2E2E2E2E2E2E2E2E2F5E2E2E2F5F5EFF5E2E2E2F5E2E2E2E2E2E2E2E2E2E2E2E2E2E2E2E2E2E2E2E2E2E2E2E2E2E2E2E2E2E2E2E2E2E2E2E2E2E2E2E2E2E2E2E2E2E2E2E2E2E2E2E2
310
E2E2E2E2E2E2E2E2E2E2E2E2E2E2E2E2E2E2E2E2E2E2E2E2E2E2E2E2E2E2E2E2E2E2E2E2E2E2E2E2E2E2E2E2E2E2E2E2E2E2E2E2E2E2E2E2E2E2E2E2E2E2E2E2E2E2E2E2E2E2E2E2E2E2E2E2E2E2E2E2E2E2E2E2E2E2E2E2E2E2E2E2E2E2E2E2E2E2E2E2E2E2E2E2E2E2E2E2E2E2E2E2E2E2E2E2F5E2E2E2F5F5EFF5E2E2E2
310
F5E2E2E2E2E2E2E2E2E2E2E2E2E2E2E2E2E2E2E2E2E2E2E2E2E2E2E2E2E2E2E2E2E2E2E2E2E2E2E2E2E2E2E2E2E2E2E2E2E2E2E2E2E2E2E2E2E2E2E2E2E2E2E2E2E2E2E2E2E2E2E2E2E2E2E2E2E2E2E2E2E2E2E2E2E2E2E2E2E2E2E2E2E2E2E2E2E2E2E2E2E2E2E2E2E2E2E2E2E2E2E2E2E2E2E2E2E2E2E2E2E2E2E2E2E2E2
310
E2E2E2E2E2E2E2E2E2E2E2E2E2E2E2E2E2E2E2E2E2E2E2E2E2E2E2E2E2E2E2E2E2E2E2E2E2E2E2E2E2E2F5E2E2E2F5F5EFF5E2E2E2F5E2E2E2E2E2E2E2E2E2E2E2E2E2E2E2E2E2E2E2E2E2E2E2E2E2E2E2E2E2E2E2E2E2E2E2E2E2E2E2E2E2E2E2E2E2E2E2E2E2E2E2E2E2E2E2E2E2E2E2E2E2E2E2E2E2E2E2E2E2E2E2E2E2
310
E2E2E2E2E2E2E2E2E2E2E2E2E2E2E2E2E2E2E2E2E2E2E2E2E2E2E2E2E2E2E2E2E2E2E2E2E2E2E2E2E2E2E2E2E2E2E2E2E2E2E2E2E2E2E2E2E2E2E2E2E2E2E2E2E2E2E2E2E2E2E2E2E2E2E2E2E2E2E2E2E2E2E2E2E2E2E2E2E2E2E2E2E2E2E2F5E2E2E2F5F5EFF5E2E2E2E2E2E2E2E2E2E2E2E2E2E2E2E2E2E2E2E2E2E2E2E2
310
E2E2E2E2E2E2E2E2E2E2E2E2E2E2E2E2E2E2E2E2E2E2E2E2E2E2E2E2E2E2E2E2E2E2E2E2E2E2E2E2E2E2E2E2E2E2E2E2E2E2E2E2E2E2E2E2E2E2E2E2E2E2E2E2E2E2E2E2E2E2E2E2E2E2E2E2E2E2E2E2E2E2E2E2E2E2E2E2E2E2E2E2E2E2E2E2E2E2E2E2E2E2E2E2E2E2E2E2E2E2E2E2E2E2E2E2E2E2E2E2E2E2E2E2E2E2E2
310
E2E2E2E2E2E2E2E2E2E2E2E2E2E2E2E2E2E2E2E2E2E2E2E2E2F5F5EFF5E2E2E2E2E2E2E2E2E2E2E2E2E2E2E2E2E2E2E2E2E2E2E2E2E2E2E2E2E2E2E2E2E2E2E2E2E2E2E2E2E2E2E2E2E2E2E2E2E2E2E2E2E2E2E2E2E2E2E2E2E2E2E2E2E2E2E2E2E2E2E2E2E2E2E2E2E2E2E2E2E2E2E2E2E2E2E2E2E2E2E2E2E2E2E2E2E2E2
310
E2E2E2E2E2E2E2E2E2E2E2E2E2E2E2E2E2E2E2E2E2E2E2E2E2E2E2E2E2E2E2E2E2E2E2E2E2E2E2E2E2E2E2E2E2E2E2E2E2E2E2E2E2E2E2E2E2E2E2E2E2E2E2E2E2E2E2E2E2E2E2E2E2E2E2E2E2E2F5F5EFF5E2E2E2E2E2E2E2E2E2E2E2E2E2E2E2E2E2E2E2E2E2E2E2E2E2E2E2E2E2E2E2E2E2E2E2E2E2E2E2E2E2E2E2E2E2
310
E2E2E2E2E2E2E2E2E2E2E2E2E2E2E2E2E2E2E2E2E2E2E2E2E2E2E2E2E2E2E2E2E2E2E2E2E2E2E2E2E2E2E2E2E2E2E2E2E2E2E2E2E2E2E2E2E2E2E2E2E2E2E2E2E2E2E2E2E2E2E2E2E2E2E2E2E2E2E2E2E2E2E2E2E2E2E2E2E2E2E2E2E2E2E2E2E2E2E2E2E2E2E2E2E2E2E2E2E2E2E2E2E2E2E2E2E2E2E2E2E2E2E2E2E2E2E2
310
E2E2E2E2F5F5EFF5E2E2E2E2E2E2E2E2E2E2E2E2E2E2E2E2E2E2E2E2E2E2E2E2E2E2E2E2E2E2E2E2E2E2E2E2E2E2E2E2E2E2E2E2E2E2E2E2E2E2E2E2E2E2E2E2E2E2E2E2E2E2E2E2E2E2E2E2E2E2E2E2E2E2E2E2E2E2E2E2E2E2E2E2E2E2E2E2E2E2E2E2E2E2E2E2E2E2E2E2E2E2E2E2E2E2E2E2E2E2E2E2E2E2E2E2E2E2E2
310
E2E2E2E2E2E2E2E2E2E2E2E2E2E2E2E2E2E2E2E2E2E2E2E2E2E2E2E2E2E2E2E2E2E2E2E2E2E2E2E2E2E2E2E2E2E2E2E2E2E2E2E2E2E2E2E2E2F5F5EFF5E2E2E2E2E2E2E2E2E2E2E2E2E2E2E2E2E2E2E2E2F5F5F5F5F5F5F5F5F5F5F5F5F5F5F5F5F5F5F5F5F5F5F5F5F5F5F5F5F5F5F5F5F5F5F5F5F5F5F5F5F5F5F5F5F5F5
310
F5F5F5F5F5F5F5F5F5F5F5F5F5F5F5F5F5F5F5F5F5F5F5F5F5F5F5F5F5F5F5F5F5F5F5F5F5F5F5F5F5F5F5F5F5F5F5F5F5F5F5F5F5F5F5F5F5F5F5F5F5F5F5F5F5F5F5F5F5F5F5F5F5F5F5F5F5F5F5F5F5F5F5F5F5F5F5F5F5F5E2E2E2E2E2E2E2E2E2E2E2E2E2E2E2E2E2E2E2E2F5F5EFF5E2E2E2E2E2E2E2E2E2E2E2E2E2
310
E2E2E2E2E2E2E2F5E2E2E2E2E2E2E2E2E2E2E2E2E2E2E2E2E2E2E2E2E2E2E2E2E2E2E2E2E2DCE2E2E2E2E2E2E2E2E2E2E2E2E2E2E2E2E2E2E2E2E2E2E2E2E2E2E2E2E2E2E2E2E2E2E2E2E2E2E2E2E2E2E2E2E2E2E2E2E2E2E2E2E2E2E2E2E2E2E2E2E2E2E2E2E2E2E2E2E2E2E2E2E2E2DCE2E2E2E2E2E2E2E2E2E2E2E2E2E2
310
E2E2E2E2E2E2E2E2E2E2E2E2E2E2E2F5E2E2E2E2E2E2E2E2E2E2E2E2E2E2E2E2E2E2E2E2F5F5EFF5E2E2E2E2E2E2E2E2E2E2E2E2E2E2E2E2E2E2E2E2F5E2E2E2E2E2E2E2E2E2E2E2E2E2E2E2E2E2E2E2E2E2E2E2E2E2E2E2E2E2DCE2E2E2E2E2E2E2E2E2E2E2E2E2E2E2E2E2E2E2E2E2E2E2E2E2E2E2E2E2E2E2E2E2E2E2E2
310
E2E2E2E2E2E2E2E2E2E2E2E2E2E2E2E2E2E2E2E2E2E2E2E2E2E2E2E2E2E2E2E2E2E2E2E2E2E2DCE2E2E2E2E2E2E2E2E2E2E2E2E2E2E2E2E2E2E2E2E2E2E2E2E2E2E2E2E2F5E2E2E2E2E2E2E2E2E2E2E2E2E2E2E2E2E2E2E2E2F5F5EFF5E2E2E2E2E2E2E2E2E2E2E2E2E2E2E2E2E2E2E2E2F5E2E2E2E2E2E2E2E2E2E2E2E2E2
310
E2E2E2E2E2E2E2E2E2E2E2E2E2E2E2E2DCE2E2E2E2E2E2E2E2E2E2E2E2E2E2E2E2E2E2E2E2E2E2E2E2E2E2E2E2E2E2E2E2E2E2E2E2E2E2E2E2E2E2E2E2E2E2E2E2E2E2E2E2E2E2E2E2E2E2E2E2E2E2E2E2E2E2E2E2E2E2E2E2E2E2DCE2E2E2E2E2E2E2E2E2E2E2E2E2E2E2E2E2E2E2E2E2E2E2E2E2E2E2E2E2F5E2E2E2E2E2
310
E2E2E2E2E2E2E2E2E2E2E2E2E2E2E2F5F5EFF5E2E2E2E2E2E2E2E2E2E2E2E2E2E2E2E2E2E2E2E2F5E2E2E2E2E2E2E2E2E2E2E2E2E2E2E2E2E2E2E2E2E2E2E2E2E2E2E2E2E2DCE2E2E2E2E2E2E2E2E2E2E2E2E2E2E2E2E2E2E2E2E2E2E2E2E2E2E2E2E2E2E2E2E2E2E2E2E2E2E2E2E2E2E2E2E2E2E2E2E2E2E2E2E2E2E2E2E2
310
E2E2E2E2E2E2E2E2E2E2E2E2E2E2E2E2E2DCE2E2E2E2E2E2E2E2E2E2E2E2E2E2E2E2E2E2E2E2E2E2E2E2E2E2E2E2E2F5E2E2E2E2E2E2E2E2E2E2E2E2E2E2E2E2E2E2E2E2F5F5EFF5E2E2E2F5E2E2E2E2E2E2E2E2E2E2E2E2E2E2E2E2F5E2E2E2E2E2E2E2E2E2E2E2E2E2E2E2E2E2E2E2E2E2E2E2E2E2E2E2E2E2DCE2E2E2E2
310
E2E2E2E2E2E2E2272727E2E22727E2E2E2E2E2E2E2E2E2E2E2E2E2E2E2E2E2E2E2E2E2E2E2E2E2E2E2E2E2E2E2E2E2E2E2E2E2E2E2E2E2E2E2E2E2E2E2E2E2E2E2E2E2E2E2E2DCE2E2E2E2E2E2E2E2E2E2E2E2E2E2E2E2E2E2E2E2E2E2E2E2E2E2E2E2E2F5E2E2E2E2E2E2E2E2E2E2E2E2E2E2E2E2F5E2E2E2F5F5EFF5E2E2
310
E2F5E2E2E2E2E2E2E2E2E2E2E2E2E2E2E2E2F5E2E2E2E2E2E2E2E2E2E2E2E2E2E2E2E2E2E2E2E2E2E2E2E2E2E2E2E2E2DCE2E2E2E2E2E2E2E2E2E2E2272727272727272727E2E2E2E2E2E2E2E2E2E2E2E2E2E2E2E2E2E2E2E2E2E2E2E2E2E2E2E2E2E2E2E2E2E2E2E2E2E2E2E2E2E2E2E2E2E2E2E2E2E2E2E2E2E2DCE2E2E2
310
E2E2E2E2E2E2E2E2E2E2E2E2E2E2E2E2E2E2E2E2E2E2E2E2E2E2F5E2E2E2E2E2E2E2E2E2E2E2E2E2E2E2E2F5E2E2E2F5F5EFF5E2E2E2F5E2E2E2E2E2E2E2E2E2E2E2E2E2E2E2E2F5E2E2E2E2E2E2E2E2E2E2E2E2E2E2E2E2E2E2E2E2E2E2E2E2E2E2E2E2E2DCE2E2E2E2E2E2E2E2E2E2E2272727272727272727E2E2E2E2E2
310
E2E2E2E2E2E2E2E2E2E2E2E2E2E2E2E2E2E2E2E2E2E2E2E2E2E2E2E2E2E2E2E2E2E2E2E2E2E2E2E2E2E2E2E2E2E2E2E2E2DCE2E2E2E2E2E2E2E2E2E2E2E2E2E2E2E2E2E2E2E2E2E2E2E2E2E2E2E2E2F5E2E2E2E2E2E2E2E2E2E2E2E2E2E2E2E2F5E2E2E2F5F5EFF5E2E2E2F5E2E2E2E2E2E2E2E2E2E2E2E2E2E2E2E2F5E2E2
310
E2E2E2E2E2E2E2E2E2E2E2E2E2E2E2E2E2E2E2E2E2E2E2E2E2E2E2DCE2E2E2E2E2E2E2E2E2E2E2E2E2E2E2E2E2E2E2E2E2E2E2E2E2E2E2E2E2E2E2E2E2E2E2E2E2E2E2E2E2E2E2E2E2E2E2E2E2E2E2E2E2E2E2E2E2E2E2E2E2E2E2E2E2E2E2E2E2E2E2E2E2E2DCE2E2E2E2E2E2E2E2E2E2E2E2E2E2E2E2E2E2E2E2E2E2E2E2
310
E2E2E2E2E2F5E2E2E2E2E2E2E2E2E2E2E2E2E2E2E2E2F5E2E2E2F5F5EFF5E2E2E2F5E2E2E2E2E2E2E2E2E2E2E2E2E2E2E2E2F5E2E2E2E2E2E2E2E2E2E2E2E2E2E2E2E2E2E2E2E2E2E2E2E2E2E2E2E2E2DCE2E2E2E2E2E2E2E2E2E2E2E2E2E2E2E2E2E2E2E2E2E2E2E2E2E2E2E2E2E2E2E2E2E2E2E2E2E2E2E2E2E2E2E2E2E2
310
E2E2E2E2E2E2E2E2E2E2E2E2E2E2E2E2E2E2E2E2E2E2E2E2E2E2E2E2DCE2E2E2E2E2E2E2E2E2E2E2E2E2E2E2E2E2E2E2E2E2E2E2E2E2E2E2E2E2F5E2E2E2E2E2E2E2E2E2E2E2E2E2E2E2E2F5E2E2E2F5F5EFF5E2E2E2F5E2E2E2E2E2E2E2E2E2E2E2E2E2E2E2E2F5E2E2E2E2E2E2E2E2E2E2E2E2E2E2E2E2E2E2E2E2E2E2E2
310
E2E2E2E2E2E2DCE2E2E2E2E2E2E2E2E2E2E2E2E2E2E2E2E2E2E2E2E2E2E2E2E2E2E2E2E2E2E2E2E2E2E2E2E2E2E2E2E2E2E2E2E2E2E2E2E2E2E2E2E2E2E2E2E2E2E2E2E2E2E2E2E2E2E2E2E2E2E2E2E2E2DCE2E2E2E2E2E2E2E2E2E2E2E2E2E2E2E2E2E2E2E2E2E2E2E2E2E2E2E2E2F5E2E2E2E2E2E2E2E2E2E2E2E2E2E2E2
310
E2F5E2E2E2F5F5EFF5E2E2E2F5E2E2E2E2E2E2E2E2E2E2E2E2E2E2E2E2F5E2E2E2E2E2E2E2E2E2E2E2E2E2E2E2E2E2E2E2E2E2E2E2E2E2E2E2E2E2DCE2E2E2E2E2E2E2E2E2E2E2E2E2E2E2E2E2E2E2E2E2E2E2E2E2E2E2E2E2E2E2E2E2E2E2E2E2E2E2E2E2E2E2E2E2E2E2E2E2E2E2E2E2E2E2E2E2E2E2E2E2E2E2E2E2E2E2
310
E2E2E2E2E2E2E2DCE2E2E2E2E2E2E2E2E2E2E2E2E2E2E2E2E2E2E2E2E2E2E2E2E2E2E2E2E2F5E2E2E2E2E2E2E2E2E2E2E2E2E2E2E2E2F5E2E2E2F5F5EFF5E2E2E2F5E2E2E2E2E2E2E2E2E2E2E2E2E2E2E2E2F5E2E2E2E2E2E2E2E2E2E2E2E2E2E2E2E2E2E2E2E2E2E2E2E2E2E2E2E2E2DCE2E2E2E2E2E2E2E2E2E2E2E2E2E2
310
E2E2E2E2E2E2E2E2E2E2E2E2E2E2E2E2E2E2E2E2E2E2E2E2E2E2E2E2E2E2E2E2E2E2E2E2E2E2E2E2E2E2E2E2E2E2E2E2E2E2E2E2E2E2E2E2E2E2E2E2DCE2E2E2E2E2E2E2E2E2E2E2E2E2E2E2E2E2E2E2E2E2E2E2E2E2E2E2E2E2F5E2E2E2E2E2E2E2E2E2E2E2E2E2E2E2E2F5E2E2E2F5F5EFF5E2E2E2F5E2E2E2E2E2E2E2E2
310
E2E2E2E2E2E2E2E2F5E2E2E2E2E2E2E2E2E2E2E2E2E2E2E2E2E2E2E2E2E2E2E2E2E2E2E2E2E2DCE2E2E2E2E2E2E2E2E2E2E2E2E2E2E2E2E2E2E2E2E2E2E2E2E2E2E2E2E2E2E2E2E2E2E2E2E2E2E2E2E2E2E2E2E2E2E2E2E2E2E2E2E2E2E2E2E2E2E2E2E2E2E2E2E2E2E2E2E2E2E2E2E2E2DCE2E2E2E2E2E2E2E2E2E2E2E2E2
310
E2E2E2E2E2E2E2E2E2E2E2E2E2E2E2E2F5E2E2E2E2E2E2E2E2E2E2E2E2E2E2E2E2F5E2E2E2F5F5EFF5E2E2E2F5E2E2E2E2E2E2E2E2E2E2E2E2E2E2E2E2F5E2E2E2E2E2E2E2E2E2E2E2E2E2E2E2E2E2E2E2E2E2E2E2E2E2E2E2E2E2DCE2E2E2E2E2E2E2E2E2E2E2E2E2E2E2E2E2E2E2E2E2E2E2E2E2E2E2E2E2E2E2E2E2E2E2
310
E2E2E2E2E2E2E2E2E2E2E2E2E2E2E2E2E2E2E2E2E2E2E2E2E2E2E2E2E2E2E2E2E2E2E2E2E2E2E2DCE2E2E2E2E2E2E2E2E2E2E2E2E2E2E2E2E2E2E2E2E2E2E2E2E2E2E2E2E2F5E2E2E2E2E2E2E2E2E2E2E2E2E2E2E2E2F5E2E2E2F5F5EFF5E2E2E2F5E2E2E2E2E2E2E2E2E2E2E2E2E2E2E2E2F5E2E2E2E2E2E2E2E2E2E2E2E2
310
E2E2E2E2E2E2E2E2E2E2E2E2E2E2E2E2E2DCE2E2E2E2E2E2E2E2E2E2E2E2E2E2E2E2E2E2E2E2E2E2E2E2E2E2E2E2E2E2E2E2E2E2E2E2E2E2E2E2E2E2E2E2E2E2E2E2E2E2E2E2E2E2E2E2E2E2E2E2E2E2E2E2E2E2E2E2E2E2E2E2E2E2DCE2E2E2E2E2E2E2E2E2E2E2E2E2E2E2E2E2E2E2E2E2E2E2E2E2E2E2E2E2F5E2E2E2E2
310
E2E2E2E2E2E2E2E2E2E2E2E2F5E2E2E2F5F5EFF5E2E2E2F5E2E2E2E2E2E2E2E2E2E2E2E2E2E2E2E2F5E2E2E2E2E2E2E2E2E2E2E2E2E2E2E2E2E2E2E2E2E2E2E2E2E2E2E2E2E2DCE2E2E2E2E2E2E2E2E2E2E2E2E2E2E2E2E2E2E2E2E2E2E2E2E2E2E2E2E2E2E2E2E2E2E2E2E2E2E2E2E2E2E2E2E2E2E2E2E2E2E2E2E2E2E2E2
310
E2E2E2E2E2E2E2E2E2E2E2E2E2E2E2E2E2E2DCE2E2E2E2E2E2E2E2E2E2E2E2E2E2E2E2E2E2E2E2E2E2E2E2E2E2E2E2E2F5E2E2E2E2E2E2E2E2E2E2E2E2E2E2E2E2F5E2E2E2F5F5EFF5E2E2E2F5E2E2E2E2E2E2E2E2E2E2E2E2E2E2E2E2F5E2E2E2E2E2E2E2E2E2E2E2E2E2E2E2E2E2E2E2E2E2E2E2E2E2E2E2E2E2DCE2E2E2
310
E2E2E2E2E2E2E2E2E2E2E2E2E2E2E2E2E2E2E2E2E2E2E2E2E2E2E2E2E2E2E2E2E2E2E2E2E2E2E2E2E2E2E2E2E2E2E2E2E2E2E2E2E2E2E2E2E2E2E2E2E2E2E2E2E2E2E2E2E2E2E2DCE2E2E2E2E2E2E2E2E2E2E2E2E2E2E2E2E2E2E2E2E2E2E2E2E2E2E2E2E2F5E2E2E2E2E2E2E2E2E2E2E2E2E2E2E2E2F5E2E2E2F5F5EFF5E2
310
E2E2F5E2E2E2E2E2E2E2E2E2E2E2E2E2E2E2E2F5E2E2E2E2E2E2E2E2E2E2E2E2E2E2E2E2E2E2E2E2E2E2E2E2E2E2E2E2E2DCE2E2E2E2E2E2E2E2E2E2E2E2E2E2E2E2E2E2E2E2E2E2E2E2E2E2E2E2E2E2E2E2E2E2E2E2E2E2E2E2E2E2E2E2E2E2E2E2E2E2E2E2E2E2E2E2E2E2E2E2E2E2E2E2E2E2E2E2E2E2E2E2E2E2DCE2E2
310
E2E2E2E2E2E2E2E2E2E2E2E2E2E2E2E2E2E2E2E2E2E2E2E2E2E2E2F5E2E2E2E2E2E2E2E2E2E2E2E2E2E2E2E2F5E2E2E2F5F5EFF5E2E2E2F5E2E2E2E2E2E2E2E2E2E2E2E2E2E2E2E2F5E2E2E2E2E2E2E2E2E2E2E2E2E2E2E2E2E2E2E2E2E2E2E2E2E2E2E2E2E2DCE2E2E2E2E2E2E2E2E2E2E2E2E2E2E2E2E2E2E2E2E2E2E2E2
310
E2E2E2E2E2E2E2E2E2E2E2E2E2E2E2E2E2E2E2E2E2E2E2E2E2E2E2E2E2E2E2E2E2E2E2E2E2E2E2E2E2E2E2E2E2E2E2E2E2E2DCE2E2E2E2E2E2E2E2E2E2E2E2E2E2E2E2E2E2E2E2E2E2E2E2E2E2E2E2E2F5E2E2E2E2E2E2E2E2E2E2E2E2E2E2E2E2F5E2E2E2F5F5EFF5E2E2E2F5E2E2E2E2E2E2E2E2E2E2E2E2E2E2E2E2F5E2
310
E2E2E2E2E2E2E2E2E2E2E2E2E2E2E2E2E2E2E2E2E2E2E2E2E2E2E2E2DCE2E2E2E2E2E2E2E2E2E2E2E2E2E2E2E2E2E2E2E2E2E2E2E2E2E2E2E2E2E2E2E2E2E2E2E2E2E2E2E2E2E2E2E2E2E2E2E2E2E2E2E2E2E2E2E2E2E2E2E2E2E2E2E2E2E2E2E2E2E2E2E2E2E2DCE2E2E2E2E2E2E2E2E2E2E2E2E2E2E2E2E2E2E2E2E2E2E2
310
E2E2E2E2E2E2F5E2E2E2E2E2E2E2E2E2E2E2E2E2E2E2E2F5E2E2E2F5F5EFF5E2E2E2F5E2E2E2E2E2E2E2E2E2E2E2E2E2E2E2E2F5E2E2E2E2E2E2E2E2E2E2E2E2E2E2E2E2E2E2E2E2E2E2E2E2E2E2E2E2E2DCE2E2E2E2E2E2E2E2E2E2E2E2E2E2E2E2E2E2E2E2E2E2E2E2E2E2E2E2E2E2E2E2E2E2E2E2E2E2E2E2E2E2E2E2E2
310
E2E2E2E2E2E2E2E2E2E2E2E2E2E2E2E2E2E2E2E2E2E2E2E2E2E2E2E2E2DCE2E2E2E2E2E2E2E2E2E2E2E2E2E2E2E2E2E2E2E2E2E2E2E2E2E2E2E2E2F5E2E2E2E2E2E2E2E2E2E2E2E2E2E2E2E2F5E2E2E2F5F5EFF5E2E2E2E2E2E2E2E2E2E2E2E2E2E2E2E2E2E2E2E2F5E2E2E2E2E2E2E2E2E2E2E2E2E2E2E2E2E2E2E2E2E2E2
310
E2E2E2E2E2E2E2DCE2E2E2E2E2E2E2E2E2E2E2E2E2E2E2E2E2E2E2E2E2E2E2E2E2E2E2E2E2E2E2E2E2E2E2E2E2E2E2E2E2E2E2E2E2E2E2E2E2E2E2E2E2E2E2E2E2E2E2E2E2E2E2E2E2E2E2E2E2E2E2E2E2E2DCE2E2E2E2E2E2E2E2E2E2E2E2E2E2E2E2E2E2E2E2E2E2E2E2E2E2E2E2E2F5E2E2E2E2E2E2E2E2E2E2E2E2E2E2
310
E2E2E2E2E2E2F5F5EFF5E2E2E2E2E2E2E2E2E2E2E2E2E2E2E2E2E2E2E2E2F5E2E2E2E2E2E2E2E2E2E2E2E2E2E2E2E2E2E2E2E2E2E2E2E2E2E2E2E2E2DCE2E2E2E2E2E2E2E2E2E2E2E2E2E2E2E2E2E2E2E2E2E2E2E2E2E2E2E2E2E2E2E2E2E2E2E2E2E2E2E2E2E2E2E2E2E2E2E2E2E2E2E2E2E2E2E2E2E2E2E2E2E2E2E2E2E2
310
E2E2E2E2E2E2E2E2DCE2E2E2E2E2E2E2E2E2E2E2E2E2E2E2E2E2E2E2E2E2E2E2E2E2E2E2E2E2F5E2E2E2E2E2E2E2E2E2E2E2E2E2E2E2E2E2E2E2E2F5F5EFF5E2E2E2E2E2E2E2E2E2E2E2E2E2E2E2E2E2E2E2E2F5E2E2E2E2E2E2E2E2E2E2E2E2E2E2E2E2E2E2E2E2E2E2E2E2E2E2E2E2E2DCE2E2E2E2E2E2E2E2E2E2E2E2E2
310
E2E2E2E2E2E2E2E2E2E2E2E2E2E2E2E2E2E2E2E2E2E2E2E2E2E2E2E2E2E2E2E2E2E2E2E2E2E2E2E2E2E2E2E2E2E2E2E2E2E2E2E2E2E2E2E2E2E2E2E2E2DCE2E2E2E2E2E2E2E2E2E2E2E2E2E2E2E2E2E2E2E2E2E2E2E2E2E2E2E2E2F5E2E2E2E2E2E2E2E2E2E2E2E2E2E2E2E2E2E2E2E2F5F5EFF5E2E2E2E2E2E2E2E2E2E2E2
310
E2E2E2E2E2E2E2E2E2F5E2E2E2E2E2E2E2E2E2E2E2E2E2E2E2E2E2E2E2E2E2E2E2E2E2E2E2E2E2DCE2E2E2E2E2E2E2E2E2E2E2E2E2E2E2E2E2E2E2E2E2E2E2E2E2E2E2E2E2E2E2E2E2E2E2E2E2E2E2E2E2E2E2E2E2E2E2E2E2E2E2E2E2E2E2E2E2E2E2E2E2E2E2E2E2E2E2E2E2E2E2E2E2E2DCE2E2E2E2E2E2E2E2E2E2E2E2
310
E2E2E2E2E2E2E2E2E2E2E2E2E2E2E2E2E2F5E2E2E2E2E2E2E2E2E2E2E2E2E2E2E2E2E2E2E2E2F5F5EFF5E2E2E2E2E2E2E2E2E2E2E2E2E2E2E2E2E2E2E2E2F5E2E2E2E2E2E2E2E2E2E2E2E2E2E2E2E2E2E2E2E2E2E2E2E2E2E2E2E2E2DCE2E2E2E2E2E2E2E2E2E2E2E2E2E2E2E2E2E2E2E2E2E2E2E2E2E2E2E2E2E2E2E2E2E2
310
E2E2E2E2E2E2E2E2E2E2E2E2E2E2E2E2E2E2E2E2E2E2E2E2E2E2E2E2E2E2E2E2E2E2E2E2E2E2E2E2DCE2E2E2E2E2E2E2E2E2E2E2E2E2E2E2E2E2E2E2E2E2E2E2E2E2E2E2E2E2F5E2E2E2E2E2E2E2E2E2E2E2E2E2E2E2E2E2E2E2E2F5F5EFF5E2E2E2E2E2E2E2E2E2E2E2E2E2E2E2E2E2E2E2E2F5E2E2E2E2E2E2E2E2E2E2E2
310
E2E2E2E2E2E2E2E2E2E2E2E2E2E2E2E2E2E2DCE2E2E2E2E2E2E2E2E2E2E2E2E2E2E2E2E2E2E2E2E2E2E2E2E2E2E2E2E2E2E2E2E2E2E2E2E2E2E2E2E2E2E2E2E2E2E2E2E2E2E2E2E2E2E2E2E2E2E2E2E2E2E2E2E2E2E2E2E2E2E2E2E2E2DCE2E2E2E2E2E2E2E2E2E2E2E2E2E2E2E2E2E2E2E2E2E2E2E2E2E2E2E2E2F5E2E2E2
310
E2E2E2E2E2E2E2E2E2E2E2E2E2E2E2E2E2F5F5EFF5E2E2E2E2E2E2E2E2E2E2E2E2E2E2E2E2E2E2E2E2F5E2E2E2E2E2E2E2E2E2E2E2E2E2E2E2E2E2E2E2E2E2E2E2E2E2E2E2E2E2DCE2E2E2E2E2E2E2E2E2E2E2E2E2E2E2E2E2E2E2E2E2E2E2E2E2E2E2E2E2E2E2E2E2E2E2E2E2E2E2E2E2E2E2E2E2E2E2E2E2E2E2E2E2E2E2
310
E2E2E2E2E2E2E2E2E2E2E2E2E2E2E2E2E2E2E2DCE2E2E2E2E2E2E2E2E2E2E2E2E2E2E2E2E2E2E2E2E2E2E2E2E2E2E2E2E2F5E2E2E2E2E2E2E2E2E2E2E2E2E2E2E2E2E2E2E2E2F5F5EFF5E2E2E2E2E2E2E2E2E2E2E2E2E2E2E2E2E2E2E2E2F5E2E2E2E2E2E2E2E2E2E2E2E2E2E2E2E2E2E2E2E2E2E2E2E2E2E2E2E2E2DCE2E2
310
E2E2E2E2E2E2E2E2E2E2E2E2E2E2E2E2E2E2E2E2E2E2E2E2E2E2E2E2E2E2E2E2E2E2E2E2E2E2E2E2E2E2E2E2E2E2E2E2E2E2E2E2E2E2E2E2E2E2E2E2E2E2E2E2E2E2E2E2E2E2E2E2DCE2E2E2E2E2E2E2E2E2E2E2E2E2E2E2E2E2E2E2E2E2E2E2E2E2E2E2E2E2F5E2E2E2E2E2E2E2E2E2E2E2E2E2E2E2E2E2E2E2E2F5F5EFF5
310
E2E2E2E2E2E2E2E2E2E2E2E2E2E2E2E2E2E2E2E2F5E2E2E2E2E2E2E2E2E2E2E2E2E2E2E2E2E2E2E2E2E2E2E2E2E2E2E2E2E2DCE2E2E2E2E2E2E2E2E2E2E2E2E2E2E2E2E2E2E2E2E2E2E2E2E2E2E2E2E2E2E2E2E2E2E2E2E2E2E2E2E2E2E2E2E2E2E2E2E2E2E2E2E2E2E2E2E2E2E2E2E2E2E2E2E2E2E2E2E2E2E2E2E2E2DCE2
310
E2E2E2E2E2E2E2E2E2E2E2E2E2E2E2E2E2E2E2E2E2E2E2E2E2E2E2E2F5E2E2E2E2E2E2E2E2E2E2E2E2E2E2E2E2E2E2E2E2F5F5EFF5E2E2E2F5E2E2E2E2E2E2E2E2E2E2E2E2E2E2E2E2F5E2E2E2E2E2E2E2E2E2E2E2E2E2E2E2E2E2E2E2E2E2E2E2E2E2E2E2E2E2DCE2E2E2E2E2E2E2E2E2E2E2E2E2E2E2E2E2E2E2E2E2E2E2
310
E2E2E2E2E2E2E2E2E2E2E2E2E2E2E2E2E2E2E2E2E2E2E2E2E2E2E2E2E2E2E2E2E2E2E2E2E2E2E2E2E2E2E2E2E2E2E2E2E2E2E2DCE2E2E2E2E2E2E2E2E2E2E2E2E2E2E2E2E2E2E2E2E2E2E2E2E2E2E2E2E2F5E2E2E2E2E2E2E2E2E2E2E2E2E2E2E2E2F5E2E2E2F5F5EFF5E2E2E2F5E2E2E2E2E2E2E2E2E2E2E2E2E2E2E2E2F5
310
E2E2E2E2E2E2E2E2E2E2E2E2E2E2E2E2E2E2E2E2E2E2E2E2E2E2E2E2E2DCE2E2E2E2E2E2E2E2E2E2E2E2E2E2E2E2E2E2E2E2E2E2E2E2E2E2E2E2E2E2E2E2E2E2E2E2E2E2E2E2E2E2E2E2E2E2E2E2E2E2E2E2E2E2E2E2E2E2E2E2E2E2E2E2E2E2E2E2E2E2E2E2E2E2DCE2E2E2E2E2E2E2E2E2E2E2E2E2E2E2E2E2E2E2E2E2E2
310
E2E2E2E2E2E2E2F5E2E2E2E2E2E2E2E2E2E2E2E2E2E2E2E2F5E2E2E2F5F5EFF5E2E2E2F5E2E2E2E2E2E2E2E2E2E2E2E2E2E2E2E2F5E2E2E2E2E2E2E2E2E2E2E2E2E2E2E2E2E2E2E2E2E2E2E2E2E2E2E2E2E2DCE2E2E2E2E2E2E2E2E2E2E2E2E2E2E2E2E2E2E2E2E2E2E2E2E2E2E2E2E2E2E2E2E2E2E2E2E2E2E2E2E2E2E2E2
310
E2E2E2E2E2E2E2E2E2E2E2E2E2E2E2E2E2E2E2E2E2E2E2E2E2E2E2E2E2E2DCE2E2E2E2E2E2E2E2E2E2E2E2E2E2E2E2E2E2E2E2E2E2E2E2E2E2E2E2E2F5E2E2E2E2E2E2E2E2E2E2E2E2E2E2E2E2F5E2E2E2F5F5EFF5E2E2E2F5E2E2E2E2E2E2E2E2E2E2E2E2E2E2E2E2F5E2E2E2E2E2E2E2E2E2E2E2E2E2E2E2E2E2E2E2E2E2
310
E2E2E2E2E2E2E2E2DCE2E2E2E2E2E2E2E2E2E2E2E2E2E2E2E2E2E2E2E2E2E2E2E2E2E2E2E2E2E2E2E2E2E2E2E2E2BEE2E2E2E2E2E2E2E2E2E2E2E2E2E2E2E2E2E2E2E2E2E2E2E2E2E2E2E2E2E2E2E2E2E2E2E2DCE2E2E2E2E2E2E2E2E2E2E2E2E2E2E2E2E2E2E2E2E2E2E2E2E2E2E2E2E2F5E2E2E2E2E2E2E2E2E2E2E2E2E2
310
E2E2E2F5E2E2E2F5F5EFF5E2E2E2F5E2E2E2E2E2E2E2E2E2E2E2E2E2E2E2E2F5E2E2E2E2E2E2E2E2E2E2E2E2E2E2E2E2E2E2E2E2E2E2E2E2E2E2E2E2E2DCE2E2E2E2E2E2E2E2E2E2E2E2E2E2E2E2E2E2E2E2E2E2E2E2E2E2E2E2E2E2E2E2E2E2E2E227BEE2E2E2E2E2E2E2E2E2E2E2E2E2E2E2E2E2E2E2E2E2E2E2E2E2E2E2
310
E2E2E2E2E2E2E2E2E2DCE2E2E2E2E2E2E2E2E2E2E2E2E2E2E2E2E2E2E2E2E2E2E2E2E2E2E2E2E2F5E2E2E2E2E2E2E2E2E2E2E2E2E2E2E2E2F5E2E2E2F5F5EFF5E2E2E2F5E2E2E2E2E2E2E2E2E2E2E2E2E2E2E2E2F5E2E2E2E2E2E2E2E2E2E2E2E2E2E2E2E2E2E2E2E2E2E2E2E2E2E2E2E2E2DCE2E2E2E2E2E2E2E2E2E2E2E2
310
E2E2E2E2E2E2E2E2E2E2E2E2E2E2E2E2E2E2E2E2E2E2E2E227BEE2E2E2E2E2E2E2E2E2E2E2E2E2E2E2E2E2E2E2E2E2E2E2E2E2E2E2E2E2E2E2E2E2E2E2E2DCE2E2E2E2E2E2E2E2E2E2E2E2E2E2E2E2E2E2E2E2E2E2E2E2E2E2E2E2E2F5E2E2E2E2E2E2E2E2E2E2E2E2E2E2E2E2F5E2E2E2F5F5EFF5E2E2E2F5E2E2E2E2E2E2
310
E2E2E2E2E2E2E2E2E2E2F5E2E2E2E2E2E2E2E2E2E2E2E2E2E2E2E2E2E2E2E2E2E2E2E2E2E2E2E2E2DCE2E2E2E2E2E2E2E2E2E2E2E2E2E2E2E2E2E2E2E2E2E2E2E2E2E2E2E2E2E2E2E2E2E2E2E227BEE2E2E2E2E2E2E2E2E2E2E2E2E2E2E2E2E2E2E2E2E2E2E2E2E2E2E2E2E2E2E2E2E2E2E2E2DCE2E2E2E2E2E2E2E2E2E2E2
310
E2E2E2E2E2E2E2E2E2E2E2E2E2E2E2E2E2E2F5E2E2E2E2E2E2E2E2E2E2E2E2E2E2E2E2F5E2E2E2F5F5EFF5E2E2E2F5E2E2E2E2E2E2E2E2E2E2E2E2E2E2E2E2F5E2E2E2E2E2E2E2E2E2E2E2E2E2E2E2E2E2E2E2E2E2E2E2E2E2E2E2E2E2DCE2E2E2E2E2E2E2E2E2E2E2E2E2E2E2E2E2E2E2E2E2E2E2E2E2E2E2E2E2E2E2E2E2
310
E2E2E227BEE2E2E2E2E2E2E2E2E2E2E2E2E2E2E2E2E2E2E2E2E2E2E2E2E2E2E2E2E2E2E2E2E2E2E2E2DCE2E2E2E2E2E2E2E2E2E2E2E2E2E2E2E2E2E2E2E2E2E2E2E2E2E2E2E2E2F5E2E2E2E2E2E2E2E2E2E2E2E2E2E2E2E2F5E2E2E2F5F5EFF5E2E2E2F5E2E2E2E2E2E2E2E2E2E2E2E2E2E2E2E2F5E2E2E2E2E2E2E2E2E2E2
310
E2E2E2E2E2E2E2E2E2E2E2E2E2E2E2E2E2E2E2DCE2E2E2E2E2E2E2E2E2E2E2E2E2E2E2E2E2E2E2E2E2E2E2E2E2E2E2E2E2E2E2E2E2E2E2E227BEE2E2E2E2E2E2E2E2E2E2E2E2E2E2E2E2E2E2E2E2E2E2E2E2E2E2E2E2E2E2E2E2E2E2E2E2DCE2E2E2E2E2E2E2E2E2E2E2E2E2E2E2E2E2E2E2E2E2E2E2E2E2E2E2E2E2F5E2E2
310
E2E2E2E2E2E2E2E2E2E2E2E2E2E2F5E2E2E2F5F5EFF5E2E2E2F5E2E2E2E2E2E2E2E2E2E2E2E2E2E2E2E2F5E2E2E2E2E2E2E2E2E2E2E2E2E2E2E2E2E2E2E2E2E2E2E2E2E2E2E2E2E2DCE2E2E2E2E2E2E2E2E2E2E2E2E2E2E2E2E2E2E2E2E2E2E2E2E2E2E2E2E2E2E2E2E2E2E2E227BEE2E2E2E2E2E2E2E2E2E2E2E2E2E2E2E2
310
E2E2E2E2E2E2E2E2E2E2E2E2E2E2E2E2E2E2E2E2DCE2E2E2E2E2E2E2E2E2E2E2E2E2E2E2E2E2E2E2E2E2E2E2E2E2E2E2E2E2F5E2E2E2E2E2E2E2E2E2E2E2E2E2E2E2E2F5E2E2E2F5F5EFF5E2E2E2F5E2E2E2E2E2E2E2E2E2E2E2E2E2E2E2E2F5E2E2E2E2E2E2E2E2E2E2E2E2E2E2E2E2E2E2E2E2E2E2E2E2E2E2E2E2E2DCE2
310
E2E2E2E2E2E2E2E2E2E2E2E2E2E2E2E2E2E2E2E2E2E2E2E2E2E2E2E2E2E2E2E2E2E2E227BEE2E2E2E2E2E2E2E2E2E2E2E2E2E2E2E2E2E2E2E2E2E2E2E2E2E2E2E2E2E2E2E2E2E2E2E2DCE2E2E2E2E2E2E2E2E2E2E2E2E2E2E2E2E2E2E2E2E2E2E2E2E2E2E2E2E2F5E2E2E2E2E2E2E2E2E2E2E2E2E2E2E2E2F5E2E2E2F5F5EF
310
F5E2E2E2F5E2E2E2E2E2E2E2E2E2E2E2E2E2E2E2E2F5E2E2E2E2E2E2E2E2E2E2E2E2E2E2E2E2E2E2E2E2E2E2E2E2E2E2E2E2E2DCE2E2E2E2E2E2E2E2E2E2E2E2E2E2E2E2E2E2E2E2E2E2E2E2E2E2E2E2E2E2E2E2E2E2E2E227BEE2E2E2E2E2E2E2E2E2E2E2E2E2E2E2E2E2E2E2E2E2E2E2E2E2E2E2E2E2E2E2E2E2E2E2E2DC
310
E2E2E2E2E2E2E2E2E2E2E2E2E2E2E2E2E2E2E2E2E2E2E2E2E2E2E2E2E2F5E2E2E2E2E2E2E2E2E2E2E2E2E2E2E2E2F5E2E2E2F5F5EFF5E2E2E2F5E2E2E2E2E2E2E2E2E2E2E2E2E2E2E2E2F5E2E2E2E2E2E2E2E2E2E2E2E2E2E2E2E2E2E2E2E2E2E2E2E2E2E2E2E2E2DCE2E2E2E2E2E2E2E2E2E2E2E2E2E2E2E2E2E2E2E2E2E2
310
E2E2E2E2E2E2E2E2E2E2E2E2E2E227BEE2E2E2E2E2E2E2E2E2E2E2E2E2E2E2E2E2E2E2E2E2E2E2E2E2E2E2E2E2E2E2E2E2E2E2E2DCE2E2E2E2E2E2E2E2E2E2E2E2E2E2E2E2E2E2E2E2E2E2E2E2E2E2E2E2E2F5E2E2E2E2E2E2E2E2E2E2E2E2E2E2E2E2F5E2E2E2F5F5EFF5E2E2E2F5E2E2E2E2E2E2E2E2E2E2E2E2E2E2E2E2
310
F5E2E2E2E2E2E2E2E2E2E2E2E2E2E2E2E2E2E2E2E2E2E2E2E2E2E2E2E2E2DCE2E2E2E2E2E2E2E2E2E2E2E2E2E2E2E2E2E2E2E2E2E2E2E2E2E2E2E2E2E2E2E2E2E2E2E227BEE2E2E2E2E2E2E2E2E2E2E2E2E2E2E2E2E2E2E2E2E2E2E2E2E2E2E2E2E2E2E2E2E2E2E2E2DCE2E2E2E2E2E2E2E2E2E2E2E2E2E2E2E2E2E2E2E2E2
310
E2E2E2E2E2E2E2E2F5E2E2E2E2E2E2E2E2E2E2E2E2E2E2E2E2F5E2E2E2F5F5EFF5E2E2E2F5E2E2E2E2E2E2E2E2E2E2E2E2E2E2E2E2F5E2E2E2E2E2E2E2E2E2E2E2E2E2E2E2E2E2E2E2E2E2E2E2E2E2E2E2E2E2DCE2E2E2E2E2E2E2E2E2E2E2E2E2E2E2E2E2E2E2E2E2E2E2E2E2E2E2E2E2E2E2E2E2E2E2E227BEE2E2E2E2E2
310
E2E2E2E2E2E2E2E2E2E2E2E2E2E2E2E2E2E2E2E2E2E2E2E2E2E2E2E2E2E2E2DCE2E2E2E2E2E2E2E2E2E2E2E2E2E2E2E2E2E2E2E2E2E2E2E2E2E2E2E2E2F5E2E2E2E2E2E2E2E2E2E2E2E2E2E2E2E2F5E2E2E2F5F5EFF5E2E2E2F5E2E2E2E2E2E2E2E2E2E2E2E2E2E2E2E2F5E2E2E2E2E2E2E2E2E2E2E2E2E2E2E2E2E2E2E2E2
310
E2E2E2E2E2E2E2E2E2DCE2E2E2E2E2E2E2E2E2E2E2E2E2E2E2E2E2E2E2E2E2E2E2E2E2E2E2E2E2E2E2E2E2E2E2E227BEE2E2E2E2E2E2E2E2E2E2E2E2E2E2E2E2E2E2E2E2E2E2E2E2E2E2E2E2E2E2E2E2E2E2E2E2DCE2E2E2E2E2E2E2E2E2E2E2E2E2E2E2E2E2E2E2E2E2E2E2E2E2E2E2E2E2F5E2E2E2E2E2E2E2E2E2E2E2E2
310
E2E2E2E2F5E2E2E2F5F5EFF5E2E2E2E2E2E2E2E2E2E2E2E2E2E2E2E2E2E2E2E2F5E2E2E2E2E2E2E2E2E2E2E2E2E2E2E2E2E2E2E2E2E2E2E2E2E2E2E2E2E2DCE2E2E2E2E2E2E2E2E2E2E2E2E2E2E2E2E2E2E2E2E2E2E2E2E2E2E2E2E2E2E2E2E2E2E2E227BEE2E2E2E2E2E2E2E2E2E2E2E2E2E2E2E2E2E2E2E2E2E2E2E2E2E2
310
E2E2E2E2E2E2E2E2E2E2DCE2E2E2E2E2E2E2E2E2E2E2E2E2E2E2E2E2E2E2E2E2E2E2E2E2E2E2E2E2F5E2E2E2E2E2E2E2E2E2E2E2E2E2E2E2E2E2E2E2E2F5F5EFF5E2E2E2E2E2E2E2E2E2E2E2E2E2E2E2E2E2E2E2E2F5E2E2E2E2E2E2E2E2E2E2E2E2E2E2E2E2E2E2E2E2E2E2E2E2E2E2E2E2E2DCE2E2E2E2E2E2E2E2E2E2E2
310
E2E2E2E2E2E2E2E2E2E2E2E2E2E2E2E2E2E2E2E2E2E2E2E2E227BEE2E2E2E2E2E2E2E2E2E2E2E2E2E2E2E2E2E2E2E2E2E2E2E2E2E2E2E2E2E2E2E2E2E2E2E2DCE2E2E2E2E2E2E2E2E2E2E2E2E2E2E2E2E2E2E2E2E2E2E2E2E2E2E2E2E2F5E2E2E2E2E2E2E2E2E2E2E2E2E2E2E2E2E2E2E2E2F5F5EFF5E2E2E2E2E2E2E2E2E2
310
E2E2E2E2E2E2E2E2E2E2E2F5E2E2E2E2E2E2E2E2E2E2E2E2E2E2E2E2E2E2E2E2E2E2E2E2E2E2E2E2E2DCE2E2E2E2E2E2E2E2E2E2E2E2E2E2E2E2E2E2E2E2E2E2E2E2E2E2E2E2E2E2E2E2E2E2E2E2E2BEE2E2E2E2E2E2E2E2E2E2E2E2E2E2E2E2E2E2E2E2E2E2E2E2E2E2E2E2E2E2E2E2E2E2E2E2DCE2E2E2E2E2E2E2E2E2E2
310
E2E2E2E2E2E2E2E2E2E2E2E2E2E2E2E2E2E2E2F5E2E2E2E2E2E2E2E2E2E2E2E2E2E2E2E2E2E2E2E2F5F5EFF5E2E2E2E2E2E2E2E2E2E2E2E2E2E2E2E2E2E2E2E2F5E2E2E2E2E2E2E2E2E2E2E2E2E2E2E2E2E2E2E2E2E2E2E2E2E2E2E2E2E2DCE2E2E2E2E2E2E2E2E2E2E2E2E2E2E2E2E2E2E2E2E2E2E2E2E2E2E2E2E2E2E2E2
310
E2E2E2E2E2BEE2E2E2E2E2E2E2E2E2E2E2E2E2E2E2E2E2E2E2E2E2E2E2E2E2E2E2E2E2E2E2E2E2E2E2E2DCE2E2E2E2E2E2E2E2E2E2E2E2E2E2E2E2E2E2E2E2E2E2E2E2E2E2E2E2E2F5E2E2E2E2E2E2E2E2E2E2E2E2E2E2E2E2E2E2E2E2F5F5EFF5E2E2E2E2E2E2E2E2E2E2E2E2E2E2E2E2E2E2E2E2F5E2E2E2E2E2E2E2E2E2
310
E2E2E2E2E2E2E2E2E2E2E2E2E2E2E2E2E2E2E2E2DCE2E2E2E2E2E2E2E2E2E2E2E2E2E2E2E2E2E2E2E2E2E2E2E2E2E2E2E2E2E2E2E2E2E2E2E2E2BEE2E2E2E2E2E2E2E2E2E2E2E2E2E2E2E2E2E2E2E2E2E2E2E2E2E2E2E2E2E2E2E2E2E2E2E2DCE2E2E2E2E2E2E2E2E2E2E2E2E2E2E2E2E2E2E2E2E2E2E2E2E2E2E2E2E2F5E2
310
E2E2E2E2E2E2E2E2E2E2E2E2E2E2E2E2E2E2E2F5F5EFF5E2E2E2E2E2E2E2E2E2E2E2E2E2E2E2E2E2E2E2E2F5E2E2E2E2E2E2E2E2E2E2E2E2E2E2E2E2E2E2E2E2E2E2E2E2E2E2E2E2E2DCE2E2E2E2E2E2E2E2E2E2E2E2E2E2E2E2E2E2E2E2E2E2E2E2E2E2E2E2E2E2E2E2E2E2E2E2E2BEE2E2E2E2E2E2E2E2E2E2E2E2E2E2E2
310
E2E2E2E2E2E2E2E2E2E2E2E2E2E2E2E2E2E2E2E2E2DCE2E2E2E2E2E2E2E2E2E2E2E2E2E2E2E2E2E2E2E2E2E2E2E2E2E2E2E2E2F5E2E2E2E2E2E2E2E2E2E2E2E2E2E2E2E2E2E2E2E2F5F5EFF5E2E2E2E2E2E2E2E2E2E2E2E2E2E2E2E2E2E2E2E2F5E2E2E2E2E2E2E2E2E2E2E2E2E2E2E2E2E2E2E2E2E2E2E2E2E2E2E2E2E2DC
310
E2E2E2E2E2E2E2E2E2E2E2E2E2E2E2E2E2E2E2E2E2E2E2E2E2E2E2E2E2E2E2E2E2E2E2E2E2BEE2E2E2E2E2E2E2E2E2E2E2E2E2E2E2E2E2E2E2E2E2E2E2E2E2E2E2E2E2E2E2E2E2E2E2E2DCE2E2E2E2E2E2E2E2E2E2E2E2E2E2E2E2E2E2E2E2E2E2E2E2E2E2E2E2E2F5E2E2E2E2E2E2E2E2E2E2E2E2E2E2E2E2E2E2E2E2F5F5
310
EFF5E2E2E2E2E2E2E2E2E2E2E2E2E2E2E2E2E2E2E2E2F5E2E2E2E2E2E2E2E2E2E2E2E2E2E2E2E2E2E2E2E2E2E2E2E2E2E2E2E2E2DCE2E2E2E2E2E2E2E2E2E2E2E2E2E2E2E2E2E2E2E2E2E2E2E2E2E2E2E2E2E2E2E2E2E2E2E2E2BEE2E2E2E2E2E2E2E2E2E2E2E2E2E2E2E2E2E2E2E2E2E2E2E2E2E2E2E2E2E2E2E2E2E2E2E2
310
DCE2E2E2E2E2E2E2E2E2E2E2E2E2E2E2E2E2E2E2E2E2E2E2E2E2E2E2E2E2F5E2E2E2E2E2E2E2E2E2E2E2E2E2E2E2E2E2E2E2E2F5F5EFF5E2E2E2E2E2E2E2E2E2E2E2E2E2E2E2E2E2E2E2E2F5E2E2E2E2E2E2E2E2E2E2E2E2E2E2E2E2E2E2E2E2E2E2E2E2E2E2E2E2E2DCE2E2E2E2E2E2E2E2E2E2E2E2E2E2E2E2E2E2E2E2E2
310
E2E2E2E2E2E2E2E2E2E2E2E2E2E2E2E2BEE2E2E2E2E2E2E2E2E2E2E2E2E2E2E2E2E2E2E2E2E2E2E2E2E2E2E2E2E2E2E2E2E2E2E2E2DCE2E2E2E2E2E2E2E2E2E2E2E2E2E2E2E2E2E2E2E2E2E2E2E2E2E2E2E2E2F5E2E2E2E2E2E2E2E2E2E2E2E2E2E2E2E2E2E2E2E2F5F5EFF5E2E2E2E2E2E2E2E2E2E2E2E2E2E2E2E2E2E2E2
310
E2F5E2E2E2E2E2E2E2E2E2E2E2E2E2E2E2E2E2E2E2E2E2E2E2E2E2E2E2E2E2DCE2E2E2E2E2E2E2E2E2E2E2E2E2E2E2E2E2E2E2E2E2C3C3C3C3C3C3E2E2E2E2E2E2E2E2E2E2BEE2E2E2E2E2E2E2E2E2E2E2C3C3C3C3C3C3E2E2E2E2E2E2E2E2E2E2E2E2E2E2E2E2E2E2E2DCE2E2E2E2E2E2E2E2E2E2E2E2E2E2E2E2E2E2E2E2
310
E2E2E2E2E2E2E2E2E2F5E2E2E2E2E2E2E2E2E2E2E2E2E2E2E2E2E2E2E2E2F5F5EFF5E2E2E2F5E2E2E2E2E2E2E2E2E2E2E2E2E2E2E2E2F5E2E2E2E2E2E2E2E2E2E2E2E2E2E2E2E2E2E2E2E2E2E2E2E2E2E2E2E2E2DCE2E2E2E2E2E2E2E2E2E2E2BEE2BEE2E2E2E2E2E2E2C3C3C3C3C3C3E2E2E2E2E2E2E2E2E2E2BEE2E2E2E2
310
E2E2E2E2E2E2E2C3C3C3C3C3C3E2E2E2E2E2E2E2E2BEE2BEE2E2E2E2E2E2E2E2DCE2E2E2E2E2E2E2E2E2E2E2E2E2E2E2E2E2E2E2E2E2E2E2E2E2E2E2E2E2F5E2E2E2E2E2E2E2E2E2E2E2E2E2E2E2E2F5E2E2E2F5F5EFF5E2E2E2F5E2E2E2E2E2E2E2E2E2E2E2E2E2E2E2E2F5E2E2E2E2E2E2E2E2E2E2E2E2E2E2E2E2E2E2E2
310
E2E2E2E2E2E2E2E2E2E2DCE2E2E2E2E2E2E2E2E2E2E2BEBEBEE2E2E2E2E2E2E2F5BEF5F5F5BEE2E2E2E2E2E2E2E2E2E2BEE2E2E2E2E2E2E2E2E2E2E2F5F5F5F5F5F5E2E2E2E2E2E2E227BEBEBEE2E2E2E2E2E2E2E2DCE2E2E2E2E2E2E2E2E2E2E2E2E2E2E2E2E2E2E2E2E2E2E2E2E2E2E2E2E2F5E2E2E2E2E2E2E2E2E2E2E2
310
E2E2E2E2E2F5E2E2E2F5F5EFF5E2E2E2F5E2E2E2E2E2E2E2E2E2E2E2E2E2E2E2E2F5E2E2E2E2E2E2E2E2E2E2E2E2E2E2E2E2E2E2E2E2E2E2E2E2E2E2E2E2E2DCE2E2E2E2E2E2E2E2E2E2E2BE2727E2E2E2E2E2E2E2F5E2E2E2F5F5E2E2E2E2E2E2E2E2E2E2BEE2E2E2E2E2E2E2E2E2E2E2F5E2E2E2F5F5E2E2E2E2E2E2E227
310
27E2BEE2E2E2E2E2E2E2E2DCE2E2E2E2E2E2E2E2E2E2E2E2E2E2E2E2E2E2E2E2E2E2E2E2E2E2E2E2E2F5E2E2E2E2E2E2E2E2E2E2E2E2E2E2E2E2F5E2E2E2F5F5EFF5E2E2E2F5E2E2E2E2E2E2E2E2E2E2E2E2E2E2E2E2F5E2E2E2E2E2E2E2E2E2E2E2E2E2E2E2E2E2E2E2E2E2E2E2E2E2E2E2E2E2DCE2E2E2E2E2E2E2E2E2E2
310
E2BE2727E2E2E2E2E2C3C3F5E2E2E2F5F5E2E2E2E2E2E2E2E2E2E2BEE2E2E2E2E2E2E2E2E2E2E2F5E2E2E2F5F5C3E2E2E2E2E2E22727E2BEE2E2E2E2E2E2E2E2DCE2E2E2E2E2E2E2E2E2E2E2E2E2E2E2E2E2E2E2E2E2E2E2E2E2E2E2E2E2F5E2E2E2E2E2E2E2E2E2E2E2E2E2E2E2E2F5E2E2E2F5F5EFF5E2E2E2F5E2E2E2E2
310
E2E2E2E2E2E2E2E2E2E2E2E2F5E2E2E2E2E2E2E2E2E2E2E2E2E2E2E2E2E2E2E2E2E2E2E2E2E2E2E2E2E2DCE2E2E2E2E2E2E2E2E2E2E2BE27BEC3C3C3F5BEF5F5F5E2E2E2F5F5E2E2E2E2E2E2E2E2E2E2BEE2E2E2E2E2E2E2E2E2E2E2F5E2E2E2F5F5F5F5F5F5C3C3E227BEE2BEE2E2E2E2E2E2E2E2DCE2E2E2E2E2E2E2E2E2
310
E2E2E2E2E2E2E2E2E2E2E2E2E2E2E2E2E2E2E2E2F5E2E2E2E2E2E2E2E2E2E2E2E2E2E2E2E2F5E2E2E2F5F5EFF5E2E2E2F5E2E2E2E2E2E2E2E2E2E2E2E2E2E2E2E2F5E2E2E2E2E2E2E2E2E2E2E2E2E2E2E2E2E2E2E2E2E2E2E2E2E2E2E2E2E2DCE2E2E2E2E2E2E2E2E2E227272727C3E2E2F5E2E2E2E2E2E2F5F5BEE2E2E2E2
310
E2E2E2E2E2E2BEE2E2E2E2E2E2E2E2E2E2E2F5F5F5E2E2E2E2E2E2F5E2C3E2272727BEE2E2E2E2E2E2E2E2DCE2E2E2E2E2E2E2E2E2E2E2E2E2E2E2E2E2E2E2E2E2E2E2E2E2E2E2E2E2F5E2E2E2E2E2E2E2E2E2E2E2E2E2E2E2E2F5E2E2E2F5F5EFF5E2E2E2F5E2E2E2E2E2E2E2E2E2E2E2E2E2E2E2E2F5E2E2E2E2E2E2E2E2
310
E2E2E2E2E2E2E2E2E2E2E2E2E2E2E2E2E2E2E2E2E2DCE2E2E2E2E2E2E2E2E2E227272727C3F5F5BEE2E2E2E2E2E2F5E2E2E2E2E2E2E2E2E2E2E2E2BEE2E2E2E2E2E2E2E2E2E2E2E2E2F5E2E2E2E2E2E2F5F5C3E2272727BEE2E2E2E2E2E2E2E2DCE2E2E2E2E2E2E2E2E2E2E2E2E2E2E2E2E2E2E2E2E2E2E2E2E2E2E2E2E2F5
310
E2E2E2E2E2E2E2E2E2E2E2E2E2E2E2E2F5E2E2E2F5F5EFF5E2E2E2F5E2E2E2E2E2E2E2E2E2E2E2E2E2E2E2E2F5E2E2E2E2E2E2E2E2E2E2E2E2E2E2E2E2E2E2E2E2E2E2E2E2E2E2E2E2E2DCE2E2E2E2E2E2E2E2E2E22727E2BEE2C3F5E2E2E2E2E2E2E2F5E2E2E2E2E2E2E2E2E2E2E2E2BEE2E2E2E2E2E2E2E2E2E2E2E2E2F5
310
E2E2E2E2E2E2E2C3C3E2E2BE27BEE2E2E2E2E2E2E2E2DCE2E2E2E2E2E2E2E2E2E2E2E2E2E2E2E2E2E2E2E2E2E2E2E2E2E2E2E2E2F5E2E2E2E2E2E2E2E2E2E2E2E2E2E2E2E2F5E2E2E2F5F5EFF5E2E2E2F5E2E2E2E2E2E2E2E2E2E2E2E2E2E2E2E2F5E2E2E2E2E2E2E2E2E2E2E2E2E2E2E2E2E2E2E2E2E2E2E2E2E2E2E2E2E2
310
DCE2E2E2E2E2E2E2E2E2E2E2272727E2F5F5E2E2E2E2E2E2E2F5E2E2E2E2E2E2E2E2E2E2E2E2BEE2E2E2E2E2E2E2E2E2E2E2E2E2F5E2E2E2E2E2E2E2F5E2E2272727BEE2E2E2E2E2E2E2E2DCE2E2E2E2E2E2E2E2E2E2E2E2E2E2E2E2E2E2E2E2E2E2E2E2E2E2E2E2E2F5E2E2E2E2E2E2E2E2E2E2E2E2E2E2E2E2F5E2E2E2F5
310
F5EFF5E2E2E2F5E2E2E2E2E2E2E2E2E2E2E2E2E2E2E2E2F5E2E2E2E2E2E2E2E2E2E2E2E2E2E2E2E2E2E2E2E2E2E2E2E2E2E2E2E2E2DCE2E2E2E2E2E2E2E2E2E2E2BE2727E2F5F5E2E2E2E2E2E2E2F5E2E2E2E2E2E2E2E2E2E2E2E2BEE2E2E2E2E2E2E2E2E2E2E2E2E2F5E2E2E2E2E2E2E2F5E2E22727E2BEE2E2E2E2E2E2E2
310
E2DCE2E2E2E2E2E2E2E2E2E2E2E2E2E2E2E2E2E2E2E2E2E2E2E2E2E2E2E2E2F5E2E2E2E2E2E2E2E2E2E2E2E2E2E2E2E2F5E2E2E2F5F5EFF5E2E2E2F5E2E2E2E2E2E2E2E2E2E2E2E2E2E2E2E2F5E2E2E2E2E2E2E2E2E2E2E2E2E2E2E2E2E2E2E2E2E2E2E2E2E2E2E2E2E2DCE2E2E2E2E2E2E2E2E2E2E2BE2727E2F5F5E2E2E2
310
E2E2E2E2F5E2E2E2E2E2E2E2E2E2E2E2E2BEE2E2E2E2E2E2E2E2E2E2E2E2E2F5E2E2E2E2E2E2E2F5E2E22727E2BEE2E2E2E2E2E2E2E2DCE2E2E2E2E2E2E2E2E2E2E2E2E2E2E2E2E2E2E2E2E2E2E2E2E2E2E2E2E2F5E2E2E2E2E2E2E2E2E2E2E2E2E2E2E2E2F5E2E2E2F5F5EFF5E2E2E2F5E2E2E2E2E2E2E2E2E2E2E2E2E2E2
310
E2E2F5E2E2E2E2E2E2E2E2E2E2E2E2E2E2E2E2E2E2E2E2E2E2E2E2E2E2E2E2E2DCE2E2E2E2E2E2E2E2E2E2E2BEE2BEE2F5F5E2E2F5F5F5F5F5BEE2E2E2E2E2E2E2E2E2E2E2E2BEE2E2E2E2E2E2E2E2E2E2E2E2E2F5F5F5F5F5F5E2E2F5E2E2E2BEE2BEE2E2E2E2E2E2E2E2DCE2E2E2E2E2E2E2E2E2E2E2E2E2E2E2E2E2E2E2
310
E2E2E2E2E2E2E2E2E2E2F5E2E2E2E2E2E2E2E2E2E2E2E2E2E2E2E2F5E2E2E2F5F5EFF5E2E2E2F5E2E2E2E2E2E2E2E2E2E2E2E2E2E2E2E2F5E2E2E2E2E2E2E2E2E2E2E2E2E2E2E2E2E2E2E2E2E2E2E2E2E2E2E2E2E2DCE2E2E2E2E2E2E2E2E2E2E2BEBEBEE2BEF5BEF5BEE2E2E2E2C3E2E2E2E2E2E2E2E2E2E2E2E2BEE2E2E2
310
E2E2E2E2E2E2E2E2E2E2C3E2E2E2F5F5F5F5F5BEE2E2BEBEBEE2E2E2E2E2E2E2E2DCE2E2E2E2E2E2E2E2E2E2E2E2E2E2E2E2E2E2E2E2E2E2E2E2E2E2E2E2E2F5E2E2E2E2E2E2E2E2E2E2E2E2E2E2E2E2F5E2E2E2F5F5EFF5E2E2E2F5E2E2E2E2E2E2E2E2E2E2E2E2E2E2E2E2F5E2E2E2E2E2E2E2E2E2E2E2E2E2E2E2E2E2E2
310
E2E2E2E2E2E2E2E2E2E2E2DCE2E2E2E2E2E2E2E2E2E2E2E2E2E2E2E2C3C3E2E2E2E2E2E2C3E2E2E2E2E2E2E2E2E2E2E2E2BEE2E2E2E2E2E2E2E2E2E2E2E2E2C3E2E2E2E2E2E2C3C3E2E2E2E2E2E2E2E2E2E2E2E2E2E2DCE2E2E2E2E2E2E2E2E2E2E2E2E2E2E2E2E2E2E2E2E2E2E2E2E2E2E2E2E2F5E2E2E2E2E2E2E2E2E2E2
310
E2E2E2E2E2E2F5E2E2E2F5F5EFF5E2E2E2F5E2E2E2E2E2E2E2E2E2E2E2E2E2E2E2E2F5E2E2E2E2E2E2E2E2E2E2E2E2E2E2E2E2E2E2E2E2E2E2E2E2E2E2E2E2E2DCE2E2E2E2E2E2E2E2E2E2E2E2E2E2E2E2C3C3C3C3C3C3C3C3C3E2E2E2E2E2E2E2E2E2E2E2E2BEE2E2E2E2E2E2E2E2E2E2E2E2E2C3C3C3C3C3C3C3C3C3E2E2
310
E2E2E2E2E2E2E2E2E2E2E2E2DCE2E2E2E2E2E2E2E2E2E2E2E2E2E2E2E2E2E2E2E2E2E2E2E2E2E2E2E2E2F5E2E2E2E2E2E2E2E2E2E2E2E2E2E2E2E2F5E2E2E2F5F5EFF5E2E2E2F5E2E2E2E2E2E2E2E2E2E2E2E2E2E2E2E2F5E2E2E2E2E2E2E2E2E2E2E2E2E2E2E2E2E2E2E2E2E2E2E2E2E2E2E2E2E2DCE2E2E2E2E2E2E2E2E2
310
E2E2E2E2E2E2E2E2E2E2E2E2E2E2E2E2E2E2E2E2E2E2E2E2E2E2E2E2BEE2E2E2E2E2E2E2E2E2E2E2E2E2E2E2E2E2E2E2E2E2E2E2E2E2E2E2E2E2E2E2E2E2E2E2E2DCE2E2E2E2E2E2E2E2E2E2E2E2E2E2E2E2E2E2E2E2E2E2E2E2E2E2E2E2E2F5E2E2E2E2E2E2E2E2E2E2E2E2E2E2E2E2F5E2E2E2F5F5EFF5E2E2E2E2E2E2E2
310
E2E2E2E2E2E2E2E2E2E2E2E2E2F5E2E2E2E2E2E2E2E2E2E2E2E2E2E2E2E2E2E2E2E2E2E2E2E2E2E2E2E2E2DCE2E2E2E2E2E2E2E2E2E2E2E2E2E2E2BE272727BEBE2727272727BEE2E2E2E2E2E2E2E2E2E2BEE2E2E2E2E2E2E2E2E2E2BEBE2727272727BEBE2727BEE2E2E2E2E2E2E2E2E2E2E2E2E2E2DCE2E2E2E2E2E2E2E2
310
E2E2E2E2E2E2E2E2E2E2E2E2E2E2E2E2E2E2E2E2E2F5E2E2E2E2E2E2E2E2E2E2E2E2E2E2E2E2E2E2E2E2F5F5EFF5E2E2E2E2E2E2E2E2E2E2E2E2E2E2E2E2E2E2E2E2F5E2E2E2E2E2E2E2E2E2E2E2E2E2E2E2E2E2E2E2E2E2E2E2E2E2E2E2E2E2DCE2E2E2E2E2E2E2E2E2E2E2E2E2E2E2BEBEBEBEBEBEBEBEBEBEBEBEE2E2E2
310
E2E2E2E2E2E2E2BEE2E2E2E2E2E2E2E2E2E2E2BEBEBEBEBEBEBEBEBEBEBEE2E2E2E2E2E2E2E2E2E2E2E2E2E2DCE2E2E2E2E2E2E2E2E2E2E2E2E2E2E2E2E2E2E2E2E2E2E2E2E2E2E2E2E2F5E2E2E2E2E2E2E2E2E2E2E2E2E2E2E2E2E2E2E2E2F5F5EFF5E2E2E2E2E2E2E2E2E2E2E2E2E2E2E2E2E2E2E2E2F5E2E2E2E2E2E2E2
310
E2E2E2E2E2E2E2E2E2E2E2E2E2E2E2E2E2E2E2E2E2E2DCE2E2E2E2E2E2E2E2E2E2E2E2E2E2E2BEBEE2E227272727E2E2E2BEE2E2E2E2E2E2E2E2E2E2BEE2E2E2E2E2E2E2E2E2E2E2BEE2E2E2272727E2E2E2BEE2E2E2E2E2E2E2E2E2E2E2E2E2E2DCE2E2E2E2E2E2E2E2E2E2E2E2E2E2E2E2E2E2E2E2E2E2E2E2E2E2E2E2E2
310
F5E2E2E2E2E2E2E2E2E2E2E2E2E2E2E2E2E2E2E2E2F5F5EFF5E2E2E2E2E2E2E2E2E2E2E2E2E2E2E2E2E2E2E2E2F5E2E2E2E2E2E2E2E2E2E2E2E2E2E2E2E2E2E2E2E2E2E2E2E2E2E2E2E2E2DCE2E2E2E2E2E2E2E2E2E2E2E2E2E2E2E2E2E2E2E2E2E2E2E2E2E2E2E2E2E2E2E2E2E2E2E2E2BEE2E2E2E2E2E2E2E2E2E2E2E2E2
310
E2E2E2E2E2E2E2E2E2E2E2E2E2E2E2E2E2E2E2E2E2E2E2DCE2E2E2E2E2E2E2E2E2E2E2E2E2E2E2E2E2E2E2E2E2E2E2E2E2E2E2E2E2F5E2E2E2E2E2E2E2E2E2E2E2E2E2E2E2E2E2E2E2E2F5F5EFF5E2E2E2E2E2E2E2E2E2E2E2E2E2E2E2E2E2E2E2E2F5E2E2E2E2E2E2E2E2E2E2E2E2E2E2E2E2E2E2E2E2E2E2E2E2E2E2E2E2
310
E2DCE2E2E2E2E2E2E2E2E2E2E2E2E2E2E2E2E2E2E2E2E2E2E2E2E2E2E2E2E2E2E2E2E2E2E2E2E2BEE2E2E2E2E2E2E2E2E2E2E2E2E2E2E2E2E2E2E2E2E2E2E2E2E2E2E2E2E2E2E2E2E2E2E2E2DCE2E2E2E2E2E2E2E2E2E2E2E2E2E2E2E2E2E2E2E2E2E2E2E2E2E2E2E2E2F5E2E2E2E2E2E2E2E2E2E2E2E2E2E2E2E2E2E2E2E2
310
F5F5EFF5E2E2E2E2E2E2E2E2E2E2E2E2E2E2E2E2E2E2E2E2F5E2E2E2E2E2E2E2E2E2E2E2E2E2E2E2E2E2E2E2E2E2E2E2E2E2E2E2E2E2DCE2E2E2E2E2E2E2E2E2E2E2E2E2E2E2E2E2E2E2E2E2E2E2E2E2E2E2E2E2E2E2E2E2E2E2E2E2BEE2E2E2E2E2E2E2E2E2E2E2E2E2E2E2E2E2E2E2E2E2E2E2E2E2E2E2E2E2E2E2E2E2E2
310
E2E2DCE2E2E2E2E2E2E2E2E2E2E2E2E2E2E2E2E2E2E2E2E2E2E2E2E2E2E2E2E2F5E2E2E2E2E2E2E2E2E2E2E2E2E2E2E2E2E2E2E2E2F5F5EFF5E2E2E2E2E2E2E2E2E2E2E2E2E2E2E2E2E2E2E2E2F5E2E2E2E2E2E2E2E2E2E2E2E2E2E2E2E2E2E2E2E2E2E2E2E2E2E2E2E2E2DCE2E2E2E2E2E2E2E2E2E2E2E2E2E2E2E2E2E2E2
310
E2E2E2E2E2E2E2E2E2E2E2E2E2E2E2E2E2E2BEE2E2E2E2E2E2E2E2E2E2E2E2E2E2E2E2E2E2E2E2E2E2E2E2E2E2E2E2E2E2E2E2E2E2E2E2DCE2E2E2E2E2E2E2E2E2E2E2E2E2E2E2E2E2E2E2E2E2E2E2E2E2E2E2E2E2F5E2E2E2E2E2E2E2E2E2E2E2E2E2E2E2E2E2E2E2E2F5F5EFF5E2E2E2E2E2E2E2E2E2E2E2E2E2E2E2E2E2
310
E2E2E2F5E2E2E2E2E2E2E2E2E2E2E2E2E2E2E2E2E2E2E2E2E2E2E2E2E2E2E2E2E2DCE2E2E2E2E2E2E2E2E2E2E2E2E2E2E2E2E2E2E2E2E2E2E2E2E2E2E2E2E2E2E2E2E2E2E2E2E2E2E2E2E2E2E2E2E2E2E2E2E2E2E2E2E2E2E2E2E2E2E2E2E2E2E2E2E2E2E2E2E2E2E2E2E2E2DCE2E2E2E2E2E2E2E2E2E2E2E2E2E2E2E2E2E2
310
E2E2E2E2E2E2E2E2E2E2E2F5E2E2E2E2E2E2E2E2E2E2E2E2E2E2E2E2E2E2E2E2F5F5EFF5E2E2E2E2E2E2E2E2E2E2E2E2E2E2E2E2E2E2E2E2F5E2E2E2E2E2E2E2E2E2E2E2E2E2E2E2E2E2E2E2E2E2E2E2E2E2E2E2E2E2DCE2E2E2E2E2E2E2E2E2E2E2E2E2E2E2E2E2E2E2E2E2E2E2E2E2E2E2E2E2E2E2E2E2E2E2E2E2E2E2E2
310
E2E2E2E2E2E2E2E2E2E2E2E2E2E2E2E2E2E2E2E2E2E2E2E2E2E2E2E2E2E2E2E2E2E2DCE2E2E2E2E2E2E2E2E2E2E2E2E2E2E2E2E2E2E2E2E2E2E2E2E2E2E2E2E2F5E2E2E2E2E2E2E2E2E2E2E2E2E2E2E2E2E2E2E2E2F5F5EFF5E2E2E2F5E2E2E2E2E2E2E2E2E2E2E2E2E2E2E2E2F5E2E2E2E2E2E2E2E2E2E2E2E2E2E2E2E2E2
310
E2E2E2E2E2E2E2E2E2E2E2E2DCE2E2E2E2E2E2E2E2E2E2E2E2E2E2E2E2E2E2E2E2E2E2E2E2E2E2E2E2E2E2E2E2E2E2E2E2E2E2E2E2E2E2E2E2E2E2E2E2E2E2E2E2E2E2E2E2E2E2E2E2E2E2E2E2E2E2E2E2E2E2E2E2E2E2DCE2E2E2E2E2E2E2E2E2E2E2E2E2E2E2E2E2E2E2E2E2E2E2E2E2E2E2E2E2F5E2E2E2E2E2E2E2E2E2
310
E2E2E2E2E2E2E2F5E2E2E2F5F5EFF5E2E2E2F5E2E2E2E2E2E2E2E2E2E2E2E2E2E2E2E2F5E2E2E2E2E2E2E2E2E2E2E2E2E2E2E2E2E2E2E2E2E2E2E2E2E2E2E2E2E2DCE2E2E2E2E2E2E2E2E2E2E2E2E2E2E2E2E2E2E2E2E2E2E2E2E2E2E2E2E2E2E2E2E2E2E2E2E2E2E2E2E2E2E2E2E2E2E2E2E2E2E2E2E2E2E2E2E2E2E2E2E2
310
E2E2E2E2E2E2E2E2E2E2E2E2E2DCE2E2E2E2E2E2E2E2E2E2E2E2E2E2E2E2E2E2E2E2E2E2E2E2E2E2E2E2E2F5E2E2E2E2E2E2E2E2E2E2E2E2E2E2E2E2F5E2E2E2F5F5EFF5E2E2E2F5E2E2E2E2E2E2E2E2E2E2E2E2E2E2E2E2F5E2E2E2E2E2E2E2E2E2E2E2E2E2E2E2E2E2E2E2E2E2E2E2E2E2E2E2E2E2DCE2E2E2E2E2E2E2E2
310
E2E2E2E2E2E2E2E2E2E2E2E2E2E2E2E2E2E2E2E2E2E2E2E2E2E2E2E2E2E2E2E2E2E2E2E2E2E2E2E2E2E2E2E2E2E2E2E2E2E2E2E2E2E2E2E2E2E2E2E2E2E2E2E2E2E2DCE2E2E2E2E2E2E2E2E2E2E2E2E2E2E2E2E2E2E2E2E2E2E2E2E2E2E2E2E2F5E2E2E2E2E2E2E2E2E2E2E2E2E2E2E2E2F5E2E2E2F5F5EFF5E2E2E2F5E2E2
310
E2E2E2E2E2E2E2E2E2E2E2E2E2E2F5E2E2E2E2E2E2E2E2E2E2E2E2E2E2E2E2E2E2E2E2E2E2E2E2E2E2E2E2E2DCE2E2E2E2E2E2E2E2E2E2E2E2E2E2E2E2E2E2E2E2E2E2E2E2E2E2E2E2E2E2E2E2E2E2E2E2E2E2E2E2E2E2E2E2E2E2E2E2E2E2E2E2E2E2E2E2E2E2E2E2E2E2E2E2E2E2E2E2E2E2E2E2E2E2DCE2E2E2E2E2E2E2
310
E2E2E2E2E2E2E2E2E2E2E2E2E2E2E2E2E2E2E2E2E2E2F5E2E2E2E2E2E2E2E2E2E2E2E2E2E2E2E2F5E2E2E2F5F5EFF5E2E2E2F5E2E2E2E2E2E2E2E2E2E2E2E2E2E2E2E2F5E2E2E2E2E2E2E2E2E2E2E2E2E2E2E2E2E2E2E2E2E2E2E2E2E2E2E2E2E2DCE2E2E2E2E2E2E2E2E2E2E2E2E2E2E2E2E2E2E2E2E2E2E2E2E2E2E2E2E2
310
E2E2E2E2E2E2E2E2E2E2E2E2E2E2E2E2E2E2E2E2E2E2E2E2E2E2E2E2E2E2E2E2E2E2E2E2E2E2E2E2E2E2E2E2E2DCE2E2E2E2E2E2E2E2E2E2E2E2E2E2E2E2E2E2E2E2E2E2E2E2E2E2E2E2E2F5E2E2E2E2E2E2E2E2E2E2E2E2E2E2E2E2F5E2E2E2F5F5EFF5E2E2E2F5E2E2E2E2E2E2E2E2E2E2E2E2E2E2E2E2F5E2E2E2E2E2E2
310
E2E2E2E2E2E2E2E2E2E2E2E2E2E2E2E2E2E2E2E2E2E2E2DCE2E2E2E2E2E2E2E2E2E2E2E2E2E2E2E2E2E2E2E2E2E2E2E2E2E2E2E2E2E2E2E2E2E2E2E2E2E2E2E2E2E2E2E2E2E2E2E2E2E2E2E2E2E2E2E2E2E2E2E2E2E2E2E2E2E2E2E2E2E2E2E2E2E2DCE2E2E2E2E2E2E2E2E2E2E2E2E2E2E2E2E2E2E2E2E2E2E2E2E2E2E2E2
310
E2F5E2E2E2E2E2E2E2E2E2E2E2E2E2E2E2E2F5E2E2E2F5F5EFF5E2E2E2F5E2E2E2E2E2E2E2E2E2E2E2E2E2E2E2E2F5E2E2E2E2E2E2E2E2E2E2E2E2E2E2E2E2E2E2E2E2E2E2E2E2E2E2E2E2E2DCE2E2E2E2E2E2E2E2E2E2E2E2E2E2E2E2E2E2E2E2E2E2E2E2E2E2E2E2E2E2E2E2E2E2E2E2E2E2E2E2E2E2E2E2E2E2E2E2E2E2
310
E2E2E2E2E2E2E2E2E2E2E2E2E2E2E2E2E2E2E2E2E2E2E2E2DCE2E2E2E2E2E2E2E2E2E2E2E2E2E2E2E2E2E2E2E2E2E2E2E2E2E2E2E2E2F5E2E2E2E2E2E2E2E2E2E2E2E2E2E2E2E2F5E2E2E2F5F5EFF5E2E2E2F5E2E2E2E2E2E2E2E2E2E2E2E2E2E2E2E2F5E2E2E2E2E2E2E2E2E2E2E2E2E2E2E2E2E2E2E2E2E2E2E2E2E2E2E2
310
E2E2DCE2E2E2E2E2E2E2E2E2E2E2E2E2E2E2E2E2E2E2E2E2E2E2E2E2E2E2E2E2E2E2E2E2E2E2E2E2E2E2E2E2E2E2E2E2E2E2E2E2E2E2E2E2E2E2E2E2E2E2E2E2E2E2E2E2E2E2E2E2E2E2E2E2E2DCE2E2E2E2E2E2E2E2E2E2E2E2E2E2E2E2E2E2E2E2E2E2E2E2E2E2E2E2E2F5E2E2E2E2E2E2E2E2E2E2E2E2E2E2E2E2F5E2E2
310
E2F5F5EFF5E2E2E2F5E2E2E2E2E2E2E2E2E2E2E2E2E2E2E2E2F5E2E2E2E2E2E2E2E2E2E2E2E2E2E2E2E2E2E2E2E2E2E2E2E2E2E2E2E2E2DCE2E2E2E2E2E2E2E2E2E2E2E2E2E2E2E2E2E2E2E2E2E2E2E2E2E2E2E2E2E2E2E2E2E2E2E2E2E2E2E2E2E2E2E2E2E2E2E2E2E2E2E2E2E2E2E2E2E2E2E2E2E2E2E2E2E2E2E2E2E2E2
310
E2E2E2DCE2E2E2E2E2E2E2E2E2E2E2E2E2E2E2E2E2E2E2E2E2E2E2E2E2E2E2E2E2F5E2E2E2E2E2E2E2E2E2E2E2E2E2E2E2E2F5E2E2E2F5F5EFF5E2E2E2F5E2E2E2E2E2E2E2E2E2E2E2E2E2E2E2E2F5E2E2E2E2E2E2E2E2E2E2E2E2E2E2E2E2E2E2E2E2E2E2E2E2E2E2E2E2E2DCE2E2E2E2E2E2E2E2E2E2E2E2E2E2E2E2E2E2
310
E2E2E2E2E2E2E2E2E2E2E2E2E2E2E2E2E2E2E2E2E2E2E2E2E2E2E2E2E2E2E2E2E2E2E2E2E2E2E2E2E2E2E2E2E2E2E2E2E2E2E2E2E2E2E2E2DCE2E2E2E2E2E2E2E2E2E2E2E2E2E2E2E2E2E2E2E2E2E2E2E2E2E2E2E2E2F5E2E2E2E2E2E2E2E2E2E2E2E2E2E2E2E2F5E2E2E2F5F5EFF5E2E2E2F5E2E2E2E2E2E2E2E2E2E2E2E2
310
E2E2E2E2F5E2E2E2E2E2E2E2E2E2E2E2E2E2E2E2E2E2E2E2E2E2E2E2E2E2E2E2E2E2DCE2E2E2E2E2E2E2E2E2E2E2E2E2E2E2E2E2E2E2E2E2E2E2E2E2E2E2E2E2E2E2E2E2E2E2E2E2E2E2E2E2E2E2E2E2E2E2E2E2E2E2E2E2E2E2E2E2E2E2E2E2E2E2E2E2E2E2E2E2E2E2E2E2E2DCE2E2E2E2E2E2E2E2E2E2E2E2E2E2E2E2E2
310
E2E2E2E2E2E2E2E2E2E2E2E2F5E2E2E2E2E2E2E2E2E2E2E2E2E2E2E2E2F5E2E2E2F5F5EFF5E2E2E2F5E2E2E2E2E2E2E2E2E2E2E2E2E2E2E2E2F5E2E2E2E2E2E2E2E2E2E2E2E2E2E2E2E2E2E2E2E2E2E2E2E2E2E2E2E2E2DCE2E2E2E2E2E2E2E2E2E2E2E2E2E2E2E2E2E2E2E2E2E2E2E2E2E2E2E2E2E2E2E2E2E2E2E2E2E2E2
310
E2E2E2E2E2E2E2E2E2E2E2E2E2E2E2E2E2E2E2E2E2E2E2E2E2E2E2E2E2E2E2E2E2E2E2DCE2E2E2E2E2E2E2E2E2E2E2E2E2E2E2E2E2E2E2E2E2E2E2E2E2E2E2E2E2F5E2E2E2E2E2E2E2E2E2E2E2E2E2E2E2E2F5E2E2E2F5F5EFF5E2E2E2F5E2E2E2E2E2E2E2E2E2E2E2E2E2E2E2E2F5E2E2E2E2E2E2E2E2E2E2E2E2E2E2E2E2
310
E2E2E2E2E2E2E2E2E2E2E2E2E2DCE2E2E2E2E2E2E2E2E2E2E2E2E2E2E2E2E2E2E2E2E2E2E2E2E2E2E2E2E2E2E2E2E2E2E2E2E2E2E2E2E2E2E2E2E2E2E2E2E2E2E2E2E2E2E2E2E2E2E2E2E2E2E2E2E2E2E2E2E2E2E2E2E2E2DCE2E2E2E2E2E2E2E2E2E2E2E2E2E2E2E2E2E2E2E2E2E2E2E2E2E2E2E2E2F5E2E2E2E2E2E2E2E2
310
E2E2E2E2E2E2E2E2F5E2E2E2F5F5EFF5E2E2E2F5E2E2E2E2E2E2E2E2E2E2E2E2E2E2E2E2F5E2E2E2E2E2E2E2E2E2E2E2E2E2E2E2E2E2E2E2E2E2E2E2E2E2E2E2E2E2DCE2E2E2E2E2E2E2E2E2E2E2E2E2E2E2E2E2E2E2E2E2E2E2E2E2E2E2E2E2E2E2E2E2E2E2E2E2E2E2E2E2E2E2E2E2E2E2E2E2E2E2E2E2E2E2E2E2E2E2E2
310
E2E2E2E2E2E2E2E2E2E2E2E2E2E2DCE2E2E2E2E2E2E2E2E2E2E2E2E2E2E2E2E2E2E2E2E2E2E2E2E2E2E2E2E2F5E2E2E2E2E2E2E2E2E2E2E2E2E2E2E2E2F5E2E2E2F5F5EFF5E2E2E2F5E2E2E2E2E2E2E2E2E2E2E2E2E2E2E2E2F5E2E2E2E2E2E2E2E2E2E2E2E2E2E2E2E2E2E2E2E2E2E2E2E2E2E2E2E2E2DCE2E2E2E2E2E2E2
310
E2E2E2E22727272727272727272727272727272727272727272727272727272727272727272727272727272727272727272727E2E2E2E2E2E2E2E2E2E2E2E2E2E2E2E2DCE2E2E2E2E2E2E2E2E2E2E2E2E2E2E2E2E2E2E2E2E2E2E2E2E2E2E2E2E2F5E2E2E2E2E2E2E2E2E2E2E2E2E2E2E2E2F5E2E2E2F5F5EFF5E2E2E2F5E2
310
E2E2E2E2E2E2E2E2E2E2E2E2E2E2E2F5E2E2E2E2E2E2E2E2E2E2E2E2E2E2E2E2E2E2E2E2E2E2E2E2E2E2E2E2E2DCE2E2E2E2E2E2E2E2E2E2E2E2E2E2E2E2E2E2E2E2E2E2E2E2E2E2E2E2E2E2E2E2E2E2E2E2E2E2E2E2E2E2E2E2E2E2E2E2E2E2E2E2E2E2E2E2E2E2E2E2E2E2E2E2E2E2E2E2E2E2E2E2E2E2DCE2E2E2E2E2E2
310
E2E2E2E2E2E2E2E2E2E2E2E2E2E2E2E2E2E2E2E2E2E2E2F5E2E2E2E2E2E2E2E2E2E2E2E2E2E2E2E2F5E2E2E2F5F5EFF5E2E2E2F5E2E2E2E2E2E2E2E2E2E2E2E2E2E2E2E2F5E2E2E2E2E2E2E2E2E2E2E2E2E2E2E2E2E2E2E2E2E2E2E2E2E2E2E2E2E2DCE2E2E2E2E2E2E2E2E2E2272727272727272727272727272727E2E2E2
310
E2E2E2E2E2E2E2E2E2E2E2E2E2E2E2E2E2E2E2E2E2E2E2E2E2E2E2E2E2E2E2E2E2E2E2E2E2E2E2E2E2E2E2E2E2E2DCE2E2E2E2E2E2E2E2E2E2E2E2E2E2E2E2E2E2E2E2E2E2E2E2E2E2E2E2E2F5E2E2E2E2E2E2E2E2E2E2E2E2E2E2E2E2F5E2E2E2F5F5EFF5E2E2E2E2E2E2E2E2E2E2E2E2E2E2E2E2E2E2E2E2F5E2E2E2E2E2
310
E2E2E2E2E2E2E2E2E2E2E2E2E2E2E2E2E2E2E2E2E2E2E2E2DCE2E2E2E2E2E2E2E2E2E2272727272727272727272727272727E2E2E2E2E2E2E2E2E2E2E2E2E2E2E2E2E2E2E2E2E2E2E2E2E2E2E2E2E2E2E2E2E2E2E2E2E2E2E2E2E2E2E2E2E2E2E2E2E2DCE2E2E2E2E2E2E2E2E2E2E2E2E2E2E2E2E2E2E2E2E2E2E2E2E2E2E2
310
E2E2F5E2E2E2E2E2E2E2E2E2E2E2E2E2E2E2E2E2E2E2E2F5F5EFF5E2E2E2E2E2E2E2E2E2E2E2E2E2E2E2E2E2E2E2E2F5E2E2E2E2E2E2E2E2E2E2E2E2E2E2E2E2E2E2E2E2E2E2E2E2E2E2E2E2E2DCE2E2E2E2E2E2E2E2E2E2E2E2E2E2E2E2E2E2E2E2E2E2E2E2E2E2E2E2E2E2E2E2E2E2E2E2E2E2E2E2E2E2E2E2E2E2E2E2E2
310
E2E2E2E2E2E2E2E2E2E2E2E2E2E2E2E2E2E2E2E2E2E2E2E2E2DCE2E2E2E2E2E2E2E2E2E2E2E2E2E2E2E2E2E2E2E2E2E2E2E2E2E2E2E2E2F5E2E2E2E2E2E2E2E2E2E2E2E2E2E2E2E2E2E2E2E2F5F5EFF5E2E2E2E2E2E2E2E2E2E2E2E2E2E2E2E2E2E2E2E2F5E2E2E2E2E2E2E2E2E2E2E2E2E2E2E2E2E2E2E2E2E2E2E2E2E2E2
310
E2E2E2DCE2E2E2E2E2E2E2E2E2E2E2E2E2E2E2E2E2E2E2E2E2E2E2E2E2E2E2E2E2E2E2E2E2E2E2E2E2E2E2E2E2E2E2E2E2E2E2E2E2E2E2E2E2E2E2E2E2E2E2E2E2E2E2E2E2E2E2E2E2E2E2E2E2E2DCE2E2E2E2E2E2E2E2E2E2E2E2E2E2E2E2E2E2E2E2E2E2E2E2E2E2E2E2E2F5E2E2E2E2E2E2E2E2E2E2E2E2E2E2E2E2E2E2
310
E2E2F5F5EFF5E2E2E2E2E2E2E2E2E2E2E2E2E2E2E2E2E2E2E2E2F5E2E2E2E2E2E2E2E2E2E2E2E2E2E2E2E2E2E2E2E2E2E2E2E2E2E2E2E2E2DCE2E2E2E2E2E2E2E2E2E2E2E2E2E2E2E2E2E2E2E2E2E2E2E2E2E2E2E2E2E2E2E2E2E2E2E2E2E2E2E2E2E2E2E2E2E2E2E2E2E2E2E2E2E2E2E2E2E2E2E2E2E2E2E2E2E2E2E2E2E2
310
E2E2E2E2DCE2E2E2E2E2E2E2E2E2E2E2E2E2E2E2E2E2E2E2E2E2E2E2E2E2E2E2E2E2F5E2E2E2E2E2E2E2E2E2E2E2E2E2E2E2E2E2E2E2E2F5F5EFF5E2E2E2E2E2E2E2E2E2E2E2E2E2E2E2E2E2E2E2E2F5F5F5F5F5F5F5F5F5F5F5F5F5F5F5F5F5F5F5F5F5F5F5F5F5F5F5F5F5F5F5F5F5F5F5F5F5F5F5F5F5F5F5F5F5F5F5F5
310
F5F5F5F5F5F5F5F5F5F5F5F5F5F5F5F5F5F5F5F5F5F5F5F5F5F5F5F5F5F5F5F5F5F5F5F5F5F5F5F5F5F5F5F5F5F5F5F5F5F5F5F5F5F5F5F5F5F5F5F5F5F5F5F5F5F5F5F5F5F5F5F5F5F5F5F5F5F5F5F5F5F5F5F5F5F5F5F5E2E2E2E2E2E2E2E2E2E2E2E2E2E2E2E2E2E2E2E2F5F5EFF5E2E2E2E2E2E2E2E2E2E2E2E2E2E2E2
310
E2E2E2E2E2E2E2E2E2E2E2E2E2E2E2E2E2E2E2E2E2E2E2E2E2E2E2E2E2E2E2E2E2E2E2E2E2E2E2E2E2E2E2E2E2E2E2E2E2E2E2E2E2E2E2E2E2E2E2E2E2E2E2E2E2E2E2E2E2E2E2E2E2E2E2E2E2E2E2E2E2E2E2E2E2E2E2E2E2E2E2E2E2E2E2E2E2E2E2E2E2E2E2E2E2E2E2E2E2E2E2E2E2E2E2E2E2E2E2E2E2E2E2E2E2E2E2
310
E2E2E2E2E2E2E2E2E2E2E2E2E2E2E2E2E2E2E2E2E2E2E2E2E2E2E2E2E2E2E2E2E2E2F5F5EFF5E2E2E2E2E2E2E2E2E2E2E2E2E2E2E2E2E2E2E2E2E2E2E2E2E2E2E2E2E2E2E2E2E2E2E2E2E2E2E2E2E2E2E2E2E2E2E2E2E2E2E2E2E2E2E2E2E2E2E2E2E2E2E2E2E2E2E2E2E2E2E2E2E2E2E2E2E2E2E2E2E2E2E2E2E2E2E2E2E2
310
E2E2E2E2E2E2E2E2E2E2E2E2E2E2E2E2E2E2E2E2E2E2E2E2E2E2E2E2E2E2E2E2E2E2E2E2E2E2E2E2E2E2E2E2E2E2E2E2E2E2E2E2E2E2E2E2E2E2E2E2E2E2E2E2E2E2E2E2E2E2E2E2E2E2E2E2E2E2E2E2E2E2E2E2E2E2E2F5F5EFF5E2E2E2E2E2E2E2E2E2E2E2E2E2E2E2E2E2E2E2E2E2E2E2E2E2E2E2E2E2E2E2E2E2E2E2E2
310
E2E2E2E2E2E2E2E2E2E2E2E2E2E2E2E2E2E2E2E2E2E2E2E2E2E2E2E2E2E2E2E2E2E2E2E2E2E2E2E2E2E2E2E2E2E2E2E2E2E2E2E2E2E2E2E2E2E2E2E2E2E2E2E2E2E2E2E2E2E2E2E2E2E2E2E2E2E2E2E2E2E2E2E2E2E2E2E2E2E2E2E2E2E2E2E2E2E2E2E2E2E2E2E2E2E2E2E2E2E2E2E2E2E2E2E2E2E2E2E2E2E2E2E2E2E2E2
310
E2E2E2E2E2E2E2E2E2E2E2E2E2F5F5EFF5E2E2E2E2E2E2E2E2E2E2E2E2E2E2E2E2E2E2E2E2E2E2E2E2E2E2E2E2E2E2E2E2E2E2E2E2E2E2E2E2E2E2E2E2E2E2E2E2E2E2E2E2E2E2E2E2E2E2E2E2E2E2E2E2E2E2E2E2E2E2E2E2E2E2E2E2E2E2E2E2E2E2E2E2E2E2E2E2E2E2E2E2E2E2E2E2E2E2E2E2E2E2E2E2E2E2E2E2E2E2
310
E2E2E2E2E2E2E2E2E2E2E2E2E2E2E2E2E2E2E2E2E2E2E2E2E2E2E2E2E2E2E2E2E2E2E2E2E2E2E2E2E2E2E2E2E2E2E2E2E2E2E2E2E2E2E2E2E2E2E2E2E2E2E2E2E2E2F5F5EFF5E2E2E2F5E2E2E2E2E2E2E2E2E2E2E2E2E2E2E2E2E2E2E2E2E2E2E2E2E2E2E2E2E2E2E2E2E2E2E2E2E2E2E2E2E2E2E2E2E2E2E2E2E2E2E2E2E2
310
E2E2E2E2E2E2E2E2E2E2E2E2E2E2E2E2E2E2E2E2E2E2E2E2E2E2E2E2E2E2E2E2E2E2E2E2E2E2E2E2E2E2E2E2E2E2E2E2E2E2E2E2E2E2E2E2E2E2E2E2E2E2E2E2E2E2E2E2E2E2E2E2E2E2E2E2E2E2E2E2E2E2E2E2E2E2E2E2E2E2E2E2E2E2E2E2E2E2E2E2E2E2E2E2E2E2E2E2E2E2E2E2E2E2E2F5E2E2E2F5F5EFF5E2E2E2F5
310
E2E2E2E2E2E2E2E2E2E2E2E2E2E2E2E2E2E2E2E2E2E2E2E2E2E2E2E2E2E2E2E2E2E2E2E2E2E2E2E2E2E2E2E2E2E2E2E2E2E2E2E2E2E2E2E2E2E2E2E2E2E2E2E2E2E2E2E2E2E2E2E2E2E2E2E2E2E2E2E2E2E2E2E2E2E2E2E2E2E2E2E2E2E2E2E2E2E2E2E2E2E2E2E2E2E2E2E2E2E2E2E2E2E2E2E2E2E2E2E2E2E2E2E2E2E2E2
310
E2E2E2E2E2E2E2E2E2E2E2E2E2E2E2E2E2E2E2E2E2E2E2E2E2E2E2E2E2E2E2E2E2E2E2E2E2E2E2E2E2F5E2E2E2F5F5EFF5E2E2E2F5E2E2E2E2E2E2E2E2E2E2E2E2E2E2E2E2E2E2E2E2E2E2E2E2E2E2E2E2E2E2E2E2E2E2E2E2E2E2E2E2E2E2E2E2E2E2E2E2E2E2E2E2E2E2E2E2E2E2E2E2E2E2E2E2E2E2E2E2E2E2E2E2E2E2
310
E2E2E2E2E2E2E2E2E2E2E2E2E2E2E2E2E2E2E2E2E2E2E2E2E2E2E2E2E2E2E2E2E2E2E2E2E2E2E2E2E2E2E2E2E2E2E2E2E2E2E2E2E2E2E2E2E2E2E2E2E2E2E2E2E2E2E2E2E2E2E2E2E2E2E2E2E2E2E2E2E2E2E2E2E2E2E2E2E2E2E2E2E2E2F5E2E2E2F5F5EFF5E2E2E2F5E2E2E2E2E2E2E2E2E2E2E2E2E2E2E2E2E2E2E2E2E2
310
E2E2E2E2E2E2E2E2E2E2E2E2E2E2E2E2E2E2E2E2E2E2E2E2E2E2E2E2E2E2E2E2E2E2E2E2E2E2E2E2E2E2E2E2E2E2E2E2E2E2E2E2E2E2E2E2E2E2E2E2E2E2E2E2E2E2E2E2E2E2E2E2E2E2E2E2E2E2E2E2E2E2E2E2E2E2E2E2E2E2E2E2E2E2E2E2E2E2E2E2E2E2E2E2E2E2E2E2E2E2E2E2E2E2E2E2E2E2E2E2E2E2E2E2E2E2E2
310
E2E2E2E2E2E2E2E2E2E2E2E2E2E2E2E2E2E2E2E2F5E2E2E2F5F5EFF5E2E2E2F5E2E2E2E2E2E2E2E2E2E2E2E2E2E2E2E2E2E2E2E2E2E2E2E2E2E2E2E2E2E2E2E2E2E2E2E2E2E2E2E2E2E2E2E2E2E2E2E2E2E2E2E2E2E2E2E2E2E2E2E2E2E2E2E2E2E2E2E2E2E2E2E2E2E2E2E2E2E2E2E2E2E2E2E2E2E2E2E2E2E2E2E2E2E2E2
310
E2E2E2E2E2E2E2E2E2E2E2E2E2E2E2E2E2E2E2E2E2E2E2E2E2E2E2E2E2E2E2E2E2E2E2E2E2E2E2E2E2E2E2E2E2E2E2E2E2E2E2E2E2E2E2E2E2E2E2E2E2E2E2E2E2E2E2E2E2E2E2E2E2F5E2E2E2F5F5EFF5E2E2E2F5E2E2E2E2E2E2E2E2E2E2E2E2E2E2E2E2E2E2E2E2E2E2E2E2E2E2E2E2E2E2E2E2E2E2E2E2E2E2E2E2E2E2
310
E2E2E2E2E2E2E2E2E2E2E2E2E2E2E2E2E2E2E2E2E2E2E2E2E2E2E2E2E2E2E2E2E2E2E2E2E2E2E2E2E2E2E2E2E2E2E2E2E2E2E2E2E2E2E2E2E2E2E2E2E2E2E2E2E2E2E2E2E2E2E2E2E2E2E2E2E2E2E2E2E2E2E2E2E2E2E2E2E2E2E2E2E2E2E2E2E2E2E2E2E2E2E2E2E2E2E2E2E2E2E2E2E2E2E2E2E2E2E2E2E2E2E2E2E2E2F5
310
E2E2E2F5F5EFF5E2E2E2F5E2E2E2E2E2E2E2E2E2E2E2E2E2E2E2E2E2E2E2E2E2E2E2E2E2E2E2E2E2E2E2E2E2E2E2E2E2E2E2E2E2E2E2E2E2E2E2E2E2E2E2E2E2E2E2E2E2E2E2E2E2E2E2E2E2E2E2E2E2E2E2E2E2E2E2E2E2E2E2E2E2E2E2E2E2E2E2E2E2E2E2E2E2E2E2E2E2E2E2E2E2E2E2E2E2E2E2E2E2E2E2E2E2E2E2E2
310
E2E2E2E2E2E2E2E2E2E2E2E2E2E2E2E2E2E2E2E2E2E2E2E2E2E2E2E2E2E2E2E2E2E2E2E2E2E2E2E2E2E2E2E2E2E2E2E2E2E2E2E2F5E2E2E2F5F5EFF5E2E2E2F5E2E2E2E2E2E2E2E2E2E2E2E2E2E2E2E2E2E2E2E2E2E2E2E2E2E2E2E2E2E2E2E2E2E2E2E2E2E2E2E2E2E2E2E2E2E2E2E2E2E2E2E2E2E2E2E2E2E2E2E2E2E2E2
310
E2E2E2E2E2E2E2E2E2E2E2E2E2E2E2E2E2E2E2E2E2E2E2E2E2E2E2E2E2E2E2E2E2E2E2E2E2E2E2E2E2E2E2E2E2E2E2E2E2E2E2E2E2E2E2E2E2E2E2E2E2E2E2E2E2E2E2E2E2E2E2E2E2E2E2E2E2E2E2E2E2E2E2E2E2E2E2E2E2E2E2E2E2E2E2E2E2E2E2E2E2E2E2E2E2F5E2E2E2F5F5EFF5E2E2E2F5F5F5F5F5F5F5F5E2E2E2
310
E2E2E2E2E2E2F5F5F5F5F5F5F5F5F5F5F5F5F5F5F5E2E2E2E2E2E2E2E2E2F5F5F5F5F5F5F5F5F5F5F5F5F5F5F5F5E2E2E2E2E2E2E2E2F5F5F5F5F5F5F5F5F5F5F5F5F5F5F5F5E2E2E2E2E2E2E2E2F5F5F5F5F5F5F5F5F5F5F5F5F5F5F5F5E2E2E2E2E2E2E2E2F5F5F5F5F5F5F5F5F5F5F5F5F5F5F5F5E2E2E2E2E2E2E2E2E2
310
F5F5F5F5F5F5F5F5F5F5F5F5F5F5F5E2E2E2E2E2E2E2E2E2F5F5F5F5F5F5F5F5E2E2E2F5F5EFF5E2E2E2E2E2E2E2E2E2E2E2E2E2E2E2E2E2E2E2E2E2E2E2E2E2E2E2E2E2E2E2E2E2E2E2E2E2E2E2E2E2E2E2E2E2E2E2E2E2E2E2E2E2E2E2E2E2E2E2E2E2E2E2E2E2E2E2E2E2E2E2E2E2E2E2E2E2E2E2E2E2E2E2E2E2E2E2E2
310
E2E2E2E2E2E2E2E2E2E2E2E2E2E2E2E2E2E2E2E2E2E2E2E2E2E2E2E2E2E2E2E2E2E2E2E2E2E2E2E2E2E2E2E2E2E2E2E2E2E2E2E2E2E2E2E2E2E2E2E2E2E2E2E2E2E2E2E2E2E2E2E2E2E2E2E2E2E2E2E2E2E2E2E2E2E2E2E2F5F5EFF5E2E2E2E2E2E2E2E2E2E2E2E2E2E2E2E2E2E2E2E2E2E2E2E2E2E2E2E2E2E2E2E2E2E2E2
310
E2E2E2E2E2E2E2E2E2E2E2E2E2E2E2E2E2E2E2E2E2E2E2E2E2E2E2E2E2E2E2E2E2E2E2E2E2E2E2E2E2E2E2E2E2E2E2E2E2E2E2E2E2E2E2E2E2E2E2E2E2E2E2E2E2E2E2E2E2E2E2E2E2E2E2E2E2E2E2E2E2E2E2E2E2E2E2E2E2E2E2E2E2E2E2E2E2E2E2E2E2E2E2E2E2E2E2E2E2E2E2E2E2E2E2E2E2E2E2E2E2E2E2E2E2E2E2
310
E2E2E2E2E2E2E2E2E2E2E2E2E2E2F5EFEFF5E2E2E2E2E2E2E2E2E2E2E2E2E2E2E2E2E2E2E2E2E2E2E2E2E2E2E2E2E2E2E2E2E2E2E2E2E2E2E2E2E2E2E2E2E2E2E2E2E2E2E2E2E2E2E2E2E2E2E2E2E2E2E2E2E2E2E2E2E2E2E2E2E2E2E2E2E2E2E2E2E2E2E2E2E2E2E2E2E2E2E2E2E2E2E2E2E2E2E2E2E2E2E2E2E2E2E2E2E2
310
E2E2E2E2E2E2E2E2E2E2E2E2E2E2E2E2E2E2E2E2E2E2E2E2E2E2E2E2E2E2E2E2E2E2E2E2E2E2E2E2E2E2E2E2E2E2E2E2E2E2E2E2E2E2E2E2E2E2E2E2E2E2E2E2E2E2E2F5EFEFF5F5F5F5F5F5F5F5F5F5F5F5F5F5F5F5F5F5F5F5F5F5F5F5F5F5F5F5F5F5F5F5F5F5F5F5F5F5F5F5F5F5F5F5F5F5F5F5F5F5F5F5F5F5F5F5F5
310
F5F5F5F5F5F5F5F5F5F5F5F5F5F5F5F5F5F5F5F5F5F5F5F5F5F5F5F5F5F5F5F5F5F5F5F5F5F5F5F5F5F5F5F5F5F5F5F5F5F5F5F5F5F5F5F5F5F5F5F5F5F5F5F5F5F5F5F5F5F5F5F5F5F5F5F5F5F5F5F5F5F5F5F5F5F5F5F5F5F5F5F5F5F5F5F5F5F5F5F5F5F5F5F5F5F5F5F5F5F5F5F5F5F5F5F5F5F5F5F5F5EFEF
  0
XRECORD
  5
325
102
{ACAD_REACTORS
330
324
102
}
330
324
100
AcDbXrecord
280
     1
102
SHADEPLOT
 70
     1
102
SHADEPLOTRESLEVEL
 70
     2
102
SHADEPLOTCUSTOMDPI
 70
   300
  0
XRECORD
  5
32A
102
{ACAD_REACTORS
330
329
102
}
330
329
100
AcDbXrecord
280
     1
102
MATERIAL
148
0.0
149
0.0
149
0.0
 93
        0
 94
       63
282
     0
 72
     1
 77
     1
171
     1
175
     1
179
     1
273
     0
  0
XRECORD
  5
328
102
{ACAD_REACTORS
330
327
102
}
330
327
100
AcDbXrecord
280
     1
102
MATERIAL
148
0.0
149
0.0
149
0.0
 93
        0
 94
       63
282
     0
 72
     1
 77
     1
171
     1
175
     1
179
     1
273
     0
  0
XRECORD
  5
31F
102
{ACAD_REACTORS
330
31E
102
}
330
31E
100
AcDbXrecord
280
     1
102
MATERIAL
148
0.0
149
0.0
149
0.0
 93
        0
 94
       63
282
     0
 72
     1
 77
     1
171
     1
175
     1
179
     1
273
     0
  0
CELLSTYLEMAP
  5
31B
102
{ACAD_REACTORS
330
29B
102
}
330
29B
100
AcDbCellStyleMap
 90
        3
300
CELLSTYLE
  1
TABLEFORMAT_BEGIN
 90
        5
170
     1
 91
        0
 92
    32768
 62
   257
 93
        1
300
CONTENTFORMAT
  1
CONTENTFORMAT_BEGIN
 90
        0
 91
        0
 92
        4
 93
        0
300

 40
0.0
140
1.0
 94
        5
 62
     0
340
279
144
0.25
309
CONTENTFORMAT_END
171
     0
 94
        6
 95
        1
302
GRIDFORMAT
  1
GRIDFORMAT_BEGIN
 90
        0
 91
        1
 62
     0
 92
       -2
340
0
 93
        0
 40
0.045
309
GRIDFORMAT_END
 95
        2
302
GRIDFORMAT
  1
GRIDFORMAT_BEGIN
 90
        0
 91
        1
 62
     0
 92
       -2
340
0
 93
        0
 40
0.045
309
GRIDFORMAT_END
 95
        4
302
GRIDFORMAT
  1
GRIDFORMAT_BEGIN
 90
        0
 91
        1
 62
     0
 92
       -2
340
0
 93
        0
 40
0.045
309
GRIDFORMAT_END
 95
        8
302
GRIDFORMAT
  1
GRIDFORMAT_BEGIN
 90
        0
 91
        1
 62
     0
 92
       -2
340
0
 93
        0
 40
0.045
309
GRIDFORMAT_END
 95
       16
302
GRIDFORMAT
  1
GRIDFORMAT_BEGIN
 90
        0
 91
        1
 62
     0
 92
       -2
340
0
 93
        0
 40
0.045
309
GRIDFORMAT_END
 95
       32
302
GRIDFORMAT
  1
GRIDFORMAT_BEGIN
 90
        0
 91
        1
 62
     0
 92
       -2
340
0
 93
        0
 40
0.045
309
GRIDFORMAT_END
309
TABLEFORMAT_END
  1
CELLSTYLE_BEGIN
 90
        1
 91
        1
300
_TITLE
309
CELLSTYLE_END
300
CELLSTYLE
  1
TABLEFORMAT_BEGIN
 90
        5
170
     1
 91
        0
 92
        0
 62
   257
 93
        1
300
CONTENTFORMAT
  1
CONTENTFORMAT_BEGIN
 90
        0
 91
        0
 92
        4
 93
        0
300

 40
0.0
140
1.0
 94
        5
 62
     0
340
279
144
0.18
309
CONTENTFORMAT_END
171
     0
 94
        6
 95
        1
302
GRIDFORMAT
  1
GRIDFORMAT_BEGIN
 90
        0
 91
        1
 62
     0
 92
       -2
340
0
 93
        0
 40
0.045
309
GRIDFORMAT_END
 95
        2
302
GRIDFORMAT
  1
GRIDFORMAT_BEGIN
 90
        0
 91
        1
 62
     0
 92
       -2
340
0
 93
        0
 40
0.045
309
GRIDFORMAT_END
 95
        4
302
GRIDFORMAT
  1
GRIDFORMAT_BEGIN
 90
        0
 91
        1
 62
     0
 92
       -2
340
0
 93
        0
 40
0.045
309
GRIDFORMAT_END
 95
        8
302
GRIDFORMAT
  1
GRIDFORMAT_BEGIN
 90
        0
 91
        1
 62
     0
 92
       -2
340
0
 93
        0
 40
0.045
309
GRIDFORMAT_END
 95
       16
302
GRIDFORMAT
  1
GRIDFORMAT_BEGIN
 90
        0
 91
        1
 62
     0
 92
       -2
340
0
 93
        0
 40
0.045
309
GRIDFORMAT_END
 95
       32
302
GRIDFORMAT
  1
GRIDFORMAT_BEGIN
 90
        0
 91
        1
 62
     0
 92
       -2
340
0
 93
        0
 40
0.045
309
GRIDFORMAT_END
309
TABLEFORMAT_END
  1
CELLSTYLE_BEGIN
 90
        2
 91
        1
300
_HEADER
309
CELLSTYLE_END
300
CELLSTYLE
  1
TABLEFORMAT_BEGIN
 90
        5
170
     1
 91
        0
 92
        0
 62
   257
 93
        1
300
CONTENTFORMAT
  1
CONTENTFORMAT_BEGIN
 90
        0
 91
        0
 92
        4
 93
        0
300

 40
0.0
140
1.0
 94
        2
 62
     0
340
279
144
0.18
309
CONTENTFORMAT_END
171
     0
 94
        6
 95
        1
302
GRIDFORMAT
  1
GRIDFORMAT_BEGIN
 90
        0
 91
        1
 62
     0
 92
       -2
340
0
 93
        0
 40
0.045
309
GRIDFORMAT_END
 95
        2
302
GRIDFORMAT
  1
GRIDFORMAT_BEGIN
 90
        0
 91
        1
 62
     0
 92
       -2
340
0
 93
        0
 40
0.045
309
GRIDFORMAT_END
 95
        4
302
GRIDFORMAT
  1
GRIDFORMAT_BEGIN
 90
        0
 91
        1
 62
     0
 92
       -2
340
0
 93
        0
 40
0.045
309
GRIDFORMAT_END
 95
        8
302
GRIDFORMAT
  1
GRIDFORMAT_BEGIN
 90
        0
 91
        1
 62
     0
 92
       -2
340
0
 93
        0
 40
0.045
309
GRIDFORMAT_END
 95
       16
302
GRIDFORMAT
  1
GRIDFORMAT_BEGIN
 90
        0
 91
        1
 62
     0
 92
       -2
340
0
 93
        0
 40
0.045
309
GRIDFORMAT_END
 95
       32
302
GRIDFORMAT
  1
GRIDFORMAT_BEGIN
 90
        0
 91
        1
 62
     0
 92
       -2
340
0
 93
        0
 40
0.045
309
GRIDFORMAT_END
309
TABLEFORMAT_END
  1
CELLSTYLE_BEGIN
 90
        3
 91
        2
300
_DATA
309
CELLSTYLE_END
  0
XRECORD
  5
32B
102
{ACAD_REACTORS
330
29B
102
}
330
29B
100
AcDbXrecord
280
     1
102
ACAD_ROUNDTRIP_PRE2007_TABLESTYLE
 90
        4
 91
        0
  1

 92
        4
 93
        0
  2

 94
        4
 95
        0
  3

  0
ENDSEC
  0
EOF
