  0
SECTION
  2
HEADER
  9
$ACADVER
  1
AC1015
  9
$ACADMAINTVER
 70
    20
  9
$DWGCODEPAGE
  3
ANSI_1250
  9
$INSBASE
 10
0.0
 20
0.0
 30
0.0
  9
$EXTMIN
 10
-1883.445860845353
 20
-27525.64630443917
 30
-0.0014342167670094
  9
$EXTMAX
 10
8317.176697749152
 20
-13503.72281700754
 30
47.00143443560392
  9
$LIMMIN
 10
0.0
 20
0.0
  9
$LIMMAX
 10
12.0
 20
9.0
  9
$ORTHOMODE
 70
     0
  9
$REGENMODE
 70
     1
  9
$FILLMODE
 70
     1
  9
$QTEXTMODE
 70
     0
  9
$MIRRTEXT
 70
     0
  9
$LTSCALE
 40
75.0
  9
$ATTMODE
 70
     1
  9
$TEXTSIZE
 40
5.0
  9
$TRACEWID
 40
40.0
  9
$TEXTSTYLE
  7
ROMANS
  9
$CLAYER
  8
0Wymiary-PL
  9
$CELTYPE
  6
BYLAYER
  9
$CECOLOR
 62
   256
  9
$CELTSCALE
 40
4.0
  9
$DISPSILH
 70
     0
  9
$DIMSCALE
 40
1.0
  9
$DIMASZ
 40
15.0
  9
$DIMEXO
 40
43.0
  9
$DIMDLI
 40
24.0
  9
$DIMRND
 40
0.5
  9
$DIMDLE
 40
12.0
  9
$DIMEXE
 40
13.0
  9
$DIMTP
 40
0.0
  9
$DIMTM
 40
0.0
  9
$DIMTXT
 40
30.0
  9
$DIMCEN
 40
0.0
  9
$DIMTSZ
 40
0.0
  9
$DIMTOL
 70
     0
  9
$DIMLIM
 70
     0
  9
$DIMTIH
 70
     0
  9
$DIMTOH
 70
     0
  9
$DIMSE1
 70
     1
  9
$DIMSE2
 70
     1
  9
$DIMTAD
 70
     1
  9
$DIMZIN
 70
     8
  9
$DIMBLK
  1
B-DIM_K
  9
$DIMASO
 70
     1
  9
$DIMSHO
 70
     1
  9
$DIMPOST
  1

  9
$DIMAPOST
  1

  9
$DIMALT
 70
     0
  9
$DIMALTD
 70
     2
  9
$DIMALTF
 40
25.4
  9
$DIMLFAC
 40
1.0
  9
$DIMTOFL
 70
     1
  9
$DIMTVP
 40
1.0
  9
$DIMTIX
 70
     1
  9
$DIMSOXD
 70
     0
  9
$DIMSAH
 70
     0
  9
$DIMBLK1
  1

  9
$DIMBLK2
  1

  9
$DIMSTYLE
  2
100-PR
  9
$DIMCLRD
 70
     7
  9
$DIMCLRE
 70
     1
  9
$DIMCLRT
 70
   140
  9
$DIMTFAC
 40
1.0
  9
$DIMGAP
 40
12.0
  9
$DIMJUST
 70
     0
  9
$DIMSD1
 70
     0
  9
$DIMSD2
 70
     0
  9
$DIMTOLJ
 70
     1
  9
$DIMTZIN
 70
     0
  9
$DIMALTZ
 70
     0
  9
$DIMALTTZ
 70
     0
  9
$DIMUPT
 70
     0
  9
$DIMDEC
 70
     1
  9
$DIMTDEC
 70
     1
  9
$DIMALTU
 70
     2
  9
$DIMALTTD
 70
     2
  9
$DIMTXSTY
  7
ROMANS
  9
$DIMAUNIT
 70
     0
  9
$DIMADEC
 70
     0
  9
$DIMALTRND
 40
0.0
  9
$DIMAZIN
 70
     0
  9
$DIMDSEP
 70
    46
  9
$DIMATFIT
 70
     3
  9
$DIMFRAC
 70
     0
  9
$DIMLDRBLK
  1
Dot
  9
$DIMLUNIT
 70
     2
  9
$DIMLWD
 70
     5
  9
$DIMLWE
 70
    -2
  9
$DIMTMOVE
 70
     2
  9
$LUNITS
 70
     2
  9
$LUPREC
 70
     2
  9
$SKETCHINC
 40
0.1
  9
$FILLETRAD
 40
0.0
  9
$AUNITS
 70
     0
  9
$AUPREC
 70
     1
  9
$MENU
  1
acad
  9
$ELEVATION
 40
0.0
  9
$PELEVATION
 40
0.0
  9
$THICKNESS
 40
0.0
  9
$LIMCHECK
 70
     0
  9
$CHAMFERA
 40
30.0
  9
$CHAMFERB
 40
30.0
  9
$CHAMFERC
 40
0.0
  9
$CHAMFERD
 40
0.0
  9
$SKPOLY
 70
     0
  9
$TDCREATE
 40
2450817.525937848
  9
$TDUCREATE
 40
2450817.442604514
  9
$TDUPDATE
 40
2455029.649480070
  9
$TDUUPDATE
 40
2455029.566146736
  9
$TDINDWG
 40
21.0433299537
  9
$TDUSRTIMER
 40
21.0433299537
  9
$USRTIMER
 70
     1
  9
$ANGBASE
 50
0.0
  9
$ANGDIR
 70
     0
  9
$PDMODE
 70
     3
  9
$PDSIZE
 40
10.0
  9
$PLINEWID
 40
0.0
  9
$SPLFRAME
 70
     0
  9
$SPLINETYPE
 70
     6
  9
$SPLINESEGS
 70
     8
  9
$HANDSEED
  5
3CA
  9
$SURFTAB1
 70
     6
  9
$SURFTAB2
 70
     6
  9
$SURFTYPE
 70
     6
  9
$SURFU
 70
     6
  9
$SURFV
 70
     6
  9
$UCSBASE
  2

  9
$UCSNAME
  2

  9
$UCSORG
 10
0.0
 20
0.0
 30
0.0
  9
$UCSXDIR
 10
1.0
 20
0.0
 30
0.0
  9
$UCSYDIR
 10
0.0
 20
1.0
 30
0.0
  9
$UCSORTHOREF
  2

  9
$UCSORTHOVIEW
 70
     0
  9
$UCSORGTOP
 10
0.0
 20
0.0
 30
0.0
  9
$UCSORGBOTTOM
 10
0.0
 20
0.0
 30
0.0
  9
$UCSORGLEFT
 10
0.0
 20
0.0
 30
0.0
  9
$UCSORGRIGHT
 10
0.0
 20
0.0
 30
0.0
  9
$UCSORGFRONT
 10
0.0
 20
0.0
 30
0.0
  9
$UCSORGBACK
 10
0.0
 20
0.0
 30
0.0
  9
$PUCSBASE
  2

  9
$PUCSNAME
  2

  9
$PUCSORG
 10
0.0
 20
0.0
 30
0.0
  9
$PUCSXDIR
 10
1.0
 20
0.0
 30
0.0
  9
$PUCSYDIR
 10
0.0
 20
1.0
 30
0.0
  9
$PUCSORTHOREF
  2

  9
$PUCSORTHOVIEW
 70
     0
  9
$PUCSORGTOP
 10
0.0
 20
0.0
 30
0.0
  9
$PUCSORGBOTTOM
 10
0.0
 20
0.0
 30
0.0
  9
$PUCSORGLEFT
 10
0.0
 20
0.0
 30
0.0
  9
$PUCSORGRIGHT
 10
0.0
 20
0.0
 30
0.0
  9
$PUCSORGFRONT
 10
0.0
 20
0.0
 30
0.0
  9
$PUCSORGBACK
 10
0.0
 20
0.0
 30
0.0
  9
$USERI1
 70
     0
  9
$USERI2
 70
     0
  9
$USERI3
 70
     0
  9
$USERI4
 70
     0
  9
$USERI5
 70
     0
  9
$USERR1
 40
0.0
  9
$USERR2
 40
0.0
  9
$USERR3
 40
0.0
  9
$USERR4
 40
0.0
  9
$USERR5
 40
0.0
  9
$WORLDVIEW
 70
     1
  9
$SHADEDGE
 70
     3
  9
$SHADEDIF
 70
    70
  9
$TILEMODE
 70
     1
  9
$MAXACTVP
 70
    16
  9
$PINSBASE
 10
5931.669543547489
 20
-50.0
 30
10705.17123084718
  9
$PLIMCHECK
 70
     0
  9
$PEXTMIN
 10
-0.7963446452747008
 20
-0.8075380466295882
 30
-0.0015258207003583
  9
$PEXTMAX
 10
209.2128431109218
 20
296.2154446811023
 30
0.0000000349246037
  9
$PLIMMIN
 10
-6.805083274841308
 20
-5.027085781097412
  9
$PLIMMAX
 10
203.1682443618775
 20
291.9412369728089
  9
$UNITMODE
 70
     0
  9
$VISRETAIN
 70
     0
  9
$PLINEGEN
 70
     0
  9
$PSLTSCALE
 70
     0
  9
$TREEDEPTH
 70
  3020
  9
$CMLSTYLE
  2
STANDARD
  9
$CMLJUST
 70
     0
  9
$CMLSCALE
 40
1.0
  9
$PROXYGRAPHICS
 70
     1
  9
$MEASUREMENT
 70
     0
  9
$CELWEIGHT
370
    -1
  9
$ENDCAPS
280
     0
  9
$JOINSTYLE
280
     0
  9
$LWDISPLAY
290
     0
  9
$INSUNITS
 70
     0
  9
$HYPERLINKBASE
  1

  9
$STYLESHEET
  1
monochrome_140.ctb
  9
$XEDIT
290
     1
  9
$CEPSNTYPE
380
     0
  9
$PSTYLEMODE
290
     1
  9
$FINGERPRINTGUID
  2
{5ED2BE12-2627-4286-9B55-5E86BF1A8FB1}
  9
$VERSIONGUID
  2
{BC09C28A-3CBE-4C9C-B4DD-549AF9F09697}
  9
$EXTNAMES
290
     1
  9
$PSVPSCALE
 40
0.0
  9
$OLESTARTUP
290
     0
  0
ENDSEC
  0
SECTION
  2
CLASSES
  0
CLASS
  1
DICTIONARYVAR
  2
AcDbDictionaryVar
  3
ObjectDBX Classes
 90
        0
280
     0
281
     0
  0
CLASS
  1
ACDBDICTIONARYWDFLT
  2
AcDbDictionaryWithDefault
  3
ObjectDBX Classes
 90
        0
280
     0
281
     0
  0
CLASS
  1
ACDBPLACEHOLDER
  2
AcDbPlaceHolder
  3
ObjectDBX Classes
 90
        0
280
     0
281
     0
  0
CLASS
  1
LAYOUT
  2
AcDbLayout
  3
ObjectDBX Classes
 90
        0
280
     0
281
     0
  0
CLASS
  1
AEC_VARS_DWG_SETUP
  2
AecDbVarsDwgSetup
  3
AecBase50|Product Desc: Autodesk Architectural Desktop 2007 |Company: Autodesk,Inc. |WEB Address: www.autodesk.com
 90
    32897
280
     0
281
     0
  0
CLASS
  1
AEC_DISP_REP_CONFIG
  2
AecDbDispRepConfig
  3
AecBase50|Product Desc: Autodesk Architectural Desktop 2007 |Company: Autodesk,Inc. |WEB Address: www.autodesk.com
 90
    32897
280
     0
281
     0
  0
CLASS
  1
AEC_DISP_REP_SET
  2
AecDbDispRepSet
  3
AecBase50|Product Desc: Autodesk Architectural Desktop 2007 |Company: Autodesk,Inc. |WEB Address: www.autodesk.com
 90
    32897
280
     0
281
     0
  0
CLASS
  1
AEC_DISP_REP_2D_SECTION
  2
AecDbDispRep2dSection
  3
AecBase50|Product Desc: Autodesk Architectural Desktop 2007 |Company: Autodesk,Inc. |WEB Address: www.autodesk.com
 90
    32897
280
     0
281
     0
  0
CLASS
  1
AEC_DISP_REP_ANCHOR_BUB_TO_GRID
  2
AecDbDispRepAnchorBubToGrid
  3
AecStructureBase50|Product Desc: Autodesk Architectural Desktop 2007 |Company: Autodesk,Inc. |WEB Address: www.autodesk.com
 90
    32897
280
     0
281
     0
  0
CLASS
  1
AEC_DISP_REP_ANCHOR_BUB_TO_GRID_MODEL
  2
AecDbDispRepAnchorBubToGridMdl
  3
AecStructureBase50|Product Desc: Autodesk Architectural Desktop 2007 |Company: Autodesk,Inc. |WEB Address: www.autodesk.com
 90
    32897
280
     0
281
     0
  0
CLASS
  1
AEC_DISP_REP_ANCHOR_ENT_TO_NODE
  2
AecDbDispRepAnchorEntToNode
  3
AecBaseEx50|Product Desc: Autodesk Architectural Desktop 2007 |Company: Autodesk,Inc. |WEB Address: www.autodesk.com
 90
    32897
280
     0
281
     0
  0
CLASS
  1
AEC_DISP_REP_ANCHOR_TAG_TO_ENT
  2
AecDbDispRepAnchorTagToEnt
  3
AecScheduleData50|Product Desc: Autodesk Architectural Desktop 2007 |Company: Autodesk,Inc. |WEB Address: www.autodesk.com
 90
    32897
280
     0
281
     0
  0
CLASS
  1
AEC_DISP_REP_AREA
  2
AecDbDispRepArea
  3
AecAreaCalculationBase50|Product Desc: Autodesk Architectural Desktop 2007 |Company: Autodesk,Inc. |WEB Address: www.autodesk.com
 90
    32897
280
     0
281
     0
  0
CLASS
  1
AEC_DISP_REP_AREA_DECOMPOSED
  2
AecDbDispRepAreaDecomposed
  3
AecAreaCalculationBase50|Product Desc: Autodesk Architectural Desktop 2007 |Company: Autodesk,Inc. |WEB Address: www.autodesk.com
 90
    32897
280
     0
281
     0
  0
CLASS
  1
AEC_DISP_REP_AREAGROUP
  2
AecDbDispRepAreaGroup
  3
AecAreaCalculationBase50|Product Desc: Autodesk Architectural Desktop 2007 |Company: Autodesk,Inc. |WEB Address: www.autodesk.com
 90
    32897
280
     0
281
     0
  0
CLASS
  1
AEC_DISP_REP_BDG_ELEVLINE_MODEL
  2
AecDbDispRepBdgElevLineModel
  3
AecArchBase50|Product Desc: Autodesk Architectural Desktop 2007 |Company: Autodesk,Inc. |WEB Address: www.autodesk.com
 90
    32897
280
     0
281
     0
  0
CLASS
  1
AEC_DISP_REP_BDG_SECTIONLINE_PLAN
  2
AecDbDispRepBdgElevLinePlan
  3
AecArchBase50|Product Desc: Autodesk Architectural Desktop 2007 |Company: Autodesk,Inc. |WEB Address: www.autodesk.com
 90
    32897
280
     0
281
     0
  0
CLASS
  1
AEC_DISP_REP_BDG_SECTIONLINE_MODEL
  2
AecDbDispRepBdgSectionLineModel
  3
AecArchBase50|Product Desc: Autodesk Architectural Desktop 2007 |Company: Autodesk,Inc. |WEB Address: www.autodesk.com
 90
    32897
280
     0
281
     0
  0
CLASS
  1
AEC_DISP_REP_BDG_SECTIONLINE_PLAN
  2
AecDbDispRepBdgSectionLinePlan
  3
AecArchBase50|Product Desc: Autodesk Architectural Desktop 2007 |Company: Autodesk,Inc. |WEB Address: www.autodesk.com
 90
    32897
280
     0
281
     0
  0
CLASS
  1
AEC_DISP_REP_BDG_SECTION_SUBDIV
  2
AecDbDispRepBdgSectionSubDiv
  3
AecArchBase50|Product Desc: Autodesk Architectural Desktop 2007 |Company: Autodesk,Inc. |WEB Address: www.autodesk.com
 90
    32897
280
     0
281
     0
  0
CLASS
  1
AEC_DISP_REP_CAMERA
  2
AecDbDispRepCamera
  3
AecBase50|Product Desc: Autodesk Architectural Desktop 2007 |Company: Autodesk,Inc. |WEB Address: www.autodesk.com
 90
    32897
280
     0
281
     0
  0
CLASS
  1
AEC_DISP_REP_CEILING_GRID
  2
AecDbDispRepCeilingGrid
  3
AecArchBase50|Product Desc: Autodesk Architectural Desktop 2007 |Company: Autodesk,Inc. |WEB Address: www.autodesk.com
 90
    33661
280
     0
281
     0
  0
CLASS
  1
AEC_DISP_REP_CEILING_GRID_MODEL
  2
AecDbDispRepCeilingGridModel
  3
AecArchBase50|Product Desc: Autodesk Architectural Desktop 2007 |Company: Autodesk,Inc. |WEB Address: www.autodesk.com
 90
    32897
280
     0
281
     0
  0
CLASS
  1
AEC_DISP_REP_CEILING_GRID_RCP
  2
AecDbDispRepCeilingGridRcp
  3
AecArchBase50|Product Desc: Autodesk Architectural Desktop 2007 |Company: Autodesk,Inc. |WEB Address: www.autodesk.com
 90
    32897
280
     0
281
     0
  0
CLASS
  1
AEC_DISP_REP_CLIP_VOLUME_MODEL
  2
AecDbDispRepClipVolModel
  3
AecBase50|Product Desc: Autodesk Architectural Desktop 2007 |Company: Autodesk,Inc. |WEB Address: www.autodesk.com
 90
    32897
280
     0
281
     0
  0
CLASS
  1
AEC_DISP_REP_CLIP_VOLUME_PLAN
  2
AecDbDispRepClipVolPlan
  3
AecBase50|Product Desc: Autodesk Architectural Desktop 2007 |Company: Autodesk,Inc. |WEB Address: www.autodesk.com
 90
    32897
280
     0
281
     0
  0
CLASS
  1
AEC_DISP_REP_CLIP_VOLUME_RESULT_SUBDIV
  2
AecDbDispRepClipVolResSubDiv
  3
AecBase50|Product Desc: Autodesk Architectural Desktop 2007 |Company: Autodesk,Inc. |WEB Address: www.autodesk.com
 90
    32897
280
     0
281
     0
  0
CLASS
  1
AEC_DISP_REP_CLIP_VOLUME_RESULT
  2
AecDbDispRepClipVolResult
  3
AecBase50|Product Desc: Autodesk Architectural Desktop 2007 |Company: Autodesk,Inc. |WEB Address: www.autodesk.com
 90
    32897
280
     0
281
     0
  0
CLASS
  1
AEC_DISP_REP_COLUMN_GRID
  2
AecDbDispRepColumnGrid
  3
AecStructureBase50|Product Desc: Autodesk Architectural Desktop 2007 |Company: Autodesk,Inc. |WEB Address: www.autodesk.com
 90
    32897
280
     0
281
     0
  0
CLASS
  1
AEC_DISP_REP_COLUMN_GRID_MODEL
  2
AecDbDispRepColumnGridModel
  3
AecStructureBase50|Product Desc: Autodesk Architectural Desktop 2007 |Company: Autodesk,Inc. |WEB Address: www.autodesk.com
 90
    32897
280
     0
281
     0
  0
CLASS
  1
AEC_DISP_REP_CURTAIN_WALL_LAYOUT_MODEL
  2
AecDbDispRepCurtainWallLayoutModel
  3
AecArchBase50|Product Desc: Autodesk Architectural Desktop 2007 |Company: Autodesk,Inc. |WEB Address: www.autodesk.com
 90
    32897
280
     0
281
     0
  0
CLASS
  1
AEC_DISP_REP_CURTAIN_WALL_LAYOUT_PLAN
  2
AecDbDispRepCurtainWallLayoutPlan
  3
AecArchBase50|Product Desc: Autodesk Architectural Desktop 2007 |Company: Autodesk,Inc. |WEB Address: www.autodesk.com
 90
    32897
280
     0
281
     0
  0
CLASS
  1
AEC_DISP_REP_CURTAIN_WALL_UNIT_MODEL
  2
AecDbDispRepCurtainWallUnitModel
  3
AecArchBase50|Product Desc: Autodesk Architectural Desktop 2007 |Company: Autodesk,Inc. |WEB Address: www.autodesk.com
 90
    32897
280
     0
281
     0
  0
CLASS
  1
AEC_DISP_REP_CURTAIN_WALL_UNIT_PLAN
  2
AecDbDispRepCurtainWallUnitPlan
  3
AecArchBase50|Product Desc: Autodesk Architectural Desktop 2007 |Company: Autodesk,Inc. |WEB Address: www.autodesk.com
 90
    32897
280
     0
281
     0
  0
CLASS
  1
AEC_DB_DISP_REP_DIM_GROUP_PLAN
  2
AecDbDispRepDimGroupPlan
  3
AecArchDACHBase50|Product Desc: Autodesk Architectural Desktop 2007 |Company: Autodesk,Inc. |WEB Address: www.autodesk.com
 90
    32897
280
     0
281
     0
  0
CLASS
  1
AEC_DISP_REP_DOOR_MODEL
  2
AecDbDispRepDoorModel
  3
AecArchBase50|Product Desc: Autodesk Architectural Desktop 2007 |Company: Autodesk,Inc. |WEB Address: www.autodesk.com
 90
    32897
280
     0
281
     0
  0
CLASS
  1
AEC_DISP_REP_DOOR_NOMINAL
  2
AecDbDispRepDoorNominal
  3
AecArchBase50|Product Desc: Autodesk Architectural Desktop 2007 |Company: Autodesk,Inc. |WEB Address: www.autodesk.com
 90
    32897
280
     0
281
     0
  0
CLASS
  1
AEC_DISP_REP_DOOR_PLAN
  2
AecDbDispRepDoorPlan
  3
AecArchBase50|Product Desc: Autodesk Architectural Desktop 2007 |Company: Autodesk,Inc. |WEB Address: www.autodesk.com
 90
    32897
280
     0
281
     0
  0
CLASS
  1
AEC_DISP_REP_EDITINPLACEPROFILE
  2
AecDbDispRepEditInPlaceProfile
  3
AecBase50|Product Desc: Autodesk Architectural Desktop 2007 |Company: Autodesk,Inc. |WEB Address: www.autodesk.com
 90
    32897
280
     0
281
     0
  0
CLASS
  1
AEC_DISP_REP_ENT_REF
  2
AecDbDispRepEntRef
  3
AecBase50|Product Desc: Autodesk Architectural Desktop 2007 |Company: Autodesk,Inc. |WEB Address: www.autodesk.com
 90
    32897
280
     0
281
     0
  0
CLASS
  1
AEC_DISP_REP_LAYOUT_CURVE
  2
AecDbDispRepLayoutCurve
  3
AecBase50|Product Desc: Autodesk Architectural Desktop 2007 |Company: Autodesk,Inc. |WEB Address: www.autodesk.com
 90
    32897
280
     0
281
     0
  0
CLASS
  1
AEC_DISP_REP_LAYOUT_GRID2D
  2
AecDbDispRepLayoutGrid2d
  3
AecBase50|Product Desc: Autodesk Architectural Desktop 2007 |Company: Autodesk,Inc. |WEB Address: www.autodesk.com
 90
    32897
280
     0
281
     0
  0
CLASS
  1
AEC_DISP_REP_LAYOUT_GRID3D
  2
AecDbDispRepLayoutGrid3d
  3
AecBase50|Product Desc: Autodesk Architectural Desktop 2007 |Company: Autodesk,Inc. |WEB Address: www.autodesk.com
 90
    32897
280
     0
281
     0
  0
CLASS
  1
AEC_DISP_REP_MASKBLOCK_REF
  2
AecDbDispRepMaskBlockRef
  3
AecBase50|Product Desc: Autodesk Architectural Desktop 2007 |Company: Autodesk,Inc. |WEB Address: www.autodesk.com
 90
    32897
280
     0
281
     0
  0
CLASS
  1
AEC_DISP_REP_MASKBLOCK_REF_RCP
  2
AecDbDispRepMaskBlockRefRcp
  3
AecArchBase50|Product Desc: Autodesk Architectural Desktop 2007 |Company: Autodesk,Inc. |WEB Address: www.autodesk.com
 90
    32897
280
     0
281
     0
  0
CLASS
  1
AEC_DISP_REP_MASS_ELEM_MODEL
  2
AecDbDispRepMassElemModel
  3
AecBaseEx50|Product Desc: Autodesk Architectural Desktop 2007 |Company: Autodesk,Inc. |WEB Address: www.autodesk.com
 90
    32897
280
     0
281
     0
  0
CLASS
  1
AEC_DISP_REP_MASS_ELEM_SCHEM
  2
AecDbDispRepMassElemSchem
  3
AecBaseEx50|Product Desc: Autodesk Architectural Desktop 2007 |Company: Autodesk,Inc. |WEB Address: www.autodesk.com
 90
    32897
280
     0
281
     0
  0
CLASS
  1
AEC_DISP_REP_MASS_GROUP_MODEL
  2
AecDbDispRepMassGroupModel
  3
AecBaseEx50|Product Desc: Autodesk Architectural Desktop 2007 |Company: Autodesk,Inc. |WEB Address: www.autodesk.com
 90
    32897
280
     0
281
     0
  0
CLASS
  1
AEC_DISP_REP_MASS_GROUP_PLAN
  2
AecDbDispRepMassGroupPlan
  3
AecBaseEx50|Product Desc: Autodesk Architectural Desktop 2007 |Company: Autodesk,Inc. |WEB Address: www.autodesk.com
 90
    32897
280
     0
281
     0
  0
CLASS
  1
AEC_DISP_REP_MATERIAL
  2
AecDbDispRepMaterial
  3
AecBase50|Product Desc: Autodesk Architectural Desktop 2007 |Company: Autodesk,Inc. |WEB Address: www.autodesk.com
 90
    32897
280
     0
281
     0
  0
CLASS
  1
AEC_DISP_REP_MVBLOCK_REF
  2
AecDbDispRepMvBlockRef
  3
AecBase50|Product Desc: Autodesk Architectural Desktop 2007 |Company: Autodesk,Inc. |WEB Address: www.autodesk.com
 90
    32897
280
     0
281
     0
  0
CLASS
  1
AEC_DISP_REP_MVBLOCK_REF_MODEL
  2
AecDbDispRepMvBlockRefModel
  3
AecBase50|Product Desc: Autodesk Architectural Desktop 2007 |Company: Autodesk,Inc. |WEB Address: www.autodesk.com
 90
    32897
280
     0
281
     0
  0
CLASS
  1
AEC_DISP_REP_OPENING
  2
AecDbDispRepOpening
  3
AecArchBase50|Product Desc: Autodesk Architectural Desktop 2007 |Company: Autodesk,Inc. |WEB Address: www.autodesk.com
 90
    32897
280
     0
281
     0
  0
CLASS
  1
AEC_DISP_REP_OPENING_MODEL
  2
AecDbDispRepOpeningModel
  3
AecArchBase50|Product Desc: Autodesk Architectural Desktop 2007 |Company: Autodesk,Inc. |WEB Address: www.autodesk.com
 90
    32897
280
     0
281
     0
  0
CLASS
  1
AEC_DISP_REP_POLYGON_MODEL
  2
AecDbDispRepPolygonModel
  3
AecBaseEx50|Product Desc: Autodesk Architectural Desktop 2007 |Company: Autodesk,Inc. |WEB Address: www.autodesk.com
 90
    32897
280
     0
281
     0
  0
CLASS
  1
AEC_DISP_REP_RAILING_MODEL
  2
AecDbDispRepRailingModel
  3
AecArchBase50|Product Desc: Autodesk Architectural Desktop 2007 |Company: Autodesk,Inc. |WEB Address: www.autodesk.com
 90
    32897
280
     0
281
     0
  0
CLASS
  1
AEC_DISP_REP_RAILING_PLAN
  2
AecDbDispRepRailingPlan
  3
AecArchBase50|Product Desc: Autodesk Architectural Desktop 2007 |Company: Autodesk,Inc. |WEB Address: www.autodesk.com
 90
    32897
280
     0
281
     0
  0
CLASS
  1
AEC_DISP_REP_ROOF_MODEL
  2
AecDbDispRepRoofModel
  3
AecArchBase50|Product Desc: Autodesk Architectural Desktop 2007 |Company: Autodesk,Inc. |WEB Address: www.autodesk.com
 90
    32897
280
     0
281
     0
  0
CLASS
  1
AEC_DISP_REP_ROOF_PLAN
  2
AecDbDispRepRoofPlan
  3
AecArchBase50|Product Desc: Autodesk Architectural Desktop 2007 |Company: Autodesk,Inc. |WEB Address: www.autodesk.com
 90
    32897
280
     0
281
     0
  0
CLASS
  1
AEC_DISP_REP_ROOFSLAB_MODEL
  2
AecDbDispRepRoofSlabModel
  3
AecArchBase50|Product Desc: Autodesk Architectural Desktop 2007 |Company: Autodesk,Inc. |WEB Address: www.autodesk.com
 90
    32897
280
     0
281
     0
  0
CLASS
  1
AEC_DISP_REP_ROOFSLAB_PLAN
  2
AecDbDispRepRoofSlabPlan
  3
AecArchBase50|Product Desc: Autodesk Architectural Desktop 2007 |Company: Autodesk,Inc. |WEB Address: www.autodesk.com
 90
    32897
280
     0
281
     0
  0
CLASS
  1
AEC_DISP_REP_SCHEDULE_TABLE
  2
AecDbDispRepScheduleTable
  3
AecSchedule50|Product Desc: Autodesk Architectural Desktop 2007 |Company: Autodesk,Inc. |WEB Address: www.autodesk.com
 90
    32897
280
     0
281
     0
  0
CLASS
  1
AEC_DISP_REP_SLAB_MODEL
  2
AecDbDispRepSlabModel
  3
AecArchBase50|Product Desc: Autodesk Architectural Desktop 2007 |Company: Autodesk,Inc. |WEB Address: www.autodesk.com
 90
    32897
280
     0
281
     0
  0
CLASS
  1
AEC_DISP_REP_SLAB_PLAN
  2
AecDbDispRepSlabPlan
  3
AecArchBase50|Product Desc: Autodesk Architectural Desktop 2007 |Company: Autodesk,Inc. |WEB Address: www.autodesk.com
 90
    32897
280
     0
281
     0
  0
CLASS
  1
AEC_DISP_REP_SLICE
  2
AecDbDispRepSlice
  3
AecBase50|Product Desc: Autodesk Architectural Desktop 2007 |Company: Autodesk,Inc. |WEB Address: www.autodesk.com
 90
    32897
280
     0
281
     0
  0
CLASS
  1
AEC_DISP_REP_SPACE_BOUNDARY_MODEL
  2
AecDbDispRepSpaceBoundaryModel
  3
AecArchBase50|Product Desc: Autodesk Architectural Desktop 2007 |Company: Autodesk,Inc. |WEB Address: www.autodesk.com
 90
    32897
280
     0
281
     0
  0
CLASS
  1
AEC_DISP_REP_SPACE_BOUNDARY_PLAN
  2
AecDbDispRepSpaceBoundaryPlan
  3
AecArchBase50|Product Desc: Autodesk Architectural Desktop 2007 |Company: Autodesk,Inc. |WEB Address: www.autodesk.com
 90
    32897
280
     0
281
     0
  0
CLASS
  1
AEC_DISP_REP_SPACE_BOUNDARY_SCHEM
  2
AecDbDispRepSpaceBoundarySketch
  3
AecArchBase50|Product Desc: Autodesk Architectural Desktop 2007 |Company: Autodesk,Inc. |WEB Address: www.autodesk.com
 90
    32897
280
     0
281
     0
  0
CLASS
  1
AEC_DISP_REP_SPACE_MODEL
  2
AecDbDispRepSpaceModel
  3
AecArchBase50|Product Desc: Autodesk Architectural Desktop 2007 |Company: Autodesk,Inc. |WEB Address: www.autodesk.com
 90
    32897
280
     0
281
     0
  0
CLASS
  1
AEC_DISP_REP_SPACE_PLAN
  2
AecDbDispRepSpacePlan
  3
AecArchBase50|Product Desc: Autodesk Architectural Desktop 2007 |Company: Autodesk,Inc. |WEB Address: www.autodesk.com
 90
    32897
280
     0
281
     0
  0
CLASS
  1
AEC_DISP_REP_STAIR_MODEL
  2
AecDbDispRepStairModel
  3
AecArchBase50|Product Desc: Autodesk Architectural Desktop 2007 |Company: Autodesk,Inc. |WEB Address: www.autodesk.com
 90
    32897
280
     0
281
     0
  0
CLASS
  1
AEC_DISP_REP_STAIR_PLAN
  2
AecDbDispRepStairPlan
  3
AecArchBase50|Product Desc: Autodesk Architectural Desktop 2007 |Company: Autodesk,Inc. |WEB Address: www.autodesk.com
 90
    32897
280
     0
281
     0
  0
CLASS
  1
AEC_DISP_REP_WALL_GRAPH
  2
AecDbDispRepWallGraph
  3
AecArchBase50|Product Desc: Autodesk Architectural Desktop 2007 |Company: Autodesk,Inc. |WEB Address: www.autodesk.com
 90
    32897
280
     0
281
     0
  0
CLASS
  1
AEC_DISP_REP_WALL_MODEL
  2
AecDbDispRepWallModel
  3
AecArchBase50|Product Desc: Autodesk Architectural Desktop 2007 |Company: Autodesk,Inc. |WEB Address: www.autodesk.com
 90
    32897
280
     0
281
     0
  0
CLASS
  1
AEC_DISP_REP_WALL_PLAN
  2
AecDbDispRepWallPlan
  3
AecArchBase50|Product Desc: Autodesk Architectural Desktop 2007 |Company: Autodesk,Inc. |WEB Address: www.autodesk.com
 90
    32897
280
     0
281
     0
  0
CLASS
  1
AEC_DISP_REP_WALL_SCHEM
  2
AecDbDispRepWallSchem
  3
AecArchBase50|Product Desc: Autodesk Architectural Desktop 2007 |Company: Autodesk,Inc. |WEB Address: www.autodesk.com
 90
    32897
280
     0
281
     0
  0
CLASS
  1
AEC_DISP_REP_WINDOW_ASSEMBLY_MODEL
  2
AecDbDispRepWindowAssemblyModel
  3
AecArchBase50|Product Desc: Autodesk Architectural Desktop 2007 |Company: Autodesk,Inc. |WEB Address: www.autodesk.com
 90
    32897
280
     0
281
     0
  0
CLASS
  1
AEC_DISP_REP_WINDOW_ASSEMBLY_PLAN
  2
AecDbDispRepWindowAssemblyPlan
  3
AecArchBase50|Product Desc: Autodesk Architectural Desktop 2007 |Company: Autodesk,Inc. |WEB Address: www.autodesk.com
 90
    32897
280
     0
281
     0
  0
CLASS
  1
AEC_AECDBDISPREPWINDOWASSEMBLYPLAN100
  2
AecDbDispRepWindowAssemblyPlan100
  3
AecArchDACHBase50|Product Desc: Autodesk Architectural Desktop 2007 |Company: Autodesk,Inc. |WEB Address: www.autodesk.com
 90
    32897
280
     0
281
     0
  0
CLASS
  1
AEC_DISP_REP_WINDOW_MODEL
  2
AecDbDispRepWindowModel
  3
AecArchBase50|Product Desc: Autodesk Architectural Desktop 2007 |Company: Autodesk,Inc. |WEB Address: www.autodesk.com
 90
    32897
280
     0
281
     0
  0
CLASS
  1
AEC_DISP_REP_WINDOW_NOMINAL
  2
AecDbDispRepWindowNominal
  3
AecArchBase50|Product Desc: Autodesk Architectural Desktop 2007 |Company: Autodesk,Inc. |WEB Address: www.autodesk.com
 90
    32897
280
     0
281
     0
  0
CLASS
  1
AEC_DISP_REP_WINDOW_PLAN
  2
AecDbDispRepWindowPlan
  3
AecArchBase50|Product Desc: Autodesk Architectural Desktop 2007 |Company: Autodesk,Inc. |WEB Address: www.autodesk.com
 90
    32897
280
     0
281
     0
  0
CLASS
  1
AECS_DISP_REP_MEMBER_LOGICAL
  2
AecsDbDispRepMemberLogical
  3
AecStructureBase50|Product Desc: Autodesk Architectural Desktop 2007 |Company: Autodesk,Inc. |WEB Address: www.autodesk.com
 90
    32897
280
     0
281
     0
  0
CLASS
  1
AECS_DISP_REP_MEMBER_MODEL_DESIGN
  2
AecsDbDispRepMemberModelDesign
  3
AecStructureBase50|Product Desc: Autodesk Architectural Desktop 2007 |Company: Autodesk,Inc. |WEB Address: www.autodesk.com
 90
    32897
280
     0
281
     0
  0
CLASS
  1
AECS_DISP_REP_MEMBER_PLAN_DESIGN
  2
AecsDbDispRepMemberPlanDesign
  3
AecStructureBase50|Product Desc: Autodesk Architectural Desktop 2007 |Company: Autodesk,Inc. |WEB Address: www.autodesk.com
 90
    32897
280
     0
281
     0
  0
CLASS
  1
AEC_DISP_PROPS_ENT
  2
AecDbDispPropsEnt
  3
AecBase50|Product Desc: Autodesk Architectural Desktop 2007 |Company: Autodesk,Inc. |WEB Address: www.autodesk.com
 90
    32897
280
     0
281
     0
  0
CLASS
  1
AEC_DISP_PROPS_CLIP_VOLUME
  2
AecDbDispPropsClipVol
  3
AecBase50|Product Desc: Autodesk Architectural Desktop 2007 |Company: Autodesk,Inc. |WEB Address: www.autodesk.com
 90
    32897
280
     0
281
     0
  0
CLASS
  1
AEC_DISP_PROPS_SLICE
  2
AecDbDispPropsSlice
  3
AecBase50|Product Desc: Autodesk Architectural Desktop 2007 |Company: Autodesk,Inc. |WEB Address: www.autodesk.com
 90
    32897
280
     0
281
     0
  0
CLASS
  1
AEC_DISP_PROPS_ROOFSLAB_PLAN
  2
AecDbDispPropsRoofSlabPlan
  3
AecArchBase50|Product Desc: Autodesk Architectural Desktop 2007 |Company: Autodesk,Inc. |WEB Address: www.autodesk.com
 90
    32897
280
     0
281
     0
  0
CLASS
  1
AEC_DISP_PROPS_GRID_ASSEMBLY_MODEL
  2
AecDbDispPropsGridAssemblyModel
  3
AecArchBase50|Product Desc: Autodesk Architectural Desktop 2007 |Company: Autodesk,Inc. |WEB Address: www.autodesk.com
 90
    32897
280
     0
281
     0
  0
CLASS
  1
AEC_DISP_PROPS_ROOF
  2
AecDbDispPropsRoof
  3
AecArchBase50|Product Desc: Autodesk Architectural Desktop 2007 |Company: Autodesk,Inc. |WEB Address: www.autodesk.com
 90
    32897
280
     0
281
     0
  0
CLASS
  1
AEC_DISP_PROPS_SPACE_MODEL
  2
AecDbDispPropsSpaceModel
  3
AecArchBase50|Product Desc: Autodesk Architectural Desktop 2007 |Company: Autodesk,Inc. |WEB Address: www.autodesk.com
 90
    32897
280
     0
281
     0
  0
CLASS
  1
AEC_DISP_PROPS_EDITINPLACEPROFILE_MODEL
  2
AecDbDispPropsEditInPlaceProfile
  3
AecBase50|Product Desc: Autodesk Architectural Desktop 2007 |Company: Autodesk,Inc. |WEB Address: www.autodesk.com
 90
    32897
280
     0
281
     0
  0
CLASS
  1
AEC_DISP_PROPS_DOOR
  2
AecDbDispPropsDoor
  3
AecArchBase50|Product Desc: Autodesk Architectural Desktop 2007 |Company: Autodesk,Inc. |WEB Address: www.autodesk.com
 90
    32897
280
     0
281
     0
  0
CLASS
  1
AEC_DISP_PROPS_MASKBLOCK
  2
AecDbDispPropsMaskBlock
  3
AecBase50|Product Desc: Autodesk Architectural Desktop 2007 |Company: Autodesk,Inc. |WEB Address: www.autodesk.com
 90
    32897
280
     0
281
     0
  0
CLASS
  1
AEC_DISP_PROPS_SPACE_PLAN
  2
AecDbDispPropsSpacePlan
  3
AecArchBase50|Product Desc: Autodesk Architectural Desktop 2007 |Company: Autodesk,Inc. |WEB Address: www.autodesk.com
 90
    32897
280
     0
281
     0
  0
CLASS
  1
AEC_DISP_PROPS_RAILING_PLAN
  2
AecDbDispPropsRailingPlan
  3
AecArchBase50|Product Desc: Autodesk Architectural Desktop 2007 |Company: Autodesk,Inc. |WEB Address: www.autodesk.com
 90
    32897
280
     0
281
     0
  0
CLASS
  1
AEC_DISP_PROPS_LAYOUT_GRID2D
  2
AecDbDispPropsLayoutGrid2d
  3
AecBase50|Product Desc: Autodesk Architectural Desktop 2007 |Company: Autodesk,Inc. |WEB Address: www.autodesk.com
 90
    32897
280
     0
281
     0
  0
CLASS
  1
AEC_DISP_PROPS_CLIP_VOLUME_RESULT
  2
AecDbDispPropsClipVolResSubDiv
  3
AecBase50|Product Desc: Autodesk Architectural Desktop 2007 |Company: Autodesk,Inc. |WEB Address: www.autodesk.com
 90
    32897
280
     0
281
     0
  0
CLASS
  1
AEC_DISP_PROPS_STAIR_MODEL
  2
AecDbDispPropsStairModel
  3
AecArchBase50|Product Desc: Autodesk Architectural Desktop 2007 |Company: Autodesk,Inc. |WEB Address: www.autodesk.com
 90
    32897
280
     0
281
     0
  0
CLASS
  1
AEC_DISP_PROPS_LAYOUT_CURVE
  2
AecDbDispPropsLayoutCurve
  3
AecBase50|Product Desc: Autodesk Architectural Desktop 2007 |Company: Autodesk,Inc. |WEB Address: www.autodesk.com
 90
    32897
280
     0
281
     0
  0
CLASS
  1
AEC_DISP_PROPS_POLYGON_MODEL
  2
AecDbDispPropsPolygonModel
  3
AecBaseEx50|Product Desc: Autodesk Architectural Desktop 2007 |Company: Autodesk,Inc. |WEB Address: www.autodesk.com
 90
    32897
280
     0
281
     0
  0
CLASS
  1
AEC_DISP_PROPS_MASS_GROUP
  2
AecDbDispPropsMassGroup
  3
AecBaseEx50|Product Desc: Autodesk Architectural Desktop 2007 |Company: Autodesk,Inc. |WEB Address: www.autodesk.com
 90
    32897
280
     0
281
     0
  0
CLASS
  1
AEC_DISP_PROPS_STAIR_PLAN
  2
AecDbDispPropsStairPlan
  3
AecArchBase50|Product Desc: Autodesk Architectural Desktop 2007 |Company: Autodesk,Inc. |WEB Address: www.autodesk.com
 90
    32897
280
     0
281
     0
  0
CLASS
  1
AEC_DISP_PROPS_OPENING
  2
AecDbDispPropsOpening
  3
AecArchBase50|Product Desc: Autodesk Architectural Desktop 2007 |Company: Autodesk,Inc. |WEB Address: www.autodesk.com
 90
    32897
280
     0
281
     0
  0
CLASS
  1
AEC_DISP_PROPS_WALL_GRAPH
  2
AecDbDispPropsWallGraph
  3
AecArchBase50|Product Desc: Autodesk Architectural Desktop 2007 |Company: Autodesk,Inc. |WEB Address: www.autodesk.com
 90
    32897
280
     0
281
     0
  0
CLASS
  1
AEC_DISP_PROPS_DOOR_NOMINAL
  2
AecDbDispPropsDoorNominal
  3
AecArchBase50|Product Desc: Autodesk Architectural Desktop 2007 |Company: Autodesk,Inc. |WEB Address: www.autodesk.com
 90
    32897
280
     0
281
     0
  0
CLASS
  1
AEC_DISP_PROPS_SLAB
  2
AecDbDispPropsSlab
  3
AecArchBase50|Product Desc: Autodesk Architectural Desktop 2007 |Company: Autodesk,Inc. |WEB Address: www.autodesk.com
 90
    32897
280
     0
281
     0
  0
CLASS
  1
AEC_DISP_PROPS_WALL_MODEL
  2
AecDbDispPropsWallModel
  3
AecArchBase50|Product Desc: Autodesk Architectural Desktop 2007 |Company: Autodesk,Inc. |WEB Address: www.autodesk.com
 90
    32897
280
     0
281
     0
  0
CLASS
  1
AEC_DISP_PROPS_MATERIAL
  2
AecDbDispPropsMaterial
  3
AecBase50|Product Desc: Autodesk Architectural Desktop 2007 |Company: Autodesk,Inc. |WEB Address: www.autodesk.com
 90
    32897
280
     0
281
     0
  0
CLASS
  1
AEC_DISP_PROPS_WINDOW
  2
AecDbDispPropsWindow
  3
AecArchBase50|Product Desc: Autodesk Architectural Desktop 2007 |Company: Autodesk,Inc. |WEB Address: www.autodesk.com
 90
    32897
280
     0
281
     0
  0
CLASS
  1
AEC_DISP_PROPS_LAYOUT_GRID3D
  2
AecDbDispPropsLayoutGrid3d
  3
AecBase50|Product Desc: Autodesk Architectural Desktop 2007 |Company: Autodesk,Inc. |WEB Address: www.autodesk.com
 90
    32897
280
     0
281
     0
  0
CLASS
  1
AEC_DISP_PROPS_GRID_ASSEMBLY_PLAN
  2
AecDbDispPropsGridAssemblyPlan
  3
AecArchBase50|Product Desc: Autodesk Architectural Desktop 2007 |Company: Autodesk,Inc. |WEB Address: www.autodesk.com
 90
    32897
280
     0
281
     0
  0
CLASS
  1
AEC_DISP_PROPS_WALL_SCHEM
  2
AecDbDispPropsWallSchem
  3
AecArchBase50|Product Desc: Autodesk Architectural Desktop 2007 |Company: Autodesk,Inc. |WEB Address: www.autodesk.com
 90
    32897
280
     0
281
     0
  0
CLASS
  1
AEC_DISP_PROPS_WALL_PLAN
  2
AecDbDispPropsWallPlan
  3
AecArchBase50|Product Desc: Autodesk Architectural Desktop 2007 |Company: Autodesk,Inc. |WEB Address: www.autodesk.com
 90
    32897
280
     0
281
     0
  0
CLASS
  1
AEC_DISP_PROPS_SPACE_BOUNDARY
  2
AecDbDispPropsSpaceBoundary
  3
AecArchBase50|Product Desc: Autodesk Architectural Desktop 2007 |Company: Autodesk,Inc. |WEB Address: www.autodesk.com
 90
    32897
280
     0
281
     0
  0
CLASS
  1
AEC_DISP_PROPS_SLAB_PLAN
  2
AecDbDispPropsSlabPlan
  3
AecArchBase50|Product Desc: Autodesk Architectural Desktop 2007 |Company: Autodesk,Inc. |WEB Address: www.autodesk.com
 90
    32897
280
     0
281
     0
  0
CLASS
  1
AEC_DISP_PROPS_RAILING_MODEL
  2
AecDbDispPropsRailingModel
  3
AecArchBase50|Product Desc: Autodesk Architectural Desktop 2007 |Company: Autodesk,Inc. |WEB Address: www.autodesk.com
 90
    32897
280
     0
281
     0
  0
CLASS
  1
AEC_DISP_PROPS_MASS_ELEM_MODEL
  2
AecDbDispPropsMassElem
  3
AecBaseEx50|Product Desc: Autodesk Architectural Desktop 2007 |Company: Autodesk,Inc. |WEB Address: www.autodesk.com
 90
    32897
280
     0
281
     0
  0
CLASS
  1
AEC_DISP_PROPS_DIM
  2
AecDbDispPropsDimGroup
  3
AecArchDACHBase50|Product Desc: Autodesk Architectural Desktop 2007 |Company: Autodesk,Inc. |WEB Address: www.autodesk.com
 90
    32897
280
     0
281
     0
  0
CLASS
  1
AEC_DISP_PROPS_ROOFSLAB
  2
AecDbDispPropsRoofSlab
  3
AecArchBase50|Product Desc: Autodesk Architectural Desktop 2007 |Company: Autodesk,Inc. |WEB Address: www.autodesk.com
 90
    32897
280
     0
281
     0
  0
CLASS
  1
AEC_DISP_PROPS_ENT_REF
  2
AecDbDispPropsEntRef
  3
AecBase50|Product Desc: Autodesk Architectural Desktop 2007 |Company: Autodesk,Inc. |WEB Address: www.autodesk.com
 90
    32897
280
     0
281
     0
  0
CLASS
  1
AEC_DISP_PROPS_2D_SECTION
  2
AecDbDispProps2dSection
  3
AecBase50|Product Desc: Autodesk Architectural Desktop 2007 |Company: Autodesk,Inc. |WEB Address: www.autodesk.com
 90
    32897
280
     0
281
     0
  0
CLASS
  1
AECS_DISP_PROPS_MEMBER_LOGICAL
  2
AecsDbDispPropsMemberLogical
  3
AecStructureBase50|Product Desc: Autodesk Architectural Desktop 2007 |Company: Autodesk,Inc. |WEB Address: www.autodesk.com
 90
    32897
280
     0
281
     0
  0
CLASS
  1
AEC_DISP_PROPS_AREA_DECOMPOSED
  2
AecDbDispPropsAreaDecomposed
  3
AecAreaCalculationBase50|Product Desc: Autodesk Architectural Desktop 2007 |Company: Autodesk,Inc. |WEB Address: www.autodesk.com
 90
    32897
280
     0
281
     0
  0
CLASS
  1
AEC_DISP_PROPS_CAMERA
  2
AecDbDispPropsCamera
  3
AecBase50|Product Desc: Autodesk Architectural Desktop 2007 |Company: Autodesk,Inc. |WEB Address: www.autodesk.com
 90
    32897
280
     0
281
     0
  0
CLASS
  1
AECS_DISP_PROPS_MEMBER
  2
AecsDbDispPropsMember
  3
AecStructureBase50|Product Desc: Autodesk Architectural Desktop 2007 |Company: Autodesk,Inc. |WEB Address: www.autodesk.com
 90
    32897
280
     0
281
     0
  0
CLASS
  1
AECS_DISP_PROPS_MEMBER_PLAN
  2
AecsDbDispPropsMemberPlan
  3
AecStructureBase50|Product Desc: Autodesk Architectural Desktop 2007 |Company: Autodesk,Inc. |WEB Address: www.autodesk.com
 90
    32897
280
     0
281
     0
  0
CLASS
  1
AEC_DISP_PROPS_AREAGROUP
  2
AecDbDispPropsAreaGroup
  3
AecAreaCalculationBase50|Product Desc: Autodesk Architectural Desktop 2007 |Company: Autodesk,Inc. |WEB Address: www.autodesk.com
 90
    32897
280
     0
281
     0
  0
CLASS
  1
AEC_DISP_PROPS_WINDOW_NOMINAL
  2
AecDbDispPropsWindowNominal
  3
AecArchBase50|Product Desc: Autodesk Architectural Desktop 2007 |Company: Autodesk,Inc. |WEB Address: www.autodesk.com
 90
    32897
280
     0
281
     0
  0
CLASS
  1
AEC_DISP_PROPS_AREA
  2
AecDbDispPropsArea
  3
AecAreaCalculationBase50|Product Desc: Autodesk Architectural Desktop 2007 |Company: Autodesk,Inc. |WEB Address: www.autodesk.com
 90
    32897
280
     0
281
     0
  0
CLASS
  1
AEC_DISP_PROPS_SCHEDULE_TABLE
  2
AecDbDispPropsScheduleTable
  3
AecSchedule50|Product Desc: Autodesk Architectural Desktop 2007 |Company: Autodesk,Inc. |WEB Address: www.autodesk.com
 90
    32897
280
     0
281
     0
  0
CLASS
  1
AEC_LAYERKEY_STYLE
  2
AecDbLayerKeyStyle
  3
AecBase50|Product Desc: Autodesk Architectural Desktop 2007 |Company: Autodesk,Inc. |WEB Address: www.autodesk.com
 90
    32897
280
     0
281
     0
  0
CLASS
  1
AEC_VARS_ARCHBASE
  2
AecDbVarsArchBase
  3
AecArchBase50|Product Desc: Autodesk Architectural Desktop 2007 |Company: Autodesk,Inc. |WEB Address: www.autodesk.com
 90
    32897
280
     0
281
     0
  0
CLASS
  1
AEC_VARS_MUNICH
  2
AecDbVarsMunich
  3
AecArchDACHBase50|Product Desc: Autodesk Architectural Desktop 2007 |Company: Autodesk,Inc. |WEB Address: www.autodesk.com
 90
    32897
280
     0
281
     0
  0
CLASS
  1
AEC_NOTIFICATION_TRACKER
  2
AecDbNotificationTracker
  3
AecBase50|Product Desc: Autodesk Architectural Desktop 2007 |Company: Autodesk,Inc. |WEB Address: www.autodesk.com
 90
    32897
280
     0
281
     0
  0
CLASS
  1
AEC_DISP_REP_ANCHOR
  2
AecDbDispRepAnchor
  3
AecBase50|Product Desc: Autodesk Architectural Desktop 2007 |Company: Autodesk,Inc. |WEB Address: www.autodesk.com
 90
    32897
280
     0
281
     0
  0
CLASS
  1
AEC_DISP_REP_POLYGON_TRUECOLOUR
  2
AecDbDispRepPolygonTrueColour
  3
AecBaseEx50|Product Desc: Autodesk Architectural Desktop 2007 |Company: Autodesk,Inc. |WEB Address: www.autodesk.com
 90
    32897
280
     0
281
     0
  0
CLASS
  1
AEC_DISP_PROPS_POLYGON_TRUECOLOUR
  2
AecDbDispPropsPolygonTrueColour
  3
AecBaseEx50|Product Desc: Autodesk Architectural Desktop 2007 |Company: Autodesk,Inc. |WEB Address: www.autodesk.com
 90
    32897
280
     0
281
     0
  0
CLASS
  1
AEC_DISP_REP_BDG_ELEVLINE_RCP
  2
AecDbDispRepBdgElevLineRcp
  3
AecArchBase50|Product Desc: Autodesk Architectural Desktop 2007 |Company: Autodesk,Inc. |WEB Address: www.autodesk.com
 90
    32897
280
     0
281
     0
  0
CLASS
  1
AEC_DISP_REP_BDG_SECTIONLINE_RCP
  2
AecDbDispRepBdgSectionLineRcp
  3
AecArchBase50|Product Desc: Autodesk Architectural Desktop 2007 |Company: Autodesk,Inc. |WEB Address: www.autodesk.com
 90
    32897
280
     0
281
     0
  0
CLASS
  1
AEC_DISP_REP_BDG_SECTION_MODEL
  2
AecDbDispRepBdgSectionModel
  3
AecArchBase50|Product Desc: Autodesk Architectural Desktop 2007 |Company: Autodesk,Inc. |WEB Address: www.autodesk.com
 90
    32897
280
     0
281
     0
  0
CLASS
  1
AEC_DISP_REP_DOOR_ELEV
  2
AecDbDispRepDoorElev
  3
AecArchBase50|Product Desc: Autodesk Architectural Desktop 2007 |Company: Autodesk,Inc. |WEB Address: www.autodesk.com
 90
    32897
280
     0
281
     0
  0
CLASS
  1
AEC_DISP_REP_DOOR_RCP
  2
AecDbDispRepDoorRcp
  3
AecArchBase50|Product Desc: Autodesk Architectural Desktop 2007 |Company: Autodesk,Inc. |WEB Address: www.autodesk.com
 90
    32897
280
     0
281
     0
  0
CLASS
  1
AEC_DISP_REP_DOOR_THRESHOLD_PLAN
  2
AecDbDispRepDoorThresholdPlan
  3
AecArchBase50|Product Desc: Autodesk Architectural Desktop 2007 |Company: Autodesk,Inc. |WEB Address: www.autodesk.com
 90
    32897
280
     0
281
     0
  0
CLASS
  1
AEC_DISP_PROPS_DOOR_THRESHOLD_PLAN
  2
AecDbDispPropsDoorThresholdPlan
  3
AecArchBase50|Product Desc: Autodesk Architectural Desktop 2007 |Company: Autodesk,Inc. |WEB Address: www.autodesk.com
 90
    32897
280
     0
281
     0
  0
CLASS
  1
AEC_DISP_REP_MASS_ELEM_RCP
  2
AecDbDispRepMassElemRcp
  3
AecArchBase50|Product Desc: Autodesk Architectural Desktop 2007 |Company: Autodesk,Inc. |WEB Address: www.autodesk.com
 90
    32897
280
     0
281
     0
  0
CLASS
  1
AEC_DISP_REP_MASS_GROUP_RCP
  2
AecDbDispRepMassGroupRcp
  3
AecArchBase50|Product Desc: Autodesk Architectural Desktop 2007 |Company: Autodesk,Inc. |WEB Address: www.autodesk.com
 90
    32897
280
     0
281
     0
  0
CLASS
  1
AEC_DISP_REP_MVBLOCK_REF_RCP
  2
AecDbDispRepMvBlockRefRcp
  3
AecArchBase50|Product Desc: Autodesk Architectural Desktop 2007 |Company: Autodesk,Inc. |WEB Address: www.autodesk.com
 90
    32897
280
     0
281
     0
  0
CLASS
  1
AEC_DISP_REP_ROOF_RCP
  2
AecDbDispRepRoofRcp
  3
AecArchBase50|Product Desc: Autodesk Architectural Desktop 2007 |Company: Autodesk,Inc. |WEB Address: www.autodesk.com
 90
    32897
280
     0
281
     0
  0
CLASS
  1
AEC_DISP_REP_SPACE_BOUNDARY_DIAGRAM
  2
AecDbDispRepSpaceBoundaryDgrm
  3
AecArchBase50|Product Desc: Autodesk Architectural Desktop 2007 |Company: Autodesk,Inc. |WEB Address: www.autodesk.com
 90
    32897
280
     0
281
     0
  0
CLASS
  1
AEC_DISP_REP_SPACE_RCP
  2
AecDbDispRepSpaceRcp
  3
AecArchBase50|Product Desc: Autodesk Architectural Desktop 2007 |Company: Autodesk,Inc. |WEB Address: www.autodesk.com
 90
    32897
280
     0
281
     0
  0
CLASS
  1
AEC_DISP_REP_SPACE_VOLUME
  2
AecDbDispRepSpaceVolume
  3
AecArchBase50|Product Desc: Autodesk Architectural Desktop 2007 |Company: Autodesk,Inc. |WEB Address: www.autodesk.com
 90
    32897
280
     0
281
     0
  0
CLASS
  1
AEC_DISP_REP_STAIR_PLAN_OVERLAPPING
  2
AecDbDispRepStairPlanOverlapping
  3
AecArchBase50|Product Desc: Autodesk Architectural Desktop 2007 |Company: Autodesk,Inc. |WEB Address: www.autodesk.com
 90
    32897
280
     0
281
     0
  0
CLASS
  1
AEC_DISP_PROPS_STAIR_PLAN_OVERLAPPING
  2
AecDbDispPropsStairPlanOverlapping
  3
AecArchBase50|Product Desc: Autodesk Architectural Desktop 2007 |Company: Autodesk,Inc. |WEB Address: www.autodesk.com
 90
    32897
280
     0
281
     0
  0
CLASS
  1
AEC_DISP_REP_STAIR_RCP
  2
AecDbDispRepStairRcp
  3
AecArchBase50|Product Desc: Autodesk Architectural Desktop 2007 |Company: Autodesk,Inc. |WEB Address: www.autodesk.com
 90
    32897
280
     0
281
     0
  0
CLASS
  1
AEC_DISP_REP_WALL_RCP
  2
AecDbDispRepWallRcp
  3
AecArchBase50|Product Desc: Autodesk Architectural Desktop 2007 |Company: Autodesk,Inc. |WEB Address: www.autodesk.com
 90
    32897
280
     0
281
     0
  0
CLASS
  1
AEC_DISP_REP_WINDOWASSEMBLY_SILL_PLAN
  2
AecDbDispRepWindowAssemblySillPlan
  3
AecArchBase50|Product Desc: Autodesk Architectural Desktop 2007 |Company: Autodesk,Inc. |WEB Address: www.autodesk.com
 90
    32897
280
     0
281
     0
  0
CLASS
  1
AEC_DISP_PROPS_WINDOW_ASSEMBLY_SILL_PLAN
  2
AecDbDispPropsWindowAssemblySillPlan
  3
AecArchBase50|Product Desc: Autodesk Architectural Desktop 2007 |Company: Autodesk,Inc. |WEB Address: www.autodesk.com
 90
    32897
280
     0
281
     0
  0
CLASS
  1
AEC_DISP_REP_WINDOW_ELEV
  2
AecDbDispRepWindowElev
  3
AecArchBase50|Product Desc: Autodesk Architectural Desktop 2007 |Company: Autodesk,Inc. |WEB Address: www.autodesk.com
 90
    32897
280
     0
281
     0
  0
CLASS
  1
AEC_DISP_REP_WINDOW_RCP
  2
AecDbDispRepWindowRcp
  3
AecArchBase50|Product Desc: Autodesk Architectural Desktop 2007 |Company: Autodesk,Inc. |WEB Address: www.autodesk.com
 90
    32897
280
     0
281
     0
  0
CLASS
  1
AEC_DISP_REP_WINDOW_SILL_PLAN
  2
AecDbDispRepWindowSillPlan
  3
AecArchBase50|Product Desc: Autodesk Architectural Desktop 2007 |Company: Autodesk,Inc. |WEB Address: www.autodesk.com
 90
    32897
280
     0
281
     0
  0
CLASS
  1
AEC_DISP_PROPS_WINDOW_SILL_PLAN
  2
AecDbDispPropsWindowSillPlan
  3
AecArchBase50|Product Desc: Autodesk Architectural Desktop 2007 |Company: Autodesk,Inc. |WEB Address: www.autodesk.com
 90
    32897
280
     0
281
     0
  0
CLASS
  1
AEC_DISP_REP_ANCHOR_BUB_TO_GRID_RCP
  2
AecDbDispRepAnchorBubToGridRcp
  3
AecStructureBase50|Product Desc: Autodesk Architectural Desktop 2007 |Company: Autodesk,Inc. |WEB Address: www.autodesk.com
 90
    32897
280
     0
281
     0
  0
CLASS
  1
AEC_DISP_REP_COLUMN_GRID_RCP
  2
AecDbDispRepColumnGridRcp
  3
AecStructureBase50|Product Desc: Autodesk Architectural Desktop 2007 |Company: Autodesk,Inc. |WEB Address: www.autodesk.com
 90
    32897
280
     0
281
     0
  0
CLASS
  1
AECS_DISP_REP_MEMBER_ELEVATION_DESIGN
  2
AecsDbDispRepMemberElevationDesign
  3
AecStructureBase50|Product Desc: Autodesk Architectural Desktop 2007 |Company: Autodesk,Inc. |WEB Address: www.autodesk.com
 90
    32897
280
     0
281
     0
  0
CLASS
  1
AECS_DISP_PROPS_MEMBER_PROJECTED
  2
AecsDbDispPropsMemberProjected
  3
AecStructureBase50|Product Desc: Autodesk Architectural Desktop 2007 |Company: Autodesk,Inc. |WEB Address: www.autodesk.com
 90
    32897
280
     0
281
     0
  0
CLASS
  1
AECS_DISP_REP_MEMBER_ELEVATION_DETAIL
  2
AecsDbDispRepMemberElevationDetail
  3
AecStructureBase50|Product Desc: Autodesk Architectural Desktop 2007 |Company: Autodesk,Inc. |WEB Address: www.autodesk.com
 90
    32897
280
     0
281
     0
  0
CLASS
  1
AECS_DISP_REP_MEMBER_MODEL_DETAIL
  2
AecsDbDispRepMemberModelDetail
  3
AecStructureBase50|Product Desc: Autodesk Architectural Desktop 2007 |Company: Autodesk,Inc. |WEB Address: www.autodesk.com
 90
    32897
280
     0
281
     0
  0
CLASS
  1
AECS_DISP_REP_MEMBER_PLAN_DETAIL
  2
AecsDbDispRepMemberPlanDetail
  3
AecStructureBase50|Product Desc: Autodesk Architectural Desktop 2007 |Company: Autodesk,Inc. |WEB Address: www.autodesk.com
 90
    32897
280
     0
281
     0
  0
CLASS
  1
AECS_DISP_REP_MEMBER_PLAN_SKETCH
  2
AecsDbDispRepMemberPlanSketch
  3
AecStructureBase50|Product Desc: Autodesk Architectural Desktop 2007 |Company: Autodesk,Inc. |WEB Address: www.autodesk.com
 90
    32897
280
     0
281
     0
  0
CLASS
  1
AECS_DISP_PROPS_MEMBER_PLAN_SKETCH
  2
AecsDbDispPropsMemberPlanSketch
  3
AecStructureBase50|Product Desc: Autodesk Architectural Desktop 2007 |Company: Autodesk,Inc. |WEB Address: www.autodesk.com
 90
    32897
280
     0
281
     0
  0
CLASS
  1
AEC_AECDBDISPREPAREA100
  2
AecDbDispRepArea100
  3
AecArchDACHBase50|Product Desc: Autodesk Architectural Desktop 2007 |Company: Autodesk,Inc. |WEB Address: www.autodesk.com
 90
    32897
280
     0
281
     0
  0
CLASS
  1
AEC_AECDBDISPREPAREAGROUP100
  2
AecDbDispRepAreaGroup100
  3
AecArchDACHBase50|Product Desc: Autodesk Architectural Desktop 2007 |Company: Autodesk,Inc. |WEB Address: www.autodesk.com
 90
    32897
280
     0
281
     0
  0
CLASS
  1
AEC_AECDBDISPREPBDGELEVLINEPLAN100
  2
AecDbDispRepBdgElevLinePlan100
  3
AecArchDACHBase50|Product Desc: Autodesk Architectural Desktop 2007 |Company: Autodesk,Inc. |WEB Address: www.autodesk.com
 90
    32897
280
     0
281
     0
  0
CLASS
  1
AEC_AECDBDISPREPBDGSECTIONLINEPLAN100
  2
AecDbDispRepBdgSectionLinePlan100
  3
AecArchDACHBase50|Product Desc: Autodesk Architectural Desktop 2007 |Company: Autodesk,Inc. |WEB Address: www.autodesk.com
 90
    32897
280
     0
281
     0
  0
CLASS
  1
AEC_AECDBDISPREPCEILINGGRIDPLAN100
  2
AecDbDispRepCeilingGridPlan100
  3
AecArchDACHBase50|Product Desc: Autodesk Architectural Desktop 2007 |Company: Autodesk,Inc. |WEB Address: www.autodesk.com
 90
    32897
280
     0
281
     0
  0
CLASS
  1
AEC_AECDBDISPREPCOLUMNGRIDPLAN100
  2
AecDbDispRepColumnGridPlan100
  3
AecArchDACHBase50|Product Desc: Autodesk Architectural Desktop 2007 |Company: Autodesk,Inc. |WEB Address: www.autodesk.com
 90
    32897
280
     0
281
     0
  0
CLASS
  1
AEC_AECDBDISPREPCURTAINWALLLAYOUTPLAN100
  2
AecDbDispRepCurtainWallLayoutPlan100
  3
AecArchDACHBase50|Product Desc: Autodesk Architectural Desktop 2007 |Company: Autodesk,Inc. |WEB Address: www.autodesk.com
 90
    32897
280
     0
281
     0
  0
CLASS
  1
AEC_AECDBDISPREPCURTAINWALLUNITPLAN100
  2
AecDbDispRepCurtainWallUnitPlan100
  3
AecArchDACHBase50|Product Desc: Autodesk Architectural Desktop 2007 |Company: Autodesk,Inc. |WEB Address: www.autodesk.com
 90
    32897
280
     0
281
     0
  0
CLASS
  1
AEC_AECDBDISPREPMVBLOCKREFPLAN100
  2
AecDbDispRepMvBlockRefPlan100
  3
AecArchDACHBase50|Product Desc: Autodesk Architectural Desktop 2007 |Company: Autodesk,Inc. |WEB Address: www.autodesk.com
 90
    32897
280
     0
281
     0
  0
CLASS
  1
AEC_AECDBDISPREPROOFPLAN100
  2
AecDbDispRepRoofPlan100
  3
AecArchDACHBase50|Product Desc: Autodesk Architectural Desktop 2007 |Company: Autodesk,Inc. |WEB Address: www.autodesk.com
 90
    32897
280
     0
281
     0
  0
CLASS
  1
AEC_AECDBDISPREPROOFSLABPLAN100
  2
AecDbDispRepRoofSlabPlan100
  3
AecArchDACHBase50|Product Desc: Autodesk Architectural Desktop 2007 |Company: Autodesk,Inc. |WEB Address: www.autodesk.com
 90
    32897
280
     0
281
     0
  0
CLASS
  1
AEC_AECDBDISPREPSLABPLAN100
  2
AecDbDispRepSlabPlan100
  3
AecArchDACHBase50|Product Desc: Autodesk Architectural Desktop 2007 |Company: Autodesk,Inc. |WEB Address: www.autodesk.com
 90
    32897
280
     0
281
     0
  0
CLASS
  1
AEC_AECDBDISPREPSPACEBOUNDARYPLAN100
  2
AecDbDispRepSpaceBoundaryPlan100
  3
AecArchDACHBase50|Product Desc: Autodesk Architectural Desktop 2007 |Company: Autodesk,Inc. |WEB Address: www.autodesk.com
 90
    32897
280
     0
281
     0
  0
CLASS
  1
AEC_AECDBDISPREPSPACEPLAN100
  2
AecDbDispRepSpacePlan100
  3
AecArchDACHBase50|Product Desc: Autodesk Architectural Desktop 2007 |Company: Autodesk,Inc. |WEB Address: www.autodesk.com
 90
    32897
280
     0
281
     0
  0
CLASS
  1
AEC_AECDBDISPREPWALLPLAN100
  2
AecDbDispRepWallPlan100
  3
AecArchDACHBase50|Product Desc: Autodesk Architectural Desktop 2007 |Company: Autodesk,Inc. |WEB Address: www.autodesk.com
 90
    32897
280
     0
281
     0
  0
CLASS
  1
AEC_AECDBDISPREPAREA50
  2
AecDbDispRepArea50
  3
AecArchDACHBase50|Product Desc: Autodesk Architectural Desktop 2007 |Company: Autodesk,Inc. |WEB Address: www.autodesk.com
 90
    32897
280
     0
281
     0
  0
CLASS
  1
AEC_AECDBDISPREPAREAGROUP50
  2
AecDbDispRepAreaGroup50
  3
AecArchDACHBase50|Product Desc: Autodesk Architectural Desktop 2007 |Company: Autodesk,Inc. |WEB Address: www.autodesk.com
 90
    32897
280
     0
281
     0
  0
CLASS
  1
AEC_AECDBDISPREPBDGELEVLINEPLAN50
  2
AecDbDispRepBdgElevLinePlan50
  3
AecArchDACHBase50|Product Desc: Autodesk Architectural Desktop 2007 |Company: Autodesk,Inc. |WEB Address: www.autodesk.com
 90
    32897
280
     0
281
     0
  0
CLASS
  1
AEC_AECDBDISPREPBDGSECTIONLINEPLAN50
  2
AecDbDispRepBdgSectionLinePlan50
  3
AecArchDACHBase50|Product Desc: Autodesk Architectural Desktop 2007 |Company: Autodesk,Inc. |WEB Address: www.autodesk.com
 90
    32897
280
     0
281
     0
  0
CLASS
  1
AEC_AECDBDISPREPCEILINGGRIDPLAN50
  2
AecDbDispRepCeilingGridPlan50
  3
AecArchDACHBase50|Product Desc: Autodesk Architectural Desktop 2007 |Company: Autodesk,Inc. |WEB Address: www.autodesk.com
 90
    32897
280
     0
281
     0
  0
CLASS
  1
AEC_AECDBDISPREPCOLUMNGRIDPLAN50
  2
AecDbDispRepColumnGridPlan50
  3
AecArchDACHBase50|Product Desc: Autodesk Architectural Desktop 2007 |Company: Autodesk,Inc. |WEB Address: www.autodesk.com
 90
    32897
280
     0
281
     0
  0
CLASS
  1
AEC_AECDBDISPREPCURTAINWALLLAYOUTPLAN50
  2
AecDbDispRepCurtainWallLayoutPlan50
  3
AecArchDACHBase50|Product Desc: Autodesk Architectural Desktop 2007 |Company: Autodesk,Inc. |WEB Address: www.autodesk.com
 90
    32897
280
     0
281
     0
  0
CLASS
  1
AEC_AECDBDISPREPCURTAINWALLUNITPLAN50
  2
AecDbDispRepCurtainWallUnitPlan50
  3
AecArchDACHBase50|Product Desc: Autodesk Architectural Desktop 2007 |Company: Autodesk,Inc. |WEB Address: www.autodesk.com
 90
    32897
280
     0
281
     0
  0
CLASS
  1
AEC_AECDBDISPREPMVBLOCKREFPLAN50
  2
AecDbDispRepMvBlockRefPlan50
  3
AecArchDACHBase50|Product Desc: Autodesk Architectural Desktop 2007 |Company: Autodesk,Inc. |WEB Address: www.autodesk.com
 90
    32897
280
     0
281
     0
  0
CLASS
  1
AEC_AECDBDISPREPROOFPLAN50
  2
AecDbDispRepRoofPlan50
  3
AecArchDACHBase50|Product Desc: Autodesk Architectural Desktop 2007 |Company: Autodesk,Inc. |WEB Address: www.autodesk.com
 90
    32897
280
     0
281
     0
  0
CLASS
  1
AEC_AECDBDISPREPROOFSLABPLAN50
  2
AecDbDispRepRoofSlabPlan50
  3
AecArchDACHBase50|Product Desc: Autodesk Architectural Desktop 2007 |Company: Autodesk,Inc. |WEB Address: www.autodesk.com
 90
    32897
280
     0
281
     0
  0
CLASS
  1
AEC_AECDBDISPREPSLABPLAN50
  2
AecDbDispRepSlabPlan50
  3
AecArchDACHBase50|Product Desc: Autodesk Architectural Desktop 2007 |Company: Autodesk,Inc. |WEB Address: www.autodesk.com
 90
    32897
280
     0
281
     0
  0
CLASS
  1
AEC_AECDBDISPREPSPACEBOUNDARYPLAN50
  2
AecDbDispRepSpaceBoundaryPlan50
  3
AecArchDACHBase50|Product Desc: Autodesk Architectural Desktop 2007 |Company: Autodesk,Inc. |WEB Address: www.autodesk.com
 90
    32897
280
     0
281
     0
  0
CLASS
  1
AEC_AECDBDISPREPSPACEPLAN50
  2
AecDbDispRepSpacePlan50
  3
AecArchDACHBase50|Product Desc: Autodesk Architectural Desktop 2007 |Company: Autodesk,Inc. |WEB Address: www.autodesk.com
 90
    32897
280
     0
281
     0
  0
CLASS
  1
AEC_AECDBDISPREPWALLPLAN50
  2
AecDbDispRepWallPlan50
  3
AecArchDACHBase50|Product Desc: Autodesk Architectural Desktop 2007 |Company: Autodesk,Inc. |WEB Address: www.autodesk.com
 90
    32897
280
     0
281
     0
  0
CLASS
  1
AEC_AECDBDISPREPWINDOWASSEMBLYPLAN50
  2
AecDbDispRepWindowAssemblyPlan50
  3
AecArchDACHBase50|Product Desc: Autodesk Architectural Desktop 2007 |Company: Autodesk,Inc. |WEB Address: www.autodesk.com
 90
    32897
280
     0
281
     0
  0
CLASS
  1
AEC_DB_DISP_REP_DIM_GROUP_PLAN100
  2
AecDbDispRepDimGroupPlan100
  3
AecArchDACHBase50|Product Desc: Autodesk Architectural Desktop 2007 |Company: Autodesk,Inc. |WEB Address: www.autodesk.com
 90
    32897
280
     0
281
     0
  0
CLASS
  1
AEC_DB_DISP_REP_DIM_GROUP_PLAN50
  2
AecDbDispRepDimGroupPlan50
  3
AecArchDACHBase50|Product Desc: Autodesk Architectural Desktop 2007 |Company: Autodesk,Inc. |WEB Address: www.autodesk.com
 90
    32897
280
     0
281
     0
  0
CLASS
  1
AEC_DISP_REP_DOOR_PLAN_50
  2
AecDbDispRepDoorPlan50
  3
AecArchDACHBase50|Product Desc: Autodesk Architectural Desktop 2007 |Company: Autodesk,Inc. |WEB Address: www.autodesk.com
 90
    32897
280
     0
281
     0
  0
CLASS
  1
AEC_DISP_PROPS_DOOR_PLAN_50
  2
AecDbDispPropsDoorPlan50
  3
AecArchDACHBase50|Product Desc: Autodesk Architectural Desktop 2007 |Company: Autodesk,Inc. |WEB Address: www.autodesk.com
 90
    32897
280
     0
281
     0
  0
CLASS
  1
AEC_DISP_REP_DOOR_PLAN_HEKTO
  2
AecDbDispRepDoorPlanHekto
  3
AecArchDACHBase50|Product Desc: Autodesk Architectural Desktop 2007 |Company: Autodesk,Inc. |WEB Address: www.autodesk.com
 90
    32897
280
     0
281
     0
  0
CLASS
  1
AEC_DISP_PROPS_DOOR_PLAN_100
  2
AecDbDispPropsDoorPlan100
  3
AecArchDACHBase50|Product Desc: Autodesk Architectural Desktop 2007 |Company: Autodesk,Inc. |WEB Address: www.autodesk.com
 90
    32897
280
     0
281
     0
  0
CLASS
  1
AEC_DISP_REP_DOOR_THRESHOLD_SYMBOL_PLAN
  2
AecDbDispRepDoorThresholdSymbolPlan
  3
AecArchDACHBase50|Product Desc: Autodesk Architectural Desktop 2007 |Company: Autodesk,Inc. |WEB Address: www.autodesk.com
 90
    32897
280
     0
281
     0
  0
CLASS
  1
AEC_DISP_PROPS_DOOR_THRESHOLD_SYMBOL_PLAN
  2
AecDbDispPropsDoorThresholdSymbolPlan
  3
AecArchDACHBase50|Product Desc: Autodesk Architectural Desktop 2007 |Company: Autodesk,Inc. |WEB Address: www.autodesk.com
 90
    32897
280
     0
281
     0
  0
CLASS
  1
AEC_DISPREPAECDBDISPREPMASSELEMPLAN100
  2
AecDbDispRepMassElemPlan100
  3
AecArchDACHBase50|Product Desc: Autodesk Architectural Desktop 2007 |Company: Autodesk,Inc. |WEB Address: www.autodesk.com
 90
    32897
280
     0
281
     0
  0
CLASS
  1
AEC_DISPROPSMASSELEMPLANCOMMON
  2
AecDbDispPropsMassElemPlanCommon
  3
AecArchDACHBase50|Product Desc: Autodesk Architectural Desktop 2007 |Company: Autodesk,Inc. |WEB Address: www.autodesk.com
 90
    32897
280
     0
281
     0
  0
CLASS
  1
AEC_DISPREPAECDBDISPREPMASSELEMPLAN50
  2
AecDbDispRepMassElemPlan50
  3
AecArchDACHBase50|Product Desc: Autodesk Architectural Desktop 2007 |Company: Autodesk,Inc. |WEB Address: www.autodesk.com
 90
    32897
280
     0
281
     0
  0
CLASS
  1
AEC_DISPREPAECDBDISPREPMASSGROUPPLAN100
  2
AecDbDispRepMassGroupPlan100
  3
AecArchDACHBase50|Product Desc: Autodesk Architectural Desktop 2007 |Company: Autodesk,Inc. |WEB Address: www.autodesk.com
 90
    32897
280
     0
281
     0
  0
CLASS
  1
AEC_DISPROPSMASSGROUPPLANCOMMON
  2
AecDbDispPropsMassGroupPlanCommon
  3
AecArchDACHBase50|Product Desc: Autodesk Architectural Desktop 2007 |Company: Autodesk,Inc. |WEB Address: www.autodesk.com
 90
    32897
280
     0
281
     0
  0
CLASS
  1
AEC_DISPREPAECDBDISPREPMASSGROUPPLAN50
  2
AecDbDispRepMassGroupPlan50
  3
AecArchDACHBase50|Product Desc: Autodesk Architectural Desktop 2007 |Company: Autodesk,Inc. |WEB Address: www.autodesk.com
 90
    32897
280
     0
281
     0
  0
CLASS
  1
AEC_DISPREPAECDBDISPREPOPENINGPLAN100
  2
AecDbDispRepOpeningPlan100
  3
AecArchDACHBase50|Product Desc: Autodesk Architectural Desktop 2007 |Company: Autodesk,Inc. |WEB Address: www.autodesk.com
 90
    32897
280
     0
281
     0
  0
CLASS
  1
AEC_DISPROPSOPENINGPLANCOMMONHATCHED
  2
AecDbDispPropsOpeningPlanCommonHatched
  3
AecArchDACHBase50|Product Desc: Autodesk Architectural Desktop 2007 |Company: Autodesk,Inc. |WEB Address: www.autodesk.com
 90
    32897
280
     0
281
     0
  0
CLASS
  1
AEC_DISPREPAECDBDISPREPOPENINGPLAN50
  2
AecDbDispRepOpeningPlan50
  3
AecArchDACHBase50|Product Desc: Autodesk Architectural Desktop 2007 |Company: Autodesk,Inc. |WEB Address: www.autodesk.com
 90
    32897
280
     0
281
     0
  0
CLASS
  1
AEC_DISPREPAECDBDISPREPOPENINGPLANREFLECTED
  2
AecDbDispRepOpeningPlanReflected
  3
AecArchDACHBase50|Product Desc: Autodesk Architectural Desktop 2007 |Company: Autodesk,Inc. |WEB Address: www.autodesk.com
 90
    32897
280
     0
281
     0
  0
CLASS
  1
AEC_DISPROPSOPENINGPLANCOMMON
  2
AecDbDispPropsOpeningPlanCommon
  3
AecArchDACHBase50|Product Desc: Autodesk Architectural Desktop 2007 |Company: Autodesk,Inc. |WEB Address: www.autodesk.com
 90
    32897
280
     0
281
     0
  0
CLASS
  1
AEC_DISPREPAECDBDISPREPOPENINGSILLPLAN
  2
AecDbDispRepOpeningSillPlan
  3
AecArchDACHBase50|Product Desc: Autodesk Architectural Desktop 2007 |Company: Autodesk,Inc. |WEB Address: www.autodesk.com
 90
    32897
280
     0
281
     0
  0
CLASS
  1
AEC_DISPROPSOPENINGSILLPLAN
  2
AecDbDispPropsOpeningSillPlan
  3
AecArchDACHBase50|Product Desc: Autodesk Architectural Desktop 2007 |Company: Autodesk,Inc. |WEB Address: www.autodesk.com
 90
    32897
280
     0
281
     0
  0
CLASS
  1
AEC_DISP_REP_RAILING_PLAN_100
  2
AecDbDispRepRailingPlan100
  3
AecArchDACHBase50|Product Desc: Autodesk Architectural Desktop 2007 |Company: Autodesk,Inc. |WEB Address: www.autodesk.com
 90
    32897
280
     0
281
     0
  0
CLASS
  1
AEC_DISP_ROPS_RAILING_PLAN_100
  2
AecDbDispPropsRailingPlan100
  3
AecArchDACHBase50|Product Desc: Autodesk Architectural Desktop 2007 |Company: Autodesk,Inc. |WEB Address: www.autodesk.com
 90
    32897
280
     0
281
     0
  0
CLASS
  1
AEC_DISP_REP_RAILING_PLAN_50
  2
AecDbDispRepRailingPlan50
  3
AecArchDACHBase50|Product Desc: Autodesk Architectural Desktop 2007 |Company: Autodesk,Inc. |WEB Address: www.autodesk.com
 90
    32897
280
     0
281
     0
  0
CLASS
  1
AEC_DISP_ROPS_RAILING_PLAN_50
  2
AecDbDispPropsRailingPlan50
  3
AecArchDACHBase50|Product Desc: Autodesk Architectural Desktop 2007 |Company: Autodesk,Inc. |WEB Address: www.autodesk.com
 90
    32897
280
     0
281
     0
  0
CLASS
  1
AEC_DISP_REP_STAIR_PLAN_100
  2
AecDbDispRepStairPlan100
  3
AecArchDACHBase50|Product Desc: Autodesk Architectural Desktop 2007 |Company: Autodesk,Inc. |WEB Address: www.autodesk.com
 90
    32897
280
     0
281
     0
  0
CLASS
  1
AEC_DISP_ROPS_STAIR_PLAN_100
  2
AecDbDispPropsStairPlan100
  3
AecArchDACHBase50|Product Desc: Autodesk Architectural Desktop 2007 |Company: Autodesk,Inc. |WEB Address: www.autodesk.com
 90
    32897
280
     0
281
     0
  0
CLASS
  1
AEC_DISP_REP_STAIR_PLAN_50
  2
AecDbDispRepStairPlan50
  3
AecArchDACHBase50|Product Desc: Autodesk Architectural Desktop 2007 |Company: Autodesk,Inc. |WEB Address: www.autodesk.com
 90
    32897
280
     0
281
     0
  0
CLASS
  1
AEC_DISP_ROPS_STAIR_PLAN_50
  2
AecDbDispPropsStairPlan50
  3
AecArchDACHBase50|Product Desc: Autodesk Architectural Desktop 2007 |Company: Autodesk,Inc. |WEB Address: www.autodesk.com
 90
    32897
280
     0
281
     0
  0
CLASS
  1
AEC_DISP_REP_WINDOW_PLAN_100
  2
AecDbDispRepWindowPlan100
  3
AecArchDACHBase50|Product Desc: Autodesk Architectural Desktop 2007 |Company: Autodesk,Inc. |WEB Address: www.autodesk.com
 90
    32897
280
     0
281
     0
  0
CLASS
  1
AEC_DISP_PROPS_WINDOW_PLAN_100
  2
AecDbDispPropsWindowPlan100
  3
AecArchDACHBase50|Product Desc: Autodesk Architectural Desktop 2007 |Company: Autodesk,Inc. |WEB Address: www.autodesk.com
 90
    32897
280
     0
281
     0
  0
CLASS
  1
AEC_DISP_REP_WINDOW_PLAN_50
  2
AecDbDispRepWindowPlan50
  3
AecArchDACHBase50|Product Desc: Autodesk Architectural Desktop 2007 |Company: Autodesk,Inc. |WEB Address: www.autodesk.com
 90
    32897
280
     0
281
     0
  0
CLASS
  1
AEC_DISP_PROPS_WINDOW_PLAN_50
  2
AecDbDispPropsWindowPlan50
  3
AecArchDACHBase50|Product Desc: Autodesk Architectural Desktop 2007 |Company: Autodesk,Inc. |WEB Address: www.autodesk.com
 90
    32897
280
     0
281
     0
  0
CLASS
  1
BINRECORD
  2
AcAecBinRecord
  3
AecBase50|Product Desc: Autodesk Architectural Desktop 2007 |Company: Autodesk,Inc. |WEB Address: www.autodesk.com
 90
    32897
280
     0
281
     0
  0
CLASS
  1
SORTENTSTABLE
  2
AcDbSortentsTable
  3
ObjectDBX Classes
 90
        0
280
     0
281
     0
  0
CLASS
  1
AEC_MASS_ELEM
  2
AecDbMassElem
  3
AecBaseEx50|Product Desc: Autodesk Architectural Desktop 2007 |Company: Autodesk,Inc. |WEB Address: www.autodesk.com
 90
    33661
280
     0
281
     1
  0
CLASS
  1
MATERIAL
  2
AcDbMaterial
  3
ObjectDBX Classes
 90
     1153
280
     0
281
     0
  0
CLASS
  1
AECS_MEMBER
  2
AecsDbMember
  3
AecStructureBase50|Product Desc: Autodesk Architectural Desktop 2007 |Company: Autodesk,Inc. |WEB Address: www.autodesk.com
 90
    33661
280
     0
281
     1
  0
CLASS
  1
AEC_WALL
  2
AecDbWall
  3
AecArchBase50|Product Desc: Autodesk Architectural Desktop 2007 |Company: Autodesk,Inc. |WEB Address: www.autodesk.com
 90
    33661
280
     0
281
     1
  0
CLASS
  1
AEC_DOOR
  2
AecDbDoor
  3
AecArchBase50|Product Desc: Autodesk Architectural Desktop 2007 |Company: Autodesk,Inc. |WEB Address: www.autodesk.com
 90
    33661
280
     0
281
     1
  0
CLASS
  1
AEC_ANCHOR_OPENINGBASE_TO_WALL
  2
AecDbAnchorOpeningBaseToWall
  3
AecArchBase50|Product Desc: Autodesk Architectural Desktop 2007 |Company: Autodesk,Inc. |WEB Address: www.autodesk.com
 90
    32897
280
     0
281
     0
  0
CLASS
  1
AEC_SPACE_BOUNDARY
  2
AecDbSpaceBoundary
  3
AecArchBase50|Product Desc: Autodesk Architectural Desktop 2007 |Company: Autodesk,Inc. |WEB Address: www.autodesk.com
 90
    33661
280
     0
281
     1
  0
CLASS
  1
AEC_SPACE
  2
AecDbSpace
  3
AecArchBase50|Product Desc: Autodesk Architectural Desktop 2007 |Company: Autodesk,Inc. |WEB Address: www.autodesk.com
 90
    33661
280
     0
281
     1
  0
CLASS
  1
AecDbPropertySet
  2
AecDbPropertySet
  3
AecScheduleData50|Product Desc: Autodesk Architectural Desktop 2007 |Company: Autodesk,Inc. |WEB Address: www.autodesk.com
 90
    32897
280
     0
281
     0
  0
CLASS
  1
AEC_MVBLOCK_REF
  2
AecDbMvBlockRef
  3
AecBase50|Product Desc: Autodesk Architectural Desktop 2007 |Company: Autodesk,Inc. |WEB Address: www.autodesk.com
 90
    33661
280
     0
281
     1
  0
CLASS
  1
AEC_ANCHOR_TAG_TO_ENT
  2
AecDbAnchorTagToEnt
  3
AecScheduleData50|Product Desc: Autodesk Architectural Desktop 2007 |Company: Autodesk,Inc. |WEB Address: www.autodesk.com
 90
    32897
280
     0
281
     0
  0
CLASS
  1
AEC_WINDOW
  2
AecDbWindow
  3
AecArchBase50|Product Desc: Autodesk Architectural Desktop 2007 |Company: Autodesk,Inc. |WEB Address: www.autodesk.com
 90
    33661
280
     0
281
     1
  0
CLASS
  1
AEC_OPENING
  2
AecDbOpening
  3
AecArchBase50|Product Desc: Autodesk Architectural Desktop 2007 |Company: Autodesk,Inc. |WEB Address: www.autodesk.com
 90
    33661
280
     0
281
     1
  0
CLASS
  1
AEC_CLASSIFICATION_SYSTEM_DEF
  2
AecDbClassificationSystemDef
  3
AecBase50|Product Desc: Autodesk Architectural Desktop 2007 |Company: Autodesk,Inc. |WEB Address: www.autodesk.com
 90
    32897
280
     0
281
     0
  0
CLASS
  1
AEC_CLASSIFICATION_DEF
  2
AecDbClassificationDef
  3
AecBase50|Product Desc: Autodesk Architectural Desktop 2007 |Company: Autodesk,Inc. |WEB Address: www.autodesk.com
 90
    32897
280
     0
281
     0
  0
CLASS
  1
AEC_CLEANUP_GROUP_DEF
  2
AecDbCleanupGroupDef
  3
AecArchBase50|Product Desc: Autodesk Architectural Desktop 2007 |Company: Autodesk,Inc. |WEB Address: www.autodesk.com
 90
    32897
280
     0
281
     0
  0
CLASS
  1
AEC_DOOR_STYLE
  2
AecDbDoorStyle
  3
AecArchBase50|Product Desc: Autodesk Architectural Desktop 2007 |Company: Autodesk,Inc. |WEB Address: www.autodesk.com
 90
    32897
280
     0
281
     0
  0
CLASS
  1
AEC_STDSIZE_OPENINGS
  2
AecDbStdSizeOpeningList
  3
AecArchBase50|Product Desc: Autodesk Architectural Desktop 2007 |Company: Autodesk,Inc. |WEB Address: www.autodesk.com
 90
    32897
280
     0
281
     0
  0
CLASS
  1
AEC_ENDCAP_STYLE
  2
AecDbEndcapStyle
  3
AecArchBase50|Product Desc: Autodesk Architectural Desktop 2007 |Company: Autodesk,Inc. |WEB Address: www.autodesk.com
 90
    32897
280
     0
281
     0
  0
CLASS
  1
AEC_MASS_ELEM_STYLE
  2
AecDbMassElemStyle
  3
AecBaseEx50|Product Desc: Autodesk Architectural Desktop 2007 |Company: Autodesk,Inc. |WEB Address: www.autodesk.com
 90
    32897
280
     0
281
     0
  0
CLASS
  1
AEC_MATERIAL_DEF
  2
AecDbMaterialDef
  3
AecBase50|Product Desc: Autodesk Architectural Desktop 2007 |Company: Autodesk,Inc. |WEB Address: www.autodesk.com
 90
    32897
280
     0
281
     0
  0
CLASS
  1
AEC_MVBLOCK_DEF
  2
AecDbMvBlockDef
  3
AecBase50|Product Desc: Autodesk Architectural Desktop 2007 |Company: Autodesk,Inc. |WEB Address: www.autodesk.com
 90
    32897
280
     0
281
     0
  0
CLASS
  1
AEC_FRAME_DEF
  2
AecDbOpeningEndcapStyle
  3
AecArchBase50|Product Desc: Autodesk Architectural Desktop 2007 |Company: Autodesk,Inc. |WEB Address: www.autodesk.com
 90
    32897
280
     0
281
     0
  0
CLASS
  1
AEC_PROFILE_DEF
  2
AecDbProfileDef
  3
AecBase50|Product Desc: Autodesk Architectural Desktop 2007 |Company: Autodesk,Inc. |WEB Address: www.autodesk.com
 90
    32897
280
     0
281
     0
  0
CLASS
  1
AEC_SCHEDULE_DATA_FORMAT
  2
AecDbScheduleDataFormat
  3
AecScheduleData50|Product Desc: Autodesk Architectural Desktop 2007 |Company: Autodesk,Inc. |WEB Address: www.autodesk.com
 90
    32897
280
     0
281
     0
  0
CLASS
  1
AEC_PROPERTY_SET_DEF
  2
AecDbPropertySetDef
  3
AecScheduleData50|Product Desc: Autodesk Architectural Desktop 2007 |Company: Autodesk,Inc. |WEB Address: www.autodesk.com
 90
    32897
280
     0
281
     0
  0
CLASS
  1
AEC_SPACE_STYLES
  2
AecDbSpaceStyle
  3
AecArchBase50|Product Desc: Autodesk Architectural Desktop 2007 |Company: Autodesk,Inc. |WEB Address: www.autodesk.com
 90
    32897
280
     0
281
     0
  0
CLASS
  1
AEC_TEXT_NOTE
  2
AecDbTextNote
  3
AecBase50|Product Desc: Autodesk Architectural Desktop 2007 |Company: Autodesk,Inc. |WEB Address: www.autodesk.com
 90
    32897
280
     0
281
     0
  0
CLASS
  1
AECS_MEMBER_STYLE
  2
AecsDbMemberStyle
  3
AecStructureBase50|Product Desc: Autodesk Architectural Desktop 2007 |Company: Autodesk,Inc. |WEB Address: www.autodesk.com
 90
    32897
280
     0
281
     0
  0
CLASS
  1
AEC_VARS_STRUCTUREBASE
  2
AecsDbVarsStructureBase
  3
AecStructureBase50|Product Desc: Autodesk Architectural Desktop 2007 |Company: Autodesk,Inc. |WEB Address: www.autodesk.com
 90
    32897
280
     0
281
     0
  0
CLASS
  1
AEC_WALL_STYLE
  2
AecDbWallStyle
  3
AecArchBase50|Product Desc: Autodesk Architectural Desktop 2007 |Company: Autodesk,Inc. |WEB Address: www.autodesk.com
 90
    32897
280
     0
281
     0
  0
CLASS
  1
AEC_WINDOW_STYLE
  2
AecDbWindowStyle
  3
AecArchBase50|Product Desc: Autodesk Architectural Desktop 2007 |Company: Autodesk,Inc. |WEB Address: www.autodesk.com
 90
    32897
280
     0
281
     0
  0
CLASS
  1
AECS_MEMBER_NODE_SHAPE
  2
AecsDbMemberNodeShape
  3
AecStructureBase50|Product Desc: Autodesk Architectural Desktop 2007 |Company: Autodesk,Inc. |WEB Address: www.autodesk.com
 90
    32897
280
     0
281
     0
  0
CLASS
  1
AEC_SCHEDULE_TABLE
  2
AecDbScheduleTable
  3
AecSchedule50|Product Desc: Autodesk Architectural Desktop 2007 |Company: Autodesk,Inc. |WEB Address: www.autodesk.com
 90
    33661
280
     0
281
     1
  0
CLASS
  1
AEC_SCHEDULE_TABLE_STYLE
  2
AecDbScheduleTableStyle
  3
AecSchedule50|Product Desc: Autodesk Architectural Desktop 2007 |Company: Autodesk,Inc. |WEB Address: www.autodesk.com
 90
    32897
280
     0
281
     0
  0
CLASS
  1
AEC_ANCHOR_MVB_TO_UCS
  2
AecDbAnchorMVBToUCS
  3
AecBase50|Product Desc: Autodesk Architectural Desktop 2007 |Company: Autodesk,Inc. |WEB Address: www.autodesk.com
 90
    32897
280
     0
281
     0
  0
CLASS
  1
IMAGEDEF
  2
AcDbRasterImageDef
  3
ISM
 90
    32768
280
     0
281
     0
  0
CLASS
  1
AEC_ANCHOR_ENT_TO_GRID_ASSEMBLY
  2
AecDbAnchorEntToGridAssembly
  3
AecBaseEx50|Product Desc: Autodesk Architectural Desktop 2007 |Company: Autodesk,Inc. |WEB Address: www.autodesk.com
 90
    32897
280
     0
281
     0
  0
CLASS
  1
AEC_WINDOW_ASSEMBLY
  2
AecDbWindowAssembly
  3
AecArchBase50|Product Desc: Autodesk Architectural Desktop 2007 |Company: Autodesk,Inc. |WEB Address: www.autodesk.com
 90
    33661
280
     0
281
     1
  0
CLASS
  1
AEC_ANCHOR_WINASSEMBLY_TO_WALL
  2
AecDbAnchorWinAssemblyToWall
  3
AecArchBase50|Product Desc: Autodesk Architectural Desktop 2007 |Company: Autodesk,Inc. |WEB Address: www.autodesk.com
 90
    32897
280
     0
281
     0
  0
CLASS
  1
AEC_STAIR
  2
AecDbStair
  3
AecArchBase50|Product Desc: Autodesk Architectural Desktop 2007 |Company: Autodesk,Inc. |WEB Address: www.autodesk.com
 90
    33661
280
     0
281
     1
  0
CLASS
  1
AEC_RAILING
  2
AecDbRailing
  3
AecArchBase50|Product Desc: Autodesk Architectural Desktop 2007 |Company: Autodesk,Inc. |WEB Address: www.autodesk.com
 90
    33661
280
     0
281
     1
  0
CLASS
  1
AEC_ANCHOR_RAILING_TO_STAIR
  2
AecDbAnchorRailingToStair
  3
AecArchBase50|Product Desc: Autodesk Architectural Desktop 2007 |Company: Autodesk,Inc. |WEB Address: www.autodesk.com
 90
    32897
280
     0
281
     0
  0
CLASS
  1
AEC_RAILING_STYLE
  2
AecDbRailingStyle
  3
AecArchBase50|Product Desc: Autodesk Architectural Desktop 2007 |Company: Autodesk,Inc. |WEB Address: www.autodesk.com
 90
    32897
280
     0
281
     0
  0
CLASS
  1
AEC_STAIR_STYLE
  2
AecDbStairStyle
  3
AecArchBase50|Product Desc: Autodesk Architectural Desktop 2007 |Company: Autodesk,Inc. |WEB Address: www.autodesk.com
 90
    32897
280
     0
281
     0
  0
CLASS
  1
AEC_STAIR_WINDER_STYLE
  2
AecDbStairWinderStyle
  3
AecArchBase50|Product Desc: Autodesk Architectural Desktop 2007 |Company: Autodesk,Inc. |WEB Address: www.autodesk.com
 90
    32897
280
     0
281
     0
  0
CLASS
  1
AEC_STAIR_WINDER_TYPE_SINGLE_POINT
  2
AecDbStairWinderTypeSinglePoint
  3
AecArchBase50|Product Desc: Autodesk Architectural Desktop 2007 |Company: Autodesk,Inc. |WEB Address: www.autodesk.com
 90
    32897
280
     0
281
     0
  0
CLASS
  1
AEC_WINDOW_ASSEMBLY_STYLE
  2
AecDbWindowAssemblyStyle
  3
AecArchBase50|Product Desc: Autodesk Architectural Desktop 2007 |Company: Autodesk,Inc. |WEB Address: www.autodesk.com
 90
    32897
280
     0
281
     0
  0
CLASS
  1
AEC_AECDBAREASTYLE
  2
AecDbAreaStyle
  3
AecAreaCalculationBase50|Product Desc: Autodesk Architectural Desktop 2007 |Company: Autodesk,Inc. |WEB Address: www.autodesk.com
 90
    32897
280
     0
281
     0
  0
CLASS
  1
AEC_AECDBAREAPROPOSALNAMES
  2
AecDbAreaProposalNames
  3
AecAreaCalculationBase50|Product Desc: Autodesk Architectural Desktop 2007 |Company: Autodesk,Inc. |WEB Address: www.autodesk.com
 90
    32897
280
     0
281
     0
  0
CLASS
  1
AEC_AREA
  2
AecDbArea
  3
AecAreaCalculationBase50|Product Desc: Autodesk Architectural Desktop 2007 |Company: Autodesk,Inc. |WEB Address: www.autodesk.com
 90
    33661
280
     0
281
     1
  0
CLASS
  1
OBJECT_PTR
  2
CAseDLPNTableRecord
  3
ASE-LPNTableRecord
 90
    32769
280
     0
281
     0
  0
CLASS
  1
TABLESTYLE
  2
AcDbTableStyle
  3
ObjectDBX Classes
 90
     4095
280
     0
281
     0
  0
CLASS
  1
AEC_DISP_REP_DISPLAYTHEME
  2
AecDbDispRepDisplayTheme
  3
AecBase50|Product Desc: Autodesk Architectural Desktop 2007 |Company: Autodesk,Inc. |WEB Address: www.autodesk.com
 90
    32897
280
     0
281
     0
  0
CLASS
  1
AEC_DISP_PROPS_DISPLAYTHEME
  2
AecDbDispPropsDisplayTheme
  3
AecBase50|Product Desc: Autodesk Architectural Desktop 2007 |Company: Autodesk,Inc. |WEB Address: www.autodesk.com
 90
    32897
280
     0
281
     0
  0
CLASS
  1
AEC_DISP_REP_ANCHOR_EXT_TAG_TO_ENT
  2
AecDbDispRepAnchorExtendedTagToEnt
  3
AecScheduleData50|Product Desc: Autodesk Architectural Desktop 2007 |Company: Autodesk,Inc. |WEB Address: www.autodesk.com
 90
    32897
280
     0
281
     0
  0
CLASS
  1
VISUALSTYLE
  2
AcDbVisualStyle
  3
ObjectDBX Classes
 90
     4095
280
     0
281
     0
  0
CLASS
  1
AEC_AECDBDISPREPZONE100
  2
AecDbDispRepZonePlan100
  3
AecArchDACHBase50|Product Desc: Autodesk Architectural Desktop 2007 |Company: Autodesk,Inc. |WEB Address: www.autodesk.com
 90
    32897
280
     0
281
     0
  0
CLASS
  1
AEC_DISP_PROPS_ZONE
  2
AecDbDispPropsZone
  3
AecArchBase50|Product Desc: Autodesk Architectural Desktop 2007 |Company: Autodesk,Inc. |WEB Address: www.autodesk.com
 90
    32897
280
     0
281
     0
  0
CLASS
  1
AEC_AECDBDISPREPZONE50
  2
AecDbDispRepZonePlan50
  3
AecArchDACHBase50|Product Desc: Autodesk Architectural Desktop 2007 |Company: Autodesk,Inc. |WEB Address: www.autodesk.com
 90
    32897
280
     0
281
     0
  0
CLASS
  1
AEC_DISP_REP_SPACE_DECOMPOSED
  2
AecDbDispRepSpaceDecomposed
  3
AecArchBase50|Product Desc: Autodesk Architectural Desktop 2007 |Company: Autodesk,Inc. |WEB Address: www.autodesk.com
 90
    32897
280
     0
281
     0
  0
CLASS
  1
AEC_DISP_PROPS_SPACE_DECOMPOSED
  2
AecDbDispPropsSpaceDecomposed
  3
AecArchBase50|Product Desc: Autodesk Architectural Desktop 2007 |Company: Autodesk,Inc. |WEB Address: www.autodesk.com
 90
    32897
280
     0
281
     0
  0
CLASS
  1
AEC_DISP_REP_ZONE
  2
AecDbDispRepZone
  3
AecArchBase50|Product Desc: Autodesk Architectural Desktop 2007 |Company: Autodesk,Inc. |WEB Address: www.autodesk.com
 90
    32897
280
     0
281
     0
  0
CLASS
  1
AEC_LIST_DEF
  2
AecDbListDefinition
  3
AecBase50|Product Desc: Autodesk Architectural Desktop 2007 |Company: Autodesk,Inc. |WEB Address: www.autodesk.com
 90
    32897
280
     0
281
     0
  0
CLASS
  1
EXACXREFPANELOBJECT
  2
ExAcXREFPanelObject
  3
EXAC_ESW
 90
    33793
280
     1
281
     0
  0
CLASS
  1
NPOCOLLECTION
  2
AcDbImpNonPersistentObjectsCollection
  3
ObjectDBX Classes
 90
     1153
280
     0
281
     0
  0
CLASS
  1
AEC_LIST_DEF
  2
AecDbListItem
  3
AecBase50|Product Desc: Autodesk Architectural Desktop 2007 |Company: Autodesk,Inc. |WEB Address: www.autodesk.com
 90
    32897
280
     0
281
     0
  0
CLASS
  1
AEC_ROOFSLAB_STYLE
  2
AecDbRoofSlabStyle
  3
AecArchBase50|Product Desc: Autodesk Architectural Desktop 2007 |Company: Autodesk,Inc. |WEB Address: www.autodesk.com
 90
    32897
280
     0
281
     0
  0
CLASS
  1
AEC_ROOFSLABEDGE_STYLE
  2
AecDbRoofSlabEdgeStyle
  3
AecArchBase50|Product Desc: Autodesk Architectural Desktop 2007 |Company: Autodesk,Inc. |WEB Address: www.autodesk.com
 90
    32897
280
     0
281
     0
  0
CLASS
  1
AEC_SLAB_STYLE
  2
AecDbSlabStyle
  3
AecArchBase50|Product Desc: Autodesk Architectural Desktop 2007 |Company: Autodesk,Inc. |WEB Address: www.autodesk.com
 90
    32897
280
     0
281
     0
  0
CLASS
  1
AEC_SLABEDGE_STYLE
  2
AecDbSlabEdgeStyle
  3
AecArchBase50|Product Desc: Autodesk Architectural Desktop 2007 |Company: Autodesk,Inc. |WEB Address: www.autodesk.com
 90
    32897
280
     0
281
     0
  0
CLASS
  1
ACAD_EVALUATION_GRAPH
  2
AcDbEvalGraph
  3
ObjectDBX Classes
 90
    33921
280
     0
281
     0
  0
CLASS
  1
BLOCKLINEARPARAMETER
  2
AcDbBlockLinearParameter
  3
ObjectDBX Classes
 90
    33921
280
     0
281
     0
  0
CLASS
  1
BLOCKMOVEACTION
  2
AcDbBlockMoveAction
  3
ObjectDBX Classes
 90
    33921
280
     0
281
     0
  0
CLASS
  1
BLOCKVISIBILITYPARAMETER
  2
AcDbBlockVisibilityParameter
  3
ObjectDBX Classes
 90
    33921
280
     0
281
     0
  0
CLASS
  1
BLOCKLOOKUPPARAMETER
  2
AcDbBlockLookupParameter
  3
ObjectDBX Classes
 90
    33921
280
     0
281
     0
  0
CLASS
  1
BLOCKLOOKUPGRIP
  2
AcDbBlockLookupGrip
  3
ObjectDBX Classes
 90
    33921
280
     0
281
     0
  0
CLASS
  1
BLOCKGRIPLOCATIONCOMPONENT
  2
AcDbBlockGripExpr
  3
ObjectDBX Classes
 90
    33921
280
     0
281
     0
  0
CLASS
  1
BLOCKLOOKUPACTION
  2
AcDbBlockLookupAction
  3
ObjectDBX Classes
 90
    33921
280
     0
281
     0
  0
CLASS
  1
ACDB_DYNAMICBLOCKPURGEPREVENTER_VERSION
  2
AcDbDynamicBlockPurgePreventer
  3
ObjectDBX Classes
 90
    33921
280
     0
281
     0
  0
CLASS
  1
ACDB_BLOCKREPRESENTATION_DATA
  2
AcDbBlockRepresentationData
  3
ObjectDBX Classes
 90
    33921
280
     0
281
     0
  0
CLASS
  1
SOLID_BACKGROUND
  2
AcDbSolidBackground
  3
SCENEOE
 90
    36863
280
     0
281
     0
  0
CLASS
  1
BLOCKLINEARGRIP
  2
AcDbBlockLinearGrip
  3
ObjectDBX Classes
 90
    33921
280
     0
281
     0
  0
CLASS
  1
BLOCKARRAYACTION
  2
AcDbBlockArrayAction
  3
ObjectDBX Classes
 90
    33921
280
     0
281
     0
  0
CLASS
  1
BLOCKSTRETCHACTION
  2
AcDbBlockStretchAction
  3
ObjectDBX Classes
 90
    33921
280
     0
281
     0
  0
CLASS
  1
BLOCKBASEPOINTPARAMETER
  2
AcDbBlockBasepointParameter
  3
ObjectDBX Classes
 90
    33921
280
     0
281
     0
  0
CLASS
  1
BLOCKFLIPPARAMETER
  2
AcDbBlockFlipParameter
  3
ObjectDBX Classes
 90
    33921
280
     0
281
     0
  0
CLASS
  1
BLOCKFLIPGRIP
  2
AcDbBlockFlipGrip
  3
ObjectDBX Classes
 90
    33921
280
     0
281
     0
  0
CLASS
  1
BLOCKFLIPACTION
  2
AcDbBlockFlipAction
  3
ObjectDBX Classes
 90
    33921
280
     0
281
     0
  0
CLASS
  1
DIMASSOC
  2
AcDbDimAssoc
  3
"AcDbDimAssoc|Product Desc:     AcDim ARX App For Dimension|Company:          Autodesk, Inc.|WEB Address:      www.autodesk.com"
 90
    32768
280
     0
281
     0
  0
CLASS
  1
SCALE
  2
AcDbScale
  3
ObjectDBX Classes
 90
     1153
280
     1
281
     0
  0
CLASS
  1
MLEADERSTYLE
  2
AcDbMLeaderStyle
  3
ACDB_MLEADERSTYLE_CLASS
 90
     4095
280
     1
281
     0
  0
CLASS
  1
CELLSTYLEMAP
  2
AcDbCellStyleMap
  3
ObjectDBX Classes
 90
     1152
280
     1
281
     0
  0
CLASS
  1
AEC_REFEDIT_STATUS_TRACKER
  2
AecDbRefEditStatusTracker
  3
AecArchBase50|Product Desc: Autodesk Architectural Desktop 2007 |Company: Autodesk,Inc. |WEB Address: www.autodesk.com
 90
      129
280
     1
281
     0
  0
ENDSEC
  0
SECTION
  2
TABLES
  0
TABLE
  2
VPORT
  5
28
330
0
100
AcDbSymbolTable
 70
     1
  0
VPORT
  5
29
330
28
100
AcDbSymbolTableRecord
100
AcDbViewportTableRecord
  2
*Active
 70
     0
 10
0.0
 20
0.0
 11
1.0
 21
1.0
 12
-7073.501088407545
 22
-10035.81269400482
 13
-3534.953416816247
 23
4038.000000000049
 14
1.0
 24
1.0
 15
1.0
 25
1.0
 16
0.0
 26
0.0
 36
1.0
 17
2068.755946002077
 27
2190.297917959126
 37
4259.053863961203
 40
52810.22802381159
 41
2.246612466124661
 42
50.0
 43
0.0
 44
0.0
 50
0.0
 51
0.0
 71
     0
 72
  2000
 73
     1
 74
     1
 75
     0
 76
     0
 77
     0
 78
     0
281
     0
 65
     1
110
0.0
120
0.0
130
0.0
111
1.0
121
0.0
131
0.0
112
0.0
122
1.0
132
0.0
 79
     0
146
0.0
  0
ENDTAB
  0
TABLE
  2
LTYPE
  5
23
330
0
100
AcDbSymbolTable
 70
     3
  0
LTYPE
  5
24
330
23
100
AcDbSymbolTableRecord
100
AcDbLinetypeTableRecord
  2
BYBLOCK
 70
     0
  3

 72
    65
 73
     0
 40
0.0
  0
LTYPE
  5
25
330
23
100
AcDbSymbolTableRecord
100
AcDbLinetypeTableRecord
  2
BYLAYER
 70
     0
  3

 72
    65
 73
     0
 40
0.0
  0
LTYPE
  5
E
330
23
100
AcDbSymbolTableRecord
100
AcDbLinetypeTableRecord
  2
CONTINUOUS
 70
     0
  3
Solid line
 72
    65
 73
     0
 40
0.0
  0
LTYPE
  5
E6
330
23
100
AcDbSymbolTableRecord
100
AcDbLinetypeTableRecord
  2
DASHED
 70
     0
  3
Dashed __ __ __ __ __ __ __ __ __ __ __ __ __ _
 72
    65
 73
     2
 40
0.75
 49
0.5
 74
     0
 49
-0.25
 74
     0
  0
LTYPE
  5
6E
330
23
100
AcDbSymbolTableRecord
100
AcDbLinetypeTableRecord
  2
HIDDEN
 70
     0
  3
Hidden __ __ __ __ __ __ __ __ __ __ __ __ __
 72
    65
 73
     2
 40
9.524999999999998
 49
6.349999999999999
 74
     0
 49
-3.174999999999999
 74
     0
  0
ENDTAB
  0
TABLE
  2
LAYER
  5
1D
102
{ACAD_XDICTIONARY
360
1E
102
}
330
0
100
AcDbSymbolTable
 70
    15
  0
LAYER
  5
6
102
{ACAD_XDICTIONARY
360
7
102
}
330
1D
100
AcDbSymbolTableRecord
100
AcDbLayerTableRecord
  2
0
 70
     0
 62
     7
  6
CONTINUOUS
370
    -3
390
9
1001
RAK
1000
{ACET-LAYISO
1070
     0
1070
     7
1000
CONTINUOUS
1070
     1
1071
       -3
1071
        1
1005
9
1000
ACET-LAYISO}
  0
LAYER
  5
69
102
{ACAD_XDICTIONARY
360
6A
102
}
330
1D
100
AcDbSymbolTableRecord
100
AcDbLayerTableRecord
  2
NAPISY
 70
     0
 62
   140
  6
CONTINUOUS
370
    -3
390
9
1001
RAK
1000
{ACET-LAYISO
1070
     0
1070
   140
1000
CONTINUOUS
1071
       -3
1071
        1
1005
9
1000
ACET-LAYISO}
  0
LAYER
  5
F2
330
1D
100
AcDbSymbolTableRecord
100
AcDbLayerTableRecord
  2
Defpoints
 70
     0
 62
     7
  6
CONTINUOUS
290
     0
370
    -3
390
9
1001
RAK
1000
{ACET-LAYISO
1070
     0
1070
     7
1000
CONTINUOUS
1071
       -3
1071
        0
1005
9
1000
ACET-LAYISO}
  0
LAYER
  5
5F
102
{ACAD_XDICTIONARY
360
60
102
}
330
1D
100
AcDbSymbolTableRecord
100
AcDbLayerTableRecord
  2
0Wymiary-PL
 70
     0
 62
     1
  6
CONTINUOUS
370
     5
390
9
  0
LAYER
  5
74
102
{ACAD_XDICTIONARY
360
75
102
}
330
1D
100
AcDbSymbolTableRecord
100
AcDbLayerTableRecord
  2
RAMKI-A4
 70
     0
 62
     2
  6
CONTINUOUS
290
     0
370
    -3
390
9
1001
RAK
1000
{ACET-LAYISO
1070
     0
1070
     2
1000
Continuous
1071
       -3
1071
        0
1005
9
1000
ACET-LAYISO}
  0
ENDTAB
  0
TABLE
  2
STYLE
  5
20
330
0
100
AcDbSymbolTable
 70
     4
  0
STYLE
  5
21
330
20
100
AcDbSymbolTableRecord
100
AcDbTextStyleTableRecord
  2
STANDARD
 70
     0
 40
0.0
 41
1.0
 50
0.0
 71
     0
 42
0.2
  3
txt
  4

  0
STYLE
  5
2E
330
20
100
AcDbSymbolTableRecord
100
AcDbTextStyleTableRecord
  2
ROMANS
 70
     0
 40
0.0
 41
0.9
 50
0.0
 71
     0
 42
5.0
  3
romans.shx
  4

  0
STYLE
  5
6C
330
20
100
AcDbSymbolTableRecord
100
AcDbTextStyleTableRecord
  2
AVA
 70
     0
 40
0.0
 41
1.0
 50
0.0
 71
     0
 42
158.5644099714409
  3
ARIAL.TTF
  4

1001
ACAD
1000
Arial CE
1071
    60962
  0
ENDTAB
  0
TABLE
  2
VIEW
  5
26
330
0
100
AcDbSymbolTable
 70
     1
  0
VIEW
  5
13
330
26
100
AcDbSymbolTableRecord
100
AcDbViewTableRecord
  2
10-ele
 70
     0
 40
2040.000000000001
 10
597.6361962217097
 20
4133.999999999996
 41
2803.999999999998
 11
0.0
 21
0.0
 31
1.0
 12
0.0
 22
0.0
 32
0.0
 42
50.0
 43
0.0
 44
0.0
 50
0.0
 71
     0
281
     0
 72
     1
110
0.0
120
0.0
130
0.0
111
1.0
121
0.0
131
0.0
112
0.0
122
1.0
132
0.0
 79
     0
146
0.0
  0
ENDTAB
  0
TABLE
  2
UCS
  5
27
330
0
100
AcDbSymbolTable
 70
     0
  0
ENDTAB
  0
TABLE
  2
APPID
  5
2A
330
0
100
AcDbSymbolTable
 70
    11
  0
APPID
  5
2B
330
2A
100
AcDbSymbolTableRecord
100
AcDbRegAppTableRecord
  2
ACAD
 70
     0
  0
APPID
  5
F
330
2A
100
AcDbSymbolTableRecord
100
AcDbRegAppTableRecord
  2
RAK
 70
     0
  0
APPID
  5
9E
330
2A
100
AcDbSymbolTableRecord
100
AcDbRegAppTableRecord
  2
AcAecLayerStandard
 70
     0
  0
APPID
  5
16
330
2A
100
AcDbSymbolTableRecord
100
AcDbRegAppTableRecord
  2
ACAD_PSEXT
 70
     0
  0
APPID
  5
BF
330
2A
100
AcDbSymbolTableRecord
100
AcDbRegAppTableRecord
  2
AEC_XDATA_BOUND_SPACE
 70
     0
  0
APPID
  5
2CB
330
2A
100
AcDbSymbolTableRecord
100
AcDbRegAppTableRecord
  2
DCO15
 70
     0
  0
APPID
  5
2E3
330
2A
100
AcDbSymbolTableRecord
100
AcDbRegAppTableRecord
  2
ACAD_EXEMPT_FROM_CAD_STANDARDS
 70
     0
  0
APPID
  5
2E4
330
2A
100
AcDbSymbolTableRecord
100
AcDbRegAppTableRecord
  2
ACAD_DSTYLE_DIM_LINETYPE
 70
     0
  0
APPID
  5
2E5
330
2A
100
AcDbSymbolTableRecord
100
AcDbRegAppTableRecord
  2
ACAD_DSTYLE_DIM_EXT1_LINETYPE
 70
     0
  0
APPID
  5
2E6
330
2A
100
AcDbSymbolTableRecord
100
AcDbRegAppTableRecord
  2
ACAD_DSTYLE_DIM_EXT2_LINETYPE
 70
     0
  0
APPID
  5
2FC
330
2A
100
AcDbSymbolTableRecord
100
AcDbRegAppTableRecord
  2
ACAD_MLEADERVER
 70
     0
  0
ENDTAB
  0
TABLE
  2
DIMSTYLE
  5
2C
330
0
100
AcDbSymbolTable
 70
     7
100
AcDbDimStyleTable
 71
     2
340
2D
340
3A
  0
DIMSTYLE
105
2D
330
2C
100
AcDbSymbolTableRecord
100
AcDbDimStyleTableRecord
  2
100-PR
 70
     0
 41
15.0
 42
43.0
 43
24.0
 44
13.0
 45
0.5
 46
12.0
 73
     0
 74
     0
 75
     1
 76
     1
 77
     1
 78
     8
140
30.0
141
0.0
145
1.0
147
12.0
172
     1
174
     1
176
     7
177
     1
178
   140
271
     1
272
     1
279
     2
340
2E
341
2F
342
34
371
     5
  0
DIMSTYLE
105
3A
102
{ACAD_REACTORS
330
EA
330
F6
330
18E
330
181
330
199
330
1A4
330
296
330
2A3
330
2AE
330
2B9
330
20A
330
215
102
}
330
2C
100
AcDbSymbolTableRecord
100
AcDbDimStyleTableRecord
  2
500
 70
     0
 41
30.0
 42
43.0
 43
0.0
 44
13.0
 45
0.5
 46
12.0
 73
     0
 74
     0
 75
     1
 76
     1
 78
    12
140
80.0
141
0.0
145
1.0
147
0.0
172
     1
174
     1
176
     1
177
     1
178
    10
271
     1
272
     1
279
     2
340
2E
341
3B
342
3B
  0
ENDTAB
  0
TABLE
  2
BLOCK_RECORD
  5
1
330
0
100
AcDbSymbolTable
 70
    32
  0
BLOCK_RECORD
  5
2
102
{ACAD_XDICTIONARY
360
3
102
}
330
1
100
AcDbSymbolTableRecord
100
AcDbBlockTableRecord
  2
*MODEL_SPACE
340
11
  0
BLOCK_RECORD
  5
17
330
1
100
AcDbSymbolTableRecord
100
AcDbBlockTableRecord
  2
*Paper_Space
340
1A
  0
BLOCK_RECORD
  5
3B
102
{ACAD_XDICTIONARY
360
3C
102
}
330
1
100
AcDbSymbolTableRecord
100
AcDbBlockTableRecord
  2
B-DIM
340
0
102
{BLKREFS
331
EE
331
EF
331
192
331
193
331
187
331
188
331
19D
331
19E
331
FA
331
FB
331
1A8
331
1A9
331
29C
331
29D
331
2A7
331
2A8
331
2B2
331
2B3
331
2BD
331
2BE
331
20E
331
20F
331
219
331
21A
331
32D
331
32E
331
337
331
338
331
341
331
342
331
34D
331
34E
331
357
331
358
331
361
331
362
331
36B
331
36C
331
375
331
376
331
37F
331
380
331
38B
331
38C
331
395
331
396
331
39F
331
3A0
102
}
  0
BLOCK_RECORD
  5
BB
330
1
100
AcDbSymbolTableRecord
100
AcDbBlockTableRecord
  2
linia_pozioma
340
0
310
2800000020000000200000000100080000000000000400000000000000000000000000000000000000000000000080000080000000808000800000008000800080800000C0C0C000C0DCC000F0CAA6000020400000206000002080000020A0000020C0000020E00000400000004020000040400000406000004080000040A0
310
000040C0000040E00000600000006020000060400000606000006080000060A0000060C0000060E00000800000008020000080400000806000008080000080A0000080C0000080E00000A0000000A0200000A0400000A0600000A0800000A0A00000A0C00000A0E00000C0000000C0200000C0400000C0600000C0800000C0
310
A00000C0C00000C0E00000E0000000E0200000E0400000E0600000E0800000E0A00000E0C00000E0E00040000000400020004000400040006000400080004000A0004000C0004000E00040200000402020004020400040206000402080004020A0004020C0004020E000404000004040200040404000404060004040800040
310
40A0004040C0004040E00040600000406020004060400040606000406080004060A0004060C0004060E00040800000408020004080400040806000408080004080A0004080C0004080E00040A0000040A0200040A0400040A0600040A0800040A0A00040A0C00040A0E00040C0000040C0200040C0400040C0600040C08000
310
40C0A00040C0C00040C0E00040E0000040E0200040E0400040E0600040E0800040E0A00040E0C00040E0E00080000000800020008000400080006000800080008000A0008000C0008000E00080200000802020008020400080206000802080008020A0008020C0008020E00080400000804020008040400080406000804080
310
008040A0008040C0008040E00080600000806020008060400080606000806080008060A0008060C0008060E00080800000808020008080400080806000808080008080A0008080C0008080E00080A0000080A0200080A0400080A0600080A0800080A0A00080A0C00080A0E00080C0000080C0200080C0400080C0600080C0
310
800080C0A00080C0C00080C0E00080E0000080E0200080E0400080E0600080E0800080E0A00080E0C00080E0E000C0000000C0002000C0004000C0006000C0008000C000A000C000C000C000E000C0200000C0202000C0204000C0206000C0208000C020A000C020C000C020E000C0400000C0402000C0404000C0406000C0
310
408000C040A000C040C000C040E000C0600000C0602000C0604000C0606000C0608000C060A000C060C000C060E000C0800000C0802000C0804000C0806000C0808000C080A000C080C000C080E000C0A00000C0A02000C0A04000C0A06000C0A08000C0A0A000C0A0C000C0A0E000C0C00000C0C02000C0C04000C0C06000
310
C0C08000C0C0A000F0FBFF00A4A0A000808080000000FF0000FF000000FFFF00FF000000FF00FF00FFFF0000FFFFFF0000000000000000000000000000000000000000000000000000000000000000000000000000000000000000000000000000000000000000000000000000000000000000000000000000000000000000
310
00000000000000000000000000000000000000000000000000000000000000000000000000000000000000000000000000000000000000000000000000000000000000000000000000000000000000000000000000000000000000000000000000000000000000000000000000000000000000000000000000000000000000
310
00000000000000000000000000000000000000000000000000000000000000000000000000000000000000000000000000000000000000000000000000000000000000000000000000000000000000000000000000000000000000000000000000000000000000000000000000000000000000000000000000000000000000
310
00000000000000000000000000000000000000000000000000000000000000000000000000000000000000000000000000000000000000000000000000000000000000000000000000000000000000000000000000000000000000000000000000000000000000000000000000000000000000000000000000000000000000
310
0000000000000000000000000000000000000000000000000000000000000000000000000000000000000000000000000000000000FFFFFFFFFFFFFFFFFFFFFFFFFFFFFFFFFFFFFFFFFFFFFFFFFFFFFFFFFFFF0000000000000000000000000000000000000000000000000000000000000000000000000000000000000000
310
00000000000000000000000000000000000000000000000000000000000000000000000000000000000000000000000000000000000000000000000000000000000000000000000000000000000000000000000000000000000000000000000000000000000000000000000000000000000000000000000000000000000000
310
00000000000000000000000000000000000000000000000000000000000000000000000000000000000000000000000000000000000000000000000000000000000000000000000000000000000000000000000000000000000000000000000000000000000000000000000000000000000000000000000000000000000000
310
00000000000000000000000000000000000000000000000000000000000000000000000000000000000000000000000000000000000000000000000000000000000000000000000000000000000000000000000000000000000000000000000000000000000000000000000000000000000000000000000000000000000000
310
0000000000000000000000000000000000000000000000000000000000000000000000000000000000000000000000000000000000000000
102
{BLKREFS
331
BA
331
1E3
102
}
  0
BLOCK_RECORD
  5
2F
330
1
100
AcDbSymbolTableRecord
100
AcDbBlockTableRecord
  2
_Dot
340
0
  0
BLOCK_RECORD
  5
34
330
1
100
AcDbSymbolTableRecord
100
AcDbBlockTableRecord
  2
B-DIM_K
340
0
310
2800000020000000200000000100080000000000000400000000000000000000000000000000000000000000000080000080000000808000800000008000800080800000C0C0C000C0DCC000F0CAA6000020400000206000002080000020A0000020C0000020E00000400000004020000040400000406000004080000040A0
310
000040C0000040E00000600000006020000060400000606000006080000060A0000060C0000060E00000800000008020000080400000806000008080000080A0000080C0000080E00000A0000000A0200000A0400000A0600000A0800000A0A00000A0C00000A0E00000C0000000C0200000C0400000C0600000C0800000C0
310
A00000C0C00000C0E00000E0000000E0200000E0400000E0600000E0800000E0A00000E0C00000E0E00040000000400020004000400040006000400080004000A0004000C0004000E00040200000402020004020400040206000402080004020A0004020C0004020E000404000004040200040404000404060004040800040
310
40A0004040C0004040E00040600000406020004060400040606000406080004060A0004060C0004060E00040800000408020004080400040806000408080004080A0004080C0004080E00040A0000040A0200040A0400040A0600040A0800040A0A00040A0C00040A0E00040C0000040C0200040C0400040C0600040C08000
310
40C0A00040C0C00040C0E00040E0000040E0200040E0400040E0600040E0800040E0A00040E0C00040E0E00080000000800020008000400080006000800080008000A0008000C0008000E00080200000802020008020400080206000802080008020A0008020C0008020E00080400000804020008040400080406000804080
310
008040A0008040C0008040E00080600000806020008060400080606000806080008060A0008060C0008060E00080800000808020008080400080806000808080008080A0008080C0008080E00080A0000080A0200080A0400080A0600080A0800080A0A00080A0C00080A0E00080C0000080C0200080C0400080C0600080C0
310
800080C0A00080C0C00080C0E00080E0000080E0200080E0400080E0600080E0800080E0A00080E0C00080E0E000C0000000C0002000C0004000C0006000C0008000C000A000C000C000C000E000C0200000C0202000C0204000C0206000C0208000C020A000C020C000C020E000C0400000C0402000C0404000C0406000C0
310
408000C040A000C040C000C040E000C0600000C0602000C0604000C0606000C0608000C060A000C060C000C060E000C0800000C0802000C0804000C0806000C0808000C080A000C080C000C080E000C0A00000C0A02000C0A04000C0A06000C0A08000C0A0A000C0A0C000C0A0E000C0C00000C0C02000C0C04000C0C06000
310
C0C08000C0C0A000F0FBFF00A4A0A000808080000000FF0000FF000000FFFF00FF000000FF00FF00FFFF0000FFFFFF0000000000000000000000000000000000000000000000000000000000000000000000000000000000000000000000000000000000000000000000000000000000000000000000000000000000000000
310
0000000000000000000000000000000000000000000000000000000000000000FF00000000000000000000000000000000000000000000000000000000000000FF00000000000000000000000000000000000000000000000000000000000000FF000000000000000000000000000000000000000000000000000000000000
310
00FF0000000000000000000000000000000000000000000000FF00000000000000FF000000000000000000000000000000000000000000000000FF000000000000FF00000000000000000000000000000000000000000000000000FF0000000000FF0000000000000000000000000000000000000000000000000000FF0000
310
0000FF000000000000000000000000000000000000000000000000000000FF000000FF00000000000000000000000000000000000000000000000000000000FF0000FF0000000000000000000000000000000000000000000000000000000000FF00FF00000000000000000000000000000000000000000000000000000000
310
0000FFFF00000000000000000000000000000000000000000000000000000000000000FF0000000000000000000000000000000000FFFFFFFFFFFFFFFFFFFFFFFFFFFFFFFFFFFFFFFFFFFFFFFFFFFFFFFFFF0000000000000000000000000000000000FF00FF00000000000000000000000000000000000000000000000000
310
00000000FF0000FF00000000000000000000000000000000000000000000000000000000FF000000FF000000000000000000000000000000000000000000000000000000FF00000000FF0000000000000000000000000000000000000000000000000000FF0000000000FF0000000000000000000000000000000000000000
310
0000000000FF000000000000FF000000000000000000000000000000000000000000000000FF00000000000000FF0000000000000000000000000000000000000000000000FF00000000000000000000000000000000000000000000000000000000000000FF00000000000000000000000000000000000000000000000000
310
000000000000FF00000000000000000000000000000000000000000000000000000000000000FF00000000000000000000000000000000000000000000000000000000000000000000000000000000000000000000000000000000000000000000000000000000000000000000000000000000000000000000000000000000
310
0000000000000000000000000000000000000000000000000000000000000000000000000000000000000000000000000000000000000000
1001
ACAD
1000
DesignCenter Data
1002
{
1070
     1
1070
     1
1002
}
  0
BLOCK_RECORD
  5
329
330
1
100
AcDbSymbolTableRecord
100
AcDbBlockTableRecord
  2
*D19
340
0
  0
BLOCK_RECORD
  5
333
330
1
100
AcDbSymbolTableRecord
100
AcDbBlockTableRecord
  2
*D20
340
0
  0
BLOCK_RECORD
  5
33D
330
1
100
AcDbSymbolTableRecord
100
AcDbBlockTableRecord
  2
*D21
340
0
  0
BLOCK_RECORD
  5
347
330
1
100
AcDbSymbolTableRecord
100
AcDbBlockTableRecord
  2
*D22
340
0
  0
BLOCK_RECORD
  5
353
330
1
100
AcDbSymbolTableRecord
100
AcDbBlockTableRecord
  2
*D23
340
0
  0
BLOCK_RECORD
  5
35D
330
1
100
AcDbSymbolTableRecord
100
AcDbBlockTableRecord
  2
*D24
340
0
  0
BLOCK_RECORD
  5
367
330
1
100
AcDbSymbolTableRecord
100
AcDbBlockTableRecord
  2
*D25
340
0
  0
BLOCK_RECORD
  5
371
330
1
100
AcDbSymbolTableRecord
100
AcDbBlockTableRecord
  2
*D26
340
0
  0
BLOCK_RECORD
  5
37B
330
1
100
AcDbSymbolTableRecord
100
AcDbBlockTableRecord
  2
*D27
340
0
  0
BLOCK_RECORD
  5
385
330
1
100
AcDbSymbolTableRecord
100
AcDbBlockTableRecord
  2
*D28
340
0
  0
BLOCK_RECORD
  5
391
330
1
100
AcDbSymbolTableRecord
100
AcDbBlockTableRecord
  2
*D29
340
0
  0
BLOCK_RECORD
  5
39B
330
1
100
AcDbSymbolTableRecord
100
AcDbBlockTableRecord
  2
*D30
340
0
  0
ENDTAB
  0
ENDSEC
  0
SECTION
  2
BLOCKS
  0
BLOCK
  5
5
330
2
100
AcDbEntity
  8
0
100
AcDbBlockBegin
  2
*MODEL_SPACE
 70
     0
 10
0.0
 20
0.0
 30
0.0
  3
*MODEL_SPACE
  1

  0
ENDBLK
  5
10
330
2
100
AcDbEntity
  8
0
100
AcDbBlockEnd
  0
BLOCK
  5
18
330
17
100
AcDbEntity
 67
     1
  8
0
 48
4.0
100
AcDbBlockBegin
  2
*Paper_Space
 70
     0
 10
0.0
 20
0.0
 30
0.0
  3
*Paper_Space
  1

  0
ENDBLK
  5
19
330
17
100
AcDbEntity
 67
     1
  8
0
 48
4.0
100
AcDbBlockEnd
  0
BLOCK
  5
3E
330
3B
100
AcDbEntity
  8
0
100
AcDbBlockBegin
  2
B-DIM
 70
     0
 10
0.0
 20
0.0
 30
0.0
  3
B-DIM
  1

  0
LINE
  5
3F
330
3B
100
AcDbEntity
  8
0
 62
     1
100
AcDbLine
 10
0.000000000000091
 20
-1.1
 30
0.0
 11
0.000000000000091
 21
1.1
 31
0.0
  0
LWPOLYLINE
  5
40
330
3B
100
AcDbEntity
  8
0
 62
     1
100
AcDbPolyline
 90
        2
 70
     0
 43
0.3
 10
-0.7071067811864851
 20
-0.7071067811864851
 10
0.707106781186576
 20
0.707106781186576
  0
LINE
  5
41
330
3B
100
AcDbEntity
  8
0
 62
     1
100
AcDbLine
 10
1.20000000000009
 20
0.0
 30
0.0
 11
-1.199999999999909
 21
0.0
 31
0.0
  0
ENDBLK
  5
42
330
3B
100
AcDbEntity
  8
0
100
AcDbBlockEnd
  0
BLOCK
  5
BC
330
BB
100
AcDbEntity
  8
0
100
AcDbBlockBegin
  2
linia_pozioma
 70
     0
 10
0.0
 20
0.0
 30
0.0
  3
linia_pozioma
  1

  0
LINE
  5
BD
330
BB
100
AcDbEntity
  8
0
100
AcDbLine
 10
0.0
 20
0.0
 30
0.0
 11
0.393701
 21
0.0
 31
0.0
  0
ENDBLK
  5
BE
330
BB
100
AcDbEntity
  8
0
100
AcDbBlockEnd
  0
BLOCK
  5
30
330
2F
100
AcDbEntity
  8
0
100
AcDbBlockBegin
  2
_Dot
 70
     0
 10
0.0
 20
0.0
 30
0.0
  3
_Dot
  1

  0
LWPOLYLINE
  5
31
330
2F
100
AcDbEntity
  8
0
  6
ByBlock
 62
     0
100
AcDbPolyline
 90
        2
 70
     1
 43
0.5
 10
-0.25
 20
0.0
 42
1.0
 10
0.25
 20
0.0
 42
1.0
  0
LINE
  5
32
330
2F
100
AcDbEntity
  8
0
  6
ByBlock
 62
     0
370
    -2
100
AcDbLine
 10
-0.5
 20
0.0
 30
0.0
 11
-1.0
 21
0.0
 31
0.0
  0
ENDBLK
  5
33
330
2F
100
AcDbEntity
  8
0
100
AcDbBlockEnd
  0
BLOCK
  5
35
330
34
100
AcDbEntity
  8
0
 48
4.0
100
AcDbBlockBegin
  2
B-DIM_K
 70
     0
 10
0.0
 20
0.0
 30
0.0
  3
B-DIM_K
  1

  0
LINE
  5
36
330
34
100
AcDbEntity
  8
0
 62
     7
100
AcDbLine
 10
-0.0000000000002274
 20
-1.100000000000363
 30
0.0
 11
-0.0000000000002274
 21
1.100000000000363
 31
0.0
  0
LWPOLYLINE
  5
37
330
34
100
AcDbEntity
  8
0
 62
     7
100
AcDbPolyline
 90
        2
 70
     0
 43
0.0
 10
-0.7071067811868943
 20
-0.707106781186667
 10
0.7071067811864396
 20
0.707106781186667
  0
LINE
  5
38
330
34
100
AcDbEntity
  8
0
 62
     7
100
AcDbLine
 10
1.200000000000045
 20
0.0
 30
0.0
 11
-1.200000000000045
 21
0.0
 31
0.0
  0
ENDBLK
  5
39
330
34
100
AcDbEntity
  8
0
 48
4.0
100
AcDbBlockEnd
  0
BLOCK
  5
32A
330
329
100
AcDbEntity
  8
0
 48
4.0
100
AcDbBlockBegin
  2
*D19
 70
     1
 10
0.0
 20
0.0
 30
0.0
  3
*D19
  1

  0
LINE
  5
32C
330
329
100
AcDbEntity
  8
0
 62
     1
370
    -2
100
AcDbLine
 10
5987.796741683349
 20
-19555.70004894779
 30
0.0
 11
5987.796741683349
 21
-19085.20001521188
 31
0.0
  0
INSERT
  5
32D
330
329
100
AcDbEntity
  8
0
 62
     1
370
    -2
100
AcDbBlockReference
  2
B-DIM
 10
5987.796741683349
 20
-19585.70004894779
 30
0.0
 41
30.0
 42
30.0
 43
30.0
 50
270.0
  0
INSERT
  5
32E
330
329
100
AcDbEntity
  8
0
 62
     1
370
    -2
100
AcDbBlockReference
  2
B-DIM
 10
5987.796741683349
 20
-19055.20001521188
 30
0.0
 41
30.0
 42
30.0
 43
30.0
 50
90.0
  0
MTEXT
  5
32F
330
329
100
AcDbEntity
  8
0
 62
    10
370
     5
100
AcDbMText
 10
5907.796741683353
 20
-19320.45003207983
 30
0.0
 40
80.0
 41
0.0
 71
     5
 72
     1
  1
\A1;530
  7
ROMANS
 11
0.0000000000000001
 21
1.0
 31
0.0
 73
     1
 44
1.0
1001
ACAD
1000
MTEXTBEGIN
1070
    73
1070
     1
1070
    44
1040
1.0
1070
    74
1070
     0
1000
MTEXTEND
  0
POINT
  5
330
330
329
100
AcDbEntity
  8
Defpoints
 62
     0
100
AcDbPoint
 10
5124.038413828927
 20
-19585.70004894779
 30
46.99999999998261
  0
POINT
  5
331
330
329
100
AcDbEntity
  8
Defpoints
 62
     0
100
AcDbPoint
 10
5124.038413828934
 20
-19055.20001521188
 30
46.99999999998307
  0
POINT
  5
332
330
329
100
AcDbEntity
  8
Defpoints
 62
     0
100
AcDbPoint
 10
5987.796741683349
 20
-19055.20001521188
 30
0.0
  0
ENDBLK
  5
32B
330
329
100
AcDbEntity
  8
0
 48
4.0
100
AcDbBlockEnd
  0
BLOCK
  5
334
330
333
100
AcDbEntity
  8
0
 48
4.0
100
AcDbBlockBegin
  2
*D20
 70
     1
 10
0.0
 20
0.0
 30
0.0
  3
*D20
  1

  0
LINE
  5
336
330
333
100
AcDbEntity
  8
0
 62
     1
370
    -2
100
AcDbLine
 10
5987.796741683357
 20
-18185.20001521187
 30
0.0
 11
5987.796741683356
 21
-19025.20001521187
 31
0.0
  0
INSERT
  5
337
330
333
100
AcDbEntity
  8
0
 62
     1
370
    -2
100
AcDbBlockReference
  2
B-DIM
 10
5987.796741683357
 20
-18155.20001521187
 30
0.0
 41
30.0
 42
30.0
 43
30.0
 50
90.0
  0
INSERT
  5
338
330
333
100
AcDbEntity
  8
0
 62
     1
370
    -2
100
AcDbBlockReference
  2
B-DIM
 10
5987.796741683356
 20
-19055.20001521188
 30
0.0
 41
30.0
 42
30.0
 43
30.0
 50
270.0
  0
MTEXT
  5
339
330
333
100
AcDbEntity
  8
0
 62
    10
370
     5
100
AcDbMText
 10
5907.79674168336
 20
-18605.20001521187
 30
0.0
 40
80.0
 41
0.0
 71
     5
 72
     1
  1
\A1;900
  7
ROMANS
 11
0.0000000000000001
 21
1.0
 31
0.0
 73
     1
 44
1.0
1001
ACAD
1000
MTEXTBEGIN
1070
    73
1070
     1
1070
    44
1040
1.0
1070
    74
1070
     0
1000
MTEXTEND
  0
POINT
  5
33A
330
333
100
AcDbEntity
  8
Defpoints
 62
     0
100
AcDbPoint
 10
5596.041620289085
 20
-18155.20001521187
 30
46.99999999998388
  0
POINT
  5
33B
330
333
100
AcDbEntity
  8
Defpoints
 62
     0
100
AcDbPoint
 10
5596.041620289085
 20
-19055.20001521188
 30
46.99999999998307
  0
POINT
  5
33C
330
333
100
AcDbEntity
  8
Defpoints
 62
     0
100
AcDbPoint
 10
5987.796741683356
 20
-19055.20001521188
 30
0.0
  0
ENDBLK
  5
335
330
333
100
AcDbEntity
  8
0
 48
4.0
100
AcDbBlockEnd
  0
BLOCK
  5
33E
330
33D
100
AcDbEntity
  8
0
 48
4.0
100
AcDbBlockBegin
  2
*D21
 70
     1
 10
0.0
 20
0.0
 30
0.0
  3
*D21
  1

  0
LINE
  5
340
330
33D
100
AcDbEntity
  8
0
 62
     1
370
    -2
100
AcDbLine
 10
4726.041620289083
 20
-17646.46260766251
 30
0.0
 11
5566.041620289085
 21
-17646.46260766251
 31
0.0
  0
INSERT
  5
341
330
33D
100
AcDbEntity
  8
0
 62
     1
370
    -2
100
AcDbBlockReference
  2
B-DIM
 10
4696.041620289082
 20
-17646.46260766251
 30
0.0
 41
30.0
 42
30.0
 43
30.0
 50
180.0
  0
INSERT
  5
342
330
33D
100
AcDbEntity
  8
0
 62
     1
370
    -2
100
AcDbBlockReference
  2
B-DIM
 10
5596.041620289085
 20
-17646.46260766251
 30
0.0
 41
30.0
 42
30.0
 43
30.0
  0
MTEXT
  5
343
330
33D
100
AcDbEntity
  8
0
 62
    10
370
     5
100
AcDbMText
 10
5146.041620289084
 20
-17566.46260766251
 30
0.0
 40
80.0
 41
0.0
 71
     5
 72
     1
  1
\A1;900
  7
ROMANS
 73
     1
 44
1.0
1001
ACAD
1000
MTEXTBEGIN
1070
    73
1070
     1
1070
    44
1040
1.0
1070
    74
1070
     0
1000
MTEXTEND
  0
POINT
  5
344
330
33D
100
AcDbEntity
  8
Defpoints
 62
     0
100
AcDbPoint
 10
4696.041620289082
 20
-18155.20001521188
 30
46.99999999998388
  0
POINT
  5
345
330
33D
100
AcDbEntity
  8
Defpoints
 62
     0
100
AcDbPoint
 10
5596.041620289085
 20
-18155.20001521188
 30
46.99999999998388
  0
POINT
  5
346
330
33D
100
AcDbEntity
  8
Defpoints
 62
     0
100
AcDbPoint
 10
5596.041620289085
 20
-17646.46260766251
 30
0.0
  0
ENDBLK
  5
33F
330
33D
100
AcDbEntity
  8
0
 48
4.0
100
AcDbBlockEnd
  0
BLOCK
  5
348
330
347
100
AcDbEntity
  8
0
 48
4.0
100
AcDbBlockBegin
  2
*D22
 70
     1
 10
0.0
 20
0.0
 30
0.0
  3
*D22
  1

  0
LINE
  5
34A
330
347
100
AcDbEntity
  8
0
 62
     1
370
    -2
100
AcDbLine
 10
5756.041620287659
 20
-17646.46260766251
 30
0.0
 11
5786.041620287658
 21
-17646.46260766251
 31
0.0
  0
LINE
  5
34B
330
347
100
AcDbEntity
  8
0
 62
     1
370
    -2
100
AcDbLine
 10
5566.041620289085
 20
-17646.46260766251
 30
0.0
 11
5536.041620289084
 21
-17646.46260766251
 31
0.0
  0
LINE
  5
34C
330
347
100
AcDbEntity
  8
0
 62
     1
370
    -2
100
AcDbLine
 10
5726.041620287658
 20
-17646.46260766251
 30
0.0
 11
5596.041620289085
 21
-17646.46260766251
 31
0.0
  0
INSERT
  5
34D
330
347
100
AcDbEntity
  8
0
 62
     1
370
    -2
100
AcDbBlockReference
  2
B-DIM
 10
5726.041620287658
 20
-17646.46260766251
 30
0.0
 41
30.0
 42
30.0
 43
30.0
 50
180.0
  0
INSERT
  5
34E
330
347
100
AcDbEntity
  8
0
 62
     1
370
    -2
100
AcDbBlockReference
  2
B-DIM
 10
5596.041620289085
 20
-17646.46260766251
 30
0.0
 41
30.0
 42
30.0
 43
30.0
  0
MTEXT
  5
34F
330
347
100
AcDbEntity
  8
0
 62
    10
370
     5
100
AcDbMText
 10
5661.041620288372
 20
-17566.46260766251
 30
0.0
 40
80.0
 41
0.0
 71
     5
 72
     1
  1
\A1;130
  7
ROMANS
 73
     1
 44
1.0
1001
ACAD
1000
MTEXTBEGIN
1070
    73
1070
     1
1070
    44
1040
1.0
1070
    74
1070
     0
1000
MTEXTEND
  0
POINT
  5
350
330
347
100
AcDbEntity
  8
Defpoints
 62
     0
100
AcDbPoint
 10
5726.041620287658
 20
-18462.97945246037
 30
46.9999999999836
  0
POINT
  5
351
330
347
100
AcDbEntity
  8
Defpoints
 62
     0
100
AcDbPoint
 10
5596.041620289085
 20
-18373.20001521242
 30
46.99999999998367
  0
POINT
  5
352
330
347
100
AcDbEntity
  8
Defpoints
 62
     0
100
AcDbPoint
 10
5596.041620289085
 20
-17646.46260766251
 30
0.0
  0
ENDBLK
  5
349
330
347
100
AcDbEntity
  8
0
 48
4.0
100
AcDbBlockEnd
  0
BLOCK
  5
354
330
353
100
AcDbEntity
  8
0
 48
4.0
100
AcDbBlockBegin
  2
*D23
 70
     1
 10
0.0
 20
0.0
 30
0.0
  3
*D23
  1

  0
LINE
  5
356
330
353
100
AcDbEntity
  8
0
 62
     1
370
    -2
100
AcDbLine
 10
6174.777671709047
 20
-18185.20001521188
 30
-0.0000000000006405
 11
6174.777671709046
 21
-19555.7000489478
 31
-0.0000000000006405
  0
INSERT
  5
357
330
353
100
AcDbEntity
  8
0
 62
     1
370
    -2
100
AcDbBlockReference
  2
B-DIM
 10
6174.777671709047
 20
-18155.20001521188
 30
-0.0000000000006405
 41
30.0
 42
30.0
 43
30.0
 50
90.0
  0
INSERT
  5
358
330
353
100
AcDbEntity
  8
0
 62
     1
370
    -2
100
AcDbBlockReference
  2
B-DIM
 10
6174.777671709046
 20
-19585.70004894779
 30
-0.0000000000006405
 41
30.0
 42
30.0
 43
30.0
 50
270.0
  0
MTEXT
  5
359
330
353
100
AcDbEntity
  8
0
 62
    10
370
     5
100
AcDbMText
 10
6094.777671709049
 20
-18870.45003207984
 30
-0.0000000000006405
 40
80.0
 41
0.0
 71
     5
 72
     1
  1
\A1;1430
  7
ROMANS
 11
0.0000000000000001
 21
1.0
 31
0.0
 73
     1
 44
1.0
1001
ACAD
1000
MTEXTBEGIN
1070
    73
1070
     1
1070
    44
1040
1.0
1070
    74
1070
     0
1000
MTEXTEND
  0
POINT
  5
35A
330
353
100
AcDbEntity
  8
Defpoints
 62
     0
100
AcDbPoint
 10
5596.041620289085
 20
-18155.20001521188
 30
46.99999999998388
  0
POINT
  5
35B
330
353
100
AcDbEntity
  8
Defpoints
 62
     0
100
AcDbPoint
 10
5124.03841382893
 20
-19585.70004894779
 30
46.99999999998261
  0
POINT
  5
35C
330
353
100
AcDbEntity
  8
Defpoints
 62
     0
100
AcDbPoint
 10
6174.777671709046
 20
-19585.70004894779
 30
-0.0000000000006405
  0
ENDBLK
  5
355
330
353
100
AcDbEntity
  8
0
 48
4.0
100
AcDbBlockEnd
  0
BLOCK
  5
35E
330
35D
100
AcDbEntity
  8
0
 48
4.0
100
AcDbBlockBegin
  2
*D24
 70
     1
 10
0.0
 20
0.0
 30
0.0
  3
*D24
  1

  0
LINE
  5
360
330
35D
100
AcDbEntity
  8
0
 62
     1
370
    -2
100
AcDbLine
 10
4726.041620289083
 20
-17451.11183963743
 30
-0.0000000000006405
 11
5696.041620287658
 21
-17451.11183963743
 31
-0.0000000000006405
  0
INSERT
  5
361
330
35D
100
AcDbEntity
  8
0
 62
     1
370
    -2
100
AcDbBlockReference
  2
B-DIM
 10
4696.041620289082
 20
-17451.11183963743
 30
-0.0000000000006405
 41
30.0
 42
30.0
 43
30.0
 50
180.0
  0
INSERT
  5
362
330
35D
100
AcDbEntity
  8
0
 62
     1
370
    -2
100
AcDbBlockReference
  2
B-DIM
 10
5726.041620287658
 20
-17451.11183963743
 30
-0.0000000000006405
 41
30.0
 42
30.0
 43
30.0
  0
MTEXT
  5
363
330
35D
100
AcDbEntity
  8
0
 62
    10
370
     5
100
AcDbMText
 10
5211.04162028837
 20
-17371.11183963743
 30
-0.0000000000006405
 40
80.0
 41
0.0
 71
     5
 72
     1
  1
\A1;1030
  7
ROMANS
 73
     1
 44
1.0
1001
ACAD
1000
MTEXTBEGIN
1070
    73
1070
     1
1070
    44
1040
1.0
1070
    74
1070
     0
1000
MTEXTEND
  0
POINT
  5
364
330
35D
100
AcDbEntity
  8
Defpoints
 62
     0
100
AcDbPoint
 10
4696.041620289082
 20
-18155.20001521188
 30
46.99999999998388
  0
POINT
  5
365
330
35D
100
AcDbEntity
  8
Defpoints
 62
     0
100
AcDbPoint
 10
5726.041620287658
 20
-18462.97945246037
 30
46.9999999999836
  0
POINT
  5
366
330
35D
100
AcDbEntity
  8
Defpoints
 62
     0
100
AcDbPoint
 10
5726.041620287658
 20
-17451.11183963743
 30
-0.0000000000006405
  0
ENDBLK
  5
35F
330
35D
100
AcDbEntity
  8
0
 48
4.0
100
AcDbBlockEnd
  0
BLOCK
  5
368
330
367
100
AcDbEntity
  8
0
 48
4.0
100
AcDbBlockBegin
  2
*D25
 70
     1
 10
0.0
 20
0.0
 30
0.0
  3
*D25
  1

  0
LINE
  5
36A
330
367
100
AcDbEntity
  8
0
 62
     1
370
    -2
100
AcDbLine
 10
671.3124282784045
 20
-19555.70004894779
 30
0.0
 11
671.3124282784047
 21
-19085.20001521188
 31
0.0
  0
INSERT
  5
36B
330
367
100
AcDbEntity
  8
0
 62
     1
370
    -2
100
AcDbBlockReference
  2
B-DIM
 10
671.3124282784045
 20
-19585.70004894779
 30
0.0
 41
30.0
 42
30.0
 43
30.0
 50
270.0
  0
INSERT
  5
36C
330
367
100
AcDbEntity
  8
0
 62
     1
370
    -2
100
AcDbBlockReference
  2
B-DIM
 10
671.3124282784047
 20
-19055.20001521188
 30
0.0
 41
30.0
 42
30.0
 43
30.0
 50
90.0
  0
MTEXT
  5
36D
330
367
100
AcDbEntity
  8
0
 62
    10
370
     5
100
AcDbMText
 10
591.3124282784077
 20
-19320.45003207984
 30
0.0
 40
80.0
 41
0.0
 71
     5
 72
     1
  1
\A1;530
  7
ROMANS
 11
0.0000000000000001
 21
1.0
 31
0.0
 73
     1
 44
1.0
1001
ACAD
1000
MTEXTBEGIN
1070
    73
1070
     1
1070
    44
1040
1.0
1070
    74
1070
     0
1000
MTEXTEND
  0
POINT
  5
36E
330
367
100
AcDbEntity
  8
Defpoints
 62
     0
100
AcDbPoint
 10
1535.070756132827
 20
-19585.70004894779
 30
46.99999999998261
  0
POINT
  5
36F
330
367
100
AcDbEntity
  8
Defpoints
 62
     0
100
AcDbPoint
 10
1535.07075613282
 20
-19055.20001521188
 30
46.99999999998307
  0
POINT
  5
370
330
367
100
AcDbEntity
  8
Defpoints
 62
     0
100
AcDbPoint
 10
671.3124282784047
 20
-19055.20001521188
 30
0.0
  0
ENDBLK
  5
369
330
367
100
AcDbEntity
  8
0
 48
4.0
100
AcDbBlockEnd
  0
BLOCK
  5
372
330
371
100
AcDbEntity
  8
0
 48
4.0
100
AcDbBlockBegin
  2
*D26
 70
     1
 10
0.0
 20
0.0
 30
0.0
  3
*D26
  1

  0
LINE
  5
374
330
371
100
AcDbEntity
  8
0
 62
     1
370
    -2
100
AcDbLine
 10
671.3124282783957
 20
-18185.20001521188
 30
0.0
 11
671.3124282783955
 21
-19025.20001521188
 31
0.0
  0
INSERT
  5
375
330
371
100
AcDbEntity
  8
0
 62
     1
370
    -2
100
AcDbBlockReference
  2
B-DIM
 10
671.3124282783958
 20
-18155.20001521188
 30
0.0
 41
30.0
 42
30.0
 43
30.0
 50
90.0
  0
INSERT
  5
376
330
371
100
AcDbEntity
  8
0
 62
     1
370
    -2
100
AcDbBlockReference
  2
B-DIM
 10
671.3124282783955
 20
-19055.20001521188
 30
0.0
 41
30.0
 42
30.0
 43
30.0
 50
270.0
  0
MTEXT
  5
377
330
371
100
AcDbEntity
  8
0
 62
    10
370
     5
100
AcDbMText
 10
591.3124282783987
 20
-18605.20001521187
 30
0.0
 40
80.0
 41
0.0
 71
     5
 72
     1
  1
\A1;900
  7
ROMANS
 11
0.0000000000000001
 21
1.0
 31
0.0
 73
     1
 44
1.0
1001
ACAD
1000
MTEXTBEGIN
1070
    73
1070
     1
1070
    44
1040
1.0
1070
    74
1070
     0
1000
MTEXTEND
  0
POINT
  5
378
330
371
100
AcDbEntity
  8
Defpoints
 62
     0
100
AcDbPoint
 10
1063.067549672667
 20
-18155.20001521188
 30
46.99999999998388
  0
POINT
  5
379
330
371
100
AcDbEntity
  8
Defpoints
 62
     0
100
AcDbPoint
 10
1063.067549672669
 20
-19055.20001521188
 30
46.99999999998307
  0
POINT
  5
37A
330
371
100
AcDbEntity
  8
Defpoints
 62
     0
100
AcDbPoint
 10
671.3124282783955
 20
-19055.20001521188
 30
0.0
  0
ENDBLK
  5
373
330
371
100
AcDbEntity
  8
0
 48
4.0
100
AcDbBlockEnd
  0
BLOCK
  5
37C
330
37B
100
AcDbEntity
  8
0
 48
4.0
100
AcDbBlockBegin
  2
*D27
 70
     1
 10
0.0
 20
0.0
 30
0.0
  3
*D27
  1

  0
LINE
  5
37E
330
37B
100
AcDbEntity
  8
0
 62
     1
370
    -2
100
AcDbLine
 10
1933.067549672669
 20
-17646.46260766252
 30
0.0
 11
1093.067549672667
 21
-17646.46260766252
 31
0.0
  0
INSERT
  5
37F
330
37B
100
AcDbEntity
  8
0
 62
     1
370
    -2
100
AcDbBlockReference
  2
B-DIM
 10
1963.067549672669
 20
-17646.46260766252
 30
0.0
 41
30.0
 42
30.0
 43
30.0
  0
INSERT
  5
380
330
37B
100
AcDbEntity
  8
0
 62
     1
370
    -2
100
AcDbBlockReference
  2
B-DIM
 10
1063.067549672667
 20
-17646.46260766252
 30
0.0
 41
30.0
 42
30.0
 43
30.0
 50
180.0
  0
MTEXT
  5
381
330
37B
100
AcDbEntity
  8
0
 62
    10
370
     5
100
AcDbMText
 10
1513.067549672668
 20
-17566.46260766252
 30
0.0
 40
80.0
 41
0.0
 71
     5
 72
     1
  1
\A1;900
  7
ROMANS
 73
     1
 44
1.0
1001
ACAD
1000
MTEXTBEGIN
1070
    73
1070
     1
1070
    44
1040
1.0
1070
    74
1070
     0
1000
MTEXTEND
  0
POINT
  5
382
330
37B
100
AcDbEntity
  8
Defpoints
 62
     0
100
AcDbPoint
 10
1963.067549672669
 20
-18155.20001521189
 30
46.99999999998388
  0
POINT
  5
383
330
37B
100
AcDbEntity
  8
Defpoints
 62
     0
100
AcDbPoint
 10
1063.067549672667
 20
-18155.20001521189
 30
46.99999999998388
  0
POINT
  5
384
330
37B
100
AcDbEntity
  8
Defpoints
 62
     0
100
AcDbPoint
 10
1063.067549672667
 20
-17646.46260766252
 30
0.0
  0
ENDBLK
  5
37D
330
37B
100
AcDbEntity
  8
0
 48
4.0
100
AcDbBlockEnd
  0
BLOCK
  5
386
330
385
100
AcDbEntity
  8
0
 48
4.0
100
AcDbBlockBegin
  2
*D28
 70
     1
 10
0.0
 20
0.0
 30
0.0
  3
*D28
  1

  0
LINE
  5
388
330
385
100
AcDbEntity
  8
0
 62
     1
370
    -2
100
AcDbLine
 10
903.0675496740913
 20
-17646.46260766252
 30
0.0
 11
873.0675496740914
 21
-17646.46260766252
 31
0.0
  0
LINE
  5
389
330
385
100
AcDbEntity
  8
0
 62
     1
370
    -2
100
AcDbLine
 10
1093.067549672665
 20
-17646.46260766252
 30
0.0
 11
1123.067549672665
 21
-17646.46260766252
 31
0.0
  0
LINE
  5
38A
330
385
100
AcDbEntity
  8
0
 62
     1
370
    -2
100
AcDbLine
 10
933.0675496740914
 20
-17646.46260766252
 30
0.0
 11
1063.067549672665
 21
-17646.46260766252
 31
0.0
  0
INSERT
  5
38B
330
385
100
AcDbEntity
  8
0
 62
     1
370
    -2
100
AcDbBlockReference
  2
B-DIM
 10
933.0675496740914
 20
-17646.46260766252
 30
0.0
 41
30.0
 42
30.0
 43
30.0
  0
INSERT
  5
38C
330
385
100
AcDbEntity
  8
0
 62
     1
370
    -2
100
AcDbBlockReference
  2
B-DIM
 10
1063.067549672665
 20
-17646.46260766252
 30
0.0
 41
30.0
 42
30.0
 43
30.0
 50
180.0
  0
MTEXT
  5
38D
330
385
100
AcDbEntity
  8
0
 62
    10
370
     5
100
AcDbMText
 10
998.0675496733784
 20
-17566.46260766252
 30
0.0
 40
80.0
 41
0.0
 71
     5
 72
     1
  1
\A1;130
  7
ROMANS
 73
     1
 44
1.0
1001
ACAD
1000
MTEXTBEGIN
1070
    73
1070
     1
1070
    44
1040
1.0
1070
    74
1070
     0
1000
MTEXTEND
  0
POINT
  5
38E
330
385
100
AcDbEntity
  8
Defpoints
 62
     0
100
AcDbPoint
 10
933.0675496740914
 20
-18462.97945246038
 30
46.9999999999836
  0
POINT
  5
38F
330
385
100
AcDbEntity
  8
Defpoints
 62
     0
100
AcDbPoint
 10
1063.067549672665
 20
-18373.20001521242
 30
46.99999999998367
  0
POINT
  5
390
330
385
100
AcDbEntity
  8
Defpoints
 62
     0
100
AcDbPoint
 10
1063.067549672665
 20
-17646.46260766252
 30
0.0
  0
ENDBLK
  5
387
330
385
100
AcDbEntity
  8
0
 48
4.0
100
AcDbBlockEnd
  0
BLOCK
  5
392
330
391
100
AcDbEntity
  8
0
 48
4.0
100
AcDbBlockBegin
  2
*D29
 70
     1
 10
0.0
 20
0.0
 30
0.0
  3
*D29
  1

  0
LINE
  5
394
330
391
100
AcDbEntity
  8
0
 62
     1
370
    -2
100
AcDbLine
 10
484.3314982527066
 20
-18185.20001521188
 30
-0.0000000000006405
 11
484.3314982527063
 21
-19555.7000489478
 31
-0.0000000000006405
  0
INSERT
  5
395
330
391
100
AcDbEntity
  8
0
 62
     1
370
    -2
100
AcDbBlockReference
  2
B-DIM
 10
484.3314982527066
 20
-18155.20001521188
 30
-0.0000000000006405
 41
30.0
 42
30.0
 43
30.0
 50
90.0
  0
INSERT
  5
396
330
391
100
AcDbEntity
  8
0
 62
     1
370
    -2
100
AcDbBlockReference
  2
B-DIM
 10
484.3314982527062
 20
-19585.7000489478
 30
-0.0000000000006405
 41
30.0
 42
30.0
 43
30.0
 50
270.0
  0
MTEXT
  5
397
330
391
100
AcDbEntity
  8
0
 62
    10
370
     5
100
AcDbMText
 10
404.3314982527095
 20
-18870.45003207984
 30
-0.0000000000006405
 40
80.0
 41
0.0
 71
     5
 72
     1
  1
\A1;1430
  7
ROMANS
 11
0.0000000000000001
 21
1.0
 31
0.0
 73
     1
 44
1.0
1001
ACAD
1000
MTEXTBEGIN
1070
    73
1070
     1
1070
    44
1040
1.0
1070
    74
1070
     0
1000
MTEXTEND
  0
POINT
  5
398
330
391
100
AcDbEntity
  8
Defpoints
 62
     0
100
AcDbPoint
 10
1063.067549672667
 20
-18155.20001521188
 30
46.99999999998388
  0
POINT
  5
399
330
391
100
AcDbEntity
  8
Defpoints
 62
     0
100
AcDbPoint
 10
1535.070756132825
 20
-19585.7000489478
 30
46.99999999998261
  0
POINT
  5
39A
330
391
100
AcDbEntity
  8
Defpoints
 62
     0
100
AcDbPoint
 10
484.3314982527062
 20
-19585.7000489478
 30
-0.0000000000006405
  0
ENDBLK
  5
393
330
391
100
AcDbEntity
  8
0
 48
4.0
100
AcDbBlockEnd
  0
BLOCK
  5
39C
330
39B
100
AcDbEntity
  8
0
 48
4.0
100
AcDbBlockBegin
  2
*D30
 70
     1
 10
0.0
 20
0.0
 30
0.0
  3
*D30
  1

  0
LINE
  5
39E
330
39B
100
AcDbEntity
  8
0
 62
     1
370
    -2
100
AcDbLine
 10
1933.067549672669
 20
-17451.11183963744
 30
-0.0000000000006405
 11
963.0675496740915
 21
-17451.11183963744
 31
-0.0000000000006405
  0
INSERT
  5
39F
330
39B
100
AcDbEntity
  8
0
 62
     1
370
    -2
100
AcDbBlockReference
  2
B-DIM
 10
1963.067549672669
 20
-17451.11183963744
 30
-0.0000000000006405
 41
30.0
 42
30.0
 43
30.0
  0
INSERT
  5
3A0
330
39B
100
AcDbEntity
  8
0
 62
     1
370
    -2
100
AcDbBlockReference
  2
B-DIM
 10
933.0675496740916
 20
-17451.11183963744
 30
-0.0000000000006405
 41
30.0
 42
30.0
 43
30.0
 50
180.0
  0
MTEXT
  5
3A1
330
39B
100
AcDbEntity
  8
0
 62
    10
370
     5
100
AcDbMText
 10
1448.06754967338
 20
-17371.11183963744
 30
-0.0000000000006405
 40
80.0
 41
0.0
 71
     5
 72
     1
  1
\A1;1030
  7
ROMANS
 73
     1
 44
1.0
1001
ACAD
1000
MTEXTBEGIN
1070
    73
1070
     1
1070
    44
1040
1.0
1070
    74
1070
     0
1000
MTEXTEND
  0
POINT
  5
3A2
330
39B
100
AcDbEntity
  8
Defpoints
 62
     0
100
AcDbPoint
 10
1963.067549672669
 20
-18155.20001521189
 30
46.99999999998388
  0
POINT
  5
3A3
330
39B
100
AcDbEntity
  8
Defpoints
 62
     0
100
AcDbPoint
 10
933.0675496740914
 20
-18462.97945246038
 30
46.9999999999836
  0
POINT
  5
3A4
330
39B
100
AcDbEntity
  8
Defpoints
 62
     0
100
AcDbPoint
 10
933.0675496740916
 20
-17451.11183963744
 30
-0.0000000000006405
  0
ENDBLK
  5
39D
330
39B
100
AcDbEntity
  8
0
 48
4.0
100
AcDbBlockEnd
  0
ENDSEC
  0
SECTION
  2
ENTITIES
  0
TEXT
  5
68
330
2
100
AcDbEntity
  8
NAPISY
370
     5
100
AcDbText
 10
-423.7826586218525
 20
-26859.25002056395
 30
-0.0000000000238558
 40
100.0
  1
   O B R Y S   B U D Y N K U           S K A L A   1 : 5 0 0 
  7
AVA
100
AcDbText
  0
LINE
  5
6D
330
2
100
AcDbEntity
  8
0
  6
HIDDEN
 62
     1
370
     5
100
AcDbLine
 10
3329.554584980876
 20
-22884.72055384476
 30
-0.0000000000203257
 11
3329.554584980876
 21
-16709.20199344019
 31
-0.0000000000148408
  0
TEXT
  5
6F
330
2
100
AcDbEntity
  8
0
370
     5
100
AcDbText
 10
3270.033407987523
 20
-22669.95135058596
 30
-0.000000000020135
 40
100.0
  1
OŚ ODBICIA LUSTRZANEGO
 50
90.0
  7
AVA
100
AcDbText
  0
TEXT
  5
71
330
2
100
AcDbEntity
  8
NAPISY
370
     5
100
AcDbText
 10
-327.5696075039541
 20
-14395.88475968208
 30
-0.0000000000127861
 40
150.0
  1
MOŻNA WKLEIĆ DO PROJEKTU ZAGOSPODAROWANIA TERENU
  7
AVA
100
AcDbText
  0
TEXT
  5
72
330
2
100
AcDbEntity
  8
NAPISY
370
     5
100
AcDbText
 10
-403.9048781390975
 20
-14066.01628231932
 30
-0.0000000000124931
 40
150.0
  1
"DOM  W  RODODENDRONACH 12 (P)"
  7
AVA
100
AcDbText
  0
LWPOLYLINE
  5
73
330
2
100
AcDbEntity
  8
RAMKI-A4
370
     5
100
AcDbPolyline
 90
        4
 70
     1
 43
0.0
 10
-1883.134605296838
 20
-27524.80610346649
 10
-1883.134605296838
 20
-13504.80610346648
 10
8316.865394703192
 20
-13504.80610346648
 10
8316.865394703192
 20
-27524.80610346649
  0
LINE
  5
77
330
2
100
AcDbEntity
  8
0
  6
Continuous
 62
   210
370
     5
100
AcDbLine
 10
1063.067549672667
 20
-18184.3628466378
 30
46.99999999998385
 11
1063.067549672667
 21
-18155.20001521188
 31
46.99999999998388
  0
LINE
  5
7B
330
2
100
AcDbEntity
  8
0
  6
Continuous
 62
   210
370
     5
100
AcDbLine
 10
1063.067549672667
 20
-18214.3628466378
 30
46.99999999998381
 11
1063.067549672667
 21
-18155.20001521188
 31
46.99999999998388
  0
LINE
  5
7C
330
2
100
AcDbEntity
  8
0
  6
Continuous
 62
   210
370
     5
100
AcDbLine
 10
1535.070756132823
 20
-19220.20001521188
 30
46.99999999998293
 11
1535.070756132823
 21
-19055.20001521188
 31
46.99999999998307
  0
LINE
  5
7D
330
2
100
AcDbEntity
  8
0
  6
Continuous
 62
   210
370
     5
100
AcDbLine
 10
1535.070756132823
 20
-19055.20001521188
 30
46.99999999998307
 11
1320.070756132825
 21
-19055.20001521188
 31
46.99999999998307
  0
LINE
  5
7E
330
2
100
AcDbEntity
  8
0
  6
Continuous
 62
   210
370
     5
100
AcDbLine
 10
1320.070756132825
 20
-19055.20001521188
 30
46.99999999998307
 11
1320.070756132825
 21
-19220.20001521188
 31
46.99999999998293
  0
LINE
  5
7F
330
2
100
AcDbEntity
  8
0
  6
Continuous
 62
   210
370
     5
100
AcDbLine
 10
1320.070756132825
 20
-19220.20001521188
 30
46.99999999998293
 11
1535.070756132823
 21
-19220.20001521188
 31
46.99999999998293
  0
LINE
  5
80
330
2
100
AcDbEntity
  8
0
  6
Continuous
 62
   210
370
     5
100
AcDbLine
 10
1350.070756132825
 20
-19055.20001521188
 30
46.99999999998307
 11
1350.070756132825
 21
-19190.20001521188
 31
46.99999999998295
  0
LINE
  5
81
330
2
100
AcDbEntity
  8
0
  6
Continuous
 62
   210
370
     5
100
AcDbLine
 10
1350.070756132825
 20
-19190.20001521188
 30
46.99999999998295
 11
1535.070756132823
 21
-19190.20001521188
 31
46.99999999998295
  0
LINE
  5
82
330
2
100
AcDbEntity
  8
0
  6
Continuous
 62
   210
370
     5
100
AcDbLine
 10
1535.070756132823
 20
-19190.20001521188
 30
46.99999999998295
 11
1535.070756132823
 21
-19055.20001521188
 31
46.99999999998307
  0
LINE
  5
83
330
2
100
AcDbEntity
  8
0
  6
Continuous
 62
   210
370
     5
100
AcDbLine
 10
1535.070756132823
 20
-19055.20001521188
 30
46.99999999998307
 11
1350.070756132825
 21
-19055.20001521188
 31
46.99999999998307
  0
LINE
  5
84
330
2
100
AcDbEntity
  8
0
  6
Continuous
 62
   210
370
     5
100
AcDbLine
 10
1380.070756132825
 20
-19055.20001521188
 30
46.99999999998307
 11
1380.070756132825
 21
-19160.20001521188
 31
46.99999999998298
  0
LINE
  5
85
330
2
100
AcDbEntity
  8
0
  6
Continuous
 62
   210
370
     5
100
AcDbLine
 10
1380.070756132825
 20
-19160.20001521188
 30
46.99999999998298
 11
1535.070756132823
 21
-19160.20001521188
 31
46.99999999998298
  0
LINE
  5
86
330
2
100
AcDbEntity
  8
0
  6
Continuous
 62
   210
370
     5
100
AcDbLine
 10
1535.070756132823
 20
-19160.20001521188
 30
46.99999999998298
 11
1535.070756132823
 21
-19055.20001521188
 31
46.99999999998307
  0
LINE
  5
87
330
2
100
AcDbEntity
  8
0
  6
Continuous
 62
   210
370
     5
100
AcDbLine
 10
1535.070756132823
 20
-19055.20001521188
 30
46.99999999998307
 11
1380.070756132825
 21
-19055.20001521188
 31
46.99999999998307
  0
LINE
  5
88
330
2
100
AcDbEntity
  8
0
  6
Continuous
 62
   210
370
     5
100
AcDbLine
 10
1535.070756132827
 20
-19585.70004894779
 30
46.99999999998261
 11
1535.070756132827
 21
-19675.70004894779
 31
46.99999999998253
  0
LINE
  5
89
330
2
100
AcDbEntity
  8
0
  6
Continuous
 62
   210
370
     5
100
AcDbLine
 10
1535.070756132827
 20
-19675.70004894779
 30
46.99999999998253
 11
1963.070756132825
 21
-19675.70004894779
 31
46.99999999998253
  0
LINE
  5
8A
330
2
100
AcDbEntity
  8
0
  6
Continuous
 62
   210
370
     5
100
AcDbLine
 10
1963.070756132825
 20
-19675.70004894779
 30
46.99999999998253
 11
1963.070756132825
 21
-19585.70004894779
 31
46.99999999998261
  0
LINE
  5
8B
330
2
100
AcDbEntity
  8
0
  6
Continuous
 62
   210
370
     5
100
AcDbLine
 10
1963.070756132825
 20
-19585.70004894779
 30
46.99999999998261
 11
1535.070756132827
 21
-19585.70004894779
 31
46.99999999998261
  0
LINE
  5
8C
330
2
100
AcDbEntity
  8
0
  6
Continuous
 62
   210
370
     5
100
AcDbLine
 10
1963.070756132825
 20
-19675.70004894779
 30
46.99999999998253
 11
1963.070756132825
 21
-19885.70004894779
 31
46.99999999998233
  0
LINE
  5
8D
330
2
100
AcDbEntity
  8
0
  6
Continuous
 62
   210
370
     5
100
AcDbLine
 10
1963.070756132825
 20
-19885.70004894779
 30
46.99999999998233
 11
1535.070756132827
 21
-19885.70004894779
 31
46.99999999998233
  0
LINE
  5
8E
330
2
100
AcDbEntity
  8
0
  6
Continuous
 62
   210
370
     5
100
AcDbLine
 10
1535.070756132827
 20
-19885.70004894779
 30
46.99999999998233
 11
1535.070756132827
 21
-19675.70004894779
 31
46.99999999998253
  0
LINE
  5
8F
330
2
100
AcDbEntity
  8
0
  6
Continuous
 62
   210
370
     5
100
AcDbLine
 10
1535.070756132827
 20
-19675.70004894779
 30
46.99999999998253
 11
1963.070756132825
 21
-19675.70004894779
 31
46.99999999998253
  0
LINE
  5
90
330
2
100
AcDbEntity
  8
0
370
     5
100
AcDbLine
 10
2083.067549672662
 20
-18707.19938833627
 30
46.99999999998341
 11
1963.067549672658
 21
-18707.19938833627
 31
46.99999999998341
  0
LINE
  5
94
330
2
100
AcDbEntity
  8
0
370
     5
100
AcDbLine
 10
2063.067549672662
 20
-18727.19938833627
 30
46.99999999998339
 11
1963.067549672658
 21
-18727.19938833627
 31
46.99999999998339
  0
LINE
  5
95
330
2
100
AcDbEntity
  8
0
370
     5
100
AcDbLine
 10
2083.067549672662
 20
-18897.19938833625
 30
46.99999999998324
 11
1963.067549672661
 21
-18897.19938833625
 31
46.99999999998324
  0
LINE
  5
96
330
2
100
AcDbEntity
  8
0
370
     5
100
AcDbLine
 10
2063.067549672662
 20
-18877.19938833625
 30
46.99999999998325
 11
1963.067549672661
 21
-18877.19938833625
 31
46.99999999998325
  0
LINE
  5
97
330
2
100
AcDbEntity
  8
0
370
     5
100
AcDbLine
 10
2063.067549672662
 20
-18727.19938833627
 30
46.99999999998339
 11
2063.067549672662
 21
-18877.19938833625
 31
46.99999999998325
  0
LINE
  5
98
330
2
100
AcDbEntity
  8
0
370
     5
100
AcDbLine
 10
2083.067549672662
 20
-18707.19938833627
 30
46.99999999998341
 11
2083.067549672662
 21
-18897.19938833625
 31
46.99999999998324
  0
LINE
  5
99
330
2
100
AcDbEntity
  8
0
  6
Continuous
 62
     8
370
     5
100
AcDbLine
 10
1963.067549672691
 20
-18461.20350390556
 30
46.9999999999836
 11
1963.067549672691
 21
-18481.20350390556
 31
46.99999999998358
  0
LINE
  5
9F
330
2
100
AcDbEntity
  8
0
  6
Continuous
 62
     8
370
     5
100
AcDbLine
 10
1963.067549672687
 20
-18291.20350390557
 30
46.99999999998375
 11
1963.067549672687
 21
-18311.20350390557
 31
46.99999999998373
  0
LINE
  5
A0
330
2
100
AcDbEntity
  8
0
370
     5
100
AcDbLine
 10
1063.067549672647
 20
-18881.1224035612
 30
46.99999999998323
 11
943.283721415044
 21
-18881.1224035612
 31
46.99999999998323
  0
LINE
  5
A1
330
2
100
AcDbEntity
  8
0
370
     5
100
AcDbLine
 10
923.2837214150441
 20
-18901.1224035612
 30
46.99999999998321
 11
1063.067549672647
 21
-18901.1224035612
 31
46.99999999998321
  0
LINE
  5
A2
330
2
100
AcDbEntity
  8
0
370
     5
100
AcDbLine
 10
933.0675496733201
 20
-18661.17057795849
 30
46.99999999998342
 11
923.2837214150441
 21
-18661.17057795849
 31
46.99999999998342
  0
LINE
  5
A3
330
2
100
AcDbEntity
  8
0
370
     5
100
AcDbLine
 10
923.2837214150441
 20
-18661.17057795849
 30
46.99999999998342
 11
923.2837214150441
 21
-18901.1224035612
 31
46.99999999998321
  0
LINE
  5
A4
330
2
100
AcDbEntity
  8
0
370
     5
100
AcDbLine
 10
943.283721415044
 20
-18881.1224035612
 30
46.99999999998323
 11
943.283721415044
 21
-18671.38674969988
 31
46.99999999998341
  0
LINE
  5
A5
330
2
100
AcDbEntity
  8
0
370
     5
100
AcDbLine
 10
2083.067549672691
 20
-18291.20350390557
 30
46.99999999998375
 11
1963.067549672687
 21
-18291.20350390557
 31
46.99999999998375
  0
LINE
  5
A6
330
2
100
AcDbEntity
  8
0
370
     5
100
AcDbLine
 10
2063.067549672691
 20
-18311.20350390557
 30
46.99999999998373
 11
1963.067549672687
 21
-18311.20350390557
 31
46.99999999998373
  0
LINE
  5
A7
330
2
100
AcDbEntity
  8
0
370
     5
100
AcDbLine
 10
2083.067549672691
 20
-18481.20350390556
 30
46.99999999998358
 11
1963.067549672691
 21
-18481.20350390556
 31
46.99999999998358
  0
LINE
  5
A8
330
2
100
AcDbEntity
  8
0
370
     5
100
AcDbLine
 10
2063.067549672691
 20
-18461.20350390556
 30
46.9999999999836
 11
1963.067549672691
 21
-18461.20350390556
 31
46.9999999999836
  0
LINE
  5
A9
330
2
100
AcDbEntity
  8
0
370
     5
100
AcDbLine
 10
2063.067549672691
 20
-18311.20350390557
 30
46.99999999998373
 11
2063.067549672691
 21
-18461.20350390556
 31
46.9999999999836
  0
LINE
  5
AA
330
2
100
AcDbEntity
  8
0
370
     5
100
AcDbLine
 10
2083.067549672691
 20
-18291.20350390557
 30
46.99999999998375
 11
2083.067549672691
 21
-18481.20350390556
 31
46.99999999998358
  0
LINE
  5
AB
330
2
100
AcDbEntity
  8
0
  6
Continuous
 62
    40
370
     5
100
AcDbLine
 10
1404.070756132822
 20
-19039.20001521188
 30
46.99999999998309
 11
1404.070756132822
 21
-19032.20001521188
 31
46.99999999998309
  0
LINE
  5
AF
330
2
100
AcDbEntity
  8
0
  6
Continuous
 62
    40
370
     5
100
AcDbLine
 10
1504.070756132822
 20
-19039.20001521188
 30
46.99999999998309
 11
1504.070756132822
 21
-19032.20001521188
 31
46.99999999998309
  0
LINE
  5
B0
330
2
100
AcDbEntity
  8
0
  6
Continuous
 62
    40
370
     5
390
B1
100
AcDbLine
 10
1404.070756132822
 20
-18995.20001521188
 30
46.99999999998313
 11
1504.070756132822
 21
-18995.20001521188
 31
46.99999999998313
  0
LINE
  5
B2
330
2
100
AcDbEntity
  8
0
  6
Continuous
 62
    40
370
     5
100
AcDbLine
 10
1866.067549672665
 20
-19560.2000489478
 30
46.99999999998262
 11
1874.067549672665
 21
-19560.2000489478
 31
46.99999999998262
  0
LINE
  5
B3
330
2
100
AcDbEntity
  8
0
  6
Continuous
 62
    40
370
     5
100
AcDbLine
 10
1874.067549672665
 20
-19560.2000489478
 30
46.99999999998262
 11
1874.067549672665
 21
-19572.2000489478
 31
46.99999999998262
  0
LINE
  5
B4
330
2
100
AcDbEntity
  8
0
  6
Continuous
 62
    40
370
     5
100
AcDbLine
 10
1874.067549672665
 20
-19572.2000489478
 30
46.99999999998262
 11
1866.067549672665
 21
-19572.2000489478
 31
46.99999999998262
  0
LINE
  5
B5
330
2
100
AcDbEntity
  8
0
  6
Continuous
 62
    40
370
     5
100
AcDbLine
 10
1866.067549672665
 20
-19572.2000489478
 30
46.99999999998262
 11
1866.067549672665
 21
-19560.2000489478
 31
46.99999999998262
  0
LINE
  5
B6
330
2
100
AcDbEntity
  8
0
  6
Continuous
 62
    40
370
     5
100
AcDbLine
 10
1632.067549672665
 20
-19560.2000489478
 30
46.99999999998262
 11
1624.067549672665
 21
-19560.2000489478
 31
46.99999999998262
  0
LINE
  5
B7
330
2
100
AcDbEntity
  8
0
  6
Continuous
 62
    40
370
     5
100
AcDbLine
 10
1624.067549672665
 20
-19560.2000489478
 30
46.99999999998262
 11
1624.067549672665
 21
-19572.2000489478
 31
46.99999999998262
  0
LINE
  5
B8
330
2
100
AcDbEntity
  8
0
  6
Continuous
 62
    40
370
     5
100
AcDbLine
 10
1624.067549672665
 20
-19572.2000489478
 30
46.99999999998262
 11
1632.067549672665
 21
-19572.2000489478
 31
46.99999999998262
  0
LINE
  5
B9
330
2
100
AcDbEntity
  8
0
  6
Continuous
 62
    40
370
     5
100
AcDbLine
 10
1632.067549672665
 20
-19572.2000489478
 30
46.99999999998262
 11
1632.067549672665
 21
-19560.2000489478
 31
46.99999999998262
  0
INSERT
  5
BA
330
2
100
AcDbEntity
  8
0
  6
Continuous
 62
    40
370
     5
100
AcDbBlockReference
  2
linia_pozioma
 10
1874.067549672665
 20
-19560.2000489478
 30
46.99999999998262
 41
250.0
 50
180.0
1001
AEC_XDATA_BOUND_SPACE
1070
   100
1070
     1
  0
LINE
  5
C0
330
2
100
AcDbEntity
  8
0
  6
Continuous
 62
    40
370
     5
390
B1
100
AcDbLine
 10
1874.067549672665
 20
-19572.2000489478
 30
46.99999999998262
 11
1624.067549672665
 21
-19572.2000489478
 31
46.99999999998262
  0
LINE
  5
C1
330
2
100
AcDbEntity
  8
0
  6
Continuous
 62
    40
370
     5
390
B1
100
AcDbLine
 10
1874.067549672665
 20
-19560.2000489478
 30
46.99999999998262
 11
1624.067549672665
 21
-19560.2000489478
 31
46.99999999998262
  0
HATCH
  5
C2
330
2
100
AcDbEntity
  8
0
 62
     0
 48
4.0
370
     5
100
AcDbHatch
 10
0.0
 20
0.0
 30
0.0
210
0.0
220
-0.0000000000000009
230
1.0
  2
SOLID
 70
     1
 71
     1
 91
        1
 92
        7
 72
     0
 73
     1
 93
       24
 10
1243.067549672665
 20
-18215.20001521188
 10
1243.067549672665
 20
-18155.20001521189
 10
1063.067549672667
 20
-18155.20001521189
 10
1063.067549672665
 20
-18373.20001521242
 10
1022.846986924314
 20
-18373.20001521308
 10
946.1551303123542
 20
-18449.89187182253
 10
933.0675496740896
 20
-18462.97945246038
 10
933.0675496740914
 20
-18617.07501520982
 10
933.0675496740896
 20
-18661.17057795926
 10
946.1551303123524
 20
-18674.25815859709
 10
1023.095582529093
 20
-18751.19861081134
 10
1063.067549672663
 20
-18751.19861081198
 10
1063.067549672669
 20
-19055.20001521188
 10
1258.567549672669
 20
-19055.20001521188
 10
1404.070756132822
 20
-19055.20001521188
 10
1404.07075613282
 20
-18995.20001521188
 10
1123.067549672665
 20
-18995.20001521188
 10
1123.067549672665
 20
-18691.19861081195
 10
1047.948396271056
 20
-18691.19861081149
 10
993.0675496740914
 20
-18636.3177642163
 10
993.0675496740896
 20
-18487.83226620333
 10
1047.699800666249
 20
-18433.20001521295
 10
1123.067549673018
 20
-18433.2000152126
 10
1123.067549673016
 20
-18215.20001521188
 97
       24
330
C3
330
DC
330
DA
330
E0
330
DF
330
DE
330
DD
330
E4
330
E3
330
E1
330
D9
330
D8
330
D6
330
D7
330
109
330
108
330
E2
330
106
330
104
330
105
330
DB
330
107
330
103
330
110
 75
     0
 76
     1
 47
1.699175816125455
 98
        1
 10
1179.810384577022
 20
-18194.27271770033
1001
ACAD
1010
0.0
1020
0.0
1030
0.0
  0
LINE
  5
C3
102
{ACAD_REACTORS
330
C2
102
}
330
2
100
AcDbEntity
  8
0
  6
Continuous
 62
     7
370
     5
100
AcDbLine
 10
1243.067549672665
 20
-18155.20001521189
 30
46.99999999998388
 11
1063.067549672667
 21
-18155.20001521189
 31
46.99999999998388
  0
HATCH
  5
C7
330
2
100
AcDbEntity
  8
0
 62
     0
 48
4.0
370
     5
100
AcDbHatch
 10
0.0
 20
0.0
 30
0.0
210
0.0
220
-0.0000000000000009
230
1.0
  2
SOLID
 70
     1
 71
     0
 91
        1
 92
        7
 72
     0
 73
     1
 93
       11
 10
1963.067549672667
 20
-18155.20001521189
 10
1603.067549672665
 20
-18155.20001521189
 10
1423.067549672665
 20
-18155.20001521189
 10
1423.067549672665
 20
-18215.20001521188
 10
1903.067549672667
 20
-18215.20001521188
 10
1903.067549672667
 20
-19525.70004894776
 10
1874.067549672663
 20
-19525.70004894777
 10
1874.067549672665
 20
-19585.70004894776
 10
1963.067549672667
 20
-19585.70004894775
 10
1963.067549672667
 20
-18835.20001521189
 10
1963.067549672658
 20
-18687.19938833627
 97
        0
 75
     0
 76
     1
 47
1.699175816125455
 98
        1
 10
1948.17786636052
 20
-18365.88948447929
1001
ACAD
1010
0.0
1020
0.0
1030
0.0
  0
LINE
  5
C8
330
2
100
AcDbEntity
  8
0
  6
Continuous
 62
     7
370
     5
100
AcDbLine
 10
1603.067549672665
 20
-18155.20001521189
 30
46.99999999998388
 11
1423.067549672665
 21
-18155.20001521189
 31
46.99999999998388
  0
LINE
  5
C9
330
2
100
AcDbEntity
  8
0
  6
Continuous
 62
     7
370
     5
100
AcDbLine
 10
1963.067549672667
 20
-18155.20001521189
 30
46.99999999998388
 11
1603.067549672665
 21
-18155.20001521189
 31
46.99999999998388
  0
LINE
  5
CA
330
2
100
AcDbEntity
  8
0
  6
Continuous
 62
     7
370
     5
100
AcDbLine
 10
1963.067549672667
 20
-19585.7000489478
 30
46.99999999998261
 11
1963.067549672667
 21
-18835.20001521189
 31
46.99999999998327
  0
LINE
  5
CB
330
2
100
AcDbEntity
  8
0
  6
Continuous
 62
     7
370
     5
100
AcDbLine
 10
1963.067549672667
 20
-18687.19938833627
 30
46.9999999999834
 11
1963.067549672667
 21
-18155.20001521189
 31
46.99999999998388
  0
LINE
  5
CC
330
2
100
AcDbEntity
  8
0
  6
Continuous
 62
     7
370
     5
100
AcDbLine
 10
1963.067549672667
 20
-18835.20001521189
 30
46.99999999998327
 11
1963.067549672658
 21
-18687.19938833627
 31
46.9999999999834
  0
LINE
  5
CD
330
2
100
AcDbEntity
  8
0
  6
Continuous
 62
     7
370
     5
100
AcDbLine
 10
1874.067549672663
 20
-19525.70004894776
 30
46.99999999998264
 11
1874.067549672665
 21
-19585.7000489478
 31
46.99999999998261
  0
LINE
  5
CE
330
2
100
AcDbEntity
  8
0
  6
Continuous
 62
     7
370
     5
100
AcDbLine
 10
1874.067549672665
 20
-19585.7000489478
 30
46.99999999998261
 11
1963.067549672667
 21
-19585.7000489478
 31
46.99999999998261
  0
LINE
  5
CF
330
2
100
AcDbEntity
  8
0
  6
Continuous
 62
     7
370
     5
100
AcDbLine
 10
1535.070756132825
 20
-19585.7000489478
 30
46.99999999998261
 11
1624.067549672665
 21
-19585.7000489478
 31
46.99999999998261
  0
HATCH
  5
D0
330
2
100
AcDbEntity
  8
0
 62
     0
 48
4.0
370
     5
100
AcDbHatch
 10
0.0
 20
0.0
 30
0.0
210
0.0
220
-0.0000000000000009
230
1.0
  2
SOLID
 70
     1
 71
     0
 91
        1
 92
        7
 72
     0
 73
     1
 93
        9
 10
1595.070756132823
 20
-18995.20001521188
 10
1504.070756132822
 20
-18995.20001521188
 10
1504.070756132822
 20
-19055.20001521188
 10
1535.070756132822
 20
-19055.20001521188
 10
1535.070756132823
 20
-19225.2000489478
 10
1535.070756132825
 20
-19585.70004894781
 10
1624.067549672665
 20
-19585.70004894779
 10
1624.067549672663
 20
-19525.7000489478
 10
1595.070756132822
 20
-19525.7000489478
 97
        0
 75
     0
 76
     1
 47
2.141858721987088
 98
        1
 10
1583.406746607759
 20
-19358.74890382316
1001
ACAD
1010
0.0
1020
0.0
1030
0.0
  0
LINE
  5
D1
330
2
100
AcDbEntity
  8
0
  6
Continuous
 62
     7
370
     5
100
AcDbLine
 10
1624.067549672665
 20
-19585.7000489478
 30
46.99999999998261
 11
1624.067549672663
 21
-19525.7000489478
 31
46.99999999998264
  0
LINE
  5
D2
330
2
100
AcDbEntity
  8
0
  6
Continuous
 62
     7
370
     5
100
AcDbLine
 10
1535.070756132823
 20
-19225.2000489478
 30
46.99999999998293
 11
1535.070756132825
 21
-19585.7000489478
 31
46.99999999998261
  0
LINE
  5
D3
330
2
100
AcDbEntity
  8
0
  6
Continuous
 62
     7
370
     5
100
AcDbLine
 10
1535.07075613282
 20
-19055.20001521188
 30
46.99999999998307
 11
1535.070756132823
 21
-19225.2000489478
 31
46.99999999998293
  0
LINE
  5
D4
330
2
100
AcDbEntity
  8
0
  6
Continuous
 62
     7
370
     5
100
AcDbLine
 10
1504.070756132822
 20
-18995.20001521188
 30
46.99999999998313
 11
1504.070756132822
 21
-19055.20001521188
 31
46.99999999998307
  0
LINE
  5
D5
330
2
100
AcDbEntity
  8
0
  6
Continuous
 62
     7
370
     5
100
AcDbLine
 10
1504.070756132822
 20
-19055.20001521188
 30
46.99999999998307
 11
1535.07075613282
 21
-19055.20001521188
 31
46.99999999998307
  0
LINE
  5
D6
102
{ACAD_REACTORS
330
C2
102
}
330
2
100
AcDbEntity
  8
0
  6
Continuous
 62
     7
370
     5
100
AcDbLine
 10
1258.567549672669
 20
-19055.20001521188
 30
46.99999999998307
 11
1404.070756132822
 21
-19055.20001521188
 31
46.99999999998307
  0
LINE
  5
D7
102
{ACAD_REACTORS
330
C2
102
}
330
2
100
AcDbEntity
  8
0
  6
Continuous
 62
     7
370
     5
100
AcDbLine
 10
1404.070756132822
 20
-19055.20001521188
 30
46.99999999998307
 11
1404.070756132822
 21
-18995.20001521188
 31
46.99999999998313
  0
LINE
  5
D8
102
{ACAD_REACTORS
330
C2
102
}
330
2
100
AcDbEntity
  8
0
  6
Continuous
 62
     7
370
     5
100
AcDbLine
 10
1063.067549672669
 20
-19055.20001521188
 30
46.99999999998307
 11
1258.567549672669
 21
-19055.20001521188
 31
46.99999999998307
  0
LINE
  5
D9
102
{ACAD_REACTORS
330
C2
102
}
330
2
100
AcDbEntity
  8
0
  6
Continuous
 62
     7
370
     5
100
AcDbLine
 10
1063.067549672663
 20
-18751.19861081198
 30
46.99999999998334
 11
1063.067549672669
 21
-19055.20001521188
 31
46.99999999998307
  0
LINE
  5
DA
102
{ACAD_REACTORS
330
C2
102
}
330
2
100
AcDbEntity
  8
0
  6
Continuous
 62
     7
370
     5
100
AcDbLine
 10
1063.067549672665
 20
-18373.20001521242
 30
46.99999999998367
 11
1022.846986924316
 21
-18373.20001521307
 31
46.99999999998367
  0
LINE
  5
DB
102
{ACAD_REACTORS
330
C2
102
}
330
2
100
AcDbEntity
  8
0
  6
Continuous
 62
     7
370
     5
100
AcDbLine
 10
1123.067549673018
 20
-18433.2000152126
 30
46.99999999998363
 11
1047.699800666247
 21
-18433.20001521296
 31
46.99999999998363
  0
LINE
  5
DC
102
{ACAD_REACTORS
330
C2
102
}
330
2
100
AcDbEntity
  8
0
  6
Continuous
 62
     7
370
     5
100
AcDbLine
 10
1063.067549672667
 20
-18155.20001521189
 30
46.99999999998388
 11
1063.067549672665
 21
-18373.20001521242
 31
46.99999999998367
  0
LINE
  5
DD
102
{ACAD_REACTORS
330
C2
102
}
330
2
100
AcDbEntity
  8
0
  6
Continuous
 62
     7
370
     5
100
AcDbLine
 10
933.0675496740914
 20
-18617.07501520982
 30
46.99999999998346
 11
933.0675496740914
 21
-18661.17057795926
 31
46.99999999998342
  0
LINE
  5
DE
102
{ACAD_REACTORS
330
C2
102
}
330
2
100
AcDbEntity
  8
0
  6
Continuous
 62
     7
370
     5
100
AcDbLine
 10
933.0675496740914
 20
-18462.97945246038
 30
46.9999999999836
 11
933.0675496740914
 21
-18617.07501520982
 31
46.99999999998346
  0
LINE
  5
DF
102
{ACAD_REACTORS
330
C2
102
}
330
2
100
AcDbEntity
  8
0
  6
Continuous
 62
     7
370
     5
100
AcDbLine
 10
946.155130312356
 20
-18449.89187182254
 30
46.99999999998361
 11
933.0675496740914
 21
-18462.97945246038
 31
46.9999999999836
  0
LINE
  5
E0
102
{ACAD_REACTORS
330
C2
102
}
330
2
100
AcDbEntity
  8
0
  6
Continuous
 62
     7
370
     5
100
AcDbLine
 10
1022.846986924316
 20
-18373.20001521307
 30
46.99999999998367
 11
946.1551303123542
 21
-18449.89187182253
 31
46.99999999998361
  0
LINE
  5
E1
102
{ACAD_REACTORS
330
C2
102
}
330
2
100
AcDbEntity
  8
0
  6
Continuous
 62
     7
370
     5
100
AcDbLine
 10
1023.095582529091
 20
-18751.19861081134
 30
46.99999999998334
 11
1063.067549672663
 21
-18751.19861081198
 31
46.99999999998334
  0
LINE
  5
E2
102
{ACAD_REACTORS
330
C2
102
}
330
2
100
AcDbEntity
  8
0
  6
Continuous
 62
     7
370
     5
100
AcDbLine
 10
1047.948396271062
 20
-18691.19861081149
 30
46.9999999999834
 11
1127.457860615706
 21
-18691.19861081198
 31
46.9999999999834
  0
LINE
  5
E3
102
{ACAD_REACTORS
330
C2
102
}
330
2
100
AcDbEntity
  8
0
  6
Continuous
 62
     7
370
     5
100
AcDbLine
 10
946.1551303123524
 20
-18674.25815859709
 30
46.99999999998341
 11
1023.095582529091
 21
-18751.19861081134
 31
46.99999999998334
  0
LINE
  5
E4
102
{ACAD_REACTORS
330
C2
102
}
330
2
100
AcDbEntity
  8
0
  6
Continuous
 62
     7
370
     5
100
AcDbLine
 10
933.0675496740914
 20
-18661.17057795926
 30
46.99999999998342
 11
946.1551303123524
 21
-18674.25815859709
 31
46.99999999998341
  0
LINE
  5
E5
330
2
100
AcDbEntity
  8
0
  6
DASHED
 62
    40
370
     5
100
AcDbLine
 10
1866.067549672665
 20
-19642.7000489478
 30
46.99999999998255
 11
1866.067549672665
 21
-19422.7000489478
 31
46.99999999998275
  0
LINE
  5
E7
330
2
100
AcDbEntity
  8
0
  6
DASHED
 62
    40
370
     5
100
AcDbLine
 10
1632.067549672665
 20
-19642.7000489478
 30
46.99999999998255
 11
1866.067549672665
 21
-19642.7000489478
 31
46.99999999998255
  0
LINE
  5
E8
330
2
100
AcDbEntity
  8
0
  6
DASHED
 62
    40
370
     5
100
AcDbLine
 10
1632.067549672665
 20
-19422.7000489478
 30
46.99999999998275
 11
1632.067549672665
 21
-19642.7000489478
 31
46.99999999998255
  0
LINE
  5
E9
330
2
100
AcDbEntity
  8
0
  6
DASHED
 62
    40
370
     5
100
AcDbLine
 10
1866.067549672665
 20
-19422.7000489478
 30
46.99999999998275
 11
1632.067549672665
 21
-19422.7000489478
 31
46.99999999998275
  0
DIMENSION
  5
EA
330
2
100
AcDbEntity
  8
0
370
     5
100
AcDbDimension
  2
*D30
 10
933.0675496740916
 20
-17451.11183963744
 30
-0.0000000000006405
 11
1448.06754967338
 21
-17371.11183963744
 31
-0.0000000000006405
 70
    32
 71
     5
 42
1029.999999998577
  3
500
100
AcDbAlignedDimension
 13
1963.067549672669
 23
-18155.20001521189
 33
46.99999999998388
 14
933.0675496740914
 24
-18462.97945246038
 34
46.9999999999836
100
AcDbRotatedDimension
  0
DIMENSION
  5
F6
330
2
100
AcDbEntity
  8
0
370
     5
100
AcDbDimension
  2
*D29
 10
484.3314982527062
 20
-19585.7000489478
 30
-0.0000000000006405
 11
404.3314982527095
 21
-18870.45003207984
 31
-0.0000000000006405
 70
    32
  1
1430
 71
     5
 42
1430.50003373592
  3
500
100
AcDbAlignedDimension
 13
1063.067549672667
 23
-18155.20001521188
 33
46.99999999998388
 14
1535.070756132825
 24
-19585.7000489478
 34
46.99999999998261
 50
90.0
100
AcDbRotatedDimension
  0
LINE
  5
101
330
2
100
AcDbEntity
  8
0
 48
4.0
370
     5
100
AcDbLine
 10
1243.067549672665
 20
-18155.20001521189
 30
46.99999999998388
 11
1423.067549672665
 21
-18155.20001521189
 31
46.99999999998388
  0
LINE
  5
102
330
2
100
AcDbEntity
  8
0
  6
Continuous
 62
     7
370
     5
100
AcDbLine
 10
1903.067549672667
 20
-18215.20001521188
 30
46.99999999998381
 11
1423.067549672665
 21
-18215.20001521188
 31
46.99999999998381
  0
LINE
  5
103
102
{ACAD_REACTORS
330
C2
102
}
330
2
100
AcDbEntity
  8
0
  6
Continuous
 62
     7
370
     5
100
AcDbLine
 10
1243.067549672665
 20
-18215.20001521188
 30
46.99999999998381
 11
1123.067549673018
 21
-18215.20001521188
 31
46.99999999998381
  0
LINE
  5
104
102
{ACAD_REACTORS
330
C2
102
}
330
2
100
AcDbEntity
  8
0
  6
Continuous
 62
     7
370
     5
100
AcDbLine
 10
993.0675496740914
 20
-18487.83226620333
 30
46.99999999998357
 11
993.0675496740914
 21
-18636.3177642163
 31
46.99999999998345
  0
LINE
  5
105
102
{ACAD_REACTORS
330
C2
102
}
330
2
100
AcDbEntity
  8
0
  6
Continuous
 62
     7
370
     5
100
AcDbLine
 10
993.0675496740914
 20
-18487.83226620333
 30
46.99999999998357
 11
1047.699800666247
 21
-18433.20001521296
 31
46.99999999998363
  0
LINE
  5
106
102
{ACAD_REACTORS
330
C2
102
}
330
2
100
AcDbEntity
  8
0
  6
Continuous
 62
     7
370
     5
100
AcDbLine
 10
993.0675496740914
 20
-18636.3177642163
 30
46.99999999998343
 11
1047.948396271062
 21
-18691.19861081149
 31
46.99999999998341
  0
LINE
  5
107
102
{ACAD_REACTORS
330
C2
102
}
330
2
100
AcDbEntity
  8
0
  6
Continuous
 62
     7
370
     5
100
AcDbLine
 10
1123.067549673018
 20
-18433.2000152126
 30
46.99999999998361
 11
1123.067549673018
 21
-18215.20001521188
 31
46.99999999998381
  0
LINE
  5
108
102
{ACAD_REACTORS
330
C2
102
}
330
2
100
AcDbEntity
  8
0
  6
Continuous
 62
     7
370
     5
100
AcDbLine
 10
1123.067549672665
 20
-18691.19861081196
 30
46.9999999999834
 11
1123.067549672665
 21
-18995.20001521188
 31
46.99999999998313
  0
LINE
  5
109
102
{ACAD_REACTORS
330
C2
102
}
330
2
100
AcDbEntity
  8
0
  6
Continuous
 62
     7
370
     5
100
AcDbLine
 10
1123.067549672665
 20
-18995.20001521188
 30
46.99999999998313
 11
1404.070756132822
 21
-18995.20001521188
 31
46.99999999998313
  0
LINE
  5
10A
330
2
100
AcDbEntity
  8
0
  6
Continuous
 62
     7
370
     5
100
AcDbLine
 10
1504.070756132822
 20
-18995.20001521188
 30
46.99999999998313
 11
1595.070756132823
 21
-18995.20001521188
 31
46.99999999998313
  0
LINE
  5
10B
330
2
100
AcDbEntity
  8
0
  6
Continuous
 62
     7
370
     5
100
AcDbLine
 10
1595.070756132823
 20
-19525.7000489478
 30
46.99999999998265
 11
1595.070756132823
 21
-18995.20001521188
 31
46.99999999998313
  0
LINE
  5
10C
330
2
100
AcDbEntity
  8
0
  6
Continuous
 62
     7
370
     5
100
AcDbLine
 10
1903.067549672667
 20
-19525.70004894776
 30
46.99999999998265
 11
1903.067549672667
 21
-18215.20001521188
 31
46.99999999998381
  0
LINE
  5
10D
330
2
100
AcDbEntity
  8
0
  6
Continuous
 62
     7
370
     5
100
AcDbLine
 10
1595.070756132823
 20
-19525.7000489478
 30
46.99999999998265
 11
1624.067549672663
 21
-19525.7000489478
 31
46.99999999998265
  0
LINE
  5
10E
330
2
100
AcDbEntity
  8
0
  6
Continuous
 62
     7
370
     5
100
AcDbLine
 10
1874.067549672663
 20
-19525.70004894777
 30
46.99999999998265
 11
1903.067549672667
 21
-19525.70004894776
 31
46.99999999998265
  0
LINE
  5
10F
102
{ACAD_REACTORS
330
315
102
}
330
2
100
AcDbEntity
  8
0
  6
Continuous
 62
     7
370
     5
100
AcDbLine
 10
1423.067549672665
 20
-18155.20001521189
 30
46.99999999998388
 11
1423.067549672665
 21
-18215.20001521188
 31
46.99999999998381
  0
LINE
  5
110
102
{ACAD_REACTORS
330
C2
330
315
102
}
330
2
100
AcDbEntity
  8
0
  6
Continuous
 62
     7
370
     5
100
AcDbLine
 10
1243.067549672665
 20
-18155.20001521189
 30
46.99999999998388
 11
1243.067549672665
 21
-18215.20001521188
 31
46.99999999998381
  0
LINE
  5
111
102
{ACAD_REACTORS
330
315
102
}
330
2
100
AcDbEntity
  8
0
 48
4.0
370
     5
100
AcDbLine
 10
1243.067549672665
 20
-18215.20001521188
 30
46.99999999998381
 11
1423.067549672665
 21
-18215.20001521188
 31
46.99999999998381
  0
LINE
  5
112
330
2
100
AcDbEntity
  8
0
 62
     2
370
     5
100
AcDbLine
 10
1243.067549672665
 20
-17825.20001521188
 30
-0.000000000015832
 11
965.7359553156876
 21
-17825.20001521188
 31
-0.000000000015832
  0
LINE
  5
116
330
2
100
AcDbEntity
  8
0
370
     5
100
AcDbLine
 10
1963.067549672667
 20
-17840.20001521188
 30
-0.0000000000158453
 11
1963.067549672667
 21
-17760.32097415198
 31
-0.0000000000157743
  0
POLYLINE
  5
117
330
2
100
AcDbEntity
  8
0
370
     5
100
AcDbPolygonMesh
 66
     1
 10
0.0
 20
0.0
 30
0.0
 70
    16
 71
     2
 72
    16
  0
VERTEX
  5
11B
330
117
100
AcDbEntity
  8
0
370
     5
100
AcDbVertex
100
AcDbPolygonMeshVertex
 10
1438.067549672665
 20
-17840.20001521188
 30
44.99999999998415
 70
    64
  0
VERTEX
  5
11C
330
117
100
AcDbEntity
  8
0
370
     5
100
AcDbVertex
100
AcDbPolygonMeshVertex
 10
1473.067549672665
 20
-17840.20001521188
 30
44.99999999998415
 70
    64
  0
VERTEX
  5
11D
330
117
100
AcDbEntity
  8
0
370
     5
100
AcDbVertex
100
AcDbPolygonMeshVertex
 10
1508.067549672665
 20
-17840.20001521188
 30
44.99999999998415
 70
    64
  0
VERTEX
  5
11E
330
117
100
AcDbEntity
  8
0
370
     5
100
AcDbVertex
100
AcDbPolygonMeshVertex
 10
1543.067549672665
 20
-17840.20001521188
 30
44.99999999998415
 70
    64
  0
VERTEX
  5
11F
330
117
100
AcDbEntity
  8
0
370
     5
100
AcDbVertex
100
AcDbPolygonMeshVertex
 10
1578.067549672665
 20
-17840.20001521188
 30
44.99999999998415
 70
    64
  0
VERTEX
  5
120
330
117
100
AcDbEntity
  8
0
370
     5
100
AcDbVertex
100
AcDbPolygonMeshVertex
 10
1613.067549672665
 20
-17840.20001521188
 30
44.99999999998415
 70
    64
  0
VERTEX
  5
121
330
117
100
AcDbEntity
  8
0
370
     5
100
AcDbVertex
100
AcDbPolygonMeshVertex
 10
1648.067549672665
 20
-17840.20001521188
 30
44.99999999998415
 70
    64
  0
VERTEX
  5
122
330
117
100
AcDbEntity
  8
0
370
     5
100
AcDbVertex
100
AcDbPolygonMeshVertex
 10
1683.067549672665
 20
-17840.20001521188
 30
44.99999999998415
 70
    64
  0
VERTEX
  5
123
330
117
100
AcDbEntity
  8
0
370
     5
100
AcDbVertex
100
AcDbPolygonMeshVertex
 10
1718.067549672665
 20
-17840.20001521188
 30
44.99999999998415
 70
    64
  0
VERTEX
  5
124
330
117
100
AcDbEntity
  8
0
370
     5
100
AcDbVertex
100
AcDbPolygonMeshVertex
 10
1753.067549672665
 20
-17840.20001521188
 30
44.99999999998415
 70
    64
  0
VERTEX
  5
125
330
117
100
AcDbEntity
  8
0
370
     5
100
AcDbVertex
100
AcDbPolygonMeshVertex
 10
1788.067549672665
 20
-17840.20001521188
 30
44.99999999998415
 70
    64
  0
VERTEX
  5
126
330
117
100
AcDbEntity
  8
0
370
     5
100
AcDbVertex
100
AcDbPolygonMeshVertex
 10
1823.067549672667
 20
-17840.20001521188
 30
44.99999999998415
 70
    64
  0
VERTEX
  5
127
330
117
100
AcDbEntity
  8
0
370
     5
100
AcDbVertex
100
AcDbPolygonMeshVertex
 10
1858.067549672667
 20
-17840.20001521188
 30
44.99999999998415
 70
    64
  0
VERTEX
  5
128
330
117
100
AcDbEntity
  8
0
370
     5
100
AcDbVertex
100
AcDbPolygonMeshVertex
 10
1893.067549672667
 20
-17840.20001521188
 30
44.99999999998415
 70
    64
  0
VERTEX
  5
129
330
117
100
AcDbEntity
  8
0
370
     5
100
AcDbVertex
100
AcDbPolygonMeshVertex
 10
1928.067549672667
 20
-17840.20001521188
 30
44.99999999998415
 70
    64
  0
VERTEX
  5
12A
330
117
100
AcDbEntity
  8
0
370
     5
100
AcDbVertex
100
AcDbPolygonMeshVertex
 10
1963.067549672667
 20
-17840.20001521188
 30
44.99999999998415
 70
    64
  0
VERTEX
  5
12B
330
117
100
AcDbEntity
  8
0
370
     5
100
AcDbVertex
100
AcDbPolygonMeshVertex
 10
1438.067549672665
 20
-17760.32097415198
 30
-0.0000000000157743
 70
    64
  0
VERTEX
  5
12C
330
117
100
AcDbEntity
  8
0
370
     5
100
AcDbVertex
100
AcDbPolygonMeshVertex
 10
1473.067549672665
 20
-17760.32097415198
 30
-0.0000000000157743
 70
    64
  0
VERTEX
  5
12D
330
117
100
AcDbEntity
  8
0
370
     5
100
AcDbVertex
100
AcDbPolygonMeshVertex
 10
1508.067549672665
 20
-17760.32097415198
 30
-0.0000000000157743
 70
    64
  0
VERTEX
  5
12E
330
117
100
AcDbEntity
  8
0
370
     5
100
AcDbVertex
100
AcDbPolygonMeshVertex
 10
1543.067549672665
 20
-17760.32097415198
 30
-0.0000000000157743
 70
    64
  0
VERTEX
  5
12F
330
117
100
AcDbEntity
  8
0
370
     5
100
AcDbVertex
100
AcDbPolygonMeshVertex
 10
1578.067549672665
 20
-17760.32097415198
 30
-0.0000000000157743
 70
    64
  0
VERTEX
  5
130
330
117
100
AcDbEntity
  8
0
370
     5
100
AcDbVertex
100
AcDbPolygonMeshVertex
 10
1613.067549672665
 20
-17760.32097415198
 30
-0.0000000000157743
 70
    64
  0
VERTEX
  5
131
330
117
100
AcDbEntity
  8
0
370
     5
100
AcDbVertex
100
AcDbPolygonMeshVertex
 10
1648.067549672665
 20
-17760.32097415198
 30
-0.0000000000157743
 70
    64
  0
VERTEX
  5
132
330
117
100
AcDbEntity
  8
0
370
     5
100
AcDbVertex
100
AcDbPolygonMeshVertex
 10
1683.067549672665
 20
-17760.32097415198
 30
-0.0000000000157743
 70
    64
  0
VERTEX
  5
133
330
117
100
AcDbEntity
  8
0
370
     5
100
AcDbVertex
100
AcDbPolygonMeshVertex
 10
1718.067549672665
 20
-17760.32097415198
 30
-0.0000000000157743
 70
    64
  0
VERTEX
  5
134
330
117
100
AcDbEntity
  8
0
370
     5
100
AcDbVertex
100
AcDbPolygonMeshVertex
 10
1753.067549672665
 20
-17760.32097415198
 30
-0.0000000000157743
 70
    64
  0
VERTEX
  5
135
330
117
100
AcDbEntity
  8
0
370
     5
100
AcDbVertex
100
AcDbPolygonMeshVertex
 10
1788.067549672665
 20
-17760.32097415198
 30
-0.0000000000157743
 70
    64
  0
VERTEX
  5
136
330
117
100
AcDbEntity
  8
0
370
     5
100
AcDbVertex
100
AcDbPolygonMeshVertex
 10
1823.067549672667
 20
-17760.32097415198
 30
-0.0000000000157743
 70
    64
  0
VERTEX
  5
137
330
117
100
AcDbEntity
  8
0
370
     5
100
AcDbVertex
100
AcDbPolygonMeshVertex
 10
1858.067549672667
 20
-17760.32097415198
 30
-0.0000000000157743
 70
    64
  0
VERTEX
  5
138
330
117
100
AcDbEntity
  8
0
370
     5
100
AcDbVertex
100
AcDbPolygonMeshVertex
 10
1893.067549672667
 20
-17760.32097415198
 30
-0.0000000000157743
 70
    64
  0
VERTEX
  5
139
330
117
100
AcDbEntity
  8
0
370
     5
100
AcDbVertex
100
AcDbPolygonMeshVertex
 10
1928.067549672667
 20
-17760.32097415198
 30
-0.0000000000157743
 70
    64
  0
VERTEX
  5
13A
330
117
100
AcDbEntity
  8
0
370
     5
100
AcDbVertex
100
AcDbPolygonMeshVertex
 10
1963.067549672667
 20
-17760.32097415198
 30
-0.0000000000157743
 70
    64
  0
SEQEND
  5
13B
330
117
100
AcDbEntity
  8
0
370
     5
  0
3DFACE
  5
13C
330
2
100
AcDbEntity
  8
0
370
     5
100
AcDbFace
 10
1228.067549672665
 20
-17810.20001521188
 30
44.99999999998418
 11
1206.575537266421
 21
-17810.20001521188
 31
44.99999999998418
 12
1204.219384777569
 22
-17765.20001521188
 32
-0.0000000000157787
 13
1228.067549672665
 23
-17765.20001521188
 33
-0.0000000000157787
  0
3DFACE
  5
13D
330
2
100
AcDbEntity
  8
0
370
     5
100
AcDbFace
 10
1206.575537266421
 20
-17810.20001521188
 30
44.99999999998418
 11
1185.083524860176
 21
-17810.20001521188
 31
44.99999999998418
 12
1180.371219882472
 22
-17765.20001521188
 32
-0.0000000000157787
 13
1204.219384777569
 23
-17765.20001521188
 33
-0.0000000000157787
  0
3DFACE
  5
13E
330
2
100
AcDbEntity
  8
0
370
     5
100
AcDbFace
 10
1185.083524860176
 20
-17810.20001521188
 30
44.99999999998418
 11
1163.591512453931
 21
-17810.20001521188
 31
44.99999999998418
 12
1156.523054987377
 22
-17765.20001521188
 32
-0.0000000000157787
 13
1180.371219882472
 23
-17765.20001521188
 33
-0.0000000000157787
  0
3DFACE
  5
13F
330
2
100
AcDbEntity
  8
0
370
     5
100
AcDbFace
 10
1163.591512453931
 20
-17810.20001521188
 30
44.99999999998418
 11
1142.099500047689
 21
-17810.20001521188
 31
44.99999999998418
 12
1132.674890092281
 22
-17765.20001521188
 32
-0.0000000000157787
 13
1156.523054987377
 23
-17765.20001521188
 33
-0.0000000000157787
  0
3DFACE
  5
140
330
2
100
AcDbEntity
  8
0
370
     5
100
AcDbFace
 10
1142.099500047689
 20
-17810.20001521188
 30
44.99999999998418
 11
1120.607487641444
 21
-17810.20001521188
 31
44.99999999998418
 12
1108.826725197185
 22
-17765.20001521188
 32
-0.0000000000157787
 13
1132.674890092281
 23
-17765.20001521188
 33
-0.0000000000157787
  0
3DFACE
  5
141
330
2
100
AcDbEntity
  8
0
370
     5
100
AcDbFace
 10
1120.607487641444
 20
-17810.20001521188
 30
44.99999999998418
 11
1099.115475235201
 21
-17810.20001521188
 31
44.99999999998418
 12
1084.97856030209
 22
-17765.20001521188
 32
-0.0000000000157787
 13
1108.826725197185
 23
-17765.20001521188
 33
-0.0000000000157787
  0
3DFACE
  5
142
330
2
100
AcDbEntity
  8
0
370
     5
100
AcDbFace
 10
1099.115475235201
 20
-17810.20001521188
 30
44.99999999998418
 11
1077.623462828956
 21
-17810.20001521188
 31
44.99999999998418
 12
1061.130395406993
 22
-17765.20001521188
 32
-0.0000000000157787
 13
1084.97856030209
 23
-17765.20001521188
 33
-0.0000000000157787
  0
3DFACE
  5
143
330
2
100
AcDbEntity
  8
0
370
     5
100
AcDbFace
 10
1077.623462828956
 20
-17810.20001521188
 30
44.99999999998418
 11
1056.131450422712
 21
-17810.20001521188
 31
44.99999999998418
 12
1037.282230511897
 22
-17765.20001521188
 32
-0.0000000000157787
 13
1061.130395406993
 23
-17765.20001521188
 33
-0.0000000000157787
  0
3DFACE
  5
144
330
2
100
AcDbEntity
  8
0
370
     5
100
AcDbFace
 10
1056.131450422712
 20
-17810.20001521188
 30
44.99999999998418
 11
1034.639438016467
 21
-17810.20001521188
 31
44.99999999998418
 12
1013.434065616802
 22
-17765.20001521188
 32
-0.0000000000157787
 13
1037.282230511897
 23
-17765.20001521188
 33
-0.0000000000157787
  0
3DFACE
  5
145
330
2
100
AcDbEntity
  8
0
370
     5
100
AcDbFace
 10
1034.639438016467
 20
-17810.20001521188
 30
44.99999999998418
 11
1013.147425610223
 21
-17810.20001521188
 31
44.99999999998418
 12
989.5859007217058
 22
-17765.20001521188
 32
-0.0000000000157787
 13
1013.434065616802
 23
-17765.20001521188
 33
-0.0000000000157787
  0
3DFACE
  5
146
330
2
100
AcDbEntity
  8
0
370
     5
100
AcDbFace
 10
1013.147425610223
 20
-17810.20001521188
 30
44.99999999998418
 11
991.65541320398
 21
-17810.20001521188
 31
44.99999999998418
 12
965.7377358266094
 22
-17765.20001521188
 32
-0.0000000000157787
 13
989.5859007217058
 23
-17765.20001521188
 33
-0.0000000000157787
  0
3DFACE
  5
147
330
2
100
AcDbEntity
  8
0
370
     5
100
AcDbFace
 10
991.65541320398
 20
-17810.20001521188
 30
44.99999999998418
 11
970.1634007977354
 21
-17810.20001521188
 31
44.99999999998418
 12
941.8897717998497
 22
-17765.22015538615
 32
-0.0000000000157787
 13
965.7377358266094
 23
-17765.20001521188
 33
-0.0000000000157787
  0
3DFACE
  5
148
330
2
100
AcDbEntity
  8
0
370
     5
100
AcDbFace
 10
970.1634007977354
 20
-17810.20001521188
 30
44.99999999998418
 11
943.2359553156874
 21
-17810.20001521188
 31
44.99999999998418
 12
919.3371947355881
 22
-17772.07064014835
 32
-0.0000000000157848
 13
941.8897717998497
 23
-17765.22015538615
 33
-0.0000000000157787
  0
3DFACE
  5
149
330
2
100
AcDbEntity
  8
0
370
     5
100
AcDbFace
 10
943.2359553156874
 20
-17810.20001521188
 30
44.99999999998418
 11
943.2359553156874
 21
-17826.25659454232
 31
44.99999999998417
 12
903.3411142761323
 22
-17789.38171416619
 32
-0.0000000000158001
 13
919.3371947355881
 23
-17772.07064014835
 33
-0.0000000000157848
  0
3DFACE
  5
14A
330
2
100
AcDbEntity
  8
0
370
     5
100
AcDbFace
 10
943.2359553156874
 20
-17826.25659454232
 30
44.99999999998417
 11
943.2359553156874
 21
-17847.74860694856
 31
44.99999999998414
 12
898.2371905987456
 22
-17812.40506262655
 32
-0.0000000000158206
 13
903.3411142761323
 23
-17789.38171416619
 33
-0.0000000000158001
  0
3DFACE
  5
14B
330
2
100
AcDbEntity
  8
0
370
     5
100
AcDbFace
 10
943.2359553156874
 20
-17847.74860694856
 30
44.99999999998414
 11
943.2359553156874
 21
-17869.24061935481
 31
44.99999999998412
 12
898.2371905987456
 22
-17836.25322752164
 32
-0.0000000000158418
 13
898.2371905987456
 23
-17812.40506262655
 33
-0.0000000000158206
  0
3DFACE
  5
14C
330
2
100
AcDbEntity
  8
0
370
     5
100
AcDbFace
 10
943.2359553156874
 20
-17869.24061935481
 30
44.99999999998412
 11
943.2359553156874
 21
-17890.73263176105
 31
44.99999999998411
 12
898.2371905987456
 22
-17860.10139241674
 32
-0.000000000015863
 13
898.2371905987456
 23
-17836.25322752164
 33
-0.0000000000158418
  0
3DFACE
  5
14D
330
2
100
AcDbEntity
  8
0
370
     5
100
AcDbFace
 10
943.2359553156874
 20
-17890.73263176105
 30
44.99999999998411
 11
943.2359553156874
 21
-17912.2246441673
 31
44.99999999998409
 12
898.2371905987456
 22
-17883.94955731184
 32
-0.0000000000158841
 13
898.2371905987456
 23
-17860.10139241674
 33
-0.000000000015863
  0
3DFACE
  5
14E
330
2
100
AcDbEntity
  8
0
370
     5
100
AcDbFace
 10
943.2359553156874
 20
-17912.2246441673
 30
44.99999999998409
 11
943.2359553156874
 21
-17933.71665657354
 31
44.99999999998407
 12
898.2371905987475
 22
-17907.79772220693
 32
-0.0000000000159053
 13
898.2371905987456
 23
-17883.94955731184
 33
-0.0000000000158841
  0
3DFACE
  5
14F
330
2
100
AcDbEntity
  8
0
370
     5
100
AcDbFace
 10
943.2359553156874
 20
-17933.71665657354
 30
44.99999999998407
 11
943.2359553156874
 21
-17955.20866897978
 31
44.99999999998405
 12
898.2371905987475
 22
-17931.64588710202
 32
-0.0000000000159265
 13
898.2371905987475
 23
-17907.79772220693
 33
-0.0000000000159053
  0
3DFACE
  5
150
330
2
100
AcDbEntity
  8
0
370
     5
100
AcDbFace
 10
943.2359553156874
 20
-17955.20866897978
 30
44.99999999998405
 11
943.2359553156874
 21
-17976.70068138603
 31
44.99999999998403
 12
898.2371905987475
 22
-17955.49405199712
 32
-0.0000000000159477
 13
898.2371905987475
 23
-17931.64588710202
 33
-0.0000000000159265
  0
3DFACE
  5
151
330
2
100
AcDbEntity
  8
0
370
     5
100
AcDbFace
 10
943.2359553156874
 20
-17976.70068138603
 30
44.99999999998403
 11
943.2359553156874
 21
-17998.19269379227
 31
44.99999999998401
 12
898.2371905987475
 22
-17979.34221689222
 32
-0.0000000000159689
 13
898.2371905987475
 23
-17955.49405199712
 33
-0.0000000000159477
  0
3DFACE
  5
152
330
2
100
AcDbEntity
  8
0
370
     5
100
AcDbFace
 10
943.2359553156874
 20
-17998.19269379227
 30
44.99999999998401
 11
943.2359553156874
 21
-18019.68470619851
 31
44.999999999984
 12
898.2371905987475
 22
-18003.19038178731
 32
-0.00000000001599
 13
898.2371905987475
 23
-17979.34221689222
 33
-0.0000000000159689
  0
3DFACE
  5
153
330
2
100
AcDbEntity
  8
0
370
     5
100
AcDbFace
 10
943.2359553156874
 20
-18019.68470619851
 30
44.999999999984
 11
943.2359553156874
 21
-18041.17671860476
 31
44.99999999998397
 12
898.2371905987475
 22
-18027.03854668241
 32
-0.0000000000160112
 13
898.2371905987475
 23
-18003.19038178731
 33
-0.00000000001599
  0
3DFACE
  5
154
330
2
100
AcDbEntity
  8
0
370
     5
100
AcDbFace
 10
943.2359553156874
 20
-18041.17671860476
 30
44.99999999998397
 11
943.2359553156874
 21
-18062.668731011
 31
44.99999999998395
 12
898.2371905987475
 22
-18050.88671157751
 32
-0.0000000000160324
 13
898.2371905987475
 23
-18027.03854668241
 33
-0.0000000000160112
  0
3DFACE
  5
155
330
2
100
AcDbEntity
  8
0
370
     5
100
AcDbFace
 10
943.2359553156874
 20
-18062.668731011
 30
44.99999999998395
 11
943.2359553156874
 21
-18084.16074341725
 31
44.99999999998394
 12
898.2371905987475
 22
-18074.7348764726
 32
-0.0000000000160536
 13
898.2371905987475
 23
-18050.88671157751
 33
-0.0000000000160324
  0
3DFACE
  5
156
330
2
100
AcDbEntity
  8
0
370
     5
100
AcDbFace
 10
943.2359553156874
 20
-18084.16074341725
 30
44.99999999998394
 11
943.2359553156874
 21
-18105.65275582349
 31
44.99999999998392
 12
898.2371905987475
 22
-18098.5830413677
 32
-0.0000000000160748
 13
898.2371905987475
 23
-18074.7348764726
 33
-0.0000000000160536
  0
3DFACE
  5
157
330
2
100
AcDbEntity
  8
0
370
     5
100
AcDbFace
 10
943.2359553156874
 20
-18105.65275582349
 30
44.99999999998392
 11
943.2359553156874
 21
-18127.14476822973
 31
44.99999999998389
 12
898.2371905987475
 22
-18122.43120626279
 32
-0.000000000016096
 13
898.2371905987475
 23
-18098.5830413677
 33
-0.0000000000160748
  0
LINE
  5
158
102
{ACAD_REACTORS
330
315
102
}
330
2
100
AcDbEntity
  8
0
  6
Continuous
 62
     6
370
     5
100
AcDbLine
 10
897.9441892562007
 20
-18155.20001521188
 30
46.99999999998388
 11
1903.067549672667
 21
-18155.20001521187
 31
46.99999999998388
  0
LINE
  5
159
330
2
100
AcDbEntity
  8
0
  6
Continuous
 62
     6
370
     5
100
AcDbLine
 10
1903.067549672667
 20
-18155.20001521187
 30
46.99999999998388
 11
1903.067549672669
 21
-17855.20001521188
 31
46.99999999998413
  0
LINE
  5
15A
330
2
100
AcDbEntity
  8
0
  6
Continuous
 62
     6
370
     5
100
AcDbLine
 10
1903.067549672669
 20
-17855.20001521188
 30
46.99999999998413
 11
1423.067549672665
 21
-17855.20001521188
 31
46.99999999998413
  0
LINE
  5
15B
330
2
100
AcDbEntity
  8
0
  6
Continuous
 62
     6
370
     5
100
AcDbLine
 10
1423.067549672665
 20
-17855.20001521188
 30
46.99999999998413
 11
1423.067549672665
 21
-17795.20001521187
 31
46.9999999999842
  0
LINE
  5
15C
330
2
100
AcDbEntity
  8
0
  6
Continuous
 62
     6
370
     5
100
AcDbLine
 10
1423.067549672665
 20
-17825.20001521187
 30
46.99999999998417
 11
958.0675496726671
 21
-17825.20001521188
 31
46.99999999998417
  0
LINE
  5
15D
330
2
100
AcDbEntity
  8
0
  6
Continuous
 62
   210
370
     5
100
AcDbLine
 10
1933.067549672669
 20
-18155.20001521187
 30
46.99999999998388
 11
1933.067549672667
 21
-17855.20001521188
 31
46.99999999998413
  0
LINE
  5
15E
330
2
100
AcDbEntity
  8
0
  6
Continuous
 62
   210
370
     5
100
AcDbLine
 10
1933.067549672667
 20
-17855.20001521188
 30
46.99999999998413
 11
1423.067549672665
 21
-17855.20001521188
 31
46.99999999998413
  0
LINE
  5
15F
330
2
100
AcDbEntity
  8
0
  6
Continuous
 62
   210
370
     5
100
AcDbLine
 10
1423.067549672665
 20
-17855.20001521188
 30
46.99999999998413
 11
1423.067549672665
 21
-17765.20001521188
 31
46.99999999998421
  0
LINE
  5
160
330
2
100
AcDbEntity
  8
0
  6
Continuous
 62
   210
370
     5
100
AcDbLine
 10
1423.067549672665
 20
-17795.20001521188
 30
46.9999999999842
 11
1243.067549672665
 21
-17795.20001521188
 31
46.9999999999842
  0
LINE
  5
161
330
2
100
AcDbEntity
  8
0
  6
Continuous
 62
   210
370
     5
100
AcDbLine
 10
1243.067549672665
 20
-17765.20001521188
 30
46.99999999998421
 11
1243.067549672665
 21
-17795.20001521188
 31
46.9999999999842
  0
LINE
  5
162
330
2
100
AcDbEntity
  8
0
  6
Continuous
 62
   210
370
     5
100
AcDbLine
 10
1243.067549672665
 20
-17825.20001521188
 30
46.99999999998417
 11
958.0675496726671
 21
-17825.20001521188
 31
46.99999999998417
  0
LINE
  5
163
330
2
100
AcDbEntity
  8
0
  6
Continuous
 62
   210
370
     5
100
AcDbLine
 10
898.0675496726671
 20
-18155.20001521188
 30
46.99999999998388
 11
898.0675496726671
 21
-18184.36284663779
 31
46.99999999998385
  0
LINE
  5
164
330
2
100
AcDbEntity
  8
0
  6
Continuous
 62
   210
370
     5
100
AcDbLine
 10
898.0675496726671
 20
-18184.36284663779
 30
46.99999999998385
 11
1063.067549672667
 21
-18184.36284663779
 31
46.99999999998385
  0
LINE
  5
165
330
2
100
AcDbEntity
  8
0
  6
Continuous
 62
   210
370
     5
100
AcDbLine
 10
1963.067549672669
 20
-18155.20001521188
 30
46.99999999998388
 11
1963.067549672667
 21
-17855.20001521188
 31
46.99999999998413
  0
LINE
  5
166
330
2
100
AcDbEntity
  8
0
  6
Continuous
 62
   210
370
     5
100
AcDbLine
 10
1963.067549672667
 20
-17855.20001521188
 30
46.99999999998413
 11
1423.067549672665
 21
-17855.20001521188
 31
46.99999999998413
  0
LINE
  5
167
330
2
100
AcDbEntity
  8
0
  6
Continuous
 62
   210
370
     5
100
AcDbLine
 10
1423.067549672665
 20
-17855.20001521188
 30
46.99999999998413
 11
1423.067549672665
 21
-17765.20001521188
 31
46.99999999998421
  0
LINE
  5
168
330
2
100
AcDbEntity
  8
0
  6
Continuous
 62
   210
370
     5
100
AcDbLine
 10
1423.067549672665
 20
-17765.20001521188
 30
46.99999999998421
 11
1243.067549672665
 21
-17765.20001521188
 31
46.99999999998421
  0
LINE
  5
169
330
2
100
AcDbEntity
  8
0
  6
Continuous
 62
   210
370
     5
100
AcDbLine
 10
1243.067549672665
 20
-17765.20001521188
 30
46.99999999998421
 11
1243.067549672665
 21
-17795.20001521188
 31
46.9999999999842
  0
LINE
  5
16A
330
2
100
AcDbEntity
  8
0
  6
Continuous
 62
   210
370
     5
100
AcDbLine
 10
1243.067549672665
 20
-17825.20001521188
 30
46.99999999998417
 11
958.0675496726671
 21
-17825.20001521188
 31
46.99999999998417
  0
LINE
  5
16B
330
2
100
AcDbEntity
  8
0
  6
Continuous
 62
   210
370
     5
100
AcDbLine
 10
898.0675496726671
 20
-18155.20001521188
 30
46.99999999998388
 11
898.0675496726671
 21
-18214.36284663779
 31
46.99999999998381
  0
LINE
  5
16C
330
2
100
AcDbEntity
  8
0
  6
Continuous
 62
   210
370
     5
100
AcDbLine
 10
898.0675496726671
 20
-18214.36284663779
 30
46.99999999998381
 11
1063.067549672667
 21
-18214.36284663779
 31
46.99999999998381
  0
LINE
  5
16D
330
2
100
AcDbEntity
  8
0
  6
Continuous
 62
     8
370
     5
390
171
100
AcDbLine
 10
1438.067549672665
 20
-17765.20001521188
 30
46.99999999998421
 11
1423.067549672665
 21
-17765.20001521188
 31
46.99999999998421
  0
LINE
  5
172
330
2
100
AcDbEntity
  8
0
  6
Continuous
 62
     8
370
     5
390
171
100
AcDbLine
 10
1423.067549672665
 20
-17765.20001521188
 30
46.99999999998421
 11
1423.067549672665
 21
-17855.20001521188
 31
46.99999999998413
  0
LINE
  5
173
330
2
100
AcDbEntity
  8
0
  6
Continuous
 62
     8
370
     5
390
171
100
AcDbLine
 10
1438.067549672665
 20
-17840.20001521188
 30
46.99999999998415
 11
1438.067549672665
 21
-17765.20001521188
 31
46.99999999998421
  0
LINE
  5
174
330
2
100
AcDbEntity
  8
0
  6
Continuous
 62
     8
370
     5
390
171
100
AcDbLine
 10
1423.067549672665
 20
-17855.20001521188
 30
46.99999999998413
 11
1963.067549672667
 21
-17855.20001521188
 31
46.99999999998413
  0
LINE
  5
175
330
2
100
AcDbEntity
  8
0
  6
Continuous
 62
     8
370
     5
390
171
100
AcDbLine
 10
1963.067549672667
 20
-17855.20001521188
 30
46.99999999998413
 11
1963.067549672667
 21
-17840.20001521188
 31
46.99999999998415
  0
LINE
  5
176
330
2
100
AcDbEntity
  8
0
  6
Continuous
 62
     8
370
     5
390
171
100
AcDbLine
 10
1963.067549672667
 20
-17840.20001521188
 30
46.99999999998415
 11
1438.067549672665
 21
-17840.20001521188
 31
46.99999999998415
  0
LINE
  5
177
330
2
100
AcDbEntity
  8
0
  6
Continuous
 62
     8
370
     5
390
171
100
AcDbLine
 10
898.0675496726671
 20
-18140.12879304222
 30
46.99999999998389
 11
898.0675496726671
 21
-18155.12879304223
 31
46.99999999998388
  0
LINE
  5
178
330
2
100
AcDbEntity
  8
0
370
     5
390
171
100
AcDbLine
 10
943.2359553156874
 20
-18140.12879304222
 30
46.99999999998389
 11
898.0675496726671
 21
-18140.12879304222
 31
46.99999999998389
  0
LINE
  5
179
330
2
100
AcDbEntity
  8
0
  6
Continuous
 62
     8
370
     5
390
171
100
AcDbLine
 10
958.2359553156875
 20
-18155.20001521188
 30
46.99999999998388
 11
958.2359553156875
 21
-17825.20001521188
 31
46.99999999998417
  0
LINE
  5
17A
330
2
100
AcDbEntity
  8
0
  6
Continuous
 62
     8
370
     5
390
171
100
AcDbLine
 10
943.2359553156874
 20
-17810.20001521188
 30
46.99999999998418
 11
943.2359553156874
 21
-18140.12879304222
 31
46.99999999998389
  0
LINE
  5
17B
330
2
100
AcDbEntity
  8
0
  6
Continuous
 62
     8
370
     5
390
171
100
AcDbLine
 10
958.2359553156875
 20
-17825.20001521188
 30
46.99999999998417
 11
1243.067549672665
 21
-17825.20001521188
 31
46.99999999998417
  0
LINE
  5
17C
330
2
100
AcDbEntity
  8
0
  6
Continuous
 62
     8
370
     5
390
171
100
AcDbLine
 10
1228.067549672665
 20
-17810.20001521188
 30
46.99999999998418
 11
943.2359553156874
 21
-17810.20001521188
 31
46.99999999998418
  0
LINE
  5
17D
330
2
100
AcDbEntity
  8
0
  6
Continuous
 62
     8
370
     5
390
171
100
AcDbLine
 10
1243.067549672665
 20
-17825.20001521188
 30
46.99999999998417
 11
1243.067549672665
 21
-17765.20001521188
 31
46.99999999998421
  0
LINE
  5
17E
330
2
100
AcDbEntity
  8
0
  6
Continuous
 62
     8
370
     5
390
171
100
AcDbLine
 10
1243.067549672665
 20
-17765.20001521188
 30
46.99999999998421
 11
1228.067549672665
 21
-17765.20001521188
 31
46.99999999998421
  0
LINE
  5
17F
330
2
100
AcDbEntity
  8
0
  6
Continuous
 62
     8
370
     5
390
171
100
AcDbLine
 10
1228.067549672665
 20
-17765.20001521188
 30
46.99999999998421
 11
1228.067549672665
 21
-17780.20001521188
 31
46.9999999999842
  0
LWPOLYLINE
  5
180
330
2
100
AcDbEntity
  8
0
370
     5
100
AcDbPolyline
 90
        2
 70
     0
 43
0.0
 10
898.2371905987475
 20
-18122.43120626279
 10
898.0675496726671
 20
-18140.12879304222
  0
DIMENSION
  5
181
330
2
100
AcDbEntity
  8
0
370
     5
100
AcDbDimension
  2
*D28
 10
1063.067549672665
 20
-17646.46260766252
 30
0.0
 11
998.0675496733784
 21
-17566.46260766252
 31
0.0
 70
    32
 71
     5
 42
129.9999999985739
  3
500
100
AcDbAlignedDimension
 13
933.0675496740914
 23
-18462.97945246038
 33
46.9999999999836
 14
1063.067549672665
 24
-18373.20001521242
 34
46.99999999998367
100
AcDbRotatedDimension
  0
DIMENSION
  5
18E
330
2
100
AcDbEntity
  8
0
370
     5
100
AcDbDimension
  2
*D27
 10
1063.067549672667
 20
-17646.46260766252
 30
0.0
 11
1513.067549672668
 21
-17566.46260766252
 31
0.0
 70
    32
 71
     5
 42
900.0000000000017
  3
500
100
AcDbAlignedDimension
 13
1963.067549672669
 23
-18155.20001521189
 33
46.99999999998388
 14
1063.067549672667
 24
-18155.20001521189
 34
46.99999999998388
100
AcDbRotatedDimension
  0
DIMENSION
  5
199
330
2
100
AcDbEntity
  8
0
370
     5
100
AcDbDimension
  2
*D26
 10
671.3124282783955
 20
-19055.20001521188
 30
0.0
 11
591.3124282783987
 21
-18605.20001521187
 31
0.0
 70
    32
 71
     5
 42
900.0000000000037
  3
500
100
AcDbAlignedDimension
 13
1063.067549672667
 23
-18155.20001521188
 33
46.99999999998388
 14
1063.067549672669
 24
-19055.20001521188
 34
46.99999999998307
 50
90.0
100
AcDbRotatedDimension
  0
DIMENSION
  5
1A4
330
2
100
AcDbEntity
  8
0
370
     5
100
AcDbDimension
  2
*D25
 10
671.3124282784047
 20
-19055.20001521188
 30
0.0
 11
591.3124282784077
 21
-19320.45003207984
 31
0.0
 70
    32
  1
530
 71
     5
 42
530.5000337359087
  3
500
100
AcDbAlignedDimension
 13
1535.070756132827
 23
-19585.70004894779
 33
46.99999999998261
 14
1535.07075613282
 24
-19055.20001521188
 34
46.99999999998307
 50
90.0
100
AcDbRotatedDimension
  0
LINE
  5
1AF
330
2
100
AcDbEntity
  8
0
  6
Continuous
 62
   210
370
     5
100
AcDbLine
 10
5596.041620289085
 20
-18184.3628466378
 30
46.99999999998385
 11
5596.041620289085
 21
-18155.20001521188
 31
46.99999999998388
  0
LINE
  5
1B0
330
2
100
AcDbEntity
  8
0
  6
Continuous
 62
   210
370
     5
100
AcDbLine
 10
5596.041620289085
 20
-18214.3628466378
 30
46.99999999998381
 11
5596.041620289085
 21
-18155.20001521188
 31
46.99999999998388
  0
LINE
  5
1B1
330
2
100
AcDbEntity
  8
0
  6
Continuous
 62
   210
370
     5
100
AcDbLine
 10
5124.03841382893
 20
-19220.20001521188
 30
46.99999999998293
 11
5124.03841382893
 21
-19055.20001521187
 31
46.99999999998307
  0
LINE
  5
1B2
330
2
100
AcDbEntity
  8
0
  6
Continuous
 62
   210
370
     5
100
AcDbLine
 10
5124.03841382893
 20
-19055.20001521187
 30
46.99999999998307
 11
5339.03841382893
 21
-19055.20001521187
 31
46.99999999998307
  0
LINE
  5
1B3
330
2
100
AcDbEntity
  8
0
  6
Continuous
 62
   210
370
     5
100
AcDbLine
 10
5339.03841382893
 20
-19055.20001521187
 30
46.99999999998307
 11
5339.03841382893
 21
-19220.20001521188
 31
46.99999999998293
  0
LINE
  5
1B4
330
2
100
AcDbEntity
  8
0
  6
Continuous
 62
   210
370
     5
100
AcDbLine
 10
5339.03841382893
 20
-19220.20001521188
 30
46.99999999998293
 11
5124.03841382893
 21
-19220.20001521188
 31
46.99999999998293
  0
LINE
  5
1B5
330
2
100
AcDbEntity
  8
0
  6
Continuous
 62
   210
370
     5
100
AcDbLine
 10
5309.03841382893
 20
-19055.20001521187
 30
46.99999999998307
 11
5309.03841382893
 21
-19190.20001521188
 31
46.99999999998295
  0
LINE
  5
1B6
330
2
100
AcDbEntity
  8
0
  6
Continuous
 62
   210
370
     5
100
AcDbLine
 10
5309.03841382893
 20
-19190.20001521188
 30
46.99999999998295
 11
5124.03841382893
 21
-19190.20001521188
 31
46.99999999998295
  0
LINE
  5
1B7
330
2
100
AcDbEntity
  8
0
  6
Continuous
 62
   210
370
     5
100
AcDbLine
 10
5124.03841382893
 20
-19190.20001521188
 30
46.99999999998295
 11
5124.03841382893
 21
-19055.20001521187
 31
46.99999999998307
  0
LINE
  5
1B8
330
2
100
AcDbEntity
  8
0
  6
Continuous
 62
   210
370
     5
100
AcDbLine
 10
5124.03841382893
 20
-19055.20001521187
 30
46.99999999998307
 11
5309.03841382893
 21
-19055.20001521187
 31
46.99999999998307
  0
LINE
  5
1B9
330
2
100
AcDbEntity
  8
0
  6
Continuous
 62
   210
370
     5
100
AcDbLine
 10
5279.038413828931
 20
-19055.20001521187
 30
46.99999999998307
 11
5279.038413828931
 21
-19160.20001521188
 31
46.99999999998298
  0
LINE
  5
1BA
330
2
100
AcDbEntity
  8
0
  6
Continuous
 62
   210
370
     5
100
AcDbLine
 10
5279.038413828931
 20
-19160.20001521188
 30
46.99999999998298
 11
5124.03841382893
 21
-19160.20001521188
 31
46.99999999998298
  0
LINE
  5
1BB
330
2
100
AcDbEntity
  8
0
  6
Continuous
 62
   210
370
     5
100
AcDbLine
 10
5124.03841382893
 20
-19160.20001521188
 30
46.99999999998298
 11
5124.03841382893
 21
-19055.20001521187
 31
46.99999999998307
  0
LINE
  5
1BC
330
2
100
AcDbEntity
  8
0
  6
Continuous
 62
   210
370
     5
100
AcDbLine
 10
5124.03841382893
 20
-19055.20001521187
 30
46.99999999998307
 11
5279.038413828931
 21
-19055.20001521187
 31
46.99999999998307
  0
LINE
  5
1BD
330
2
100
AcDbEntity
  8
0
  6
Continuous
 62
   210
370
     5
100
AcDbLine
 10
5124.038413828927
 20
-19585.70004894779
 30
46.99999999998261
 11
5124.038413828927
 21
-19675.70004894779
 31
46.99999999998253
  0
LINE
  5
1BE
330
2
100
AcDbEntity
  8
0
  6
Continuous
 62
   210
370
     5
100
AcDbLine
 10
5124.038413828927
 20
-19675.70004894779
 30
46.99999999998253
 11
4696.038413828929
 21
-19675.70004894779
 31
46.99999999998253
  0
LINE
  5
1BF
330
2
100
AcDbEntity
  8
0
  6
Continuous
 62
   210
370
     5
100
AcDbLine
 10
4696.038413828929
 20
-19675.70004894779
 30
46.99999999998253
 11
4696.038413828929
 21
-19585.70004894779
 31
46.99999999998261
  0
LINE
  5
1C0
330
2
100
AcDbEntity
  8
0
  6
Continuous
 62
   210
370
     5
100
AcDbLine
 10
4696.038413828929
 20
-19585.70004894779
 30
46.99999999998261
 11
5124.038413828927
 21
-19585.70004894779
 31
46.99999999998261
  0
LINE
  5
1C1
330
2
100
AcDbEntity
  8
0
  6
Continuous
 62
   210
370
     5
100
AcDbLine
 10
4696.038413828929
 20
-19675.70004894779
 30
46.99999999998253
 11
4696.038413828929
 21
-19885.70004894779
 31
46.99999999998233
  0
LINE
  5
1C2
330
2
100
AcDbEntity
  8
0
  6
Continuous
 62
   210
370
     5
100
AcDbLine
 10
4696.038413828929
 20
-19885.70004894779
 30
46.99999999998233
 11
5124.038413828927
 21
-19885.70004894779
 31
46.99999999998233
  0
LINE
  5
1C3
330
2
100
AcDbEntity
  8
0
  6
Continuous
 62
   210
370
     5
100
AcDbLine
 10
5124.038413828927
 20
-19885.70004894779
 30
46.99999999998233
 11
5124.038413828927
 21
-19675.70004894779
 31
46.99999999998253
  0
LINE
  5
1C4
330
2
100
AcDbEntity
  8
0
  6
Continuous
 62
   210
370
     5
100
AcDbLine
 10
5124.038413828927
 20
-19675.70004894779
 30
46.99999999998253
 11
4696.038413828929
 21
-19675.70004894779
 31
46.99999999998253
  0
LINE
  5
1C5
330
2
100
AcDbEntity
  8
0
370
     5
100
AcDbLine
 10
4576.041620289092
 20
-18707.19938833626
 30
46.99999999998341
 11
4696.041620289095
 21
-18707.19938833626
 31
46.99999999998341
  0
LINE
  5
1C6
330
2
100
AcDbEntity
  8
0
370
     5
100
AcDbLine
 10
4596.041620289091
 20
-18727.19938833626
 30
46.99999999998339
 11
4696.041620289095
 21
-18727.19938833626
 31
46.99999999998339
  0
LINE
  5
1C7
330
2
100
AcDbEntity
  8
0
370
     5
100
AcDbLine
 10
4576.041620289092
 20
-18897.19938833625
 30
46.99999999998324
 11
4696.041620289092
 21
-18897.19938833625
 31
46.99999999998324
  0
LINE
  5
1C8
330
2
100
AcDbEntity
  8
0
370
     5
100
AcDbLine
 10
4596.041620289091
 20
-18877.19938833625
 30
46.99999999998325
 11
4696.041620289092
 21
-18877.19938833625
 31
46.99999999998325
  0
LINE
  5
1C9
330
2
100
AcDbEntity
  8
0
370
     5
100
AcDbLine
 10
4596.041620289091
 20
-18727.19938833626
 30
46.99999999998339
 11
4596.041620289091
 21
-18877.19938833625
 31
46.99999999998325
  0
LINE
  5
1CA
330
2
100
AcDbEntity
  8
0
370
     5
100
AcDbLine
 10
4576.041620289092
 20
-18707.19938833626
 30
46.99999999998341
 11
4576.041620289092
 21
-18897.19938833625
 31
46.99999999998324
  0
LINE
  5
1CB
330
2
100
AcDbEntity
  8
0
  6
Continuous
 62
     8
370
     5
100
AcDbLine
 10
4696.041620289061
 20
-18461.20350390555
 30
46.9999999999836
 11
4696.041620289061
 21
-18481.20350390555
 31
46.99999999998358
  0
LINE
  5
1CC
330
2
100
AcDbEntity
  8
0
  6
Continuous
 62
     8
370
     5
100
AcDbLine
 10
4696.041620289064
 20
-18291.20350390557
 30
46.99999999998375
 11
4696.041620289064
 21
-18311.20350390557
 31
46.99999999998373
  0
LINE
  5
1CD
330
2
100
AcDbEntity
  8
0
370
     5
100
AcDbLine
 10
5596.041620289106
 20
-18881.12240356119
 30
46.99999999998323
 11
5715.825448546712
 21
-18881.12240356119
 31
46.99999999998323
  0
LINE
  5
1CE
330
2
100
AcDbEntity
  8
0
370
     5
100
AcDbLine
 10
5735.825448546711
 20
-18901.12240356119
 30
46.99999999998321
 11
5596.041620289106
 21
-18901.12240356119
 31
46.99999999998321
  0
LINE
  5
1CF
330
2
100
AcDbEntity
  8
0
370
     5
100
AcDbLine
 10
5726.04162028843
 20
-18661.17057795849
 30
46.99999999998342
 11
5735.825448546708
 21
-18661.17057795849
 31
46.99999999998342
  0
LINE
  5
1D0
330
2
100
AcDbEntity
  8
0
370
     5
100
AcDbLine
 10
5735.825448546708
 20
-18661.17057795849
 30
46.99999999998342
 11
5735.825448546711
 21
-18901.12240356119
 31
46.99999999998321
  0
LINE
  5
1D1
330
2
100
AcDbEntity
  8
0
370
     5
100
AcDbLine
 10
5715.825448546712
 20
-18881.12240356119
 30
46.99999999998323
 11
5715.825448546707
 21
-18671.38674969988
 31
46.99999999998341
  0
LINE
  5
1D2
330
2
100
AcDbEntity
  8
0
370
     5
100
AcDbLine
 10
4576.041620289061
 20
-18291.20350390557
 30
46.99999999998375
 11
4696.041620289064
 21
-18291.20350390557
 31
46.99999999998375
  0
LINE
  5
1D3
330
2
100
AcDbEntity
  8
0
370
     5
100
AcDbLine
 10
4596.041620289061
 20
-18311.20350390557
 30
46.99999999998373
 11
4696.041620289064
 21
-18311.20350390557
 31
46.99999999998373
  0
LINE
  5
1D4
330
2
100
AcDbEntity
  8
0
370
     5
100
AcDbLine
 10
4576.041620289061
 20
-18481.20350390555
 30
46.99999999998358
 11
4696.041620289061
 21
-18481.20350390555
 31
46.99999999998358
  0
LINE
  5
1D5
330
2
100
AcDbEntity
  8
0
370
     5
100
AcDbLine
 10
4596.041620289061
 20
-18461.20350390555
 30
46.9999999999836
 11
4696.041620289061
 21
-18461.20350390555
 31
46.9999999999836
  0
LINE
  5
1D6
330
2
100
AcDbEntity
  8
0
370
     5
100
AcDbLine
 10
4596.041620289061
 20
-18311.20350390557
 30
46.99999999998373
 11
4596.041620289061
 21
-18461.20350390555
 31
46.9999999999836
  0
LINE
  5
1D7
330
2
100
AcDbEntity
  8
0
370
     5
100
AcDbLine
 10
4576.041620289061
 20
-18291.20350390557
 30
46.99999999998375
 11
4576.041620289061
 21
-18481.20350390555
 31
46.99999999998358
  0
LINE
  5
1D8
330
2
100
AcDbEntity
  8
0
  6
Continuous
 62
    40
370
     5
100
AcDbLine
 10
5255.03841382893
 20
-19039.20001521188
 30
46.99999999998309
 11
5255.03841382893
 21
-19032.20001521188
 31
46.99999999998309
  0
LINE
  5
1D9
330
2
100
AcDbEntity
  8
0
  6
Continuous
 62
    40
370
     5
100
AcDbLine
 10
5155.03841382893
 20
-19039.20001521188
 30
46.99999999998309
 11
5155.03841382893
 21
-19032.20001521188
 31
46.99999999998309
  0
LINE
  5
1DA
330
2
100
AcDbEntity
  8
0
  6
Continuous
 62
    40
370
     5
390
B1
100
AcDbLine
 10
5255.03841382893
 20
-18995.20001521188
 30
46.99999999998313
 11
5155.03841382893
 21
-18995.20001521188
 31
46.99999999998313
  0
LINE
  5
1DB
330
2
100
AcDbEntity
  8
0
  6
Continuous
 62
    40
370
     5
100
AcDbLine
 10
4793.041620289088
 20
-19560.2000489478
 30
46.99999999998262
 11
4785.041620289088
 21
-19560.2000489478
 31
46.99999999998262
  0
LINE
  5
1DC
330
2
100
AcDbEntity
  8
0
  6
Continuous
 62
    40
370
     5
100
AcDbLine
 10
4785.041620289088
 20
-19560.2000489478
 30
46.99999999998262
 11
4785.041620289088
 21
-19572.2000489478
 31
46.99999999998262
  0
LINE
  5
1DD
330
2
100
AcDbEntity
  8
0
  6
Continuous
 62
    40
370
     5
100
AcDbLine
 10
4785.041620289088
 20
-19572.2000489478
 30
46.99999999998262
 11
4793.041620289088
 21
-19572.2000489478
 31
46.99999999998262
  0
LINE
  5
1DE
330
2
100
AcDbEntity
  8
0
  6
Continuous
 62
    40
370
     5
100
AcDbLine
 10
4793.041620289088
 20
-19572.2000489478
 30
46.99999999998262
 11
4793.041620289088
 21
-19560.2000489478
 31
46.99999999998262
  0
LINE
  5
1DF
330
2
100
AcDbEntity
  8
0
  6
Continuous
 62
    40
370
     5
100
AcDbLine
 10
5027.041620289089
 20
-19560.2000489478
 30
46.99999999998262
 11
5035.041620289089
 21
-19560.2000489478
 31
46.99999999998262
  0
LINE
  5
1E0
330
2
100
AcDbEntity
  8
0
  6
Continuous
 62
    40
370
     5
100
AcDbLine
 10
5035.041620289089
 20
-19560.2000489478
 30
46.99999999998262
 11
5035.041620289089
 21
-19572.2000489478
 31
46.99999999998262
  0
LINE
  5
1E1
330
2
100
AcDbEntity
  8
0
  6
Continuous
 62
    40
370
     5
100
AcDbLine
 10
5035.041620289089
 20
-19572.2000489478
 30
46.99999999998262
 11
5027.041620289089
 21
-19572.2000489478
 31
46.99999999998262
  0
LINE
  5
1E2
330
2
100
AcDbEntity
  8
0
  6
Continuous
 62
    40
370
     5
100
AcDbLine
 10
5027.041620289089
 20
-19572.2000489478
 30
46.99999999998262
 11
5027.041620289089
 21
-19560.2000489478
 31
46.99999999998262
  0
INSERT
  5
1E3
330
2
100
AcDbEntity
  8
0
  6
Continuous
 62
    40
370
     5
100
AcDbBlockReference
  2
linia_pozioma
 10
4785.041620289088
 20
-19560.2000489478
 30
46.99999999998262
 41
-250.0
 50
180.0000000000001
1001
AEC_XDATA_BOUND_SPACE
1070
   100
1070
     1
  0
LINE
  5
1E4
330
2
100
AcDbEntity
  8
0
  6
Continuous
 62
    40
370
     5
390
B1
100
AcDbLine
 10
4785.041620289088
 20
-19572.2000489478
 30
46.99999999998262
 11
5035.041620289089
 21
-19572.2000489478
 31
46.99999999998262
  0
LINE
  5
1E5
330
2
100
AcDbEntity
  8
0
  6
Continuous
 62
    40
370
     5
390
B1
100
AcDbLine
 10
4785.041620289088
 20
-19560.2000489478
 30
46.99999999998262
 11
5035.041620289089
 21
-19560.2000489478
 31
46.99999999998262
  0
HATCH
  5
1E6
330
2
100
AcDbEntity
  8
0
 62
     0
 48
4.0
370
     5
100
AcDbHatch
 10
0.0
 20
0.0
 30
0.0
210
0.0
220
-0.0000000000000009
230
1.0
  2
SOLID
 70
     1
 71
     0
 91
        1
 92
        7
 72
     0
 73
     1
 93
       24
 10
5416.041620289085
 20
-18215.20001521188
 10
5416.041620289085
 20
-18155.20001521188
 10
5596.041620289085
 20
-18155.20001521188
 10
5596.041620289085
 20
-18373.20001521242
 10
5636.262183037437
 20
-18373.20001521307
 10
5712.954039649398
 20
-18449.89187182253
 10
5726.041620287663
 20
-18462.97945246037
 10
5726.041620287658
 20
-18617.07501520981
 10
5726.041620287663
 20
-18661.17057795925
 10
5712.954039649398
 20
-18674.25815859709
 10
5636.013587432659
 20
-18751.19861081133
 10
5596.041620289092
 20
-18751.19861081198
 10
5596.041620289085
 20
-19055.20001521188
 10
5400.541620289085
 20
-19055.20001521188
 10
5255.03841382893
 20
-19055.20001521188
 10
5255.038413828934
 20
-18995.20001521188
 10
5536.041620289088
 20
-18995.20001521188
 10
5536.041620289084
 20
-18691.19861081195
 10
5611.160773690695
 20
-18691.19861081148
 10
5666.041620287659
 20
-18636.3177642163
 10
5666.041620287662
 20
-18487.83226620333
 10
5611.409369295503
 20
-18433.20001521295
 10
5536.041620288735
 20
-18433.2000152126
 10
5536.041620288735
 20
-18215.20001521188
 97
        0
 75
     0
 76
     1
 47
1.699175816125455
 98
        1
 10
5479.29878538473
 20
-18194.27271770033
1001
ACAD
1010
0.0
1020
0.0
1030
0.0
  0
LINE
  5
1E7
330
2
100
AcDbEntity
  8
0
  6
Continuous
 62
     7
370
     5
100
AcDbLine
 10
5416.041620289085
 20
-18155.20001521188
 30
46.99999999998388
 11
5596.041620289085
 21
-18155.20001521188
 31
46.99999999998388
  0
HATCH
  5
1E8
330
2
100
AcDbEntity
  8
0
 62
     0
 48
4.0
370
     5
100
AcDbHatch
 10
0.0
 20
0.0
 30
0.0
210
0.0
220
-0.0000000000000009
230
1.0
  2
SOLID
 70
     1
 71
     0
 91
        1
 92
        7
 72
     0
 73
     1
 93
       11
 10
4696.041620289085
 20
-18155.20001521188
 10
5056.041620289085
 20
-18155.20001521188
 10
5236.041620289085
 20
-18155.20001521188
 10
5236.041620289085
 20
-18215.20001521188
 10
4756.041620289084
 20
-18215.20001521188
 10
4756.041620289086
 20
-19525.70004894776
 10
4785.04162028909
 20
-19525.70004894776
 10
4785.041620289088
 20
-19585.70004894776
 10
4696.041620289086
 20
-19585.70004894775
 10
4696.041620289086
 20
-18835.20001521189
 10
4696.041620289093
 20
-18687.19938833626
 97
        0
 75
     0
 76
     1
 47
1.699175816125455
 98
        1
 10
4710.931303601231
 20
-18365.88948447928
1001
ACAD
1010
0.0
1020
0.0
1030
0.0
  0
LINE
  5
1E9
330
2
100
AcDbEntity
  8
0
  6
Continuous
 62
     7
370
     5
100
AcDbLine
 10
5056.041620289085
 20
-18155.20001521188
 30
46.99999999998388
 11
5236.041620289085
 21
-18155.20001521188
 31
46.99999999998388
  0
LINE
  5
1EA
330
2
100
AcDbEntity
  8
0
  6
Continuous
 62
     7
370
     5
100
AcDbLine
 10
4696.041620289085
 20
-18155.20001521188
 30
46.99999999998388
 11
5056.041620289085
 21
-18155.20001521188
 31
46.99999999998388
  0
LINE
  5
1EB
330
2
100
AcDbEntity
  8
0
  6
Continuous
 62
     7
370
     5
100
AcDbLine
 10
4696.041620289086
 20
-19585.70004894779
 30
46.99999999998261
 11
4696.041620289086
 21
-18835.20001521189
 31
46.99999999998327
  0
LINE
  5
1EC
330
2
100
AcDbEntity
  8
0
  6
Continuous
 62
     7
370
     5
100
AcDbLine
 10
4696.041620289085
 20
-18687.19938833626
 30
46.9999999999834
 11
4696.041620289085
 21
-18155.20001521188
 31
46.99999999998388
  0
LINE
  5
1ED
330
2
100
AcDbEntity
  8
0
  6
Continuous
 62
     7
370
     5
100
AcDbLine
 10
4696.041620289086
 20
-18835.20001521189
 30
46.99999999998327
 11
4696.041620289093
 21
-18687.19938833626
 31
46.9999999999834
  0
LINE
  5
1EE
330
2
100
AcDbEntity
  8
0
  6
Continuous
 62
     7
370
     5
100
AcDbLine
 10
4785.04162028909
 20
-19525.70004894776
 30
46.99999999998264
 11
4785.041620289088
 21
-19585.70004894779
 31
46.99999999998261
  0
LINE
  5
1EF
330
2
100
AcDbEntity
  8
0
  6
Continuous
 62
     7
370
     5
100
AcDbLine
 10
4785.041620289088
 20
-19585.70004894779
 30
46.99999999998261
 11
4696.041620289086
 21
-19585.70004894779
 31
46.99999999998261
  0
LINE
  5
1F0
330
2
100
AcDbEntity
  8
0
  6
Continuous
 62
     7
370
     5
100
AcDbLine
 10
5124.03841382893
 20
-19585.70004894779
 30
46.99999999998261
 11
5035.041620289089
 21
-19585.70004894779
 31
46.99999999998261
  0
HATCH
  5
1F1
330
2
100
AcDbEntity
  8
0
 62
     0
 48
4.0
370
     5
100
AcDbHatch
 10
0.0
 20
0.0
 30
0.0
210
0.0
220
-0.0000000000000009
230
1.0
  2
SOLID
 70
     1
 71
     0
 91
        1
 92
        7
 72
     0
 73
     1
 93
        9
 10
5064.03841382893
 20
-18995.20001521188
 10
5155.03841382893
 20
-18995.20001521188
 10
5155.03841382893
 20
-19055.20001521188
 10
5124.03841382893
 20
-19055.20001521188
 10
5124.03841382893
 20
-19225.2000489478
 10
5124.03841382893
 20
-19585.70004894781
 10
5035.041620289089
 20
-19585.70004894779
 10
5035.041620289092
 20
-19525.7000489478
 10
5064.03841382893
 20
-19525.7000489478
 97
        0
 75
     0
 76
     1
 47
2.141858721987088
 98
        1
 10
5075.702423353992
 20
-19358.74890382316
1001
ACAD
1010
0.0
1020
0.0
1030
0.0
  0
LINE
  5
1F2
330
2
100
AcDbEntity
  8
0
  6
Continuous
 62
     7
370
     5
100
AcDbLine
 10
5035.041620289089
 20
-19585.70004894779
 30
46.99999999998261
 11
5035.041620289092
 21
-19525.70004894779
 31
46.99999999998264
  0
LINE
  5
1F3
330
2
100
AcDbEntity
  8
0
  6
Continuous
 62
     7
370
     5
100
AcDbLine
 10
5124.03841382893
 20
-19225.2000489478
 30
46.99999999998293
 11
5124.03841382893
 21
-19585.70004894779
 31
46.99999999998261
  0
LINE
  5
1F4
330
2
100
AcDbEntity
  8
0
  6
Continuous
 62
     7
370
     5
100
AcDbLine
 10
5124.038413828934
 20
-19055.20001521188
 30
46.99999999998307
 11
5124.03841382893
 21
-19225.2000489478
 31
46.99999999998293
  0
LINE
  5
1F5
330
2
100
AcDbEntity
  8
0
  6
Continuous
 62
     7
370
     5
100
AcDbLine
 10
5155.03841382893
 20
-18995.20001521188
 30
46.99999999998313
 11
5155.03841382893
 21
-19055.20001521188
 31
46.99999999998307
  0
LINE
  5
1F6
330
2
100
AcDbEntity
  8
0
  6
Continuous
 62
     7
370
     5
100
AcDbLine
 10
5155.03841382893
 20
-19055.20001521188
 30
46.99999999998307
 11
5124.038413828934
 21
-19055.20001521188
 31
46.99999999998307
  0
LINE
  5
1F7
330
2
100
AcDbEntity
  8
0
  6
Continuous
 62
     7
370
     5
100
AcDbLine
 10
5400.541620289085
 20
-19055.20001521188
 30
46.99999999998307
 11
5255.03841382893
 21
-19055.20001521188
 31
46.99999999998307
  0
LINE
  5
1F8
330
2
100
AcDbEntity
  8
0
  6
Continuous
 62
     7
370
     5
100
AcDbLine
 10
5255.03841382893
 20
-19055.20001521188
 30
46.99999999998307
 11
5255.03841382893
 21
-18995.20001521188
 31
46.99999999998313
  0
LINE
  5
1F9
330
2
100
AcDbEntity
  8
0
  6
Continuous
 62
     7
370
     5
100
AcDbLine
 10
5596.041620289085
 20
-19055.20001521188
 30
46.99999999998307
 11
5400.541620289085
 21
-19055.20001521188
 31
46.99999999998307
  0
LINE
  5
1FA
330
2
100
AcDbEntity
  8
0
  6
Continuous
 62
     7
370
     5
100
AcDbLine
 10
5596.041620289092
 20
-18751.19861081198
 30
46.99999999998334
 11
5596.041620289085
 21
-19055.20001521188
 31
46.99999999998307
  0
LINE
  5
1FB
330
2
100
AcDbEntity
  8
0
  6
Continuous
 62
     7
370
     5
100
AcDbLine
 10
5596.041620289085
 20
-18373.20001521242
 30
46.99999999998367
 11
5636.262183037434
 21
-18373.20001521307
 31
46.99999999998367
  0
LINE
  5
1FC
330
2
100
AcDbEntity
  8
0
  6
Continuous
 62
     7
370
     5
100
AcDbLine
 10
5536.041620288735
 20
-18433.2000152126
 30
46.99999999998363
 11
5611.409369295507
 21
-18433.20001521295
 31
46.99999999998363
  0
LINE
  5
1FD
330
2
100
AcDbEntity
  8
0
  6
Continuous
 62
     7
370
     5
100
AcDbLine
 10
5596.041620289085
 20
-18155.20001521188
 30
46.99999999998388
 11
5596.041620289085
 21
-18373.20001521242
 31
46.99999999998367
  0
LINE
  5
1FE
330
2
100
AcDbEntity
  8
0
  6
Continuous
 62
     7
370
     5
100
AcDbLine
 10
5726.041620287658
 20
-18617.07501520981
 30
46.99999999998346
 11
5726.041620287658
 21
-18661.17057795926
 31
46.99999999998342
  0
LINE
  5
1FF
330
2
100
AcDbEntity
  8
0
  6
Continuous
 62
     7
370
     5
100
AcDbLine
 10
5726.041620287658
 20
-18462.97945246037
 30
46.9999999999836
 11
5726.041620287658
 21
-18617.07501520981
 31
46.99999999998346
  0
LINE
  5
200
330
2
100
AcDbEntity
  8
0
  6
Continuous
 62
     7
370
     5
100
AcDbLine
 10
5712.954039649398
 20
-18449.89187182253
 30
46.99999999998361
 11
5726.041620287658
 21
-18462.97945246037
 31
46.9999999999836
  0
LINE
  5
201
330
2
100
AcDbEntity
  8
0
  6
Continuous
 62
     7
370
     5
100
AcDbLine
 10
5636.262183037434
 20
-18373.20001521307
 30
46.99999999998367
 11
5712.954039649398
 21
-18449.89187182253
 31
46.99999999998361
  0
LINE
  5
202
330
2
100
AcDbEntity
  8
0
  6
Continuous
 62
     7
370
     5
100
AcDbLine
 10
5636.013587432662
 20
-18751.19861081133
 30
46.99999999998334
 11
5596.041620289092
 21
-18751.19861081198
 31
46.99999999998334
  0
LINE
  5
203
330
2
100
AcDbEntity
  8
0
  6
Continuous
 62
     7
370
     5
100
AcDbLine
 10
5611.160773690688
 20
-18691.19861081149
 30
46.9999999999834
 11
5531.651309346045
 21
-18691.19861081198
 31
46.9999999999834
  0
LINE
  5
204
330
2
100
AcDbEntity
  8
0
  6
Continuous
 62
     7
370
     5
100
AcDbLine
 10
5712.954039649398
 20
-18674.25815859709
 30
46.99999999998341
 11
5636.013587432662
 21
-18751.19861081133
 31
46.99999999998334
  0
LINE
  5
205
330
2
100
AcDbEntity
  8
0
  6
Continuous
 62
     7
370
     5
100
AcDbLine
 10
5726.041620287658
 20
-18661.17057795926
 30
46.99999999998342
 11
5712.954039649398
 21
-18674.25815859709
 31
46.99999999998341
  0
LINE
  5
206
330
2
100
AcDbEntity
  8
0
  6
DASHED
 62
    40
370
     5
100
AcDbLine
 10
4793.041620289088
 20
-19642.7000489478
 30
46.99999999998255
 11
4793.041620289088
 21
-19422.7000489478
 31
46.99999999998275
  0
LINE
  5
207
330
2
100
AcDbEntity
  8
0
  6
DASHED
 62
    40
370
     5
100
AcDbLine
 10
5027.041620289089
 20
-19642.7000489478
 30
46.99999999998255
 11
4793.041620289088
 21
-19642.7000489478
 31
46.99999999998255
  0
LINE
  5
208
330
2
100
AcDbEntity
  8
0
  6
DASHED
 62
    40
370
     5
100
AcDbLine
 10
5027.041620289089
 20
-19422.7000489478
 30
46.99999999998275
 11
5027.041620289089
 21
-19642.7000489478
 31
46.99999999998255
  0
LINE
  5
209
330
2
100
AcDbEntity
  8
0
  6
DASHED
 62
    40
370
     5
100
AcDbLine
 10
4793.041620289088
 20
-19422.7000489478
 30
46.99999999998275
 11
5027.041620289089
 21
-19422.7000489478
 31
46.99999999998275
  0
DIMENSION
  5
20A
330
2
100
AcDbEntity
  8
0
370
     5
100
AcDbDimension
  2
*D24
 10
5726.041620287658
 20
-17451.11183963743
 30
-0.0000000000006405
 11
5211.04162028837
 21
-17371.11183963743
 31
-0.0000000000006405
 70
    32
 71
     5
 42
1029.999999998576
  3
500
100
AcDbAlignedDimension
 13
4696.041620289082
 23
-18155.20001521188
 33
46.99999999998388
 14
5726.041620287658
 24
-18462.97945246037
 34
46.9999999999836
 50
180.0
100
AcDbRotatedDimension
  0
DIMENSION
  5
215
330
2
100
AcDbEntity
  8
0
370
     5
100
AcDbDimension
  2
*D23
 10
6174.777671709046
 20
-19585.70004894779
 30
-0.0000000000006405
 11
6094.777671709049
 21
-18870.45003207984
 31
-0.0000000000006405
 70
    32
  1
1430
 71
     5
 42
1430.50003373592
  3
500
100
AcDbAlignedDimension
 13
5596.041620289085
 23
-18155.20001521188
 33
46.99999999998388
 14
5124.03841382893
 24
-19585.70004894779
 34
46.99999999998261
 50
90.0
100
AcDbRotatedDimension
  0
LINE
  5
220
330
2
100
AcDbEntity
  8
0
 48
4.0
370
     5
100
AcDbLine
 10
5416.041620289085
 20
-18155.20001521188
 30
46.99999999998388
 11
5236.041620289085
 21
-18155.20001521188
 31
46.99999999998388
  0
LINE
  5
221
330
2
100
AcDbEntity
  8
0
  6
Continuous
 62
     7
370
     5
100
AcDbLine
 10
4756.041620289084
 20
-18215.20001521188
 30
46.99999999998381
 11
5236.041620289085
 21
-18215.20001521188
 31
46.99999999998381
  0
LINE
  5
222
330
2
100
AcDbEntity
  8
0
  6
Continuous
 62
     7
370
     5
100
AcDbLine
 10
5416.041620289085
 20
-18215.20001521188
 30
46.99999999998381
 11
5536.041620288735
 21
-18215.20001521188
 31
46.99999999998381
  0
LINE
  5
223
330
2
100
AcDbEntity
  8
0
  6
Continuous
 62
     7
370
     5
100
AcDbLine
 10
5666.041620287659
 20
-18487.83226620333
 30
46.99999999998357
 11
5666.041620287659
 21
-18636.31776421629
 31
46.99999999998345
  0
LINE
  5
224
330
2
100
AcDbEntity
  8
0
  6
Continuous
 62
     7
370
     5
100
AcDbLine
 10
5666.041620287659
 20
-18487.83226620333
 30
46.99999999998357
 11
5611.409369295507
 21
-18433.20001521295
 31
46.99999999998363
  0
LINE
  5
225
330
2
100
AcDbEntity
  8
0
  6
Continuous
 62
     7
370
     5
100
AcDbLine
 10
5666.041620287659
 20
-18636.31776421629
 30
46.99999999998343
 11
5611.160773690688
 21
-18691.19861081149
 31
46.99999999998341
  0
LINE
  5
226
330
2
100
AcDbEntity
  8
0
  6
Continuous
 62
     7
370
     5
100
AcDbLine
 10
5536.041620288735
 20
-18433.2000152126
 30
46.99999999998361
 11
5536.041620288735
 21
-18215.20001521188
 31
46.99999999998381
  0
LINE
  5
227
330
2
100
AcDbEntity
  8
0
  6
Continuous
 62
     7
370
     5
100
AcDbLine
 10
5536.041620289084
 20
-18691.19861081195
 30
46.9999999999834
 11
5536.041620289088
 21
-18995.20001521188
 31
46.99999999998313
  0
LINE
  5
228
330
2
100
AcDbEntity
  8
0
  6
Continuous
 62
     7
370
     5
100
AcDbLine
 10
5536.041620289088
 20
-18995.20001521188
 30
46.99999999998313
 11
5255.03841382893
 21
-18995.20001521188
 31
46.99999999998313
  0
LINE
  5
229
330
2
100
AcDbEntity
  8
0
  6
Continuous
 62
     7
370
     5
100
AcDbLine
 10
5155.03841382893
 20
-18995.20001521188
 30
46.99999999998313
 11
5064.03841382893
 21
-18995.20001521188
 31
46.99999999998313
  0
LINE
  5
22A
330
2
100
AcDbEntity
  8
0
  6
Continuous
 62
     7
370
     5
100
AcDbLine
 10
5064.03841382893
 20
-19525.7000489478
 30
46.99999999998265
 11
5064.03841382893
 21
-18995.20001521188
 31
46.99999999998313
  0
LINE
  5
22B
330
2
100
AcDbEntity
  8
0
  6
Continuous
 62
     7
370
     5
100
AcDbLine
 10
4756.041620289086
 20
-19525.70004894776
 30
46.99999999998265
 11
4756.041620289084
 21
-18215.20001521188
 31
46.99999999998381
  0
LINE
  5
22C
330
2
100
AcDbEntity
  8
0
  6
Continuous
 62
     7
370
     5
100
AcDbLine
 10
5064.03841382893
 20
-19525.7000489478
 30
46.99999999998265
 11
5035.041620289092
 21
-19525.7000489478
 31
46.99999999998265
  0
LINE
  5
22D
330
2
100
AcDbEntity
  8
0
  6
Continuous
 62
     7
370
     5
100
AcDbLine
 10
4785.04162028909
 20
-19525.70004894776
 30
46.99999999998265
 11
4756.041620289086
 21
-19525.70004894776
 31
46.99999999998265
  0
LINE
  5
22E
102
{ACAD_REACTORS
330
328
102
}
330
2
100
AcDbEntity
  8
0
  6
Continuous
 62
     7
370
     5
100
AcDbLine
 10
5236.041620289085
 20
-18155.20001521188
 30
46.99999999998388
 11
5236.041620289085
 21
-18215.20001521188
 31
46.99999999998381
  0
LINE
  5
22F
102
{ACAD_REACTORS
330
328
102
}
330
2
100
AcDbEntity
  8
0
  6
Continuous
 62
     7
370
     5
100
AcDbLine
 10
5416.041620289085
 20
-18155.20001521188
 30
46.99999999998388
 11
5416.041620289085
 21
-18215.20001521188
 31
46.99999999998381
  0
LINE
  5
230
102
{ACAD_REACTORS
330
328
102
}
330
2
100
AcDbEntity
  8
0
 48
4.0
370
     5
100
AcDbLine
 10
5416.041620289085
 20
-18215.20001521188
 30
46.99999999998381
 11
5236.041620289085
 21
-18215.20001521188
 31
46.99999999998381
  0
LINE
  5
231
330
2
100
AcDbEntity
  8
0
 62
     2
370
     5
100
AcDbLine
 10
5416.041620289085
 20
-17825.20001521188
 30
-0.000000000015832
 11
5693.373214646064
 21
-17825.20001521188
 31
-0.000000000015832
  0
LINE
  5
232
330
2
100
AcDbEntity
  8
0
370
     5
100
AcDbLine
 10
4696.041620289085
 20
-17840.20001521188
 30
-0.0000000000158453
 11
4696.041620289085
 21
-17760.32097415197
 31
-0.0000000000157743
  0
POLYLINE
  5
233
330
2
100
AcDbEntity
  8
0
370
     5
100
AcDbPolygonMesh
 66
     1
 10
0.0
 20
0.0
 30
0.0
 70
    16
 71
     2
 72
    16
  0
VERTEX
  5
234
330
233
100
AcDbEntity
  8
0
370
     5
100
AcDbVertex
100
AcDbPolygonMeshVertex
 10
5221.041620289085
 20
-17840.20001521188
 30
44.99999999998415
 70
    64
  0
VERTEX
  5
235
330
233
100
AcDbEntity
  8
0
370
     5
100
AcDbVertex
100
AcDbPolygonMeshVertex
 10
5186.041620289085
 20
-17840.20001521188
 30
44.99999999998415
 70
    64
  0
VERTEX
  5
236
330
233
100
AcDbEntity
  8
0
370
     5
100
AcDbVertex
100
AcDbPolygonMeshVertex
 10
5151.041620289085
 20
-17840.20001521188
 30
44.99999999998415
 70
    64
  0
VERTEX
  5
237
330
233
100
AcDbEntity
  8
0
370
     5
100
AcDbVertex
100
AcDbPolygonMeshVertex
 10
5116.041620289085
 20
-17840.20001521188
 30
44.99999999998415
 70
    64
  0
VERTEX
  5
238
330
233
100
AcDbEntity
  8
0
370
     5
100
AcDbVertex
100
AcDbPolygonMeshVertex
 10
5081.041620289084
 20
-17840.20001521188
 30
44.99999999998415
 70
    64
  0
VERTEX
  5
239
330
233
100
AcDbEntity
  8
0
370
     5
100
AcDbVertex
100
AcDbPolygonMeshVertex
 10
5046.041620289084
 20
-17840.20001521188
 30
44.99999999998415
 70
    64
  0
VERTEX
  5
23A
330
233
100
AcDbEntity
  8
0
370
     5
100
AcDbVertex
100
AcDbPolygonMeshVertex
 10
5011.041620289084
 20
-17840.20001521188
 30
44.99999999998415
 70
    64
  0
VERTEX
  5
23B
330
233
100
AcDbEntity
  8
0
370
     5
100
AcDbVertex
100
AcDbPolygonMeshVertex
 10
4976.041620289087
 20
-17840.20001521188
 30
44.99999999998415
 70
    64
  0
VERTEX
  5
23C
330
233
100
AcDbEntity
  8
0
370
     5
100
AcDbVertex
100
AcDbPolygonMeshVertex
 10
4941.041620289086
 20
-17840.20001521188
 30
44.99999999998415
 70
    64
  0
VERTEX
  5
23D
330
233
100
AcDbEntity
  8
0
370
     5
100
AcDbVertex
100
AcDbPolygonMeshVertex
 10
4906.041620289086
 20
-17840.20001521188
 30
44.99999999998415
 70
    64
  0
VERTEX
  5
23E
330
233
100
AcDbEntity
  8
0
370
     5
100
AcDbVertex
100
AcDbPolygonMeshVertex
 10
4871.041620289087
 20
-17840.20001521188
 30
44.99999999998415
 70
    64
  0
VERTEX
  5
23F
330
233
100
AcDbEntity
  8
0
370
     5
100
AcDbVertex
100
AcDbPolygonMeshVertex
 10
4836.041620289084
 20
-17840.20001521188
 30
44.99999999998415
 70
    64
  0
VERTEX
  5
240
330
233
100
AcDbEntity
  8
0
370
     5
100
AcDbVertex
100
AcDbPolygonMeshVertex
 10
4801.041620289084
 20
-17840.20001521188
 30
44.99999999998415
 70
    64
  0
VERTEX
  5
241
330
233
100
AcDbEntity
  8
0
370
     5
100
AcDbVertex
100
AcDbPolygonMeshVertex
 10
4766.041620289085
 20
-17840.20001521188
 30
44.99999999998415
 70
    64
  0
VERTEX
  5
242
330
233
100
AcDbEntity
  8
0
370
     5
100
AcDbVertex
100
AcDbPolygonMeshVertex
 10
4731.041620289085
 20
-17840.20001521188
 30
44.99999999998415
 70
    64
  0
VERTEX
  5
243
330
233
100
AcDbEntity
  8
0
370
     5
100
AcDbVertex
100
AcDbPolygonMeshVertex
 10
4696.041620289085
 20
-17840.20001521188
 30
44.99999999998415
 70
    64
  0
VERTEX
  5
244
330
233
100
AcDbEntity
  8
0
370
     5
100
AcDbVertex
100
AcDbPolygonMeshVertex
 10
5221.041620289085
 20
-17760.32097415197
 30
-0.0000000000157743
 70
    64
  0
VERTEX
  5
245
330
233
100
AcDbEntity
  8
0
370
     5
100
AcDbVertex
100
AcDbPolygonMeshVertex
 10
5186.041620289085
 20
-17760.32097415197
 30
-0.0000000000157743
 70
    64
  0
VERTEX
  5
246
330
233
100
AcDbEntity
  8
0
370
     5
100
AcDbVertex
100
AcDbPolygonMeshVertex
 10
5151.041620289085
 20
-17760.32097415197
 30
-0.0000000000157743
 70
    64
  0
VERTEX
  5
247
330
233
100
AcDbEntity
  8
0
370
     5
100
AcDbVertex
100
AcDbPolygonMeshVertex
 10
5116.041620289085
 20
-17760.32097415197
 30
-0.0000000000157743
 70
    64
  0
VERTEX
  5
248
330
233
100
AcDbEntity
  8
0
370
     5
100
AcDbVertex
100
AcDbPolygonMeshVertex
 10
5081.041620289084
 20
-17760.32097415197
 30
-0.0000000000157743
 70
    64
  0
VERTEX
  5
249
330
233
100
AcDbEntity
  8
0
370
     5
100
AcDbVertex
100
AcDbPolygonMeshVertex
 10
5046.041620289084
 20
-17760.32097415197
 30
-0.0000000000157743
 70
    64
  0
VERTEX
  5
24A
330
233
100
AcDbEntity
  8
0
370
     5
100
AcDbVertex
100
AcDbPolygonMeshVertex
 10
5011.041620289084
 20
-17760.32097415197
 30
-0.0000000000157743
 70
    64
  0
VERTEX
  5
24B
330
233
100
AcDbEntity
  8
0
370
     5
100
AcDbVertex
100
AcDbPolygonMeshVertex
 10
4976.041620289087
 20
-17760.32097415197
 30
-0.0000000000157743
 70
    64
  0
VERTEX
  5
24C
330
233
100
AcDbEntity
  8
0
370
     5
100
AcDbVertex
100
AcDbPolygonMeshVertex
 10
4941.041620289086
 20
-17760.32097415197
 30
-0.0000000000157743
 70
    64
  0
VERTEX
  5
24D
330
233
100
AcDbEntity
  8
0
370
     5
100
AcDbVertex
100
AcDbPolygonMeshVertex
 10
4906.041620289086
 20
-17760.32097415197
 30
-0.0000000000157743
 70
    64
  0
VERTEX
  5
24E
330
233
100
AcDbEntity
  8
0
370
     5
100
AcDbVertex
100
AcDbPolygonMeshVertex
 10
4871.041620289087
 20
-17760.32097415197
 30
-0.0000000000157743
 70
    64
  0
VERTEX
  5
24F
330
233
100
AcDbEntity
  8
0
370
     5
100
AcDbVertex
100
AcDbPolygonMeshVertex
 10
4836.041620289084
 20
-17760.32097415197
 30
-0.0000000000157743
 70
    64
  0
VERTEX
  5
250
330
233
100
AcDbEntity
  8
0
370
     5
100
AcDbVertex
100
AcDbPolygonMeshVertex
 10
4801.041620289084
 20
-17760.32097415197
 30
-0.0000000000157743
 70
    64
  0
VERTEX
  5
251
330
233
100
AcDbEntity
  8
0
370
     5
100
AcDbVertex
100
AcDbPolygonMeshVertex
 10
4766.041620289085
 20
-17760.32097415197
 30
-0.0000000000157743
 70
    64
  0
VERTEX
  5
252
330
233
100
AcDbEntity
  8
0
370
     5
100
AcDbVertex
100
AcDbPolygonMeshVertex
 10
4731.041620289085
 20
-17760.32097415197
 30
-0.0000000000157743
 70
    64
  0
VERTEX
  5
253
330
233
100
AcDbEntity
  8
0
370
     5
100
AcDbVertex
100
AcDbPolygonMeshVertex
 10
4696.041620289085
 20
-17760.32097415197
 30
-0.0000000000157743
 70
    64
  0
SEQEND
  5
254
330
233
100
AcDbEntity
  8
0
370
     5
  0
3DFACE
  5
255
330
2
100
AcDbEntity
  8
0
370
     5
100
AcDbFace
 10
5431.041620289085
 20
-17810.20001521188
 30
44.99999999998418
 11
5452.533632695333
 21
-17810.20001521188
 31
44.99999999998418
 12
5454.889785184183
 22
-17765.20001521188
 32
-0.0000000000157787
 13
5431.041620289085
 23
-17765.20001521188
 33
-0.0000000000157787
  0
3DFACE
  5
256
330
2
100
AcDbEntity
  8
0
370
     5
100
AcDbFace
 10
5452.533632695333
 20
-17810.20001521188
 30
44.99999999998418
 11
5474.025645101574
 21
-17810.20001521188
 31
44.99999999998418
 12
5478.737950079281
 22
-17765.20001521188
 32
-0.0000000000157787
 13
5454.889785184183
 23
-17765.20001521188
 33
-0.0000000000157787
  0
3DFACE
  5
257
330
2
100
AcDbEntity
  8
0
370
     5
100
AcDbFace
 10
5474.025645101574
 20
-17810.20001521188
 30
44.99999999998418
 11
5495.517657507821
 21
-17810.20001521188
 31
44.99999999998418
 12
5502.586114974373
 22
-17765.20001521188
 32
-0.0000000000157787
 13
5478.737950079281
 23
-17765.20001521188
 33
-0.0000000000157787
  0
3DFACE
  5
258
330
2
100
AcDbEntity
  8
0
370
     5
100
AcDbFace
 10
5495.517657507821
 20
-17810.20001521188
 30
44.99999999998418
 11
5517.009669914063
 21
-17810.20001521188
 31
44.99999999998418
 12
5526.43427986947
 22
-17765.20001521188
 32
-0.0000000000157787
 13
5502.586114974373
 23
-17765.20001521188
 33
-0.0000000000157787
  0
3DFACE
  5
259
330
2
100
AcDbEntity
  8
0
370
     5
100
AcDbFace
 10
5517.009669914063
 20
-17810.20001521188
 30
44.99999999998418
 11
5538.501682320308
 21
-17810.20001521188
 31
44.99999999998418
 12
5550.282444764569
 22
-17765.20001521188
 32
-0.0000000000157787
 13
5526.43427986947
 23
-17765.20001521188
 33
-0.0000000000157787
  0
3DFACE
  5
25A
330
2
100
AcDbEntity
  8
0
370
     5
100
AcDbFace
 10
5538.501682320308
 20
-17810.20001521188
 30
44.99999999998418
 11
5559.993694726553
 21
-17810.20001521188
 31
44.99999999998418
 12
5574.13060965966
 22
-17765.20001521188
 32
-0.0000000000157787
 13
5550.282444764569
 23
-17765.20001521188
 33
-0.0000000000157787
  0
3DFACE
  5
25B
330
2
100
AcDbEntity
  8
0
370
     5
100
AcDbFace
 10
5559.993694726553
 20
-17810.20001521188
 30
44.99999999998418
 11
5581.485707132793
 21
-17810.20001521188
 31
44.99999999998418
 12
5597.978774554758
 22
-17765.20001521188
 32
-0.0000000000157787
 13
5574.13060965966
 23
-17765.20001521188
 33
-0.0000000000157787
  0
3DFACE
  5
25C
330
2
100
AcDbEntity
  8
0
370
     5
100
AcDbFace
 10
5581.485707132793
 20
-17810.20001521188
 30
44.99999999998418
 11
5602.977719539041
 21
-17810.20001521188
 31
44.99999999998418
 12
5621.826939449857
 22
-17765.20001521188
 32
-0.0000000000157787
 13
5597.978774554758
 23
-17765.20001521188
 33
-0.0000000000157787
  0
3DFACE
  5
25D
330
2
100
AcDbEntity
  8
0
370
     5
100
AcDbFace
 10
5602.977719539041
 20
-17810.20001521188
 30
44.99999999998418
 11
5624.469731945282
 21
-17810.20001521188
 31
44.99999999998418
 12
5645.675104344948
 22
-17765.20001521188
 32
-0.0000000000157787
 13
5621.826939449857
 23
-17765.20001521188
 33
-0.0000000000157787
  0
3DFACE
  5
25E
330
2
100
AcDbEntity
  8
0
370
     5
100
AcDbFace
 10
5624.469731945282
 20
-17810.20001521188
 30
44.99999999998418
 11
5645.961744351531
 21
-17810.20001521188
 31
44.99999999998418
 12
5669.523269240046
 22
-17765.20001521188
 32
-0.0000000000157787
 13
5645.675104344948
 23
-17765.20001521188
 33
-0.0000000000157787
  0
3DFACE
  5
25F
330
2
100
AcDbEntity
  8
0
370
     5
100
AcDbFace
 10
5645.961744351531
 20
-17810.20001521188
 30
44.99999999998418
 11
5667.453756757772
 21
-17810.20001521188
 31
44.99999999998418
 12
5693.371434135144
 22
-17765.20001521188
 32
-0.0000000000157787
 13
5669.523269240046
 23
-17765.20001521188
 33
-0.0000000000157787
  0
3DFACE
  5
260
330
2
100
AcDbEntity
  8
0
370
     5
100
AcDbFace
 10
5667.453756757772
 20
-17810.20001521188
 30
44.99999999998418
 11
5688.945769164017
 21
-17810.20001521188
 31
44.99999999998418
 12
5717.219398161902
 22
-17765.22015538615
 32
-0.0000000000157787
 13
5693.371434135144
 23
-17765.20001521188
 33
-0.0000000000157787
  0
3DFACE
  5
261
330
2
100
AcDbEntity
  8
0
370
     5
100
AcDbFace
 10
5688.945769164017
 20
-17810.20001521188
 30
44.99999999998418
 11
5715.873214646064
 21
-17810.20001521188
 31
44.99999999998418
 12
5739.771975226162
 22
-17772.07064014835
 32
-0.0000000000157848
 13
5717.219398161902
 23
-17765.22015538615
 33
-0.0000000000157787
  0
3DFACE
  5
262
330
2
100
AcDbEntity
  8
0
370
     5
100
AcDbFace
 10
5715.873214646064
 20
-17810.20001521188
 30
44.99999999998418
 11
5715.873214646064
 21
-17826.25659454231
 31
44.99999999998417
 12
5755.768055685621
 22
-17789.38171416619
 32
-0.0000000000158001
 13
5739.771975226162
 23
-17772.07064014835
 33
-0.0000000000157848
  0
3DFACE
  5
263
330
2
100
AcDbEntity
  8
0
370
     5
100
AcDbFace
 10
5715.873214646064
 20
-17826.25659454231
 30
44.99999999998417
 11
5715.873214646064
 21
-17847.74860694856
 31
44.99999999998414
 12
5760.871979363008
 22
-17812.40506262654
 32
-0.0000000000158206
 13
5755.768055685621
 23
-17789.38171416619
 33
-0.0000000000158001
  0
3DFACE
  5
264
330
2
100
AcDbEntity
  8
0
370
     5
100
AcDbFace
 10
5715.873214646064
 20
-17847.74860694856
 30
44.99999999998414
 11
5715.873214646064
 21
-17869.2406193548
 31
44.99999999998412
 12
5760.871979363008
 22
-17836.25322752164
 32
-0.0000000000158418
 13
5760.871979363008
 23
-17812.40506262654
 33
-0.0000000000158206
  0
3DFACE
  5
265
330
2
100
AcDbEntity
  8
0
370
     5
100
AcDbFace
 10
5715.873214646064
 20
-17869.2406193548
 30
44.99999999998412
 11
5715.873214646064
 21
-17890.73263176105
 31
44.99999999998411
 12
5760.871979363008
 22
-17860.10139241673
 32
-0.000000000015863
 13
5760.871979363008
 23
-17836.25322752164
 33
-0.0000000000158418
  0
3DFACE
  5
266
330
2
100
AcDbEntity
  8
0
370
     5
100
AcDbFace
 10
5715.873214646064
 20
-17890.73263176105
 30
44.99999999998411
 11
5715.873214646064
 21
-17912.22464416729
 31
44.99999999998409
 12
5760.871979363008
 22
-17883.94955731183
 32
-0.0000000000158841
 13
5760.871979363008
 23
-17860.10139241673
 33
-0.000000000015863
  0
3DFACE
  5
267
330
2
100
AcDbEntity
  8
0
370
     5
100
AcDbFace
 10
5715.873214646064
 20
-17912.22464416729
 30
44.99999999998409
 11
5715.873214646064
 21
-17933.71665657354
 31
44.99999999998407
 12
5760.871979363004
 22
-17907.79772220693
 32
-0.0000000000159053
 13
5760.871979363008
 23
-17883.94955731183
 33
-0.0000000000158841
  0
3DFACE
  5
268
330
2
100
AcDbEntity
  8
0
370
     5
100
AcDbFace
 10
5715.873214646064
 20
-17933.71665657354
 30
44.99999999998407
 11
5715.873214646064
 21
-17955.20866897978
 31
44.99999999998405
 12
5760.871979363004
 22
-17931.64588710202
 32
-0.0000000000159265
 13
5760.871979363004
 23
-17907.79772220693
 33
-0.0000000000159053
  0
3DFACE
  5
269
330
2
100
AcDbEntity
  8
0
370
     5
100
AcDbFace
 10
5715.873214646064
 20
-17955.20866897978
 30
44.99999999998405
 11
5715.873214646064
 21
-17976.70068138602
 31
44.99999999998403
 12
5760.871979363004
 22
-17955.49405199712
 32
-0.0000000000159477
 13
5760.871979363004
 23
-17931.64588710202
 33
-0.0000000000159265
  0
3DFACE
  5
26A
330
2
100
AcDbEntity
  8
0
370
     5
100
AcDbFace
 10
5715.873214646064
 20
-17976.70068138602
 30
44.99999999998403
 11
5715.873214646064
 21
-17998.19269379227
 31
44.99999999998401
 12
5760.871979363004
 22
-17979.34221689221
 32
-0.0000000000159689
 13
5760.871979363004
 23
-17955.49405199712
 33
-0.0000000000159477
  0
3DFACE
  5
26B
330
2
100
AcDbEntity
  8
0
370
     5
100
AcDbFace
 10
5715.873214646064
 20
-17998.19269379227
 30
44.99999999998401
 11
5715.873214646064
 21
-18019.68470619851
 31
44.999999999984
 12
5760.871979363004
 22
-18003.19038178731
 32
-0.00000000001599
 13
5760.871979363004
 23
-17979.34221689221
 33
-0.0000000000159689
  0
3DFACE
  5
26C
330
2
100
AcDbEntity
  8
0
370
     5
100
AcDbFace
 10
5715.873214646064
 20
-18019.68470619851
 30
44.999999999984
 11
5715.873214646064
 21
-18041.17671860476
 31
44.99999999998397
 12
5760.871979363004
 22
-18027.03854668241
 32
-0.0000000000160112
 13
5760.871979363004
 23
-18003.19038178731
 33
-0.00000000001599
  0
3DFACE
  5
26D
330
2
100
AcDbEntity
  8
0
370
     5
100
AcDbFace
 10
5715.873214646064
 20
-18041.17671860476
 30
44.99999999998397
 11
5715.873214646064
 21
-18062.668731011
 31
44.99999999998395
 12
5760.871979363004
 22
-18050.8867115775
 32
-0.0000000000160324
 13
5760.871979363004
 23
-18027.03854668241
 33
-0.0000000000160112
  0
3DFACE
  5
26E
330
2
100
AcDbEntity
  8
0
370
     5
100
AcDbFace
 10
5715.873214646064
 20
-18062.668731011
 30
44.99999999998395
 11
5715.873214646064
 21
-18084.16074341725
 31
44.99999999998394
 12
5760.871979363004
 22
-18074.7348764726
 32
-0.0000000000160536
 13
5760.871979363004
 23
-18050.8867115775
 33
-0.0000000000160324
  0
3DFACE
  5
26F
330
2
100
AcDbEntity
  8
0
370
     5
100
AcDbFace
 10
5715.873214646064
 20
-18084.16074341725
 30
44.99999999998394
 11
5715.873214646064
 21
-18105.65275582349
 31
44.99999999998392
 12
5760.871979363004
 22
-18098.5830413677
 32
-0.0000000000160748
 13
5760.871979363004
 23
-18074.7348764726
 33
-0.0000000000160536
  0
3DFACE
  5
270
330
2
100
AcDbEntity
  8
0
370
     5
100
AcDbFace
 10
5715.873214646064
 20
-18105.65275582349
 30
44.99999999998392
 11
5715.873214646064
 21
-18127.14476822973
 31
44.99999999998389
 12
5760.871979363004
 22
-18122.43120626279
 32
-0.000000000016096
 13
5760.871979363004
 23
-18098.5830413677
 33
-0.0000000000160748
  0
LINE
  5
271
102
{ACAD_REACTORS
330
328
102
}
330
2
100
AcDbEntity
  8
0
  6
Continuous
 62
     6
370
     5
100
AcDbLine
 10
5761.164980705551
 20
-18155.20001521187
 30
46.99999999998388
 11
4756.041620289084
 21
-18155.20001521186
 31
46.99999999998388
  0
LINE
  5
272
330
2
100
AcDbEntity
  8
0
  6
Continuous
 62
     6
370
     5
100
AcDbLine
 10
4756.041620289084
 20
-18155.20001521186
 30
46.99999999998388
 11
4756.041620289082
 21
-17855.20001521188
 31
46.99999999998413
  0
LINE
  5
273
330
2
100
AcDbEntity
  8
0
  6
Continuous
 62
     6
370
     5
100
AcDbLine
 10
4756.041620289082
 20
-17855.20001521188
 30
46.99999999998413
 11
5236.041620289085
 21
-17855.20001521187
 31
46.99999999998413
  0
LINE
  5
274
330
2
100
AcDbEntity
  8
0
  6
Continuous
 62
     6
370
     5
100
AcDbLine
 10
5236.041620289085
 20
-17855.20001521187
 30
46.99999999998413
 11
5236.041620289085
 21
-17795.20001521187
 31
46.9999999999842
  0
LINE
  5
275
330
2
100
AcDbEntity
  8
0
  6
Continuous
 62
     6
370
     5
100
AcDbLine
 10
5236.041620289085
 20
-17825.20001521187
 30
46.99999999998417
 11
5701.041620289085
 21
-17825.20001521187
 31
46.99999999998417
  0
LINE
  5
276
330
2
100
AcDbEntity
  8
0
  6
Continuous
 62
   210
370
     5
100
AcDbLine
 10
4726.041620289083
 20
-18155.20001521187
 30
46.99999999998388
 11
4726.041620289084
 21
-17855.20001521187
 31
46.99999999998413
  0
LINE
  5
277
330
2
100
AcDbEntity
  8
0
  6
Continuous
 62
   210
370
     5
100
AcDbLine
 10
4726.041620289084
 20
-17855.20001521187
 30
46.99999999998413
 11
5236.041620289085
 21
-17855.20001521187
 31
46.99999999998413
  0
LINE
  5
278
330
2
100
AcDbEntity
  8
0
  6
Continuous
 62
   210
370
     5
100
AcDbLine
 10
5236.041620289085
 20
-17855.20001521187
 30
46.99999999998413
 11
5236.041620289085
 21
-17765.20001521188
 31
46.99999999998421
  0
LINE
  5
279
330
2
100
AcDbEntity
  8
0
  6
Continuous
 62
   210
370
     5
100
AcDbLine
 10
5236.041620289085
 20
-17795.20001521188
 30
46.9999999999842
 11
5416.041620289085
 21
-17795.20001521188
 31
46.9999999999842
  0
LINE
  5
27A
330
2
100
AcDbEntity
  8
0
  6
Continuous
 62
   210
370
     5
100
AcDbLine
 10
5416.041620289085
 20
-17765.20001521188
 30
46.99999999998421
 11
5416.041620289085
 21
-17795.20001521188
 31
46.9999999999842
  0
LINE
  5
27B
330
2
100
AcDbEntity
  8
0
  6
Continuous
 62
   210
370
     5
100
AcDbLine
 10
5416.041620289085
 20
-17825.20001521188
 30
46.99999999998417
 11
5701.041620289085
 21
-17825.20001521188
 31
46.99999999998417
  0
LINE
  5
27C
330
2
100
AcDbEntity
  8
0
  6
Continuous
 62
   210
370
     5
100
AcDbLine
 10
5761.041620289084
 20
-18155.20001521187
 30
46.99999999998388
 11
5761.041620289084
 21
-18184.36284663779
 31
46.99999999998385
  0
LINE
  5
27D
330
2
100
AcDbEntity
  8
0
  6
Continuous
 62
   210
370
     5
100
AcDbLine
 10
5761.041620289084
 20
-18184.36284663779
 30
46.99999999998385
 11
5596.041620289085
 21
-18184.36284663779
 31
46.99999999998385
  0
LINE
  5
27E
330
2
100
AcDbEntity
  8
0
  6
Continuous
 62
   210
370
     5
100
AcDbLine
 10
4696.041620289082
 20
-18155.20001521187
 30
46.99999999998388
 11
4696.041620289085
 21
-17855.20001521187
 31
46.99999999998413
  0
LINE
  5
27F
330
2
100
AcDbEntity
  8
0
  6
Continuous
 62
   210
370
     5
100
AcDbLine
 10
4696.041620289085
 20
-17855.20001521187
 30
46.99999999998413
 11
5236.041620289085
 21
-17855.20001521188
 31
46.99999999998413
  0
LINE
  5
280
330
2
100
AcDbEntity
  8
0
  6
Continuous
 62
   210
370
     5
100
AcDbLine
 10
5236.041620289085
 20
-17855.20001521188
 30
46.99999999998413
 11
5236.041620289085
 21
-17765.20001521187
 31
46.99999999998421
  0
LINE
  5
281
330
2
100
AcDbEntity
  8
0
  6
Continuous
 62
   210
370
     5
100
AcDbLine
 10
5236.041620289085
 20
-17765.20001521188
 30
46.99999999998421
 11
5416.041620289085
 21
-17765.20001521188
 31
46.99999999998421
  0
LINE
  5
282
330
2
100
AcDbEntity
  8
0
  6
Continuous
 62
   210
370
     5
100
AcDbLine
 10
5416.041620289085
 20
-17765.20001521188
 30
46.99999999998421
 11
5416.041620289085
 21
-17795.20001521188
 31
46.9999999999842
  0
LINE
  5
283
330
2
100
AcDbEntity
  8
0
  6
Continuous
 62
   210
370
     5
100
AcDbLine
 10
5416.041620289085
 20
-17825.20001521188
 30
46.99999999998417
 11
5701.041620289085
 21
-17825.20001521188
 31
46.99999999998417
  0
LINE
  5
284
330
2
100
AcDbEntity
  8
0
  6
Continuous
 62
   210
370
     5
100
AcDbLine
 10
5761.041620289084
 20
-18155.20001521187
 30
46.99999999998388
 11
5761.041620289084
 21
-18214.36284663779
 31
46.99999999998381
  0
LINE
  5
285
330
2
100
AcDbEntity
  8
0
  6
Continuous
 62
   210
370
     5
100
AcDbLine
 10
5761.041620289084
 20
-18214.36284663779
 30
46.99999999998381
 11
5596.041620289085
 21
-18214.36284663779
 31
46.99999999998381
  0
LINE
  5
286
330
2
100
AcDbEntity
  8
0
  6
Continuous
 62
     8
370
     5
390
171
100
AcDbLine
 10
5221.041620289085
 20
-17765.20001521188
 30
46.99999999998421
 11
5236.041620289085
 21
-17765.20001521188
 31
46.99999999998421
  0
LINE
  5
287
330
2
100
AcDbEntity
  8
0
  6
Continuous
 62
     8
370
     5
390
171
100
AcDbLine
 10
5236.041620289085
 20
-17765.20001521187
 30
46.99999999998421
 11
5236.041620289085
 21
-17855.20001521188
 31
46.99999999998413
  0
LINE
  5
288
330
2
100
AcDbEntity
  8
0
  6
Continuous
 62
     8
370
     5
390
171
100
AcDbLine
 10
5221.041620289085
 20
-17840.20001521188
 30
46.99999999998415
 11
5221.041620289085
 21
-17765.20001521187
 31
46.99999999998421
  0
LINE
  5
289
330
2
100
AcDbEntity
  8
0
  6
Continuous
 62
     8
370
     5
390
171
100
AcDbLine
 10
5236.041620289085
 20
-17855.20001521188
 30
46.99999999998413
 11
4696.041620289085
 21
-17855.20001521188
 31
46.99999999998413
  0
LINE
  5
28A
330
2
100
AcDbEntity
  8
0
  6
Continuous
 62
     8
370
     5
390
171
100
AcDbLine
 10
4696.041620289085
 20
-17855.20001521188
 30
46.99999999998413
 11
4696.041620289085
 21
-17840.20001521188
 31
46.99999999998415
  0
LINE
  5
28B
330
2
100
AcDbEntity
  8
0
  6
Continuous
 62
     8
370
     5
390
171
100
AcDbLine
 10
4696.041620289085
 20
-17840.20001521188
 30
46.99999999998415
 11
5221.041620289085
 21
-17840.20001521188
 31
46.99999999998415
  0
LINE
  5
28C
330
2
100
AcDbEntity
  8
0
  6
Continuous
 62
     8
370
     5
390
171
100
AcDbLine
 10
5761.041620289084
 20
-18140.12879304222
 30
46.99999999998389
 11
5761.041620289084
 21
-18155.12879304222
 31
46.99999999998388
  0
LINE
  5
28D
330
2
100
AcDbEntity
  8
0
370
     5
390
171
100
AcDbLine
 10
5715.873214646064
 20
-18140.12879304222
 30
46.99999999998389
 11
5761.041620289084
 21
-18140.12879304222
 31
46.99999999998389
  0
LINE
  5
28E
330
2
100
AcDbEntity
  8
0
  6
Continuous
 62
     8
370
     5
390
171
100
AcDbLine
 10
5700.873214646065
 20
-18155.20001521187
 30
46.99999999998388
 11
5700.873214646065
 21
-17825.20001521188
 31
46.99999999998417
  0
LINE
  5
28F
330
2
100
AcDbEntity
  8
0
  6
Continuous
 62
     8
370
     5
390
171
100
AcDbLine
 10
5715.873214646064
 20
-17810.20001521188
 30
46.99999999998418
 11
5715.873214646064
 21
-18140.12879304222
 31
46.99999999998389
  0
LINE
  5
290
330
2
100
AcDbEntity
  8
0
  6
Continuous
 62
     8
370
     5
390
171
100
AcDbLine
 10
5700.873214646065
 20
-17825.20001521188
 30
46.99999999998417
 11
5416.041620289085
 21
-17825.20001521188
 31
46.99999999998417
  0
LINE
  5
291
330
2
100
AcDbEntity
  8
0
  6
Continuous
 62
     8
370
     5
390
171
100
AcDbLine
 10
5431.041620289085
 20
-17810.20001521188
 30
46.99999999998418
 11
5715.873214646064
 21
-17810.20001521188
 31
46.99999999998418
  0
LINE
  5
292
330
2
100
AcDbEntity
  8
0
  6
Continuous
 62
     8
370
     5
390
171
100
AcDbLine
 10
5416.041620289085
 20
-17825.20001521188
 30
46.99999999998417
 11
5416.041620289085
 21
-17765.20001521188
 31
46.99999999998421
  0
LINE
  5
293
330
2
100
AcDbEntity
  8
0
  6
Continuous
 62
     8
370
     5
390
171
100
AcDbLine
 10
5416.041620289085
 20
-17765.20001521188
 30
46.99999999998421
 11
5431.041620289085
 21
-17765.20001521188
 31
46.99999999998421
  0
LINE
  5
294
330
2
100
AcDbEntity
  8
0
  6
Continuous
 62
     8
370
     5
390
171
100
AcDbLine
 10
5431.041620289085
 20
-17765.20001521188
 30
46.99999999998421
 11
5431.041620289085
 21
-17780.20001521188
 31
46.9999999999842
  0
LWPOLYLINE
  5
295
330
2
100
AcDbEntity
  8
0
370
     5
100
AcDbPolyline
 90
        2
 70
     0
 43
0.0
 10
5760.871979363004
 20
-18122.43120626279
 10
5761.041620289084
 20
-18140.12879304222
  0
DIMENSION
  5
296
330
2
100
AcDbEntity
  8
0
370
     5
100
AcDbDimension
  2
*D22
 10
5596.041620289085
 20
-17646.46260766251
 30
0.0
 11
5661.041620288372
 21
-17566.46260766251
 31
0.0
 70
    32
 71
     5
 42
129.9999999985739
  3
500
100
AcDbAlignedDimension
 13
5726.041620287658
 23
-18462.97945246037
 33
46.9999999999836
 14
5596.041620289085
 24
-18373.20001521242
 34
46.99999999998367
 50
180.0
100
AcDbRotatedDimension
  0
DIMENSION
  5
2A3
330
2
100
AcDbEntity
  8
0
370
     5
100
AcDbDimension
  2
*D21
 10
5596.041620289085
 20
-17646.46260766251
 30
0.0
 11
5146.041620289084
 21
-17566.46260766251
 31
0.0
 70
    32
 71
     5
 42
900.0000000000017
  3
500
100
AcDbAlignedDimension
 13
4696.041620289082
 23
-18155.20001521188
 33
46.99999999998388
 14
5596.041620289085
 24
-18155.20001521188
 34
46.99999999998388
 50
180.0
100
AcDbRotatedDimension
  0
DIMENSION
  5
2AE
330
2
100
AcDbEntity
  8
0
370
     5
100
AcDbDimension
  2
*D20
 10
5987.796741683356
 20
-19055.20001521188
 30
0.0
 11
5907.79674168336
 21
-18605.20001521187
 31
0.0
 70
    32
 71
     5
 42
900.0000000000037
  3
500
100
AcDbAlignedDimension
 13
5596.041620289085
 23
-18155.20001521187
 33
46.99999999998388
 14
5596.041620289085
 24
-19055.20001521188
 34
46.99999999998307
 50
90.0
100
AcDbRotatedDimension
  0
DIMENSION
  5
2B9
330
2
100
AcDbEntity
  8
0
370
     5
100
AcDbDimension
  2
*D19
 10
5987.796741683349
 20
-19055.20001521188
 30
0.0
 11
5907.796741683353
 21
-19320.45003207983
 31
0.0
 70
    32
  1
530
 71
     5
 42
530.5000337359087
  3
500
100
AcDbAlignedDimension
 13
5124.038413828927
 23
-19585.70004894779
 33
46.99999999998261
 14
5124.038413828934
 24
-19055.20001521188
 34
46.99999999998307
 50
90.0
100
AcDbRotatedDimension
  0
HATCH
  5
315
330
2
100
AcDbEntity
  8
0
 48
4.0
100
AcDbHatch
 10
0.0
 20
0.0
 30
0.0
210
0.0
220
0.0
230
1.0
  2
SOLID
 70
     1
 71
     1
 91
        1
 92
        7
 72
     0
 73
     1
 93
        4
 10
1423.067549672665
 20
-18155.20001521187
 10
1243.067549672665
 20
-18155.20001521188
 10
1243.067549672665
 20
-18215.20001521188
 10
1423.067549672665
 20
-18215.20001521188
 97
        4
330
158
330
110
330
111
330
10F
 75
     0
 76
     1
 47
4.888778001903459
 98
        1
 10
1359.763952781932
 20
-18187.79596970576
1001
ACAD
1010
0.0
1020
0.0
1030
0.0
  0
HATCH
  5
328
330
2
100
AcDbEntity
  8
0
 48
4.0
100
AcDbHatch
 10
0.0
 20
0.0
 30
0.0
210
0.0
220
0.0
230
1.0
  2
SOLID
 70
     1
 71
     1
 91
        1
 92
        7
 72
     0
 73
     1
 93
        4
 10
5416.041620289085
 20
-18155.20001521187
 10
5236.041620289085
 20
-18155.20001521187
 10
5236.041620289085
 20
-18215.20001521188
 10
5416.041620289083
 20
-18215.20001521188
 97
        4
330
271
330
22E
330
230
330
22F
 75
     0
 76
     1
 47
4.888778001903451
 98
        1
 10
5349.106681257215
 20
-18187.80266500466
1001
ACAD
1010
0.0
1020
0.0
1030
0.0
  0
ENDSEC
  0
SECTION
  2
OBJECTS
  0
DICTIONARY
  5
B
330
0
100
AcDbDictionary
281
     1
  3
ACAD_COLOR
350
5D
  3
ACAD_GROUP
350
58
  3
ACAD_LAYOUT
350
12
  3
ACAD_MATERIAL
350
D
  3
ACAD_MLEADERSTYLE
350
2FA
  3
ACAD_MLINESTYLE
350
59
  3
ACAD_PLOTSETTINGS
350
5A
  3
ACAD_PLOTSTYLENAME
350
A
  3
ACAD_SCALELIST
350
2EA
  3
ACAD_TABLESTYLE
350
5E
  3
ACAD_VISUALSTYLE
350
15
  3
ACDB_RECOMPOSE_DATA
350
3BE
  3
AcDbVariableDictionary
350
2CD
  3
ASE_INDEX_DICTIONARY
350
3A5
  3
DWGPROPS
350
3BF
  0
DICTIONARY
  5
1E
330
1D
100
AcDbDictionary
280
     1
281
     1
  3
ACAD_LAYERSTATES
360
1F
  0
DICTIONARY
  5
7
330
6
100
AcDbDictionary
280
     1
281
     1
  3
ADSK_XREC_LAYER_RECONCILED
360
8
  0
DICTIONARY
  5
6A
330
69
100
AcDbDictionary
280
     1
281
     1
  3
ADSK_XREC_LAYER_RECONCILED
360
6B
  0
DICTIONARY
  5
60
330
5F
100
AcDbDictionary
280
     1
281
     1
  3
ADSK_XREC_LAYER_RECONCILED
360
61
  0
DICTIONARY
  5
75
330
74
100
AcDbDictionary
280
     1
281
     1
  3
ADSK_XREC_LAYER_RECONCILED
360
76
  0
DICTIONARY
  5
3
330
2
100
AcDbDictionary
280
     1
281
     1
  3
ACAD_SORTENTS
360
2C5
  0
DICTIONARY
  5
3C
330
3B
100
AcDbDictionary
280
     1
281
     1
  3
ACAD_SORTENTS
360
2C4
  0
DICTIONARY
  5
5D
102
{ACAD_REACTORS
330
B
102
}
330
B
100
AcDbDictionary
281
     1
  0
DICTIONARY
  5
58
102
{ACAD_REACTORS
330
B
102
}
330
B
100
AcDbDictionary
281
     1
  0
DICTIONARY
  5
12
102
{ACAD_REACTORS
330
B
102
}
330
B
100
AcDbDictionary
281
     1
  3
Model
350
11
  3
Poddasze
350
1A
  0
DICTIONARY
  5
D
102
{ACAD_REACTORS
330
B
102
}
330
B
100
AcDbDictionary
281
     1
  3
ByBlock
350
5C
  3
ByLayer
350
5B
  3
Global
350
C
  0
DICTIONARY
  5
2FA
102
{ACAD_REACTORS
330
B
102
}
330
B
100
AcDbDictionary
281
     1
  3
Standard
350
2FB
  0
DICTIONARY
  5
59
102
{ACAD_REACTORS
330
B
102
}
330
B
100
AcDbDictionary
281
     1
  3
STANDARD
350
62
  0
DICTIONARY
  5
5A
102
{ACAD_REACTORS
330
B
102
}
330
B
100
AcDbDictionary
281
     1
  0
ACDBDICTIONARYWDFLT
  5
A
102
{ACAD_REACTORS
330
B
102
}
330
B
100
AcDbDictionary
281
     1
  3
Fine
350
B1
  3
Medium
350
171
  3
Normal
350
9
100
AcDbDictionaryWithDefault
340
9
  0
DICTIONARY
  5
2EA
102
{ACAD_REACTORS
330
B
102
}
330
B
100
AcDbDictionary
281
     1
  3
A0
350
2EB
  3
A1
350
2EC
  3
A2
350
2ED
  3
A3
350
2EE
  3
A4
350
2EF
  3
A5
350
2F0
  3
A6
350
2F1
  3
A7
350
2F2
  3
A8
350
2F3
  3
A9
350
2F4
  3
B0
350
2F5
  3
B1
350
2F6
  3
B2
350
2F7
  3
B3
350
2F8
  3
B4
350
2F9
  0
DICTIONARY
  5
5E
102
{ACAD_REACTORS
330
B
102
}
330
B
100
AcDbDictionary
281
     1
  3
Standard
350
63
  0
DICTIONARY
  5
15
102
{ACAD_REACTORS
330
B
102
}
330
B
100
AcDbDictionary
281
     1
  3
2dWireframe
350
14
  3
3D Hidden
350
2D5
  3
3dWireframe
350
67
  3
Basic
350
2D4
  3
Brighten
350
2D8
  3
ColorChange
350
2DC
  3
Conceptual
350
2D6
  3
Dim
350
2D7
  3
Facepattern
350
2DB
  3
Flat
350
2D0
  3
FlatWithEdges
350
2D1
  3
Gouraud
350
2D2
  3
GouraudWithEdges
350
2D3
  3
Linepattern
350
2DA
  3
Realistic
350
66
  3
Thicken
350
2D9
  0
XRECORD
  5
3BE
102
{ACAD_REACTORS
330
B
102
}
330
B
100
AcDbXrecord
280
     1
 90
        1
330
63
  0
DICTIONARY
  5
2CD
102
{ACAD_REACTORS
330
B
102
}
330
B
100
AcDbDictionary
281
     1
  3
CANNOSCALE
350
3B8
  3
CMLEADERSTYLE
350
3B7
  3
CTABLESTYLE
350
2CE
  3
DIMASSOC
350
3BC
  3
HIDETEXT
350
3BB
  3
INDEXCTL
350
3BA
  3
SORTENTS
350
3B9
  0
DICTIONARY
  5
3A5
102
{ACAD_REACTORS
330
B
102
}
330
B
100
AcDbDictionary
281
     1
  3
ASEBlockHierarchyIndexRecord
350
3A6
1001
DCO15
1040
1661164211.078
  0
XRECORD
  5
3BF
102
{ACAD_REACTORS
330
B
102
}
330
B
100
AcDbXrecord
280
     1
  1
DWGPROPS COOKIE
  2

  3

  4

  6

  7

  8
magdalena.jozwik
  9

300
=
301
=
302
=
303
=
304
=
305
=
306
=
307
=
308
=
309
=
 40
21.04332959490741
 41
2450817.525937848
 42
2455029.64948007
  1

 90
        0
  0
DICTIONARY
  5
1F
102
{ACAD_REACTORS
330
1E
102
}
330
1E
100
AcDbDictionary
281
     1
  0
XRECORD
  5
8
102
{ACAD_REACTORS
330
7
102
}
330
7
100
AcDbXrecord
280
     1
290
     1
  0
XRECORD
  5
6B
102
{ACAD_REACTORS
330
6A
102
}
330
6A
100
AcDbXrecord
280
     1
290
     1
  0
XRECORD
  5
61
102
{ACAD_REACTORS
330
60
102
}
330
60
100
AcDbXrecord
280
     1
290
     1
  0
XRECORD
  5
76
102
{ACAD_REACTORS
330
75
102
}
330
75
100
AcDbXrecord
280
     1
290
     1
  0
SORTENTSTABLE
  5
2C5
102
{ACAD_REACTORS
330
3
102
}
330
3
100
AcDbSortentsTable
330
2
331
25A
  5
25C
331
201
  5
202
331
27C
  5
27E
331
223
  5
224
331
112
  5
116
331
156
  5
157
331
1D6
  5
1D7
331
1B4
  5
1B5
331
1F0
  5
1F1
331
28D
  5
28F
331
26B
  5
26D
331
256
  5
258
331
145
  5
146
331
101
  5
101
331
E7
  5
E7
331
A3
  5
A3
331
81
  5
81
331
181
  5
18E
331
167
  5
168
331
1C5
  5
1C6
331
D6
  5
D6
331
B4
  5
B4
331
77
  5
77
331
258
  5
25A
331
27A
  5
27C
331
221
  5
222
331
110
  5
111
331
154
  5
155
331
1B2
  5
1B3
331
1D4
  5
1D5
331
269
  5
26B
331
28B
  5
28D
331
232
  5
255
331
1EE
  5
1EF
331
17F
  5
180
331
165
  5
166
331
143
  5
144
331
E5
  5
E5
331
C3
  5
C3
331
A1
  5
A1
331
1C3
  5
1C4
331
1FF
  5
200
331
D4
  5
D4
331
B2
  5
B2
331
90
  5
90
331
7F
  5
7F
331
278
  5
27A
331
16C
  5
16D
331
152
  5
153
331
18E
  5
199
331
1B0
  5
1B1
331
1D2
  5
1D3
331
267
  5
269
331
289
  5
28B
331
230
  5
232
331
1EC
  5
1ED
331
141
  5
142
331
E3
  5
E3
331
C1
  5
C1
331
9F
  5
9F
331
7D
  5
7D
331
17D
  5
17E
331
163
  5
164
331
1C1
  5
1C2
331
1FD
  5
1FE
331
10E
  5
10E
331
D2
  5
D2
331
B0
  5
B0
331
8E
  5
8E
331
73
  5
73
331
16A
  5
16B
331
150
  5
151
331
1D0
  5
1D1
331
265
  5
267
331
287
  5
289
331
22E
  5
230
331
1EA
  5
1EB
331
13F
  5
140
331
E1
  5
E1
331
7B
  5
7B
331
17B
  5
17C
331
161
  5
162
331
1BF
  5
1C0
331
1FB
  5
1FC
331
276
  5
278
331
10C
  5
10C
331
D0
  5
D0
331
8C
  5
8C
331
71
  5
71
331
1CE
  5
1CF
331
168
  5
169
331
263
  5
265
331
20A
  5
215
331
1E8
  5
1E9
331
285
  5
287
331
13D
  5
13E
331
22C
  5
22D
331
DF
  5
DF
331
179
  5
17A
331
15F
  5
160
331
1BD
  5
1BE
331
1F9
  5
1FA
331
1DF
  5
1E0
331
296
  5
2AE
331
274
  5
276
331
14E
  5
14F
331
10A
  5
10A
331
CE
  5
CE
331
8A
  5
8A
331
6F
  5
6F
331
1CC
  5
1CD
331
261
  5
263
331
208
  5
209
331
1E6
  5
1E7
331
283
  5
285
331
22A
  5
22B
331
DD
  5
DD
331
99
  5
99
331
177
  5
178
331
15D
  5
15E
331
199
  5
1A4
331
1BB
  5
1BC
331
1F7
  5
1F8
331
1DD
  5
1DE
331
294
  5
296
331
272
  5
274
331
14C
  5
14D
331
108
  5
108
331
CC
  5
CC
331
AA
  5
AA
331
88
  5
88
331
6D
  5
6D
331
1CA
  5
1CB
331
25F
  5
261
331
206
  5
207
331
1E4
  5
1E5
331
2A3
  5
2B9
331
281
  5
283
331
228
  5
229
331
117
  5
13C
331
175
  5
176
331
15B
  5
15C
331
DB
  5
DB
331
B9
  5
B9
331
1B9
  5
1BA
331
1F5
  5
1F6
331
1DB
  5
1DC
331
292
  5
294
331
270
  5
272
331
14A
  5
14B
331
106
  5
106
331
CA
  5
CA
331
A8
  5
A8
331
97
  5
97
331
86
  5
86
331
1C8
  5
1C9
331
25D
  5
25F
331
204
  5
205
331
1E2
  5
1E3
331
27F
  5
281
331
173
  5
174
331
159
  5
15A
331
226
  5
227
331
D9
  5
D9
331
1B7
  5
1B8
331
1D9
  5
1DA
331
1F3
  5
1F4
331
290
  5
292
331
26E
  5
270
331
215
  5
220
331
148
  5
149
331
104
  5
104
331
EA
  5
EA
331
C8
  5
C8
331
A6
  5
A6
331
B7
  5
B7
331
95
  5
95
331
84
  5
84
331
25B
  5
25D
331
202
  5
203
331
1E0
  5
1E1
331
27D
  5
27F
331
157
  5
158
331
224
  5
225
331
1D7
  5
1D8
331
1B5
  5
1B6
331
1F1
  5
1F2
331
28E
  5
290
331
26C
  5
26E
331
257
  5
259
331
146
  5
147
331
1A4
  5
1AF
331
102
  5
102
331
E8
  5
E8
331
1C6
  5
1C7
331
D7
  5
D7
331
B5
  5
B5
331
A4
  5
A4
331
82
  5
82
331
259
  5
25B
331
200
  5
201
331
27B
  5
27D
331
222
  5
223
331
111
  5
112
331
155
  5
156
331
26A
  5
26C
331
28C
  5
28E
331
233
  5
256
331
1EF
  5
1F0
331
1D5
  5
1D6
331
1B3
  5
1B4
331
2AE
  5
305
331
255
  5
257
331
144
  5
145
331
180
  5
181
331
166
  5
167
331
1C4
  5
1C5
331
D5
  5
D5
331
B3
  5
B3
331
A2
  5
A2
331
80
  5
80
331
279
  5
27B
331
220
  5
221
331
16D
  5
172
331
153
  5
154
331
1B1
  5
1B2
331
1D3
  5
1D4
331
268
  5
26A
331
28A
  5
28C
331
231
  5
233
331
1ED
  5
1EE
331
17E
  5
17F
331
164
  5
165
331
142
  5
143
331
E4
  5
E4
331
C2
  5
C2
331
A0
  5
A0
331
1C2
  5
1C3
331
1FE
  5
1FF
331
10F
  5
110
331
D3
  5
D3
331
8F
  5
8F
331
7E
  5
7E
331
16B
  5
16C
331
151
  5
152
331
1AF
  5
1B0
331
1D1
  5
1D2
331
266
  5
268
331
288
  5
28A
331
22F
  5
231
331
1EB
  5
1EC
331
140
  5
141
331
E2
  5
E2
331
C0
  5
C0
331
7C
  5
7C
331
17C
  5
17D
331
162
  5
163
331
1C0
  5
1C1
331
1FC
  5
1FD
331
277
  5
279
331
10D
  5
10D
331
D1
  5
D1
331
AF
  5
AF
331
8D
  5
8D
331
72
  5
72
331
2B9
  5
316
331
1CF
  5
1D0
331
169
  5
16A
331
264
  5
266
331
1E9
  5
1EA
331
286
  5
288
331
22D
  5
22E
331
17A
  5
17B
331
160
  5
161
331
13E
  5
13F
331
E0
  5
E0
331
1BE
  5
1BF
331
328
  5
22F
331
1FA
  5
1FB
331
275
  5
277
331
14F
  5
150
331
10B
  5
10B
331
CF
  5
CF
331
8B
  5
8B
331
1CD
  5
1CE
331
315
  5
10F
331
262
  5
264
331
209
  5
20A
331
1E7
  5
1E8
331
284
  5
286
331
178
  5
179
331
15E
  5
15F
331
13C
  5
13D
331
22B
  5
22C
331
DE
  5
DE
331
1BC
  5
1BD
331
1F8
  5
1F9
331
1DE
  5
1DF
331
295
  5
2A3
331
273
  5
275
331
14D
  5
14E
331
109
  5
109
331
CD
  5
CD
331
AB
  5
AB
331
89
  5
89
331
1CB
  5
1CC
331
1E5
  5
1E6
331
260
  5
262
331
207
  5
208
331
282
  5
284
331
229
  5
22A
331
176
  5
177
331
15C
  5
15D
331
F6
  5
F6
331
DC
  5
DC
331
BA
  5
BA
331
98
  5
98
331
1BA
  5
1BB
331
1F6
  5
1F7
331
1DC
  5
1DD
331
293
  5
295
331
271
  5
273
331
14B
  5
14C
331
107
  5
107
331
CB
  5
CB
331
A9
  5
A9
331
87
  5
87
331
1C9
  5
1CA
331
25E
  5
260
331
205
  5
206
331
1E3
  5
1E4
331
280
  5
282
331
227
  5
228
331
116
  5
117
331
174
  5
175
331
15A
  5
15B
331
DA
  5
DA
331
B8
  5
B8
331
1B8
  5
1B9
331
1F4
  5
1F5
331
1DA
  5
1DB
331
291
  5
293
331
26F
  5
271
331
149
  5
14A
331
105
  5
105
331
C9
  5
C9
331
A7
  5
A7
331
96
  5
96
331
85
  5
85
331
25C
  5
25E
331
203
  5
204
331
1E1
  5
1E2
331
27E
  5
280
331
225
  5
226
331
D8
  5
D8
331
172
  5
173
331
158
  5
159
331
1B6
  5
1B7
331
1D8
  5
1D9
331
1F2
  5
1F3
331
28F
  5
291
331
26D
  5
26F
331
147
  5
148
331
103
  5
103
331
E9
  5
E9
331
C7
  5
C7
331
A5
  5
A5
331
1C7
  5
1C8
331
B6
  5
B6
331
94
  5
94
331
83
  5
83
331
68
  5
68
  0
SORTENTSTABLE
  5
2C4
102
{ACAD_REACTORS
330
3C
102
}
330
3C
100
AcDbSortentsTable
330
3B
  0
LAYOUT
  5
11
102
{ACAD_XDICTIONARY
360
3C2
102
}
102
{ACAD_REACTORS
330
12
102
}
330
12
100
AcDbPlotSettings
  1

  2
CutePDF Writer
  4
A4
  6
10-ele
 40
3.174999952316284
 41
3.174999952316284
 42
3.175003051757812
 43
3.17498779296875
 44
209.8886566162109
 45
297.0530090332031
 46
0.0
 47
5.468573210520332
 48
-3951.890551298916
 49
-29715.10402142561
140
6248.109448701116
141
-15695.10402142561
142
1.0
143
50.11333139422817
 70
 11956
 72
     1
 73
     0
 74
     4
  7
monochrome_140.ctb
 75
     0
147
0.0199547699619742
148
3951.890551298916
149
29715.10402142561
100
AcDbLayout
  1
Model
 70
     1
 71
     0
 10
0.0
 20
0.0
 11
12.0
 21
9.0
 12
0.0
 22
0.0
 32
0.0
 14
0.0
 24
0.0
 34
0.0
 15
0.0
 25
0.0
 35
0.0
146
0.0
 13
0.0
 23
0.0
 33
0.0
 16
1.0
 26
0.0
 36
0.0
 17
0.0
 27
1.0
 37
0.0
 76
     0
330
2
331
29
1001
ACAD_PSEXT
1000
CutePDF Writer
1000
CutePDF Writer
1000
CPW2:
1000

1070
     0
  0
LAYOUT
  5
1A
102
{ACAD_XDICTIONARY
360
1B
102
}
102
{ACAD_REACTORS
330
12
102
}
330
12
100
AcDbPlotSettings
  1

  2
\\KOMP-NR-72\HP LaserJet 1200 Series PCL
  4
A4
  6

 40
6.805083274841308
 41
5.027085781097412
 42
6.805068969726562
 43
5.027069091796875
 44
209.9733276367187
 45
296.9683227539062
 46
0.0
 47
0.0
 48
0.0
 49
0.0
140
0.0
141
0.0
142
1.0
143
1.0
 70
   688
 72
     1
 73
     0
 74
     5
  7
monochrome_140.ctb
 75
    16
147
1.0
148
0.0
149
0.0
100
AcDbLayout
  1
Poddasze
 70
     0
 71
     1
 10
-6.805083274841308
 20
-5.027085781097412
 11
203.1682443618775
 21
291.9412369728089
 12
5931.669543547489
 22
-50.0
 32
10705.17123084718
 14
-0.7963446452747008
 24
-0.8075380466295882
 34
-0.0015258207003583
 15
209.2128431109218
 25
296.2154446811023
 35
0.0000000349246037
146
0.0
 13
0.0
 23
0.0
 33
0.0
 16
1.0
 26
0.0
 36
0.0
 17
0.0
 27
1.0
 37
0.0
 76
     0
330
17
1001
ACAD_PSEXT
1000
\\KOMP-NR-72\HP LaserJet 1200 Series PCL
1000
HP LaserJet 1200 Series PCL
1000
\\KOMP-NR-72
1000

1070
     0
  0
MATERIAL
  5
5C
102
{ACAD_XDICTIONARY
360
3C7
102
}
102
{ACAD_REACTORS
330
D
102
}
330
D
100
AcDbMaterial
  1
ByBlock
 73
     1
 78
     1
172
     1
176
     1
270
     1
274
     1
  0
MATERIAL
  5
5B
102
{ACAD_XDICTIONARY
360
3C5
102
}
102
{ACAD_REACTORS
330
D
102
}
330
D
100
AcDbMaterial
  1
ByLayer
 73
     1
 78
     1
172
     1
176
     1
270
     1
274
     1
  0
MATERIAL
  5
C
102
{ACAD_XDICTIONARY
360
3C0
102
}
102
{ACAD_REACTORS
330
D
102
}
330
D
100
AcDbMaterial
  1
Global
 73
     1
 78
     1
172
     1
176
     1
270
     1
274
     1
  0
MLEADERSTYLE
  5
2FB
102
{ACAD_REACTORS
330
2FA
102
}
330
2FA
100
AcDbMLeaderStyle
170
     2
171
     1
172
     0
 90
        2
 40
0.0
 41
0.0
173
     1
 91
-1056964608
340
24
 92
       -2
290
     1
 42
0.09
291
     1
 43
0.36
  3
Standard
 44
0.18
300

342
21
174
     1
178
     6
175
     1
176
     0
 93
-1056964608
 45
0.18
292
     0
297
     0
 46
0.18
 94
-1056964608
 47
1.0
 49
1.0
140
1.0
293
     1
141
0.0
294
     1
177
     0
142
1.0
295
     0
296
     0
143
0.125
1001
ACAD_MLEADERVER
1070
     2
  0
MLINESTYLE
  5
62
102
{ACAD_REACTORS
330
59
102
}
330
59
100
AcDbMlineStyle
  2
STANDARD
 70
     0
  3

 62
     0
 51
90.0
 52
90.0
 71
     2
 49
0.5
 62
   256
  6
BYLAYER
 49
-0.5
 62
   256
  6
BYLAYER
  0
ACDBPLACEHOLDER
  5
B1
102
{ACAD_REACTORS
330
A
102
}
330
A
  0
ACDBPLACEHOLDER
  5
171
102
{ACAD_REACTORS
330
A
102
}
330
A
  0
ACDBPLACEHOLDER
  5
9
102
{ACAD_REACTORS
330
A
102
}
330
A
  0
SCALE
  5
2EB
102
{ACAD_REACTORS
330
2EA
102
}
330
2EA
100
AcDbScale
 70
     0
300
1/64" = 1'-0"
140
0.015625
141
12.0
290
     0
  0
SCALE
  5
2EC
102
{ACAD_REACTORS
330
2EA
102
}
330
2EA
100
AcDbScale
 70
     0
300
1/32" = 1'-0"
140
0.03125
141
12.0
290
     0
  0
SCALE
  5
2ED
102
{ACAD_REACTORS
330
2EA
102
}
330
2EA
100
AcDbScale
 70
     0
300
1/16" = 1'-0"
140
0.0625
141
12.0
290
     0
  0
SCALE
  5
2EE
102
{ACAD_REACTORS
330
2EA
102
}
330
2EA
100
AcDbScale
 70
     0
300
3/32" = 1'-0"
140
0.09375
141
12.0
290
     0
  0
SCALE
  5
2EF
102
{ACAD_REACTORS
330
2EA
102
}
330
2EA
100
AcDbScale
 70
     0
300
1/8" = 1'-0"
140
0.125
141
12.0
290
     0
  0
SCALE
  5
2F0
102
{ACAD_REACTORS
330
2EA
102
}
330
2EA
100
AcDbScale
 70
     0
300
3/16" = 1'-0"
140
0.1875
141
12.0
290
     0
  0
SCALE
  5
2F1
102
{ACAD_REACTORS
330
2EA
102
}
330
2EA
100
AcDbScale
 70
     0
300
1/4" = 1'-0"
140
0.25
141
12.0
290
     0
  0
SCALE
  5
2F2
102
{ACAD_REACTORS
330
2EA
102
}
330
2EA
100
AcDbScale
 70
     0
300
3/8" = 1'-0"
140
0.375
141
12.0
290
     0
  0
SCALE
  5
2F3
102
{ACAD_REACTORS
330
2EA
102
}
330
2EA
100
AcDbScale
 70
     0
300
1/2" = 1'-0"
140
0.5
141
12.0
290
     0
  0
SCALE
  5
2F4
102
{ACAD_REACTORS
330
2EA
102
}
330
2EA
100
AcDbScale
 70
     0
300
3/4" = 1'-0"
140
0.75
141
12.0
290
     0
  0
SCALE
  5
2F5
102
{ACAD_REACTORS
330
2EA
102
}
330
2EA
100
AcDbScale
 70
     0
300
1" = 1'-0"
140
1.0
141
12.0
290
     0
  0
SCALE
  5
2F6
102
{ACAD_REACTORS
330
2EA
102
}
330
2EA
100
AcDbScale
 70
     0
300
1 1/2" = 1'-0"
140
1.5
141
12.0
290
     0
  0
SCALE
  5
2F7
102
{ACAD_REACTORS
330
2EA
102
}
330
2EA
100
AcDbScale
 70
     0
300
3" = 1'-0"
140
3.0
141
12.0
290
     0
  0
SCALE
  5
2F8
102
{ACAD_REACTORS
330
2EA
102
}
330
2EA
100
AcDbScale
 70
     0
300
6" = 1'-0"
140
6.0
141
12.0
290
     0
  0
SCALE
  5
2F9
102
{ACAD_REACTORS
330
2EA
102
}
330
2EA
100
AcDbScale
 70
     0
300
1'-0" = 1'-0"
140
12.0
141
12.0
290
     1
  0
TABLESTYLE
  5
63
102
{ACAD_XDICTIONARY
360
64
102
}
102
{ACAD_REACTORS
330
5E
102
}
330
5E
100
AcDbTableStyle
  3
Standard
 70
     0
 71
     0
 40
0.06
 41
0.06
280
     0
281
     0
  7
STANDARD
140
0.18
170
     2
 62
     0
 63
     7
283
     0
274
    -2
284
     1
 64
     0
275
    -2
285
     1
 65
     0
276
    -2
286
     1
 66
     0
277
    -2
287
     1
 67
     0
278
    -2
288
     1
 68
     0
279
    -2
289
     1
 69
     0
  7
STANDARD
140
0.25
170
     5
 62
     0
 63
     7
283
     0
274
    -2
284
     1
 64
     0
275
    -2
285
     1
 65
     0
276
    -2
286
     1
 66
     0
277
    -2
287
     1
 67
     0
278
    -2
288
     1
 68
     0
279
    -2
289
     1
 69
     0
  7
STANDARD
140
0.18
170
     5
 62
     0
 63
     7
283
     0
274
    -2
284
     1
 64
     0
275
    -2
285
     1
 65
     0
276
    -2
286
     1
 66
     0
277
    -2
287
     1
 67
     0
278
    -2
288
     1
 68
     0
279
    -2
289
     1
 69
     0
  0
VISUALSTYLE
  5
14
102
{ACAD_REACTORS
330
15
102
}
330
15
100
AcDbVisualStyle
  2
2dWireframe
 70
     4
 71
     0
 72
     2
 73
     0
 90
        0
 40
-0.6
 41
-30.0
 62
     5
 63
     7
 74
     1
 91
        4
 64
     7
 65
   257
 75
     1
175
     1
 42
1.0
 92
        0
 66
   257
 43
1.0
 76
     1
 77
     6
 78
     2
 67
     7
 79
     5
170
     0
171
     0
290
     0
174
     0
 93
        1
 44
0.0
173
     0
291
     0
 45
0.0
1001
ACAD
1000
AcDbSavedByObjectVersion
1070
     0
  0
VISUALSTYLE
  5
2D5
102
{ACAD_REACTORS
330
15
102
}
330
15
100
AcDbVisualStyle
  2
3D Hidden
 70
     6
 71
     1
 72
     2
 73
     2
 90
        0
 40
-0.6
 41
-30.0
 62
     5
 63
     7
 74
     2
 91
        2
 64
     7
 65
   257
 75
     2
175
     1
 42
40.0
 92
        0
 66
   257
 43
1.0
 76
     1
 77
     6
 78
     2
 67
     7
 79
     3
170
     0
171
     0
290
     0
174
     0
 93
        1
 44
0.0
173
     0
291
     0
 45
0.0
1001
ACAD
1000
AcDbSavedByObjectVersion
1070
     0
  0
VISUALSTYLE
  5
67
102
{ACAD_REACTORS
330
15
102
}
330
15
100
AcDbVisualStyle
  2
3dWireframe
 70
     5
 71
     0
 72
     2
 73
     0
 90
        0
 40
-0.6
 41
-30.0
 62
     5
 63
     7
 74
     1
 91
        4
 64
     7
 65
   257
 75
     1
175
     1
 42
1.0
 92
        0
 66
   257
 43
1.0
 76
     1
 77
     6
 78
     2
 67
     7
 79
     5
170
     0
171
     0
290
     0
174
     0
 93
        1
 44
0.0
173
     0
291
     0
 45
0.0
1001
ACAD
1000
AcDbSavedByObjectVersion
1070
     0
  0
VISUALSTYLE
  5
2D4
102
{ACAD_REACTORS
330
15
102
}
330
15
100
AcDbVisualStyle
  2
Basic
 70
     7
 71
     1
 72
     0
 73
     1
 90
        0
 40
-0.6
 41
-30.0
 62
     5
 63
     7
 74
     0
 91
        4
 64
     7
 65
   257
 75
     1
175
     1
 42
1.0
 92
        8
 66
     7
 43
1.0
 76
     1
 77
     6
 78
     2
 67
     7
 79
     5
170
     0
171
     0
290
     0
174
     0
 93
        1
 44
0.0
173
     0
291
     1
 45
0.0
1001
ACAD
1000
AcDbSavedByObjectVersion
1070
     0
  0
VISUALSTYLE
  5
2D8
102
{ACAD_REACTORS
330
15
102
}
330
15
100
AcDbVisualStyle
  2
Brighten
 70
    12
 71
     2
 72
     2
 73
     0
 90
        0
 40
-0.6
 41
-30.0
 62
     5
 63
     7
 74
     1
 91
        4
 64
     7
 65
   257
 75
     1
175
     1
 42
1.0
 92
        8
 66
     7
 43
1.0
 76
     1
 77
     6
 78
     2
 67
     7
 79
     5
170
     0
171
     0
290
     0
174
     0
 93
        1
 44
50.0
173
     0
291
     1
 45
0.0
1001
ACAD
1000
AcDbSavedByObjectVersion
1070
     0
  0
VISUALSTYLE
  5
2DC
102
{ACAD_REACTORS
330
15
102
}
330
15
100
AcDbVisualStyle
  2
ColorChange
 70
    16
 71
     2
 72
     2
 73
     3
 90
        0
 40
-0.6
 41
-30.0
 62
     5
 63
     8
 74
     1
 91
        4
 64
     7
 65
   257
 75
     1
175
     1
 42
1.0
 92
        8
 66
     8
 43
1.0
 76
     1
 77
     6
 78
     2
 67
     7
 79
     5
170
     0
171
     0
290
     0
174
     0
 93
        1
 44
0.0
173
     0
291
     1
 45
0.0
1001
ACAD
1000
AcDbSavedByObjectVersion
1070
     0
  0
VISUALSTYLE
  5
2D6
102
{ACAD_REACTORS
330
15
102
}
330
15
100
AcDbVisualStyle
  2
Conceptual
 70
     9
 71
     3
 72
     2
 73
     0
 90
        0
 40
-0.6
 41
-30.0
 62
     5
 63
     7
 74
     2
 91
        2
 64
     7
 65
   257
 75
     1
175
     1
 42
40.0
 92
        8
 66
     7
 43
1.0
 76
     1
 77
     6
 78
     2
 67
     7
 79
     3
170
     0
171
     0
290
     0
174
     0
 93
        1
 44
0.0
173
     0
291
     0
 45
0.0
1001
ACAD
1000
AcDbSavedByObjectVersion
1070
     0
  0
VISUALSTYLE
  5
2D7
102
{ACAD_REACTORS
330
15
102
}
330
15
100
AcDbVisualStyle
  2
Dim
 70
    11
 71
     2
 72
     2
 73
     0
 90
        0
 40
-0.6
 41
-30.0
 62
     5
 63
     7
 74
     1
 91
        4
 64
     7
 65
   257
 75
     1
175
     1
 42
1.0
 92
        8
 66
     7
 43
1.0
 76
     1
 77
     6
 78
     2
 67
     7
 79
     5
170
     0
171
     0
290
     0
174
     0
 93
        1
 44
-50.0
173
     0
291
     1
 45
0.0
1001
ACAD
1000
AcDbSavedByObjectVersion
1070
     0
  0
VISUALSTYLE
  5
2DB
102
{ACAD_REACTORS
330
15
102
}
330
15
100
AcDbVisualStyle
  2
Facepattern
 70
    15
 71
     2
 72
     2
 73
     0
 90
        0
 40
-0.6
 41
-30.0
 62
     5
 63
     7
 74
     1
 91
        4
 64
     7
 65
   257
 75
     1
175
     1
 42
1.0
 92
        8
 66
     7
 43
1.0
 76
     1
 77
     6
 78
     2
 67
     7
 79
     5
170
     0
171
     0
290
     0
174
     0
 93
        1
 44
0.0
173
     0
291
     1
 45
0.0
1001
ACAD
1000
AcDbSavedByObjectVersion
1070
     0
  0
VISUALSTYLE
  5
2D0
102
{ACAD_REACTORS
330
15
102
}
330
15
100
AcDbVisualStyle
  2
Flat
 70
     0
 71
     2
 72
     1
 73
     1
 90
        2
 40
-0.6
 41
30.0
 62
     5
 63
     7
 74
     0
 91
        4
 64
     7
 65
   257
 75
     1
175
     1
 42
1.0
 92
        8
 66
     7
 43
1.0
 76
     1
 77
     6
 78
     2
 67
     7
 79
     5
170
     0
171
     0
290
     0
174
     0
 93
       13
 44
0.0
173
     0
291
     1
 45
0.0
1001
ACAD
1000
AcDbSavedByObjectVersion
1070
     0
  0
VISUALSTYLE
  5
2D1
102
{ACAD_REACTORS
330
15
102
}
330
15
100
AcDbVisualStyle
  2
FlatWithEdges
 70
     1
 71
     2
 72
     1
 73
     1
 90
        2
 40
-0.6
 41
30.0
 62
     5
 63
     7
 74
     1
 91
        4
 64
     7
 65
   257
 75
     1
175
     1
 42
1.0
 92
        0
 66
   257
 43
1.0
 76
     1
 77
     6
 78
     2
 67
     7
 79
     5
170
     0
171
     0
290
     0
174
     0
 93
       13
 44
0.0
173
     0
291
     1
 45
0.0
1001
ACAD
1000
AcDbSavedByObjectVersion
1070
     0
  0
VISUALSTYLE
  5
2D2
102
{ACAD_REACTORS
330
15
102
}
330
15
100
AcDbVisualStyle
  2
Gouraud
 70
     2
 71
     2
 72
     2
 73
     1
 90
        2
 40
-0.6
 41
30.0
 62
     5
 63
     7
 74
     0
 91
        4
 64
     7
 65
   257
 75
     1
175
     1
 42
1.0
 92
        0
 66
     7
 43
1.0
 76
     1
 77
     6
 78
     2
 67
     7
 79
     5
170
     0
171
     0
290
     0
174
     0
 93
       13
 44
0.0
173
     0
291
     1
 45
0.0
1001
ACAD
1000
AcDbSavedByObjectVersion
1070
     0
  0
VISUALSTYLE
  5
2D3
102
{ACAD_REACTORS
330
15
102
}
330
15
100
AcDbVisualStyle
  2
GouraudWithEdges
 70
     3
 71
     2
 72
     2
 73
     1
 90
        2
 40
-0.6
 41
30.0
 62
     5
 63
     7
 74
     1
 91
        4
 64
     7
 65
   257
 75
     1
175
     1
 42
1.0
 92
        0
 66
   257
 43
1.0
 76
     1
 77
     6
 78
     2
 67
     7
 79
     5
170
     0
171
     0
290
     0
174
     0
 93
       13
 44
0.0
173
     0
291
     1
 45
0.0
1001
ACAD
1000
AcDbSavedByObjectVersion
1070
     0
  0
VISUALSTYLE
  5
2DA
102
{ACAD_REACTORS
330
15
102
}
330
15
100
AcDbVisualStyle
  2
Linepattern
 70
    14
 71
     2
 72
     2
 73
     0
 90
        0
 40
-0.6
 41
-30.0
 62
     5
 63
     7
 74
     1
 91
        4
 64
     7
 65
   257
 75
     7
175
     7
 42
1.0
 92
        8
 66
     7
 43
1.0
 76
     1
 77
     6
 78
     2
 67
     7
 79
     5
170
     0
171
     0
290
     0
174
     0
 93
        1
 44
0.0
173
     0
291
     1
 45
0.0
1001
ACAD
1000
AcDbSavedByObjectVersion
1070
     0
  0
VISUALSTYLE
  5
66
102
{ACAD_REACTORS
330
15
102
}
330
15
100
AcDbVisualStyle
  2
Realistic
 70
     8
 71
     2
 72
     2
 73
     0
 90
        0
 40
-0.6
 41
-30.0
 62
     5
 63
     7
 74
     1
 91
        0
 64
     7
 65
   257
 75
     1
175
     1
 42
1.0
 92
        8
 66
     8
 43
1.0
 76
     1
 77
     6
 78
     2
 67
     7
 79
     5
170
     0
171
     0
290
     0
174
     0
 93
       13
 44
0.0
173
     0
291
     0
 45
0.0
1001
ACAD
1000
AcDbSavedByObjectVersion
1070
     0
  0
VISUALSTYLE
  5
2D9
102
{ACAD_REACTORS
330
15
102
}
330
15
100
AcDbVisualStyle
  2
Thicken
 70
    13
 71
     2
 72
     2
 73
     0
 90
        0
 40
-0.6
 41
-30.0
 62
     5
 63
     7
 74
     1
 91
        4
 64
     7
 65
   257
 75
     1
175
     1
 42
1.0
 92
       12
 66
     7
 43
1.0
 76
     1
 77
     6
 78
     2
 67
     7
 79
     5
170
     0
171
     0
290
     0
174
     0
 93
        1
 44
0.0
173
     0
291
     1
 45
0.0
1001
ACAD
1000
AcDbSavedByObjectVersion
1070
     0
  0
DICTIONARYVAR
  5
3B8
102
{ACAD_REACTORS
330
2CD
102
}
330
2CD
100
DictionaryVariables
280
     0
  1
1'-0" = 1'-0"
  0
DICTIONARYVAR
  5
3B7
102
{ACAD_REACTORS
330
2CD
102
}
330
2CD
100
DictionaryVariables
280
     0
  1
STANDARD
  0
DICTIONARYVAR
  5
2CE
102
{ACAD_REACTORS
330
2CD
102
}
330
2CD
100
DictionaryVariables
280
     0
  1
STANDARD
  0
DICTIONARYVAR
  5
3BC
102
{ACAD_REACTORS
330
2CD
102
}
330
2CD
100
DictionaryVariables
280
     0
  1
1
  0
DICTIONARYVAR
  5
3BB
102
{ACAD_REACTORS
330
2CD
102
}
330
2CD
100
DictionaryVariables
280
     0
  1
1
  0
DICTIONARYVAR
  5
3BA
102
{ACAD_REACTORS
330
2CD
102
}
330
2CD
100
DictionaryVariables
280
     0
  1
0
  0
DICTIONARYVAR
  5
3B9
102
{ACAD_REACTORS
330
2CD
102
}
330
2CD
100
DictionaryVariables
280
     0
  1
127
  0
XRECORD
  5
3A6
102
{ACAD_REACTORS
330
3A5
102
}
330
3A5
100
AcDbXrecord
280
     1
330
BA
330
1E3
330
32D
330
32E
330
337
330
338
330
341
330
342
330
34D
330
34E
330
357
330
358
330
361
330
362
330
36B
330
36C
330
375
330
376
330
37F
330
380
330
38B
330
38C
330
395
330
396
330
39F
330
3A0
  0
DICTIONARY
  5
3C2
330
11
100
AcDbDictionary
280
     1
281
     1
  3
ACAD_XREC_ROUNDTRIP
360
3C3
  0
DICTIONARY
  5
1B
330
1A
100
AcDbDictionary
280
     1
281
     1
  3
ACAD_XREC_ROUNDTRIP
360
3C4
  3
ADSK_XREC_LAYOUTTHUMBNAIL
360
1C
  0
DICTIONARY
  5
3C7
330
5C
100
AcDbDictionary
280
     1
281
     1
  3
ACAD_XREC_ROUNDTRIP
360
3C8
  0
DICTIONARY
  5
3C5
330
5B
100
AcDbDictionary
280
     1
281
     1
  3
ACAD_XREC_ROUNDTRIP
360
3C6
  0
DICTIONARY
  5
3C0
330
C
100
AcDbDictionary
280
     1
281
     1
  3
ACAD_XREC_ROUNDTRIP
360
3C1
  0
DICTIONARY
  5
64
330
63
100
AcDbDictionary
280
     1
281
     1
  3
ACAD_ROUNDTRIP_2008_TABLESTYLE_CELLSTYLEMAP
360
3BD
  3
ACAD_XREC_ROUNDTRIP
360
3C9
  0
XRECORD
  5
3C3
102
{ACAD_REACTORS
330
3C2
102
}
330
3C2
100
AcDbXrecord
280
     1
102
SHADEPLOT
 70
     1
102
SHADEPLOTRESLEVEL
 70
     2
102
SHADEPLOTCUSTOMDPI
 70
   300
  0
XRECORD
  5
3C4
102
{ACAD_REACTORS
330
1B
102
}
330
1B
100
AcDbXrecord
280
     1
102
SHADEPLOT
 70
     1
102
SHADEPLOTRESLEVEL
 70
     4
102
SHADEPLOTCUSTOMDPI
 70
   600
  0
XRECORD
  5
1C
102
{ACAD_REACTORS
330
1B
102
}
330
1B
100
AcDbXrecord
280
     1
310
28000000630000008C0000000100080000000000B0360000000000000000000000010000000000000000000000000000FFFFFF000000000000000000000000000000000000000000000000000000000000000000330000006600000099000000CC000000FF00000000330000333300006633000099330000CC330000FF3300
310
0000660000336600006666000099660000CC660000FF66000000990000339900006699000099990000CC990000FF99000000CC000033CC000066CC000099CC0000CCCC0000FFCC000000FF000033FF000066FF000099FF0000CCFF0000FFFF000000003300330033006600330099003300CC003300FF003300003333003333
310
33006633330099333300CC333300FF33330000663300336633006666330099663300CC663300FF66330000993300339933006699330099993300CC993300FF99330000CC330033CC330066CC330099CC3300CCCC3300FFCC330000FF330033FF330066FF330099FF3300CCFF3300FFFF330000006600330066006600660099
310
006600CC006600FF00660000336600333366006633660099336600CC336600FF33660000666600336666006666660099666600CC666600FF66660000996600339966006699660099996600CC996600FF99660000CC660033CC660066CC660099CC6600CCCC6600FFCC660000FF660033FF660066FF660099FF6600CCFF6600
310
FFFF660000009900330099006600990099009900CC009900FF00990000339900333399006633990099339900CC339900FF33990000669900336699006666990099669900CC669900FF66990000999900339999006699990099999900CC999900FF99990000CC990033CC990066CC990099CC9900CCCC9900FFCC990000FF99
310
0033FF990066FF990099FF9900CCFF9900FFFF99000000CC003300CC006600CC009900CC00CC00CC00FF00CC000033CC003333CC006633CC009933CC00CC33CC00FF33CC000066CC003366CC006666CC009966CC00CC66CC00FF66CC000099CC003399CC006699CC009999CC00CC99CC00FF99CC0000CCCC0033CCCC0066CC
310
CC0099CCCC00CCCCCC00FFCCCC0000FFCC0033FFCC0066FFCC0099FFCC00CCFFCC00FFFFCC000000FF003300FF006600FF009900FF00CC00FF00FF00FF000033FF003333FF006633FF009933FF00CC33FF00FF33FF000066FF003366FF006666FF009966FF00CC66FF00FF66FF000099FF003399FF006699FF009999FF00CC
310
99FF00FF99FF0000CCFF0033CCFF0066CCFF0099CCFF00CCCCFF00FFCCFF0000FFFF0033FFFF0066FFFF0099FFFF00CCFFFF00FFFFFF00000000000D0D0D001A1A1A00282828003535350043434300505050005D5D5D006B6B6B00787878008686860093939300A1A1A100AEAEAE00BBBBBB00C9C9C900D6D6D600E4E4E400
310
F1F1F100FFFFFF0000000000000000000000000000000000000000000000000000000000000000000000000000000000F5F5F5F5F5F5F5F5F5F5F5F5F5F5F5F5F5F5F5F5F5F5F5F5F5F5F5F5F5F5F5F5F5F5F5F5F5F5F5F5F5F5F5F5F5F5F5F5F5F5F5F5F5F5F5F5F5F5F5F5F5F5F5F5F5F5F5F5F5F5F5F5F5F5F5F5F5F5F5
310
F5F5F5F5F5F5F5F5F5F5F5F5F5F5F5F5F5F5F5F500F5E2E2E2E2E2E2E2E2E2E2E2E2E2E2E2E2E2E2E2E2E2E2E2E2E2E2E2E2E2E2E2E2E2E2E2E2E2E2E2E2E2E2E2E2E2E2E2E2E2E2E2E2E2E2E2E2E2E2E2E2E2E2E2E2E2E2E2E2E2E2E2E2E2E2E2E2E2E2E2E2E2E2E2E2E2E2E2E2E2E2E2E2E2E2E2E2E2E244F5E2E2ECECEC
310
ECECECECECECECECECECECECECECECECECECECECECECECECECECECECECECECECECECECECECECECECECECECECECECECECECECECECECECECECECECECECECECECECECECECECECECECECECECECECECECECECECECECECECECECECECECECECEC44F5E2E2ECF5F5F5F5F5F5F5F5E2E2E2E2E2E2E2E2F5F5F5F5F5F5F5F5F5F5F5F5F5
310
F5F5E2E2E2E2E2E2E2E2F5F5F5F5F5F5F5F5F5F5F5F5F5F5E2E2E2E2E2E2E2E2F5F5F5F5F5F5F5F5F5F5F5F5F5F5F5E2E2E2E2E2E2E2E2F5F5F5F5F5F5F5F5E2E2E200F5E2E2ECF5E2E2E2E2E2E2E2E2E2E2E2E2E2E2E2E2E2E2E2E2E2E2E2E2E2E2E2E2E2E2E2E2E2E2E2E2E2E2E2E2E2E2E2E2E2E2E2E2E2E2E2E2E2E2E2
310
E2E2E2E2E2E2E2E2E2E2E2E2E2E2E2E2E2E2E2E2E2E2E2E2E2E2E2E2E2E2E2E2E2E2E2F5E2E2E243F5E2E2ECF5E2E2E2E2E2E2E2E2E2E2E2E2E2E2E2E2E2E2E2E2E2E2E2E2E2E2E2E2E2E2E2E2E2E2E2E2E2E2E2E2E2E2E2E2E2E2E2E2E2E2E2E2E2E2E2E2E2E2E2E2E2E2E2E2E2E2E2E2E2E2E2E2E2E2E2E2E2E2E2E2E2E2
310
E2E2E2E2E2E2E2E2F5E2E2E244F5E2E2ECF5E2E2E2E2E2E2E2E2E2E2E2E2E2E2E2E2E2E2E2E2E2E2E2E2E2E2E2E2E2E2E2E2E2E2E2E2E2E2E2E2E2E2E2E2E2E2E2E2E2E2E2E2E2E2E2E2E2E2E2E2E2E2E2E2E2E2E2E2E2E2E2E2E2E2E2E2E2E2E2E2E2E2E2E2E2E2E2E2E2E2F5E2E2E200F5E2E2ECF5E2E2E2E2ECECECECEC
310
ECECECECECECECECECECECECECECECECECECECECECECECECECECECECECECECECECECECECECECECECECECECECECECECECECECECECECECECECECECECECECECECECECECECECECECECECECECECECECECECECECECECECE244F5E2E2ECF5E2E2E2E2ECE2E2E2E2E2E2E2E2E2E2E2E2E2E2E2E2E2E2E2E2E2E2E2E2E2E2E2E2E2E2E2
310
E2E2E2E2E2E2E2E2E2E2E2E2E2E2E2E2E2E2E2E2E2E2E2E2E2E2E2E2E2E2E2E2E2E2E2E2E2E2E2E2E2E2E2E2E2E2E2E2E2E2E2E2E2E2F5E2ECE243F5E2E2ECF5E2E2E2E2ECE2E2E2E2E2E2E2E2E2E2E2E2E2E2E2E2E2E2E2E2E2E2E2E2E2E2E2E2E2E2E2E2E2E2E2E2E2E2E2E2E2E2E2E2E2E2E2E2E2E2E2E2E2E2E2E2E2E2
310
E2E2E2E2E2E2E2E2E2E2E2E2E2E2E2E2E2E2E2E2E2E2E2E2E2E2E2F5E2ECE200F5E2E2ECF5E2E2E2E2ECE2E2E2E2E2E2E2E2E2E2E2E2E2E2E2E2E2E2E2E2E2E2E2E2E2E2E2E2E2E2E2E2E2E2E2E2E2E2E2E2E2E2E2E2E2E2E2E2E2E2E2E2E2E2E2E2E2E2E2E2E2E2E2E2E2E2E2E2E2E2E2E2E2E2E2E2E2E2E2E2E2E2E2E2E2
310
F5E2ECE244F5E2E2ECF5E2E2E2E2ECE2E2E2E2E2E2E2E2E2E2E2E2E2E2E2E2E2E2E2E2E2E2E2E2E2E2E2E2E2E2E2E2E2E2E2E2E2E2E2E2E2E2E2E2E2E2E2E2E2E2E2E2E2E2E2E2E2E2E2E2E2E2E2E2E2E2E2E2E2E2E2E2E2E2E2E2E2E2E2E2E2E2E2E2E2F5E2ECE2C1F5E2E2ECE2E2E2E2E2ECE2E2E2E2E2E2E2E2E2E2E2E2
310
E2E2E2E2E2E2E2E2E2E2E2E2E2E2E2E2E2E2E2E2E2E2E2E2E2E2E2E2E2E2E2E2E2E2E2E2E2E2E2E2E2E2E2E2E2E2E2E2E2E2E2E2E2E2E2E2E2E2E2E2E2E2E2E2E2E2E2E2E2E2E2E2E2E2E2ECE200F5E2E2ECE2E2E2E2E2ECE2E2E2E2E2E2E2E2E2E2E2E2E2E2E2E2E2E2E2E2E2E2E2E2E2E2E2E2E2E2E2E2E2E2E2E2E2E2E2
310
E2E2E2E2E2E2E2E2E2E2E2E2E2E2E2E2E2E2E2E2E2E2E2E2E2E2E2E2E2E2E2E2E2E2E2E2E2E2E2E2E2E2E2E2E2E2E2E2ECE242F5E2E2ECE2E2E2E2E2ECE2E2E2E2E2E2E2E2E2E2E2E2E2E2E2E2E2E2E2E2E2E2E2E2E2E2E2E2E2E2E2E2E2E2E2E2E2E2E2E2E2E2E2E2E2E2E2E2E2E2E2E2E2E2E2E2E2E2E2E2E2E2E2E2E2E2
310
E2E2E2E2E2E2E2E2E2E2E2E2E2E2E2E2E2E2E2E2E2ECE244F5E2E2ECE2E2E2E2E2ECE2E2E2E2E2E2E2E2E2E2E2E2E2E2E2E2E2E2E2E2E2E2E2E2E2E2E2E2E2E2E2E2E2E2E2E2E2E2E2E2E2E2E2E2E2E2E2E2E2E2E2E2E2E2E2E2E2E2E2E2E2E2E2E2E2E2E2E2E2E2E2E2E2E2E2E2E2E2E2E2E2E2E2E2E2E2E2ECE240F5E2E2
310
ECE2E2E2E2E2ECE2E2E2E2E2E2E2E2E2E2E2E2E2E2E2E2E2E2E2E2E2E2E2E2E2E2E2E2E2E2E2E2E2E2E2E2E2E2E2E2E2E2E2E2E2E2E2E2E2E2E2E2E2E2E2E2E2E2E2E2E2E2E2E2E2E2E2E2E2E2E2E2E2E2E2E2E2E2E2E2E2E2E2E2E2E2E2ECE200F5E2E2ECE2E2E2E2E2ECE2E2E2E2E2E2E2E2E2E2E2E2E2E2E2E2E2E2E2E2
310
E2E2E2E2E2E2E2E2E2E2E2E2E2E2E2E2E2E2E2E2E2E2E2E2E2E2E2E2E2E2E2E2E2E2E2E2E2E2E2E2E2E2E2E2E2E2E2E2E2E2E2E2E2E2E2E2E2E2E2E2E2E2E2E2E2E2E2ECE240F5E2E2ECE2E2E2E2E2ECE2E2E2E2E2E2E2E2E2E2E2E2E2E2E2E2E2E2E2E2E2E2E2E2E2E2E2E2E2E2E2E2E2E2E2E2E2E2E2E2E2E2E2E2E2E2E2
310
E2E2E2E2E2E2E2E2E2E2E2E2E2E2E2E2E2E2E2E2E2E2E2E2E2E2E2E2E2E2E2E2E2E2E2E2E2E2E2E2ECE200F5E2E2ECE2E2E2E2E2ECE2E2E2E2E2E2E2E2E2E2E2E2E2E2E2E2E2E2E2E2E2E2E2E2E2E2E2E2E2E2E2E2E2E2E2E2E2E2E2E2E2E2E2E2E2E2E2E2E2E2E2E2E2E2E2E2E2E2E2E2E2E2E2E2E2E2E2E2E2E2E2E2E2E2
310
E2E2E2E2E2E2E2E2E2E2E2E2E2ECE200F5E2E2ECE2E2E2E2E2ECE2E2E2E2E2E2E2E2E2E2E2E2E2E2E2E2E2E2E2E2E2E2E2E2E2E2E2E2E2E2E2E2E2E2E2E2E2E2E2E2E2E2E2E2E2E2E2E2E2E2E2E2E2E2E2E2E2E2E2E2E2E2E2E2E2E2E2E2E2E2E2E2E2E2E2E2E2E2E2E2E2E2E2E2E2E2E2ECE200F5E2E2ECE2E2E2E2E2ECE2
310
E2E2E2E2E2E2E2E2E2E2E2E2E2E2E2E2E2E2E2E2E2E2E2E2E2E2E2E2E2E2E2E2E2E2E2E2E2E2E2E2E2E2E2E2E2E2E2E2E2E2E2E2E2E2E2E2E2E2E2E2E2E2E2E2E2E2E2E2E2E2E2E2E2E2E2E2E2E2E2E2E2E2E2E2E2E2ECE200F5E2E2ECF5E2E2E2E2ECE2E2E2E2E2E2E2E2E2E2E2E2E2E2E2E2E2E2E2E2E2E2E2E2E2E2E2E2
310
E2E2E2E2E2E2E2E2E2E2E2E2E2E2E2E2E2E2E2E2E2E2E2E2E2E2E2E2E2E2E2E2E2E2E2E2E2E2E2E2E2E2E2E2E2E2E2E2E2E2E2E2E2E2E2E2E2F5E2ECE200F5E2E2ECF5E2E2E2E2ECE2E2E2E2E2E2E2E2E2E2E2E2E2E2E2E2E2E2E2E2E2E2E2E2E2E2E2E2E2E2E2E2E2E2E2E2E2E2E2E2E2E2E2E2E2E2E2E2E2E2E2E2E2E2E2
310
E2E2E2E2E2E2E2E2E2E2E2E2E2E2E2E2E2E2E2E2E2E2E2E2E2E2E2E2E2E2F5E2ECE200F5E2E2ECF5E2E2E2E2ECE2E2E2E2E2E2E2E2E2E2E2E2E2E2E2E2E2E2E2E2E2E2E2E2E2E2E2E2E2E2E2E2E2E2E2E2E2E2E2E2E2E2E2E2E2E2E2E2E2E2E2E2E2E2E2E2E2E2E2E2E2E2E2E2E2E2E2E2E2E2E2E2E2E2E2E2E2E2E2E2E2E2
310
E2E2E2F5E2ECE200F5E2E2ECF5E2E2E2E2ECE2E2E2E2E2E2E2E2E2E2E2E2E2E2E2E2E2E2E2E2E2E2E2E2E2E2E2E2E2E2E2E2E2E2E2E2E2E2E2E2E2E2E2E2E2E2E2E2E2E2E2E2E2E2E2E2E2E2E2E2E2E2E2E2E2E2E2E2E2E2E2E2E2E2E2E2E2E2E2E2E2E2E2E2E2F5E2ECE200F5E2E2ECF5E2E2E2E2ECE2E2E2E2E2E2E2E2E2
310
E2E2E2E2E2E2E2E2E2E2E2E2E2E2E2E2E2E2E2E2E2E2E2E2E2E2E2E2E2E2E2E2E2E2E2E2E2E2E2E2E2E2E2E2E2E2E2E2E2E2E2E2E2E2E2E2E2E2E2E2E2E2E2E2E2E2E2E2E2E2E2E2E2E2E2E2F5E2ECE200F5E2E2ECF5E2E2E2E2ECE2E2E2E2E2E2E2E2E2E2E2E2E2E2E2E2E2E2E2E2E2E2E2E2E2E2E2E2E2E2E2E2E2E2E2E2
310
E2E2E2E2E2E2E2E2E2E2E2E2E2E2E2E2E2E2E2E2E2E2E2E2E2E2E2E2E2E2E2E2E2E2E2E2E2E2E2E2E2E2E2E2E2E2E2E2E2F5E2ECE20AF5E2E2ECF5E2E2E2E2ECE2E2E2E2E2E2E2E2E2E2E2E2E2E2E2E2E2E2E2E2ECECECECECECECECECECECECECECECECECECECECECECECECECECECECECECECECECECECECECECECECECECEC
310
ECECECECECECECECE2E2E2E2E2E2E2E2E2E2E2E2E2E2F5E2ECE200F5E2E2ECF5E2E2E2E2ECE2E2E2E2E2E2E2E2E2E2E2E2E2E2E2E2E2E2E2E2ECE2E2E2E2E2E2E2E2E2E2E2E2E2E2E2E2E2E2E2E2E2E2E2E2E2E2E2E2E2E2E2E2E2E2E2E2E2E2E2E2E2E2E2E2E2E2E2E2E2ECE2E2E2E2E2E2E2E2E2E2E2E2E2E2F5E2ECE200
310
F5E2E2ECF5E2E2E2E2ECE2E2E2E2E2E2E2E2E2E2E2E2E2E2E2E2E2E2E2E2ECE2E2E2777777777777777777777777777777777777777777777777777777777777777763777777777777637777E2E2E2E2ECE2E2E2E2E2E2E2E2E2E2E2E2E2E2F5E2ECE200F5E2E2ECF5E2E2E2E2ECE2E2E2E2E2E2E2E2E2E2E2E2E2E2E2E2E2
310
E2E2E2ECE2E2E277E2E2E2E2E2E2E2E2E2E2E2E2E2E2E2E2E2E2E2E2E2E2E2E2E2E2E2E2E263636363E2E2E2E263636363E2E2E2E2ECE2E2E2E2E2E2E2E2E2E2E2E2E2E2F5E2ECE243F5E2E2ECF5E2E2E2E2ECE2E2E2E2E2E2E2E2E2E2E2E2E2E2E2E2E2E2E2E2ECE2E2E29C9C9C9C9C9C9C9C9C9C9C9C9C9C9C9C9C9C9C9C
310
9C9C9C9C9C9C9C9C9C9C9C9C9C9C9C9C9C9C9C9C9C9CE2E2E2E2ECE2E2E2E2E2E2E2E2E2E2E2E2E2E2F5E2ECE244F5E2E2ECF5E2E2E2E2ECE2E2E2E2E2E2E2E2E2E2E2E2E2E2E2E2E2E2E2E2ECE2E2E277636363E29C636363E2E2E2E2E2E29C636363636363E2E2E29CE2E2E2E2E26363639CE2E2E263636363E2E2E2E2EC
310
E2E2E2E2E2E2E2E2E2E2E2E2E2E2F5E2ECE200F5E2E2ECF5E2E2E2E2ECE2E2E2E2E2E2E2E2E2E2E2E2E2E2E2E2E2E2E2E2ECE2E2E277636363E29C636363636363E2E2E29C63636363636363E2E29CE2E2E2E2E26363639CE2E2E2E2636363E2E2E2E2ECE2E2E2E2E2E2E2E2E2E2E2E2E2E2F5E2ECE244F5E2E2ECF5E2E2E2
310
E2ECE2E2E2E2E2E2E2E2E2E2E2E2E2E2E2E2E2E2E2E2ECE2E2E277636363E29C636363E2E2E2E2E2E29C63636363636363E2E29CE2E2E2E2E26363639CE2E2E263636363E2E2E2E2ECE2E2E2E2E2E2E2E2E2E2E2E2E2E2F5E2ECE244F5E2E2ECF5E2E2E2E2ECE2E2E2E2E2E2E2E2E2E2E2E2E2E2E2E2E2E2E2E2ECE2E2E277
310
636363E29C636363E2E2E2E2E2E29C636363636363E2E2E29CE2E2E2E2E26363639CE2E2E263636363E2E2E2E2ECE2E2E2E2E2E2E2E2E2E2E2E2E2E2F5E2ECE200F5E2E2ECF5E2E2E2E2ECE2E2E2E2E2E2E2E2E2E2E2E2E2E2E2E2E2E2E2E2ECE2E2E277636363E29C636363636363E2E2E29C63636363636363E2E29CE2E2
310
E2E2E26363639CE2E2E2E2636363E2E2E2E2ECE2E2E2E2E2E2E2E2E2E2E2E2E2E2F5E2ECE244F5E2E2ECF5E2E2E2E2ECE2E2E2E2E2E2E2E2E2E2E2E2E2E2E2E2E2E2E2E2ECE2E2E277636363E29C636363E2E2E2E2E2E29C63636363636363E2E29CE2E2E2E2E26363639CE2E2E263636363E2E2E2E2ECE2E2E2E2E2E2E2E2
310
E2E2E2E2E2E2F5E2ECE242F5E2E2ECE2E2E2E2E2ECE2E2E2E2E2E2E2E2E2E2E2E2E2E2E2E2E2E2E2E2ECE2E2E277636363E29C636363E2E2E2E2E2E29C636363636363E2E2E29CE2E2E2E2E26363639CE2E2E263636363E2E2E2E2ECE2E2E2E2E2E2E2E2E2E2E2E2E2E2E2E2ECE200F5E2E2ECE2E2E2E2E2ECE2E2E2E2E2E2
310
E2E2E2E2E2E2E2E2E2E2E2E2E2E2ECE2E2E277636363639C63636363E2E2E2E2E29C63636363E2E2E2E2E29CE2E2E2E2E26363639CE2E2E263636363E2E2E2E2ECE2E2E2E2E2E2E2E2E2E2E2E2E2E2E2E2ECE244F5E2E2ECE2E2E2E2E2ECE2E2E2E2E2E2E2E2E2E2E2E2E2E2E2E2E2E2E2E2ECE2E2E277636363E29C636363
310
63E2E2E2E2E29C63636363636363E2E29CE2E2E2E2E26363639CE2E2E263636363E2E2E2E2ECE2E2E2E2E2E2E2E2E2E2E2E2E2E2E2E2ECE243F5E2E2ECE2E2E2E2E2ECE2E2E2E2E2E2E2E2E2E2E2E2E2E2E2E2E2E2E2E2ECE2E2E277636363E29C6363E2E2E2E2E2E2E29C63636363636363E2E29CE2E2E2E2E26363639CE2
310
E2E2E2636363E2E2E2E2ECE2E2E2E2E2E2E2E2E2E2E2E2E2E2E2E2ECE200F5E2E2ECE2E2E2E2E2ECE2E2E2E2E2E2E2E2E2E2E2E2E2E2E2E2E2E2E2E2ECE2E2E277636363E29C636363E2E2E2E2E2E29C63636363636363E2E29CE2E2E2E2E26363639CE2E2E263636363E2E2E2E2ECE2E2E2E2E2E2E2E2E2E2E2E2E2E2E2E2
310
ECE244F5E2E2ECE2E2E2E2E2ECE2E2E2E2E2E2E2E2E2E2E2E2E2E2E2E2E2E2E2E2ECE2E2E277636363E29C636363E2E2E2E2E2E29CE2E263E2E263E2E2E29CE2E2E2E2E26363639CE2E2E263636363E2E2E2E2ECE2E2E2E2E2E2E2E2E2E2E2E2E2E2E2E2ECE244F5E2E2ECE2E2E2E2E2ECE2E2E2E2E2E2E2E2E2E2E2E2E2E2
310
E2E2E2E2E2E2ECE2E2E277636363E29C63636363E2E2E2E2E29C6363636363E2E2E2E29CE2E2E2E2E26363639CE2E2E2E2636363E2E2E2E2ECE2E2E2E2E2E2E2E2E2E2E2E2E2E2E2E2ECE200F5E2E2ECE2E2E2E2E2ECE2E2E2E2E2E2E2E2E2E2E2E2E2E2E2E2E2E2E2E2ECE2E2E277636363E29C63636363E2E2E2E2E29C63
310
63636363E2E2E2E29CE2E2E2E2E26363639CE2E2E2E2636363E2E2E2E2ECE2E2E2E2E2E2E2E2E2E2E2E2E2E2E2E2ECE243F5E2E2ECE2E2E2E2E2ECE2E2E2E2E2E2E2E2E2E2E2E2E2E2E2E2E2E2E2E2ECE2E2E29C9C9C9C9C9C9C9C9C9C9C9C9C9C9C9C9C9C9C9C9C9C9C9C9C9C9C9C9C9C9C9C9C9C9C9C9C9C9C9C9C9CE2E2
310
E2E2ECE2E2E2E2E2E2E2E2E2E2E2E2E2E2E2E2ECE244F5E2E2ECF5E2E2E2E2ECE2E2E2E2E2E2E2E2E2E2E2E2E2E2E2E2E2E2E2E2ECE2E2E29C9C9C9C9C9C9C9C9C9C9C9C9C9C9C9C9C9C63636363639C9C9C63636363636363639C63636363636363E2E2E2E2ECE2E2E2E2E2E2E2E2E2E2E2E2E2E2F5E2ECE200F5E2E2ECF5
310
E2E2E2E2ECE2E2E2E2E2E2E2E2E2E2E2E2E2E2E2E2E2E2E2E2ECE2E2E2A9A9A9A9A9A9A9A9A9A9A9A9A9A9A9A9A9A9A9A9A9E2E2E2E2E2E2E2E2E2E2E2E2E2E2E2E2E2E2E2E277E2E2E2E2ECE2E2E2E2E2E2E2E2E2E2E2E2E2E2F5E2ECE203F5E2E2ECF5E2E2E2E2ECE2E2E2E2E2E2E2E2E2E2E2E2E2E2E2E2E2E2E2E2ECE2
310
E2E2A9A9A9A9A9A977777777A977A9A97777A9A9777777777777777777777777777777777777777777777777E2E2E2E2ECE2E2E2E2E2E2E2E2E2E2E2E2E2E2F5E2ECE200F5E2E2ECF5E2E2E2E2ECE2E2E2E2E2E2E2E2E2E2E2E2E2E2E2E2E2E2E2E2ECE2E2E2E2E2E2E2E2E2E2E2E2E2E2E2E2E2E2E2E2E2E2E2E2E2E2E2E2
310
E2E2E2E2E2E2E2E2E2E2E2E2E2E2E2E2E2E2E2E2E2ECE2E2E2E2E2E2E2E2E2E2E2E2E2E2F5E2ECE211F5E2E2ECF5E2E2E2E2ECE2E2E2E2E2E2E2E2E2E2E2E2E2E2E2E2E2E2E2E2ECECECECECECECECECECECECECECECECECECECECECECECECECECECECECECECECECECECECECECECECECECECECECECECECECECECE2E2E2E2E2
310
E2E2E2E2E2E2E2E2E2F5E2ECE233F5E2E2ECF5E2E2E2E2ECE2E2E2E2E2E2E2E2E2E2E2E2E2E2E2E2E2E2E2E2E2E2E2E2E2E2E2E2E2E2E2E2E2E2E2E2E2E2E2E2E2E2E2E2E2E2E2E2E2E2E2E2E2E2E2E2E2E2E2E2E2E2E2E2E2E2E2E2E2E2E2E2E2E2E2E2E2E2E2E2E2E2E2E2E2F5E2ECE200F5E2E2ECF5E2E2E2E2ECE2E2E2
310
E2E2E2E2E2E2E2E2E2E2E2E2E2E2E2E2E2E2E2E2E2E2E2E2E2E2E2E2E2E2E2E2E2E2E2E2E2E2E2E2E2E2E2E2E2E2E2E2E2E2E2E2E2E2E2E2E2E2E2E2E2E2E2E2E2E2E2E2E2E2E2E2E2E2E2E2E2E2E2E2E2E2F5E2ECE200F5E2E2ECF5E2E2E2E2ECE2E2E2E2E2E2E2E2E2E2E2E2E2E2E2E2E2E2E2E2E2E2E2E2E2E2E2E2E2E2
310
E2E2E2E2E2E2E2E2E2E2E2E2E2E2E2E2E2E2E2E2E2E2E2E2E2E2E2E2E2E2E2E2E2E2E2E2E2E2E2E2E2E2E2E2E2E2E2E2E2E2E2E2E2E2E2F5E2ECE27EF5E2E2ECF5E2E2E2E2ECE2E2E2E2E2E2E2E2E2E2E2E2E2E2E2E2E2E2E2E2E2E2E2E2E2E2E2E2E2E2E2E2E2E2E2E2E2E2E2E2E2E2E2E2E2E2E2E2E2E2E2E2E2E2E2E2E2
310
E2E2E2E2E2E2E2E2E2E2E2E2E2E2E2E2E2E2E2E2E2E2E2E2E2E2E2E2F5E2ECE200F5E2E2ECF5E2E2E2E2ECE2E2E2E2E2E2E2E2E2E2E2E2E2E2E2E2E2E2E2E2E2E2E2E2E2E2E2E2E2E2E2E2E2E2E2E2E2E2E2E2E2E2E2E2E2E2E2E2E2E2E2E2E2E2E2E2E2E2E2E2E2E2E2E2E2E2E2E2E2E2E2E2E2E2E2E2E2E2E2E2E2E2E2E2
310
E2F5E2ECE200F5E2E2ECF5E2E2E2E2ECE2E2E2E2E2E2E2E2E2E2E2E2E2E2E2E2E2E2E2E2E2E2E2E2E2E2E2E2E2E2E2E2E2E2E2E2E2E2E2E2E2E2E2E2E2E2E2E2E2E2E2E2E2E2E2E2E2E2E2E2E2E2E2E2E2E2E2E2E2E2E2E2E2E2E2E2E2E2E2E2E2E2E2E2E2F5E2ECE2CDF5E2E2ECF5E2E2E2E2ECE2E2E2E2E2E2E2E2E2E2E2
310
E2E2E2E2E2E2E2E2E2E2E2E2E2E2E2E2E2E2E2E2E2E2E2E2E2E2E2E2E2E2E2E2E2E2E2E2E2E2E2E2E2E2E2E2E2E2E2E2E2E2E2E2E2E2E2E2E2E2E2E2E2E2E2E2E2E2E2E2E2E2E2E2E2E2F5E2ECE200F5E2E2ECF5E2E2E2E2ECE2E2E2E2E2E2E2E2E2E2E2E2E2E2E2E2E2E2E2E2E2E2E2E2E2E2E2E2E2E2E2E2E2E2E2E2E2E2
310
E2E2E2E2E2E2E2E2E2E2E2E2E2E2E2E2E2E2E2E2E2E2E2E2E2E2E2E2E2E2E2E2E2E2E2E2E2E2E2E2E2E2E2E2E2E2E2F5E2ECE2CDF5E2E2ECF5E2E2E2E2ECE2E2E2E2E2E2E2E2E2E2E2E2E2E2E2E2E2E2E2E2E2E2E2E2E2E2E2E2E2E2E2E2E2E2E2E2E2E2E2E2E2E2E2E2E2E2E2E2E2E2E2E2E2E2E2E2E2E2E2E2E2E2E2E2E2
310
E2E2E2E2E2E2E2E2E2E2E2E2E2E2E2E2E2E2E2E2F5E2ECE200F5E2E2ECF5E2E2E2E2ECE2E2E2E2E2E2E2E2E2E2E2E2E2E2E2E2E2E2E2E2E2E2E2E2E2E2E2E2E2E2E2E2E2E2E2E2E2E2E2E2E2E2E2E2E2E2E2E2E2E2E2E2E2E2E2E2E2E2E2E2E2E2E2E2E2E2E2E2E2E2E2E2E2E2E2E2E2E2E2E2E2E2E2E2E2F5E2ECE2CDF5E2
310
E2ECF5E2E2E2E2ECE2E2E2E2E2E2E2E2E2E2E2E2E2E2E2E2E2E2E2E2E2E2E2E2E2E2E2E2E2E2E2E2E2E2E2E2E2E2E2E2E2E2E2E2E2E2E2E2E2E2E2E2E2E2E2E2E2E2E2E2E2E2E2E2E2E2E2E2E2E2E2E2E2E2E2E2E2E2E2E2E2E2E2E2E2F5E2ECE200F5E2E2ECF5E2E2E2E2ECE2E2E2E2E2E2E2E2E2E2E2E2E2E2E2E2E2E2E2
310
E2E2E2E2E2E2E2E2E2E2E2E2E2E2E2E2E2E2E2E2E2E2E2E2E2E2E2E2E2E2E2E2E2E2E2E2E2E2E2E2E2E2E2E2E2E2E2E2E2E2E2E2E2E2E2E2E2E2E2E2E2E2E2E2E2E2F5E2ECE2CDF5E2E2ECE2E2E2E2E2ECE2E2ECECECECECECECECECECECECECECECECECECECECECECECECECECECECECECECECECECECECECECECECECECECEC
310
ECECECECECECECECECECECECECECECECECECECECECECECECECECECECECECECECECECECECE2E2E2E2E2ECE200F5E2E2ECE2E2E2E2E2ECE2E2ECF5E2E2E2E2E2E2E2E2E2E2E2E2E2E2E2E2E2E2E2E2E2E2E2E2E2E2E2E2E2E2E2E2E2E2E2E2E2E2E2E2E2E2E2E2E2E2E2E2E2E2E2E2E2E2E2E2E2E2E2E2E2E2E2E2E2E2E2E2E2
310
E2E2E2E2E2E2E2E2ECE2E2E2E2E2ECE2CDF5E2E2ECE2E2E2E2E2ECE2E2ECF5E2E2E2E2E2E2E2E2E2E2E2E2E2E2E2E2E2E2E2E2E2E2E2E2E2E2E2E2E2E2E2E2E2E2E2E2E2E2E2E2E2E2E2E2E2E2E2E2E2E2E2E2E2E2E2E2E2E2E2E2E2E2E2E2E2E2E2E2E2E2E2E2E2E2E2E2E2ECE2E2E2E2E2ECE200F5E2E2ECE2E2E2E2E2EC
310
E2E2ECF5E2E2E2E2E2E2E2E2E2E2E2E2E2E2E2E2E2E2E2F5F5E2E2E2E2E2E2E2E2E2E2E2E2E2E2E2E2E2E2E2E2E2E2E2E2E2E2E2E2E2E2E2E2E2E2E2E2E2E2E2E2E2E2E2E2E2E2E2E2E2E2E2E2E2E2E2E2ECE2E2E2E2E2ECE2CDF5E2E2ECE2E2E2E2E2ECE2E2ECF5E2E2E2E2E2E2E2E2E2E2E2E2E2E2E2E2E2E227F5F5A0A0
310
A0A0F5A0A0A0A0A0A0A0A0A0A0A0A0A0A0A0A0A0A0A0A0A0A0A0A0A0A0A0A0A0A0A0A0A0A0A0A0A0A0A0A0A0A0E2E2E2E2E2E2E2E2E2ECE2E2E2E2E2ECE200F5E2E2ECE2E2E2E2E2ECE2E2ECF5E2E2E2E2E2E2E2E2E2E2E2E2E2E2E2E2E2E22727E2A0A0E2E2E2E2E2E2E2E2E2E2E2E2E2E2E2E2E2E2E2E2E2E2E2E2E2E2E2
310
E2E2E2E2E2E2E2E2E2E2E2E2E2E2E2E2A0A0E2E2E2E2E2E2E2E2E2ECE2E2E2E2E2ECE2CDF5E2E2ECECECECECECECE2E2ECF5E2E2E2E2E2E2E2E2E2E2E2E2E2E2E2E2E2E22727E2A0E2A01D1D1DF51D1D1DF51D1DF51D1DF51D1DF5F51D1DF51D1D1D1D1D1D1D1D1D1D1D1D1D1D1DF5F51D1D1DA0E2A0E2E2E2E2E2E2E2E2E2
310
ECE2E2E2E2E2ECEC00F5E2E2ECE2E2E2E2E2ECE2E2ECF5E2E2E2E2E2E2E2E2E2E2E2E2E2E2E2E2E2E22727F5A0E2E21DF5F5F5F5F5F5F5F5F5F5F5F5F5F51DF5F51D1DF51D1DF51DF5F5F5F5F5F5F5F5F5F5F5F5F5F5F5F5E2E2A0E2E2E2E2E2E2E2E2E2ECE2E2E2E2E2ECE2CDF5E2E2ECE2E2E2E2E2ECE2E2ECF5E2E2E2E2
310
E2E2E2E2E2E2E2E2E2E2E2E2E2E2E2F5E2A0E2E2F5F5F5F5F5F5F5F5F5F5F5F5F5F5F522222222222222222222F5F5F5F5F5F5F5F5F5F5F5F5F5F5F51DE2E2A0E2E2E2E2E2E2E2E2E2ECE2E2E2E2E2ECE200F5E2E2ECE2E2E2E2E2ECE2E2ECF5E2E2E2E2E2E2E2E2E2E2E2A0A0A0A0A0A0A0A0A0A0A0A0A01DF5BEBEBEBEBE
310
BEBEBEBEBEBEBEBEBE1D1D29292929291D1DF5F5F5BEBEBEBEF5F5F5F5F5BEF5F51DE2E2A0E2E2E2E2E2E2E2E2E2ECE2E2E2E2E2ECE2CDF5E2E2ECF5E2E2E2E2ECE2E2ECF5E2E2E2E2E2E2E2E2E2E2E2A0A0E2E2E2E2E2E2E2E2A0E2E21DF5F5E2BEE2E2272727E222E2E2BEBEBEBEBEBEBEBEBE272727BEBEBEBEBEBEBE27
310
2727BEBEF5F5F5E2E2A0E2E2E2E2E2E2E2E2E2ECE2E2E2F5E2ECE200F5E2E2ECF5E2E2E2E2ECE2E2ECF5E2E2E2E2E2E2E2E2E2E2E2A0E2F5F5F5F5F5F5F5F5A0F5F5F5F5F5E2BE292927272729292929F5E2BEE22929292929272727E229BE29F5E2E2272727E2F5F5F51DE2E2A0E2E2E2E2E2E2E2E2E2ECE2E2E2F5E2ECE2
310
CDF5E2E2ECF5E2E2E2E2ECE2E2ECF5E2E2E2E2E2E2E2E2E2E2E2A0E2F5F5F5F5F5BEF5F5F5BEF5F5F5F5E2BE29BEE222575757E2E2F5E2E2BEE229BE29E229E2E2E229BEE2F5E2E2E2BEE2E2F5F5F51DE2E2A0E2E2E2E2E2E2E2E2E2ECE2E2E2F5E2ECE200F5E2E2ECF5E2E2E2E2ECE2E2ECF5E2E2E2E2E2E2E2E2E2E2E2A0
310
E2F5F5F5F5F5F5F5F5F5BEF5F5F5F5E2BE29E2BEE25757E257E2F52929BEE2E2BEE2BE29E2E2E2E2BE29F5E2E2BEE2E2E2F5F5F5F5E2E2A0E2E2E2E2E2E2E2E2E2ECE2E2E2F5E2ECE2CAF5E2E2ECF5E2E2E2E2ECE2E2ECF5E2E2E2E2E2E2E2E2E2E2E2A0E2F5F5F5F5F5F5F5F5F5BEF5F5F5F5272729E2E2BEE25757E257F5
310
E229E2BEBEBEBEE22929292727BE29F5E2BEE2E2E2E2F5F5F51DE2E2A0E2E2E2E2E2E2E2E2E2ECE2E2E2F5E2ECE200F5E2E2ECF5E2E2E2E2ECE2E2ECF5E2E2E2E2E2E2E2E2E2E2E2A0E2F5F5F5F5F5F5F5F5F5BEF5F5F5F52727295757E2BEE2575757F5E229E2E2E2BEE2E2E2E2E22727BEE2F5BEE2E2E2E2E2F5F5F51DE2
310
E2A0E2E2E2E2E2E2E2E2E2ECE2E2E2F5E2ECE200F5E2E2ECF5E2E2E2E2ECE2E2ECF5E2E2E2E2E2E2E2E2E2E2E2A0E2F5BEBEBEBEBE272727BEBEBEBEBE2727295757E2E2BEE25757F5F5F5E2E2E2E2E2E2E2E2E22727BE29F5E2E2E2E2E2E2F5F5F51DE2E2A0E2E2E2E2E2E2E2E2E2ECE2E2E2F5E2ECE240F5E2E2ECF5E2E2
310
E2E2ECE2E2ECF5E2E2E2E2E2E2E2E2E2E2E2A0E2F5F5F5F5E2BE272727BEE2E2E2F52727E2E2E2E2E2E2BEE2E257F5F5E2E2E2E2E2E2E2E2E22727BEBEF5E2E2E2222222F5F5F5F5E2E2A0E2E2E2E2E2E2E2E2E2ECE2E2E2F5E2ECE27FF5E2E2ECF5E2E2E2E2ECE2E2ECF5E2E2E2E2E2E2E2E2E2E2E2A0E2F5F5F5F5E2E2BE
310
BEE2BEE2E2E2F5E2BEBEE2E2E2E2E2BEBEE257F5F5E2E2E2E2E2E2292929E2E2BEE2E2E2E2E222E2E2F5F5F51DE2E2A0E2E2E2E2E2E2E2E2E2ECE2E2E2F5E2ECE23FF5E2E2ECF5E2E2E2E2ECE2E2ECF5E2E2E2E2E2E2E2E2E2E2E2A0E2F5F5F5F52222E2E2BEBE292929F5F5BEE2BEE229575757E2BE57F5F5D6D6E2E2E2E2
310
29E229E2BEBEE2E2E2E2E222E2E2F5F5F51DE2E2A0E2E2E2E2E2E2E2E2E2ECE2E2E2F5E2ECE200F5E2E2ECF5E2E2E2E2ECE2E2ECF5E2E2E2E2E2E2E2E2E2E2E2A0E2F51D1DE2E222E2E2BEBE29E2E2F5F5BE29292929E25757E2BEE2F5F5D6D6D6E2292929292929D6BED6F5292929292929F5F5F5F5E2E2A0E2E2E2E2E2E2
310
E2E2E2ECE2E2E2F5E2ECE200F5E2E2ECF5E2E2E2E2ECE2E2ECF5E2E2E2E2E2E2E2E2E2E2E2A0E2F51D1DE2E222E2E2E2BE292929F5F5BE2929BE2957E257E2E2BEF5F5D6D6E2D629292929292929BE29F5E229292929E2F5F5F51DE2E2A0E2E2E2E2E2E2E2E2E2ECE2E2E2F5E2ECE200F5E2E2ECF5E2E2E2E2ECE2E2ECF5E2
310
E2E2E2E2E2E2E2E2E2E2A0E2F5F5F5F5292929E2E2BE292929F5BEBEBEF5F5F5F5F5F5F5E2E2F5F5F5D6E2D6F5F5F5F5F5F5F5BEF5BEF5F5F5F5F5F5F5F5F51DE2E2A0E2E2E2E2E2E2E2E2E2ECE2E2E2F5E2ECE200F5E2E2ECF5E2E2E2E2ECE2E2ECF5E2E2E2E2E2E2E2E2E2E2E2A0E2F5F5F5F5222229E22727292929F5F5
310
F5F5F5F5F5F5F5F5F5E2E2F5BEF5E2BEBEBEF5F5F5F5F5F5F5F5F5F5F5BEF5F5F5BEF5F5F5E2E2A0E2E2E2E2E2E2E2E2E2ECE2E2E2F5E2ECE200F5E2E2ECF5E2E2E2E2ECE2E2ECF5E2E2E2E2E2E2E2E2E2E2E2A0E2F5BE1D29E22929292727292929BEBE1DBEC4C4C4C4C4C4C4E2E2D6E2BEBEE2BEF5BE2929E2F5F5F5F5F5
310
F529BE292929F5F5F51DE2E2A0E2E2E2E2E2E2E2E2E2ECE2E2E2F5E2ECE200F5E2E2ECF5E2E2E2E2ECE2E2ECF5E2E2E2E2E2E2E2E2E2E2E2A0E2F51D1D29E2292929272729E2BEF51DE2C41D1D1D1D1D1D1DD6D6E2E2E2272727BE2929292929E2E2E2E2E2E2BEE22929BEF5F51DE2E2A0E2E2E2E2E2E2E2E2E2ECE2E2E2F5
310
E2ECE200F5E2E2ECF5E2E2E2E2ECE2E2ECF5E2E2E2E2E2E2E2E2E2E2E2A0E2F5F5F5F5222229E22727292929F51D1D1D1D1D1D1D1D1D1DE2E2E2E2E2272727BEBEBEBEBEBEBE272727BEBEBEBEBEBEBEF5F5F5E2E2A0E2E2E2E2E2E2E2E2E2ECE2E2E2F5E2ECE200F5E2E2ECE2E2E2E2E2ECE2E2ECF5E2E2E2E2E2E2E2E2E2
310
E2E2A0E2F5F5F5F5292929E2E2BEE2BED6F51D1D1D1D1D1D1D1D1D1DE2E2E2E2E2272727BEE2D6E2E2E2E227272727E2BE222229F5F5F5F5E2E2A0E2E2E2E2E2E2E2E2E2ECE2E2E2E2E2ECE200F5E2E2ECE2E2E2E2E2ECE2E2ECF5E2E2E2E2E2E2E2E2E2E2E2A0E2F51D1DE2E222E2E2E2BEBED6E21DE2E2E21D1D1D1D1DE2
310
E2E2E2E2E2E22727BEF5BEE2E2E2E2E2E2E2E2E2E2BE22E229F5F5F5F5E2E2A0E2E2E2E2E2E2E2E2E2ECE2E2E2E2E2ECE200F5E2E2ECE2E2E2E2E2ECE2E2ECF5E2E2E2E2E2E2E2E2E2E2E2A0E2F51D1DE2E222E2E2BEBED6E2E21DE2E2E21D1D1D1D1DE2E2E2E2E2E2BEE2E2BEF5BEE2E2E2E2E2E2E2E2E2272722E229F5F5
310
F51DF5E2A0E2E2E2E2E2E2E2E2E2ECE2E2E2E2E2ECE200F5E2E2ECE2E2E2E2E2ECE2E2ECF5E2E2E2E2E2E2E2E2E2E2E2A0E2F5F5F5F52222E2E2BEBED62929BEF5F5BEF5F5F5F5F5E2E2F5F5F5BEF5F5F5BEF529292929E2E2E2E2E2E22727292929F5F5F5F5F5E2A0E2E2E2E2E2E2E2E2E2ECE2E2E2E2E2ECE200F5E2E2EC
310
E2E2E2E2E2ECE2E2ECF5E2E2E2E2E2E2E2E2E2E2E2A0E2F5F5F5F5E229292929BE292929F5E229BE292929E229E2E2F5F5BEE2E229E229F5F5292929E2E2E2E2E2E22727222929F5F5F51DF5E2A0E2E2E2E2E2E2E2E2E2ECE2E2E2E2E2ECE200F5E2E2ECE2E2E2E2E2ECE2E2ECF5E2E2E2E2E2E2E2E2E2E2E2A0E2F5F5F5F5
310
E229E2E2E2BEE22929F5BE29BEE22929E229E2E2D6BEE2E2E2E229E229F5F5E229E2E2E2E2E2E2E2BE222929F5F5F51DF5E2A0E2E2E2E2E2E2E2E2E2ECE2E2E2E2E2ECE200F5E2E2ECE2E2E2E2E2ECE2E2ECF5E2E2E2E2E2E2E2E2E2E2E2A0E2F5F5F5F5A029E2E2E2BE292929F52929BE2929292929D6D6BEE2E2E2E22929
310
29E229F5F5E2BEBEE2E2E2E2E2BE222929F5F5F5F5F5E2A0E2E2E2E2E2E2E2E2E2ECE2E2E2E2E2ECE200F5E2E2ECE2E2E2E2E2ECE2E2ECF5E2E2E2E2E2E2E2E2E2E2E2A0E2F5F5F5F5F5F5F5F5F5BEF5F5F5F5E2E2BEE2E2E2E2E2E2BEE2E2E2E229E229BE29E229F5BEE2E2BEE2E2E2E2BE222929BEF5F51DF5E2A0E2E2E2
310
E2E2E2E2E2E2ECE2E2E2E2E2ECE200F5E2E2ECE2E2E2E2E2ECE2E2ECF5E2E2E2E2E2E2E2E2E2E2E2A0E2F5F5F5F5F5F5F5F5F5BEF5F5F5F522272722E2E2E2E2BEE2E2E2E229BEBEE2BEE229E229F5292929D6D6E2E2BE22E2E2F5F5F51DF5E2A0E2E2E2E2E2E2E2E2E2ECE2E2E2E2E2ECE200F5E2E2ECF5E2E2E2E2ECE2E2
310
ECF5E2E2E2E2E2E2E2E2E2E2E2A0E2F5F5F5F5F5BEF5F5F5BEF5F5F5F5E2272722E2E2E2BEBEE2E2E229BEE2E2E2BEE2E229E2F5292929BEBED6E2BE292929F5F5F51DF5E2A0E2E2E2E2E2E2E2E2E2ECE2E2E2F5E2ECE200F5E2E2ECF5E2E2E2E2ECE2E2ECF5E2E2E2E2E2E2E2E2E2E2E2A0E2F5A0E2E2C3E2E2E2C3A0E2F5
310
F5F5E2272729E229BEE2E2E2E2E2E229E2E2E2BEE229E229F5F5F5F5E2E2F5F5BEF5F5F5BEF5F5F5F5E2A0E2E2E2E2E2E2E2E2E2ECE2E2E2F5E2ECE200F5E2E2ECF5E2E2E2E2ECE2E2ECF5E2E2E2E2E2E2E2E2E2E2E2F5E2F5F5F5F5C3F5F5F5C3F5F5F5F5F52229BE2929E229E2E2E2E2BEBEE229E2E2BE29E2E2E2F5F5F5
310
F5E2E2F5F5F5F5F5BEBEF5F51DF5C3F5F5F5F5E2E2E2E2E2E2ECE2E2E2F5E2ECE240F5E2E2ECF5E2E2E2E2ECE2E2ECF5E2E2E2E2E2E2E2E2E2E2E2A0A0E2E2E2E2C3E2E2E2C3E2E2F5F5F5E229BE2929BE29E2E2E2BEE2E2E2E229E229E2E2E2E2BEBEBEBEBE272727BEBEBEBEBEF5F5F5E2E2F5F5F5F5E2E2E2E2E2E2ECE2
310
E2E2F5E2ECE200F5E2E2ECF5E2E2E2E2ECE2E2ECF5E2E2E2E2E2E2E2E2E2E2E2A0A0A0A0A0A0C3A0A0A0C3A0A0F5F5BEBEBEBEBEBEBEBEBEBEBEBEBE27272727BEBEBEBEBEBEBE2929E2E2272727E2BE2727F5F5F5F5E2E2A0E2E2E2E2E2E2E2E2E2ECE2E2E2F5E2ECE240F5E2E2ECF5E2E2E2E2ECE2E2ECF5E2E2E2E2E2E2
310
E2E2E2E2E2F5E2F5E2E2F5C3E2E2F5C3E2E2F5F5F5E2E2BEBE29E229E2E2BE292927272727E2BEE2E2D6E2F52929E2E2E2E2E2E2BE2727F5F5F51DC3C3C3C3C3C3E2E2E2E2E2E2ECE2E2E2F5E2ECE200F5E2E2ECF5E2E2E2E2ECE2E2ECF5E2E2E2E2E2E2E2E2E2F5F5F527F5F5E2F5C3E2E2F5C3E2E2F5F5F5E2BEBEE22929
310
29E22929292929E2E2E2E2BED6D6D6E2F52929E2E2E2E2E2E2E22727F5F5F51DE2E2F5F5F5F5E2E2E2E2E2E2ECE2E2E2F5E2ECE200F5E2E2ECF5E2E2E2E2ECE2E2ECF5E2E2E2E2E2E2E2E2E2E2E22727F5E2E2F5C3E2E2F5C3E2E2F5F5F5BEE2BEE2E2E2E2E229BEE2E229E2E2E2E2D6E2E2D6E2F5E229E2E2E2E2E2E2E2E2
310
BEF5F5F5F5E2E2A0E2E2E2E2E2E2E2E2E2ECE2E2E2F5E2ECE200F5E2E2ECF5E2E2E2E2ECE2E2ECF5E2E2E2E2E2E2E2E2E2E2E22727E2E2E2F5C3E2E2F5C3E2E2F5F5BEF5F5BEF5F5F5F5F5F5F5F5F5F5F5F5D6D6D6E2E2F5F5BEF5F5F5F5F5F5F5F5F5F5BEBEF5F5F5E2E2A0E2E2E2E2E2E2E2E2E2ECE2E2E2F5E2ECE200F5
310
E2E2ECF5E2E2E2E2ECE2E2ECF5E2E2E2E2E2E2E2E2E2E2E2E2E2E2E2E2E2E2F5F5F5A0E2E2F5F5F5F5F5F5F5F5F5F5F5F5F5F5F5F5F5F5D6D6D6D6D6F5F5F5F5F5F5F5F5F5F5F5F5F5F5F5F5F51DE2E2F5E2E2E2E2E2E2E2E2E2ECE2E2E2F5E2ECE200F5E2E2ECF5E2E2E2E2ECE2E2ECF5E2E2E2E2E2E2E2E2E2E2E2E2E2E2
310
E2E2E2272727E2A0E2E2F5F5F51D1D1D1D1DF51D1DF5F51DF572E2E2E2E2BEE2E2E2E2F5F5F5F5F5F5F5F5F5F5F5F5F5F5F51DE2E2A0E2E2E2E2E2E2E2E2E2ECE2E2E2F5E2ECE200F5E2E2ECF5E2E2E2E2ECE2E2ECF5E2E2E2E2E2E2E2E2E2E2E2E2E2E2E2E2E2272727E2A0E2A0F5F5F5F5F5F5F5F5F5F5F5F5F5F5F5BEBE
310
BEBEBEBEBEBEBEBEF5F5F5F5F5F5F5F5F5F5F5F5F5F5F5F5A0E2A0E2E2E2E2E2E2E2E2E2ECE2E2E2F5E2ECE200F5E2E2ECF5E2E2E2E2ECE2E2ECF5E2E2E2E2E2E2E2E2E2E2E2E2E2E2E2E2E2272727E2A0A0E2E2E2E2E2E2E2E2E2E2E2E2E2E2E2A072E2E2E2E2E2E2E2E2E2A0E2E2E2E2E2C3E2E2E2C3E2E2E2E2E2E2A0A0
310
E2E2E2E2E2E2E2E2E2ECE2E2E2F5E2ECE200F5E2E2ECF5E2E2E2E2ECE2E2ECF5E2E2E2E2E2E2E2E2E2E2E2E2E2E2E2E2E2E227F5F5A0A0A0A0F5A0A0A0A0A0A0A0A0A0A0A0A0A072727272727272727272A0A0A0A0A0F5F5A0A0F5F5A0A0A0A0A0A0A0A0E2E2E2E2E2E2E2E2E2ECE2E2E2F5E2ECE200F5E2E2ECF5E2E2E2E2
310
ECE2E2ECF5E2E2E2E2E2E2E2E2E2E2E2E2E2E2E2E2E2E2E2F5E2E2E2E2E2E2E2E2E2E2E2E2E2E2E2E2E2E2E2E2E2E2E2E2E2E2E2E2E2E2E2E2E2E2F5F5E2E2F5F5E2E2E2F5E2E2E2F5E2E2E2E2E2E2E2E2E2ECE2E2E2F5E2ECE200F5E2E2ECF5E2E2E2E2ECE2E2ECF5E2E2E2E2E2E2E2E2E2E2E2E2E2E2E2E2E2E2E2E2E2E2
310
E2E2E2E2E2E2E2E2E2E2E2E2E2E2E2E2E2E2E2E2E2E2E2E2E2E2E2E2E2E2E2E2F5F5E2E2F5F5E2E2F5F5272727F5E2E2E2E2E2E2E2E2E2ECE2E2E2F5E2ECE200F5E2E2ECF5E2E2E2E2ECE2E2ECF5E2E2E2E2E2E2E2E2E2E2E2E2E2E2E2E2E2E2E2E2E2E2E2E2E2E2E2E2E2E2E2E2E2E2E2E2E2E2E2E2E2E2E2E2E2E2E2E2E2
310
E2E2E2E2E2F5F5E2E2F5F5E2E2E227272727F5E2E2E2E2E2E2E2E2E2ECE2E2E2F5E2ECE200F5E2E2ECE2E2E2E2E2ECE2E2ECF5E2E2E2E2E2E2E2E2E2E2E2E2E2E2E2E2E2E2E2E2E2E2E2E2E2E2E2E2E2E2E2E2E2E2E2E2E2E2E2E2E2E2E2E2E2E2E2E2E2E2E2E2E2E2F5F5E2E2F5F5E2E2E2E2E2E2E2E2E2E2E2E2E2E2E2E2
310
E2ECE2E2E2E2E2ECE200F5E2E2ECE2E2E2E2E2ECE2E2ECF5E2E2E2E2E2E2E2E2E2E2E2E2E2E2E2E2E2E2E2E2E2E2E2E2E2E2E2E2E2E2E2E2E2E2E2E2E2E2E2E2E2E2E2E2E2E2E2E2E2E2E2E2E2E2E2E2E2E2E2E2E2E2E2E2E2E2E2E2E2E2E2E2E2E2E2E2E2ECE2E2E2E2E2ECE200F5E2E2ECE2E2E2E2E2ECE2E2ECF5E2E2E2
310
E2E2E2E2E2E2E2E2E2E2E2E2E2E2E2E2E2E2E2E2E2E2E2E2E2E2E2E2E2E2E2E2E2E2E2E2E2E2E2E2E2E2E2E2E2E2E2E2E2E2E2E2E2E2E2E2E2E2E2E2E2E2E2E2E2E2E2E2E2E2E2E2E2E2ECE2E2E2E2E2ECE200F5E2E2ECE2E2E2E2E2ECE2E2ECF5E2E2E2E2E2E2E2E2E2E2E2E2E2E2E2E2E2E2E2E2E2E2E2E2E2E2E2E2E2E2
310
E2E2E2E2E2E2E2E2E2E2E2E2E2E2E2E2E2E2E2E2E2E2E2E2E2E2E2E2E2E2E2E2E2E2E2E2E2E2E2E2E2E2E2E2E2E2E2ECE2E2E2E2E2ECE236F5E2E2ECE2E2E2E2E2ECE2E2ECF5E2E2E2E2E2E2E2E2E2E2E2E2E2E2E2E2E2E2E2E2E2E2E2E2E2E2E2E2E2E2E2E2E2E2E2E2E2E2E2E2E2E2E2E2E2E2E2E2E2E2E2E2E2E2E2E2E2
310
E2E2E2E2E2E2E2E2E2E2E2E2E2E2E2E2E2E2E2E2ECE2E2E2E2E2ECE200F5E2E2ECE2E2E2E2E2ECE2E2ECF5E2E2E2E2E2E2E2E2E2E2E2E2E2E2E2E2E2E2E2E2E2E2E2E2E2E2E2E2E2E2E2E2E2E2E2E2E2E2E2E2E2E2E2E2E2E2E2E2E2E2E2E2E2E2E2E2E2E2E2E2E2E2E2E2E2E2E2E2E2E2E2E2E2E2E2E2E2ECE2E2E2E2E2EC
310
E236F5E2E2ECE2E2E2E2E2ECE2E2ECF5E2E2E2E2E2E2E2E2E2E2E2E2E2E2E2E2E2E2E2E2E2E2E2E2E2E2E2E2E2E2E2E2E2E2E2E2E2E2E2E2E2E2E2E2E2E2E2E2E2E2E2E2E2E2E2E2E2E2E2E2E2E2E2E2E2E2E2E2E2E2E2E2E2E2E2E2E2ECE2E2E2E2E2ECE200F5E2E2ECE2E2E2E2E2ECE2E2ECF5E2E2E2E2E2E2E2E2E2E2E2
310
E2E2E2E2E2E2E2E2E2E2E2E2E2E2E2E2E2E2E2E2E2E2E2E2E2E2E2E2E2E2E2E2E2E2E2E2E2E2E2E2E2E2E2E2E2E2E2E2E2E2E2E2E2E2E2E2E2E2E2E2E2E2E2E2E2E2ECE2E2E2E2E2ECE236F5E2E2ECE2E2E2E2E2ECE2E2ECECECECECECECECECECECECECECECECECECECECECECECECECECECECECECECECECECECECECECECEC
310
ECECECECECECECECECECECECECECECECECECECECECECECECECECECECECECECECECECECECECECECECE2E2E2E2E2ECE200F5E2E2ECE2E2E2E2E2ECE2E2E2E2E2E2E2E2E2E2E2E2E2E2E2E2E2E2E2E2E2E2E2E2E2E2E2E2E2E2E2E2E2E2E2E2E2E2E2E2E2E2E2E2E2E2E2E2E2E2E2E2E2E2E2E2E2E2E2E2E2E2E2E2E2E2E2E2E2
310
E2E2E2E2E2E2E2E2E2E2E2E2E2E2E2E2E2E2ECE236F5E2E2ECF5E2E2E2E2ECE2E2E2E2E2E2E2E2E2E2E2E2E2E2E2E2E2E2E2E2E2E2E2E2E2E2E2E2E2E2E2E2E2E2E2E2E2E2E2E2E2E2E2E2E2E2E2E2E2E2E2E2E2E2E2E2E2E2E2E2E2E2E2E2E2E2E2E2E2E2E2E2E2E2E2E2E2E2E2E2E2E2E2E2E2F5E2ECE200F5E2E2ECF5E2
310
E2E2E2ECE2E2E2E2E2E2E2E2E2E2E2E2E2E2E2E2E2E2E2E2E2E2E2E2E2E2E2E2E2E2E2E2E2E2E2E2E2E2E2E2E2E2E2E2E2E2E2E2E2E2E2E2E2E2E2E2E2E2E2E2E2E2E2E2E2E2E2E2E2E2E2E2E2E2E2E2E2E2E2E2E2E2E2E2E2F5E2ECE236F5E2E2ECF5E2E2E2E2ECE2E2E2E2E2E2E2E2E2E2E2E2E2E2E2E2E2E2E2E2E2E2E2
310
E2E2E2E2E2E2E2E2E2E2E2E2E2E2E2E2E2E2E2E2E2E2E2E2E2E2E2E2E2E2E2E2E2E2E2E2E2E2E2E2E2E2E2E2E2E2E2E2E2E2E2E2E2E2E2E2E2E2E2E2E2E2F5E2ECE200F5E2E2ECF5E2E2E2E2ECE2E2E2E2E2E2E2E2E2E2E2E2E2E2E2E2E2E2E2E2E2E2E2E2E2E2E2E2E2E2E2E2E2E2E2E2E2E2E2E2E2E2E2E2E2E2E2E2E2E2
310
E2E2E2E2E2E2E2E2E2E2E2E2E2E2E2E2E2E2E2E2E2E2E2E2E2E2E2E2E2E2E2E2E2E2E2F5E2ECE236F5E2E2ECF5E2E2E2E2ECE2E2E2E2E2E2E2E2E2E2E2E2E2E2E2E2E2E2E2E2E2E2E2E2E2E2E2E2E2E2E2E2E2E2E2BEBEBEBEBEBEBEBEBEBEBEBEBEBEBEE2E2E2E2E2E2E2E2E2E2E2E2E2E2E2E2E2E2E2E2E2E2E2E2E2E2E2
310
E2E2E2E2E2E2E2E2F5E2ECE200F5E2E2ECF5E2E2E2E2ECE2E2E2E2E2E2E2E2E2E2E2E2E2E2E2E2E2E2E2E2E2E2E2E2E2E2E2E2E2E2E2E2E2E2E2BEBEBEBEBEBEBEBEBEBEBEBEBEBEBEE2E2E2E2E2E2E2E2E2E2E2E2E2E2E2E2E2E2E2E2E2E2E2E2E2E2E2E2E2E2E2E2E2E2E2F5E2ECE236F5E2E2ECF5E2E2E2E2ECE2E2E2E2
310
E2E2E2E2E2E2E2E2E2E2E2E2E2E2E2E2E2E2E2E2E2E2E2E2E2E2E2E2E2E2E2E2E2E2E2E2E2E2E2E2E2E2E2E2E2E2E2E2E2E2E2E2E2E2E2E2E2E2E2E2E2E2E2E2E2E2E2E2E2E2E2E2E2E2E2E2E2E2E2E2E2F5E2ECE200F5E2E2ECF5E2E2E2E2ECE2E2E2E2E2E2E2E2E2E2E2E2E2E2E2E2E2E2E2E2E2E2E2E2E2E2E2E2E2E2E2
310
E2E2E2E2E2E2E2E2E2E2E2E2E2E2E2E2E2E2E2E2E2E2E2E2E2E2E2E2E2E2E2E2E2E2E2E2E2E2E2E2E2E2E2E2E2E2E2E2E2E2E2E2E2E2F5E2ECE236F5E2E2ECF5F5F5F5F5ECECECECECECECECECECECECECECECECECECECECECECECECECECECECECECECECECECECECECECECECECECECECECECECECECECECECECECECECECECEC
310
ECECECECECECECECECECECECECECECECECECECECECECECECECECECECECECE200F5E2E2ECE2E2E2E2E2E2E2E2E2E2E2E2E2E2E2E2E2E2E2E2E2E2E2E2E2E2E2E2E2E2E2E2E2E2E2E2E2E2E2E2E2E2E2E2E2E2E2E2E2E2E2E2E2E2E2E2E2E2E2E2E2E2E2E2E2E2E2E2E2E2E2E2E2E2E2E2E2E2E2E2E2E2E2E2E2E2E2E2E2E2E2
310
E2E2E2E236F5E2E2ECE2E2E2E2E2E2E2E2E2E2E2E2E2E2E2E2E2E2E2E2E2E2E2E2E2E2E2E2E2E2E2E2E2E2E2E2E2E2E2E2E2E2E2E2E2E2E2E2E2E2E2E2E2E2E2E2E2E2E2E2E2E2E2E2E2E2E2E2E2E2E2E2E2E2E2E2E2E2E2E2E2E2E2E2E2E2E2E2E2E2E2E2E2E2E200F5F5F5ECF5F5F5F5F5F5F5F5F5F5F5F5F5F5F5F5F5F5
310
F5F5F5F5F5F5F5F5F5F5F5F5F5F5F5F5F5F5F5F5F5F5F5F5F5F5F5F5F5F5F5F5F5F5F5F5F5F5F5F5F5F5F5F5F5F5F5F5F5F5F5F5F5F5F5F5F5F5F5F5F5F5F5F5F5F5F5F5F5F5F5F5F5F5F5F5F536
  0
XRECORD
  5
3C8
102
{ACAD_REACTORS
330
3C7
102
}
330
3C7
100
AcDbXrecord
280
     1
102
MATERIAL
148
0.0
149
0.0
149
0.0
 93
        0
 94
       63
282
     0
 72
     1
 77
     1
171
     1
175
     1
179
     1
273
     0
  0
XRECORD
  5
3C6
102
{ACAD_REACTORS
330
3C5
102
}
330
3C5
100
AcDbXrecord
280
     1
102
MATERIAL
148
0.0
149
0.0
149
0.0
 93
        0
 94
       63
282
     0
 72
     1
 77
     1
171
     1
175
     1
179
     1
273
     0
  0
XRECORD
  5
3C1
102
{ACAD_REACTORS
330
3C0
102
}
330
3C0
100
AcDbXrecord
280
     1
102
MATERIAL
148
0.0
149
0.0
149
0.0
 93
        0
 94
       63
282
     0
 72
     1
 77
     1
171
     1
175
     1
179
     1
273
     0
  0
CELLSTYLEMAP
  5
3BD
102
{ACAD_REACTORS
330
64
102
}
330
64
100
AcDbCellStyleMap
 90
        3
300
CELLSTYLE
  1
TABLEFORMAT_BEGIN
 90
        5
170
     1
 91
        0
 92
    32768
 62
   257
 93
        1
300
CONTENTFORMAT
  1
CONTENTFORMAT_BEGIN
 90
        0
 91
        0
 92
        4
 93
        0
300

 40
0.0
140
1.0
 94
        5
 62
     0
340
21
144
0.25
309
CONTENTFORMAT_END
171
     1
301
MARGIN
  1
CELLMARGIN_BEGIN
 40
0.06
 40
0.06
 40
0.06
 40
0.06
 40
0.18
 40
0.18
309
CELLMARGIN_END
 94
        6
 95
        1
302
GRIDFORMAT
  1
GRIDFORMAT_BEGIN
 90
        0
 91
        1
 62
     0
 92
       -2
340
0
 93
        0
 40
0.045
309
GRIDFORMAT_END
 95
        2
302
GRIDFORMAT
  1
GRIDFORMAT_BEGIN
 90
        0
 91
        1
 62
     0
 92
       -2
340
0
 93
        0
 40
0.045
309
GRIDFORMAT_END
 95
        4
302
GRIDFORMAT
  1
GRIDFORMAT_BEGIN
 90
        0
 91
        1
 62
     0
 92
       -2
340
0
 93
        0
 40
0.045
309
GRIDFORMAT_END
 95
        8
302
GRIDFORMAT
  1
GRIDFORMAT_BEGIN
 90
        0
 91
        1
 62
     0
 92
       -2
340
0
 93
        0
 40
0.045
309
GRIDFORMAT_END
 95
       16
302
GRIDFORMAT
  1
GRIDFORMAT_BEGIN
 90
        0
 91
        1
 62
     0
 92
       -2
340
0
 93
        0
 40
0.045
309
GRIDFORMAT_END
 95
       32
302
GRIDFORMAT
  1
GRIDFORMAT_BEGIN
 90
        0
 91
        1
 62
     0
 92
       -2
340
0
 93
        0
 40
0.045
309
GRIDFORMAT_END
309
TABLEFORMAT_END
  1
CELLSTYLE_BEGIN
 90
        1
 91
        1
300
_TITLE
309
CELLSTYLE_END
300
CELLSTYLE
  1
TABLEFORMAT_BEGIN
 90
        5
170
     1
 91
        0
 92
        0
 62
   257
 93
        1
300
CONTENTFORMAT
  1
CONTENTFORMAT_BEGIN
 90
        0
 91
        0
 92
        4
 93
        0
300

 40
0.0
140
1.0
 94
        5
 62
     0
340
21
144
0.18
309
CONTENTFORMAT_END
171
     1
301
MARGIN
  1
CELLMARGIN_BEGIN
 40
0.06
 40
0.06
 40
0.06
 40
0.06
 40
0.18
 40
0.18
309
CELLMARGIN_END
 94
        6
 95
        1
302
GRIDFORMAT
  1
GRIDFORMAT_BEGIN
 90
        0
 91
        1
 62
     0
 92
       -2
340
0
 93
        0
 40
0.045
309
GRIDFORMAT_END
 95
        2
302
GRIDFORMAT
  1
GRIDFORMAT_BEGIN
 90
        0
 91
        1
 62
     0
 92
       -2
340
0
 93
        0
 40
0.045
309
GRIDFORMAT_END
 95
        4
302
GRIDFORMAT
  1
GRIDFORMAT_BEGIN
 90
        0
 91
        1
 62
     0
 92
       -2
340
0
 93
        0
 40
0.045
309
GRIDFORMAT_END
 95
        8
302
GRIDFORMAT
  1
GRIDFORMAT_BEGIN
 90
        0
 91
        1
 62
     0
 92
       -2
340
0
 93
        0
 40
0.045
309
GRIDFORMAT_END
 95
       16
302
GRIDFORMAT
  1
GRIDFORMAT_BEGIN
 90
        0
 91
        1
 62
     0
 92
       -2
340
0
 93
        0
 40
0.045
309
GRIDFORMAT_END
 95
       32
302
GRIDFORMAT
  1
GRIDFORMAT_BEGIN
 90
        0
 91
        1
 62
     0
 92
       -2
340
0
 93
        0
 40
0.045
309
GRIDFORMAT_END
309
TABLEFORMAT_END
  1
CELLSTYLE_BEGIN
 90
        2
 91
        1
300
_HEADER
309
CELLSTYLE_END
300
CELLSTYLE
  1
TABLEFORMAT_BEGIN
 90
        5
170
     1
 91
        0
 92
        0
 62
   257
 93
        1
300
CONTENTFORMAT
  1
CONTENTFORMAT_BEGIN
 90
        0
 91
        0
 92
        4
 93
        0
300

 40
0.0
140
1.0
 94
        2
 62
     0
340
21
144
0.18
309
CONTENTFORMAT_END
171
     1
301
MARGIN
  1
CELLMARGIN_BEGIN
 40
0.06
 40
0.06
 40
0.06
 40
0.06
 40
0.18
 40
0.18
309
CELLMARGIN_END
 94
        6
 95
        1
302
GRIDFORMAT
  1
GRIDFORMAT_BEGIN
 90
        0
 91
        1
 62
     0
 92
       -2
340
0
 93
        0
 40
0.045
309
GRIDFORMAT_END
 95
        2
302
GRIDFORMAT
  1
GRIDFORMAT_BEGIN
 90
        0
 91
        1
 62
     0
 92
       -2
340
0
 93
        0
 40
0.045
309
GRIDFORMAT_END
 95
        4
302
GRIDFORMAT
  1
GRIDFORMAT_BEGIN
 90
        0
 91
        1
 62
     0
 92
       -2
340
0
 93
        0
 40
0.045
309
GRIDFORMAT_END
 95
        8
302
GRIDFORMAT
  1
GRIDFORMAT_BEGIN
 90
        0
 91
        1
 62
     0
 92
       -2
340
0
 93
        0
 40
0.045
309
GRIDFORMAT_END
 95
       16
302
GRIDFORMAT
  1
GRIDFORMAT_BEGIN
 90
        0
 91
        1
 62
     0
 92
       -2
340
0
 93
        0
 40
0.045
309
GRIDFORMAT_END
 95
       32
302
GRIDFORMAT
  1
GRIDFORMAT_BEGIN
 90
        0
 91
        1
 62
     0
 92
       -2
340
0
 93
        0
 40
0.045
309
GRIDFORMAT_END
309
TABLEFORMAT_END
  1
CELLSTYLE_BEGIN
 90
        3
 91
        2
300
_DATA
309
CELLSTYLE_END
  0
XRECORD
  5
3C9
102
{ACAD_REACTORS
330
64
102
}
330
64
100
AcDbXrecord
280
     1
102
ACAD_ROUNDTRIP_PRE2007_TABLESTYLE
 90
        4
 91
        0
  1

 92
        4
 93
        0
  2

 94
        4
 95
        0
  3

  0
ENDSEC
  0
EOF
