  0
SECTION
  2
HEADER
  9
$ACADVER
  1
AC1015
  9
$ACADMAINTVER
 70
    18
  9
$DWGCODEPAGE
  3
ANSI_1250
  9
$INSBASE
 10
0.0
 20
0.0
 30
0.0
  9
$EXTMIN
 10
1.000000000000000E+20
 20
1.000000000000000E+20
 30
1.000000000000000E+20
  9
$EXTMAX
 10
0.0
 20
0.0
 30
0.0
  9
$LIMMIN
 10
0.0
 20
0.0
  9
$LIMMAX
 10
12.0
 20
9.0
  9
$ORTHOMODE
 70
     1
  9
$REGENMODE
 70
     1
  9
$FILLMODE
 70
     1
  9
$QTEXTMODE
 70
     0
  9
$MIRRTEXT
 70
     0
  9
$LTSCALE
 40
50.0
  9
$ATTMODE
 70
     1
  9
$TEXTSIZE
 40
15.0
  9
$TRACEWID
 40
0.05
  9
$TEXTSTYLE
  7
ROMANS
  9
$CLAYER
  8
0
  9
$CELTYPE
  6
ByLayer
  9
$CECOLOR
 62
   256
  9
$CELTSCALE
 40
1.0
  9
$DISPSILH
 70
     0
  9
$DIMSCALE
 40
1.0
  9
$DIMASZ
 40
30.0
  9
$DIMEXO
 40
43.0
  9
$DIMDLI
 40
0.0
  9
$DIMRND
 40
0.5
  9
$DIMDLE
 40
12.0
  9
$DIMEXE
 40
13.0
  9
$DIMTP
 40
0.0
  9
$DIMTM
 40
0.0
  9
$DIMTXT
 40
80.0
  9
$DIMCEN
 40
0.0
  9
$DIMTSZ
 40
0.0
  9
$DIMTOL
 70
     0
  9
$DIMLIM
 70
     0
  9
$DIMTIH
 70
     0
  9
$DIMTOH
 70
     0
  9
$DIMSE1
 70
     1
  9
$DIMSE2
 70
     1
  9
$DIMTAD
 70
     0
  9
$DIMZIN
 70
    12
  9
$DIMBLK
  1
B-DIM
  9
$DIMASO
 70
     1
  9
$DIMSHO
 70
     1
  9
$DIMPOST
  1

  9
$DIMAPOST
  1

  9
$DIMALT
 70
     0
  9
$DIMALTD
 70
     2
  9
$DIMALTF
 40
25.4
  9
$DIMLFAC
 40
1.0
  9
$DIMTOFL
 70
     1
  9
$DIMTVP
 40
1.0
  9
$DIMTIX
 70
     1
  9
$DIMSOXD
 70
     0
  9
$DIMSAH
 70
     0
  9
$DIMBLK1
  1

  9
$DIMBLK2
  1

  9
$DIMSTYLE
  2
500
  9
$DIMCLRD
 70
     1
  9
$DIMCLRE
 70
     1
  9
$DIMCLRT
 70
   140
  9
$DIMTFAC
 40
1.0
  9
$DIMGAP
 40
0.0
  9
$DIMJUST
 70
     0
  9
$DIMSD1
 70
     0
  9
$DIMSD2
 70
     0
  9
$DIMTOLJ
 70
     1
  9
$DIMTZIN
 70
     0
  9
$DIMALTZ
 70
     0
  9
$DIMALTTZ
 70
     0
  9
$DIMUPT
 70
     0
  9
$DIMDEC
 70
     1
  9
$DIMTDEC
 70
     1
  9
$DIMALTU
 70
     2
  9
$DIMALTTD
 70
     2
  9
$DIMTXSTY
  7
ROMANS
  9
$DIMAUNIT
 70
     0
  9
$DIMADEC
 70
     0
  9
$DIMALTRND
 40
0.0
  9
$DIMAZIN
 70
     0
  9
$DIMDSEP
 70
    46
  9
$DIMATFIT
 70
     3
  9
$DIMFRAC
 70
     0
  9
$DIMLDRBLK
  1
B-DIM
  9
$DIMLUNIT
 70
     2
  9
$DIMLWD
 70
    -2
  9
$DIMLWE
 70
    -2
  9
$DIMTMOVE
 70
     2
  9
$LUNITS
 70
     2
  9
$LUPREC
 70
     2
  9
$SKETCHINC
 40
0.1
  9
$FILLETRAD
 40
0.0
  9
$AUNITS
 70
     0
  9
$AUPREC
 70
     2
  9
$MENU
  1
.
  9
$ELEVATION
 40
0.0
  9
$PELEVATION
 40
0.0
  9
$THICKNESS
 40
0.0
  9
$LIMCHECK
 70
     0
  9
$CHAMFERA
 40
0.0
  9
$CHAMFERB
 40
0.0
  9
$CHAMFERC
 40
0.0
  9
$CHAMFERD
 40
0.0
  9
$SKPOLY
 70
     0
  9
$TDCREATE
 40
2453080.682933079
  9
$TDUCREATE
 40
2453080.641266412
  9
$TDUPDATE
 40
2455146.374252384
  9
$TDUUPDATE
 40
2455146.332585718
  9
$TDINDWG
 40
18.0751712269
  9
$TDUSRTIMER
 40
18.0751710417
  9
$USRTIMER
 70
     1
  9
$ANGBASE
 50
0.0
  9
$ANGDIR
 70
     0
  9
$PDMODE
 70
     0
  9
$PDSIZE
 40
0.0
  9
$PLINEWID
 40
0.0
  9
$SPLFRAME
 70
     0
  9
$SPLINETYPE
 70
     6
  9
$SPLINESEGS
 70
     8
  9
$HANDSEED
  5
28C
  9
$SURFTAB1
 70
     6
  9
$SURFTAB2
 70
     6
  9
$SURFTYPE
 70
     6
  9
$SURFU
 70
     6
  9
$SURFV
 70
     6
  9
$UCSBASE
  2

  9
$UCSNAME
  2

  9
$UCSORG
 10
0.0
 20
0.0
 30
0.0
  9
$UCSXDIR
 10
1.0
 20
0.0
 30
0.0
  9
$UCSYDIR
 10
0.0
 20
1.0
 30
0.0
  9
$UCSORTHOREF
  2

  9
$UCSORTHOVIEW
 70
     0
  9
$UCSORGTOP
 10
0.0
 20
0.0
 30
0.0
  9
$UCSORGBOTTOM
 10
0.0
 20
0.0
 30
0.0
  9
$UCSORGLEFT
 10
0.0
 20
0.0
 30
0.0
  9
$UCSORGRIGHT
 10
0.0
 20
0.0
 30
0.0
  9
$UCSORGFRONT
 10
0.0
 20
0.0
 30
0.0
  9
$UCSORGBACK
 10
0.0
 20
0.0
 30
0.0
  9
$PUCSBASE
  2

  9
$PUCSNAME
  2

  9
$PUCSORG
 10
0.0
 20
0.0
 30
0.0
  9
$PUCSXDIR
 10
1.0
 20
0.0
 30
0.0
  9
$PUCSYDIR
 10
0.0
 20
1.0
 30
0.0
  9
$PUCSORTHOREF
  2

  9
$PUCSORTHOVIEW
 70
     0
  9
$PUCSORGTOP
 10
0.0
 20
0.0
 30
0.0
  9
$PUCSORGBOTTOM
 10
0.0
 20
0.0
 30
0.0
  9
$PUCSORGLEFT
 10
0.0
 20
0.0
 30
0.0
  9
$PUCSORGRIGHT
 10
0.0
 20
0.0
 30
0.0
  9
$PUCSORGFRONT
 10
0.0
 20
0.0
 30
0.0
  9
$PUCSORGBACK
 10
0.0
 20
0.0
 30
0.0
  9
$USERI1
 70
     1
  9
$USERI2
 70
     1
  9
$USERI3
 70
     0
  9
$USERI4
 70
     0
  9
$USERI5
 70
     1
  9
$USERR1
 40
0.0
  9
$USERR2
 40
0.0
  9
$USERR3
 40
0.0
  9
$USERR4
 40
0.0
  9
$USERR5
 40
0.0
  9
$WORLDVIEW
 70
     1
  9
$SHADEDGE
 70
     3
  9
$SHADEDIF
 70
    70
  9
$TILEMODE
 70
     1
  9
$MAXACTVP
 70
    64
  9
$PINSBASE
 10
0.0
 20
0.0
 30
0.0
  9
$PLIMCHECK
 70
     0
  9
$PEXTMIN
 10
-251.5287312121618
 20
-115.224690981242
 30
0.0
  9
$PEXTMAX
 10
2131.819679794531
 20
2990.887003667691
 30
0.0
  9
$PLIMMIN
 10
-68.87443319758677
 20
-50.00765436259371
  9
$PLIMMAX
 10
2030.858843169601
 20
2919.252294367875
  9
$UNITMODE
 70
     0
  9
$VISRETAIN
 70
     1
  9
$PLINEGEN
 70
     0
  9
$PSLTSCALE
 70
     0
  9
$TREEDEPTH
 70
  3020
  9
$CMLSTYLE
  2
Standard
  9
$CMLJUST
 70
     0
  9
$CMLSCALE
 40
1.0
  9
$PROXYGRAPHICS
 70
     1
  9
$MEASUREMENT
 70
     0
  9
$CELWEIGHT
370
    -1
  9
$ENDCAPS
280
     0
  9
$JOINSTYLE
280
     0
  9
$LWDISPLAY
290
     0
  9
$INSUNITS
 70
     5
  9
$HYPERLINKBASE
  1

  9
$STYLESHEET
  1

  9
$XEDIT
290
     1
  9
$CEPSNTYPE
380
     0
  9
$PSTYLEMODE
290
     1
  9
$FINGERPRINTGUID
  2
{5EF70EFE-4474-484D-8EED-FBC78DD2535F}
  9
$VERSIONGUID
  2
{A5B7BFAD-42A7-4EA7-A85B-EC1F7463D176}
  9
$EXTNAMES
290
     1
  9
$PSVPSCALE
 40
0.0
  9
$OLESTARTUP
290
     0
  0
ENDSEC
  0
SECTION
  2
CLASSES
  0
CLASS
  1
ACDBDICTIONARYWDFLT
  2
AcDbDictionaryWithDefault
  3
ObjectDBX Classes
 90
        0
280
     0
281
     0
  0
CLASS
  1
ACDBPLACEHOLDER
  2
AcDbPlaceHolder
  3
ObjectDBX Classes
 90
        0
280
     0
281
     0
  0
CLASS
  1
LAYOUT
  2
AcDbLayout
  3
ObjectDBX Classes
 90
        0
280
     0
281
     0
  0
CLASS
  1
DICTIONARYVAR
  2
AcDbDictionaryVar
  3
ObjectDBX Classes
 90
        0
280
     0
281
     0
  0
CLASS
  1
AEC_NOTIFICATION_TRACKER
  2
AecDbNotificationTracker
  3
AecBase50|Product Desc: Autodesk Architectural Desktop 2007 |Company: Autodesk,Inc. |WEB Address: www.autodesk.com
 90
    32897
280
     0
281
     0
  0
CLASS
  1
AEC_DISP_REP_2D_SECTION
  2
AecDbDispRep2dSection
  3
AecBase50|Product Desc: Autodesk Architectural Desktop 2007 |Company: Autodesk,Inc. |WEB Address: www.autodesk.com
 90
    32897
280
     0
281
     0
  0
CLASS
  1
AEC_VARS_DWG_SETUP
  2
AecDbVarsDwgSetup
  3
AecBase50|Product Desc: Autodesk Architectural Desktop 2007 |Company: Autodesk,Inc. |WEB Address: www.autodesk.com
 90
    32897
280
     0
281
     0
  0
CLASS
  1
AEC_DISP_PROPS_2D_SECTION
  2
AecDbDispProps2dSection
  3
AecBase50|Product Desc: Autodesk Architectural Desktop 2007 |Company: Autodesk,Inc. |WEB Address: www.autodesk.com
 90
    32897
280
     0
281
     0
  0
CLASS
  1
AEC_DISP_REP_ANCHOR
  2
AecDbDispRepAnchor
  3
AecBase50|Product Desc: Autodesk Architectural Desktop 2007 |Company: Autodesk,Inc. |WEB Address: www.autodesk.com
 90
    32897
280
     0
281
     0
  0
CLASS
  1
AEC_DISP_REP_ANCHOR_ENT_TO_NODE
  2
AecDbDispRepAnchorEntToNode
  3
AecBaseEx50|Product Desc: Autodesk Architectural Desktop 2007 |Company: Autodesk,Inc. |WEB Address: www.autodesk.com
 90
    32897
280
     0
281
     0
  0
CLASS
  1
AEC_DISP_PROPS_ENT
  2
AecDbDispPropsEnt
  3
AecBase50|Product Desc: Autodesk Architectural Desktop 2007 |Company: Autodesk,Inc. |WEB Address: www.autodesk.com
 90
    32897
280
     0
281
     0
  0
CLASS
  1
AEC_DISP_REP_CAMERA
  2
AecDbDispRepCamera
  3
AecBase50|Product Desc: Autodesk Architectural Desktop 2007 |Company: Autodesk,Inc. |WEB Address: www.autodesk.com
 90
    32897
280
     0
281
     0
  0
CLASS
  1
AEC_DISP_PROPS_CAMERA
  2
AecDbDispPropsCamera
  3
AecBase50|Product Desc: Autodesk Architectural Desktop 2007 |Company: Autodesk,Inc. |WEB Address: www.autodesk.com
 90
    32897
280
     0
281
     0
  0
CLASS
  1
AEC_DISP_REP_CLIP_VOLUME_MODEL
  2
AecDbDispRepClipVolModel
  3
AecBase50|Product Desc: Autodesk Architectural Desktop 2007 |Company: Autodesk,Inc. |WEB Address: www.autodesk.com
 90
    32897
280
     0
281
     0
  0
CLASS
  1
AEC_DISP_PROPS_CLIP_VOLUME
  2
AecDbDispPropsClipVol
  3
AecBase50|Product Desc: Autodesk Architectural Desktop 2007 |Company: Autodesk,Inc. |WEB Address: www.autodesk.com
 90
    32897
280
     0
281
     0
  0
CLASS
  1
AEC_DISP_REP_CLIP_VOLUME_PLAN
  2
AecDbDispRepClipVolPlan
  3
AecBase50|Product Desc: Autodesk Architectural Desktop 2007 |Company: Autodesk,Inc. |WEB Address: www.autodesk.com
 90
    32897
280
     0
281
     0
  0
CLASS
  1
AEC_DISP_REP_CLIP_VOLUME_RESULT
  2
AecDbDispRepClipVolResult
  3
AecBase50|Product Desc: Autodesk Architectural Desktop 2007 |Company: Autodesk,Inc. |WEB Address: www.autodesk.com
 90
    32897
280
     0
281
     0
  0
CLASS
  1
AEC_DISP_REP_CLIP_VOLUME_RESULT_SUBDIV
  2
AecDbDispRepClipVolResSubDiv
  3
AecBase50|Product Desc: Autodesk Architectural Desktop 2007 |Company: Autodesk,Inc. |WEB Address: www.autodesk.com
 90
    32897
280
     0
281
     0
  0
CLASS
  1
AEC_DISP_PROPS_CLIP_VOLUME_RESULT
  2
AecDbDispPropsClipVolResSubDiv
  3
AecBase50|Product Desc: Autodesk Architectural Desktop 2007 |Company: Autodesk,Inc. |WEB Address: www.autodesk.com
 90
    32897
280
     0
281
     0
  0
CLASS
  1
AEC_DISP_REP_EDITINPLACEPROFILE
  2
AecDbDispRepEditInPlaceProfile
  3
AecBase50|Product Desc: Autodesk Architectural Desktop 2007 |Company: Autodesk,Inc. |WEB Address: www.autodesk.com
 90
    32897
280
     0
281
     0
  0
CLASS
  1
AEC_DISP_PROPS_EDITINPLACEPROFILE_MODEL
  2
AecDbDispPropsEditInPlaceProfile
  3
AecBase50|Product Desc: Autodesk Architectural Desktop 2007 |Company: Autodesk,Inc. |WEB Address: www.autodesk.com
 90
    32897
280
     0
281
     0
  0
CLASS
  1
AEC_DISP_REP_ENT_REF
  2
AecDbDispRepEntRef
  3
AecBase50|Product Desc: Autodesk Architectural Desktop 2007 |Company: Autodesk,Inc. |WEB Address: www.autodesk.com
 90
    32897
280
     0
281
     0
  0
CLASS
  1
AEC_DISP_PROPS_ENT_REF
  2
AecDbDispPropsEntRef
  3
AecBase50|Product Desc: Autodesk Architectural Desktop 2007 |Company: Autodesk,Inc. |WEB Address: www.autodesk.com
 90
    32897
280
     0
281
     0
  0
CLASS
  1
AEC_DISP_REP_LAYOUT_CURVE
  2
AecDbDispRepLayoutCurve
  3
AecBase50|Product Desc: Autodesk Architectural Desktop 2007 |Company: Autodesk,Inc. |WEB Address: www.autodesk.com
 90
    32897
280
     0
281
     0
  0
CLASS
  1
AEC_DISP_PROPS_LAYOUT_CURVE
  2
AecDbDispPropsLayoutCurve
  3
AecBase50|Product Desc: Autodesk Architectural Desktop 2007 |Company: Autodesk,Inc. |WEB Address: www.autodesk.com
 90
    32897
280
     0
281
     0
  0
CLASS
  1
AEC_DISP_REP_LAYOUT_GRID2D
  2
AecDbDispRepLayoutGrid2d
  3
AecBase50|Product Desc: Autodesk Architectural Desktop 2007 |Company: Autodesk,Inc. |WEB Address: www.autodesk.com
 90
    32897
280
     0
281
     0
  0
CLASS
  1
AEC_DISP_PROPS_LAYOUT_GRID2D
  2
AecDbDispPropsLayoutGrid2d
  3
AecBase50|Product Desc: Autodesk Architectural Desktop 2007 |Company: Autodesk,Inc. |WEB Address: www.autodesk.com
 90
    32897
280
     0
281
     0
  0
CLASS
  1
AEC_DISP_REP_LAYOUT_GRID3D
  2
AecDbDispRepLayoutGrid3d
  3
AecBase50|Product Desc: Autodesk Architectural Desktop 2007 |Company: Autodesk,Inc. |WEB Address: www.autodesk.com
 90
    32897
280
     0
281
     0
  0
CLASS
  1
AEC_DISP_PROPS_LAYOUT_GRID3D
  2
AecDbDispPropsLayoutGrid3d
  3
AecBase50|Product Desc: Autodesk Architectural Desktop 2007 |Company: Autodesk,Inc. |WEB Address: www.autodesk.com
 90
    32897
280
     0
281
     0
  0
CLASS
  1
AEC_DISP_REP_MASKBLOCK_REF
  2
AecDbDispRepMaskBlockRef
  3
AecBase50|Product Desc: Autodesk Architectural Desktop 2007 |Company: Autodesk,Inc. |WEB Address: www.autodesk.com
 90
    32897
280
     0
281
     0
  0
CLASS
  1
AEC_DISP_PROPS_MASKBLOCK
  2
AecDbDispPropsMaskBlock
  3
AecBase50|Product Desc: Autodesk Architectural Desktop 2007 |Company: Autodesk,Inc. |WEB Address: www.autodesk.com
 90
    32897
280
     0
281
     0
  0
CLASS
  1
AEC_DISP_REP_MASS_ELEM_MODEL
  2
AecDbDispRepMassElemModel
  3
AecBaseEx50|Product Desc: Autodesk Architectural Desktop 2007 |Company: Autodesk,Inc. |WEB Address: www.autodesk.com
 90
    32897
280
     0
281
     0
  0
CLASS
  1
AEC_DISP_PROPS_MASS_ELEM_MODEL
  2
AecDbDispPropsMassElem
  3
AecBaseEx50|Product Desc: Autodesk Architectural Desktop 2007 |Company: Autodesk,Inc. |WEB Address: www.autodesk.com
 90
    32897
280
     0
281
     0
  0
CLASS
  1
AEC_DISP_REP_MASS_ELEM_SCHEM
  2
AecDbDispRepMassElemSchem
  3
AecBaseEx50|Product Desc: Autodesk Architectural Desktop 2007 |Company: Autodesk,Inc. |WEB Address: www.autodesk.com
 90
    32897
280
     0
281
     0
  0
CLASS
  1
AEC_DISP_REP_MASS_GROUP_MODEL
  2
AecDbDispRepMassGroupModel
  3
AecBaseEx50|Product Desc: Autodesk Architectural Desktop 2007 |Company: Autodesk,Inc. |WEB Address: www.autodesk.com
 90
    32897
280
     0
281
     0
  0
CLASS
  1
AEC_DISP_PROPS_MASS_GROUP
  2
AecDbDispPropsMassGroup
  3
AecBaseEx50|Product Desc: Autodesk Architectural Desktop 2007 |Company: Autodesk,Inc. |WEB Address: www.autodesk.com
 90
    32897
280
     0
281
     0
  0
CLASS
  1
AEC_DISP_REP_MASS_GROUP_PLAN
  2
AecDbDispRepMassGroupPlan
  3
AecBaseEx50|Product Desc: Autodesk Architectural Desktop 2007 |Company: Autodesk,Inc. |WEB Address: www.autodesk.com
 90
    32897
280
     0
281
     0
  0
CLASS
  1
AEC_DISP_REP_MATERIAL
  2
AecDbDispRepMaterial
  3
AecBase50|Product Desc: Autodesk Architectural Desktop 2007 |Company: Autodesk,Inc. |WEB Address: www.autodesk.com
 90
    32897
280
     0
281
     0
  0
CLASS
  1
AEC_DISP_PROPS_MATERIAL
  2
AecDbDispPropsMaterial
  3
AecBase50|Product Desc: Autodesk Architectural Desktop 2007 |Company: Autodesk,Inc. |WEB Address: www.autodesk.com
 90
    32897
280
     0
281
     0
  0
CLASS
  1
AEC_DISP_REP_MVBLOCK_REF
  2
AecDbDispRepMvBlockRef
  3
AecBase50|Product Desc: Autodesk Architectural Desktop 2007 |Company: Autodesk,Inc. |WEB Address: www.autodesk.com
 90
    32897
280
     0
281
     0
  0
CLASS
  1
AEC_DISP_REP_MVBLOCK_REF_MODEL
  2
AecDbDispRepMvBlockRefModel
  3
AecBase50|Product Desc: Autodesk Architectural Desktop 2007 |Company: Autodesk,Inc. |WEB Address: www.autodesk.com
 90
    32897
280
     0
281
     0
  0
CLASS
  1
AEC_DISP_REP_POLYGON_MODEL
  2
AecDbDispRepPolygonModel
  3
AecBaseEx50|Product Desc: Autodesk Architectural Desktop 2007 |Company: Autodesk,Inc. |WEB Address: www.autodesk.com
 90
    32897
280
     0
281
     0
  0
CLASS
  1
AEC_DISP_PROPS_POLYGON_MODEL
  2
AecDbDispPropsPolygonModel
  3
AecBaseEx50|Product Desc: Autodesk Architectural Desktop 2007 |Company: Autodesk,Inc. |WEB Address: www.autodesk.com
 90
    32897
280
     0
281
     0
  0
CLASS
  1
AEC_DISP_REP_POLYGON_TRUECOLOUR
  2
AecDbDispRepPolygonTrueColour
  3
AecBaseEx50|Product Desc: Autodesk Architectural Desktop 2007 |Company: Autodesk,Inc. |WEB Address: www.autodesk.com
 90
    32897
280
     0
281
     0
  0
CLASS
  1
AEC_DISP_PROPS_POLYGON_TRUECOLOUR
  2
AecDbDispPropsPolygonTrueColour
  3
AecBaseEx50|Product Desc: Autodesk Architectural Desktop 2007 |Company: Autodesk,Inc. |WEB Address: www.autodesk.com
 90
    32897
280
     0
281
     0
  0
CLASS
  1
AEC_DISP_REP_SLICE
  2
AecDbDispRepSlice
  3
AecBase50|Product Desc: Autodesk Architectural Desktop 2007 |Company: Autodesk,Inc. |WEB Address: www.autodesk.com
 90
    32897
280
     0
281
     0
  0
CLASS
  1
AEC_DISP_PROPS_SLICE
  2
AecDbDispPropsSlice
  3
AecBase50|Product Desc: Autodesk Architectural Desktop 2007 |Company: Autodesk,Inc. |WEB Address: www.autodesk.com
 90
    32897
280
     0
281
     0
  0
CLASS
  1
AEC_DISP_REP_ANCHOR_TAG_TO_ENT
  2
AecDbDispRepAnchorTagToEnt
  3
AecScheduleData50|Product Desc: Autodesk Architectural Desktop 2007 |Company: Autodesk,Inc. |WEB Address: www.autodesk.com
 90
    32897
280
     0
281
     0
  0
CLASS
  1
AEC_DISP_REP_BDG_ELEVLINE_MODEL
  2
AecDbDispRepBdgElevLineModel
  3
AecArchBase50|Product Desc: Autodesk Architectural Desktop 2007 |Company: Autodesk,Inc. |WEB Address: www.autodesk.com
 90
    32897
280
     0
281
     0
  0
CLASS
  1
AEC_DISP_REP_BDG_SECTIONLINE_PLAN
  2
AecDbDispRepBdgElevLinePlan
  3
AecArchBase50|Product Desc: Autodesk Architectural Desktop 2007 |Company: Autodesk,Inc. |WEB Address: www.autodesk.com
 90
    32897
280
     0
281
     0
  0
CLASS
  1
AEC_DISP_REP_BDG_ELEVLINE_RCP
  2
AecDbDispRepBdgElevLineRcp
  3
AecArchBase50|Product Desc: Autodesk Architectural Desktop 2007 |Company: Autodesk,Inc. |WEB Address: www.autodesk.com
 90
    32897
280
     0
281
     0
  0
CLASS
  1
AEC_DISP_REP_BDG_SECTIONLINE_MODEL
  2
AecDbDispRepBdgSectionLineModel
  3
AecArchBase50|Product Desc: Autodesk Architectural Desktop 2007 |Company: Autodesk,Inc. |WEB Address: www.autodesk.com
 90
    32897
280
     0
281
     0
  0
CLASS
  1
AEC_DISP_REP_BDG_SECTIONLINE_PLAN
  2
AecDbDispRepBdgSectionLinePlan
  3
AecArchBase50|Product Desc: Autodesk Architectural Desktop 2007 |Company: Autodesk,Inc. |WEB Address: www.autodesk.com
 90
    32897
280
     0
281
     0
  0
CLASS
  1
AEC_DISP_REP_BDG_SECTIONLINE_RCP
  2
AecDbDispRepBdgSectionLineRcp
  3
AecArchBase50|Product Desc: Autodesk Architectural Desktop 2007 |Company: Autodesk,Inc. |WEB Address: www.autodesk.com
 90
    32897
280
     0
281
     0
  0
CLASS
  1
AEC_DISP_REP_BDG_SECTION_MODEL
  2
AecDbDispRepBdgSectionModel
  3
AecArchBase50|Product Desc: Autodesk Architectural Desktop 2007 |Company: Autodesk,Inc. |WEB Address: www.autodesk.com
 90
    32897
280
     0
281
     0
  0
CLASS
  1
AEC_DISP_REP_BDG_SECTION_SUBDIV
  2
AecDbDispRepBdgSectionSubDiv
  3
AecArchBase50|Product Desc: Autodesk Architectural Desktop 2007 |Company: Autodesk,Inc. |WEB Address: www.autodesk.com
 90
    32897
280
     0
281
     0
  0
CLASS
  1
AEC_DISP_REP_CEILING_GRID
  2
AecDbDispRepCeilingGrid
  3
AecArchBase50|Product Desc: Autodesk Architectural Desktop 2007 |Company: Autodesk,Inc. |WEB Address: www.autodesk.com
 90
    33661
280
     0
281
     0
  0
CLASS
  1
AEC_DISP_REP_CEILING_GRID_MODEL
  2
AecDbDispRepCeilingGridModel
  3
AecArchBase50|Product Desc: Autodesk Architectural Desktop 2007 |Company: Autodesk,Inc. |WEB Address: www.autodesk.com
 90
    32897
280
     0
281
     0
  0
CLASS
  1
AEC_DISP_REP_CEILING_GRID_RCP
  2
AecDbDispRepCeilingGridRcp
  3
AecArchBase50|Product Desc: Autodesk Architectural Desktop 2007 |Company: Autodesk,Inc. |WEB Address: www.autodesk.com
 90
    32897
280
     0
281
     0
  0
CLASS
  1
AEC_DISP_REP_CURTAIN_WALL_LAYOUT_MODEL
  2
AecDbDispRepCurtainWallLayoutModel
  3
AecArchBase50|Product Desc: Autodesk Architectural Desktop 2007 |Company: Autodesk,Inc. |WEB Address: www.autodesk.com
 90
    32897
280
     0
281
     0
  0
CLASS
  1
AEC_DISP_PROPS_GRID_ASSEMBLY_MODEL
  2
AecDbDispPropsGridAssemblyModel
  3
AecArchBase50|Product Desc: Autodesk Architectural Desktop 2007 |Company: Autodesk,Inc. |WEB Address: www.autodesk.com
 90
    32897
280
     0
281
     0
  0
CLASS
  1
AEC_DISP_REP_CURTAIN_WALL_LAYOUT_PLAN
  2
AecDbDispRepCurtainWallLayoutPlan
  3
AecArchBase50|Product Desc: Autodesk Architectural Desktop 2007 |Company: Autodesk,Inc. |WEB Address: www.autodesk.com
 90
    32897
280
     0
281
     0
  0
CLASS
  1
AEC_DISP_PROPS_GRID_ASSEMBLY_PLAN
  2
AecDbDispPropsGridAssemblyPlan
  3
AecArchBase50|Product Desc: Autodesk Architectural Desktop 2007 |Company: Autodesk,Inc. |WEB Address: www.autodesk.com
 90
    32897
280
     0
281
     0
  0
CLASS
  1
AEC_DISP_REP_CURTAIN_WALL_UNIT_MODEL
  2
AecDbDispRepCurtainWallUnitModel
  3
AecArchBase50|Product Desc: Autodesk Architectural Desktop 2007 |Company: Autodesk,Inc. |WEB Address: www.autodesk.com
 90
    32897
280
     0
281
     0
  0
CLASS
  1
AEC_DISP_REP_CURTAIN_WALL_UNIT_PLAN
  2
AecDbDispRepCurtainWallUnitPlan
  3
AecArchBase50|Product Desc: Autodesk Architectural Desktop 2007 |Company: Autodesk,Inc. |WEB Address: www.autodesk.com
 90
    32897
280
     0
281
     0
  0
CLASS
  1
AEC_DISP_REP_DOOR_MODEL
  2
AecDbDispRepDoorModel
  3
AecArchBase50|Product Desc: Autodesk Architectural Desktop 2007 |Company: Autodesk,Inc. |WEB Address: www.autodesk.com
 90
    32897
280
     0
281
     0
  0
CLASS
  1
AEC_DISP_PROPS_DOOR
  2
AecDbDispPropsDoor
  3
AecArchBase50|Product Desc: Autodesk Architectural Desktop 2007 |Company: Autodesk,Inc. |WEB Address: www.autodesk.com
 90
    32897
280
     0
281
     0
  0
CLASS
  1
AEC_DISP_REP_DOOR_ELEV
  2
AecDbDispRepDoorElev
  3
AecArchBase50|Product Desc: Autodesk Architectural Desktop 2007 |Company: Autodesk,Inc. |WEB Address: www.autodesk.com
 90
    32897
280
     0
281
     0
  0
CLASS
  1
AEC_DISP_REP_DOOR_PLAN
  2
AecDbDispRepDoorPlan
  3
AecArchBase50|Product Desc: Autodesk Architectural Desktop 2007 |Company: Autodesk,Inc. |WEB Address: www.autodesk.com
 90
    32897
280
     0
281
     0
  0
CLASS
  1
AEC_DISP_REP_DOOR_NOMINAL
  2
AecDbDispRepDoorNominal
  3
AecArchBase50|Product Desc: Autodesk Architectural Desktop 2007 |Company: Autodesk,Inc. |WEB Address: www.autodesk.com
 90
    32897
280
     0
281
     0
  0
CLASS
  1
AEC_DISP_PROPS_DOOR_NOMINAL
  2
AecDbDispPropsDoorNominal
  3
AecArchBase50|Product Desc: Autodesk Architectural Desktop 2007 |Company: Autodesk,Inc. |WEB Address: www.autodesk.com
 90
    32897
280
     0
281
     0
  0
CLASS
  1
AEC_DISP_REP_DOOR_RCP
  2
AecDbDispRepDoorRcp
  3
AecArchBase50|Product Desc: Autodesk Architectural Desktop 2007 |Company: Autodesk,Inc. |WEB Address: www.autodesk.com
 90
    32897
280
     0
281
     0
  0
CLASS
  1
AEC_DISP_REP_DOOR_THRESHOLD_PLAN
  2
AecDbDispRepDoorThresholdPlan
  3
AecArchBase50|Product Desc: Autodesk Architectural Desktop 2007 |Company: Autodesk,Inc. |WEB Address: www.autodesk.com
 90
    32897
280
     0
281
     0
  0
CLASS
  1
AEC_DISP_PROPS_DOOR_THRESHOLD_PLAN
  2
AecDbDispPropsDoorThresholdPlan
  3
AecArchBase50|Product Desc: Autodesk Architectural Desktop 2007 |Company: Autodesk,Inc. |WEB Address: www.autodesk.com
 90
    32897
280
     0
281
     0
  0
CLASS
  1
AEC_DISP_REP_MASKBLOCK_REF_RCP
  2
AecDbDispRepMaskBlockRefRcp
  3
AecArchBase50|Product Desc: Autodesk Architectural Desktop 2007 |Company: Autodesk,Inc. |WEB Address: www.autodesk.com
 90
    32897
280
     0
281
     0
  0
CLASS
  1
AEC_DISP_REP_MASS_ELEM_RCP
  2
AecDbDispRepMassElemRcp
  3
AecArchBase50|Product Desc: Autodesk Architectural Desktop 2007 |Company: Autodesk,Inc. |WEB Address: www.autodesk.com
 90
    32897
280
     0
281
     0
  0
CLASS
  1
AEC_DISP_REP_MASS_GROUP_RCP
  2
AecDbDispRepMassGroupRcp
  3
AecArchBase50|Product Desc: Autodesk Architectural Desktop 2007 |Company: Autodesk,Inc. |WEB Address: www.autodesk.com
 90
    32897
280
     0
281
     0
  0
CLASS
  1
AEC_DISP_REP_MVBLOCK_REF_RCP
  2
AecDbDispRepMvBlockRefRcp
  3
AecArchBase50|Product Desc: Autodesk Architectural Desktop 2007 |Company: Autodesk,Inc. |WEB Address: www.autodesk.com
 90
    32897
280
     0
281
     0
  0
CLASS
  1
AEC_DISP_REP_OPENING
  2
AecDbDispRepOpening
  3
AecArchBase50|Product Desc: Autodesk Architectural Desktop 2007 |Company: Autodesk,Inc. |WEB Address: www.autodesk.com
 90
    32897
280
     0
281
     0
  0
CLASS
  1
AEC_DISP_PROPS_OPENING
  2
AecDbDispPropsOpening
  3
AecArchBase50|Product Desc: Autodesk Architectural Desktop 2007 |Company: Autodesk,Inc. |WEB Address: www.autodesk.com
 90
    32897
280
     0
281
     0
  0
CLASS
  1
AEC_DISP_REP_OPENING_MODEL
  2
AecDbDispRepOpeningModel
  3
AecArchBase50|Product Desc: Autodesk Architectural Desktop 2007 |Company: Autodesk,Inc. |WEB Address: www.autodesk.com
 90
    32897
280
     0
281
     0
  0
CLASS
  1
AEC_DISP_REP_RAILING_MODEL
  2
AecDbDispRepRailingModel
  3
AecArchBase50|Product Desc: Autodesk Architectural Desktop 2007 |Company: Autodesk,Inc. |WEB Address: www.autodesk.com
 90
    32897
280
     0
281
     0
  0
CLASS
  1
AEC_DISP_PROPS_RAILING_MODEL
  2
AecDbDispPropsRailingModel
  3
AecArchBase50|Product Desc: Autodesk Architectural Desktop 2007 |Company: Autodesk,Inc. |WEB Address: www.autodesk.com
 90
    32897
280
     0
281
     0
  0
CLASS
  1
AEC_DISP_REP_RAILING_PLAN
  2
AecDbDispRepRailingPlan
  3
AecArchBase50|Product Desc: Autodesk Architectural Desktop 2007 |Company: Autodesk,Inc. |WEB Address: www.autodesk.com
 90
    32897
280
     0
281
     0
  0
CLASS
  1
AEC_DISP_PROPS_RAILING_PLAN
  2
AecDbDispPropsRailingPlan
  3
AecArchBase50|Product Desc: Autodesk Architectural Desktop 2007 |Company: Autodesk,Inc. |WEB Address: www.autodesk.com
 90
    32897
280
     0
281
     0
  0
CLASS
  1
AEC_DISP_REP_ROOF_MODEL
  2
AecDbDispRepRoofModel
  3
AecArchBase50|Product Desc: Autodesk Architectural Desktop 2007 |Company: Autodesk,Inc. |WEB Address: www.autodesk.com
 90
    32897
280
     0
281
     0
  0
CLASS
  1
AEC_DISP_PROPS_ROOF
  2
AecDbDispPropsRoof
  3
AecArchBase50|Product Desc: Autodesk Architectural Desktop 2007 |Company: Autodesk,Inc. |WEB Address: www.autodesk.com
 90
    32897
280
     0
281
     0
  0
CLASS
  1
AEC_DISP_REP_ROOF_PLAN
  2
AecDbDispRepRoofPlan
  3
AecArchBase50|Product Desc: Autodesk Architectural Desktop 2007 |Company: Autodesk,Inc. |WEB Address: www.autodesk.com
 90
    32897
280
     0
281
     0
  0
CLASS
  1
AEC_DISP_REP_ROOF_RCP
  2
AecDbDispRepRoofRcp
  3
AecArchBase50|Product Desc: Autodesk Architectural Desktop 2007 |Company: Autodesk,Inc. |WEB Address: www.autodesk.com
 90
    32897
280
     0
281
     0
  0
CLASS
  1
AEC_DISP_REP_SLAB_MODEL
  2
AecDbDispRepSlabModel
  3
AecArchBase50|Product Desc: Autodesk Architectural Desktop 2007 |Company: Autodesk,Inc. |WEB Address: www.autodesk.com
 90
    32897
280
     0
281
     0
  0
CLASS
  1
AEC_DISP_PROPS_SLAB
  2
AecDbDispPropsSlab
  3
AecArchBase50|Product Desc: Autodesk Architectural Desktop 2007 |Company: Autodesk,Inc. |WEB Address: www.autodesk.com
 90
    32897
280
     0
281
     0
  0
CLASS
  1
AEC_DISP_REP_ROOFSLAB_MODEL
  2
AecDbDispRepRoofSlabModel
  3
AecArchBase50|Product Desc: Autodesk Architectural Desktop 2007 |Company: Autodesk,Inc. |WEB Address: www.autodesk.com
 90
    32897
280
     0
281
     0
  0
CLASS
  1
AEC_DISP_PROPS_ROOFSLAB
  2
AecDbDispPropsRoofSlab
  3
AecArchBase50|Product Desc: Autodesk Architectural Desktop 2007 |Company: Autodesk,Inc. |WEB Address: www.autodesk.com
 90
    32897
280
     0
281
     0
  0
CLASS
  1
AEC_DISP_REP_SLAB_PLAN
  2
AecDbDispRepSlabPlan
  3
AecArchBase50|Product Desc: Autodesk Architectural Desktop 2007 |Company: Autodesk,Inc. |WEB Address: www.autodesk.com
 90
    32897
280
     0
281
     0
  0
CLASS
  1
AEC_DISP_PROPS_SLAB_PLAN
  2
AecDbDispPropsSlabPlan
  3
AecArchBase50|Product Desc: Autodesk Architectural Desktop 2007 |Company: Autodesk,Inc. |WEB Address: www.autodesk.com
 90
    32897
280
     0
281
     0
  0
CLASS
  1
AEC_DISP_REP_ROOFSLAB_PLAN
  2
AecDbDispRepRoofSlabPlan
  3
AecArchBase50|Product Desc: Autodesk Architectural Desktop 2007 |Company: Autodesk,Inc. |WEB Address: www.autodesk.com
 90
    32897
280
     0
281
     0
  0
CLASS
  1
AEC_DISP_PROPS_ROOFSLAB_PLAN
  2
AecDbDispPropsRoofSlabPlan
  3
AecArchBase50|Product Desc: Autodesk Architectural Desktop 2007 |Company: Autodesk,Inc. |WEB Address: www.autodesk.com
 90
    32897
280
     0
281
     0
  0
CLASS
  1
AEC_DISP_REP_SPACE_BOUNDARY_DIAGRAM
  2
AecDbDispRepSpaceBoundaryDgrm
  3
AecArchBase50|Product Desc: Autodesk Architectural Desktop 2007 |Company: Autodesk,Inc. |WEB Address: www.autodesk.com
 90
    32897
280
     0
281
     0
  0
CLASS
  1
AEC_DISP_PROPS_SPACE_BOUNDARY
  2
AecDbDispPropsSpaceBoundary
  3
AecArchBase50|Product Desc: Autodesk Architectural Desktop 2007 |Company: Autodesk,Inc. |WEB Address: www.autodesk.com
 90
    32897
280
     0
281
     0
  0
CLASS
  1
AEC_DISP_REP_SPACE_BOUNDARY_MODEL
  2
AecDbDispRepSpaceBoundaryModel
  3
AecArchBase50|Product Desc: Autodesk Architectural Desktop 2007 |Company: Autodesk,Inc. |WEB Address: www.autodesk.com
 90
    32897
280
     0
281
     0
  0
CLASS
  1
AEC_DISP_REP_SPACE_BOUNDARY_PLAN
  2
AecDbDispRepSpaceBoundaryPlan
  3
AecArchBase50|Product Desc: Autodesk Architectural Desktop 2007 |Company: Autodesk,Inc. |WEB Address: www.autodesk.com
 90
    32897
280
     0
281
     0
  0
CLASS
  1
AEC_DISP_REP_SPACE_BOUNDARY_SCHEM
  2
AecDbDispRepSpaceBoundarySketch
  3
AecArchBase50|Product Desc: Autodesk Architectural Desktop 2007 |Company: Autodesk,Inc. |WEB Address: www.autodesk.com
 90
    32897
280
     0
281
     0
  0
CLASS
  1
AEC_DISP_REP_SPACE_MODEL
  2
AecDbDispRepSpaceModel
  3
AecArchBase50|Product Desc: Autodesk Architectural Desktop 2007 |Company: Autodesk,Inc. |WEB Address: www.autodesk.com
 90
    32897
280
     0
281
     0
  0
CLASS
  1
AEC_DISP_PROPS_SPACE_MODEL
  2
AecDbDispPropsSpaceModel
  3
AecArchBase50|Product Desc: Autodesk Architectural Desktop 2007 |Company: Autodesk,Inc. |WEB Address: www.autodesk.com
 90
    32897
280
     0
281
     0
  0
CLASS
  1
AEC_DISP_REP_SPACE_PLAN
  2
AecDbDispRepSpacePlan
  3
AecArchBase50|Product Desc: Autodesk Architectural Desktop 2007 |Company: Autodesk,Inc. |WEB Address: www.autodesk.com
 90
    32897
280
     0
281
     0
  0
CLASS
  1
AEC_DISP_PROPS_SPACE_PLAN
  2
AecDbDispPropsSpacePlan
  3
AecArchBase50|Product Desc: Autodesk Architectural Desktop 2007 |Company: Autodesk,Inc. |WEB Address: www.autodesk.com
 90
    32897
280
     0
281
     0
  0
CLASS
  1
AEC_DISP_REP_SPACE_RCP
  2
AecDbDispRepSpaceRcp
  3
AecArchBase50|Product Desc: Autodesk Architectural Desktop 2007 |Company: Autodesk,Inc. |WEB Address: www.autodesk.com
 90
    32897
280
     0
281
     0
  0
CLASS
  1
AEC_DISP_REP_SPACE_VOLUME
  2
AecDbDispRepSpaceVolume
  3
AecArchBase50|Product Desc: Autodesk Architectural Desktop 2007 |Company: Autodesk,Inc. |WEB Address: www.autodesk.com
 90
    32897
280
     0
281
     0
  0
CLASS
  1
AEC_DISP_REP_STAIR_MODEL
  2
AecDbDispRepStairModel
  3
AecArchBase50|Product Desc: Autodesk Architectural Desktop 2007 |Company: Autodesk,Inc. |WEB Address: www.autodesk.com
 90
    32897
280
     0
281
     0
  0
CLASS
  1
AEC_DISP_PROPS_STAIR_MODEL
  2
AecDbDispPropsStairModel
  3
AecArchBase50|Product Desc: Autodesk Architectural Desktop 2007 |Company: Autodesk,Inc. |WEB Address: www.autodesk.com
 90
    32897
280
     0
281
     0
  0
CLASS
  1
AEC_DISP_REP_STAIR_PLAN
  2
AecDbDispRepStairPlan
  3
AecArchBase50|Product Desc: Autodesk Architectural Desktop 2007 |Company: Autodesk,Inc. |WEB Address: www.autodesk.com
 90
    32897
280
     0
281
     0
  0
CLASS
  1
AEC_DISP_PROPS_STAIR_PLAN
  2
AecDbDispPropsStairPlan
  3
AecArchBase50|Product Desc: Autodesk Architectural Desktop 2007 |Company: Autodesk,Inc. |WEB Address: www.autodesk.com
 90
    32897
280
     0
281
     0
  0
CLASS
  1
AEC_DISP_REP_STAIR_PLAN_OVERLAPPING
  2
AecDbDispRepStairPlanOverlapping
  3
AecArchBase50|Product Desc: Autodesk Architectural Desktop 2007 |Company: Autodesk,Inc. |WEB Address: www.autodesk.com
 90
    32897
280
     0
281
     0
  0
CLASS
  1
AEC_DISP_PROPS_STAIR_PLAN_OVERLAPPING
  2
AecDbDispPropsStairPlanOverlapping
  3
AecArchBase50|Product Desc: Autodesk Architectural Desktop 2007 |Company: Autodesk,Inc. |WEB Address: www.autodesk.com
 90
    32897
280
     0
281
     0
  0
CLASS
  1
AEC_DISP_REP_STAIR_RCP
  2
AecDbDispRepStairRcp
  3
AecArchBase50|Product Desc: Autodesk Architectural Desktop 2007 |Company: Autodesk,Inc. |WEB Address: www.autodesk.com
 90
    32897
280
     0
281
     0
  0
CLASS
  1
AEC_DISP_REP_WALL_GRAPH
  2
AecDbDispRepWallGraph
  3
AecArchBase50|Product Desc: Autodesk Architectural Desktop 2007 |Company: Autodesk,Inc. |WEB Address: www.autodesk.com
 90
    32897
280
     0
281
     0
  0
CLASS
  1
AEC_DISP_PROPS_WALL_GRAPH
  2
AecDbDispPropsWallGraph
  3
AecArchBase50|Product Desc: Autodesk Architectural Desktop 2007 |Company: Autodesk,Inc. |WEB Address: www.autodesk.com
 90
    32897
280
     0
281
     0
  0
CLASS
  1
AEC_DISP_REP_WALL_MODEL
  2
AecDbDispRepWallModel
  3
AecArchBase50|Product Desc: Autodesk Architectural Desktop 2007 |Company: Autodesk,Inc. |WEB Address: www.autodesk.com
 90
    32897
280
     0
281
     0
  0
CLASS
  1
AEC_DISP_PROPS_WALL_MODEL
  2
AecDbDispPropsWallModel
  3
AecArchBase50|Product Desc: Autodesk Architectural Desktop 2007 |Company: Autodesk,Inc. |WEB Address: www.autodesk.com
 90
    32897
280
     0
281
     0
  0
CLASS
  1
AEC_DISP_REP_WALL_PLAN
  2
AecDbDispRepWallPlan
  3
AecArchBase50|Product Desc: Autodesk Architectural Desktop 2007 |Company: Autodesk,Inc. |WEB Address: www.autodesk.com
 90
    32897
280
     0
281
     0
  0
CLASS
  1
AEC_DISP_PROPS_WALL_PLAN
  2
AecDbDispPropsWallPlan
  3
AecArchBase50|Product Desc: Autodesk Architectural Desktop 2007 |Company: Autodesk,Inc. |WEB Address: www.autodesk.com
 90
    32897
280
     0
281
     0
  0
CLASS
  1
AEC_DISP_REP_WALL_RCP
  2
AecDbDispRepWallRcp
  3
AecArchBase50|Product Desc: Autodesk Architectural Desktop 2007 |Company: Autodesk,Inc. |WEB Address: www.autodesk.com
 90
    32897
280
     0
281
     0
  0
CLASS
  1
AEC_DISP_REP_WALL_SCHEM
  2
AecDbDispRepWallSchem
  3
AecArchBase50|Product Desc: Autodesk Architectural Desktop 2007 |Company: Autodesk,Inc. |WEB Address: www.autodesk.com
 90
    32897
280
     0
281
     0
  0
CLASS
  1
AEC_DISP_PROPS_WALL_SCHEM
  2
AecDbDispPropsWallSchem
  3
AecArchBase50|Product Desc: Autodesk Architectural Desktop 2007 |Company: Autodesk,Inc. |WEB Address: www.autodesk.com
 90
    32897
280
     0
281
     0
  0
CLASS
  1
AEC_DISP_REP_WINDOW_ASSEMBLY_MODEL
  2
AecDbDispRepWindowAssemblyModel
  3
AecArchBase50|Product Desc: Autodesk Architectural Desktop 2007 |Company: Autodesk,Inc. |WEB Address: www.autodesk.com
 90
    32897
280
     0
281
     0
  0
CLASS
  1
AEC_DISP_REP_WINDOW_ASSEMBLY_PLAN
  2
AecDbDispRepWindowAssemblyPlan
  3
AecArchBase50|Product Desc: Autodesk Architectural Desktop 2007 |Company: Autodesk,Inc. |WEB Address: www.autodesk.com
 90
    32897
280
     0
281
     0
  0
CLASS
  1
AEC_DISP_REP_WINDOWASSEMBLY_SILL_PLAN
  2
AecDbDispRepWindowAssemblySillPlan
  3
AecArchBase50|Product Desc: Autodesk Architectural Desktop 2007 |Company: Autodesk,Inc. |WEB Address: www.autodesk.com
 90
    32897
280
     0
281
     0
  0
CLASS
  1
AEC_DISP_PROPS_WINDOW_ASSEMBLY_SILL_PLAN
  2
AecDbDispPropsWindowAssemblySillPlan
  3
AecArchBase50|Product Desc: Autodesk Architectural Desktop 2007 |Company: Autodesk,Inc. |WEB Address: www.autodesk.com
 90
    32897
280
     0
281
     0
  0
CLASS
  1
AEC_DISP_REP_WINDOW_MODEL
  2
AecDbDispRepWindowModel
  3
AecArchBase50|Product Desc: Autodesk Architectural Desktop 2007 |Company: Autodesk,Inc. |WEB Address: www.autodesk.com
 90
    32897
280
     0
281
     0
  0
CLASS
  1
AEC_DISP_PROPS_WINDOW
  2
AecDbDispPropsWindow
  3
AecArchBase50|Product Desc: Autodesk Architectural Desktop 2007 |Company: Autodesk,Inc. |WEB Address: www.autodesk.com
 90
    32897
280
     0
281
     0
  0
CLASS
  1
AEC_DISP_REP_WINDOW_ELEV
  2
AecDbDispRepWindowElev
  3
AecArchBase50|Product Desc: Autodesk Architectural Desktop 2007 |Company: Autodesk,Inc. |WEB Address: www.autodesk.com
 90
    32897
280
     0
281
     0
  0
CLASS
  1
AEC_DISP_REP_WINDOW_PLAN
  2
AecDbDispRepWindowPlan
  3
AecArchBase50|Product Desc: Autodesk Architectural Desktop 2007 |Company: Autodesk,Inc. |WEB Address: www.autodesk.com
 90
    32897
280
     0
281
     0
  0
CLASS
  1
AEC_DISP_REP_WINDOW_NOMINAL
  2
AecDbDispRepWindowNominal
  3
AecArchBase50|Product Desc: Autodesk Architectural Desktop 2007 |Company: Autodesk,Inc. |WEB Address: www.autodesk.com
 90
    32897
280
     0
281
     0
  0
CLASS
  1
AEC_DISP_PROPS_WINDOW_NOMINAL
  2
AecDbDispPropsWindowNominal
  3
AecArchBase50|Product Desc: Autodesk Architectural Desktop 2007 |Company: Autodesk,Inc. |WEB Address: www.autodesk.com
 90
    32897
280
     0
281
     0
  0
CLASS
  1
AEC_DISP_REP_WINDOW_RCP
  2
AecDbDispRepWindowRcp
  3
AecArchBase50|Product Desc: Autodesk Architectural Desktop 2007 |Company: Autodesk,Inc. |WEB Address: www.autodesk.com
 90
    32897
280
     0
281
     0
  0
CLASS
  1
AEC_DISP_REP_WINDOW_SILL_PLAN
  2
AecDbDispRepWindowSillPlan
  3
AecArchBase50|Product Desc: Autodesk Architectural Desktop 2007 |Company: Autodesk,Inc. |WEB Address: www.autodesk.com
 90
    32897
280
     0
281
     0
  0
CLASS
  1
AEC_DISP_PROPS_WINDOW_SILL_PLAN
  2
AecDbDispPropsWindowSillPlan
  3
AecArchBase50|Product Desc: Autodesk Architectural Desktop 2007 |Company: Autodesk,Inc. |WEB Address: www.autodesk.com
 90
    32897
280
     0
281
     0
  0
CLASS
  1
AEC_DISP_REP_ANCHOR_BUB_TO_GRID
  2
AecDbDispRepAnchorBubToGrid
  3
AecStructureBase50|Product Desc: Autodesk Architectural Desktop 2007 |Company: Autodesk,Inc. |WEB Address: www.autodesk.com
 90
    32897
280
     0
281
     0
  0
CLASS
  1
AEC_DISP_REP_ANCHOR_BUB_TO_GRID_MODEL
  2
AecDbDispRepAnchorBubToGridMdl
  3
AecStructureBase50|Product Desc: Autodesk Architectural Desktop 2007 |Company: Autodesk,Inc. |WEB Address: www.autodesk.com
 90
    32897
280
     0
281
     0
  0
CLASS
  1
AEC_DISP_REP_ANCHOR_BUB_TO_GRID_RCP
  2
AecDbDispRepAnchorBubToGridRcp
  3
AecStructureBase50|Product Desc: Autodesk Architectural Desktop 2007 |Company: Autodesk,Inc. |WEB Address: www.autodesk.com
 90
    32897
280
     0
281
     0
  0
CLASS
  1
AEC_DISP_REP_COLUMN_GRID
  2
AecDbDispRepColumnGrid
  3
AecStructureBase50|Product Desc: Autodesk Architectural Desktop 2007 |Company: Autodesk,Inc. |WEB Address: www.autodesk.com
 90
    32897
280
     0
281
     0
  0
CLASS
  1
AEC_DISP_REP_COLUMN_GRID_MODEL
  2
AecDbDispRepColumnGridModel
  3
AecStructureBase50|Product Desc: Autodesk Architectural Desktop 2007 |Company: Autodesk,Inc. |WEB Address: www.autodesk.com
 90
    32897
280
     0
281
     0
  0
CLASS
  1
AEC_DISP_REP_COLUMN_GRID_RCP
  2
AecDbDispRepColumnGridRcp
  3
AecStructureBase50|Product Desc: Autodesk Architectural Desktop 2007 |Company: Autodesk,Inc. |WEB Address: www.autodesk.com
 90
    32897
280
     0
281
     0
  0
CLASS
  1
AECS_DISP_REP_MEMBER_ELEVATION_DESIGN
  2
AecsDbDispRepMemberElevationDesign
  3
AecStructureBase50|Product Desc: Autodesk Architectural Desktop 2007 |Company: Autodesk,Inc. |WEB Address: www.autodesk.com
 90
    32897
280
     0
281
     0
  0
CLASS
  1
AECS_DISP_PROPS_MEMBER_PROJECTED
  2
AecsDbDispPropsMemberProjected
  3
AecStructureBase50|Product Desc: Autodesk Architectural Desktop 2007 |Company: Autodesk,Inc. |WEB Address: www.autodesk.com
 90
    32897
280
     0
281
     0
  0
CLASS
  1
AECS_DISP_REP_MEMBER_ELEVATION_DETAIL
  2
AecsDbDispRepMemberElevationDetail
  3
AecStructureBase50|Product Desc: Autodesk Architectural Desktop 2007 |Company: Autodesk,Inc. |WEB Address: www.autodesk.com
 90
    32897
280
     0
281
     0
  0
CLASS
  1
AECS_DISP_REP_MEMBER_LOGICAL
  2
AecsDbDispRepMemberLogical
  3
AecStructureBase50|Product Desc: Autodesk Architectural Desktop 2007 |Company: Autodesk,Inc. |WEB Address: www.autodesk.com
 90
    32897
280
     0
281
     0
  0
CLASS
  1
AECS_DISP_PROPS_MEMBER_LOGICAL
  2
AecsDbDispPropsMemberLogical
  3
AecStructureBase50|Product Desc: Autodesk Architectural Desktop 2007 |Company: Autodesk,Inc. |WEB Address: www.autodesk.com
 90
    32897
280
     0
281
     0
  0
CLASS
  1
AECS_DISP_REP_MEMBER_MODEL_DESIGN
  2
AecsDbDispRepMemberModelDesign
  3
AecStructureBase50|Product Desc: Autodesk Architectural Desktop 2007 |Company: Autodesk,Inc. |WEB Address: www.autodesk.com
 90
    32897
280
     0
281
     0
  0
CLASS
  1
AECS_DISP_PROPS_MEMBER
  2
AecsDbDispPropsMember
  3
AecStructureBase50|Product Desc: Autodesk Architectural Desktop 2007 |Company: Autodesk,Inc. |WEB Address: www.autodesk.com
 90
    32897
280
     0
281
     0
  0
CLASS
  1
AECS_DISP_REP_MEMBER_MODEL_DETAIL
  2
AecsDbDispRepMemberModelDetail
  3
AecStructureBase50|Product Desc: Autodesk Architectural Desktop 2007 |Company: Autodesk,Inc. |WEB Address: www.autodesk.com
 90
    32897
280
     0
281
     0
  0
CLASS
  1
AECS_DISP_REP_MEMBER_PLAN_DESIGN
  2
AecsDbDispRepMemberPlanDesign
  3
AecStructureBase50|Product Desc: Autodesk Architectural Desktop 2007 |Company: Autodesk,Inc. |WEB Address: www.autodesk.com
 90
    32897
280
     0
281
     0
  0
CLASS
  1
AECS_DISP_PROPS_MEMBER_PLAN
  2
AecsDbDispPropsMemberPlan
  3
AecStructureBase50|Product Desc: Autodesk Architectural Desktop 2007 |Company: Autodesk,Inc. |WEB Address: www.autodesk.com
 90
    32897
280
     0
281
     0
  0
CLASS
  1
AECS_DISP_REP_MEMBER_PLAN_DETAIL
  2
AecsDbDispRepMemberPlanDetail
  3
AecStructureBase50|Product Desc: Autodesk Architectural Desktop 2007 |Company: Autodesk,Inc. |WEB Address: www.autodesk.com
 90
    32897
280
     0
281
     0
  0
CLASS
  1
AECS_DISP_REP_MEMBER_PLAN_SKETCH
  2
AecsDbDispRepMemberPlanSketch
  3
AecStructureBase50|Product Desc: Autodesk Architectural Desktop 2007 |Company: Autodesk,Inc. |WEB Address: www.autodesk.com
 90
    32897
280
     0
281
     0
  0
CLASS
  1
AECS_DISP_PROPS_MEMBER_PLAN_SKETCH
  2
AecsDbDispPropsMemberPlanSketch
  3
AecStructureBase50|Product Desc: Autodesk Architectural Desktop 2007 |Company: Autodesk,Inc. |WEB Address: www.autodesk.com
 90
    32897
280
     0
281
     0
  0
CLASS
  1
AEC_DISP_REP_AREA
  2
AecDbDispRepArea
  3
AecAreaCalculationBase50|Product Desc: Autodesk Architectural Desktop 2007 |Company: Autodesk,Inc. |WEB Address: www.autodesk.com
 90
    32897
280
     0
281
     0
  0
CLASS
  1
AEC_DISP_PROPS_AREA
  2
AecDbDispPropsArea
  3
AecAreaCalculationBase50|Product Desc: Autodesk Architectural Desktop 2007 |Company: Autodesk,Inc. |WEB Address: www.autodesk.com
 90
    32897
280
     0
281
     0
  0
CLASS
  1
AEC_DISP_REP_AREA_DECOMPOSED
  2
AecDbDispRepAreaDecomposed
  3
AecAreaCalculationBase50|Product Desc: Autodesk Architectural Desktop 2007 |Company: Autodesk,Inc. |WEB Address: www.autodesk.com
 90
    32897
280
     0
281
     0
  0
CLASS
  1
AEC_DISP_PROPS_AREA_DECOMPOSED
  2
AecDbDispPropsAreaDecomposed
  3
AecAreaCalculationBase50|Product Desc: Autodesk Architectural Desktop 2007 |Company: Autodesk,Inc. |WEB Address: www.autodesk.com
 90
    32897
280
     0
281
     0
  0
CLASS
  1
AEC_DISP_REP_AREAGROUP
  2
AecDbDispRepAreaGroup
  3
AecAreaCalculationBase50|Product Desc: Autodesk Architectural Desktop 2007 |Company: Autodesk,Inc. |WEB Address: www.autodesk.com
 90
    32897
280
     0
281
     0
  0
CLASS
  1
AEC_DISP_PROPS_AREAGROUP
  2
AecDbDispPropsAreaGroup
  3
AecAreaCalculationBase50|Product Desc: Autodesk Architectural Desktop 2007 |Company: Autodesk,Inc. |WEB Address: www.autodesk.com
 90
    32897
280
     0
281
     0
  0
CLASS
  1
AEC_AECDBDISPREPAREA100
  2
AecDbDispRepArea100
  3
AecArchDACHBase50|Product Desc: Autodesk Architectural Desktop 2007 |Company: Autodesk,Inc. |WEB Address: www.autodesk.com
 90
    32897
280
     0
281
     0
  0
CLASS
  1
AEC_AECDBDISPREPAREAGROUP100
  2
AecDbDispRepAreaGroup100
  3
AecArchDACHBase50|Product Desc: Autodesk Architectural Desktop 2007 |Company: Autodesk,Inc. |WEB Address: www.autodesk.com
 90
    32897
280
     0
281
     0
  0
CLASS
  1
AEC_AECDBDISPREPBDGELEVLINEPLAN100
  2
AecDbDispRepBdgElevLinePlan100
  3
AecArchDACHBase50|Product Desc: Autodesk Architectural Desktop 2007 |Company: Autodesk,Inc. |WEB Address: www.autodesk.com
 90
    32897
280
     0
281
     0
  0
CLASS
  1
AEC_AECDBDISPREPBDGSECTIONLINEPLAN100
  2
AecDbDispRepBdgSectionLinePlan100
  3
AecArchDACHBase50|Product Desc: Autodesk Architectural Desktop 2007 |Company: Autodesk,Inc. |WEB Address: www.autodesk.com
 90
    32897
280
     0
281
     0
  0
CLASS
  1
AEC_AECDBDISPREPCEILINGGRIDPLAN100
  2
AecDbDispRepCeilingGridPlan100
  3
AecArchDACHBase50|Product Desc: Autodesk Architectural Desktop 2007 |Company: Autodesk,Inc. |WEB Address: www.autodesk.com
 90
    32897
280
     0
281
     0
  0
CLASS
  1
AEC_AECDBDISPREPCOLUMNGRIDPLAN100
  2
AecDbDispRepColumnGridPlan100
  3
AecArchDACHBase50|Product Desc: Autodesk Architectural Desktop 2007 |Company: Autodesk,Inc. |WEB Address: www.autodesk.com
 90
    32897
280
     0
281
     0
  0
CLASS
  1
AEC_AECDBDISPREPCURTAINWALLLAYOUTPLAN100
  2
AecDbDispRepCurtainWallLayoutPlan100
  3
AecArchDACHBase50|Product Desc: Autodesk Architectural Desktop 2007 |Company: Autodesk,Inc. |WEB Address: www.autodesk.com
 90
    32897
280
     0
281
     0
  0
CLASS
  1
AEC_AECDBDISPREPCURTAINWALLUNITPLAN100
  2
AecDbDispRepCurtainWallUnitPlan100
  3
AecArchDACHBase50|Product Desc: Autodesk Architectural Desktop 2007 |Company: Autodesk,Inc. |WEB Address: www.autodesk.com
 90
    32897
280
     0
281
     0
  0
CLASS
  1
AEC_AECDBDISPREPMVBLOCKREFPLAN100
  2
AecDbDispRepMvBlockRefPlan100
  3
AecArchDACHBase50|Product Desc: Autodesk Architectural Desktop 2007 |Company: Autodesk,Inc. |WEB Address: www.autodesk.com
 90
    32897
280
     0
281
     0
  0
CLASS
  1
AEC_AECDBDISPREPROOFPLAN100
  2
AecDbDispRepRoofPlan100
  3
AecArchDACHBase50|Product Desc: Autodesk Architectural Desktop 2007 |Company: Autodesk,Inc. |WEB Address: www.autodesk.com
 90
    32897
280
     0
281
     0
  0
CLASS
  1
AEC_AECDBDISPREPROOFSLABPLAN100
  2
AecDbDispRepRoofSlabPlan100
  3
AecArchDACHBase50|Product Desc: Autodesk Architectural Desktop 2007 |Company: Autodesk,Inc. |WEB Address: www.autodesk.com
 90
    32897
280
     0
281
     0
  0
CLASS
  1
AEC_AECDBDISPREPSLABPLAN100
  2
AecDbDispRepSlabPlan100
  3
AecArchDACHBase50|Product Desc: Autodesk Architectural Desktop 2007 |Company: Autodesk,Inc. |WEB Address: www.autodesk.com
 90
    32897
280
     0
281
     0
  0
CLASS
  1
AEC_AECDBDISPREPSPACEBOUNDARYPLAN100
  2
AecDbDispRepSpaceBoundaryPlan100
  3
AecArchDACHBase50|Product Desc: Autodesk Architectural Desktop 2007 |Company: Autodesk,Inc. |WEB Address: www.autodesk.com
 90
    32897
280
     0
281
     0
  0
CLASS
  1
AEC_AECDBDISPREPSPACEPLAN100
  2
AecDbDispRepSpacePlan100
  3
AecArchDACHBase50|Product Desc: Autodesk Architectural Desktop 2007 |Company: Autodesk,Inc. |WEB Address: www.autodesk.com
 90
    32897
280
     0
281
     0
  0
CLASS
  1
AEC_AECDBDISPREPWALLPLAN100
  2
AecDbDispRepWallPlan100
  3
AecArchDACHBase50|Product Desc: Autodesk Architectural Desktop 2007 |Company: Autodesk,Inc. |WEB Address: www.autodesk.com
 90
    32897
280
     0
281
     0
  0
CLASS
  1
AEC_AECDBDISPREPWINDOWASSEMBLYPLAN100
  2
AecDbDispRepWindowAssemblyPlan100
  3
AecArchDACHBase50|Product Desc: Autodesk Architectural Desktop 2007 |Company: Autodesk,Inc. |WEB Address: www.autodesk.com
 90
    32897
280
     0
281
     0
  0
CLASS
  1
AEC_AECDBDISPREPAREA50
  2
AecDbDispRepArea50
  3
AecArchDACHBase50|Product Desc: Autodesk Architectural Desktop 2007 |Company: Autodesk,Inc. |WEB Address: www.autodesk.com
 90
    32897
280
     0
281
     0
  0
CLASS
  1
AEC_AECDBDISPREPAREAGROUP50
  2
AecDbDispRepAreaGroup50
  3
AecArchDACHBase50|Product Desc: Autodesk Architectural Desktop 2007 |Company: Autodesk,Inc. |WEB Address: www.autodesk.com
 90
    32897
280
     0
281
     0
  0
CLASS
  1
AEC_AECDBDISPREPBDGELEVLINEPLAN50
  2
AecDbDispRepBdgElevLinePlan50
  3
AecArchDACHBase50|Product Desc: Autodesk Architectural Desktop 2007 |Company: Autodesk,Inc. |WEB Address: www.autodesk.com
 90
    32897
280
     0
281
     0
  0
CLASS
  1
AEC_AECDBDISPREPBDGSECTIONLINEPLAN50
  2
AecDbDispRepBdgSectionLinePlan50
  3
AecArchDACHBase50|Product Desc: Autodesk Architectural Desktop 2007 |Company: Autodesk,Inc. |WEB Address: www.autodesk.com
 90
    32897
280
     0
281
     0
  0
CLASS
  1
AEC_AECDBDISPREPCEILINGGRIDPLAN50
  2
AecDbDispRepCeilingGridPlan50
  3
AecArchDACHBase50|Product Desc: Autodesk Architectural Desktop 2007 |Company: Autodesk,Inc. |WEB Address: www.autodesk.com
 90
    32897
280
     0
281
     0
  0
CLASS
  1
AEC_AECDBDISPREPCOLUMNGRIDPLAN50
  2
AecDbDispRepColumnGridPlan50
  3
AecArchDACHBase50|Product Desc: Autodesk Architectural Desktop 2007 |Company: Autodesk,Inc. |WEB Address: www.autodesk.com
 90
    32897
280
     0
281
     0
  0
CLASS
  1
AEC_AECDBDISPREPCURTAINWALLLAYOUTPLAN50
  2
AecDbDispRepCurtainWallLayoutPlan50
  3
AecArchDACHBase50|Product Desc: Autodesk Architectural Desktop 2007 |Company: Autodesk,Inc. |WEB Address: www.autodesk.com
 90
    32897
280
     0
281
     0
  0
CLASS
  1
AEC_AECDBDISPREPCURTAINWALLUNITPLAN50
  2
AecDbDispRepCurtainWallUnitPlan50
  3
AecArchDACHBase50|Product Desc: Autodesk Architectural Desktop 2007 |Company: Autodesk,Inc. |WEB Address: www.autodesk.com
 90
    32897
280
     0
281
     0
  0
CLASS
  1
AEC_AECDBDISPREPMVBLOCKREFPLAN50
  2
AecDbDispRepMvBlockRefPlan50
  3
AecArchDACHBase50|Product Desc: Autodesk Architectural Desktop 2007 |Company: Autodesk,Inc. |WEB Address: www.autodesk.com
 90
    32897
280
     0
281
     0
  0
CLASS
  1
AEC_AECDBDISPREPROOFPLAN50
  2
AecDbDispRepRoofPlan50
  3
AecArchDACHBase50|Product Desc: Autodesk Architectural Desktop 2007 |Company: Autodesk,Inc. |WEB Address: www.autodesk.com
 90
    32897
280
     0
281
     0
  0
CLASS
  1
AEC_AECDBDISPREPROOFSLABPLAN50
  2
AecDbDispRepRoofSlabPlan50
  3
AecArchDACHBase50|Product Desc: Autodesk Architectural Desktop 2007 |Company: Autodesk,Inc. |WEB Address: www.autodesk.com
 90
    32897
280
     0
281
     0
  0
CLASS
  1
AEC_AECDBDISPREPSLABPLAN50
  2
AecDbDispRepSlabPlan50
  3
AecArchDACHBase50|Product Desc: Autodesk Architectural Desktop 2007 |Company: Autodesk,Inc. |WEB Address: www.autodesk.com
 90
    32897
280
     0
281
     0
  0
CLASS
  1
AEC_AECDBDISPREPSPACEBOUNDARYPLAN50
  2
AecDbDispRepSpaceBoundaryPlan50
  3
AecArchDACHBase50|Product Desc: Autodesk Architectural Desktop 2007 |Company: Autodesk,Inc. |WEB Address: www.autodesk.com
 90
    32897
280
     0
281
     0
  0
CLASS
  1
AEC_AECDBDISPREPSPACEPLAN50
  2
AecDbDispRepSpacePlan50
  3
AecArchDACHBase50|Product Desc: Autodesk Architectural Desktop 2007 |Company: Autodesk,Inc. |WEB Address: www.autodesk.com
 90
    32897
280
     0
281
     0
  0
CLASS
  1
AEC_AECDBDISPREPWALLPLAN50
  2
AecDbDispRepWallPlan50
  3
AecArchDACHBase50|Product Desc: Autodesk Architectural Desktop 2007 |Company: Autodesk,Inc. |WEB Address: www.autodesk.com
 90
    32897
280
     0
281
     0
  0
CLASS
  1
AEC_AECDBDISPREPWINDOWASSEMBLYPLAN50
  2
AecDbDispRepWindowAssemblyPlan50
  3
AecArchDACHBase50|Product Desc: Autodesk Architectural Desktop 2007 |Company: Autodesk,Inc. |WEB Address: www.autodesk.com
 90
    32897
280
     0
281
     0
  0
CLASS
  1
AEC_DB_DISP_REP_DIM_GROUP_PLAN100
  2
AecDbDispRepDimGroupPlan100
  3
AecArchDACHBase50|Product Desc: Autodesk Architectural Desktop 2007 |Company: Autodesk,Inc. |WEB Address: www.autodesk.com
 90
    32897
280
     0
281
     0
  0
CLASS
  1
AEC_DISP_PROPS_DIM
  2
AecDbDispPropsDimGroup
  3
AecArchDACHBase50|Product Desc: Autodesk Architectural Desktop 2007 |Company: Autodesk,Inc. |WEB Address: www.autodesk.com
 90
    32897
280
     0
281
     0
  0
CLASS
  1
AEC_DB_DISP_REP_DIM_GROUP_PLAN50
  2
AecDbDispRepDimGroupPlan50
  3
AecArchDACHBase50|Product Desc: Autodesk Architectural Desktop 2007 |Company: Autodesk,Inc. |WEB Address: www.autodesk.com
 90
    32897
280
     0
281
     0
  0
CLASS
  1
AEC_DB_DISP_REP_DIM_GROUP_PLAN
  2
AecDbDispRepDimGroupPlan
  3
AecArchDACHBase50|Product Desc: Autodesk Architectural Desktop 2007 |Company: Autodesk,Inc. |WEB Address: www.autodesk.com
 90
    32897
280
     0
281
     0
  0
CLASS
  1
AEC_DISP_REP_DOOR_PLAN_50
  2
AecDbDispRepDoorPlan50
  3
AecArchDACHBase50|Product Desc: Autodesk Architectural Desktop 2007 |Company: Autodesk,Inc. |WEB Address: www.autodesk.com
 90
    32897
280
     0
281
     0
  0
CLASS
  1
AEC_DISP_PROPS_DOOR_PLAN_50
  2
AecDbDispPropsDoorPlan50
  3
AecArchDACHBase50|Product Desc: Autodesk Architectural Desktop 2007 |Company: Autodesk,Inc. |WEB Address: www.autodesk.com
 90
    32897
280
     0
281
     0
  0
CLASS
  1
AEC_DISP_REP_DOOR_PLAN_HEKTO
  2
AecDbDispRepDoorPlanHekto
  3
AecArchDACHBase50|Product Desc: Autodesk Architectural Desktop 2007 |Company: Autodesk,Inc. |WEB Address: www.autodesk.com
 90
    32897
280
     0
281
     0
  0
CLASS
  1
AEC_DISP_PROPS_DOOR_PLAN_100
  2
AecDbDispPropsDoorPlan100
  3
AecArchDACHBase50|Product Desc: Autodesk Architectural Desktop 2007 |Company: Autodesk,Inc. |WEB Address: www.autodesk.com
 90
    32897
280
     0
281
     0
  0
CLASS
  1
AEC_DISP_REP_DOOR_THRESHOLD_SYMBOL_PLAN
  2
AecDbDispRepDoorThresholdSymbolPlan
  3
AecArchDACHBase50|Product Desc: Autodesk Architectural Desktop 2007 |Company: Autodesk,Inc. |WEB Address: www.autodesk.com
 90
    32897
280
     0
281
     0
  0
CLASS
  1
AEC_DISP_PROPS_DOOR_THRESHOLD_SYMBOL_PLAN
  2
AecDbDispPropsDoorThresholdSymbolPlan
  3
AecArchDACHBase50|Product Desc: Autodesk Architectural Desktop 2007 |Company: Autodesk,Inc. |WEB Address: www.autodesk.com
 90
    32897
280
     0
281
     0
  0
CLASS
  1
AEC_DISPREPAECDBDISPREPMASSELEMPLAN100
  2
AecDbDispRepMassElemPlan100
  3
AecArchDACHBase50|Product Desc: Autodesk Architectural Desktop 2007 |Company: Autodesk,Inc. |WEB Address: www.autodesk.com
 90
    32897
280
     0
281
     0
  0
CLASS
  1
AEC_DISPROPSMASSELEMPLANCOMMON
  2
AecDbDispPropsMassElemPlanCommon
  3
AecArchDACHBase50|Product Desc: Autodesk Architectural Desktop 2007 |Company: Autodesk,Inc. |WEB Address: www.autodesk.com
 90
    32897
280
     0
281
     0
  0
CLASS
  1
AEC_DISPREPAECDBDISPREPMASSELEMPLAN50
  2
AecDbDispRepMassElemPlan50
  3
AecArchDACHBase50|Product Desc: Autodesk Architectural Desktop 2007 |Company: Autodesk,Inc. |WEB Address: www.autodesk.com
 90
    32897
280
     0
281
     0
  0
CLASS
  1
AEC_DISPREPAECDBDISPREPMASSGROUPPLAN100
  2
AecDbDispRepMassGroupPlan100
  3
AecArchDACHBase50|Product Desc: Autodesk Architectural Desktop 2007 |Company: Autodesk,Inc. |WEB Address: www.autodesk.com
 90
    32897
280
     0
281
     0
  0
CLASS
  1
AEC_DISPROPSMASSGROUPPLANCOMMON
  2
AecDbDispPropsMassGroupPlanCommon
  3
AecArchDACHBase50|Product Desc: Autodesk Architectural Desktop 2007 |Company: Autodesk,Inc. |WEB Address: www.autodesk.com
 90
    32897
280
     0
281
     0
  0
CLASS
  1
AEC_DISPREPAECDBDISPREPMASSGROUPPLAN50
  2
AecDbDispRepMassGroupPlan50
  3
AecArchDACHBase50|Product Desc: Autodesk Architectural Desktop 2007 |Company: Autodesk,Inc. |WEB Address: www.autodesk.com
 90
    32897
280
     0
281
     0
  0
CLASS
  1
AEC_DISPREPAECDBDISPREPOPENINGPLAN100
  2
AecDbDispRepOpeningPlan100
  3
AecArchDACHBase50|Product Desc: Autodesk Architectural Desktop 2007 |Company: Autodesk,Inc. |WEB Address: www.autodesk.com
 90
    32897
280
     0
281
     0
  0
CLASS
  1
AEC_DISPROPSOPENINGPLANCOMMONHATCHED
  2
AecDbDispPropsOpeningPlanCommonHatched
  3
AecArchDACHBase50|Product Desc: Autodesk Architectural Desktop 2007 |Company: Autodesk,Inc. |WEB Address: www.autodesk.com
 90
    32897
280
     0
281
     0
  0
CLASS
  1
AEC_DISPREPAECDBDISPREPOPENINGPLAN50
  2
AecDbDispRepOpeningPlan50
  3
AecArchDACHBase50|Product Desc: Autodesk Architectural Desktop 2007 |Company: Autodesk,Inc. |WEB Address: www.autodesk.com
 90
    32897
280
     0
281
     0
  0
CLASS
  1
AEC_DISPREPAECDBDISPREPOPENINGPLANREFLECTED
  2
AecDbDispRepOpeningPlanReflected
  3
AecArchDACHBase50|Product Desc: Autodesk Architectural Desktop 2007 |Company: Autodesk,Inc. |WEB Address: www.autodesk.com
 90
    32897
280
     0
281
     0
  0
CLASS
  1
AEC_DISPROPSOPENINGPLANCOMMON
  2
AecDbDispPropsOpeningPlanCommon
  3
AecArchDACHBase50|Product Desc: Autodesk Architectural Desktop 2007 |Company: Autodesk,Inc. |WEB Address: www.autodesk.com
 90
    32897
280
     0
281
     0
  0
CLASS
  1
AEC_DISPREPAECDBDISPREPOPENINGSILLPLAN
  2
AecDbDispRepOpeningSillPlan
  3
AecArchDACHBase50|Product Desc: Autodesk Architectural Desktop 2007 |Company: Autodesk,Inc. |WEB Address: www.autodesk.com
 90
    32897
280
     0
281
     0
  0
CLASS
  1
AEC_DISPROPSOPENINGSILLPLAN
  2
AecDbDispPropsOpeningSillPlan
  3
AecArchDACHBase50|Product Desc: Autodesk Architectural Desktop 2007 |Company: Autodesk,Inc. |WEB Address: www.autodesk.com
 90
    32897
280
     0
281
     0
  0
CLASS
  1
AEC_DISP_REP_RAILING_PLAN_100
  2
AecDbDispRepRailingPlan100
  3
AecArchDACHBase50|Product Desc: Autodesk Architectural Desktop 2007 |Company: Autodesk,Inc. |WEB Address: www.autodesk.com
 90
    32897
280
     0
281
     0
  0
CLASS
  1
AEC_DISP_ROPS_RAILING_PLAN_100
  2
AecDbDispPropsRailingPlan100
  3
AecArchDACHBase50|Product Desc: Autodesk Architectural Desktop 2007 |Company: Autodesk,Inc. |WEB Address: www.autodesk.com
 90
    32897
280
     0
281
     0
  0
CLASS
  1
AEC_DISP_REP_RAILING_PLAN_50
  2
AecDbDispRepRailingPlan50
  3
AecArchDACHBase50|Product Desc: Autodesk Architectural Desktop 2007 |Company: Autodesk,Inc. |WEB Address: www.autodesk.com
 90
    32897
280
     0
281
     0
  0
CLASS
  1
AEC_DISP_ROPS_RAILING_PLAN_50
  2
AecDbDispPropsRailingPlan50
  3
AecArchDACHBase50|Product Desc: Autodesk Architectural Desktop 2007 |Company: Autodesk,Inc. |WEB Address: www.autodesk.com
 90
    32897
280
     0
281
     0
  0
CLASS
  1
AEC_DISP_REP_STAIR_PLAN_100
  2
AecDbDispRepStairPlan100
  3
AecArchDACHBase50|Product Desc: Autodesk Architectural Desktop 2007 |Company: Autodesk,Inc. |WEB Address: www.autodesk.com
 90
    32897
280
     0
281
     0
  0
CLASS
  1
AEC_DISP_ROPS_STAIR_PLAN_100
  2
AecDbDispPropsStairPlan100
  3
AecArchDACHBase50|Product Desc: Autodesk Architectural Desktop 2007 |Company: Autodesk,Inc. |WEB Address: www.autodesk.com
 90
    32897
280
     0
281
     0
  0
CLASS
  1
AEC_DISP_REP_STAIR_PLAN_50
  2
AecDbDispRepStairPlan50
  3
AecArchDACHBase50|Product Desc: Autodesk Architectural Desktop 2007 |Company: Autodesk,Inc. |WEB Address: www.autodesk.com
 90
    32897
280
     0
281
     0
  0
CLASS
  1
AEC_DISP_ROPS_STAIR_PLAN_50
  2
AecDbDispPropsStairPlan50
  3
AecArchDACHBase50|Product Desc: Autodesk Architectural Desktop 2007 |Company: Autodesk,Inc. |WEB Address: www.autodesk.com
 90
    32897
280
     0
281
     0
  0
CLASS
  1
AEC_DISP_REP_WINDOW_PLAN_100
  2
AecDbDispRepWindowPlan100
  3
AecArchDACHBase50|Product Desc: Autodesk Architectural Desktop 2007 |Company: Autodesk,Inc. |WEB Address: www.autodesk.com
 90
    32897
280
     0
281
     0
  0
CLASS
  1
AEC_DISP_PROPS_WINDOW_PLAN_100
  2
AecDbDispPropsWindowPlan100
  3
AecArchDACHBase50|Product Desc: Autodesk Architectural Desktop 2007 |Company: Autodesk,Inc. |WEB Address: www.autodesk.com
 90
    32897
280
     0
281
     0
  0
CLASS
  1
AEC_DISP_REP_WINDOW_PLAN_50
  2
AecDbDispRepWindowPlan50
  3
AecArchDACHBase50|Product Desc: Autodesk Architectural Desktop 2007 |Company: Autodesk,Inc. |WEB Address: www.autodesk.com
 90
    32897
280
     0
281
     0
  0
CLASS
  1
AEC_DISP_PROPS_WINDOW_PLAN_50
  2
AecDbDispPropsWindowPlan50
  3
AecArchDACHBase50|Product Desc: Autodesk Architectural Desktop 2007 |Company: Autodesk,Inc. |WEB Address: www.autodesk.com
 90
    32897
280
     0
281
     0
  0
CLASS
  1
AEC_DISP_REP_SCHEDULE_TABLE
  2
AecDbDispRepScheduleTable
  3
AecSchedule50|Product Desc: Autodesk Architectural Desktop 2007 |Company: Autodesk,Inc. |WEB Address: www.autodesk.com
 90
    32897
280
     0
281
     0
  0
CLASS
  1
AEC_DISP_PROPS_SCHEDULE_TABLE
  2
AecDbDispPropsScheduleTable
  3
AecSchedule50|Product Desc: Autodesk Architectural Desktop 2007 |Company: Autodesk,Inc. |WEB Address: www.autodesk.com
 90
    32897
280
     0
281
     0
  0
CLASS
  1
AEC_DISP_REP_SET
  2
AecDbDispRepSet
  3
AecBase50|Product Desc: Autodesk Architectural Desktop 2007 |Company: Autodesk,Inc. |WEB Address: www.autodesk.com
 90
    32897
280
     0
281
     0
  0
CLASS
  1
AEC_DISP_REP_CONFIG
  2
AecDbDispRepConfig
  3
AecBase50|Product Desc: Autodesk Architectural Desktop 2007 |Company: Autodesk,Inc. |WEB Address: www.autodesk.com
 90
    32897
280
     0
281
     0
  0
CLASS
  1
AEC_LAYERKEY_STYLE
  2
AecDbLayerKeyStyle
  3
AecBase50|Product Desc: Autodesk Architectural Desktop 2007 |Company: Autodesk,Inc. |WEB Address: www.autodesk.com
 90
    32897
280
     0
281
     0
  0
CLASS
  1
AEC_VARS_ARCHBASE
  2
AecDbVarsArchBase
  3
AecArchBase50|Product Desc: Autodesk Architectural Desktop 2007 |Company: Autodesk,Inc. |WEB Address: www.autodesk.com
 90
    32897
280
     0
281
     0
  0
CLASS
  1
AEC_VARS_MUNICH
  2
AecDbVarsMunich
  3
AecArchDACHBase50|Product Desc: Autodesk Architectural Desktop 2007 |Company: Autodesk,Inc. |WEB Address: www.autodesk.com
 90
    32897
280
     0
281
     0
  0
CLASS
  1
BINRECORD
  2
AcAecBinRecord
  3
AecBase50|Product Desc: Autodesk Architectural Desktop 2007 |Company: Autodesk,Inc. |WEB Address: www.autodesk.com
 90
    32897
280
     0
281
     0
  0
CLASS
  1
SPATIAL_FILTER
  2
AcDbSpatialFilter
  3
ObjectDBX Classes
 90
    32768
280
     0
281
     0
  0
CLASS
  1
SORTENTSTABLE
  2
AcDbSortentsTable
  3
ObjectDBX Classes
 90
        0
280
     0
281
     0
  0
CLASS
  1
RTEXT
  2
RText
  3
RText|AutoCAD Express Tool|expresstools@autodesk.com
 90
    35839
280
     0
281
     1
  0
CLASS
  1
OBJECT_PTR
  2
CAseDLPNTableRecord
  3
ASE-LPNTableRecord
 90
        1
280
     0
281
     0
  0
CLASS
  1
IMAGE
  2
AcDbRasterImage
  3
ISM
 90
    34943
280
     0
281
     1
  0
CLASS
  1
IMAGEDEF_REACTOR
  2
AcDbRasterImageDefReactor
  3
ISM
 90
    32769
280
     0
281
     0
  0
CLASS
  1
IMAGEDEF
  2
AcDbRasterImageDef
  3
ISM
 90
    32768
280
     0
281
     0
  0
CLASS
  1
RASTERVARIABLES
  2
AcDbRasterVariables
  3
ISM
 90
    32768
280
     0
281
     0
  0
CLASS
  1
MATERIAL
  2
AcDbMaterial
  3
ObjectDBX Classes
 90
     1153
280
     0
281
     0
  0
CLASS
  1
AEC_MVBLOCK_REF
  2
AecDbMvBlockRef
  3
AecBase50|Product Desc: Autodesk Architectural Desktop 2007 |Company: Autodesk,Inc. |WEB Address: www.autodesk.com
 90
    33661
280
     0
281
     1
  0
CLASS
  1
AEC_AECDBAREAPROPOSALNAMES
  2
AecDbAreaProposalNames
  3
AecAreaCalculationBase50|Product Desc: Autodesk Architectural Desktop 2007 |Company: Autodesk,Inc. |WEB Address: www.autodesk.com
 90
    32897
280
     0
281
     0
  0
CLASS
  1
AEC_AECDBAREAGROUPSTYLE
  2
AecDbAreaGroupStyle
  3
AecAreaCalculationBase50|Product Desc: Autodesk Architectural Desktop 2007 |Company: Autodesk,Inc. |WEB Address: www.autodesk.com
 90
    32897
280
     0
281
     0
  0
CLASS
  1
AEC_ENDCAP_STYLE
  2
AecDbEndcapStyle
  3
AecArchBase50|Product Desc: Autodesk Architectural Desktop 2007 |Company: Autodesk,Inc. |WEB Address: www.autodesk.com
 90
    32897
280
     0
281
     0
  0
CLASS
  1
AEC_MATERIAL_DEF
  2
AecDbMaterialDef
  3
AecBase50|Product Desc: Autodesk Architectural Desktop 2007 |Company: Autodesk,Inc. |WEB Address: www.autodesk.com
 90
    32897
280
     0
281
     0
  0
CLASS
  1
AEC_MVBLOCK_DEF
  2
AecDbMvBlockDef
  3
AecBase50|Product Desc: Autodesk Architectural Desktop 2007 |Company: Autodesk,Inc. |WEB Address: www.autodesk.com
 90
    32897
280
     0
281
     0
  0
CLASS
  1
AEC_VARS_STRUCTUREBASE
  2
AecsDbVarsStructureBase
  3
AecStructureBase50|Product Desc: Autodesk Architectural Desktop 2007 |Company: Autodesk,Inc. |WEB Address: www.autodesk.com
 90
    32897
280
     0
281
     0
  0
CLASS
  1
AECS_MEMBER_NODE_SHAPE
  2
AecsDbMemberNodeShape
  3
AecStructureBase50|Product Desc: Autodesk Architectural Desktop 2007 |Company: Autodesk,Inc. |WEB Address: www.autodesk.com
 90
    32897
280
     0
281
     0
  0
CLASS
  1
TABLESTYLE
  2
AcDbTableStyle
  3
ObjectDBX Classes
 90
     4095
280
     0
281
     0
  0
CLASS
  1
AEC_DISP_REP_DISPLAYTHEME
  2
AecDbDispRepDisplayTheme
  3
AecBase50|Product Desc: Autodesk Architectural Desktop 2007 |Company: Autodesk,Inc. |WEB Address: www.autodesk.com
 90
    32897
280
     0
281
     0
  0
CLASS
  1
AEC_DISP_PROPS_DISPLAYTHEME
  2
AecDbDispPropsDisplayTheme
  3
AecBase50|Product Desc: Autodesk Architectural Desktop 2007 |Company: Autodesk,Inc. |WEB Address: www.autodesk.com
 90
    32897
280
     0
281
     0
  0
CLASS
  1
AEC_DISP_REP_ANCHOR_EXT_TAG_TO_ENT
  2
AecDbDispRepAnchorExtendedTagToEnt
  3
AecScheduleData50|Product Desc: Autodesk Architectural Desktop 2007 |Company: Autodesk,Inc. |WEB Address: www.autodesk.com
 90
    32897
280
     0
281
     0
  0
CLASS
  1
AEC_CLASSIFICATION_SYSTEM_DEF
  2
AecDbClassificationSystemDef
  3
AecBase50|Product Desc: Autodesk Architectural Desktop 2007 |Company: Autodesk,Inc. |WEB Address: www.autodesk.com
 90
    32897
280
     0
281
     0
  0
CLASS
  1
AEC_CLASSIFICATION_DEF
  2
AecDbClassificationDef
  3
AecBase50|Product Desc: Autodesk Architectural Desktop 2007 |Company: Autodesk,Inc. |WEB Address: www.autodesk.com
 90
    32897
280
     0
281
     0
  0
CLASS
  1
PLOTSETTINGS
  2
AcDbPlotSettings
  3
ObjectDBX Classes
 90
    32768
280
     0
281
     0
  0
CLASS
  1
AEC_SPACE_BOUNDARY
  2
AecDbSpaceBoundary
  3
AecArchBase50|Product Desc: Autodesk Architectural Desktop 2007 |Company: Autodesk,Inc. |WEB Address: www.autodesk.com
 90
    33661
280
     0
281
     1
  0
CLASS
  1
AEC_SPACE
  2
AecDbSpace
  3
AecArchBase50|Product Desc: Autodesk Architectural Desktop 2007 |Company: Autodesk,Inc. |WEB Address: www.autodesk.com
 90
    33661
280
     0
281
     1
  0
CLASS
  1
AecDbPropertySet
  2
AecDbPropertySet
  3
AecScheduleData50|Product Desc: Autodesk Architectural Desktop 2007 |Company: Autodesk,Inc. |WEB Address: www.autodesk.com
 90
    32897
280
     0
281
     0
  0
CLASS
  1
AEC_SCHEDULE_TABLE
  2
AecDbScheduleTable
  3
AecSchedule50|Product Desc: Autodesk Architectural Desktop 2007 |Company: Autodesk,Inc. |WEB Address: www.autodesk.com
 90
    33661
280
     0
281
     1
  0
CLASS
  1
AEC_SCHEDULE_DATA_FORMAT
  2
AecDbScheduleDataFormat
  3
AecScheduleData50|Product Desc: Autodesk Architectural Desktop 2007 |Company: Autodesk,Inc. |WEB Address: www.autodesk.com
 90
    32897
280
     0
281
     0
  0
CLASS
  1
AEC_PROPERTY_SET_DEF
  2
AecDbPropertySetDef
  3
AecScheduleData50|Product Desc: Autodesk Architectural Desktop 2007 |Company: Autodesk,Inc. |WEB Address: www.autodesk.com
 90
    32897
280
     0
281
     0
  0
CLASS
  1
AEC_SCHEDULE_TABLE_STYLE
  2
AecDbScheduleTableStyle
  3
AecSchedule50|Product Desc: Autodesk Architectural Desktop 2007 |Company: Autodesk,Inc. |WEB Address: www.autodesk.com
 90
    32897
280
     0
281
     0
  0
CLASS
  1
AEC_SPACE_STYLES
  2
AecDbSpaceStyle
  3
AecArchBase50|Product Desc: Autodesk Architectural Desktop 2007 |Company: Autodesk,Inc. |WEB Address: www.autodesk.com
 90
    32897
280
     0
281
     0
  0
CLASS
  1
DIMASSOC
  2
AcDbDimAssoc
  3
"AcDbDimAssoc|Product Desc:     AcDim ARX App For Dimension|Company:          Autodesk, Inc.|WEB Address:      www.autodesk.com"
 90
        0
280
     0
281
     0
  0
CLASS
  1
VISUALSTYLE
  2
AcDbVisualStyle
  3
ObjectDBX Classes
 90
     4095
280
     0
281
     0
  0
CLASS
  1
AEC_AECDBDISPREPZONE100
  2
AecDbDispRepZonePlan100
  3
AecArchDACHBase50|Product Desc: Autodesk Architectural Desktop 2007 |Company: Autodesk,Inc. |WEB Address: www.autodesk.com
 90
    32897
280
     0
281
     0
  0
CLASS
  1
AEC_DISP_PROPS_ZONE
  2
AecDbDispPropsZone
  3
AecArchBase50|Product Desc: Autodesk Architectural Desktop 2007 |Company: Autodesk,Inc. |WEB Address: www.autodesk.com
 90
    32897
280
     0
281
     0
  0
CLASS
  1
AEC_AECDBDISPREPZONE50
  2
AecDbDispRepZonePlan50
  3
AecArchDACHBase50|Product Desc: Autodesk Architectural Desktop 2007 |Company: Autodesk,Inc. |WEB Address: www.autodesk.com
 90
    32897
280
     0
281
     0
  0
CLASS
  1
AEC_DISP_REP_SPACE_DECOMPOSED
  2
AecDbDispRepSpaceDecomposed
  3
AecArchBase50|Product Desc: Autodesk Architectural Desktop 2007 |Company: Autodesk,Inc. |WEB Address: www.autodesk.com
 90
    32897
280
     0
281
     0
  0
CLASS
  1
AEC_DISP_PROPS_SPACE_DECOMPOSED
  2
AecDbDispPropsSpaceDecomposed
  3
AecArchBase50|Product Desc: Autodesk Architectural Desktop 2007 |Company: Autodesk,Inc. |WEB Address: www.autodesk.com
 90
    32897
280
     0
281
     0
  0
CLASS
  1
AEC_DISP_REP_ZONE
  2
AecDbDispRepZone
  3
AecArchBase50|Product Desc: Autodesk Architectural Desktop 2007 |Company: Autodesk,Inc. |WEB Address: www.autodesk.com
 90
    32897
280
     0
281
     0
  0
CLASS
  1
AEC_LIST_DEF
  2
AecDbListDefinition
  3
AecBase50|Product Desc: Autodesk Architectural Desktop 2007 |Company: Autodesk,Inc. |WEB Address: www.autodesk.com
 90
    32897
280
     0
281
     0
  0
CLASS
  1
AEC_LIST_DEF
  2
AecDbListItem
  3
AecBase50|Product Desc: Autodesk Architectural Desktop 2007 |Company: Autodesk,Inc. |WEB Address: www.autodesk.com
 90
    32897
280
     0
281
     0
  0
CLASS
  1
AEC_AECDBZONESTYLE
  2
AecDbZoneStyle
  3
AecArchBase50|Product Desc: Autodesk Architectural Desktop 2007 |Company: Autodesk,Inc. |WEB Address: www.autodesk.com
 90
    32897
280
     0
281
     0
  0
CLASS
  1
EXACXREFPANELOBJECT
  2
ExAcXREFPanelObject
  3
EXAC_ESW
 90
    33793
280
     1
281
     0
  0
CLASS
  1
NPOCOLLECTION
  2
AcDbImpNonPersistentObjectsCollection
  3
ObjectDBX Classes
 90
    33921
280
     0
281
     0
  0
CLASS
  1
AEC_DISPLAYTHEME_STYLE
  2
AecDbDisplayThemeStyle
  3
AecBase50|Product Desc: Autodesk Architectural Desktop 2007 |Company: Autodesk,Inc. |WEB Address: www.autodesk.com
 90
    32897
280
     0
281
     0
  0
CLASS
  1
AEC_SLABEDGE_STYLE
  2
AecDbSlabEdgeStyle
  3
AecArchBase50|Product Desc: Autodesk Architectural Desktop 2007 |Company: Autodesk,Inc. |WEB Address: www.autodesk.com
 90
    32897
280
     0
281
     0
  0
CLASS
  1
AEC_SLAB_STYLE
  2
AecDbSlabStyle
  3
AecArchBase50|Product Desc: Autodesk Architectural Desktop 2007 |Company: Autodesk,Inc. |WEB Address: www.autodesk.com
 90
    32897
280
     0
281
     0
  0
CLASS
  1
AEC_ROOFSLABEDGE_STYLE
  2
AecDbRoofSlabEdgeStyle
  3
AecArchBase50|Product Desc: Autodesk Architectural Desktop 2007 |Company: Autodesk,Inc. |WEB Address: www.autodesk.com
 90
    32897
280
     0
281
     0
  0
CLASS
  1
AEC_ROOFSLAB_STYLE
  2
AecDbRoofSlabStyle
  3
AecArchBase50|Product Desc: Autodesk Architectural Desktop 2007 |Company: Autodesk,Inc. |WEB Address: www.autodesk.com
 90
    32897
280
     0
281
     0
  0
CLASS
  1
EXACTERMXREFMAP
  2
ExAcTermXrefMap
  3
EXAC_SERVICE
 90
    33793
280
     1
281
     0
  0
CLASS
  1
ACAD_EVALUATION_GRAPH
  2
AcDbEvalGraph
  3
ObjectDBX Classes
 90
    33921
280
     0
281
     0
  0
CLASS
  1
ACAECUSTOBJ
  2
AcAeEditorObj
  3
AcAeEditorObj
 90
    33792
280
     1
281
     0
  0
CLASS
  1
BLOCKVISIBILITYPARAMETER
  2
AcDbBlockVisibilityParameter
  3
ObjectDBX Classes
 90
    33921
280
     0
281
     0
  0
CLASS
  1
BLOCKVISIBILITYGRIP
  2
AcDbBlockVisibilityGrip
  3
ObjectDBX Classes
 90
    33921
280
     0
281
     0
  0
CLASS
  1
BLOCKGRIPLOCATIONCOMPONENT
  2
AcDbBlockGripExpr
  3
ObjectDBX Classes
 90
    33921
280
     0
281
     0
  0
CLASS
  1
BLOCKLINEARPARAMETER
  2
AcDbBlockLinearParameter
  3
ObjectDBX Classes
 90
    33921
280
     0
281
     0
  0
CLASS
  1
BLOCKSTRETCHACTION
  2
AcDbBlockStretchAction
  3
ObjectDBX Classes
 90
    33921
280
     0
281
     0
  0
CLASS
  1
BLOCKLOOKUPPARAMETER
  2
AcDbBlockLookupParameter
  3
ObjectDBX Classes
 90
    33921
280
     0
281
     0
  0
CLASS
  1
BLOCKLOOKUPGRIP
  2
AcDbBlockLookupGrip
  3
ObjectDBX Classes
 90
    33921
280
     0
281
     0
  0
CLASS
  1
BLOCKLOOKUPACTION
  2
AcDbBlockLookupAction
  3
ObjectDBX Classes
 90
    33921
280
     0
281
     0
  0
CLASS
  1
BLOCKMOVEACTION
  2
AcDbBlockMoveAction
  3
ObjectDBX Classes
 90
    33921
280
     0
281
     0
  0
CLASS
  1
BLOCKLINEARGRIP
  2
AcDbBlockLinearGrip
  3
ObjectDBX Classes
 90
    33921
280
     0
281
     0
  0
CLASS
  1
ACDB_DYNAMICBLOCKPURGEPREVENTER_VERSION
  2
AcDbDynamicBlockPurgePreventer
  3
ObjectDBX Classes
 90
    33921
280
     0
281
     0
  0
CLASS
  1
FIELD
  2
AcDbField
  3
ObjectDBX Classes
 90
    33920
280
     0
281
     0
  0
CLASS
  1
ACDB_BLOCKREPRESENTATION_DATA
  2
AcDbBlockRepresentationData
  3
ObjectDBX Classes
 90
    33921
280
     0
281
     0
  0
CLASS
  1
FIELDLIST
  2
AcDbFieldList
  3
ObjectDBX Classes
 90
     1152
280
     0
281
     0
  0
CLASS
  1
VISIBILITYPARAMETERENTITY
  2
AcDbBlockVisibilityParameterEntity
  3
ObjectDBX Classes
 90
    33793
280
     0
281
     1
  0
CLASS
  1
ACAEEEMGROBJ
  2
AcAeEEMgrObj
  3
AcAeEEMgrObj
 90
    33792
280
     0
281
     0
  0
CLASS
  1
VISIBILITYGRIPENTITY
  2
AcDbBlockVisibilityGripEntity
  3
ObjectDBX Classes
 90
    33793
280
     0
281
     1
  0
CLASS
  1
LINEARPARAMETERENTITY
  2
AcDbBlockLinearParameterEntity
  3
ObjectDBX Classes
 90
    33793
280
     0
281
     1
  0
CLASS
  1
STRETCHACTIONENTITY
  2
AcDbBlockStretchActionEntity
  3
ObjectDBX Classes
 90
    33793
280
     0
281
     1
  0
CLASS
  1
LOOKUPPARAMETERENTITY
  2
AcDbBlockLookupParameterEntity
  3
ObjectDBX Classes
 90
    33793
280
     0
281
     1
  0
CLASS
  1
LOOKUPGRIPENTITY
  2
AcDbBlockLookupGripEntity
  3
ObjectDBX Classes
 90
    33793
280
     0
281
     1
  0
CLASS
  1
LOOKUPACTIONENTITY
  2
AcDbBlockLookupActionEntity
  3
ObjectDBX Classes
 90
    33793
280
     0
281
     1
  0
CLASS
  1
MOVEACTIONENTITY
  2
AcDbBlockMoveActionEntity
  3
ObjectDBX Classes
 90
    33793
280
     0
281
     1
  0
CLASS
  1
LINEARGRIPENTITY
  2
AcDbBlockLinearGripEntity
  3
ObjectDBX Classes
 90
    33793
280
     0
281
     1
  0
CLASS
  1
AEC_CLEANUP_GROUP_DEF
  2
AecDbCleanupGroupDef
  3
AecArchBase50|Product Desc: Autodesk Architectural Desktop 2007 |Company: Autodesk,Inc. |WEB Address: www.autodesk.com
 90
    32897
280
     0
281
     0
  0
CLASS
  1
AEC_MASS_ELEM_STYLE
  2
AecDbMassElemStyle
  3
AecBaseEx50|Product Desc: Autodesk Architectural Desktop 2007 |Company: Autodesk,Inc. |WEB Address: www.autodesk.com
 90
    32897
280
     0
281
     0
  0
CLASS
  1
AEC_FRAME_DEF
  2
AecDbOpeningEndcapStyle
  3
AecArchBase50|Product Desc: Autodesk Architectural Desktop 2007 |Company: Autodesk,Inc. |WEB Address: www.autodesk.com
 90
    32897
280
     0
281
     0
  0
CLASS
  1
AEC_STAIR_WINDER_TYPE_BALANCED
  2
AecDbStairWinderTypeBalanced
  3
AecArchBase50|Product Desc: Autodesk Architectural Desktop 2007 |Company: Autodesk,Inc. |WEB Address: www.autodesk.com
 90
    32897
280
     0
281
     0
  0
CLASS
  1
BLOCKBASEPOINTPARAMETER
  2
AcDbBlockBasepointParameter
  3
ObjectDBX Classes
 90
    33921
280
     0
281
     0
  0
CLASS
  1
BASEPOINTPARAMETERENTITY
  2
AcDbBlockBasepointParameterEntity
  3
ObjectDBX Classes
 90
    33793
280
     0
281
     1
  0
CLASS
  1
AEC_WALL
  2
AecDbWall
  3
AecArchBase50|Product Desc: Autodesk Architectural Desktop 2007 |Company: Autodesk,Inc. |WEB Address: www.autodesk.com
 90
    33661
280
     0
281
     1
  0
CLASS
  1
AEC_WALL_STYLE
  2
AecDbWallStyle
  3
AecArchBase50|Product Desc: Autodesk Architectural Desktop 2007 |Company: Autodesk,Inc. |WEB Address: www.autodesk.com
 90
    32897
280
     0
281
     0
  0
CLASS
  1
AEC_ANCHOR_TAG_TO_ENT
  2
AecDbAnchorTagToEnt
  3
AecScheduleData50|Product Desc: Autodesk Architectural Desktop 2007 |Company: Autodesk,Inc. |WEB Address: www.autodesk.com
 90
    32897
280
     0
281
     0
  0
CLASS
  1
AEC_ZONE
  2
AecDbZone
  3
AecArchBase50|Product Desc: Autodesk Architectural Desktop 2007 |Company: Autodesk,Inc. |WEB Address: www.autodesk.com
 90
    33661
280
     0
281
     1
  0
CLASS
  1
AECS_MEMBER
  2
AecsDbMember
  3
AecStructureBase50|Product Desc: Autodesk Architectural Desktop 2007 |Company: Autodesk,Inc. |WEB Address: www.autodesk.com
 90
    33661
280
     0
281
     1
  0
CLASS
  1
AECS_MEMBER_STYLE
  2
AecsDbMemberStyle
  3
AecStructureBase50|Product Desc: Autodesk Architectural Desktop 2007 |Company: Autodesk,Inc. |WEB Address: www.autodesk.com
 90
    32897
280
     0
281
     0
  0
CLASS
  1
BLOCKFLIPPARAMETER
  2
AcDbBlockFlipParameter
  3
ObjectDBX Classes
 90
    33921
280
     0
281
     0
  0
CLASS
  1
BLOCKFLIPGRIP
  2
AcDbBlockFlipGrip
  3
ObjectDBX Classes
 90
    33921
280
     0
281
     0
  0
CLASS
  1
BLOCKFLIPACTION
  2
AcDbBlockFlipAction
  3
ObjectDBX Classes
 90
    33921
280
     0
281
     0
  0
CLASS
  1
BLOCKROTATIONPARAMETER
  2
AcDbBlockRotationParameter
  3
ObjectDBX Classes
 90
    33921
280
     0
281
     0
  0
CLASS
  1
BLOCKROTATIONGRIP
  2
AcDbBlockRotationGrip
  3
ObjectDBX Classes
 90
    33921
280
     0
281
     0
  0
CLASS
  1
BLOCKROTATEACTION
  2
AcDbBlockRotateAction
  3
ObjectDBX Classes
 90
    33921
280
     0
281
     0
  0
CLASS
  1
AEC_ANCHOR_MVB_TO_UCS
  2
AecDbAnchorMVBToUCS
  3
AecBase50|Product Desc: Autodesk Architectural Desktop 2007 |Company: Autodesk,Inc. |WEB Address: www.autodesk.com
 90
    32897
280
     0
281
     0
  0
CLASS
  1
AEC_MASS_ELEM
  2
AecDbMassElem
  3
AecBaseEx50|Product Desc: Autodesk Architectural Desktop 2007 |Company: Autodesk,Inc. |WEB Address: www.autodesk.com
 90
    33661
280
     0
281
     1
  0
CLASS
  1
AEC_WINDOW
  2
AecDbWindow
  3
AecArchBase50|Product Desc: Autodesk Architectural Desktop 2007 |Company: Autodesk,Inc. |WEB Address: www.autodesk.com
 90
    33661
280
     0
281
     1
  0
CLASS
  1
AEC_ANCHOR_OPENINGBASE_TO_WALL
  2
AecDbAnchorOpeningBaseToWall
  3
AecArchBase50|Product Desc: Autodesk Architectural Desktop 2007 |Company: Autodesk,Inc. |WEB Address: www.autodesk.com
 90
    32897
280
     0
281
     0
  0
CLASS
  1
AEC_DOOR
  2
AecDbDoor
  3
AecArchBase50|Product Desc: Autodesk Architectural Desktop 2007 |Company: Autodesk,Inc. |WEB Address: www.autodesk.com
 90
    33661
280
     0
281
     1
  0
CLASS
  1
AEC_OPENING
  2
AecDbOpening
  3
AecArchBase50|Product Desc: Autodesk Architectural Desktop 2007 |Company: Autodesk,Inc. |WEB Address: www.autodesk.com
 90
    33661
280
     0
281
     1
  0
CLASS
  1
AEC_TEXT_NOTE
  2
AecDbTextNote
  3
AecBase50|Product Desc: Autodesk Architectural Desktop 2007 |Company: Autodesk,Inc. |WEB Address: www.autodesk.com
 90
    32897
280
     0
281
     0
  0
CLASS
  1
AEC_STAIR
  2
AecDbStair
  3
AecArchBase50|Product Desc: Autodesk Architectural Desktop 2007 |Company: Autodesk,Inc. |WEB Address: www.autodesk.com
 90
    33661
280
     0
281
     1
  0
CLASS
  1
AEC_RAILING
  2
AecDbRailing
  3
AecArchBase50|Product Desc: Autodesk Architectural Desktop 2007 |Company: Autodesk,Inc. |WEB Address: www.autodesk.com
 90
    33661
280
     0
281
     1
  0
CLASS
  1
AEC_ANCHOR_RAILING_TO_STAIR
  2
AecDbAnchorRailingToStair
  3
AecArchBase50|Product Desc: Autodesk Architectural Desktop 2007 |Company: Autodesk,Inc. |WEB Address: www.autodesk.com
 90
    32897
280
     0
281
     0
  0
CLASS
  1
AEC_DOOR_STYLE
  2
AecDbDoorStyle
  3
AecArchBase50|Product Desc: Autodesk Architectural Desktop 2007 |Company: Autodesk,Inc. |WEB Address: www.autodesk.com
 90
    32897
280
     0
281
     0
  0
CLASS
  1
AEC_STDSIZE_OPENINGS
  2
AecDbStdSizeOpeningList
  3
AecArchBase50|Product Desc: Autodesk Architectural Desktop 2007 |Company: Autodesk,Inc. |WEB Address: www.autodesk.com
 90
    32897
280
     0
281
     0
  0
CLASS
  1
AEC_PROFILE_DEF
  2
AecDbProfileDef
  3
AecBase50|Product Desc: Autodesk Architectural Desktop 2007 |Company: Autodesk,Inc. |WEB Address: www.autodesk.com
 90
    32897
280
     0
281
     0
  0
CLASS
  1
AEC_RAILING_STYLE
  2
AecDbRailingStyle
  3
AecArchBase50|Product Desc: Autodesk Architectural Desktop 2007 |Company: Autodesk,Inc. |WEB Address: www.autodesk.com
 90
    32897
280
     0
281
     0
  0
CLASS
  1
AEC_STAIR_STYLE
  2
AecDbStairStyle
  3
AecArchBase50|Product Desc: Autodesk Architectural Desktop 2007 |Company: Autodesk,Inc. |WEB Address: www.autodesk.com
 90
    32897
280
     0
281
     0
  0
CLASS
  1
AEC_STAIR_WINDER_STYLE
  2
AecDbStairWinderStyle
  3
AecArchBase50|Product Desc: Autodesk Architectural Desktop 2007 |Company: Autodesk,Inc. |WEB Address: www.autodesk.com
 90
    32897
280
     0
281
     0
  0
CLASS
  1
AEC_STAIR_WINDER_TYPE_SINGLE_POINT
  2
AecDbStairWinderTypeSinglePoint
  3
AecArchBase50|Product Desc: Autodesk Architectural Desktop 2007 |Company: Autodesk,Inc. |WEB Address: www.autodesk.com
 90
    32897
280
     0
281
     0
  0
CLASS
  1
AEC_WALLMOD_STYLE
  2
AecDbWallModStyle
  3
AecArchBase50|Product Desc: Autodesk Architectural Desktop 2007 |Company: Autodesk,Inc. |WEB Address: www.autodesk.com
 90
    32897
280
     0
281
     0
  0
CLASS
  1
AEC_WINDOW_STYLE
  2
AecDbWindowStyle
  3
AecArchBase50|Product Desc: Autodesk Architectural Desktop 2007 |Company: Autodesk,Inc. |WEB Address: www.autodesk.com
 90
    32897
280
     0
281
     0
  0
CLASS
  1
AEC_ROOFSLAB
  2
AecDbRoofSlab
  3
AecArchBase50|Product Desc: Autodesk Architectural Desktop 2007 |Company: Autodesk,Inc. |WEB Address: www.autodesk.com
 90
    33661
280
     0
281
     1
  0
CLASS
  1
AEC_SLAB
  2
AecDbSlab
  3
AecArchBase50|Product Desc: Autodesk Architectural Desktop 2007 |Company: Autodesk,Inc. |WEB Address: www.autodesk.com
 90
    33661
280
     0
281
     1
  0
CLASS
  1
AEC_STAIR_WINDER_TYPE_MANUAL
  2
AecDbStairWinderTypeManual
  3
AecArchBase50|Product Desc: Autodesk Architectural Desktop 2007 |Company: Autodesk,Inc. |WEB Address: www.autodesk.com
 90
    32897
280
     0
281
     0
  0
CLASS
  1
AEC_PROP_SET_OVERRIDE_CONTAINER
  2
AecDbPropSetOverrideContainer
  3
AecScheduleData50|Product Desc: Autodesk Architectural Desktop 2007 |Company: Autodesk,Inc. |WEB Address: www.autodesk.com
 90
    32897
280
     0
281
     0
  0
CLASS
  1
SCALE
  2
AcDbScale
  3
ObjectDBX Classes
 90
     1153
280
     0
281
     0
  0
CLASS
  1
MLEADERSTYLE
  2
AcDbMLeaderStyle
  3
ACDB_MLEADERSTYLE_CLASS
 90
    36863
280
     0
281
     0
  0
CLASS
  1
AEC_REFEDIT_STATUS_TRACKER
  2
AecDbRefEditStatusTracker
  3
AecArchBase50|Product Desc: Autodesk Architectural Desktop 2007 |Company: Autodesk,Inc. |WEB Address: www.autodesk.com
 90
    32897
280
     0
281
     0
  0
CLASS
  1
CELLSTYLEMAP
  2
AcDbCellStyleMap
  3
ObjectDBX Classes
 90
     1152
280
     0
281
     0
  0
CLASS
  1
BLOCKARRAYACTION
  2
AcDbBlockArrayAction
  3
ObjectDBX Classes
 90
    33921
280
     0
281
     0
  0
CLASS
  1
AEC_2D_SECTION
  2
AecDb2dSection
  3
AecBase50|Product Desc: Autodesk Architectural Desktop 2007 |Company: Autodesk,Inc. |WEB Address: www.autodesk.com
 90
    33661
280
     0
281
     1
  0
CLASS
  1
AEC_2DSECTION_STYLE
  2
AecDb2dSectionStyle
  3
AecBase50|Product Desc: Autodesk Architectural Desktop 2007 |Company: Autodesk,Inc. |WEB Address: www.autodesk.com
 90
    32897
280
     0
281
     0
  0
ENDSEC
  0
SECTION
  2
TABLES
  0
TABLE
  2
VPORT
  5
1C5
330
0
100
AcDbSymbolTable
 70
     1
  0
VPORT
  5
1C6
330
1C5
100
AcDbSymbolTableRecord
100
AcDbViewportTableRecord
  2
*Active
 70
     0
 10
0.0
 20
0.0
 11
1.0
 21
1.0
 12
21235.70547191312
 22
-4636.247759455431
 13
0.0
 23
0.0
 14
0.5
 24
0.5
 15
0.5
 25
0.5
 16
0.0
 26
0.0
 36
1.0
 17
0.0
 27
0.0
 37
0.0
 40
21750.56101575456
 41
2.065351418002466
 42
50.0
 43
0.0
 44
0.0
 50
0.0
 51
0.0
 71
     0
 72
  1000
 73
     1
 74
     1
 75
     0
 76
     0
 77
     0
 78
     0
281
     0
 65
     1
110
0.0
120
0.0
130
0.0
111
1.0
121
0.0
131
0.0
112
0.0
122
1.0
132
0.0
 79
     0
146
0.0
  0
ENDTAB
  0
TABLE
  2
LTYPE
  5
1C0
330
0
100
AcDbSymbolTable
 70
     3
  0
LTYPE
  5
1C1
330
1C0
100
AcDbSymbolTableRecord
100
AcDbLinetypeTableRecord
  2
ByBlock
 70
     0
  3

 72
    65
 73
     0
 40
0.0
  0
LTYPE
  5
1C2
330
1C0
100
AcDbSymbolTableRecord
100
AcDbLinetypeTableRecord
  2
ByLayer
 70
     0
  3

 72
    65
 73
     0
 40
0.0
  0
LTYPE
  5
10
330
1C0
100
AcDbSymbolTableRecord
100
AcDbLinetypeTableRecord
  2
Continuous
 70
     0
  3
Solid line
 72
    65
 73
     0
 40
0.0
  0
LTYPE
  5
16
330
1C0
100
AcDbSymbolTableRecord
100
AcDbLinetypeTableRecord
  2
HIDDEN
 70
     0
  3
__ __ __ __ __ __ __ __ __ __ __ __ __ __ __ __
 72
    65
 73
     2
 40
0.375
 49
0.25
 74
     0
 49
-0.125
 74
     0
  0
LTYPE
  5
188
330
1C0
100
AcDbSymbolTableRecord
100
AcDbLinetypeTableRecord
  2
DASHED
 70
     0
  3
Dashed __ __ __ __ __ __ __ __ __ __ __ __ __ _
 72
    65
 73
     2
 40
0.75
 49
0.5
 74
     0
 49
-0.25
 74
     0
  0
ENDTAB
  0
TABLE
  2
LAYER
  5
1B8
102
{ACAD_XDICTIONARY
360
1B9
102
}
330
0
100
AcDbSymbolTable
 70
     8
  0
LAYER
  5
6
102
{ACAD_XDICTIONARY
360
7
102
}
330
1B8
100
AcDbSymbolTableRecord
100
AcDbLayerTableRecord
  2
0
 70
     0
 62
     7
  6
Continuous
370
    -3
390
9
1001
RAK
1000
{ACET-LAYISO
1070
     0
1070
     7
1000
Continuous
1070
     1
1071
       -3
1071
        1
1005
9
1000
ACET-LAYISO}
  0
LAYER
  5
81
330
1B8
100
AcDbSymbolTableRecord
100
AcDbLayerTableRecord
  2
DEFPOINTS
 70
     1
 62
    -7
  6
Continuous
290
     0
370
    -3
390
9
1001
RAK
1000
{ACET-LAYISO
1070
     0
1070
    -7
1000
Continuous
1071
       -3
1071
        0
1005
9
1000
ACET-LAYISO}
  0
LAYER
  5
18
102
{ACAD_XDICTIONARY
360
19
102
}
330
1B8
100
AcDbSymbolTableRecord
100
AcDbLayerTableRecord
  2
0Napisy-PL
 70
     0
 62
   140
  6
Continuous
370
    15
390
9
1001
RAK
1000
{ACET-LAYISO
1070
     0
1070
   140
1000
Continuous
1071
       15
1071
        1
1005
9
1000
ACET-LAYISO}
  0
LAYER
  5
13
102
{ACAD_XDICTIONARY
360
14
102
}
330
1B8
100
AcDbSymbolTableRecord
100
AcDbLayerTableRecord
  2
0Napisy
 70
     0
 62
   150
  6
Continuous
370
    15
390
9
1001
RAK
1000
{ACET-LAYISO
1070
     0
1070
   150
1000
Continuous
1071
       15
1071
        1
1005
9
1000
ACET-LAYISO}
  0
LAYER
  5
6C
102
{ACAD_XDICTIONARY
360
6D
102
}
330
1B8
100
AcDbSymbolTableRecord
100
AcDbLayerTableRecord
  2
0Wymiary-PL
 70
     0
 62
     1
  6
Continuous
370
    -3
390
9
1001
RAK
1000
{ACET-LAYISO
1070
     0
1070
     1
1000
Continuous
1071
       -3
1071
        1
1005
9
1000
ACET-LAYISO}
  0
LAYER
  5
28
102
{ACAD_XDICTIONARY
360
29
102
}
330
1B8
100
AcDbSymbolTableRecord
100
AcDbLayerTableRecord
  2
0Hatch
 70
     0
 62
   122
  6
Continuous
370
     5
390
9
  0
LAYER
  5
1E
330
1B8
100
AcDbSymbolTableRecord
100
AcDbLayerTableRecord
  2
RAMKI-A4
 70
     0
 62
     2
  6
Continuous
290
     0
370
    -3
390
9
1001
RAK
1000
{ACET-LAYISO
1070
     0
1070
     2
1000
Continuous
1071
       -3
1071
        0
1005
9
1000
ACET-LAYISO}
  0
LAYER
  5
185
102
{ACAD_XDICTIONARY
360
186
102
}
330
1B8
100
AcDbSymbolTableRecord
100
AcDbLayerTableRecord
  2
A-MassElement-G
 70
     0
 62
   210
  6
Continuous
370
    -3
390
9
1001
AcAecLayerStandard
1000
1m1_ARCHON
1001
RAK
1000
{ACET-LAYISO
1070
     0
1070
   210
1000
Continuous
1071
       -3
1071
        1
1005
9
1000
ACET-LAYISO}
  0
ENDTAB
  0
TABLE
  2
STYLE
  5
1BD
330
0
100
AcDbSymbolTable
 70
     4
  0
STYLE
  5
1BE
330
1BD
100
AcDbSymbolTableRecord
100
AcDbTextStyleTableRecord
  2
Standard
 70
     0
 40
0.0
 41
1.0
 50
0.0
 71
     0
 42
0.2
  3
txt
  4

  0
STYLE
  5
7F
330
1BD
100
AcDbSymbolTableRecord
100
AcDbTextStyleTableRecord
  2
ROMANS
 70
     0
 40
0.0
 41
0.8
 50
0.0
 71
     0
 42
15.0
  3
romans.shx
  4

  0
STYLE
  5
20
330
1BD
100
AcDbSymbolTableRecord
100
AcDbTextStyleTableRecord
  2
ARIAL
 70
     0
 40
0.0
 41
1.0
 50
0.0
 71
     0
 42
20.0
  3
ARIAL.TTF
  4

1001
ACAD
1000
Arial CE
1071
    60962
  0
STYLE
  5
1B
330
1BD
100
AcDbSymbolTableRecord
100
AcDbTextStyleTableRecord
  2
AVA
 70
     0
 40
0.0
 41
1.0
 50
0.0
 71
     0
 42
158.5644099714409
  3
ARIAL.TTF
  4

1001
ACAD
1000
Arial CE
1071
    60962
  0
ENDTAB
  0
TABLE
  2
VIEW
  5
1C3
330
0
100
AcDbSymbolTable
 70
     0
  0
ENDTAB
  0
TABLE
  2
UCS
  5
1C4
330
0
100
AcDbSymbolTable
 70
     0
  0
ENDTAB
  0
TABLE
  2
APPID
  5
1C9
330
0
100
AcDbSymbolTable
 70
     6
  0
APPID
  5
1C
330
1C9
100
AcDbSymbolTableRecord
100
AcDbRegAppTableRecord
  2
ACAD
 70
     0
  0
APPID
  5
11
330
1C9
100
AcDbSymbolTableRecord
100
AcDbRegAppTableRecord
  2
RAK
 70
     0
  0
APPID
  5
187
330
1C9
100
AcDbSymbolTableRecord
100
AcDbRegAppTableRecord
  2
AcAecLayerStandard
 70
     0
  0
APPID
  5
22
330
1C9
100
AcDbSymbolTableRecord
100
AcDbRegAppTableRecord
  2
DCO15
 70
     0
  0
APPID
  5
1AF
330
1C9
100
AcDbSymbolTableRecord
100
AcDbRegAppTableRecord
  2
ACAD_PSEXT
 70
     0
  0
APPID
  5
21
330
1C9
100
AcDbSymbolTableRecord
100
AcDbRegAppTableRecord
  2
AcDbBlockRepETag
 70
     0
  0
ENDTAB
  0
TABLE
  2
DIMSTYLE
  5
1CA
330
0
100
AcDbSymbolTable
 70
     1
100
AcDbDimStyleTable
 71
     1
340
85
  0
DIMSTYLE
105
85
102
{ACAD_REACTORS
330
137
330
142
330
14D
330
158
330
163
330
16E
330
18E
330
19D
330
6B
330
86
330
91
330
9C
330
A7
330
B2
330
BD
330
C8
330
11F
330
12C
102
}
330
1CA
100
AcDbSymbolTableRecord
100
AcDbDimStyleTableRecord
  2
500
 70
     0
 41
30.0
 42
43.0
 43
0.0
 44
13.0
 45
0.5
 46
12.0
 73
     0
 74
     0
 75
     1
 76
     1
 78
    12
140
80.0
141
0.0
145
1.0
147
0.0
172
     1
174
     1
176
     1
177
     1
178
   140
271
     1
272
     1
279
     2
340
7F
341
75
342
75
  0
ENDTAB
  0
TABLE
  2
BLOCK_RECORD
  5
1
330
0
100
AcDbSymbolTable
 70
    19
  0
BLOCK_RECORD
  5
2
102
{ACAD_XDICTIONARY
360
3
102
}
330
1
100
AcDbSymbolTableRecord
100
AcDbBlockTableRecord
  2
*Model_Space
340
1AD
  0
BLOCK_RECORD
  5
1B0
102
{ACAD_XDICTIONARY
360
1B1
102
}
330
1
100
AcDbSymbolTableRecord
100
AcDbBlockTableRecord
  2
*Paper_Space
340
1B5
  0
BLOCK_RECORD
  5
75
102
{ACAD_XDICTIONARY
360
76
102
}
330
1
100
AcDbSymbolTableRecord
100
AcDbBlockTableRecord
  2
B-DIM
340
0
102
{BLKREFS
331
74
331
7D
331
8A
331
8B
331
95
331
96
331
A0
331
A1
331
AB
331
AC
331
B6
331
B7
331
C1
331
C2
331
125
331
126
331
130
331
131
331
13B
331
13C
331
146
331
147
331
151
331
152
331
15C
331
15D
331
167
331
168
331
197
331
198
331
1A6
331
1A7
331
CC
331
CD
331
172
331
173
102
}
  0
BLOCK_RECORD
  5
138
330
1
100
AcDbSymbolTableRecord
100
AcDbBlockTableRecord
  2
*D1
340
0
  0
BLOCK_RECORD
  5
143
330
1
100
AcDbSymbolTableRecord
100
AcDbBlockTableRecord
  2
*D2
340
0
  0
BLOCK_RECORD
  5
14E
330
1
100
AcDbSymbolTableRecord
100
AcDbBlockTableRecord
  2
*D3
340
0
  0
BLOCK_RECORD
  5
159
330
1
100
AcDbSymbolTableRecord
100
AcDbBlockTableRecord
  2
*D4
340
0
  0
BLOCK_RECORD
  5
164
330
1
100
AcDbSymbolTableRecord
100
AcDbBlockTableRecord
  2
*D5
340
0
  0
BLOCK_RECORD
  5
16F
330
1
100
AcDbSymbolTableRecord
100
AcDbBlockTableRecord
  2
*D6
340
0
  0
BLOCK_RECORD
  5
6F
330
1
100
AcDbSymbolTableRecord
100
AcDbBlockTableRecord
  2
*D7
340
0
  0
BLOCK_RECORD
  5
87
330
1
100
AcDbSymbolTableRecord
100
AcDbBlockTableRecord
  2
*D8
340
0
  0
BLOCK_RECORD
  5
92
330
1
100
AcDbSymbolTableRecord
100
AcDbBlockTableRecord
  2
*D9
340
0
  0
BLOCK_RECORD
  5
9D
330
1
100
AcDbSymbolTableRecord
100
AcDbBlockTableRecord
  2
*D10
340
0
  0
BLOCK_RECORD
  5
A8
330
1
100
AcDbSymbolTableRecord
100
AcDbBlockTableRecord
  2
*D11
340
0
  0
BLOCK_RECORD
  5
B3
330
1
100
AcDbSymbolTableRecord
100
AcDbBlockTableRecord
  2
*D12
340
0
  0
BLOCK_RECORD
  5
BE
330
1
100
AcDbSymbolTableRecord
100
AcDbBlockTableRecord
  2
*D13
340
0
  0
BLOCK_RECORD
  5
C9
330
1
100
AcDbSymbolTableRecord
100
AcDbBlockTableRecord
  2
*D14
340
0
  0
BLOCK_RECORD
  5
120
330
1
100
AcDbSymbolTableRecord
100
AcDbBlockTableRecord
  2
*D15
340
0
  0
BLOCK_RECORD
  5
12D
330
1
100
AcDbSymbolTableRecord
100
AcDbBlockTableRecord
  2
*D16
340
0
  0
BLOCK_RECORD
  5
191
330
1
100
AcDbSymbolTableRecord
100
AcDbBlockTableRecord
  2
*D17
340
0
  0
BLOCK_RECORD
  5
1A0
330
1
100
AcDbSymbolTableRecord
100
AcDbBlockTableRecord
  2
*D18
340
0
  0
ENDTAB
  0
ENDSEC
  0
SECTION
  2
BLOCKS
  0
BLOCK
  5
5
330
2
100
AcDbEntity
  8
0
100
AcDbBlockBegin
  2
*Model_Space
 70
     0
 10
0.0
 20
0.0
 30
0.0
  3
*Model_Space
  1

  0
ENDBLK
  5
1AC
330
2
100
AcDbEntity
  8
0
100
AcDbBlockEnd
  0
BLOCK
  5
1B3
330
1B0
100
AcDbEntity
 67
     1
  8
0
100
AcDbBlockBegin
  2
*Paper_Space
 70
     0
 10
0.0
 20
0.0
 30
0.0
  3
*Paper_Space
  1

  0
ENDBLK
  5
1B4
330
1B0
100
AcDbEntity
 67
     1
  8
0
100
AcDbBlockEnd
  0
BLOCK
  5
78
330
75
100
AcDbEntity
  8
0
100
AcDbBlockBegin
  2
B-DIM
 70
     0
 10
0.0
 20
0.0
 30
0.0
  3
B-DIM
  1

  0
LINE
  5
79
330
75
100
AcDbEntity
  8
0
 62
     1
100
AcDbLine
 10
0.000000000000091
 20
-1.1
 30
0.0
 11
0.000000000000091
 21
1.1
 31
0.0
  0
LWPOLYLINE
  5
7A
330
75
100
AcDbEntity
  8
0
 62
     1
100
AcDbPolyline
 90
        2
 70
     0
 43
0.3
 10
-0.7071067811864851
 20
-0.7071067811864851
 10
0.7071067811865759
 20
0.7071067811865759
  0
LINE
  5
7B
330
75
100
AcDbEntity
  8
0
 62
     1
100
AcDbLine
 10
1.20000000000009
 20
0.0
 30
0.0
 11
-1.199999999999909
 21
0.0
 31
0.0
  0
ENDBLK
  5
7C
330
75
100
AcDbEntity
  8
0
100
AcDbBlockEnd
  0
BLOCK
  5
139
330
138
100
AcDbEntity
  8
0
100
AcDbBlockBegin
  2
*D1
 70
     1
 10
0.0
 20
0.0
 30
0.0
  3
*D1
  1

  0
LINE
  5
13A
330
138
100
AcDbEntity
  8
0Wymiary-PL
 62
     1
370
    -2
100
AcDbLine
 10
18071.71057410729
 20
-4470.365630282286
 30
0.0
 11
18071.71057410729
 21
-4610.395630282284
 31
0.0
  0
INSERT
  5
13B
330
138
100
AcDbEntity
  8
0Wymiary-PL
 62
     1
370
    -2
100
AcDbBlockReference
  2
B-DIM
 10
18071.71057410729
 20
-4440.365630282287
 30
0.0
 41
30.0
 42
30.0
 43
30.0
 50
90.0
  0
INSERT
  5
13C
330
138
100
AcDbEntity
  8
0Wymiary-PL
 62
     1
370
    -2
100
AcDbBlockReference
  2
B-DIM
 10
18071.71057410729
 20
-4640.395630282283
 30
0.0
 41
30.0
 42
30.0
 43
30.0
 50
270.0
  0
MTEXT
  5
13D
330
138
100
AcDbEntity
  8
0Wymiary-PL
 62
   140
100
AcDbMText
 10
17991.71057410729
 20
-4540.380630282283
 30
0.0
 40
80.0
 41
0.0
 71
     5
 72
     1
  1
\A1;200
  7
ROMANS
 11
0.0000000000000001
 21
1.0
 31
0.0
 73
     1
 44
1.0
1001
ACAD
1000
MTEXTBEGIN
1070
    73
1070
     1
1070
    44
1040
1.0
1070
    74
1070
     0
1000
MTEXTEND
  0
POINT
  5
13E
330
138
100
AcDbEntity
  8
DEFPOINTS
 62
     0
100
AcDbPoint
 10
17708.24463647706
 20
-4440.365630282287
 30
0.0
  0
POINT
  5
13F
330
138
100
AcDbEntity
  8
DEFPOINTS
 62
     0
100
AcDbPoint
 10
17404.74463647706
 20
-4640.395630282283
 30
0.0
  0
POINT
  5
140
330
138
100
AcDbEntity
  8
DEFPOINTS
 62
     0
100
AcDbPoint
 10
18071.71057410729
 20
-4640.395630282283
 30
0.0
  0
ENDBLK
  5
141
330
138
100
AcDbEntity
  8
0
100
AcDbBlockEnd
  0
BLOCK
  5
144
330
143
100
AcDbEntity
  8
0
100
AcDbBlockBegin
  2
*D2
 70
     1
 10
0.0
 20
0.0
 30
0.0
  3
*D2
  1

  0
LINE
  5
145
330
143
100
AcDbEntity
  8
0Wymiary-PL
 62
     1
370
    -2
100
AcDbLine
 10
18292.58133871513
 20
-3065.36105527386
 30
0.0
 11
18292.58133871513
 21
-4610.395630282284
 31
0.0
  0
INSERT
  5
146
330
143
100
AcDbEntity
  8
0Wymiary-PL
 62
     1
370
    -2
100
AcDbBlockReference
  2
B-DIM
 10
18292.58133871513
 20
-3035.36105527386
 30
0.0
 41
30.0
 42
30.0
 43
30.0
 50
90.0
  0
INSERT
  5
147
330
143
100
AcDbEntity
  8
0Wymiary-PL
 62
     1
370
    -2
100
AcDbBlockReference
  2
B-DIM
 10
18292.58133871513
 20
-4640.395630282283
 30
0.0
 41
30.0
 42
30.0
 43
30.0
 50
270.0
  0
MTEXT
  5
148
330
143
100
AcDbEntity
  8
0Wymiary-PL
 62
   140
100
AcDbMText
 10
18212.58133871513
 20
-3837.878342778069
 30
0.0
 40
80.0
 41
0.0
 71
     5
 72
     1
  1
\A1;1605
  7
ROMANS
 11
0.0000000000000001
 21
1.0
 31
0.0
 73
     1
 44
1.0
1001
ACAD
1000
MTEXTBEGIN
1070
    73
1070
     1
1070
    44
1040
1.0
1070
    74
1070
     0
1000
MTEXTEND
  0
POINT
  5
149
330
143
100
AcDbEntity
  8
DEFPOINTS
 62
     0
100
AcDbPoint
 10
17351.74463647706
 20
-3035.361055273859
 30
0.0
  0
POINT
  5
14A
330
143
100
AcDbEntity
  8
DEFPOINTS
 62
     0
100
AcDbPoint
 10
17248.24463647706
 20
-4640.395630282283
 30
0.0
  0
POINT
  5
14B
330
143
100
AcDbEntity
  8
DEFPOINTS
 62
     0
100
AcDbPoint
 10
18292.58133871513
 20
-4640.395630282283
 30
0.0
  0
ENDBLK
  5
14C
330
143
100
AcDbEntity
  8
0
100
AcDbBlockEnd
  0
BLOCK
  5
14F
330
14E
100
AcDbEntity
  8
0
100
AcDbBlockBegin
  2
*D3
 70
     1
 10
0.0
 20
0.0
 30
0.0
  3
*D3
  1

  0
LINE
  5
150
330
14E
100
AcDbEntity
  8
0Wymiary-PL
 62
     1
370
    -2
100
AcDbLine
 10
17627.13174218285
 20
-2549.796009794853
 30
0.0
 11
17485.13174218286
 21
-2549.796009794853
 31
0.0
  0
INSERT
  5
151
330
14E
100
AcDbEntity
  8
0Wymiary-PL
 62
     1
370
    -2
100
AcDbBlockReference
  2
B-DIM
 10
17657.13174218286
 20
-2549.796009794853
 30
0.0
 41
30.0
 42
30.0
 43
30.0
  0
INSERT
  5
152
330
14E
100
AcDbEntity
  8
0Wymiary-PL
 62
     1
370
    -2
100
AcDbBlockReference
  2
B-DIM
 10
17455.13174218286
 20
-2549.796009794853
 30
0.0
 41
30.0
 42
30.0
 43
30.0
 50
180.0
  0
MTEXT
  5
153
330
14E
100
AcDbEntity
  8
0Wymiary-PL
 62
   140
100
AcDbMText
 10
17556.13174218286
 20
-2469.796009794853
 30
0.0
 40
80.0
 41
0.0
 71
     5
 72
     1
  1
\A1;202
  7
ROMANS
 73
     1
 44
1.0
1001
ACAD
1000
MTEXTBEGIN
1070
    73
1070
     1
1070
    44
1040
1.0
1070
    74
1070
     0
1000
MTEXTEND
  0
POINT
  5
154
330
14E
100
AcDbEntity
  8
DEFPOINTS
 62
     0
100
AcDbPoint
 10
17657.13174218286
 20
-3319.641610010473
 30
0.0
  0
POINT
  5
155
330
14E
100
AcDbEntity
  8
DEFPOINTS
 62
     0
100
AcDbPoint
 10
17455.13174218286
 20
-3319.641610010473
 30
0.0
  0
POINT
  5
156
330
14E
100
AcDbEntity
  8
DEFPOINTS
 62
     0
100
AcDbPoint
 10
17455.13174218286
 20
-2549.796009794853
 30
0.0
  0
ENDBLK
  5
157
330
14E
100
AcDbEntity
  8
0
100
AcDbBlockEnd
  0
BLOCK
  5
15A
330
159
100
AcDbEntity
  8
0
100
AcDbBlockBegin
  2
*D4
 70
     1
 10
0.0
 20
0.0
 30
0.0
  3
*D4
  1

  0
LINE
  5
15B
330
159
100
AcDbEntity
  8
0Wymiary-PL
 62
     1
370
    -2
100
AcDbLine
 10
17425.13174218285
 20
-2549.796009794853
 30
0.0
 11
17087.13174218285
 21
-2549.796009794853
 31
0.0
  0
INSERT
  5
15C
330
159
100
AcDbEntity
  8
0Wymiary-PL
 62
     1
370
    -2
100
AcDbBlockReference
  2
B-DIM
 10
17455.13174218286
 20
-2549.796009794853
 30
0.0
 41
30.0
 42
30.0
 43
30.0
  0
INSERT
  5
15D
330
159
100
AcDbEntity
  8
0Wymiary-PL
 62
     1
370
    -2
100
AcDbBlockReference
  2
B-DIM
 10
17057.13174218286
 20
-2549.796009794853
 30
0.0
 41
30.0
 42
30.0
 43
30.0
 50
180.0
  0
MTEXT
  5
15E
330
159
100
AcDbEntity
  8
0Wymiary-PL
 62
   140
100
AcDbMText
 10
17256.13174218286
 20
-2469.796009794853
 30
0.0
 40
80.0
 41
0.0
 71
     5
 72
     1
  1
\A1;398
  7
ROMANS
 73
     1
 44
1.0
1001
ACAD
1000
MTEXTBEGIN
1070
    73
1070
     1
1070
    44
1040
1.0
1070
    74
1070
     0
1000
MTEXTEND
  0
POINT
  5
15F
330
159
100
AcDbEntity
  8
DEFPOINTS
 62
     0
100
AcDbPoint
 10
17455.13174218286
 20
-3319.641610010473
 30
0.0
  0
POINT
  5
160
330
159
100
AcDbEntity
  8
DEFPOINTS
 62
     0
100
AcDbPoint
 10
17057.13174218286
 20
-3184.641610010475
 30
0.0
  0
POINT
  5
161
330
159
100
AcDbEntity
  8
DEFPOINTS
 62
     0
100
AcDbPoint
 10
17057.13174218286
 20
-2549.796009794853
 30
0.0
  0
ENDBLK
  5
162
330
159
100
AcDbEntity
  8
0
100
AcDbBlockEnd
  0
BLOCK
  5
165
330
164
100
AcDbEntity
  8
0
100
AcDbBlockBegin
  2
*D5
 70
     1
 10
0.0
 20
0.0
 30
0.0
  3
*D5
  1

  0
LINE
  5
166
330
164
100
AcDbEntity
  8
0Wymiary-PL
 62
     1
370
    -2
100
AcDbLine
 10
17027.13174218285
 20
-2549.796009794853
 30
0.0
 11
16767.13174218285
 21
-2549.796009794853
 31
0.0
  0
INSERT
  5
167
330
164
100
AcDbEntity
  8
0Wymiary-PL
 62
     1
370
    -2
100
AcDbBlockReference
  2
B-DIM
 10
17057.13174218286
 20
-2549.796009794853
 30
0.0
 41
30.0
 42
30.0
 43
30.0
  0
INSERT
  5
168
330
164
100
AcDbEntity
  8
0Wymiary-PL
 62
     1
370
    -2
100
AcDbBlockReference
  2
B-DIM
 10
16737.13174218286
 20
-2549.796009794853
 30
0.0
 41
30.0
 42
30.0
 43
30.0
 50
180.0
  0
MTEXT
  5
169
330
164
100
AcDbEntity
  8
0Wymiary-PL
 62
   140
100
AcDbMText
 10
16897.13174218286
 20
-2469.796009794853
 30
0.0
 40
80.0
 41
0.0
 71
     5
 72
     1
  1
\A1;320
  7
ROMANS
 73
     1
 44
1.0
1001
ACAD
1000
MTEXTBEGIN
1070
    73
1070
     1
1070
    44
1040
1.0
1070
    74
1070
     0
1000
MTEXTEND
  0
POINT
  5
16A
330
164
100
AcDbEntity
  8
DEFPOINTS
 62
     0
100
AcDbPoint
 10
17057.13174218286
 20
-3184.641610010475
 30
0.0
  0
POINT
  5
16B
330
164
100
AcDbEntity
  8
DEFPOINTS
 62
     0
100
AcDbPoint
 10
16737.13174218286
 20
-3319.641610010473
 30
0.0
  0
POINT
  5
16C
330
164
100
AcDbEntity
  8
DEFPOINTS
 62
     0
100
AcDbPoint
 10
16737.13174218286
 20
-2549.796009794853
 30
0.0
  0
ENDBLK
  5
16D
330
164
100
AcDbEntity
  8
0
100
AcDbBlockEnd
  0
BLOCK
  5
170
330
16F
100
AcDbEntity
  8
0
100
AcDbBlockBegin
  2
*D6
 70
     1
 10
0.0
 20
0.0
 30
0.0
  3
*D6
  1

  0
LINE
  5
171
330
16F
100
AcDbEntity
  8
0Wymiary-PL
 62
     1
370
    -2
100
AcDbLine
 10
16767.13174218285
 20
-2343.341073432043
 30
0.0
 11
17627.13174218285
 21
-2343.341073432043
 31
0.0
  0
INSERT
  5
172
330
16F
100
AcDbEntity
  8
0Wymiary-PL
 62
     1
370
    -2
100
AcDbBlockReference
  2
B-DIM
 10
16737.13174218286
 20
-2343.341073432043
 30
0.0
 41
30.0
 42
30.0
 43
30.0
 50
180.0
  0
INSERT
  5
173
330
16F
100
AcDbEntity
  8
0Wymiary-PL
 62
     1
370
    -2
100
AcDbBlockReference
  2
B-DIM
 10
17657.13174218286
 20
-2343.341073432043
 30
0.0
 41
30.0
 42
30.0
 43
30.0
  0
MTEXT
  5
174
330
16F
100
AcDbEntity
  8
0Wymiary-PL
 62
   140
100
AcDbMText
 10
17197.13174218286
 20
-2263.341073432043
 30
0.0
 40
80.0
 41
0.0
 71
     5
 72
     1
  1
\A1;920
  7
ROMANS
 73
     1
 44
1.0
1001
ACAD
1000
MTEXTBEGIN
1070
    73
1070
     1
1070
    44
1040
1.0
1070
    74
1070
     0
1000
MTEXTEND
  0
POINT
  5
175
330
16F
100
AcDbEntity
  8
DEFPOINTS
 62
     0
100
AcDbPoint
 10
16737.13174218286
 20
-3351.231424859773
 30
0.0
  0
POINT
  5
176
330
16F
100
AcDbEntity
  8
DEFPOINTS
 62
     0
100
AcDbPoint
 10
17657.13174218286
 20
-3351.231424859772
 30
0.0
  0
POINT
  5
177
330
16F
100
AcDbEntity
  8
DEFPOINTS
 62
     0
100
AcDbPoint
 10
17657.13174218286
 20
-2343.341073432043
 30
0.0
  0
ENDBLK
  5
178
330
16F
100
AcDbEntity
  8
0
100
AcDbBlockEnd
  0
BLOCK
  5
70
330
6F
100
AcDbEntity
  8
0
100
AcDbBlockBegin
  2
*D7
 70
     1
 10
0.0
 20
0.0
 30
0.0
  3
*D7
  1

  0
LINE
  5
71
330
6F
100
AcDbEntity
  8
0Wymiary-PL
 62
     1
370
    -2
100
AcDbLine
 10
12358.63388491434
 20
-3005.361055273859
 30
0.0
 11
12358.63388491434
 21
-2975.361055273859
 31
0.0
  0
LINE
  5
72
330
6F
100
AcDbEntity
  8
0Wymiary-PL
 62
     1
370
    -2
100
AcDbLine
 10
12358.63388491434
 20
-3200.361055273857
 30
0.0
 11
12358.63388491434
 21
-3230.361055273858
 31
0.0
  0
LINE
  5
73
330
6F
100
AcDbEntity
  8
0Wymiary-PL
 62
     1
370
    -2
100
AcDbLine
 10
12358.63388491434
 20
-3035.361055273859
 30
0.0
 11
12358.63388491434
 21
-3170.361055273858
 31
0.0
  0
INSERT
  5
74
330
6F
100
AcDbEntity
  8
0Wymiary-PL
 62
     1
370
    -2
100
AcDbBlockReference
  2
B-DIM
 10
12358.63388491434
 20
-3035.361055273859
 30
0.0
 41
30.0
 42
30.0
 43
30.0
 50
270.0
  0
INSERT
  5
7D
330
6F
100
AcDbEntity
  8
0Wymiary-PL
 62
     1
370
    -2
100
AcDbBlockReference
  2
B-DIM
 10
12358.63388491434
 20
-3170.361055273858
 30
0.0
 41
30.0
 42
30.0
 43
30.0
 50
90.0
  0
MTEXT
  5
7E
330
6F
100
AcDbEntity
  8
0Wymiary-PL
 62
   140
100
AcDbMText
 10
12278.63388491434
 20
-3102.861055273857
 30
0.0
 40
80.0
 41
0.0
 71
     5
 72
     1
  1
\A1;135
  7
ROMANS
 11
0.0000000000000001
 21
1.0
 31
0.0
 73
     1
 44
1.0
1001
ACAD
1000
MTEXTBEGIN
1070
    73
1070
     1
1070
    44
1040
1.0
1070
    74
1070
     0
1000
MTEXTEND
  0
POINT
  5
80
330
6F
100
AcDbEntity
  8
DEFPOINTS
 62
     0
100
AcDbPoint
 10
12879.59982254456
 20
-3035.361055273859
 30
0.0
  0
POINT
  5
82
330
6F
100
AcDbEntity
  8
DEFPOINTS
 62
     0
100
AcDbPoint
 10
12680.59982254456
 20
-3170.361055273858
 30
0.0
  0
POINT
  5
83
330
6F
100
AcDbEntity
  8
DEFPOINTS
 62
     0
100
AcDbPoint
 10
12358.63388491434
 20
-3170.361055273858
 30
0.0
  0
ENDBLK
  5
84
330
6F
100
AcDbEntity
  8
0
100
AcDbBlockEnd
  0
BLOCK
  5
88
330
87
100
AcDbEntity
  8
0
100
AcDbBlockBegin
  2
*D8
 70
     1
 10
0.0
 20
0.0
 30
0.0
  3
*D8
  1

  0
LINE
  5
89
330
87
100
AcDbEntity
  8
0Wymiary-PL
 62
     1
370
    -2
100
AcDbLine
 10
12358.63388491434
 20
-3200.361055273857
 30
0.0
 11
12358.63388491434
 21
-4410.365630282288
 31
0.0
  0
INSERT
  5
8A
330
87
100
AcDbEntity
  8
0Wymiary-PL
 62
     1
370
    -2
100
AcDbBlockReference
  2
B-DIM
 10
12358.63388491434
 20
-3170.361055273858
 30
0.0
 41
30.0
 42
30.0
 43
30.0
 50
90.0
  0
INSERT
  5
8B
330
87
100
AcDbEntity
  8
0Wymiary-PL
 62
     1
370
    -2
100
AcDbBlockReference
  2
B-DIM
 10
12358.63388491434
 20
-4440.365630282287
 30
0.0
 41
30.0
 42
30.0
 43
30.0
 50
270.0
  0
MTEXT
  5
8C
330
87
100
AcDbEntity
  8
0Wymiary-PL
 62
   140
100
AcDbMText
 10
12278.63388491434
 20
-3805.363342778071
 30
0.0
 40
80.0
 41
0.0
 71
     5
 72
     1
  1
\A1;1270
  7
ROMANS
 11
0.0000000000000001
 21
1.0
 31
0.0
 73
     1
 44
1.0
1001
ACAD
1000
MTEXTBEGIN
1070
    73
1070
     1
1070
    44
1040
1.0
1070
    74
1070
     0
1000
MTEXTEND
  0
POINT
  5
8D
330
87
100
AcDbEntity
  8
DEFPOINTS
 62
     0
100
AcDbPoint
 10
12680.59982254456
 20
-3170.361055273858
 30
0.0
  0
POINT
  5
8E
330
87
100
AcDbEntity
  8
DEFPOINTS
 62
     0
100
AcDbPoint
 10
12722.09982254456
 20
-4440.365630282287
 30
0.0
  0
POINT
  5
8F
330
87
100
AcDbEntity
  8
DEFPOINTS
 62
     0
100
AcDbPoint
 10
12358.63388491434
 20
-4440.365630282287
 30
0.0
  0
ENDBLK
  5
90
330
87
100
AcDbEntity
  8
0
100
AcDbBlockEnd
  0
BLOCK
  5
93
330
92
100
AcDbEntity
  8
0
100
AcDbBlockBegin
  2
*D9
 70
     1
 10
0.0
 20
0.0
 30
0.0
  3
*D9
  1

  0
LINE
  5
94
330
92
100
AcDbEntity
  8
0Wymiary-PL
 62
     1
370
    -2
100
AcDbLine
 10
12358.63388491434
 20
-4470.365630282286
 30
0.0
 11
12358.63388491434
 21
-4610.395630282284
 31
0.0
  0
INSERT
  5
95
330
92
100
AcDbEntity
  8
0Wymiary-PL
 62
     1
370
    -2
100
AcDbBlockReference
  2
B-DIM
 10
12358.63388491434
 20
-4440.365630282287
 30
0.0
 41
30.0
 42
30.0
 43
30.0
 50
90.0
  0
INSERT
  5
96
330
92
100
AcDbEntity
  8
0Wymiary-PL
 62
     1
370
    -2
100
AcDbBlockReference
  2
B-DIM
 10
12358.63388491434
 20
-4640.395630282283
 30
0.0
 41
30.0
 42
30.0
 43
30.0
 50
270.0
  0
MTEXT
  5
97
330
92
100
AcDbEntity
  8
0Wymiary-PL
 62
   140
100
AcDbMText
 10
12278.63388491434
 20
-4540.380630282284
 30
0.0
 40
80.0
 41
0.0
 71
     5
 72
     1
  1
\A1;200
  7
ROMANS
 11
0.0000000000000001
 21
1.0
 31
0.0
 73
     1
 44
1.0
1001
ACAD
1000
MTEXTBEGIN
1070
    73
1070
     1
1070
    44
1040
1.0
1070
    74
1070
     0
1000
MTEXTEND
  0
POINT
  5
98
330
92
100
AcDbEntity
  8
DEFPOINTS
 62
     0
100
AcDbPoint
 10
12722.09982254456
 20
-4440.365630282287
 30
0.0
  0
POINT
  5
99
330
92
100
AcDbEntity
  8
DEFPOINTS
 62
     0
100
AcDbPoint
 10
13025.59982254456
 20
-4640.395630282283
 30
0.0
  0
POINT
  5
9A
330
92
100
AcDbEntity
  8
DEFPOINTS
 62
     0
100
AcDbPoint
 10
12358.63388491434
 20
-4640.395630282283
 30
0.0
  0
ENDBLK
  5
9B
330
92
100
AcDbEntity
  8
0
100
AcDbBlockEnd
  0
BLOCK
  5
9E
330
9D
100
AcDbEntity
  8
0
100
AcDbBlockBegin
  2
*D10
 70
     1
 10
0.0
 20
0.0
 30
0.0
  3
*D10
  1

  0
LINE
  5
9F
330
9D
100
AcDbEntity
  8
0Wymiary-PL
 62
     1
370
    -2
100
AcDbLine
 10
12137.7631203065
 20
-3065.361055273859
 30
0.0
 11
12137.7631203065
 21
-4610.395630282284
 31
0.0
  0
INSERT
  5
A0
330
9D
100
AcDbEntity
  8
0Wymiary-PL
 62
     1
370
    -2
100
AcDbBlockReference
  2
B-DIM
 10
12137.7631203065
 20
-3035.361055273859
 30
0.0
 41
30.0
 42
30.0
 43
30.0
 50
90.0
  0
INSERT
  5
A1
330
9D
100
AcDbEntity
  8
0Wymiary-PL
 62
     1
370
    -2
100
AcDbBlockReference
  2
B-DIM
 10
12137.7631203065
 20
-4640.395630282283
 30
0.0
 41
30.0
 42
30.0
 43
30.0
 50
270.0
  0
MTEXT
  5
A2
330
9D
100
AcDbEntity
  8
0Wymiary-PL
 62
   140
100
AcDbMText
 10
12057.7631203065
 20
-3837.878342778071
 30
0.0
 40
80.0
 41
0.0
 71
     5
 72
     1
  1
\A1;1605
  7
ROMANS
 11
0.0000000000000001
 21
1.0
 31
0.0
 73
     1
 44
1.0
1001
ACAD
1000
MTEXTBEGIN
1070
    73
1070
     1
1070
    44
1040
1.0
1070
    74
1070
     0
1000
MTEXTEND
  0
POINT
  5
A3
330
9D
100
AcDbEntity
  8
DEFPOINTS
 62
     0
100
AcDbPoint
 10
13078.59982254456
 20
-3035.361055273859
 30
0.0
  0
POINT
  5
A4
330
9D
100
AcDbEntity
  8
DEFPOINTS
 62
     0
100
AcDbPoint
 10
13182.09982254456
 20
-4640.395630282283
 30
0.0
  0
POINT
  5
A5
330
9D
100
AcDbEntity
  8
DEFPOINTS
 62
     0
100
AcDbPoint
 10
12137.7631203065
 20
-4640.395630282283
 30
0.0
  0
ENDBLK
  5
A6
330
9D
100
AcDbEntity
  8
0
100
AcDbBlockEnd
  0
BLOCK
  5
A9
330
A8
100
AcDbEntity
  8
0
100
AcDbBlockBegin
  2
*D11
 70
     1
 10
0.0
 20
0.0
 30
0.0
  3
*D11
  1

  0
LINE
  5
AA
330
A8
100
AcDbEntity
  8
0Wymiary-PL
 62
     1
370
    -2
100
AcDbLine
 10
12592.43680791801
 20
-2549.796009794853
 30
0.0
 11
12734.43680791801
 21
-2549.796009794853
 31
0.0
  0
INSERT
  5
AB
330
A8
100
AcDbEntity
  8
0Wymiary-PL
 62
     1
370
    -2
100
AcDbBlockReference
  2
B-DIM
 10
12562.43680791801
 20
-2549.796009794853
 30
0.0
 41
30.0
 42
30.0
 43
30.0
 50
180.0
  0
INSERT
  5
AC
330
A8
100
AcDbEntity
  8
0Wymiary-PL
 62
     1
370
    -2
100
AcDbBlockReference
  2
B-DIM
 10
12764.43680791801
 20
-2549.796009794853
 30
0.0
 41
30.0
 42
30.0
 43
30.0
  0
MTEXT
  5
AD
330
A8
100
AcDbEntity
  8
0Wymiary-PL
 62
   140
100
AcDbMText
 10
12663.43680791801
 20
-2469.796009794853
 30
0.0
 40
80.0
 41
0.0
 71
     5
 72
     1
  1
\A1;202
  7
ROMANS
 73
     1
 44
1.0
1001
ACAD
1000
MTEXTBEGIN
1070
    73
1070
     1
1070
    44
1040
1.0
1070
    74
1070
     0
1000
MTEXTEND
  0
POINT
  5
AE
330
A8
100
AcDbEntity
  8
DEFPOINTS
 62
     0
100
AcDbPoint
 10
12562.43680791801
 20
-3319.641610010473
 30
0.0
  0
POINT
  5
AF
330
A8
100
AcDbEntity
  8
DEFPOINTS
 62
     0
100
AcDbPoint
 10
12764.43680791801
 20
-3319.641610010473
 30
0.0
  0
POINT
  5
B0
330
A8
100
AcDbEntity
  8
DEFPOINTS
 62
     0
100
AcDbPoint
 10
12764.43680791801
 20
-2549.796009794853
 30
0.0
  0
ENDBLK
  5
B1
330
A8
100
AcDbEntity
  8
0
100
AcDbBlockEnd
  0
BLOCK
  5
B4
330
B3
100
AcDbEntity
  8
0
100
AcDbBlockBegin
  2
*D12
 70
     1
 10
0.0
 20
0.0
 30
0.0
  3
*D12
  1

  0
LINE
  5
B5
330
B3
100
AcDbEntity
  8
0Wymiary-PL
 62
     1
370
    -2
100
AcDbLine
 10
12794.43680791801
 20
-2549.796009794853
 30
0.0
 11
13132.43680791801
 21
-2549.796009794853
 31
0.0
  0
INSERT
  5
B6
330
B3
100
AcDbEntity
  8
0Wymiary-PL
 62
     1
370
    -2
100
AcDbBlockReference
  2
B-DIM
 10
12764.43680791801
 20
-2549.796009794853
 30
0.0
 41
30.0
 42
30.0
 43
30.0
 50
180.0
  0
INSERT
  5
B7
330
B3
100
AcDbEntity
  8
0Wymiary-PL
 62
     1
370
    -2
100
AcDbBlockReference
  2
B-DIM
 10
13162.43680791801
 20
-2549.796009794853
 30
0.0
 41
30.0
 42
30.0
 43
30.0
  0
MTEXT
  5
B8
330
B3
100
AcDbEntity
  8
0Wymiary-PL
 62
   140
100
AcDbMText
 10
12963.43680791801
 20
-2469.796009794853
 30
0.0
 40
80.0
 41
0.0
 71
     5
 72
     1
  1
\A1;398
  7
ROMANS
 73
     1
 44
1.0
1001
ACAD
1000
MTEXTBEGIN
1070
    73
1070
     1
1070
    44
1040
1.0
1070
    74
1070
     0
1000
MTEXTEND
  0
POINT
  5
B9
330
B3
100
AcDbEntity
  8
DEFPOINTS
 62
     0
100
AcDbPoint
 10
12764.43680791801
 20
-3319.641610010473
 30
0.0
  0
POINT
  5
BA
330
B3
100
AcDbEntity
  8
DEFPOINTS
 62
     0
100
AcDbPoint
 10
13162.43680791801
 20
-3184.641610010475
 30
0.0
  0
POINT
  5
BB
330
B3
100
AcDbEntity
  8
DEFPOINTS
 62
     0
100
AcDbPoint
 10
13162.43680791801
 20
-2549.796009794853
 30
0.0
  0
ENDBLK
  5
BC
330
B3
100
AcDbEntity
  8
0
100
AcDbBlockEnd
  0
BLOCK
  5
BF
330
BE
100
AcDbEntity
  8
0
100
AcDbBlockBegin
  2
*D13
 70
     1
 10
0.0
 20
0.0
 30
0.0
  3
*D13
  1

  0
LINE
  5
C0
330
BE
100
AcDbEntity
  8
0Wymiary-PL
 62
     1
370
    -2
100
AcDbLine
 10
13192.43680791801
 20
-2549.796009794853
 30
0.0
 11
13452.43680791801
 21
-2549.796009794853
 31
0.0
  0
INSERT
  5
C1
330
BE
100
AcDbEntity
  8
0Wymiary-PL
 62
     1
370
    -2
100
AcDbBlockReference
  2
B-DIM
 10
13162.43680791801
 20
-2549.796009794853
 30
0.0
 41
30.0
 42
30.0
 43
30.0
 50
180.0
  0
INSERT
  5
C2
330
BE
100
AcDbEntity
  8
0Wymiary-PL
 62
     1
370
    -2
100
AcDbBlockReference
  2
B-DIM
 10
13482.43680791801
 20
-2549.796009794853
 30
0.0
 41
30.0
 42
30.0
 43
30.0
  0
MTEXT
  5
C3
330
BE
100
AcDbEntity
  8
0Wymiary-PL
 62
   140
100
AcDbMText
 10
13322.43680791801
 20
-2469.796009794853
 30
0.0
 40
80.0
 41
0.0
 71
     5
 72
     1
  1
\A1;320
  7
ROMANS
 73
     1
 44
1.0
1001
ACAD
1000
MTEXTBEGIN
1070
    73
1070
     1
1070
    44
1040
1.0
1070
    74
1070
     0
1000
MTEXTEND
  0
POINT
  5
C4
330
BE
100
AcDbEntity
  8
DEFPOINTS
 62
     0
100
AcDbPoint
 10
13162.43680791801
 20
-3184.641610010475
 30
0.0
  0
POINT
  5
C5
330
BE
100
AcDbEntity
  8
DEFPOINTS
 62
     0
100
AcDbPoint
 10
13482.43680791801
 20
-3319.641610010473
 30
0.0
  0
POINT
  5
C6
330
BE
100
AcDbEntity
  8
DEFPOINTS
 62
     0
100
AcDbPoint
 10
13482.43680791801
 20
-2549.796009794853
 30
0.0
  0
ENDBLK
  5
C7
330
BE
100
AcDbEntity
  8
0
100
AcDbBlockEnd
  0
BLOCK
  5
CA
330
C9
100
AcDbEntity
  8
0
100
AcDbBlockBegin
  2
*D14
 70
     1
 10
0.0
 20
0.0
 30
0.0
  3
*D14
  1

  0
LINE
  5
CB
330
C9
100
AcDbEntity
  8
0Wymiary-PL
 62
     1
370
    -2
100
AcDbLine
 10
13452.43680791801
 20
-2343.341073432043
 30
0.0
 11
12592.43680791801
 21
-2343.341073432043
 31
0.0
  0
INSERT
  5
CC
330
C9
100
AcDbEntity
  8
0Wymiary-PL
 62
     1
370
    -2
100
AcDbBlockReference
  2
B-DIM
 10
13482.43680791801
 20
-2343.341073432043
 30
0.0
 41
30.0
 42
30.0
 43
30.0
  0
INSERT
  5
CD
330
C9
100
AcDbEntity
  8
0Wymiary-PL
 62
     1
370
    -2
100
AcDbBlockReference
  2
B-DIM
 10
12562.43680791801
 20
-2343.341073432043
 30
0.0
 41
30.0
 42
30.0
 43
30.0
 50
180.0
  0
MTEXT
  5
CE
330
C9
100
AcDbEntity
  8
0Wymiary-PL
 62
   140
100
AcDbMText
 10
13022.43680791801
 20
-2263.341073432043
 30
0.0
 40
80.0
 41
0.0
 71
     5
 72
     1
  1
\A1;920
  7
ROMANS
 73
     1
 44
1.0
1001
ACAD
1000
MTEXTBEGIN
1070
    73
1070
     1
1070
    44
1040
1.0
1070
    74
1070
     0
1000
MTEXTEND
  0
POINT
  5
CF
330
C9
100
AcDbEntity
  8
DEFPOINTS
 62
     0
100
AcDbPoint
 10
13482.43680791801
 20
-3351.231424859773
 30
0.0
  0
POINT
  5
D0
330
C9
100
AcDbEntity
  8
DEFPOINTS
 62
     0
100
AcDbPoint
 10
12562.43680791801
 20
-3351.231424859772
 30
0.0
  0
POINT
  5
D1
330
C9
100
AcDbEntity
  8
DEFPOINTS
 62
     0
100
AcDbPoint
 10
12562.43680791801
 20
-2343.341073432043
 30
0.0
  0
ENDBLK
  5
D2
330
C9
100
AcDbEntity
  8
0
100
AcDbBlockEnd
  0
BLOCK
  5
121
330
120
100
AcDbEntity
  8
0
100
AcDbBlockBegin
  2
*D15
 70
     1
 10
0.0
 20
0.0
 30
0.0
  3
*D15
  1

  0
LINE
  5
122
330
120
100
AcDbEntity
  8
0Wymiary-PL
 62
     1
370
    -2
100
AcDbLine
 10
18071.71057410729
 20
-3005.361055273859
 30
0.0
 11
18071.71057410729
 21
-2975.361055273859
 31
0.0
  0
LINE
  5
123
330
120
100
AcDbEntity
  8
0Wymiary-PL
 62
     1
370
    -2
100
AcDbLine
 10
18071.71057410729
 20
-3200.361055273857
 30
0.0
 11
18071.71057410729
 21
-3230.361055273858
 31
0.0
  0
LINE
  5
124
330
120
100
AcDbEntity
  8
0Wymiary-PL
 62
     1
370
    -2
100
AcDbLine
 10
18071.71057410729
 20
-3035.361055273859
 30
0.0
 11
18071.71057410729
 21
-3170.361055273858
 31
0.0
  0
INSERT
  5
125
330
120
100
AcDbEntity
  8
0Wymiary-PL
 62
     1
370
    -2
100
AcDbBlockReference
  2
B-DIM
 10
18071.71057410729
 20
-3035.361055273859
 30
0.0
 41
30.0
 42
30.0
 43
30.0
 50
270.0
  0
INSERT
  5
126
330
120
100
AcDbEntity
  8
0Wymiary-PL
 62
     1
370
    -2
100
AcDbBlockReference
  2
B-DIM
 10
18071.71057410729
 20
-3170.361055273858
 30
0.0
 41
30.0
 42
30.0
 43
30.0
 50
90.0
  0
MTEXT
  5
127
330
120
100
AcDbEntity
  8
0Wymiary-PL
 62
   140
100
AcDbMText
 10
17991.71057410729
 20
-3102.861055273856
 30
0.0
 40
80.0
 41
0.0
 71
     5
 72
     1
  1
\A1;135
  7
ROMANS
 11
0.0000000000000001
 21
1.0
 31
0.0
 73
     1
 44
1.0
1001
ACAD
1000
MTEXTBEGIN
1070
    73
1070
     1
1070
    44
1040
1.0
1070
    74
1070
     0
1000
MTEXTEND
  0
POINT
  5
128
330
120
100
AcDbEntity
  8
DEFPOINTS
 62
     0
100
AcDbPoint
 10
17550.74463647706
 20
-3035.361055273859
 30
0.0
  0
POINT
  5
129
330
120
100
AcDbEntity
  8
DEFPOINTS
 62
     0
100
AcDbPoint
 10
17749.74463647706
 20
-3170.361055273858
 30
0.0
  0
POINT
  5
12A
330
120
100
AcDbEntity
  8
DEFPOINTS
 62
     0
100
AcDbPoint
 10
18071.71057410729
 20
-3170.361055273858
 30
0.0
  0
ENDBLK
  5
12B
330
120
100
AcDbEntity
  8
0
100
AcDbBlockEnd
  0
BLOCK
  5
12E
330
12D
100
AcDbEntity
  8
0
100
AcDbBlockBegin
  2
*D16
 70
     1
 10
0.0
 20
0.0
 30
0.0
  3
*D16
  1

  0
LINE
  5
12F
330
12D
100
AcDbEntity
  8
0Wymiary-PL
 62
     1
370
    -2
100
AcDbLine
 10
18071.71057410729
 20
-3200.361055273857
 30
0.0
 11
18071.71057410729
 21
-4410.365630282288
 31
0.0
  0
INSERT
  5
130
330
12D
100
AcDbEntity
  8
0Wymiary-PL
 62
     1
370
    -2
100
AcDbBlockReference
  2
B-DIM
 10
18071.71057410729
 20
-3170.361055273858
 30
0.0
 41
30.0
 42
30.0
 43
30.0
 50
90.0
  0
INSERT
  5
131
330
12D
100
AcDbEntity
  8
0Wymiary-PL
 62
     1
370
    -2
100
AcDbBlockReference
  2
B-DIM
 10
18071.71057410729
 20
-4440.365630282287
 30
0.0
 41
30.0
 42
30.0
 43
30.0
 50
270.0
  0
MTEXT
  5
132
330
12D
100
AcDbEntity
  8
0Wymiary-PL
 62
   140
100
AcDbMText
 10
17991.71057410729
 20
-3805.36334277807
 30
0.0
 40
80.0
 41
0.0
 71
     5
 72
     1
  1
\A1;1270
  7
ROMANS
 11
0.0000000000000001
 21
1.0
 31
0.0
 73
     1
 44
1.0
1001
ACAD
1000
MTEXTBEGIN
1070
    73
1070
     1
1070
    44
1040
1.0
1070
    74
1070
     0
1000
MTEXTEND
  0
POINT
  5
133
330
12D
100
AcDbEntity
  8
DEFPOINTS
 62
     0
100
AcDbPoint
 10
17749.74463647706
 20
-3170.361055273858
 30
0.0
  0
POINT
  5
134
330
12D
100
AcDbEntity
  8
DEFPOINTS
 62
     0
100
AcDbPoint
 10
17708.24463647706
 20
-4440.365630282287
 30
0.0
  0
POINT
  5
135
330
12D
100
AcDbEntity
  8
DEFPOINTS
 62
     0
100
AcDbPoint
 10
18071.71057410729
 20
-4440.365630282287
 30
0.0
  0
ENDBLK
  5
136
330
12D
100
AcDbEntity
  8
0
100
AcDbBlockEnd
  0
BLOCK
  5
192
330
191
100
AcDbEntity
  8
0
100
AcDbBlockBegin
  2
*D17
 70
     1
 10
0.0
 20
0.0
 30
0.0
  3
*D17
  1

  0
LINE
  5
193
330
191
100
AcDbEntity
  8
0Wymiary-PL
 62
     1
370
    -2
100
AcDbLine
 10
12492.43680791801
 20
-3723.645616715368
 30
0.0
 11
12462.43680791801
 21
-3723.645616715368
 31
0.0
  0
LINE
  5
194
330
191
100
AcDbEntity
  8
0Wymiary-PL
 62
     1
370
    -2
100
AcDbLine
 10
12592.43680791801
 20
-3723.645616715368
 30
0.0
 11
12622.43680791801
 21
-3723.645616715368
 31
0.0
  0
MTEXT
  5
195
330
191
100
AcDbEntity
  8
0Wymiary-PL
 62
   140
100
AcDbMText
 10
12477.6749031561
 20
-3643.645616715367
 30
0.0
 40
80.0
 41
0.0
 71
     5
 72
     1
  1
\A1;40
  7
ROMANS
 73
     1
 44
1.0
1001
ACAD
1000
MTEXTBEGIN
1070
    73
1070
     1
1070
    44
1040
1.0
1070
    74
1070
     0
1000
MTEXTEND
  0
LINE
  5
196
330
191
100
AcDbEntity
  8
0Wymiary-PL
 62
     1
370
    -2
100
AcDbLine
 10
12522.43680791801
 20
-3723.645616715368
 30
0.0
 11
12562.43680791801
 21
-3723.645616715368
 31
0.0
  0
INSERT
  5
197
330
191
100
AcDbEntity
  8
0Wymiary-PL
 62
     1
370
    -2
100
AcDbBlockReference
  2
B-DIM
 10
12522.43680791801
 20
-3723.645616715368
 30
0.0
 41
30.0
 42
30.0
 43
30.0
  0
INSERT
  5
198
330
191
100
AcDbEntity
  8
0Wymiary-PL
 62
     1
370
    -2
100
AcDbBlockReference
  2
B-DIM
 10
12562.43680791801
 20
-3723.645616715368
 30
0.0
 41
30.0
 42
30.0
 43
30.0
 50
180.0
  0
POINT
  5
199
330
191
100
AcDbEntity
  8
DEFPOINTS
 62
     0
100
AcDbPoint
 10
12522.43680791801
 20
-3523.361055273856
 30
0.0
  0
POINT
  5
19A
330
191
100
AcDbEntity
  8
DEFPOINTS
 62
     0
100
AcDbPoint
 10
12562.43680791801
 20
-3523.361055273856
 30
0.0
  0
POINT
  5
19B
330
191
100
AcDbEntity
  8
DEFPOINTS
 62
     0
100
AcDbPoint
 10
12562.43680791801
 20
-3723.645616715368
 30
0.0
  0
ENDBLK
  5
19C
330
191
100
AcDbEntity
  8
0
100
AcDbBlockEnd
  0
BLOCK
  5
1A1
330
1A0
100
AcDbEntity
  8
0
100
AcDbBlockBegin
  2
*D18
 70
     1
 10
0.0
 20
0.0
 30
0.0
  3
*D18
  1

  0
LINE
  5
1A2
330
1A0
100
AcDbEntity
  8
0Wymiary-PL
 62
     1
370
    -2
100
AcDbLine
 10
17727.13174218286
 20
-3278.733808482285
 30
0.0
 11
17757.13174218286
 21
-3278.733808482285
 31
0.0
  0
LINE
  5
1A3
330
1A0
100
AcDbEntity
  8
0Wymiary-PL
 62
     1
370
    -2
100
AcDbLine
 10
17627.13174218285
 20
-3278.733808482285
 30
0.0
 11
17597.13174218286
 21
-3278.733808482285
 31
0.0
  0
MTEXT
  5
1A4
330
1A0
100
AcDbEntity
  8
0Wymiary-PL
 62
   140
100
AcDbMText
 10
17741.89364694476
 20
-3198.733808482285
 30
0.0
 40
80.0
 41
0.0
 71
     5
 72
     1
  1
\A1;40
  7
ROMANS
 73
     1
 44
1.0
1001
ACAD
1000
MTEXTBEGIN
1070
    73
1070
     1
1070
    44
1040
1.0
1070
    74
1070
     0
1000
MTEXTEND
  0
LINE
  5
1A5
330
1A0
100
AcDbEntity
  8
0Wymiary-PL
 62
     1
370
    -2
100
AcDbLine
 10
17697.13174218286
 20
-3278.733808482285
 30
0.0
 11
17657.13174218286
 21
-3278.733808482285
 31
0.0
  0
INSERT
  5
1A6
330
1A0
100
AcDbEntity
  8
0Wymiary-PL
 62
     1
370
    -2
100
AcDbBlockReference
  2
B-DIM
 10
17697.13174218286
 20
-3278.733808482285
 30
0.0
 41
30.0
 42
30.0
 43
30.0
 50
180.0
  0
INSERT
  5
1A7
330
1A0
100
AcDbEntity
  8
0Wymiary-PL
 62
     1
370
    -2
100
AcDbBlockReference
  2
B-DIM
 10
17657.13174218286
 20
-3278.733808482285
 30
0.0
 41
30.0
 42
30.0
 43
30.0
  0
POINT
  5
1A8
330
1A0
100
AcDbEntity
  8
DEFPOINTS
 62
     0
100
AcDbPoint
 10
17697.13174218286
 20
-3523.361055273856
 30
0.0
  0
POINT
  5
1A9
330
1A0
100
AcDbEntity
  8
DEFPOINTS
 62
     0
100
AcDbPoint
 10
17657.13174218286
 20
-3523.361055273856
 30
0.0
  0
POINT
  5
1AA
330
1A0
100
AcDbEntity
  8
DEFPOINTS
 62
     0
100
AcDbPoint
 10
17657.13174218286
 20
-3278.733808482285
 30
0.0
  0
ENDBLK
  5
1AB
330
1A0
100
AcDbEntity
  8
0
100
AcDbBlockEnd
  0
ENDSEC
  0
SECTION
  2
ENTITIES
  0
LINE
  5
12
330
2
100
AcDbEntity
  8
0Napisy
  6
HIDDEN
 62
     1
 48
8.0
370
     5
100
AcDbLine
 10
15109.78427505043
 20
-7087.059170736218
 30
0.0
 11
15109.78427505043
 21
-911.5406103316495
 31
0.0
  0
TEXT
  5
17
330
2
100
AcDbEntity
  8
0Napisy-PL
370
     5
100
AcDbText
 10
11489.01400220816
 20
1731.645100789217
 30
0.0
 40
150.0
  1
"DOM W TUNBERGIACH"
  7
AVA
100
AcDbText
  0
LWPOLYLINE
  5
1D
330
2
100
AcDbEntity
  8
RAMKI-A4
370
     5
100
AcDbPolyline
 90
        4
 70
     1
 43
0.0
 10
10009.78427505042
 20
-11727.14472035794
 10
10009.78427505042
 20
2292.855279642056
 10
20209.78427505045
 20
2292.855279642056
 10
20209.78427505045
 20
-11727.14472035794
  0
MTEXT
  5
1F
102
{ACAD_XDICTIONARY
360
284
102
}
330
2
100
AcDbEntity
  8
0Napisy
370
     5
100
AcDbMText
 10
11587.98071311158
 20
1547.708528904026
 30
0.0
 40
150.0
 41
0.0
 71
     1
 72
     5
  1
{\fArial|b0|i0|c238|p34;MO\U+017BNA WKLEI\U+0106 DO PROJEKTU ZAGOSPODAROWANIA TERENU}
  7
ARIAL
 73
     1
 44
1.0
1001
AcDbBlockRepETag
1070
     1
1071
      383
1005
1F
1001
DCO15
1071
        1
1071
        1
1000
_tabelka_-_inform_i_etykiety_Link1
1004
19000000
1000
_tabelka_Arial151
1001
ACAD
1000
MTEXTBEGIN
1070
    73
1070
     1
1070
    44
1040
1.0
1070
    74
1070
     0
1000
MTEXTEND
  0
MTEXT
  5
23
102
{ACAD_XDICTIONARY
360
286
102
}
330
2
100
AcDbEntity
  8
0Napisy
370
     5
100
AcDbMText
 10
14922.5509270648
 20
-7014.632969896993
 30
0.0
 40
100.0
 41
0.0
 71
     1
 72
     5
  1
{\fArial|b0|i0|c238|p34;O\U+015A ODBICIA LUSTRZANEGO}
  7
ARIAL
 11
0.0000000000000001
 21
1.0
 31
0.0
 73
     1
 44
1.0
1001
AcDbBlockRepETag
1070
     1
1071
      383
1005
1F
1001
DCO15
1071
        1
1071
        1
1000
_tabelka_-_inform_i_etykiety_Link1
1004
1B000000
1000
_tabelka_Arial151
1001
ACAD
1000
MTEXTBEGIN
1070
    73
1070
     1
1070
    44
1040
1.0
1070
    74
1070
     0
1000
MTEXTEND
  0
MTEXT
  5
24
330
2
100
AcDbEntity
  8
0Napisy
370
     5
100
AcDbMText
 10
11612.26068454177
 20
-10763.59132836251
 30
0.0
 40
100.0
 41
0.0
 71
     1
 72
     5
  1
{\fArial|b0|i0|c238|p34;OBRYS  BUDYNKU}
  7
ARIAL
 73
     1
 44
1.0
1001
AcDbBlockRepETag
1070
     1
1071
      383
1005
1F
1001
DCO15
1071
        1
1071
        1
1000
_tabelka_-_inform_i_etykiety_Link1
1004
1A000000
1000
_tabelka_Arial151
1001
ACAD
1000
MTEXTBEGIN
1070
    73
1070
     1
1070
    44
1040
1.0
1070
    74
1070
     0
1000
MTEXTEND
  0
MTEXT
  5
25
330
2
100
AcDbEntity
  8
0Napisy
370
     5
100
AcDbMText
 10
11612.26068454177
 20
-11013.59132836251
 30
0.0
 40
100.0
 41
0.0
 71
     1
 72
     5
  1
{\fArial|b0|i0|c238|p34;Skala:}
  7
ARIAL
 73
     1
 44
1.0
1001
AcDbBlockRepETag
1070
     1
1071
      383
1005
1F
1001
DCO15
1071
        1
1071
        1
1000
_tabelka_-_inform_i_etykiety_Link1
1004
08000000
1000
_tabelka_Arial151
1001
ACAD
1000
MTEXTBEGIN
1070
    73
1070
     1
1070
    44
1040
1.0
1070
    74
1070
     0
1000
MTEXTEND
  0
TEXT
  5
26
330
2
100
AcDbEntity
  8
0Napisy
370
     5
100
AcDbText
 10
12279.95180182447
 20
-11115.29664896278
 30
0.0
 40
100.0
  1
1:500
  7
ARIAL
100
AcDbText
1001
AcDbBlockRepETag
1070
     1
1071
      383
1005
1F
1001
DCO15
1071
        1
1071
        1
1000
_tabelka_-_inform_i_etykiety_Link1
1004
08000000
1000
_tabelka_Arial151
  0
LINE
  5
27
330
2
100
AcDbEntity
  8
0Hatch
  6
Continuous
 62
   210
370
     5
100
AcDbLine
 10
12834.43680791801
 20
-3032.36105527386
 30
0.0
 11
12834.43680791801
 21
-2748.361055273857
 31
0.0
  0
LINE
  5
2B
330
2
100
AcDbEntity
  8
0Hatch
  6
Continuous
 62
   210
370
     5
100
AcDbLine
 10
12842.43680791801
 20
-2740.361055273859
 30
0.0
 11
12842.43680791801
 21
-3040.361055273859
 31
0.0
  0
LINE
  5
2C
330
2
100
AcDbEntity
  8
0Hatch
  6
Continuous
 62
   210
370
     5
100
AcDbLine
 10
13482.43680791801
 20
-3687.361055273859
 30
0.0
 11
13632.43680791801
 21
-3687.361055273859
 31
0.0
  0
LINE
  5
2D
330
2
100
AcDbEntity
  8
0Hatch
  6
Continuous
 62
   210
370
     5
100
AcDbLine
 10
13632.43680791801
 20
-3687.361055273859
 30
0.0
 11
13632.43680791801
 21
-2680.36105527386
 31
0.0
  0
LINE
  5
2E
330
2
100
AcDbEntity
  8
0Hatch
  6
Continuous
 62
   210
370
     5
100
AcDbLine
 10
13632.43680791801
 20
-2680.36105527386
 30
0.0
 11
13482.43680791801
 21
-2680.36105527386
 31
0.0
  0
LINE
  5
2F
330
2
100
AcDbEntity
  8
0Hatch
  6
Continuous
 62
   210
370
     5
100
AcDbLine
 10
12834.43680791801
 20
-3032.36105527386
 30
0.0
 11
12772.43680791801
 21
-3032.36105527386
 31
0.0
  0
LINE
  5
30
330
2
100
AcDbEntity
  8
0Hatch
  6
Continuous
 62
   210
370
     5
100
AcDbLine
 10
12772.43680791801
 20
-3032.36105527386
 30
0.0
 11
12772.43680791801
 21
-2748.361055273857
 31
0.0
  0
LINE
  5
31
330
2
100
AcDbEntity
  8
0Hatch
  6
Continuous
 62
   210
370
     5
100
AcDbLine
 10
12629.43680791801
 20
-4648.395630282284
 30
0.0
 11
12570.43680791801
 21
-4648.395630282284
 31
0.0
  0
LINE
  5
32
330
2
100
AcDbEntity
  8
0Hatch
  6
Continuous
 62
   210
370
     5
100
AcDbLine
 10
12562.43680791801
 20
-4840.395630282285
 30
0.0
 11
12637.43680791801
 21
-4840.395630282285
 31
0.0
  0
LINE
  5
33
330
2
100
AcDbEntity
  8
0Hatch
  6
Continuous
 62
   210
370
     5
100
AcDbLine
 10
12562.43680791801
 20
-4640.395630282286
 30
0.0
 11
12637.43680791801
 21
-4640.395630282283
 31
0.0
  0
LINE
  5
34
330
2
100
AcDbEntity
  8
0Hatch
  6
Continuous
 62
   210
370
     5
100
AcDbLine
 10
12562.43680791801
 20
-4840.395630282285
 30
0.0
 11
12562.43680791801
 21
-4445.365630282285
 31
0.0
  0
LINE
  5
35
330
2
100
AcDbEntity
  8
0Hatch
  6
Continuous
 62
   210
370
     5
100
AcDbLine
 10
12629.43680791801
 20
-4832.395630282285
 30
0.0
 11
12629.43680791801
 21
-4648.395630282284
 31
0.0
  0
LINE
  5
36
330
2
100
AcDbEntity
  8
0Hatch
  6
Continuous
 62
   210
370
     5
100
AcDbLine
 10
12637.43680791801
 20
-4840.395630282285
 30
0.0
 11
12637.43680791801
 21
-4445.365630282285
 31
0.0
  0
LINE
  5
37
330
2
100
AcDbEntity
  8
0Hatch
  6
Continuous
 62
   210
370
     5
100
AcDbLine
 10
12629.43680791801
 20
-4832.395630282285
 30
0.0
 11
12570.43680791801
 21
-4832.395630282285
 31
0.0
  0
LINE
  5
38
330
2
100
AcDbEntity
  8
0Hatch
  6
Continuous
 62
   210
370
     5
100
AcDbLine
 10
12629.43680791801
 20
-4583.395630282285
 30
0.0
 11
12629.43680791801
 21
-4448.365630282285
 31
0.0
  0
LINE
  5
39
330
2
100
AcDbEntity
  8
0Hatch
  6
Continuous
 62
   210
370
     5
100
AcDbLine
 10
12629.43680791801
 20
-4583.395630282285
 30
0.0
 11
12570.43680791801
 21
-4583.395630282285
 31
0.0
  0
LINE
  5
3A
330
2
100
AcDbEntity
  8
0Hatch
  6
Continuous
 62
   210
370
     5
100
AcDbLine
 10
12629.43680791801
 20
-4448.365630282285
 30
0.0
 11
12570.43680791801
 21
-4448.365630282285
 31
0.0
  0
LINE
  5
3B
330
2
100
AcDbEntity
  8
0Hatch
  6
Continuous
 62
   210
370
     5
100
AcDbLine
 10
13474.43680791801
 20
-4648.395630282284
 30
0.0
 11
13415.43680791801
 21
-4648.395630282284
 31
0.0
  0
LINE
  5
3C
330
2
100
AcDbEntity
  8
0Hatch
  6
Continuous
 62
   210
370
     5
100
AcDbLine
 10
13415.43680791801
 20
-4982.395630282284
 30
0.0
 11
13415.43680791801
 21
-4648.395630282284
 31
0.0
  0
LINE
  5
3D
330
2
100
AcDbEntity
  8
0Hatch
  6
Continuous
 62
   210
370
     5
100
AcDbLine
 10
13407.43680791801
 20
-4640.395630282283
 30
0.0
 11
13482.43680791801
 21
-4640.395630282283
 31
0.0
  0
LINE
  5
3E
330
2
100
AcDbEntity
  8
0Hatch
  6
Continuous
 62
   210
370
     5
100
AcDbLine
 10
13407.43680791801
 20
-4640.395630282283
 30
0.0
 11
13407.43680791801
 21
-4990.395630282285
 31
0.0
  0
LINE
  5
3F
330
2
100
AcDbEntity
  8
0Hatch
  6
Continuous
 62
   210
370
     5
100
AcDbLine
 10
13474.43680791801
 20
-4982.395630282284
 30
0.0
 11
13474.43680791801
 21
-4648.395630282284
 31
0.0
  0
LINE
  5
40
330
2
100
AcDbEntity
  8
0Hatch
  6
Continuous
 62
   210
370
     5
100
AcDbLine
 10
13474.43680791801
 20
-4982.395630282284
 30
0.0
 11
13415.43680791801
 21
-4982.395630282284
 31
0.0
  0
LINE
  5
41
330
2
100
AcDbEntity
  8
0Hatch
  6
Continuous
 62
   210
370
     5
100
AcDbLine
 10
12764.43680791801
 20
-3170.361055273858
 30
0.0
 11
12764.43680791801
 21
-2740.361055273859
 31
0.0
  0
LINE
  5
42
330
2
100
AcDbEntity
  8
0Hatch
  6
Continuous
 62
   210
370
     5
100
AcDbLine
 10
12764.43680791801
 20
-3170.361055273858
 30
0.0
 11
12562.43680791801
 21
-3170.361055273858
 31
0.0
  0
LINE
  5
43
330
2
100
AcDbEntity
  8
0Hatch
  6
Continuous
 62
   210
370
     5
100
AcDbLine
 10
13089.43680791801
 20
-4748.395630282284
 30
0.0
 11
13057.43680791801
 21
-4748.395630282284
 31
0.0
  0
LINE
  5
44
330
2
100
AcDbEntity
  8
0Hatch
  6
Continuous
 62
   210
370
     5
100
AcDbLine
 10
13049.43680791801
 20
-4990.395630282285
 30
0.0
 11
13482.43680791801
 21
-4990.395630282285
 31
0.0
  0
LINE
  5
45
330
2
100
AcDbEntity
  8
0Hatch
  6
Continuous
 62
   210
370
     5
100
AcDbLine
 10
13057.43680791801
 20
-4982.395630282284
 30
0.0
 11
13057.43680791801
 21
-4748.395630282284
 31
0.0
  0
LINE
  5
46
330
2
100
AcDbEntity
  8
0Hatch
  6
Continuous
 62
   210
370
     5
100
AcDbLine
 10
13049.43680791801
 20
-4740.395630282284
 30
0.0
 11
13049.43680791801
 21
-4990.395630282285
 31
0.0
  0
LINE
  5
47
330
2
100
AcDbEntity
  8
0Hatch
  6
Continuous
 62
   210
370
     5
100
AcDbLine
 10
13089.43680791801
 20
-4982.395630282284
 30
0.0
 11
13089.43680791801
 21
-4748.395630282284
 31
0.0
  0
LINE
  5
48
330
2
100
AcDbEntity
  8
0Hatch
  6
Continuous
 62
   210
370
     5
100
AcDbLine
 10
13089.43680791801
 20
-4982.395630282284
 30
0.0
 11
13057.43680791801
 21
-4982.395630282284
 31
0.0
  0
LINE
  5
49
330
2
100
AcDbEntity
  8
0Hatch
  6
Continuous
 62
   210
370
     5
100
AcDbLine
 10
12637.43680791801
 20
-4740.395630282284
 30
0.0
 11
13407.43680791801
 21
-4740.395630282284
 31
0.0
  0
LINE
  5
4A
330
2
100
AcDbEntity
  8
0Hatch
  6
Continuous
 62
   210
370
     5
100
AcDbLine
 10
12637.43680791801
 20
-4775.395630282284
 30
0.0
 11
13049.43680791801
 21
-4775.395630282284
 31
0.0
  0
LINE
  5
4B
330
2
100
AcDbEntity
  8
0Hatch
  6
Continuous
 62
   210
370
     5
100
AcDbLine
 10
12834.43680791801
 20
-2748.361055273859
 30
0.0
 11
12772.43680791801
 21
-2748.361055273859
 31
0.0
  0
LINE
  5
4C
330
2
100
AcDbEntity
  8
0Hatch
  6
Continuous
 62
   210
370
     5
100
AcDbLine
 10
12764.43680791801
 20
-2740.361055273859
 30
0.0
 11
12842.43680791801
 21
-2740.361055273859
 31
0.0
  0
LINE
  5
4D
330
2
100
AcDbEntity
  8
0Hatch
  6
Continuous
 62
   210
370
     5
100
AcDbLine
 10
13097.43680791801
 20
-4990.395630282285
 30
0.0
 11
13097.43680791801
 21
-4740.395630282284
 31
0.0
  0
LINE
  5
4E
330
2
100
AcDbEntity
  8
0Hatch
  6
Continuous
 62
   210
370
     5
100
AcDbLine
 10
13482.43680791801
 20
-2745.361055273859
 30
0.0
 11
12842.43680791801
 21
-2745.361055273859
 31
0.0
  0
LINE
  5
4F
330
2
100
AcDbEntity
  8
0Hatch
  6
Continuous
 62
   210
370
     5
100
AcDbLine
 10
12842.43680791801
 20
-2780.361055273859
 30
0.0
 11
13482.43680791801
 21
-2780.361055273859
 31
0.0
  0
LINE
  5
50
330
2
100
AcDbEntity
  8
0Hatch
  6
Continuous
 62
   210
370
     5
100
AcDbLine
 10
13097.43680791801
 20
-4990.395630282285
 30
0.0
 11
13252.43680791801
 21
-4740.395630282284
 31
0.0
  0
LINE
  5
51
330
2
100
AcDbEntity
  8
0Hatch
  6
Continuous
 62
   210
370
     5
100
AcDbLine
 10
13252.43680791801
 20
-4740.395630282284
 30
0.0
 11
13407.43680791801
 21
-4990.395630282285
 31
0.0
  0
HATCH
  5
52
330
2
100
AcDbEntity
  8
0Hatch
100
AcDbHatch
 10
0.0
 20
0.0
 30
0.0
210
0.0
220
0.0
230
1.0
  2
SOLID
 70
     1
 71
     1
 91
        1
 92
        7
 72
     1
 73
     1
 93
        2
 10
12572.43680791801
 20
-4613.891667804312
 42
1.0
 10
12592.43680791801
 20
-4613.891667804312
 42
1.0
 97
        1
330
53
 75
     0
 76
     1
 47
0.5530352279217783
 98
        1
 10
12583.44849827325
 20
-4609.358123365949
1001
ACAD
1010
0.0
1020
0.0
1030
0.0
  0
CIRCLE
  5
53
102
{ACAD_REACTORS
330
52
102
}
330
2
100
AcDbEntity
  8
0Hatch
  6
Continuous
 62
   210
370
     5
100
AcDbCircle
 10
12582.43680791801
 20
-4613.891667804312
 30
0.0
 40
10.0
  0
LINE
  5
54
330
2
100
AcDbEntity
  8
0Hatch
  6
Continuous
 62
   210
370
     5
100
AcDbLine
 10
12562.43680791801
 20
-4591.395630282284
 30
0.0
 11
12637.43680791801
 21
-4591.395630282284
 31
0.0
  0
LINE
  5
55
330
2
100
AcDbEntity
  8
0Hatch
  6
Continuous
 62
   210
370
     5
100
AcDbLine
 10
13049.43680791801
 20
-4601.395630282285
 30
0.0
 11
13049.43680791801
 21
-4591.395630282284
 31
0.0
  0
LINE
  5
56
330
2
100
AcDbEntity
  8
0Hatch
  6
Continuous
 62
   210
370
     5
100
AcDbLine
 10
12842.43680791801
 20
-3035.361055273859
 30
0.0
 11
12764.43680791801
 21
-3035.361055273859
 31
0.0
  0
HATCH
  5
57
330
2
100
AcDbEntity
  8
0Hatch
100
AcDbHatch
 10
0.0
 20
0.0
 30
0.0
210
0.0
220
0.0
230
1.0
  2
SOLID
 70
     1
 71
     1
 91
        1
 92
        7
 72
     1
 73
     1
 93
        2
 10
12627.43680791801
 20
-4613.891667804312
 42
1.0
 10
12607.43680791801
 20
-4613.891667804312
 42
1.0
 97
        1
330
58
 75
     0
 76
     1
 47
0.5530352279217783
 98
        1
 10
12620.52462356271
 20
-4615.441545703623
1001
ACAD
1010
0.0
1020
0.0
1030
0.0
  0
CIRCLE
  5
58
102
{ACAD_REACTORS
330
57
102
}
330
2
100
AcDbEntity
  8
0Hatch
  6
Continuous
 62
   210
370
     5
100
AcDbCircle
 10
-12617.43680791801
 20
-4613.891667804312
 30
0.0
 40
10.0
210
0.0
220
0.0
230
-1.0
  0
LINE
  5
59
330
2
100
AcDbEntity
  8
0Hatch
  6
Continuous
 62
   210
370
     5
100
AcDbLine
 10
13482.43680791801
 20
-2680.36105527386
 30
0.0
 11
13482.43680791801
 21
-2780.361055273859
 31
0.0
  0
LINE
  5
5A
330
2
100
AcDbEntity
  8
0Hatch
  6
Continuous
 62
   210
370
     5
100
AcDbLine
 10
13482.43680791801
 20
-4640.395630282283
 30
0.0
 11
13482.43680791801
 21
-4990.395630282285
 31
0.0
  0
LINE
  5
5B
330
2
100
AcDbEntity
  8
0Hatch
  6
Continuous
 62
   210
370
     5
100
AcDbLine
 10
12570.43680791801
 20
-4832.395630282285
 30
0.0
 11
12570.43680791801
 21
-4648.395630282284
 31
0.0
  0
LINE
  5
5C
330
2
100
AcDbEntity
  8
0Hatch
  6
Continuous
 62
   210
370
     5
100
AcDbLine
 10
12570.43680791801
 20
-4583.395630282285
 30
0.0
 11
12570.43680791801
 21
-4448.365630282285
 31
0.0
  0
HATCH
  5
5D
330
2
100
AcDbEntity
  8
0Hatch
 48
4.0
100
AcDbHatch
 10
0.0
 20
0.0
 30
0.0
210
0.0
220
0.0
230
1.0
  2
SOLID
 70
     1
 71
     0
 91
        1
 92
        7
 72
     0
 73
     1
 93
       22
 10
12908.43680791801
 20
-4380.365630282287
 10
12729.43680791801
 20
-4380.365630282286
 10
12622.43680791801
 20
-4380.365630282287
 10
12622.43680791801
 20
-3230.361055273858
 10
12824.43680791801
 20
-3230.361055273858
 10
12824.43680791802
 20
-3095.361055273859
 10
13102.43680791801
 20
-3095.361055273859
 10
13102.43680791801
 20
-3230.361055273859
 10
13422.43680791801
 20
-3230.361055273858
 10
13422.43680791801
 20
-4580.395630282285
 10
13407.43680791801
 20
-4580.395630282285
 10
13407.43680791801
 20
-4640.395630282283
 10
13482.43680791801
 20
-4640.395630282283
 10
13482.43680791801
 20
-3170.361055273858
 10
13162.43680791801
 20
-3170.361055273859
 10
13162.43680791801
 20
-3035.361055273859
 10
12764.43680791801
 20
-3035.361055273859
 10
12764.43680791801
 20
-3170.361055273858
 10
12562.43680791801
 20
-3170.361055273858
 10
12562.43680791801
 20
-4440.365630282287
 10
12729.43680791801
 20
-4440.365630282285
 10
12908.43680791801
 20
-4440.365630282287
 97
        0
 75
     0
 76
     1
 47
3.013959809556593
 98
        1
 10
12736.87412731397
 20
-4408.322306546772
1001
ACAD
1010
0.0
1020
0.0
1030
0.0
  0
HATCH
  5
5E
330
2
100
AcDbEntity
  8
0Hatch
 48
4.0
100
AcDbHatch
 10
0.0
 20
0.0
 30
0.0
210
0.0
220
0.0
230
1.0
  2
SOLID
 70
     1
 71
     0
 91
        1
 92
        7
 72
     0
 73
     1
 93
        7
 10
13109.43680791801
 20
-4380.365630282289
 10
13008.43680791801
 20
-4380.365630282287
 10
13008.43680791801
 20
-4440.365630282287
 10
13049.43680791801
 20
-4440.365630282287
 10
13049.43680791801
 20
-4640.395630282283
 10
13109.43680791801
 20
-4640.395630282283
 10
13109.43680791801
 20
-4522.35237211025
 97
        0
 75
     0
 76
     1
 47
3.013959809556593
 98
        1
 10
13086.70873854112
 20
-4465.587553103916
1001
ACAD
1010
0.0
1020
0.0
1030
0.0
  0
LINE
  5
5F
330
2
100
AcDbEntity
  8
0Hatch
 48
4.0
100
AcDbLine
 10
13109.43680791801
 20
-4580.395630282285
 30
0.0
 11
13422.43680791801
 21
-4580.395630282285
 31
0.0
  0
LINE
  5
60
330
2
100
AcDbEntity
  8
0Hatch
 48
4.0
100
AcDbLine
 10
13422.43680791801
 20
-4580.395630282285
 30
0.0
 11
13422.43680791801
 21
-3230.361055273858
 31
0.0
  0
LINE
  5
61
330
2
100
AcDbEntity
  8
0Hatch
 48
4.0
100
AcDbLine
 10
13422.43680791801
 20
-3230.361055273858
 30
0.0
 11
13102.43680791801
 21
-3230.361055273859
 31
0.0
  0
LINE
  5
62
330
2
100
AcDbEntity
  8
0Hatch
 48
4.0
100
AcDbLine
 10
13102.43680791801
 20
-3230.361055273859
 30
0.0
 11
13102.43680791801
 21
-3095.361055273859
 31
0.0
  0
LINE
  5
63
330
2
100
AcDbEntity
  8
0Hatch
 48
4.0
100
AcDbLine
 10
13102.43680791801
 20
-3095.361055273859
 30
0.0
 11
12824.43680791801
 21
-3095.361055273859
 31
0.0
  0
LINE
  5
64
330
2
100
AcDbEntity
  8
0Hatch
 48
4.0
100
AcDbLine
 10
12824.43680791801
 20
-3095.361055273859
 30
0.0
 11
12824.43680791801
 21
-3230.361055273858
 31
0.0
  0
LINE
  5
65
330
2
100
AcDbEntity
  8
0Hatch
 48
4.0
100
AcDbLine
 10
12824.43680791801
 20
-3230.361055273858
 30
0.0
 11
12622.43680791801
 21
-3230.361055273858
 31
0.0
  0
LINE
  5
66
330
2
100
AcDbEntity
  8
0Hatch
 48
4.0
100
AcDbLine
 10
12622.43680791801
 20
-3230.361055273858
 30
0.0
 11
12622.43680791801
 21
-4380.365630282287
 31
0.0
  0
LINE
  5
67
330
2
100
AcDbEntity
  8
0Hatch
 48
4.0
100
AcDbLine
 10
12622.43680791801
 20
-4380.365630282287
 30
0.0
 11
13109.43680791801
 21
-4380.365630282289
 31
0.0
  0
LINE
  5
68
330
2
100
AcDbEntity
  8
0Hatch
 48
4.0
100
AcDbLine
 10
13407.43680791801
 20
-4640.395630282283
 30
0.0
 11
13407.43680791801
 21
-4580.395630282285
 31
0.0
  0
LINE
  5
69
330
2
100
AcDbEntity
  8
0Hatch
 48
4.0
100
AcDbLine
 10
12908.43680791801
 20
-4440.365630282285
 30
0.0
 11
12908.43680791801
 21
-4380.365630282287
 31
0.0
  0
LINE
  5
6A
330
2
100
AcDbEntity
  8
0Hatch
 48
4.0
100
AcDbLine
 10
13008.43680791801
 20
-4440.365630282285
 30
0.0
 11
13008.43680791801
 21
-4380.365630282287
 31
0.0
  0
DIMENSION
  5
6B
330
2
100
AcDbEntity
  8
0Wymiary-PL
100
AcDbDimension
  2
*D7
 10
12358.63388491434
 20
-3170.361055273858
 30
0.0
 11
12278.63388491434
 21
-3102.861055273857
 31
0.0
 71
     5
 42
134.9999999999982
  3
500
100
AcDbAlignedDimension
 13
12879.59982254456
 23
-3035.361055273859
 33
0.0
 14
12680.59982254456
 24
-3170.361055273858
 34
0.0
 50
90.0
100
AcDbRotatedDimension
  0
DIMENSION
  5
86
330
2
100
AcDbEntity
  8
0Wymiary-PL
100
AcDbDimension
  2
*D8
 10
12358.63388491434
 20
-4440.365630282287
 30
0.0
 11
12278.63388491434
 21
-3805.363342778071
 31
0.0
 71
     5
 42
1270.00457500843
  3
500
100
AcDbAlignedDimension
 13
12680.59982254456
 23
-3170.361055273858
 33
0.0
 14
12722.09982254456
 24
-4440.365630282287
 34
0.0
 50
90.0
100
AcDbRotatedDimension
  0
DIMENSION
  5
91
330
2
100
AcDbEntity
  8
0Wymiary-PL
100
AcDbDimension
  2
*D9
 10
12358.63388491434
 20
-4640.395630282283
 30
0.0
 11
12278.63388491434
 21
-4540.380630282284
 31
0.0
 71
     5
 42
200.029999999997
  3
500
100
AcDbAlignedDimension
 13
12722.09982254456
 23
-4440.365630282287
 33
0.0
 14
13025.59982254456
 24
-4640.395630282283
 34
0.0
 50
90.0
100
AcDbRotatedDimension
  0
DIMENSION
  5
9C
330
2
100
AcDbEntity
  8
0Wymiary-PL
100
AcDbDimension
  2
*D10
 10
12137.7631203065
 20
-4640.395630282283
 30
0.0
 11
12057.7631203065
 21
-3837.878342778071
 31
0.0
 71
     5
 42
1605.034575008425
  3
500
100
AcDbAlignedDimension
 13
13078.59982254456
 23
-3035.361055273859
 33
0.0
 14
13182.09982254456
 24
-4640.395630282283
 34
0.0
 50
90.0
100
AcDbRotatedDimension
  0
DIMENSION
  5
A7
330
2
100
AcDbEntity
  8
0Wymiary-PL
100
AcDbDimension
  2
*D11
 10
12764.43680791801
 20
-2549.796009794853
 30
0.0
 11
12663.43680791801
 21
-2469.796009794853
 31
0.0
 71
     5
 42
202.0
  3
500
100
AcDbAlignedDimension
 13
12562.43680791801
 23
-3319.641610010473
 33
0.0
 14
12764.43680791801
 24
-3319.641610010473
 34
0.0
100
AcDbRotatedDimension
  0
DIMENSION
  5
B2
330
2
100
AcDbEntity
  8
0Wymiary-PL
100
AcDbDimension
  2
*D12
 10
13162.43680791801
 20
-2549.796009794853
 30
0.0
 11
12963.43680791801
 21
-2469.796009794853
 31
0.0
 71
     5
 42
397.9999999999982
  3
500
100
AcDbAlignedDimension
 13
12764.43680791801
 23
-3319.641610010473
 33
0.0
 14
13162.43680791801
 24
-3184.641610010475
 34
0.0
100
AcDbRotatedDimension
  0
DIMENSION
  5
BD
330
2
100
AcDbEntity
  8
0Wymiary-PL
100
AcDbDimension
  2
*D13
 10
13482.43680791801
 20
-2549.796009794853
 30
0.0
 11
13322.43680791801
 21
-2469.796009794853
 31
0.0
 71
     5
 42
320.0
  3
500
100
AcDbAlignedDimension
 13
13162.43680791801
 23
-3184.641610010475
 33
0.0
 14
13482.43680791801
 24
-3319.641610010473
 34
0.0
100
AcDbRotatedDimension
  0
DIMENSION
  5
C8
330
2
100
AcDbEntity
  8
0Wymiary-PL
100
AcDbDimension
  2
*D14
 10
12562.43680791801
 20
-2343.341073432043
 30
0.0
 11
13022.43680791801
 21
-2263.341073432043
 31
0.0
 71
     5
 42
919.9999999999981
  3
500
100
AcDbAlignedDimension
 13
13482.43680791801
 23
-3351.231424859773
 33
0.0
 14
12562.43680791801
 24
-3351.231424859772
 34
0.0
100
AcDbRotatedDimension
  0
LINE
  5
D3
330
2
100
AcDbEntity
  8
0Hatch
  6
Continuous
 62
   210
370
     5
100
AcDbLine
 10
17385.13174218286
 20
-3032.36105527386
 30
0.0
 11
17385.13174218286
 21
-2748.361055273857
 31
0.0
  0
LINE
  5
D4
330
2
100
AcDbEntity
  8
0Hatch
  6
Continuous
 62
   210
370
     5
100
AcDbLine
 10
17377.13174218286
 20
-2740.361055273859
 30
0.0
 11
17377.13174218286
 21
-3040.361055273859
 31
0.0
  0
LINE
  5
D5
330
2
100
AcDbEntity
  8
0Hatch
  6
Continuous
 62
   210
370
     5
100
AcDbLine
 10
16737.13174218286
 20
-3687.361055273859
 30
0.0
 11
16587.13174218286
 21
-3687.361055273859
 31
0.0
  0
LINE
  5
D6
330
2
100
AcDbEntity
  8
0Hatch
  6
Continuous
 62
   210
370
     5
100
AcDbLine
 10
16587.13174218286
 20
-3687.361055273859
 30
0.0
 11
16587.13174218286
 21
-2680.36105527386
 31
0.0
  0
LINE
  5
D7
330
2
100
AcDbEntity
  8
0Hatch
  6
Continuous
 62
   210
370
     5
100
AcDbLine
 10
16587.13174218286
 20
-2680.36105527386
 30
0.0
 11
16737.13174218286
 21
-2680.36105527386
 31
0.0
  0
LINE
  5
D8
330
2
100
AcDbEntity
  8
0Hatch
  6
Continuous
 62
   210
370
     5
100
AcDbLine
 10
17385.13174218286
 20
-3032.36105527386
 30
0.0
 11
17447.13174218285
 21
-3032.36105527386
 31
0.0
  0
LINE
  5
D9
330
2
100
AcDbEntity
  8
0Hatch
  6
Continuous
 62
   210
370
     5
100
AcDbLine
 10
17447.13174218285
 20
-3032.36105527386
 30
0.0
 11
17447.13174218285
 21
-2748.361055273857
 31
0.0
  0
LINE
  5
DA
330
2
100
AcDbEntity
  8
0Hatch
  6
Continuous
 62
   210
370
     5
100
AcDbLine
 10
17590.13174218285
 20
-4648.395630282284
 30
0.0
 11
17649.13174218285
 21
-4648.395630282284
 31
0.0
  0
LINE
  5
DB
330
2
100
AcDbEntity
  8
0Hatch
  6
Continuous
 62
   210
370
     5
100
AcDbLine
 10
17657.13174218286
 20
-4840.395630282285
 30
0.0
 11
17582.13174218286
 21
-4840.395630282285
 31
0.0
  0
LINE
  5
DC
330
2
100
AcDbEntity
  8
0Hatch
  6
Continuous
 62
   210
370
     5
100
AcDbLine
 10
17657.13174218286
 20
-4640.395630282286
 30
0.0
 11
17582.13174218286
 21
-4640.395630282283
 31
0.0
  0
LINE
  5
DD
330
2
100
AcDbEntity
  8
0Hatch
  6
Continuous
 62
   210
370
     5
100
AcDbLine
 10
17657.13174218286
 20
-4840.395630282285
 30
0.0
 11
17657.13174218286
 21
-4445.365630282285
 31
0.0
  0
LINE
  5
DE
330
2
100
AcDbEntity
  8
0Hatch
  6
Continuous
 62
   210
370
     5
100
AcDbLine
 10
17590.13174218285
 20
-4832.395630282285
 30
0.0
 11
17590.13174218285
 21
-4648.395630282284
 31
0.0
  0
LINE
  5
DF
330
2
100
AcDbEntity
  8
0Hatch
  6
Continuous
 62
   210
370
     5
100
AcDbLine
 10
17582.13174218286
 20
-4840.395630282285
 30
0.0
 11
17582.13174218286
 21
-4445.365630282285
 31
0.0
  0
LINE
  5
E0
330
2
100
AcDbEntity
  8
0Hatch
  6
Continuous
 62
   210
370
     5
100
AcDbLine
 10
17590.13174218285
 20
-4832.395630282285
 30
0.0
 11
17649.13174218285
 21
-4832.395630282285
 31
0.0
  0
LINE
  5
E1
330
2
100
AcDbEntity
  8
0Hatch
  6
Continuous
 62
   210
370
     5
100
AcDbLine
 10
17590.13174218285
 20
-4583.395630282285
 30
0.0
 11
17590.13174218285
 21
-4448.365630282285
 31
0.0
  0
LINE
  5
E2
330
2
100
AcDbEntity
  8
0Hatch
  6
Continuous
 62
   210
370
     5
100
AcDbLine
 10
17590.13174218285
 20
-4583.395630282285
 30
0.0
 11
17649.13174218285
 21
-4583.395630282285
 31
0.0
  0
LINE
  5
E3
330
2
100
AcDbEntity
  8
0Hatch
  6
Continuous
 62
   210
370
     5
100
AcDbLine
 10
17582.13174218286
 20
-4591.395630282284
 30
0.0
 11
17657.13174218286
 21
-4591.395630282284
 31
0.0
  0
LINE
  5
E4
330
2
100
AcDbEntity
  8
0Hatch
  6
Continuous
 62
   210
370
     5
100
AcDbLine
 10
17590.13174218285
 20
-4448.365630282285
 30
0.0
 11
17649.13174218285
 21
-4448.365630282285
 31
0.0
  0
LINE
  5
E5
330
2
100
AcDbEntity
  8
0Hatch
  6
Continuous
 62
   210
370
     5
100
AcDbLine
 10
16745.13174218285
 20
-4648.395630282284
 30
0.0
 11
16804.13174218285
 21
-4648.395630282284
 31
0.0
  0
LINE
  5
E6
330
2
100
AcDbEntity
  8
0Hatch
  6
Continuous
 62
   210
370
     5
100
AcDbLine
 10
16804.13174218285
 20
-4982.395630282284
 30
0.0
 11
16804.13174218285
 21
-4648.395630282284
 31
0.0
  0
LINE
  5
E7
330
2
100
AcDbEntity
  8
0Hatch
  6
Continuous
 62
   210
370
     5
100
AcDbLine
 10
16812.13174218286
 20
-4640.395630282283
 30
0.0
 11
16737.13174218286
 21
-4640.395630282283
 31
0.0
  0
LINE
  5
E8
330
2
100
AcDbEntity
  8
0Hatch
  6
Continuous
 62
   210
370
     5
100
AcDbLine
 10
16812.13174218286
 20
-4640.395630282283
 30
0.0
 11
16812.13174218286
 21
-4990.395630282285
 31
0.0
  0
LINE
  5
E9
330
2
100
AcDbEntity
  8
0Hatch
  6
Continuous
 62
   210
370
     5
100
AcDbLine
 10
16745.13174218285
 20
-4982.395630282284
 30
0.0
 11
16745.13174218285
 21
-4648.395630282284
 31
0.0
  0
LINE
  5
EA
330
2
100
AcDbEntity
  8
0Hatch
  6
Continuous
 62
   210
370
     5
100
AcDbLine
 10
16745.13174218285
 20
-4982.395630282284
 30
0.0
 11
16804.13174218285
 21
-4982.395630282284
 31
0.0
  0
LINE
  5
EB
330
2
100
AcDbEntity
  8
0Hatch
  6
Continuous
 62
   210
370
     5
100
AcDbLine
 10
17455.13174218286
 20
-3170.361055273858
 30
0.0
 11
17455.13174218286
 21
-2740.361055273859
 31
0.0
  0
LINE
  5
EC
330
2
100
AcDbEntity
  8
0Hatch
  6
Continuous
 62
   210
370
     5
100
AcDbLine
 10
17455.13174218286
 20
-3170.361055273858
 30
0.0
 11
17657.13174218286
 21
-3170.361055273858
 31
0.0
  0
LINE
  5
ED
330
2
100
AcDbEntity
  8
0Hatch
  6
Continuous
 62
   210
370
     5
100
AcDbLine
 10
17130.13174218285
 20
-4748.395630282284
 30
0.0
 11
17162.13174218285
 21
-4748.395630282284
 31
0.0
  0
LINE
  5
EE
330
2
100
AcDbEntity
  8
0Hatch
  6
Continuous
 62
   210
370
     5
100
AcDbLine
 10
17170.13174218285
 20
-4990.395630282285
 30
0.0
 11
16737.13174218286
 21
-4990.395630282285
 31
0.0
  0
LINE
  5
EF
330
2
100
AcDbEntity
  8
0Hatch
  6
Continuous
 62
   210
370
     5
100
AcDbLine
 10
17162.13174218285
 20
-4982.395630282284
 30
0.0
 11
17162.13174218285
 21
-4748.395630282284
 31
0.0
  0
LINE
  5
F0
330
2
100
AcDbEntity
  8
0Hatch
  6
Continuous
 62
   210
370
     5
100
AcDbLine
 10
17170.13174218285
 20
-4740.395630282284
 30
0.0
 11
17170.13174218285
 21
-4990.395630282285
 31
0.0
  0
LINE
  5
F1
330
2
100
AcDbEntity
  8
0Hatch
  6
Continuous
 62
   210
370
     5
100
AcDbLine
 10
17130.13174218285
 20
-4982.395630282284
 30
0.0
 11
17130.13174218285
 21
-4748.395630282284
 31
0.0
  0
LINE
  5
F2
330
2
100
AcDbEntity
  8
0Hatch
  6
Continuous
 62
   210
370
     5
100
AcDbLine
 10
17130.13174218285
 20
-4982.395630282284
 30
0.0
 11
17162.13174218285
 21
-4982.395630282284
 31
0.0
  0
LINE
  5
F3
330
2
100
AcDbEntity
  8
0Hatch
  6
Continuous
 62
   210
370
     5
100
AcDbLine
 10
17582.13174218286
 20
-4740.395630282284
 30
0.0
 11
16812.13174218286
 21
-4740.395630282284
 31
0.0
  0
LINE
  5
F4
330
2
100
AcDbEntity
  8
0Hatch
  6
Continuous
 62
   210
370
     5
100
AcDbLine
 10
17582.13174218286
 20
-4775.395630282284
 30
0.0
 11
17170.13174218285
 21
-4775.395630282284
 31
0.0
  0
LINE
  5
F5
330
2
100
AcDbEntity
  8
0Hatch
  6
Continuous
 62
   210
370
     5
100
AcDbLine
 10
17385.13174218286
 20
-2748.361055273859
 30
0.0
 11
17447.13174218285
 21
-2748.361055273859
 31
0.0
  0
LINE
  5
F6
330
2
100
AcDbEntity
  8
0Hatch
  6
Continuous
 62
   210
370
     5
100
AcDbLine
 10
17455.13174218286
 20
-2740.361055273859
 30
0.0
 11
17377.13174218286
 21
-2740.361055273859
 31
0.0
  0
LINE
  5
F7
330
2
100
AcDbEntity
  8
0Hatch
  6
Continuous
 62
   210
370
     5
100
AcDbLine
 10
17122.13174218286
 20
-4990.395630282285
 30
0.0
 11
17122.13174218286
 21
-4740.395630282284
 31
0.0
  0
LINE
  5
F8
330
2
100
AcDbEntity
  8
0Hatch
  6
Continuous
 62
   210
370
     5
100
AcDbLine
 10
16737.13174218286
 20
-2745.361055273859
 30
0.0
 11
17377.13174218286
 21
-2745.361055273859
 31
0.0
  0
LINE
  5
F9
330
2
100
AcDbEntity
  8
0Hatch
  6
Continuous
 62
   210
370
     5
100
AcDbLine
 10
17377.13174218286
 20
-2780.361055273859
 30
0.0
 11
16737.13174218286
 21
-2780.361055273859
 31
0.0
  0
LINE
  5
FA
330
2
100
AcDbEntity
  8
0Hatch
  6
Continuous
 62
   210
370
     5
100
AcDbLine
 10
17122.13174218286
 20
-4990.395630282285
 30
0.0
 11
16967.13174218285
 21
-4740.395630282284
 31
0.0
  0
LINE
  5
FB
330
2
100
AcDbEntity
  8
0Hatch
  6
Continuous
 62
   210
370
     5
100
AcDbLine
 10
16967.13174218285
 20
-4740.395630282284
 30
0.0
 11
16812.13174218286
 21
-4990.395630282285
 31
0.0
  0
HATCH
  5
FC
330
2
100
AcDbEntity
  8
0Hatch
100
AcDbHatch
 10
0.0
 20
0.0
 30
0.0
210
0.0
220
0.0
230
1.0
  2
SOLID
 70
     1
 71
     1
 91
        1
 92
        7
 72
     1
 73
     1
 93
        2
 10
17627.13174218285
 20
-4613.891667804312
 42
1.0
 10
17647.13174218285
 20
-4613.891667804312
 42
1.0
 97
        1
330
FD
 75
     0
 76
     1
 47
0.7655068007176383
 98
        1
 10
17641.86033444099
 20
-4612.808908345323
1001
ACAD
1010
0.0
1020
0.0
1030
0.0
  0
CIRCLE
  5
FD
102
{ACAD_REACTORS
330
FC
102
}
330
2
100
AcDbEntity
  8
0Hatch
  6
Continuous
 62
   210
370
     5
100
AcDbCircle
 10
17637.13174218286
 20
-4613.891667804312
 30
0.0
 40
10.0
  0
LINE
  5
FE
330
2
100
AcDbEntity
  8
0Hatch
  6
Continuous
 62
   210
370
     5
100
AcDbLine
 10
17170.13174218285
 20
-4601.395630282285
 30
0.0
 11
17170.13174218285
 21
-4591.395630282284
 31
0.0
  0
LINE
  5
FF
330
2
100
AcDbEntity
  8
0Hatch
  6
Continuous
 62
   210
370
     5
100
AcDbLine
 10
17377.13174218286
 20
-3035.361055273859
 30
0.0
 11
17455.13174218286
 21
-3035.361055273859
 31
0.0
  0
HATCH
  5
100
330
2
100
AcDbEntity
  8
0Hatch
100
AcDbHatch
 10
0.0
 20
0.0
 30
0.0
210
0.0
220
0.0
230
1.0
  2
SOLID
 70
     1
 71
     1
 91
        1
 92
        7
 72
     1
 73
     1
 93
        2
 10
17592.13174218285
 20
-4613.891667804312
 42
1.0
 10
17612.13174218285
 20
-4613.891667804312
 42
1.0
 97
        1
330
101
 75
     0
 76
     1
 47
0.7655068007176383
 98
        1
 10
17601.26357753614
 20
-4611.277888411059
1001
ACAD
1010
0.0
1020
0.0
1030
0.0
  0
CIRCLE
  5
101
102
{ACAD_REACTORS
330
100
102
}
330
2
100
AcDbEntity
  8
0Hatch
  6
Continuous
 62
   210
370
     5
100
AcDbCircle
 10
-17602.13174218286
 20
-4613.891667804312
 30
0.0
 40
10.0
210
0.0
220
0.0
230
-1.0
  0
LINE
  5
102
330
2
100
AcDbEntity
  8
0Hatch
  6
Continuous
 62
   210
370
     5
100
AcDbLine
 10
16737.13174218286
 20
-2680.36105527386
 30
0.0
 11
16737.13174218286
 21
-2780.361055273859
 31
0.0
  0
LINE
  5
103
330
2
100
AcDbEntity
  8
0Hatch
  6
Continuous
 62
   210
370
     5
100
AcDbLine
 10
16737.13174218286
 20
-4640.395630282283
 30
0.0
 11
16737.13174218286
 21
-4990.395630282285
 31
0.0
  0
LINE
  5
104
330
2
100
AcDbEntity
  8
0Hatch
  6
Continuous
 62
   210
370
     5
100
AcDbLine
 10
17649.13174218285
 20
-4832.395630282285
 30
0.0
 11
17649.13174218285
 21
-4648.395630282284
 31
0.0
  0
LINE
  5
105
330
2
100
AcDbEntity
  8
0Hatch
  6
Continuous
 62
   210
370
     5
100
AcDbLine
 10
17649.13174218285
 20
-4583.395630282285
 30
0.0
 11
17649.13174218285
 21
-4448.365630282285
 31
0.0
  0
HATCH
  5
106
330
2
100
AcDbEntity
  8
0Hatch
 48
4.0
100
AcDbHatch
 10
0.0
 20
0.0
 30
0.0
210
0.0
220
0.0
230
1.0
  2
SOLID
 70
     1
 71
     0
 91
        1
 92
        7
 72
     0
 73
     1
 93
       22
 10
17311.13174218285
 20
-4380.365630282287
 10
17490.13174218285
 20
-4380.365630282286
 10
17597.13174218286
 20
-4380.365630282287
 10
17597.13174218286
 20
-3230.361055273858
 10
17395.13174218286
 20
-3230.361055273858
 10
17395.13174218286
 20
-3095.361055273859
 10
17117.13174218286
 20
-3095.361055273859
 10
17117.13174218286
 20
-3230.361055273859
 10
16797.13174218286
 20
-3230.361055273858
 10
16797.13174218286
 20
-4580.395630282285
 10
16812.13174218286
 20
-4580.395630282285
 10
16812.13174218286
 20
-4640.395630282283
 10
16737.13174218286
 20
-4640.395630282283
 10
16737.13174218286
 20
-3170.361055273858
 10
17057.13174218286
 20
-3170.361055273859
 10
17057.13174218286
 20
-3035.361055273859
 10
17455.13174218286
 20
-3035.361055273859
 10
17455.13174218286
 20
-3170.361055273858
 10
17657.13174218286
 20
-3170.361055273858
 10
17657.13174218286
 20
-4440.365630282287
 10
17490.13174218285
 20
-4440.365630282285
 10
17311.13174218285
 20
-4440.365630282287
 97
        0
 75
     0
 76
     1
 47
3.013959809556593
 98
        1
 10
17482.6944227869
 20
-4408.322306546772
1001
ACAD
1010
0.0
1020
0.0
1030
0.0
  0
HATCH
  5
107
330
2
100
AcDbEntity
  8
0Hatch
 48
4.0
100
AcDbHatch
 10
0.0
 20
0.0
 30
0.0
210
0.0
220
0.0
230
1.0
  2
SOLID
 70
     1
 71
     0
 91
        1
 92
        7
 72
     0
 73
     1
 93
        7
 10
17110.13174218285
 20
-4380.365630282289
 10
17211.13174218285
 20
-4380.365630282287
 10
17211.13174218285
 20
-4440.365630282287
 10
17170.13174218285
 20
-4440.365630282287
 10
17170.13174218285
 20
-4640.395630282283
 10
17110.13174218285
 20
-4640.395630282283
 10
17110.13174218285
 20
-4522.35237211025
 97
        0
 75
     0
 76
     1
 47
3.013959809556593
 98
        1
 10
17132.85981155975
 20
-4465.587553103916
1001
ACAD
1010
0.0
1020
0.0
1030
0.0
  0
LINE
  5
108
330
2
100
AcDbEntity
  8
0Hatch
 48
4.0
100
AcDbLine
 10
17657.13174218286
 20
-3170.361055273858
 30
0.0
 11
17657.13174218286
 21
-4440.365630282287
 31
0.0
  0
LINE
  5
109
330
2
100
AcDbEntity
  8
0Hatch
 48
4.0
100
AcDbLine
 10
17657.13174218286
 20
-4440.365630282287
 30
0.0
 11
17170.13174218285
 21
-4440.365630282287
 31
0.0
  0
LINE
  5
10A
330
2
100
AcDbEntity
  8
0Hatch
 48
4.0
100
AcDbLine
 10
17170.13174218285
 20
-4440.365630282287
 30
0.0
 11
17170.13174218285
 21
-4640.395630282283
 31
0.0
  0
LINE
  5
10B
330
2
100
AcDbEntity
  8
0Hatch
 48
4.0
100
AcDbLine
 10
17170.13174218285
 20
-4640.395630282283
 30
0.0
 11
16737.13174218286
 21
-4640.395630282283
 31
0.0
  0
LINE
  5
10C
330
2
100
AcDbEntity
  8
0Hatch
 48
4.0
100
AcDbLine
 10
16737.13174218286
 20
-4640.395630282283
 30
0.0
 11
16737.13174218286
 21
-3170.361055273858
 31
0.0
  0
LINE
  5
10D
330
2
100
AcDbEntity
  8
0Hatch
 48
4.0
100
AcDbLine
 10
16737.13174218286
 20
-3170.361055273858
 30
0.0
 11
17057.13174218286
 21
-3170.361055273859
 31
0.0
  0
LINE
  5
10E
330
2
100
AcDbEntity
  8
0Hatch
 48
4.0
100
AcDbLine
 10
17057.13174218286
 20
-3170.361055273859
 30
0.0
 11
17057.13174218286
 21
-3035.361055273859
 31
0.0
  0
LINE
  5
10F
330
2
100
AcDbEntity
  8
0Hatch
 48
4.0
100
AcDbLine
 10
17057.13174218286
 20
-3035.361055273859
 30
0.0
 11
17455.13174218286
 21
-3035.361055273859
 31
0.0
  0
LINE
  5
110
330
2
100
AcDbEntity
  8
0Hatch
 48
4.0
100
AcDbLine
 10
17455.13174218286
 20
-3035.361055273859
 30
0.0
 11
17455.13174218286
 21
-3170.361055273858
 31
0.0
  0
LINE
  5
111
330
2
100
AcDbEntity
  8
0Hatch
 48
4.0
100
AcDbLine
 10
17455.13174218286
 20
-3170.361055273858
 30
0.0
 11
17657.13174218286
 21
-3170.361055273858
 31
0.0
  0
LINE
  5
112
330
2
100
AcDbEntity
  8
0Hatch
 48
4.0
100
AcDbLine
 10
17110.13174218285
 20
-4580.395630282285
 30
0.0
 11
16797.13174218286
 21
-4580.395630282285
 31
0.0
  0
LINE
  5
113
330
2
100
AcDbEntity
  8
0Hatch
 48
4.0
100
AcDbLine
 10
16797.13174218286
 20
-4580.395630282285
 30
0.0
 11
16797.13174218286
 21
-3230.361055273858
 31
0.0
  0
LINE
  5
114
330
2
100
AcDbEntity
  8
0Hatch
 48
4.0
100
AcDbLine
 10
16797.13174218286
 20
-3230.361055273858
 30
0.0
 11
17117.13174218286
 21
-3230.361055273859
 31
0.0
  0
LINE
  5
115
330
2
100
AcDbEntity
  8
0Hatch
 48
4.0
100
AcDbLine
 10
17117.13174218286
 20
-3230.361055273859
 30
0.0
 11
17117.13174218286
 21
-3095.361055273859
 31
0.0
  0
LINE
  5
116
330
2
100
AcDbEntity
  8
0Hatch
 48
4.0
100
AcDbLine
 10
17117.13174218286
 20
-3095.361055273859
 30
0.0
 11
17395.13174218286
 21
-3095.361055273859
 31
0.0
  0
LINE
  5
117
330
2
100
AcDbEntity
  8
0Hatch
 48
4.0
100
AcDbLine
 10
17395.13174218286
 20
-3095.361055273859
 30
0.0
 11
17395.13174218286
 21
-3230.361055273858
 31
0.0
  0
LINE
  5
118
330
2
100
AcDbEntity
  8
0Hatch
 48
4.0
100
AcDbLine
 10
17395.13174218286
 20
-3230.361055273858
 30
0.0
 11
17597.13174218286
 21
-3230.361055273858
 31
0.0
  0
LINE
  5
119
330
2
100
AcDbEntity
  8
0Hatch
 48
4.0
100
AcDbLine
 10
17597.13174218286
 20
-3230.361055273858
 30
0.0
 11
17597.13174218286
 21
-4380.365630282287
 31
0.0
  0
LINE
  5
11A
330
2
100
AcDbEntity
  8
0Hatch
 48
4.0
100
AcDbLine
 10
17597.13174218286
 20
-4380.365630282287
 30
0.0
 11
17110.13174218285
 21
-4380.365630282289
 31
0.0
  0
LINE
  5
11B
330
2
100
AcDbEntity
  8
0Hatch
 48
4.0
100
AcDbLine
 10
17110.13174218285
 20
-4640.395630282283
 30
0.0
 11
17110.13174218285
 21
-4380.365630282289
 31
0.0
  0
LINE
  5
11C
330
2
100
AcDbEntity
  8
0Hatch
 48
4.0
100
AcDbLine
 10
16812.13174218286
 20
-4640.395630282283
 30
0.0
 11
16812.13174218286
 21
-4580.395630282285
 31
0.0
  0
LINE
  5
11D
330
2
100
AcDbEntity
  8
0Hatch
 48
4.0
100
AcDbLine
 10
17311.13174218285
 20
-4440.365630282285
 30
0.0
 11
17311.13174218285
 21
-4380.365630282287
 31
0.0
  0
LINE
  5
11E
330
2
100
AcDbEntity
  8
0Hatch
 48
4.0
100
AcDbLine
 10
17211.13174218285
 20
-4440.365630282285
 30
0.0
 11
17211.13174218285
 21
-4380.365630282287
 31
0.0
  0
DIMENSION
  5
11F
330
2
100
AcDbEntity
  8
0Wymiary-PL
100
AcDbDimension
  2
*D15
 10
18071.71057410729
 20
-3170.361055273858
 30
0.0
 11
17991.71057410729
 21
-3102.861055273856
 31
0.0
 71
     5
 42
134.9999999999982
  3
500
100
AcDbAlignedDimension
 13
17550.74463647706
 23
-3035.361055273859
 33
0.0
 14
17749.74463647706
 24
-3170.361055273858
 34
0.0
 50
90.0
100
AcDbRotatedDimension
  0
DIMENSION
  5
12C
330
2
100
AcDbEntity
  8
0Wymiary-PL
100
AcDbDimension
  2
*D16
 10
18071.71057410729
 20
-4440.365630282287
 30
0.0
 11
17991.71057410729
 21
-3805.36334277807
 31
0.0
 71
     5
 42
1270.00457500843
  3
500
100
AcDbAlignedDimension
 13
17749.74463647706
 23
-3170.361055273858
 33
0.0
 14
17708.24463647706
 24
-4440.365630282287
 34
0.0
 50
90.0
100
AcDbRotatedDimension
  0
DIMENSION
  5
137
330
2
100
AcDbEntity
  8
0Wymiary-PL
100
AcDbDimension
  2
*D1
 10
18071.71057410729
 20
-4640.395630282283
 30
0.0
 11
17991.71057410729
 21
-4540.380630282283
 31
0.0
 71
     5
 42
200.029999999997
  3
500
100
AcDbAlignedDimension
 13
17708.24463647706
 23
-4440.365630282287
 33
0.0
 14
17404.74463647706
 24
-4640.395630282283
 34
0.0
 50
90.0
100
AcDbRotatedDimension
  0
DIMENSION
  5
142
330
2
100
AcDbEntity
  8
0Wymiary-PL
100
AcDbDimension
  2
*D2
 10
18292.58133871513
 20
-4640.395630282283
 30
0.0
 11
18212.58133871513
 21
-3837.878342778069
 31
0.0
 71
     5
 42
1605.034575008425
  3
500
100
AcDbAlignedDimension
 13
17351.74463647706
 23
-3035.361055273859
 33
0.0
 14
17248.24463647706
 24
-4640.395630282283
 34
0.0
 50
90.0
100
AcDbRotatedDimension
  0
DIMENSION
  5
14D
330
2
100
AcDbEntity
  8
0Wymiary-PL
100
AcDbDimension
  2
*D3
 10
17455.13174218286
 20
-2549.796009794853
 30
0.0
 11
17556.13174218286
 21
-2469.796009794853
 31
0.0
 71
     5
 42
202.0
  3
500
100
AcDbAlignedDimension
 13
17657.13174218286
 23
-3319.641610010473
 33
0.0
 14
17455.13174218286
 24
-3319.641610010473
 34
0.0
 50
180.0
100
AcDbRotatedDimension
  0
DIMENSION
  5
158
330
2
100
AcDbEntity
  8
0Wymiary-PL
100
AcDbDimension
  2
*D4
 10
17057.13174218286
 20
-2549.796009794853
 30
0.0
 11
17256.13174218286
 21
-2469.796009794853
 31
0.0
 71
     5
 42
398.0
  3
500
100
AcDbAlignedDimension
 13
17455.13174218286
 23
-3319.641610010473
 33
0.0
 14
17057.13174218286
 24
-3184.641610010475
 34
0.0
 50
180.0
100
AcDbRotatedDimension
  0
DIMENSION
  5
163
330
2
100
AcDbEntity
  8
0Wymiary-PL
100
AcDbDimension
  2
*D5
 10
16737.13174218286
 20
-2549.796009794853
 30
0.0
 11
16897.13174218286
 21
-2469.796009794853
 31
0.0
 71
     5
 42
320.0
  3
500
100
AcDbAlignedDimension
 13
17057.13174218286
 23
-3184.641610010475
 33
0.0
 14
16737.13174218286
 24
-3319.641610010473
 34
0.0
 50
180.0
100
AcDbRotatedDimension
  0
DIMENSION
  5
16E
330
2
100
AcDbEntity
  8
0Wymiary-PL
100
AcDbDimension
  2
*D6
 10
17657.13174218286
 20
-2343.341073432043
 30
0.0
 11
17197.13174218286
 21
-2263.341073432043
 31
0.0
 71
     5
 42
920.0
  3
500
100
AcDbAlignedDimension
 13
16737.13174218286
 23
-3351.231424859773
 33
0.0
 14
17657.13174218286
 24
-3351.231424859772
 34
0.0
 50
180.0
100
AcDbRotatedDimension
  0
LINE
  5
179
330
2
100
AcDbEntity
  8
0Hatch
 48
4.0
100
AcDbLine
 10
12562.43680791801
 20
-3170.361055273858
 30
0.0
 11
12562.43680791801
 21
-4440.365630282287
 31
0.0
  0
LINE
  5
17A
330
2
100
AcDbEntity
  8
0Hatch
 48
4.0
100
AcDbLine
 10
12562.43680791801
 20
-4440.365630282287
 30
0.0
 11
13049.43680791801
 21
-4440.365630282287
 31
0.0
  0
LINE
  5
17B
330
2
100
AcDbEntity
  8
0Hatch
 48
4.0
100
AcDbLine
 10
13049.43680791801
 20
-4440.365630282287
 30
0.0
 11
13049.43680791801
 21
-4640.395630282283
 31
0.0
  0
LINE
  5
17C
330
2
100
AcDbEntity
  8
0Hatch
 48
4.0
100
AcDbLine
 10
13049.43680791801
 20
-4640.395630282283
 30
0.0
 11
13482.43680791801
 21
-4640.395630282283
 31
0.0
  0
LINE
  5
17D
330
2
100
AcDbEntity
  8
0Hatch
 48
4.0
100
AcDbLine
 10
13482.43680791801
 20
-4640.395630282283
 30
0.0
 11
13482.43680791801
 21
-3170.361055273858
 31
0.0
  0
LINE
  5
17E
330
2
100
AcDbEntity
  8
0Hatch
 48
4.0
100
AcDbLine
 10
13482.43680791801
 20
-3170.361055273858
 30
0.0
 11
13162.43680791801
 21
-3170.361055273859
 31
0.0
  0
LINE
  5
17F
330
2
100
AcDbEntity
  8
0Hatch
 48
4.0
100
AcDbLine
 10
13162.43680791801
 20
-3170.361055273859
 30
0.0
 11
13162.43680791801
 21
-3035.361055273859
 31
0.0
  0
LINE
  5
180
330
2
100
AcDbEntity
  8
0Hatch
 48
4.0
100
AcDbLine
 10
13162.43680791801
 20
-3035.361055273859
 30
0.0
 11
12764.43680791801
 21
-3035.361055273859
 31
0.0
  0
LINE
  5
181
330
2
100
AcDbEntity
  8
0Hatch
 48
4.0
100
AcDbLine
 10
12764.43680791801
 20
-3035.361055273859
 30
0.0
 11
12764.43680791801
 21
-3170.361055273858
 31
0.0
  0
LINE
  5
182
330
2
100
AcDbEntity
  8
0Hatch
 48
4.0
100
AcDbLine
 10
12764.43680791801
 20
-3170.361055273858
 30
0.0
 11
12562.43680791801
 21
-3170.361055273858
 31
0.0
  0
LINE
  5
183
330
2
100
AcDbEntity
  8
0Hatch
 48
4.0
100
AcDbLine
 10
13109.43680791801
 20
-4640.395630282283
 30
0.0
 11
13109.43680791801
 21
-4380.365630282289
 31
0.0
  0
LINE
  5
184
330
2
100
AcDbEntity
  8
A-MassElement-G
  6
DASHED
 62
   210
370
     5
100
AcDbLine
 10
12562.43680791801
 20
-3345.361055273855
 30
0.0
 11
12522.43680791801
 21
-3345.361055273853
 31
0.0
  0
LINE
  5
189
330
2
100
AcDbEntity
  8
A-MassElement-G
  6
DASHED
 62
   210
370
     5
100
AcDbLine
 10
12522.43680791801
 20
-3345.361055273853
 30
0.0
 11
12522.43680791801
 21
-3523.361055273856
 31
0.0
  0
LINE
  5
18A
102
{ACAD_REACTORS
330
190
102
}
330
2
100
AcDbEntity
  8
A-MassElement-G
  6
DASHED
 62
   210
370
     5
100
AcDbLine
 10
12522.43680791801
 20
-3523.361055273856
 30
0.0
 11
12562.43680791801
 21
-3523.361055273856
 31
0.0
  0
LINE
  5
18B
330
2
100
AcDbEntity
  8
A-MassElement-G
  6
DASHED
 62
   210
370
     5
100
AcDbLine
 10
17657.13174218286
 20
-3345.361055273855
 30
0.0
 11
17697.13174218286
 21
-3345.361055273853
 31
0.0
  0
LINE
  5
18C
102
{ACAD_REACTORS
330
19F
102
}
330
2
100
AcDbEntity
  8
A-MassElement-G
  6
DASHED
 62
   210
370
     5
100
AcDbLine
 10
17697.13174218286
 20
-3345.361055273853
 30
0.0
 11
17697.13174218286
 21
-3523.361055273856
 31
0.0
  0
LINE
  5
18D
102
{ACAD_REACTORS
330
19F
102
}
330
2
100
AcDbEntity
  8
A-MassElement-G
  6
DASHED
 62
   210
370
     5
100
AcDbLine
 10
17697.13174218286
 20
-3523.361055273856
 30
0.0
 11
17657.13174218286
 21
-3523.361055273856
 31
0.0
  0
DIMENSION
  5
18E
102
{ACAD_XDICTIONARY
360
18F
102
}
102
{ACAD_REACTORS
330
190
102
}
330
2
100
AcDbEntity
  8
0Wymiary-PL
100
AcDbDimension
  2
*D17
 10
12562.43680791801
 20
-3723.645616715368
 30
0.0
 11
12477.6749031561
 21
-3643.645616715367
 31
0.0
 70
   128
 71
     5
 42
40.0
  3
500
100
AcDbAlignedDimension
 13
12522.43680791801
 23
-3523.361055273856
 33
0.0
 14
12562.43680791801
 24
-3523.361055273856
 34
0.0
100
AcDbRotatedDimension
  0
DIMENSION
  5
19D
102
{ACAD_XDICTIONARY
360
19E
102
}
102
{ACAD_REACTORS
330
19F
102
}
330
2
100
AcDbEntity
  8
0Wymiary-PL
100
AcDbDimension
  2
*D18
 10
17657.13174218286
 20
-3278.733808482285
 30
0.0
 11
17741.89364694476
 21
-3198.733808482285
 31
0.0
 70
   128
 71
     5
 42
40.0
  3
500
100
AcDbAlignedDimension
 13
17697.13174218286
 23
-3523.361055273856
 33
0.0
 14
17657.13174218286
 24
-3523.361055273856
 34
0.0
100
AcDbRotatedDimension
  0
ENDSEC
  0
SECTION
  2
OBJECTS
  0
DICTIONARY
  5
B
330
0
100
AcDbDictionary
281
     1
  3
ACAD_COLOR
350
1D5
  3
ACAD_FIELDLIST
350
204
  3
ACAD_GROUP
350
1CC
  3
ACAD_LAYOUT
350
1AE
  3
ACAD_MATERIAL
350
D
  3
ACAD_MLINESTYLE
350
1CD
  3
ACAD_PLOTSETTINGS
350
1CE
  3
ACAD_PLOTSTYLENAME
350
A
  3
ACAD_SCALELIST
350
1D6
  3
ACAD_TABLESTYLE
350
1D7
  3
ACAD_VISUALSTYLE
350
1C8
  3
ACDB_RECOMPOSE_DATA
350
282
  3
AcDbVariableDictionary
350
276
  3
CONLABELDictionary
350
224
  3
CONLDEFDictionary
350
205
  3
DWGPROPS
350
283
  0
DICTIONARY
  5
1B9
330
1B8
100
AcDbDictionary
280
     1
281
     1
  3
ACAD_LAYERFILTERS
360
1BA
  3
ACAD_LAYERSTATES
360
1BB
  3
ACLYDICTIONARY
360
1BC
  0
DICTIONARY
  5
7
330
6
100
AcDbDictionary
280
     1
281
     1
  3
ADSK_XREC_LAYER_RECONCILED
360
8
  0
DICTIONARY
  5
19
330
18
100
AcDbDictionary
280
     1
281
     1
  3
ADSK_XREC_LAYER_RECONCILED
360
1A
  0
DICTIONARY
  5
14
330
13
100
AcDbDictionary
280
     1
281
     1
  3
ADSK_XREC_LAYER_RECONCILED
360
15
  0
DICTIONARY
  5
6D
330
6C
100
AcDbDictionary
280
     1
281
     1
  3
ADSK_XREC_LAYER_RECONCILED
360
6E
  0
DICTIONARY
  5
29
330
28
100
AcDbDictionary
280
     1
281
     1
  3
ADSK_XREC_LAYER_RECONCILED
360
2A
  0
DICTIONARY
  5
186
330
185
100
AcDbDictionary
280
     1
281
     1
  0
DICTIONARY
  5
3
330
2
100
AcDbDictionary
280
     1
281
     1
  3
ACAD_SORTENTS
360
203
  0
DICTIONARY
  5
1B1
330
1B0
100
AcDbDictionary
280
     1
281
     1
  3
ACAD_SORTENTS
360
202
  0
DICTIONARY
  5
76
330
75
100
AcDbDictionary
280
     1
281
     1
  3
ACAD_SORTENTS
360
201
  0
DICTIONARY
  5
284
330
1F
100
AcDbDictionary
280
     1
281
     1
  3
ACAD_MTEXT_RT
360
285
  0
DICTIONARY
  5
286
330
23
100
AcDbDictionary
280
     1
281
     1
  3
ACAD_MTEXT_RT
360
287
  0
DICTIONARY
  5
18F
330
18E
100
AcDbDictionary
280
     1
281
     1
  3
ACAD_DIMASSOC
360
190
  0
DICTIONARY
  5
19E
330
19D
100
AcDbDictionary
280
     1
281
     1
  3
ACAD_DIMASSOC
360
19F
  0
DICTIONARY
  5
1D5
102
{ACAD_REACTORS
330
B
102
}
330
B
100
AcDbDictionary
281
     1
  0
FIELDLIST
  5
204
102
{ACAD_REACTORS
330
B
102
}
330
B
100
AcDbIdSet
 90
        0
100
AcDbFieldList
  0
DICTIONARY
  5
1CC
102
{ACAD_REACTORS
330
B
102
}
330
B
100
AcDbDictionary
281
     1
  0
DICTIONARY
  5
1AE
102
{ACAD_REACTORS
330
B
102
}
330
B
100
AcDbDictionary
281
     1
  3
Model
350
1AD
  3
Stolarka
350
1B5
  0
DICTIONARY
  5
D
102
{ACAD_REACTORS
330
B
102
}
330
B
100
AcDbDictionary
281
     1
  3
ByBlock
350
1D2
  3
ByLayer
350
1CF
  3
Global
350
C
  0
DICTIONARY
  5
1CD
102
{ACAD_REACTORS
330
B
102
}
330
B
100
AcDbDictionary
281
     1
  3
Standard
350
1D8
  0
DICTIONARY
  5
1CE
102
{ACAD_REACTORS
330
B
102
}
330
B
100
AcDbDictionary
281
     1
  0
ACDBDICTIONARYWDFLT
  5
A
102
{ACAD_REACTORS
330
B
102
}
330
B
100
AcDbDictionary
281
     1
  3
Normal
350
9
100
AcDbDictionaryWithDefault
340
9
  0
DICTIONARY
  5
1D6
102
{ACAD_REACTORS
330
B
102
}
330
B
100
AcDbDictionary
281
     1
  3
*A1
350
1DD
  3
*A10
350
1DE
  3
*A11
350
1DF
  3
*A12
350
1E0
  3
*A13
350
1E1
  3
*A14
350
1E2
  3
*A15
350
1E3
  3
*A2
350
1E4
  3
*A3
350
1E5
  3
*A4
350
1E6
  3
*A5
350
1E7
  3
*A6
350
1E8
  3
*A7
350
1E9
  3
*A8
350
1EA
  3
*A9
350
1EB
  3
A0
350
1EC
  3
A1
350
1ED
  3
A2
350
1EE
  3
A3
350
1EF
  3
A4
350
1F0
  3
A5
350
1F1
  3
A6
350
1F2
  3
A7
350
1F3
  3
A8
350
1F4
  3
A9
350
1F5
  3
B0
350
1F6
  3
B1
350
1F7
  3
B2
350
1F8
  3
B3
350
1F9
  3
B4
350
1FA
  3
B5
350
1FB
  3
B6
350
1FC
  3
B7
350
1FD
  3
B8
350
1FE
  3
B9
350
1FF
  3
C0
350
200
  0
DICTIONARY
  5
1D7
102
{ACAD_REACTORS
330
B
102
}
330
B
100
AcDbDictionary
281
     1
  3
Standard
350
1D9
  0
DICTIONARY
  5
1C8
102
{ACAD_REACTORS
330
B
102
}
330
B
100
AcDbDictionary
281
     1
  3
2dWireframe
350
1C7
  3
3dWireframe
350
1DC
  3
Realistic
350
1DB
  0
XRECORD
  5
282
102
{ACAD_REACTORS
330
B
102
}
330
B
100
AcDbXrecord
280
     1
 90
        1
330
1D9
  0
DICTIONARY
  5
276
102
{ACAD_REACTORS
330
B
102
}
330
B
100
AcDbDictionary
281
     1
  3
CANNOSCALE
350
279
  3
CMLEADERSTYLE
350
278
  3
CTABLESTYLE
350
277
  3
DIMASSOC
350
27E
  3
HIDETEXT
350
27D
  3
INDEXCTL
350
27C
  3
LAYERNOTIFY
350
27A
  3
SORTENTS
350
27B
  0
DICTIONARY
  5
224
102
{ACAD_REACTORS
330
B
102
}
330
B
100
AcDbDictionary
281
     1
  3
_el_wzb_Left_nazw_romans16
350
275
  3
_elementy_wiezby_SKROT_Romans16
350
274
  3
_materialy_przegrod_pl_Label1
350
273
  3
_nazwy_przegrod_romans18
350
272
  3
_nazwy_rysunkow_Arial37
350
271
  3
_nazwy_rysunkow_Romans18
350
270
  3
_opisy_rozne_II_Label1
350
26F
  3
_opisy_rozne_II_Link1Label1
350
26E
  3
_posadzki_do_zestawienia_pomieszczen_Romans17
350
26D
  3
_rozne_opisy_rys_R16_right
350
26C
  3
_rozne_opisy_rys_Romans12
350
26B
  3
_rozne_opisy_rys_Romans16
350
26A
  3
_tabelka_-_inform_i_etykiety_Romans13
350
269
  3
_tabelka_Arial15-center
350
268
  3
_tabelka_Arial151
350
267
  3
_tabelka_Romans 10
350
266
  3
_tabelka_Romans13
350
265
  3
_tabelka_Romans19
350
264
  3
_tbl_nazwy_rys_Arial35
350
263
  3
_tbl_nazwy_rys_Romans18
350
262
  3
ALFABET-Arial20
350
261
  3
ALFABET-Arial26
350
260
  3
ALFABET-Arial37
350
25F
  3
Arial_27
350
25E
  3
arkusz_nazwy_Arial35
350
25D
  3
arkusz_nazwy_Arial_35_DwieLinie
350
25C
  3
arkusz_nazwy_Romans18
350
25B
  3
arkusz_nazwy_Romans_18
350
25A
  3
jednostki-Arial18
350
259
  3
jednostki-Arial30
350
258
  3
jednostki-Romans16
350
257
  3
jednostki_arial6.6kursywa
350
256
  3
jednostki_ROMANS11
350
255
  3
jednostki_ROMANS15
350
254
  3
jednostki_Romans30
350
253
  3
jednostki_Romans7
350
252
  3
jednostkiLabel1
350
251
  3
jednostkiRomans22
350
250
  3
konstr_drew_arial6.6kursywa
350
24F
  3
konstr_drew_romans7
350
24E
  3
konstr_stalarial9kursywa
350
24D
  3
konstr_stalLabel1
350
24C
  3
konstr_stalLabel2
350
24B
  3
miesiace-Romans17
350
24A
  3
pomieszczenia-Arial 15
350
249
  3
pomieszczenia-Romans17
350
248
  3
romans16
350
247
  3
Romans_17
350
246
  3
schematy_arial15
350
245
  3
schematy_arial20
350
244
  3
schematy_arial37
350
243
  3
schematy_romans15
350
242
  3
schematy_romans15Right
350
241
  3
stolarka-Arial14
350
240
  3
stolarka-Romans1607
350
23F
  3
stolarka-Romans1608
350
23E
  3
stolarkaLabel1
350
23D
  3
szczegoly_arial12kursywa
350
23C
  3
szczegoly_arial6.6kursRight
350
23B
  3
szczegoly_arial6.6kursywa
350
23A
  3
szczegoly_Romans7
350
239
  3
szczegoly_romans7_right
350
238
  3
tbl_nazwy_rys_Arial37
350
237
  3
tbl_opisy_Romans_poch20
350
236
  3
tbl_opisy_RomansPoch14
350
235
  3
tbl_opisy_RomansPoch20_R
350
234
  3
tbl_PRZEGRODY
350
233
  3
tbl_uwagi_coRomans20Right
350
232
  3
uwag_og_na_ark_Arial18
350
231
  3
uwagi_co_Arial37
350
230
  3
uwagi_co_Romans20
350
22F
  3
uwagi_na_schematachLabel1
350
22E
  3
uwagi_na_schematachLabel2
350
22D
  3
uwagi_na_schematachRight
350
22C
  3
uwagi_wodkan_Romans18
350
22B
  3
uwagi_wodkanARIAL37
350
22A
  3
uwagi_wodkanRomans20_Right
350
229
  3
zbroj_plyty_arial22
350
228
  3
zbroj_plyty_romans12
350
227
  3
zbroj_plyty_romans12Right
350
226
  3
zbroj_plyty_romans9
350
225
  0
DICTIONARY
  5
205
102
{ACAD_REACTORS
330
B
102
}
330
B
100
AcDbDictionary
281
     1
  3
_elementy_wiezby_Link1
350
223
  3
_materialy_przegrod_pl_Link1
350
222
  3
_nazwy_przegrod_pl_Link1
350
221
  3
_nazwy_rysunkow_Arial37
350
220
  3
_opisy_rozne_II_Link1
350
21F
  3
_opisy_rozne_II_Link2
350
21E
  3
_posadzki_do_zestawienia_pomieszczen_Link1
350
21D
  3
_rozne_opisy_rys_Link1
350
21C
  3
_tabelka_-_inform_i_etykiety_Link1
350
21B
  3
_tbl_nazwy_rys_Link1
350
21A
  3
_uwagi_ogolne_na_arkuszu_Link1
350
219
  3
_~TMPCLP122371_Link1
350
218
  3
ALFABETLink1
350
217
  3
arkusz_nazwyLink1
350
216
  3
arkusz_nazwyLink2
350
215
  3
jednostkiLink1
350
214
  3
konstr_drewLink1
350
213
  3
konstr_stalLink1
350
212
  3
miesiaceLink1
350
211
  3
pomieszczeniaLink1
350
210
  3
schematyLink1
350
20F
  3
stolarkaLink1
350
20E
  3
szczegolyLink1
350
20D
  3
tbl_jednostkiLink1
350
20C
  3
tbl_opisyLink1
350
20B
  3
tbl_PRZEGRODYLink1
350
20A
  3
tbl_uwagi_coLink1
350
209
  3
tbl_uwagi_wodkanLink1
350
208
  3
uwagi_na_schematachLink1
350
207
  3
zbroj_plytyLink1
350
206
  0
XRECORD
  5
283
102
{ACAD_REACTORS
330
B
102
}
330
B
100
AcDbXrecord
280
     1
  1
DWGPROPS COOKIE
  2

  3

  4

  6

  7

  8
artur.skora
  9

300
=
301
=
302
=
303
=
304
=
305
=
306
=
307
=
308
=
309
=
 40
18.07517122685185
 41
2453080.682933079
 42
2455146.374252384
  1

 90
        0
  0
DICTIONARY
  5
1BA
102
{ACAD_REACTORS
330
1B9
102
}
330
1B9
100
AcDbDictionary
281
     1
  0
DICTIONARY
  5
1BB
102
{ACAD_REACTORS
330
1B9
102
}
330
1B9
100
AcDbDictionary
281
     1
  0
DICTIONARY
  5
1BC
102
{ACAD_REACTORS
330
1B9
102
}
330
1B9
100
AcDbDictionary
281
     1
1001
ACAD
1000
<All
  0
XRECORD
  5
8
102
{ACAD_REACTORS
330
7
102
}
330
7
100
AcDbXrecord
280
     1
290
     1
  0
XRECORD
  5
1A
102
{ACAD_REACTORS
330
19
102
}
330
19
100
AcDbXrecord
280
     1
290
     1
  0
XRECORD
  5
15
102
{ACAD_REACTORS
330
14
102
}
330
14
100
AcDbXrecord
280
     1
290
     1
  0
XRECORD
  5
6E
102
{ACAD_REACTORS
330
6D
102
}
330
6D
100
AcDbXrecord
280
     1
290
     1
  0
XRECORD
  5
2A
102
{ACAD_REACTORS
330
29
102
}
330
29
100
AcDbXrecord
280
     1
290
     1
  0
SORTENTSTABLE
  5
203
102
{ACAD_REACTORS
330
3
102
}
330
3
100
AcDbSortentsTable
330
2
  0
SORTENTSTABLE
  5
202
102
{ACAD_REACTORS
330
1B1
102
}
330
1B1
100
AcDbSortentsTable
330
1B0
  0
SORTENTSTABLE
  5
201
102
{ACAD_REACTORS
330
76
102
}
330
76
100
AcDbSortentsTable
330
75
  0
XRECORD
  5
285
102
{ACAD_REACTORS
330
284
102
}
330
284
100
AcDbXrecord
280
     1
 40
264312.0
  1
{\fArial|b0|i0|c238|p34;MOŻNA WKLEIĆ DO PROJEKTU ZAGOSPODAROWANIA TERENU}
  0
XRECORD
  5
287
102
{ACAD_REACTORS
330
286
102
}
330
286
100
AcDbXrecord
280
     1
 40
106589.0
  1
{\fArial|b0|i0|c238|p34;OŚ ODBICIA LUSTRZANEGO}
  0
DIMASSOC
  5
190
102
{ACAD_REACTORS
330
18F
102
}
330
18F
100
AcDbDimAssoc
330
18E
 90
        3
 70
     0
 71
     0
  1
AcDbOsnapPointRef
 72
    13
331
18A
 73
     2
 91
        0
 40
0.0
 10
0.0
 20
0.0
 30
2.000000000000000E+50
 75
     0
  1
AcDbOsnapPointRef
 72
     1
331
18A
 73
     2
 91
        0
 40
1.0
 10
0.0
 20
0.0
 30
2.000000000000000E+50
 75
     0
  0
DIMASSOC
  5
19F
102
{ACAD_REACTORS
330
19E
102
}
330
19E
100
AcDbDimAssoc
330
19D
 90
        3
 70
     0
 71
     0
  1
AcDbOsnapPointRef
 72
     1
331
18C
 73
     2
 91
        0
 40
1.0
 10
0.0
 20
0.0
 30
2.000000000000000E+50
 75
     0
  1
AcDbOsnapPointRef
 72
     1
331
18D
 73
     2
 91
        0
 40
1.0
 10
0.0
 20
0.0
 30
2.000000000000000E+50
 75
     0
  0
LAYOUT
  5
1AD
102
{ACAD_XDICTIONARY
360
288
102
}
102
{ACAD_REACTORS
330
1AE
102
}
330
1AE
100
AcDbPlotSettings
  1

  2
\\druk\RICOH Aficio AP610N PCL 6
  4
A4
  6

 40
5.027082920074462
 41
5.027085781097412
 42
5.027069091796875
 43
5.027069091796875
 44
209.9733276367186
 45
296.9259948730469
 46
-2.040412187576591
 47
3.235920000076276
 48
10009.78427505042
 49
-11727.14472035794
140
20209.78427505045
141
2292.855279642056
142
1.0
143
50.0
 70
 11940
 72
     1
 73
     0
 74
     4
  7
monochrome_140.ctb
 75
     0
147
0.0142595703013443
148
-10009.78427505042
149
11727.14472035794
100
AcDbLayout
  1
Model
 70
     1
 71
     0
 10
0.0
 20
0.0
 11
12.0
 21
9.0
 12
0.0
 22
0.0
 32
0.0
 14
0.0
 24
0.0
 34
0.0
 15
0.0
 25
0.0
 35
0.0
146
0.0
 13
0.0
 23
0.0
 33
0.0
 16
1.0
 26
0.0
 36
0.0
 17
0.0
 27
1.0
 37
0.0
 76
     0
330
2
331
1C6
1001
ACAD_PSEXT
1000
\\druk\RICOH Aficio AP610N PCL 6
1000
RICOH Aficio AP610N PCL 6
1000
Dział Techniczny
1000
Ricoh Afficio AP610N - Dział Techniczny
1070
     0
  0
LAYOUT
  5
1B5
102
{ACAD_XDICTIONARY
360
1B6
102
}
102
{ACAD_REACTORS
330
1AE
102
}
330
1AE
100
AcDbPlotSettings
  1

  2
\\druk\RICOH Aficio AP610N PCL 6
  4
A4
  6

 40
5.027082920074462
 41
5.027085781097412
 42
5.027069091796875
 43
5.027069091796875
 44
209.9733276367186
 45
296.9259948730469
 46
-5.040412187576293
 47
-5.064079999923706
 48
-69.00772587260508
 49
-50.37759655085665
140
2030.992274127395
141
2919.622403449143
142
1.0
143
10.0
 70
   676
 72
     1
 73
     0
 74
     4
  7
monochrome_140.ctb
 75
     0
147
0.1
148
69.00772587260508
149
50.37759655085665
100
AcDbLayout
  1
Stolarka
 70
     0
 71
     1
 10
-68.87443319758677
 20
-50.00765436259371
 11
2030.858843169601
 21
2919.252294367875
 12
0.0
 22
0.0
 32
0.0
 14
-251.5287312121618
 24
-115.224690981242
 34
0.0
 15
8269.187766048387
 25
4123.001706844823
 35
0.0
146
0.0
 13
0.0
 23
0.0
 33
0.0
 16
1.0
 26
0.0
 36
0.0
 17
0.0
 27
1.0
 37
0.0
 76
     0
330
1B0
1001
ACAD_PSEXT
1000
\\druk\RICOH Aficio AP610N PCL 6
1000
RICOH Aficio AP610N PCL 6
1000
Dział Techniczny
1000
Ricoh Afficio AP610N - Dział Techniczny
1070
     0
  0
MATERIAL
  5
1D2
102
{ACAD_XDICTIONARY
360
1D3
102
}
102
{ACAD_REACTORS
330
D
102
}
330
D
100
AcDbMaterial
  1
ByBlock
 73
     1
 78
     1
172
     1
176
     1
270
     1
274
     1
  0
MATERIAL
  5
1CF
102
{ACAD_XDICTIONARY
360
1D0
102
}
102
{ACAD_REACTORS
330
D
102
}
330
D
100
AcDbMaterial
  1
ByLayer
 73
     1
 78
     1
172
     1
176
     1
270
     1
274
     1
  0
MATERIAL
  5
C
102
{ACAD_XDICTIONARY
360
E
102
}
102
{ACAD_REACTORS
330
D
102
}
330
D
100
AcDbMaterial
  1
Global
 73
     1
 78
     1
172
     1
176
     1
270
     1
274
     1
  0
MLINESTYLE
  5
1D8
102
{ACAD_REACTORS
330
1CD
102
}
330
1CD
100
AcDbMlineStyle
  2
STANDARD
 70
     0
  3

 62
   256
 51
90.0
 52
90.0
 71
     2
 49
0.5
 62
   256
  6
BYLAYER
 49
-0.5
 62
   256
  6
BYLAYER
  0
ACDBPLACEHOLDER
  5
9
102
{ACAD_REACTORS
330
A
102
}
330
A
  0
SCALE
  5
1DD
102
{ACAD_REACTORS
330
1D6
102
}
330
1D6
100
AcDbScale
 70
     0
300
1/64" = 1'-0"_XREF
140
0.015625
141
12.0
290
     0
  0
SCALE
  5
1DE
102
{ACAD_REACTORS
330
1D6
102
}
330
1D6
100
AcDbScale
 70
     0
300
3/8" = 1'-0"_XREF
140
0.375
141
12.0
290
     0
  0
SCALE
  5
1DF
102
{ACAD_REACTORS
330
1D6
102
}
330
1D6
100
AcDbScale
 70
     0
300
1/2" = 1'-0"_XREF
140
0.5
141
12.0
290
     0
  0
SCALE
  5
1E0
102
{ACAD_REACTORS
330
1D6
102
}
330
1D6
100
AcDbScale
 70
     0
300
3/4" = 1'-0"_XREF
140
0.75
141
12.0
290
     0
  0
SCALE
  5
1E1
102
{ACAD_REACTORS
330
1D6
102
}
330
1D6
100
AcDbScale
 70
     0
300
1" = 1'-0"_XREF
140
1.0
141
12.0
290
     0
  0
SCALE
  5
1E2
102
{ACAD_REACTORS
330
1D6
102
}
330
1D6
100
AcDbScale
 70
     0
300
1 1/2" = 1'-0"_XREF
140
1.5
141
12.0
290
     0
  0
SCALE
  5
1E3
102
{ACAD_REACTORS
330
1D6
102
}
330
1D6
100
AcDbScale
 70
     0
300
3" = 1'-0"_XREF
140
3.0
141
12.0
290
     0
  0
SCALE
  5
1E4
102
{ACAD_REACTORS
330
1D6
102
}
330
1D6
100
AcDbScale
 70
     0
300
6" = 1'-0"_XREF
140
6.0
141
12.0
290
     0
  0
SCALE
  5
1E5
102
{ACAD_REACTORS
330
1D6
102
}
330
1D6
100
AcDbScale
 70
     0
300
1'-0" = 1'-0"_XREF
140
12.0
141
12.0
290
     0
  0
SCALE
  5
1E6
102
{ACAD_REACTORS
330
1D6
102
}
330
1D6
100
AcDbScale
 70
     0
300
1/32" = 1'-0"_XREF
140
0.03125
141
12.0
290
     0
  0
SCALE
  5
1E7
102
{ACAD_REACTORS
330
1D6
102
}
330
1D6
100
AcDbScale
 70
     0
300
1/16" = 1'-0"_XREF
140
0.0625
141
12.0
290
     0
  0
SCALE
  5
1E8
102
{ACAD_REACTORS
330
1D6
102
}
330
1D6
100
AcDbScale
 70
     0
300
3/32" = 1'-0"_XREF
140
0.09375
141
12.0
290
     0
  0
SCALE
  5
1E9
102
{ACAD_REACTORS
330
1D6
102
}
330
1D6
100
AcDbScale
 70
     0
300
1/8" = 1'-0"_XREF
140
0.125
141
12.0
290
     0
  0
SCALE
  5
1EA
102
{ACAD_REACTORS
330
1D6
102
}
330
1D6
100
AcDbScale
 70
     0
300
3/16" = 1'-0"_XREF
140
0.1875
141
12.0
290
     0
  0
SCALE
  5
1EB
102
{ACAD_REACTORS
330
1D6
102
}
330
1D6
100
AcDbScale
 70
     0
300
1/4" = 1'-0"_XREF
140
0.25
141
12.0
290
     0
  0
SCALE
  5
1EC
102
{ACAD_REACTORS
330
1D6
102
}
330
1D6
100
AcDbScale
 70
     0
300
1:1
140
1.0
141
0.1
290
     0
  0
SCALE
  5
1ED
102
{ACAD_REACTORS
330
1D6
102
}
330
1D6
100
AcDbScale
 70
     0
300
1:2
140
1.0
141
0.2
290
     0
  0
SCALE
  5
1EE
102
{ACAD_REACTORS
330
1D6
102
}
330
1D6
100
AcDbScale
 70
     0
300
1:2.5
140
1.0
141
0.25
290
     0
  0
SCALE
  5
1EF
102
{ACAD_REACTORS
330
1D6
102
}
330
1D6
100
AcDbScale
 70
     0
300
1:5
140
1.0
141
0.5
290
     0
  0
SCALE
  5
1F0
102
{ACAD_REACTORS
330
1D6
102
}
330
1D6
100
AcDbScale
 70
     0
300
1:7.5
140
1.0
141
0.75
290
     0
  0
SCALE
  5
1F1
102
{ACAD_REACTORS
330
1D6
102
}
330
1D6
100
AcDbScale
 70
     0
300
1:10
140
1.0
141
1.0
290
     1
  0
SCALE
  5
1F2
102
{ACAD_REACTORS
330
1D6
102
}
330
1D6
100
AcDbScale
 70
     0
300
1:20
140
1.0
141
2.0
290
     0
  0
SCALE
  5
1F3
102
{ACAD_REACTORS
330
1D6
102
}
330
1D6
100
AcDbScale
 70
     0
300
1:25
140
1.0
141
2.5
290
     0
  0
SCALE
  5
1F4
102
{ACAD_REACTORS
330
1D6
102
}
330
1D6
100
AcDbScale
 70
     0
300
1:50
140
1.0
141
5.0
290
     0
  0
SCALE
  5
1F5
102
{ACAD_REACTORS
330
1D6
102
}
330
1D6
100
AcDbScale
 70
     0
300
1:75
140
1.0
141
7.5
290
     0
  0
SCALE
  5
1F6
102
{ACAD_REACTORS
330
1D6
102
}
330
1D6
100
AcDbScale
 70
     0
300
1:100
140
1.0
141
10.0
290
     0
  0
SCALE
  5
1F7
102
{ACAD_REACTORS
330
1D6
102
}
330
1D6
100
AcDbScale
 70
     0
300
1:150
140
1.0
141
15.0
290
     0
  0
SCALE
  5
1F8
102
{ACAD_REACTORS
330
1D6
102
}
330
1D6
100
AcDbScale
 70
     0
300
1:200
140
1.0
141
20.0
290
     0
  0
SCALE
  5
1F9
102
{ACAD_REACTORS
330
1D6
102
}
330
1D6
100
AcDbScale
 70
     0
300
1:250
140
1.0
141
25.0
290
     0
  0
SCALE
  5
1FA
102
{ACAD_REACTORS
330
1D6
102
}
330
1D6
100
AcDbScale
 70
     0
300
1:500
140
1.0
141
50.0
290
     0
  0
SCALE
  5
1FB
102
{ACAD_REACTORS
330
1D6
102
}
330
1D6
100
AcDbScale
 70
     0
300
1:750
140
1.0
141
75.0
290
     0
  0
SCALE
  5
1FC
102
{ACAD_REACTORS
330
1D6
102
}
330
1D6
100
AcDbScale
 70
     0
300
1:1000
140
1.0
141
100.0
290
     0
  0
SCALE
  5
1FD
102
{ACAD_REACTORS
330
1D6
102
}
330
1D6
100
AcDbScale
 70
     0
300
1:1250
140
1.0
141
125.0
290
     0
  0
SCALE
  5
1FE
102
{ACAD_REACTORS
330
1D6
102
}
330
1D6
100
AcDbScale
 70
     0
300
1:2000
140
1.0
141
200.0
290
     0
  0
SCALE
  5
1FF
102
{ACAD_REACTORS
330
1D6
102
}
330
1D6
100
AcDbScale
 70
     0
300
1:2500
140
1.0
141
250.0
290
     0
  0
SCALE
  5
200
102
{ACAD_REACTORS
330
1D6
102
}
330
1D6
100
AcDbScale
 70
     0
300
1:5000
140
1.0
141
500.0
290
     0
  0
TABLESTYLE
  5
1D9
102
{ACAD_XDICTIONARY
360
1DA
102
}
102
{ACAD_REACTORS
330
1D7
102
}
330
1D7
100
AcDbTableStyle
  3
Standard
 70
     0
 71
     0
 40
0.06
 41
0.06
280
     0
281
     0
  7
Standard
140
0.18
170
     2
 62
     0
 63
     7
283
     0
274
    -2
284
     1
 64
     0
275
    -2
285
     1
 65
     0
276
    -2
286
     1
 66
     0
277
    -2
287
     1
 67
     0
278
    -2
288
     1
 68
     0
279
    -2
289
     1
 69
     0
  7
Standard
140
0.25
170
     5
 62
     0
 63
     7
283
     0
274
    -2
284
     1
 64
     0
275
    -2
285
     1
 65
     0
276
    -2
286
     1
 66
     0
277
    -2
287
     1
 67
     0
278
    -2
288
     1
 68
     0
279
    -2
289
     1
 69
     0
  7
Standard
140
0.18
170
     5
 62
     0
 63
     7
283
     0
274
    -2
284
     1
 64
     0
275
    -2
285
     1
 65
     0
276
    -2
286
     1
 66
     0
277
    -2
287
     1
 67
     0
278
    -2
288
     1
 68
     0
279
    -2
289
     1
 69
     0
  0
VISUALSTYLE
  5
1C7
102
{ACAD_REACTORS
330
1C8
102
}
330
1C8
100
AcDbVisualStyle
  2
2dWireframe
 70
     4
 71
     0
 72
     2
 73
     0
 90
        0
 40
-0.6
 41
-30.0
 62
     5
 63
     7
 74
     1
 91
        4
 64
     7
 65
   257
 75
     1
175
     1
 42
1.0
 92
        0
 66
   257
 43
1.0
 76
     1
 77
     6
 78
     2
 67
     7
 79
     5
170
     0
171
     0
290
     0
174
     0
 93
        1
 44
0.0
173
     0
291
     0
 45
0.0
1001
ACAD
1000
AcDbSavedByObjectVersion
1070
     0
  0
VISUALSTYLE
  5
1DC
102
{ACAD_REACTORS
330
1C8
102
}
330
1C8
100
AcDbVisualStyle
  2
3dWireframe
 70
     5
 71
     0
 72
     2
 73
     0
 90
        0
 40
-0.6
 41
-30.0
 62
     5
 63
     7
 74
     1
 91
        4
 64
     7
 65
   257
 75
     1
175
     1
 42
1.0
 92
        0
 66
   257
 43
1.0
 76
     1
 77
     6
 78
     2
 67
     7
 79
     5
170
     0
171
     0
290
     0
174
     0
 93
        1
 44
0.0
173
     0
291
     0
 45
0.0
1001
ACAD
1000
AcDbSavedByObjectVersion
1070
     0
  0
VISUALSTYLE
  5
1DB
102
{ACAD_REACTORS
330
1C8
102
}
330
1C8
100
AcDbVisualStyle
  2
Realistic
 70
     8
 71
     2
 72
     2
 73
     0
 90
        0
 40
-0.6
 41
-30.0
 62
     5
 63
     7
 74
     1
 91
        0
 64
     7
 65
   257
 75
     1
175
     1
 42
1.0
 92
        8
 66
     8
 43
1.0
 76
     1
 77
     6
 78
     2
 67
     7
 79
     5
170
     0
171
     0
290
     0
174
     0
 93
       13
 44
0.0
173
     0
291
     0
 45
0.0
1001
ACAD
1000
AcDbSavedByObjectVersion
1070
     0
  0
DICTIONARYVAR
  5
279
102
{ACAD_REACTORS
330
276
102
}
330
276
100
DictionaryVariables
280
     0
  1
1:100
  0
DICTIONARYVAR
  5
278
102
{ACAD_REACTORS
330
276
102
}
330
276
100
DictionaryVariables
280
     0
  1
STANDARD
  0
DICTIONARYVAR
  5
277
102
{ACAD_REACTORS
330
276
102
}
330
276
100
DictionaryVariables
280
     0
  1
STANDARD
  0
DICTIONARYVAR
  5
27E
102
{ACAD_REACTORS
330
276
102
}
330
276
100
DictionaryVariables
280
     0
  1
2
  0
DICTIONARYVAR
  5
27D
102
{ACAD_REACTORS
330
276
102
}
330
276
100
DictionaryVariables
280
     0
  1
1
  0
DICTIONARYVAR
  5
27C
102
{ACAD_REACTORS
330
276
102
}
330
276
100
DictionaryVariables
280
     0
  1
0
  0
DICTIONARYVAR
  5
27A
102
{ACAD_REACTORS
330
276
102
}
330
276
100
DictionaryVariables
280
     0
  1
14
  0
DICTIONARYVAR
  5
27B
102
{ACAD_REACTORS
330
276
102
}
330
276
100
DictionaryVariables
280
     0
  1
127
  0
OBJECT_PTR
  5
275
102
{ACAD_REACTORS
330
224
102
}
330
224
1001
DCO15
1000
jet_dbsamples..."elementy wiezby"(_el_wzb_Left_nazw_romans16)
1000
nazw_el_wiezb
1040
1.0
1040
1.0
1040
0.0
1040
0.0
1040
0.0
1040
0.0
1040
0.0
1040
15.0
1071
        0
1071
      256
1071
        7
1071
        5
1071
        1
1000
ROMANS
1000
ByLayer
1000
#(nazw_el_wiezb)
  0
OBJECT_PTR
  5
274
102
{ACAD_REACTORS
330
224
102
}
330
224
1001
DCO15
1000
jet_dbsamples..."elementy wiezby"(_elementy_wiezby_SKROT_Romans16)
1000
skrot_el_wiezb
1040
1.0
1040
1.0
1040
0.0
1040
0.0
1040
0.0
1040
0.0
1040
0.0
1040
16.0
1071
        0
1071
      256
1071
        9
1071
        5
1071
        1
1000
ROMANS
1000
ByLayer
1000
#(skrot_el_wiezb)
  0
OBJECT_PTR
  5
273
102
{ACAD_REACTORS
330
224
102
}
330
224
1001
DCO15
1000
jet_dbsamples..."materialy przegrod pl"(_materialy_przegrod_pl_Label1)
1000
nazw_mat
1040
1.0
1040
1.0
1040
0.0
1040
0.0
1040
0.0
1040
0.0
1040
0.0
1040
17.0
1071
        0
1071
      256
1071
        7
1071
        5
1071
        1
1000
ROMANS
1000
ByLayer
1000
#(nazw_mat)
  0
OBJECT_PTR
  5
272
102
{ACAD_REACTORS
330
224
102
}
330
224
1001
DCO15
1000
jet_dbsamples..."nazwy przegrod pl"(_nazwy_przegrod_romans18)
1000
nzw_przegrody
1040
1.0
1040
1.0
1040
0.0
1040
0.0
1040
0.0
1040
0.0
1040
0.0
1040
17.0
1071
        0
1071
      256
1071
        7
1071
        5
1071
        1
1000
ROMANS
1000
ByLayer
1000
{\L\C2;#(nzw_przegrody)}
  0
OBJECT_PTR
  5
271
102
{ACAD_REACTORS
330
224
102
}
330
224
1001
DCO15
1000
jet_dbsamples..."nazwy rysunkow"(_nazwy_rysunkow_Arial37)
1000
1linia
1000
2linia
1000
3linia
1040
1.0
1040
1.0
1040
0.0
1040
0.0
1040
0.0
1040
0.0
1040
0.0
1040
37.0
1071
        0
1071
      256
1071
        1
1071
        5
1071
        1
1000
ROMANS
1000
ByLayer
1000
{\fArial|b0|i0|c238|p34;#(1linia)\P#(2linia)\P#(3linia)}
  0
OBJECT_PTR
  5
270
102
{ACAD_REACTORS
330
224
102
}
330
224
1001
DCO15
1000
jet_dbsamples..."nazwy rysunkow"(_nazwy_rysunkow_Romans18)
1000
1linia
1000
2linia
1000
3linia
1040
1.0
1040
1.0
1040
0.0
1040
0.0
1040
0.0
1040
0.0
1040
0.0
1040
18.0
1071
        0
1071
      256
1071
        2
1071
        5
1071
        1
1000
ROMANS
1000
ByLayer
1000
{\Fromans.shx|c238;#(1linia)\P#(2linia)\P#(3linia)}
  0
OBJECT_PTR
  5
26F
102
{ACAD_REACTORS
330
224
102
}
330
224
1001
DCO15
1000
jet_dbsamples..."opisy rozne II"(_opisy_rozne_II_Label1)
1000
opis różny
1040
1.0
1040
1.0
1040
0.0
1040
0.0
1040
0.0
1040
0.0
1040
0.0
1040
10.0
1071
        0
1071
      256
1071
        1
1071
        5
1071
        1
1000
ROMANS
1000
ByLayer
1000
#(opis różny)
  0
OBJECT_PTR
  5
26E
102
{ACAD_REACTORS
330
224
102
}
330
224
1001
DCO15
1000
jet_dbsamples..."opisy rozne II"(_opisy_rozne_II_Link1Label1)
1000
opis różny
1040
1.0
1040
1.0
1040
0.0
1040
0.0
1040
0.0
1040
0.0
1040
0.0
1040
10.0
1071
        0
1071
      256
1071
        1
1071
        5
1071
        1
1000
ROMANS
1000
ByLayer
1000
#(opis różny)
  0
OBJECT_PTR
  5
26D
102
{ACAD_REACTORS
330
224
102
}
330
224
1001
DCO15
1000
jet_dbsamples..."posadzki do zestawienia pomieszczen"(_posadzki_do_zestawienia_pomieszczen_Romans17)
1000
nazwa_pos
1040
1.0
1040
1.0
1040
0.0
1040
0.0
1040
0.0
1040
0.0
1040
0.0
1040
17.0
1071
        0
1071
      256
1071
        7
1071
        5
1071
        1
1000
ROMANS
1000
ByLayer
1000
#(nazwa_pos)
  0
OBJECT_PTR
  5
26C
102
{ACAD_REACTORS
330
224
102
}
330
224
1001
DCO15
1000
jet_dbsamples..."rozne opisy rys"(_rozne_opisy_rys_R16_right)
1000
1L
1000
2L
1000
3L
1000
4L
1000
5L
1040
1.0
1040
1.0
1040
0.0
1040
0.0
1040
0.0
1040
0.0
1040
0.0
1040
16.0
1071
        0
1071
      256
1071
        3
1071
        5
1071
        1
1000
ROMANS
1000
ByLayer
1000
#(1L)\P#(2L)\P#(3L)\P#(4L)\P#(5L)
  0
OBJECT_PTR
  5
26B
102
{ACAD_REACTORS
330
224
102
}
330
224
1001
DCO15
1000
jet_dbsamples..."rozne opisy rys"(_rozne_opisy_rys_Romans12)
1000
1L
1000
2L
1000
3L
1000
4L
1000
5L
1040
1.0
1040
1.0
1040
0.0
1040
0.0
1040
0.0
1040
0.0
1040
0.0
1040
13.0
1071
        0
1071
      256
1071
        1
1071
        5
1071
        1
1000
ROMANS
1000
ByLayer
1000
#(1L)\P#(2L)\P#(3L)\P#(4L)\P#(5L)
  0
OBJECT_PTR
  5
26A
102
{ACAD_REACTORS
330
224
102
}
330
224
1001
DCO15
1000
jet_dbsamples..."rozne opisy rys"(_rozne_opisy_rys_Romans16)
1000
1L
1000
2L
1000
3L
1000
4L
1000
5L
1040
1.0
1040
1.0
1040
0.0
1040
0.0
1040
0.0
1040
0.0
1040
0.0
1040
16.0
1071
        0
1071
      256
1071
        1
1071
        5
1071
        1
1000
ROMANS
1000
ByLayer
1000
#(1L)\P#(2L)\P#(3L)\P#(4L)\P#(5L)
  0
OBJECT_PTR
  5
269
102
{ACAD_REACTORS
330
224
102
}
330
224
1001
DCO15
1000
jet_dbsamples..."tabelka - inform i etykiety"(_tabelka_-_inform_i_etykiety_Romans13)
1000
1linia
1000
2linia_ewentualna
1000
3linia_ewentualna
1040
1.0
1040
1.0
1040
0.0
1040
0.0
1040
0.0
1040
0.0
1040
0.0
1040
13.0
1071
        0
1071
      256
1071
        1
1071
        5
1071
        1
1000
ROMANS
1000
ByLayer
1000
#(1linia)\P#(2linia_ewentualna)\P#(3linia_ewentualna)
  0
OBJECT_PTR
  5
268
102
{ACAD_REACTORS
330
224
102
}
330
224
1001
DCO15
1000
jet_dbsamples..."tabelka - inform i etykiety"(_tabelka_Arial15-center)
1000
1linia
1000
2linia_ewentualna
1000
3linia_ewentualna
1040
1.0
1040
1.0
1040
0.0
1040
0.0
1040
0.0
1040
0.0
1040
0.0
1040
15.0
1071
        0
1071
      256
1071
        2
1071
        5
1071
        1
1000
ROMANS
1000
ByLayer
1000
{\fArial|b0|i0|c238|p34;#(1linia)\P#(2linia_ewentualna)\P#(3linia_ewentualna)}
  0
OBJECT_PTR
  5
267
102
{ACAD_REACTORS
330
224
102
}
330
224
1001
DCO15
1000
jet_dbsamples..."tabelka - inform i etykiety"(_tabelka_Arial151)
1000
1linia
1040
1.0
1040
1.0
1040
0.0
1040
0.0
1040
0.0
1040
0.0
1040
0.0
1040
15.0
1071
        0
1071
      256
1071
        1
1071
        5
1071
        1
1000
ARIAL
1000
ByLayer
1000
{\fArial|b0|i0|c238|p34;#(1linia)}
  0
OBJECT_PTR
  5
266
102
{ACAD_REACTORS
330
224
102
}
330
224
1001
DCO15
1000
jet_dbsamples..."tabelka - inform i etykiety"(_tabelka_Romans 10)
1000
1linia
1000
2linia_ewentualna
1000
3linia_ewentualna
1040
1.0
1040
1.0
1040
0.0
1040
0.0
1040
0.0
1040
0.0
1040
0.0
1040
10.0
1071
        0
1071
      256
1071
        1
1071
        5
1071
        1
1000
ARIAL
1000
ByLayer
1000
#(1linia)\P#(2linia_ewentualna)\P#(3linia_ewentualna)
  0
OBJECT_PTR
  5
265
102
{ACAD_REACTORS
330
224
102
}
330
224
1001
DCO15
1000
jet_dbsamples..."tabelka - inform i etykiety"(_tabelka_Romans13)
1000
1linia
1000
2linia_ewentualna
1000
3linia_ewentualna
1040
1.0
1040
1.0
1040
0.0
1040
0.0
1040
0.0
1040
0.0
1040
0.0
1040
13.0
1071
        0
1071
      256
1071
        1
1071
        5
1071
        1
1000
ARIAL
1000
ByLayer
1000
#(1linia)\P#(2linia_ewentualna)\P#(3linia_ewentualna)
  0
OBJECT_PTR
  5
264
102
{ACAD_REACTORS
330
224
102
}
330
224
1001
DCO15
1000
jet_dbsamples..."tabelka - inform i etykiety"(_tabelka_Romans19)
1000
1linia
1000
2linia_ewentualna
1000
3linia_ewentualna
1040
1.0
1040
1.0
1040
0.0
1040
0.0
1040
0.0
1040
0.0
1040
0.0
1040
19.0
1071
        0
1071
      256
1071
        2
1071
        5
1071
        1
1000
ARIAL
1000
ByLayer
1000
#(1linia)\P#(2linia_ewentualna)\P#(3linia_ewentualna)
  0
OBJECT_PTR
  5
263
102
{ACAD_REACTORS
330
224
102
}
330
224
1001
DCO15
1000
ELE..."tbl_nazwy rys"(_tbl_nazwy_rys_Arial35)
1000
2
1040
1.0
1040
1.0
1040
0.0
1040
0.0
1040
0.0
1040
0.0
1040
0.0
1040
35.0
1071
        0
1071
      256
1071
        1
1071
        5
1071
        1
1000
ARIAL
1000
ByLayer
1000
#(2)
  0
OBJECT_PTR
  5
262
102
{ACAD_REACTORS
330
224
102
}
330
224
1001
DCO15
1000
ELE..."tbl_nazwy rys"(_tbl_nazwy_rys_Romans18)
1000
2
1040
1.0
1040
1.0
1040
0.0
1040
0.0
1040
0.0
1040
0.0
1040
0.0
1040
18.0
1071
        0
1071
      256
1071
        1
1071
        5
1071
        1
1000
ARIAL
1000
ByLayer
1000
#(2)
  0
OBJECT_PTR
  5
261
102
{ACAD_REACTORS
330
224
102
}
330
224
1001
DCO15
1000
jet_dbsamples...ALFABET(ALFABET-Arial20)
1000
liter_alf
1040
1.0
1040
1.0
1040
0.0
1040
0.0
1040
0.0
1040
0.0
1040
0.0
1040
20.0
1071
        0
1071
      256
1071
        7
1071
        5
1071
        1
1000
ARIAL
1000
ByLayer
1000
{\fArial|b0|i0|c238|p34;#(liter_alf)}
  0
OBJECT_PTR
  5
260
102
{ACAD_REACTORS
330
224
102
}
330
224
1001
DCO15
1000
jet_dbsamples...ALFABET(ALFABET-Arial26)
1000
liter_alf
1040
1.0
1040
1.0
1040
0.0
1040
0.0
1040
0.0
1040
0.0
1040
0.0
1040
26.0
1071
        0
1071
      256
1071
        7
1071
        5
1071
        1
1000
ARIAL
1000
ByLayer
1000
{\fArial|b0|i0|c238|p34;\C140;#(liter_alf)}
  0
OBJECT_PTR
  5
25F
102
{ACAD_REACTORS
330
224
102
}
330
224
1001
DCO15
1000
jet_dbsamples...ALFABET(ALFABET-Arial37)
1000
liter_alf
1040
1.0
1040
1.0
1040
0.0
1040
0.0
1040
0.0
1040
0.0
1040
0.0
1040
37.0
1071
        0
1071
      256
1071
        7
1071
        5
1071
        1
1000
ARIAL
1000
ByLayer
1000
{\fArial|b0|i0|c238|p34;#(liter_alf)}
  0
OBJECT_PTR
  5
25E
102
{ACAD_REACTORS
330
224
102
}
330
224
1001
DCO15
1000
jet_dbsamples..."uwagi ogolne na arkuszu"(Arial_27)
1000
1naglowek
1000
1linia
1000
2linia
1000
3linia
1000
4linia
1000
5linia
1000
6linia
1000
7linia
1000
8linia
1000
9linia
1000
10linia
1000
11linia
1000
12linia
1040
1.0
1040
1.0
1040
0.0
1040
0.0
1040
0.0
1040
0.0
1040
0.0
1040
26.0
1071
        0
1071
      256
1071
        1
1071
        5
1071
        1
1000
ARIAL
1000
ByLayer
1000
{\fArial|b0|i0|c238|p34;#(1naglowek)\P#(1linia)\P#(2linia)\P#(3linia)\P#(4linia)\P#(5linia)\P#(6linia)\P#(7linia)\P#(8linia)\P#(9linia)\P#(10linia)\P#(11linia)\P#(12linia)}
  0
OBJECT_PTR
  5
25D
102
{ACAD_REACTORS
330
224
102
}
330
224
1001
DCO15
1000
wkc...arkusz_nazwy(arkusz_nazwy_Arial35)
1000
Nazwa rysunku
1040
1.0
1040
1.0
1040
0.0
1040
0.0
1040
0.0
1040
0.0
1040
0.0
1040
35.0
1071
        0
1071
      256
1071
        1
1071
        5
1071
        1
1000
ARIAL
1000
ByLayer
1000
#(Nazwa rysunku)
  0
OBJECT_PTR
  5
25C
102
{ACAD_REACTORS
330
224
102
}
330
224
1001
DCO15
1000
konstr...arkusz_nazwy(arkusz_nazwy_Arial_35_DwieLinie)
1000
Nazwa rysunku
1000
Nazwa rysunku_2
1040
1.0
1040
1.0
1040
0.0
1040
0.0
1040
0.0
1040
0.0
1040
0.0
1040
35.0
1071
        0
1071
      256
1071
        2
1071
        5
1071
        1
1000
ARIAL
1000
ByLayer
1000
#(Nazwa rysunku)\P#(Nazwa rysunku_2)
  0
OBJECT_PTR
  5
25B
102
{ACAD_REACTORS
330
224
102
}
330
224
1001
DCO15
1000
wkc...arkusz_nazwy(arkusz_nazwy_Romans18)
1000
Nazwa rysunku
1040
1.0
1040
1.0
1040
0.0
1040
0.0
1040
0.0
1040
0.0
1040
0.0
1040
18.0
1071
        0
1071
      256
1071
        1
1071
        5
1071
        1
1000
ROMANS
1000
ByLayer
1000
#(Nazwa rysunku)
  0
OBJECT_PTR
  5
25A
102
{ACAD_REACTORS
330
224
102
}
330
224
1001
DCO15
1000
konstr...arkusz_nazwy(arkusz_nazwy_Romans_18)
1000
Nazwa rysunku
1000
Nazwa rysunku_2
1040
1.0
1040
1.0
1040
0.0
1040
0.0
1040
0.0
1040
0.0
1040
0.0
1040
18.0
1071
        0
1071
      256
1071
        2
1071
        5
1071
        1
1000
ROMANS
1000
ByLayer
1000
#(Nazwa rysunku) #(Nazwa rysunku_2)
  0
OBJECT_PTR
  5
259
102
{ACAD_REACTORS
330
224
102
}
330
224
1001
DCO15
1000
jet_dbsamples...jednostki(jednostki-Arial18)
1000
jedn
1040
1.0
1040
1.0
1040
0.0
1040
0.0
1040
0.0
1040
0.0
1040
0.0
1040
18.0
1071
        0
1071
      256
1071
        7
1071
        5
1071
        1
1000
ROMANS
1000
ByLayer
1000
{\fArial|b0|i0|c238|p34;#(jedn)}
  0
OBJECT_PTR
  5
258
102
{ACAD_REACTORS
330
224
102
}
330
224
1001
DCO15
1000
jet_dbsamples...jednostki(jednostki-Arial30)
1000
jedn
1040
1.0
1040
1.0
1040
0.0
1040
0.0
1040
0.0
1040
0.0
1040
0.0
1040
30.0
1071
        0
1071
      256
1071
        7
1071
        5
1071
        1
1000
ROMANS
1000
ByLayer
1000
{\fArial|b0|i0|c238|p34;#(jedn)}
  0
OBJECT_PTR
  5
257
102
{ACAD_REACTORS
330
224
102
}
330
224
1001
DCO15
1000
jet_dbsamples...jednostki(jednostki-Romans16)
1000
jedn
1040
1.0
1040
1.0
1040
0.0
1040
0.0
1040
0.0
1040
0.0
1040
0.0
1040
16.0
1071
        0
1071
      256
1071
        7
1071
        5
1071
        1
1000
ROMANS
1000
ByLayer
1000
#(jedn)
  0
OBJECT_PTR
  5
256
102
{ACAD_REACTORS
330
224
102
}
330
224
1001
DCO15
1000
KONSTR...jednostki(jednostki_arial6.6kursywa)
1000
JEDNOSTKI
1040
1.0
1040
1.0
1040
0.0
1040
0.0
1040
0.0
1040
0.0
1040
0.0
1040
6.599999999999998
1071
        0
1071
      256
1071
        1
1071
        5
1071
        1
1000
ROMANS
1000
ByLayer
1000
{\fArial|b0|i1|c0|p34;#(JEDNOSTKI)}
  0
OBJECT_PTR
  5
255
102
{ACAD_REACTORS
330
224
102
}
330
224
1001
DCO15
1000
KONSTR...jednostki(jednostki_ROMANS11)
1000
JEDNOSTKI
1040
1.0
1040
1.0
1040
0.0
1040
0.0
1040
0.0
1040
0.0
1040
0.0
1040
11.0
1071
        0
1071
      256
1071
        1
1071
        5
1071
        1
1000
ROMANS
1000
ByLayer
1000
#(JEDNOSTKI)
  0
OBJECT_PTR
  5
254
102
{ACAD_REACTORS
330
224
102
}
330
224
1001
DCO15
1000
KONSTR...jednostki(jednostki_ROMANS15)
1000
JEDNOSTKI
1040
1.0
1040
1.0
1040
0.0
1040
0.0
1040
0.0
1040
0.0
1040
0.0
1040
15.0
1071
        0
1071
      256
1071
        1
1071
        5
1071
        1
1000
ROMANS
1000
ByLayer
1000
#(JEDNOSTKI)
  0
OBJECT_PTR
  5
253
102
{ACAD_REACTORS
330
224
102
}
330
224
1001
DCO15
1000
ELE...tbl_jednostki(jednostki_Romans30)
1000
1
1040
1.0
1040
1.0
1040
0.0
1040
0.0
1040
0.0
1040
0.0
1040
0.0
1040
30.0
1071
        0
1071
      256
1071
        1
1071
        5
1071
        1
1000
ROMANS
1000
ByLayer
1000
#(1)
  0
OBJECT_PTR
  5
252
102
{ACAD_REACTORS
330
224
102
}
330
224
1001
DCO15
1000
KONSTR...jednostki(jednostki_Romans7)
1000
JEDNOSTKI
1040
1.0
1040
1.0
1040
0.0
1040
0.0
1040
0.0
1040
0.0
1040
0.0
1040
7.0
1071
        0
1071
      256
1071
        1
1071
        5
1071
        1
1000
ROMANS
1000
ByLayer
1000
#(JEDNOSTKI)
  0
OBJECT_PTR
  5
251
102
{ACAD_REACTORS
330
224
102
}
330
224
1001
DCO15
1000
KONSTR...jednostki(jednostkiLabel1)
1000
JEDNOSTKI
1040
1.0
1040
1.0
1040
0.0
1040
0.0
1040
0.0
1040
0.0
1040
0.0
1040
11.0
1071
        0
1071
      256
1071
        7
1071
        5
1071
        1
1000
ROMANS
1000
ByLayer
1000
#(JEDNOSTKI)
  0
OBJECT_PTR
  5
250
102
{ACAD_REACTORS
330
224
102
}
330
224
1001
DCO15
1000
KONSTR...jednostki(jednostkiRomans22)
1000
JEDNOSTKI
1040
1.0
1040
1.0
1040
0.0
1040
0.0
1040
0.0
1040
0.0
1040
0.0
1040
22.4
1071
        0
1071
      256
1071
        7
1071
        5
1071
        1
1000
ROMANS
1000
ByLayer
1000
#(JEDNOSTKI)
  0
OBJECT_PTR
  5
24F
102
{ACAD_REACTORS
330
224
102
}
330
224
1001
DCO15
1000
KONSTR...konstr_drew(konstr_drew_arial6.6kursywa)
1000
1L
1000
2L
1000
3L
1000
4L
1000
5L
1040
1.0
1040
1.0
1040
0.0
1040
0.0
1040
0.0
1040
0.0
1040
0.0
1040
6.599999999999998
1071
        0
1071
      256
1071
        1
1071
        5
1071
        1
1000
ROMANS
1000
ByLayer
1000
{\fArial|b0|i1|c238|p34;#(1L)\P#(2L)\P#(3L)\P#(4L)\P#(5L)}
  0
OBJECT_PTR
  5
24E
102
{ACAD_REACTORS
330
224
102
}
330
224
1001
DCO15
1000
KONSTR...konstr_drew(konstr_drew_romans7)
1000
1L
1000
2L
1000
3L
1000
4L
1000
5L
1000
6L
1040
1.0
1040
1.0
1040
0.0
1040
0.0
1040
0.0
1040
0.0
1040
0.0
1040
7.0
1071
        0
1071
      256
1071
        1
1071
        5
1071
        1
1000
ROMANS
1000
ByLayer
1000
#(1L)\P#(2L)\P#(3L)\P#(4L)\P#(5L)\P#(6L)
  0
OBJECT_PTR
  5
24D
102
{ACAD_REACTORS
330
224
102
}
330
224
1001
DCO15
1000
KONSTR...konstr_stal(konstr_stalarial9kursywa)
1000
1L
1000
2L
1000
3L
1000
4L
1040
1.0
1040
1.0
1040
0.0
1040
0.0
1040
0.0
1040
0.0
1040
0.0
1040
9.0
1071
        0
1071
      256
1071
        1
1071
        5
1071
        1
1000
ROMANS
1000
ByLayer
1000
{\fArial|b0|i1|c238|p34;#(1L)\P#(2L)\P#(3L)\P#(4L)}
  0
OBJECT_PTR
  5
24C
102
{ACAD_REACTORS
330
224
102
}
330
224
1001
DCO15
1000
KONSTR...konstr_stal(konstr_stalLabel1)
1000
1L
1000
2L
1000
3L
1000
4L
1040
1.0
1040
1.0
1040
0.0
1040
0.0
1040
0.0
1040
0.0
1040
0.0
1040
6.0
1071
        0
1071
      256
1071
        1
1071
        5
1071
        1
1000
ROMANS
1000
ByLayer
1000
#(1L)\P#(2L)\P#(3L)\P#(4L)
  0
OBJECT_PTR
  5
24B
102
{ACAD_REACTORS
330
224
102
}
330
224
1001
DCO15
1000
KONSTR...konstr_stal(konstr_stalLabel2)
1000
1L
1000
2L
1000
3L
1000
4L
1040
1.0
1040
1.0
1040
0.0
1040
0.0
1040
0.0
1040
0.0
1040
0.0
1040
6.0
1071
        0
1071
      256
1071
        1
1071
        5
1071
        1
1000
ROMANS
1000
ByLayer
1000
#(1L)\P#(2L)\P#(3L)\P#(4L)
  0
OBJECT_PTR
  5
24A
102
{ACAD_REACTORS
330
224
102
}
330
224
1001
DCO15
1000
jet_dbsamples...miesiace(miesiace-Romans17)
1000
nzw_mies
1040
1.0
1040
1.0
1040
0.0
1040
0.0
1040
0.0
1040
0.0
1040
0.0
1040
17.0
1071
        0
1071
      256
1071
        1
1071
        5
1071
        1
1000
ROMANS
1000
ByLayer
1000
#(nzw_mies)
  0
OBJECT_PTR
  5
249
102
{ACAD_REACTORS
330
224
102
}
330
224
1001
DCO15
1000
jet_dbsamples...pomieszczenia(pomieszczenia-Arial 15)
1000
nazwa
1040
1.0
1040
1.0
1040
0.0
1040
0.0
1040
0.0
1040
0.0
1040
0.0
1040
15.0
1071
        0
1071
      256
1071
        8
1071
        5
1071
        1
1000
ROMANS
1000
ByLayer
1000
{\fArial|b0|i0|c238|p34;#(nazwa)}
  0
OBJECT_PTR
  5
248
102
{ACAD_REACTORS
330
224
102
}
330
224
1001
DCO15
1000
jet_dbsamples...pomieszczenia(pomieszczenia-Romans17)
1000
nazwa
1040
1.0
1040
1.0
1040
0.0
1040
0.0
1040
0.0
1040
0.0
1040
0.0
1040
17.0
1071
        0
1071
      256
1071
        7
1071
        5
1071
        1
1000
ROMANS
1000
ByLayer
1000
#(nazwa)
  0
OBJECT_PTR
  5
247
102
{ACAD_REACTORS
330
224
102
}
330
224
1001
DCO15
1000
jet_dbsamples..."elementy wiezby"(romans16)
1000
nazw_el_wiezb
1040
1.0
1040
1.0
1040
0.0
1040
0.0
1040
0.0
1040
0.0
1040
0.0
1040
16.0
1071
        0
1071
      256
1071
        1
1071
        5
1071
        1
1000
ROMANS
1000
ByLayer
1000
#(nazw_el_wiezb)
  0
OBJECT_PTR
  5
246
102
{ACAD_REACTORS
330
224
102
}
330
224
1001
DCO15
1000
jet_dbsamples..."uwagi ogolne na arkuszu"(Romans_17)
1000
1naglowek
1000
1linia
1000
2linia
1000
3linia
1000
4linia
1000
5linia
1000
6linia
1000
7linia
1000
8linia
1000
9linia
1000
10linia
1000
11linia
1000
12linia
1040
1.0
1040
1.0
1040
0.0
1040
0.0
1040
0.0
1040
0.0
1040
0.0
1040
17.0
1071
        0
1071
      256
1071
        1
1071
        5
1071
        1
1000
ROMANS
1000
ByLayer
1000
#(1naglowek)\P#(1linia)\P#(2linia)\P#(3linia)\P#(4linia)\P#(5linia)\P#(6linia)\P#(7linia)\P#(8linia)\P#(9linia)\P#(10linia)\P#(11linia)\P#(12linia)
  0
OBJECT_PTR
  5
245
102
{ACAD_REACTORS
330
224
102
}
330
224
1001
DCO15
1000
KONSTR...schematy(schematy_arial15)
1000
1L
1000
2L
1000
3L
1000
4L
1000
5L
1040
1.0
1040
1.0
1040
0.0
1040
0.0
1040
0.0
1040
0.0
1040
0.0
1040
15.0
1071
        0
1071
      256
1071
        1
1071
        5
1071
        1
1000
ROMANS
1000
ByLayer
1000
{\fArial|b0|i0|c238|p34;#(1L)\P#(2L)\P#(3L)\P#(4L)\P#(5L)\fArial|b0|i0|c0|p34;}
  0
OBJECT_PTR
  5
244
102
{ACAD_REACTORS
330
224
102
}
330
224
1001
DCO15
1000
KONSTR...schematy(schematy_arial20)
1000
1L
1000
2L
1000
3L
1000
4L
1000
5L
1040
1.0
1040
1.0
1040
0.0
1040
0.0
1040
0.0
1040
0.0
1040
0.0
1040
22.0
1071
        0
1071
      256
1071
        1
1071
        5
1071
        1
1000
ROMANS
1000
ByLayer
1000
{\fArial|b0|i0|c238|p34;#(1L)\P#(2L)\P#(3L)\P#(4L)\P#(5L)}
  0
OBJECT_PTR
  5
243
102
{ACAD_REACTORS
330
224
102
}
330
224
1001
DCO15
1000
KONSTR...schematy(schematy_arial37)
1000
1L
1000
2L
1000
3L
1000
4L
1000
5L
1040
1.0
1040
1.0
1040
0.0
1040
0.0
1040
0.0
1040
0.0
1040
0.0
1040
37.0
1071
        0
1071
      256
1071
        1
1071
        5
1071
        1
1000
ROMANS
1000
ByLayer
1000
{\fArial|b0|i0|c238|p34;#(1L)\P#(2L)\P#(3L)\P#(4L)\P#(5L)}
  0
OBJECT_PTR
  5
242
102
{ACAD_REACTORS
330
224
102
}
330
224
1001
DCO15
1000
KONSTR...schematy(schematy_romans15)
1000
1L
1000
2L
1000
3L
1000
4L
1000
5L
1040
1.0
1040
1.0
1040
0.0
1040
0.0
1040
0.0
1040
0.0
1040
0.0
1040
15.0
1071
        0
1071
      256
1071
        1
1071
        5
1071
        1
1000
ROMANS
1000
ByLayer
1000
#(1L)\P#(2L)\P#(3L)\P#(4L)\P#(5L)
  0
OBJECT_PTR
  5
241
102
{ACAD_REACTORS
330
224
102
}
330
224
1001
DCO15
1000
KONSTR...schematy(schematy_romans15Right)
1000
1L
1000
2L
1000
3L
1000
4L
1000
5L
1040
1.0
1040
1.0
1040
0.0
1040
0.0
1040
0.0
1040
0.0
1040
0.0
1040
15.0
1071
        0
1071
      256
1071
        3
1071
        5
1071
        1
1000
ROMANS
1000
ByLayer
1000
#(1L)\P#(2L)\P#(3L)\P#(4L)\P#(5L)
  0
OBJECT_PTR
  5
240
102
{ACAD_REACTORS
330
224
102
}
330
224
1001
DCO15
1000
jet_dbsamples...stolarka(stolarka-Arial14)
1000
STOL_TKST
1000
STOL_TKST_2linia
1040
1.0
1040
1.0
1040
0.0
1040
0.0
1040
0.0
1040
0.0
1040
0.0
1040
14.0
1071
        0
1071
      256
1071
        1
1071
        5
1071
        1
1000
ROMANS
1000
ByLayer
1000
{\fArial|b0|i0|c238|p34;#(STOL_TKST)\P#(STOL_TKST_2linia)}
  0
OBJECT_PTR
  5
23F
102
{ACAD_REACTORS
330
224
102
}
330
224
1001
DCO15
1000
jet_dbsamples...stolarka(stolarka-Romans1607)
1000
STOL_TKST
1000
STOL_TKST_2linia
1040
1.0
1040
1.0
1040
0.0
1040
0.0
1040
0.0
1040
0.0
1040
0.0
1040
16.0
1071
        0
1071
      256
1071
        5
1071
        5
1071
        1
1000
ROMANS
1000
ByLayer
1000
#(STOL_TKST)\P#(STOL_TKST_2linia)
  0
OBJECT_PTR
  5
23E
102
{ACAD_REACTORS
330
224
102
}
330
224
1001
DCO15
1000
jet_dbsamples...stolarka(stolarka-Romans1608)
1000
STOL_TKST
1000
STOL_TKST_2linia
1040
1.0
1040
1.0
1040
0.0
1040
0.0
1040
0.0
1040
0.0
1040
0.0
1040
16.0
1071
        0
1071
      256
1071
        5
1071
        5
1071
        1
1000
ROMANS
1000
ByLayer
1000
#(STOL_TKST)\P#(STOL_TKST_2linia)
  0
OBJECT_PTR
  5
23D
102
{ACAD_REACTORS
330
224
102
}
330
224
1001
DCO15
1000
jet_dbsamples...stolarka(stolarkaLabel1)
1000
STOL_TKST
1000
STOL_TKST_2linia
1040
1.0
1040
1.0
1040
0.0
1040
0.0
1040
0.0
1040
0.0
1040
0.0
1040
25.0
1071
        0
1071
      256
1071
        1
1071
        5
1071
        1
1000
ROMANS
1000
ByLayer
1000
{\fArial|b0|i0|c238|p34;#(STOL_TKST)\P#(STOL_TKST_2linia)}
  0
OBJECT_PTR
  5
23C
102
{ACAD_REACTORS
330
224
102
}
330
224
1001
DCO15
1000
KONSTR...szczegoly(szczegoly_arial12kursywa)
1000
1L
1000
2L
1000
3L
1000
4L
1000
5L
1000
6L
1040
1.0
1040
1.0
1040
0.0
1040
0.0
1040
0.0
1040
0.0
1040
0.0
1040
12.0
1071
        0
1071
      256
1071
        1
1071
        5
1071
        1
1000
ROMANS
1000
ByLayer
1000
{\fArial|b0|i1|c238|p34;#(1L)\P#(2L)\P#(3L)\P#(4L)\P#(5L)\P#(6L)}
  0
OBJECT_PTR
  5
23B
102
{ACAD_REACTORS
330
224
102
}
330
224
1001
DCO15
1000
KONSTR...szczegoly(szczegoly_arial6.6kursRight)
1000
1L
1000
2L
1000
3L
1000
4L
1000
5L
1000
6L
1040
1.0
1040
1.0
1040
0.0
1040
0.0
1040
0.0
1040
0.0
1040
0.0
1040
6.599999999999998
1071
        0
1071
      256
1071
        3
1071
        5
1071
        1
1000
ROMANS
1000
ByLayer
1000
{\fArial|b0|i1|c238|p34;#(1L)\P#(2L)\P#(3L)\P#(4L)\P#(5L)\P#(6L)}
  0
OBJECT_PTR
  5
23A
102
{ACAD_REACTORS
330
224
102
}
330
224
1001
DCO15
1000
KONSTR...szczegoly(szczegoly_arial6.6kursywa)
1000
1L
1000
2L
1000
3L
1000
4L
1000
5L
1000
6L
1040
1.0
1040
1.0
1040
0.0
1040
0.0
1040
0.0
1040
0.0
1040
0.0
1040
6.599999999999998
1071
        0
1071
      256
1071
        1
1071
        5
1071
        1
1000
ROMANS
1000
ByLayer
1000
{\fArial|b0|i1|c238|p34;#(1L)\P#(2L)\P#(3L)\P#(4L)\P#(5L)\P#(6L)}
  0
OBJECT_PTR
  5
239
102
{ACAD_REACTORS
330
224
102
}
330
224
1001
DCO15
1000
KONSTR...szczegoly(szczegoly_Romans7)
1000
1L
1000
2L
1000
3L
1000
4L
1000
5L
1000
6L
1040
1.0
1040
1.0
1040
0.0
1040
0.0
1040
0.0
1040
0.0
1040
0.0
1040
7.0
1071
        0
1071
      256
1071
        1
1071
        5
1071
        1
1000
ROMANS
1000
ByLayer
1000
#(1L)\P#(2L)\P#(3L)\P#(4L)\P#(5L)\P#(6L)
  0
OBJECT_PTR
  5
238
102
{ACAD_REACTORS
330
224
102
}
330
224
1001
DCO15
1000
KONSTR...szczegoly(szczegoly_romans7_right)
1000
1L
1000
2L
1000
3L
1000
4L
1000
5L
1000
6L
1040
1.0
1040
1.0
1040
0.0
1040
0.0
1040
0.0
1040
0.0
1040
0.0
1040
7.0
1071
        0
1071
      256
1071
        3
1071
        5
1071
        1
1000
ROMANS
1000
ByLayer
1000
#(1L)\P#(2L)\P#(3L)\P#(4L)\P#(5L)\P#(6L)
  0
OBJECT_PTR
  5
237
102
{ACAD_REACTORS
330
224
102
}
330
224
1001
DCO15
1000
ELE..."tbl_nazwy rys"(tbl_nazwy_rys_Arial37)
1000
2
1040
1.0
1040
1.0
1040
0.0
1040
0.0
1040
0.0
1040
0.0
1040
0.0
1040
37.0
1071
        0
1071
      256
1071
        7
1071
        5
1071
        1
1000
ROMANS
1000
ByLayer
1000
#(2)
  0
OBJECT_PTR
  5
236
102
{ACAD_REACTORS
330
224
102
}
330
224
1001
DCO15
1000
ELE...tbl_opisy(tbl_opisy_Romans_poch20)
1000
1
1000
2
1000
3
1000
4
1040
1.0
1040
1.0
1040
0.0
1040
0.0
1040
0.0
1040
0.0
1040
0.0
1040
20.0
1071
        0
1071
      256
1071
        1
1071
        5
1071
        1
1000
ROMANS
1000
ByLayer
1000
#(1)\P#(2)\P#(3)\P#(4)
  0
OBJECT_PTR
  5
235
102
{ACAD_REACTORS
330
224
102
}
330
224
1001
DCO15
1000
ELE...tbl_opisy(tbl_opisy_RomansPoch14)
1000
1
1000
2
1000
3
1000
4
1040
1.0
1040
1.0
1040
0.0
1040
0.0
1040
0.0
1040
0.0
1040
0.0
1040
14.4
1071
        0
1071
      256
1071
        1
1071
        5
1071
        1
1000
ROMANS
1000
ByLayer
1000
#(1)\P#(2)\P#(3)\P#(4)
  0
OBJECT_PTR
  5
234
102
{ACAD_REACTORS
330
224
102
}
330
224
1001
DCO15
1000
ELE...tbl_opisy(tbl_opisy_RomansPoch20_R)
1000
1
1000
2
1000
3
1000
4
1040
1.0
1040
1.0
1040
0.0
1040
0.0
1040
0.0
1040
0.0
1040
0.0
1040
20.0
1071
        0
1071
      256
1071
        3
1071
        5
1071
        1
1000
ROMANS
1000
ByLayer
1000
#(1)\P#(2)\P#(3)\P#(4)
  0
OBJECT_PTR
  5
233
102
{ACAD_REACTORS
330
224
102
}
330
224
1001
DCO15
1000
jet_dbsamples...tbl_PRZEGRODY(tbl_PRZEGRODY)
1000
nazwa przegrody
1000
1w
1000
2w
1000
3w
1000
4w
1000
5w
1000
6w
1000
7w
1000
8w
1000
9w
1000
10w
1000
11w
1000
12w
1000
13w
1000
14w
1000
15w
1000
16w
1040
1.0
1040
1.0
1040
0.0
1040
0.0
1040
0.0
1040
0.0
1040
0.0
1040
17.0
1071
        0
1071
      256
1071
        1
1071
        5
1071
        1
1000
ROMANS
1000
ByLayer
1000
{\Fromans.shx|c238;\L\C2;#(nazwa przegrody)\C4;\P}#(1w)\P#(2w)\P#(3w)\P#(4w)\P#(5w)\P#(6w)\P#(7w)\P#(8w)\P#(9w)\P#(10w)\P#(11w)\P#(12w)\P#(13w)\P#(14w)\P#(15w)\P#(16w)
  0
OBJECT_PTR
  5
232
102
{ACAD_REACTORS
330
224
102
}
330
224
1001
DCO15
1000
wkc...tbl_uwagi_co(tbl_uwagi_coRomans20Right)
1000
1L
1000
2L
1000
3L
1000
4L
1000
5L
1040
1.0
1040
1.0
1040
0.0
1040
0.0
1040
0.0
1040
0.0
1040
0.0
1040
20.0
1071
        0
1071
      256
1071
        3
1071
        5
1071
        1
1000
ROMANS
1000
ByLayer
1000
{\Fromans.shx|c238;#(1L)\P#(2L)\P#(3L)\P#(4L)\P#(5L)}
  0
OBJECT_PTR
  5
231
102
{ACAD_REACTORS
330
224
102
}
330
224
1001
DCO15
1000
jet_dbsamples..."uwagi ogolne na arkuszu"(uwag_og_na_ark_Arial18)
1000
1naglowek
1000
1linia
1000
2linia
1000
3linia
1000
4linia
1000
5linia
1000
6linia
1000
7linia
1000
8linia
1000
9linia
1000
10linia
1000
11linia
1000
12linia
1040
1.0
1040
1.0
1040
0.0
1040
0.0
1040
0.0
1040
0.0
1040
0.0
1040
18.0
1071
        0
1071
      256
1071
        1
1071
        5
1071
        1
1000
ROMANS
1000
ByLayer
1000
{\fArial|b0|i0|c238|p34;#(1naglowek)\P#(1linia)\P#(2linia)\P#(3linia)\P#(4linia)\P#(5linia)\P#(6linia)\P#(7linia)\P#(8linia)\P#(9linia)\P#(10linia)\P#(11linia)\P#(12linia)}
  0
OBJECT_PTR
  5
230
102
{ACAD_REACTORS
330
224
102
}
330
224
1001
DCO15
1000
wkc...tbl_uwagi_co(uwagi_co_Arial37)
1000
1L
1000
2L
1000
3L
1000
4L
1000
5L
1040
1.0
1040
1.0
1040
0.0
1040
0.0
1040
0.0
1040
0.0
1040
0.0
1040
37.0
1071
        0
1071
      256
1071
        1
1071
        5
1071
        1
1000
ROMANS
1000
ByLayer
1000
#(1L)\P#(2L)\P#(3L)\P#(4L)\P#(5L){\fArial|b0|i0|c0|p34;}
  0
OBJECT_PTR
  5
22F
102
{ACAD_REACTORS
330
224
102
}
330
224
1001
DCO15
1000
wkc...tbl_uwagi_co(uwagi_co_Romans20)
1000
1L
1000
2L
1000
3L
1000
4L
1000
5L
1040
1.0
1040
1.0
1040
0.0
1040
0.0
1040
0.0
1040
0.0
1040
0.0
1040
20.0
1071
        0
1071
      256
1071
        1
1071
        5
1071
        1
1000
ROMANS
1000
ByLayer
1000
{\Fromans.shx|c238;#(1L)\P#(2L)\P#(3L)\P#(4L)\P#(5L)}
  0
OBJECT_PTR
  5
22E
102
{ACAD_REACTORS
330
224
102
}
330
224
1001
DCO15
1000
KONSTR...uwagi_na_schematach(uwagi_na_schematachLabel1)
1000
1L
1000
2L
1000
3L
1000
4L
1000
5L
1000
6L
1000
7L
1000
8L
1000
9L
1000
10L
1000
11L
1000
12L
1040
1.0
1040
1.0
1040
0.0
1040
0.0
1040
0.0
1040
0.0
1040
0.0
1040
22.4
1071
        0
1071
      256
1071
        1
1071
        5
1071
        1
1000
ROMANS
1000
ByLayer
1000
{\Fromans.shx|c238;#(1L)\P#(2L)\P#(3L)\P#(4L)\P#(5L)\P#(6L)\P#(7L)\P#(8L)\P#(9L)\P#(10L)\P#(11L)\P#(12L)}
  0
OBJECT_PTR
  5
22D
102
{ACAD_REACTORS
330
224
102
}
330
224
1001
DCO15
1000
KONSTR...uwagi_na_schematach(uwagi_na_schematachLabel2)
1000
1L
1000
2L
1000
3L
1000
4L
1000
5L
1000
6L
1000
7L
1000
8L
1000
9L
1000
10L
1000
11L
1000
12L
1040
1.0
1040
1.0
1040
0.0
1040
0.0
1040
0.0
1040
0.0
1040
0.0
1040
35.0
1071
        0
1071
      256
1071
        1
1071
        5
1071
        1
1000
ROMANS
1000
ByLayer
1000
{\fArial|b0|i1|c0|p34;#(1L)\P#(2L)\P#(3L)\P#(4L)\P#(5L)\P#(6L)\P#(7L)\P#(8L)\P#(9L)\P#(10L)\P#(11L)\P#(12L)}
  0
OBJECT_PTR
  5
22C
102
{ACAD_REACTORS
330
224
102
}
330
224
1001
DCO15
1000
KONSTR...uwagi_na_schematach(uwagi_na_schematachRight)
1000
1L
1000
2L
1000
3L
1000
4L
1000
5L
1000
6L
1000
7L
1000
8L
1000
9L
1000
10L
1000
11L
1000
12L
1040
1.0
1040
1.0
1040
0.0
1040
0.0
1040
0.0
1040
0.0
1040
0.0
1040
22.4
1071
        0
1071
      256
1071
        3
1071
        5
1071
        1
1000
ROMANS
1000
ByLayer
1000
{\Fromans.shx|c238;#(1L)\P#(2L)\P#(3L)\P#(4L)\P#(5L)\P#(6L)\P#(7L)\P#(8L)\P#(9L)\P#(10L)\P#(11L)\P#(12L)}
  0
OBJECT_PTR
  5
22B
102
{ACAD_REACTORS
330
224
102
}
330
224
1001
DCO15
1000
wkc...tbl_uwagi_wodkan(uwagi_wodkan_Romans18)
1000
1L
1000
2L
1000
3L
1000
4L
1000
5L
1040
1.0
1040
1.0
1040
0.0
1040
0.0
1040
0.0
1040
0.0
1040
0.0
1040
20.0
1071
        0
1071
      256
1071
        1
1071
        5
1071
        1
1000
ROMANS
1000
ByLayer
1000
#(1L)\P#(2L)\P#(3L)\P#(4L)\P#(5L)
  0
OBJECT_PTR
  5
22A
102
{ACAD_REACTORS
330
224
102
}
330
224
1001
DCO15
1000
wkc...tbl_uwagi_wodkan(uwagi_wodkanARIAL37)
1000
1L
1000
2L
1000
3L
1000
4L
1000
5L
1040
1.0
1040
1.0
1040
0.0
1040
0.0
1040
0.0
1040
0.0
1040
0.0
1040
37.0
1071
        0
1071
      256
1071
        1
1071
        5
1071
        1
1000
ROMANS
1000
ByLayer
1000
#(1L)\P#(2L)\P#(3L)\P#(4L)\P#(5L)
  0
OBJECT_PTR
  5
229
102
{ACAD_REACTORS
330
224
102
}
330
224
1001
DCO15
1000
wkc...tbl_uwagi_wodkan(uwagi_wodkanRomans20_Right)
1000
1L
1000
2L
1000
3L
1000
4L
1000
5L
1040
1.0
1040
1.0
1040
0.0
1040
0.0
1040
0.0
1040
0.0
1040
0.0
1040
20.0
1071
        0
1071
      256
1071
        3
1071
        5
1071
        1
1000
ROMANS
1000
ByLayer
1000
{\Fromans.shx|c238;#(1L)\P#(2L)\P#(3L)\P#(4L)\P#(5L)}
  0
OBJECT_PTR
  5
228
102
{ACAD_REACTORS
330
224
102
}
330
224
1001
DCO15
1000
KONSTR...zbroj_plyty(zbroj_plyty_arial22)
1000
1L
1000
2L
1000
3L
1040
1.0
1040
1.0
1040
0.0
1040
0.0
1040
0.0
1040
0.0
1040
0.0
1040
22.0
1071
        0
1071
      256
1071
        1
1071
        5
1071
        1
1000
ROMANS
1000
ByLayer
1000
{\fArial|b0|i0|c238|p34;#(1L)\P#(2L)\P#(3L)}
  0
OBJECT_PTR
  5
227
102
{ACAD_REACTORS
330
224
102
}
330
224
1001
DCO15
1000
KONSTR...zbroj_plyty(zbroj_plyty_romans12)
1000
1L
1000
2L
1000
3L
1040
1.0
1040
1.0
1040
0.0
1040
0.0
1040
0.0
1040
0.0
1040
0.0
1040
11.0
1071
        0
1071
      256
1071
        1
1071
        5
1071
        1
1000
ROMANS
1000
ByLayer
1000
#(1L)\P#(2L)\P#(3L)
  0
OBJECT_PTR
  5
226
102
{ACAD_REACTORS
330
224
102
}
330
224
1001
DCO15
1000
KONSTR...zbroj_plyty(zbroj_plyty_romans12Right)
1000
1L
1000
2L
1000
3L
1040
1.0
1040
1.0
1040
0.0
1040
0.0
1040
0.0
1040
0.0
1040
0.0
1040
11.0
1071
        0
1071
      256
1071
        3
1071
        5
1071
        1
1000
ROMANS
1000
ByLayer
1000
#(1L)\P#(2L)\P#(3L)
  0
OBJECT_PTR
  5
225
102
{ACAD_REACTORS
330
224
102
}
330
224
1001
DCO15
1000
KONSTR...zbroj_plyty(zbroj_plyty_romans9)
1000
1L
1000
2L
1000
3L
1040
1.0
1040
1.0
1040
0.0
1040
0.0
1040
0.0
1040
0.0
1040
0.0
1040
9.0
1071
        0
1071
      256
1071
        1
1071
        5
1071
        1
1000
ROMANS
1000
ByLayer
1000
#(1L)\P#(2L)\P#(3L)
  0
OBJECT_PTR
  5
223
102
{ACAD_REACTORS
330
205
102
}
330
205
1001
DCO15
1000
jet_dbsamples..."elementy wiezby"(_elementy_wiezby_Link1)
1000
IDENTYFIKATOR
1000

1000

1070
     4
1070
     0
1070
     0
1070
     0
1070
  1024
  0
OBJECT_PTR
  5
222
102
{ACAD_REACTORS
330
205
102
}
330
205
1001
DCO15
1000
jet_dbsamples..."materialy przegrod pl"(_materialy_przegrod_pl_Link1)
1000
IDENTYFIKATOR
1000

1000

1070
     4
1070
     0
1070
     0
1070
     0
1070
  1024
  0
OBJECT_PTR
  5
221
102
{ACAD_REACTORS
330
205
102
}
330
205
1001
DCO15
1000
jet_dbsamples..."nazwy przegrod pl"(_nazwy_przegrod_pl_Link1)
1000
IDENTYFIKATOR
1000

1000

1070
     4
1070
     0
1070
     0
1070
     0
1070
  1024
  0
OBJECT_PTR
  5
220
102
{ACAD_REACTORS
330
205
102
}
330
205
1001
DCO15
1000
jet_dbsamples..."nazwy rysunkow"(_nazwy_rysunkow_Arial37)
1000
IDENTYFIKATOR
1000

1000

1070
     4
1070
     0
1070
     0
1070
     0
1070
  1024
  0
OBJECT_PTR
  5
21F
102
{ACAD_REACTORS
330
205
102
}
330
205
1001
DCO15
1000
jet_dbsamples..."opisy rozne II"(_opisy_rozne_II_Link1)
1000
"opis różny"
1000
1250
1000
ASCII
1070
    12
1070
   200
1070
     0
1070
     0
1070
  1024
  0
OBJECT_PTR
  5
21E
102
{ACAD_REACTORS
330
205
102
}
330
205
1001
DCO15
1000
jet_dbsamples..."opisy rozne II"(_opisy_rozne_II_Link2)
1000
IDENTYFIKATOR
1000

1000

1070
     4
1070
     0
1070
     0
1070
     0
1070
  1024
  0
OBJECT_PTR
  5
21D
102
{ACAD_REACTORS
330
205
102
}
330
205
1001
DCO15
1000
jet_dbsamples..."posadzki do zestawienia pomieszczen"(_posadzki_do_zestawienia_pomieszczen_Link1)
1000
IDENTYFIKATOR
1000

1000

1070
     4
1070
     0
1070
     0
1070
     0
1070
  1024
  0
OBJECT_PTR
  5
21C
102
{ACAD_REACTORS
330
205
102
}
330
205
1001
DCO15
1000
jet_dbsamples..."rozne opisy rys"(_rozne_opisy_rys_Link1)
1000
IDENTYFIKATOR
1000

1000

1070
     4
1070
     0
1070
     0
1070
     0
1070
  1024
  0
OBJECT_PTR
  5
21B
102
{ACAD_REACTORS
330
205
102
}
330
205
1001
DCO15
1000
jet_dbsamples..."tabelka - inform i etykiety"(_tabelka_-_inform_i_etykiety_Link1)
1000
IDENTYFIKATOR
1000

1000

1070
     4
1070
     0
1070
     0
1070
     0
1070
  1024
  0
OBJECT_PTR
  5
21A
102
{ACAD_REACTORS
330
205
102
}
330
205
1001
DCO15
1000
ELE..."tbl_nazwy rys"(_tbl_nazwy_rys_Link1)
1000
"1"
1000

1000

1070
     4
1070
     0
1070
     0
1070
     0
1070
  1024
  0
OBJECT_PTR
  5
219
102
{ACAD_REACTORS
330
205
102
}
330
205
1001
DCO15
1000
jet_dbsamples..."uwagi ogolne na arkuszu"(_uwagi_ogolne_na_arkuszu_Link1)
1000
IDENTYFIKATOR
1000

1000

1070
     4
1070
     0
1070
     0
1070
     0
1070
  1024
  0
OBJECT_PTR
  5
218
102
{ACAD_REACTORS
330
205
102
}
330
205
1001
DCO15
1000
jet_dbsamples..."~TMPCLP122371"(_~TMPCLP122371_Link1)
1000
IDENTYFIKATOR
1000

1000

1070
     4
1070
     0
1070
     0
1070
     0
1070
  1024
1000
GUPA
1000
1250
1000
ASCII
1070
    12
1070
    50
1070
     0
1070
     0
1070
  1024
1000
NAZW_MAT
1000
1250
1000
ASCII
1070
    12
1070
   100
1070
     0
1070
     0
1070
  1024
  0
OBJECT_PTR
  5
217
102
{ACAD_REACTORS
330
205
102
}
330
205
1001
DCO15
1000
jet_dbsamples...ALFABET(ALFABETLink1)
1000
IDENTYFIKATOR
1000

1000

1070
     4
1070
     0
1070
     0
1070
     0
1070
  1024
  0
OBJECT_PTR
  5
216
102
{ACAD_REACTORS
330
205
102
}
330
205
1001
DCO15
1000
wkc...arkusz_nazwy(arkusz_nazwyLink1)
1000
IDENTYFIKATOR
1000

1000

1070
     4
1070
     0
1070
     0
1070
     0
1070
  1024
  0
OBJECT_PTR
  5
215
102
{ACAD_REACTORS
330
205
102
}
330
205
1001
DCO15
1000
konstr...arkusz_nazwy(arkusz_nazwyLink2)
1000
IDENTYFIKATOR
1000

1000

1070
     4
1070
     0
1070
     0
1070
     0
1070
  1024
  0
OBJECT_PTR
  5
214
102
{ACAD_REACTORS
330
205
102
}
330
205
1001
DCO15
1000
jet_dbsamples...jednostki(jednostkiLink1)
1000
IDENTYFIKATOR
1000

1000

1070
     4
1070
     0
1070
     0
1070
     0
1070
  1024
  0
OBJECT_PTR
  5
213
102
{ACAD_REACTORS
330
205
102
}
330
205
1001
DCO15
1000
KONSTR...konstr_drew(konstr_drewLink1)
1000
IDENTYFIKATOR
1000

1000

1070
     4
1070
     0
1070
     0
1070
     0
1070
  1024
  0
OBJECT_PTR
  5
212
102
{ACAD_REACTORS
330
205
102
}
330
205
1001
DCO15
1000
KONSTR...konstr_stal(konstr_stalLink1)
1000
IDENTYFIKATOR
1000

1000

1070
     4
1070
     0
1070
     0
1070
     0
1070
  1024
  0
OBJECT_PTR
  5
211
102
{ACAD_REACTORS
330
205
102
}
330
205
1001
DCO15
1000
jet_dbsamples...miesiace(miesiaceLink1)
1000
IDENTYFIKATOR
1000

1000

1070
     4
1070
     0
1070
     0
1070
     0
1070
  1024
  0
OBJECT_PTR
  5
210
102
{ACAD_REACTORS
330
205
102
}
330
205
1001
DCO15
1000
jet_dbsamples...pomieszczenia(pomieszczeniaLink1)
1000
IDENTYFIKATOR
1000

1000

1070
     4
1070
     0
1070
     0
1070
     0
1070
  1024
  0
OBJECT_PTR
  5
20F
102
{ACAD_REACTORS
330
205
102
}
330
205
1001
DCO15
1000
KONSTR...schematy(schematyLink1)
1000
IDENTYFIKATOR
1000

1000

1070
     4
1070
     0
1070
     0
1070
     0
1070
  1024
  0
OBJECT_PTR
  5
20E
102
{ACAD_REACTORS
330
205
102
}
330
205
1001
DCO15
1000
jet_dbsamples...stolarka(stolarkaLink1)
1000
IDENTYFIKATOR
1000

1000

1070
     4
1070
     0
1070
     0
1070
     0
1070
  1024
  0
OBJECT_PTR
  5
20D
102
{ACAD_REACTORS
330
205
102
}
330
205
1001
DCO15
1000
KONSTR...szczegoly(szczegolyLink1)
1000
IDENTYFIKATOR
1000

1000

1070
     4
1070
     0
1070
     0
1070
     0
1070
  1024
  0
OBJECT_PTR
  5
20C
102
{ACAD_REACTORS
330
205
102
}
330
205
1001
DCO15
1000
ELE...tbl_jednostki(tbl_jednostkiLink1)
1000
IDENTYFIKATOR
1000

1000

1070
     4
1070
     0
1070
     0
1070
     0
1070
  1024
  0
OBJECT_PTR
  5
20B
102
{ACAD_REACTORS
330
205
102
}
330
205
1001
DCO15
1000
ELE...tbl_opisy(tbl_opisyLink1)
1000
IDENTYFIKATOR
1000

1000

1070
     4
1070
     0
1070
     0
1070
     0
1070
  1024
  0
OBJECT_PTR
  5
20A
102
{ACAD_REACTORS
330
205
102
}
330
205
1001
DCO15
1000
jet_dbsamples...tbl_PRZEGRODY(tbl_PRZEGRODYLink1)
1000
IDENTYFIKATOR
1000

1000

1070
     4
1070
     0
1070
     0
1070
     0
1070
  1024
  0
OBJECT_PTR
  5
209
102
{ACAD_REACTORS
330
205
102
}
330
205
1001
DCO15
1000
wkc...tbl_uwagi_co(tbl_uwagi_coLink1)
1000
IDENTYFIKATOR
1000

1000

1070
     4
1070
     0
1070
     0
1070
     0
1070
  1024
  0
OBJECT_PTR
  5
208
102
{ACAD_REACTORS
330
205
102
}
330
205
1001
DCO15
1000
wkc...tbl_uwagi_wodkan(tbl_uwagi_wodkanLink1)
1000
IDENTYFIKATOR
1000

1000

1070
     4
1070
     0
1070
     0
1070
     0
1070
  1024
  0
OBJECT_PTR
  5
207
102
{ACAD_REACTORS
330
205
102
}
330
205
1001
DCO15
1000
KONSTR...uwagi_na_schematach(uwagi_na_schematachLink1)
1000
IDENTYFIKATOR
1000

1000

1070
     4
1070
     0
1070
     0
1070
     0
1070
  1024
  0
OBJECT_PTR
  5
206
102
{ACAD_REACTORS
330
205
102
}
330
205
1001
DCO15
1000
KONSTR...zbroj_plyty(zbroj_plytyLink1)
1000
IDENTYFIKATOR
1000

1000

1070
     4
1070
     0
1070
     0
1070
     0
1070
  1024
  0
DICTIONARY
  5
288
330
1AD
100
AcDbDictionary
280
     1
281
     1
  3
ACAD_XREC_ROUNDTRIP
360
289
  0
DICTIONARY
  5
1B6
330
1B5
100
AcDbDictionary
280
     1
281
     1
  3
ACAD_XREC_ROUNDTRIP
360
28A
  3
ADSK_XREC_LAYOUTTHUMBNAIL
360
1B7
  0
DICTIONARY
  5
1D3
330
1D2
100
AcDbDictionary
280
     1
281
     1
  3
ACAD_XREC_ROUNDTRIP
360
1D4
  0
DICTIONARY
  5
1D0
330
1CF
100
AcDbDictionary
280
     1
281
     1
  3
ACAD_XREC_ROUNDTRIP
360
1D1
  0
DICTIONARY
  5
E
330
C
100
AcDbDictionary
280
     1
281
     1
  3
ACAD_XREC_ROUNDTRIP
360
F
  0
DICTIONARY
  5
1DA
330
1D9
100
AcDbDictionary
280
     1
281
     1
  3
ACAD_ROUNDTRIP_2008_TABLESTYLE_CELLSTYLEMAP
360
281
  3
ACAD_XREC_ROUNDTRIP
360
28B
  0
XRECORD
  5
289
102
{ACAD_REACTORS
330
288
102
}
330
288
100
AcDbXrecord
280
     1
102
SHADEPLOT
 70
     0
102
SHADEPLOTRESLEVEL
 70
     2
102
SHADEPLOTCUSTOMDPI
 70
   300
  0
XRECORD
  5
28A
102
{ACAD_REACTORS
330
1B6
102
}
330
1B6
100
AcDbXrecord
280
     1
102
SHADEPLOT
 70
     1
102
SHADEPLOTRESLEVEL
 70
     2
102
SHADEPLOTCUSTOMDPI
 70
   300
  0
XRECORD
  5
1B7
102
{ACAD_REACTORS
330
1B6
102
}
330
1B6
100
AcDbXrecord
280
     1
310
28000000B400000000010000010008000000000000B4000000000000000000000001000000000000FFFFFF0000000000FFFFFF000000000000000000000000000000000000000000000000000000000000000000330000006600000099000000CC000000FF00000000330000333300006633000099330000CC330000FF3300
310
0000660000336600006666000099660000CC660000FF66000000990000339900006699000099990000CC990000FF99000000CC000033CC000066CC000099CC0000CCCC0000FFCC000000FF000033FF000066FF000099FF0000CCFF0000FFFF000000003300330033006600330099003300CC003300FF003300003333003333
310
33006633330099333300CC333300FF33330000663300336633006666330099663300CC663300FF66330000993300339933006699330099993300CC993300FF99330000CC330033CC330066CC330099CC3300CCCC3300FFCC330000FF330033FF330066FF330099FF3300CCFF3300FFFF330000006600330066006600660099
310
006600CC006600FF00660000336600333366006633660099336600CC336600FF33660000666600336666006666660099666600CC666600FF66660000996600339966006699660099996600CC996600FF99660000CC660033CC660066CC660099CC6600CCCC6600FFCC660000FF660033FF660066FF660099FF6600CCFF6600
310
FFFF660000009900330099006600990099009900CC009900FF00990000339900333399006633990099339900CC339900FF33990000669900336699006666990099669900CC669900FF66990000999900339999006699990099999900CC999900FF99990000CC990033CC990066CC990099CC9900CCCC9900FFCC990000FF99
310
0033FF990066FF990099FF9900CCFF9900FFFF99000000CC003300CC006600CC009900CC00CC00CC00FF00CC000033CC003333CC006633CC009933CC00CC33CC00FF33CC000066CC003366CC006666CC009966CC00CC66CC00FF66CC000099CC003399CC006699CC009999CC00CC99CC00FF99CC0000CCCC0033CCCC0066CC
310
CC0099CCCC00CCCCCC00FFCCCC0000FFCC0033FFCC0066FFCC0099FFCC00CCFFCC00FFFFCC000000FF003300FF006600FF009900FF00CC00FF00FF00FF000033FF003333FF006633FF009933FF00CC33FF00FF33FF000066FF003366FF006666FF009966FF00CC66FF00FF66FF000099FF003399FF006699FF009999FF00CC
310
99FF00FF99FF0000CCFF0033CCFF0066CCFF0099CCFF00CCCCFF00FFCCFF0000FFFF0033FFFF0066FFFF0099FFFF00CCFFFF00FFFFFF00000000000D0D0D001A1A1A00282828003535350043434300505050005D5D5D006B6B6B00787878008686860093939300A1A1A100AEAEAE00BBBBBB00C9C9C900D6D6D600E4E4E400
310
F1F1F100FFFFFF0000000000000000000000000000000000000000000000000000000000000000000000000000000000EF282828282828282828282828282828282828282828282828282828282828282828282828282828282828282828282828282828282828282828282828282828282828282828282828282828282828
310
2828282828282828282828282828282828282828282828282828282828282828282828282828282828282828282828282828282828282828282828282828282828282828282828282828282828282828282828282828282828282828282828282828282828EF28F5F5F5F5F5F5F5F5F5F5F5F5F5F5F5F5F5F5F5F5F5F5F5F5
310
F5F5F5F5F5F5F5F5F5F5F5F5F5F5F5F5F5F5F5F5F5F5F5F5F5F5F5F5F5F5F5F5F5F5F5F5F5F5F5F5F5F5F5F5F5F5F5F5F5F5F5F5F5F5F5F5F5F5F5F5F5F5F5F5F5F5F5F5F5F5F5F5F5F5F5F5F5F5F5F5F5F5F5F5F5F5F5F5F5F5F5F5F5F5F5F5F5F5F5F5F5F5F5F5F5F5F5F5F5F5F5F5F5F5F5F5F5F5F5F5F5F5F5F5F5F5F5
310
F5F5F5F5F5F5F5F5F5F5F5F5F5F5F5F5F5F5F5F5F5F5F5F5F5F5F5EF28F5F5F5F5F5F5F5F5F5F5F5F5F5F5F5F5F5F5F5F5F5F5F5F5F5F5F5F5F5F5F5F5F5F5F5F5F5F5F5F5F5F5F5F5F5F5F5F5F5F5F5F5F5F5F5F5F5F5F5F5F5F5F5F5F5F5F5F5F5F5F5F5F5F5F5F5F5F5F5F5F5F5F5F5F5F5F5F5F5F5F5F5F5F5F5F5F5F5
310
F5F5F5F5F5F5F5F5F5F5F5F5F5F5F5F5F5F5F5F5F5F5F5F5F5F5F5F5F5F5F5F5F5F5F5F5F5F5F5F5F5F5F5F5F5F5F5F5F5F5F5F5F5F5F5F5F5F5F5F5F5F5F5F5F5F5F5F5F5F5F5F5F5F5F5F5F5F5F5F5EF28F5F5F5F5F5F5F5F5F5F5F5F5F5F5F5F5F5F5F5F5F5F5F5F5F5F5F5F5F5F5F5F5F5F5F5F5F5F5F5F5F5F5F5F5F5
310
F5F5F5F5F5F5F5F5F5F5F5F5F5F5F5F5F5F5F5F5F5F5F5F5F5F5F5F5F5F5F5F5F5F5F5F5F5F5F5F5F5F5F5F5F5F5F5F5F5F5F5F5F5F5F5F5F5F5F5F5F5F5F5F5F5F5F5F5F5F5F5F5F5F5F5F5F5F5F5F5F5F5F5F5F5F5F5F5F5F5F5F5F5F5F5F5F5F5F5F5F5F5F5F5F5F5F5F5F5F5F5F5F5F5F5F5F5F5F5F5F5F5F5F5F5F5F5
310
F5F5F5F5F5F5EF28F5F5F5F5F5F5F5F5F5F5F5F5F5F5F5F5F5F5F5F5F5F5F5F5F5F5F5F5F5F5F5F5F5F5F5F5F5F5F5F5F5F5F5F5F5F5F5F5F5F5F5F5F5F5F5F5F5F5F5F5F5F5F5F5F5F5F5F5F5F5F5F5F5F5F5F5F5F5F5F5F5F5F5F5F5F5F5F5F5F5F5F5F5F5F5F5F5F5F5F5F5F5F5F5F5F5F5F5F5F5F5F5F5F5F5F5F5F5F5
310
F5F5F5F5F5F5F5F5F5F5F5F5F5F5F5F5F5F5F5F5F5F5F5F5F5F5F5F5F5F5F5F5F5F5F5F5F5F5F5F5F5F5F5F5F5F5F5F5F5F5F5F5F5F5F5F5F5F5F5EF28F5F5F5E2E2E2E2E2E2E2E2F5F5F5F5F5F5F5F5F5E2E2E2E2E2E2E2E2E2E2E2E2E2E2E2E2F5F5F5F5F5F5F5F5F5E2E2E2E2E2E2E2E2E2E2E2E2E2E2E2E2F5F5F5F5F5
310
F5F5F5E2E2E2E2E2E2E2E2E2E2E2E2E2E2E2E2F5F5F5F5F5F5F5F5F5E2E2E2E2E2E2E2E2E2E2E2E2E2E2E2E2F5F5F5F5F5F5F5F5E2E2E2E2E2E2E2E2E2E2E2E2E2E2E2E2F5F5F5F5F5F5F5F5F5E2E2E2E2E2E2E2E2E2E2E2E2E2E2E2E2F5F5F5F5F5F5F5F5F5E2E2E2E2E2E2E2E2F5F5EF28F5F5F5E2F5F5F5F5F5F5F5F5F5
310
F5F5F5F5F5F5F5F5F5F5F5F5F5F5F5F5F5F5F5F5F5F5F5F5F5F5F5F5F5F5F5F5F5F5F5F5F5F5F5F5F5F5F5F5F5F5F5F5F5F5F5F5F5F5F5F5F5F5F5F5F5F5F5F5F5F5F5F5F5F5F5F5F5F5F5F5F5F5F5F5F5F5F5F5F5F5F5F5F5F5F5F5F5F5F5F5F5F5F5F5F5F5F5F5F5F5F5F5F5F5F5F5F5F5F5F5F5F5F5F5F5F5F5F5F5F5F5
310
F5F5F5F5F5F5F5F5F5F5F5F5F5F5F5F5F5F5F5F5F5F5F5F5F5F5F5F5F5F5F5F5F5F5F5E2F5F5EF28F5F5F5E2F5F5F5F5F5F5F5F5F5F5F5F5F5F5F5F5F5F5F5F5F5F5F5F5F5F5F5F5F5F5F5F5F5F5F5F5F5F5F5F5F5F5F5F5F5F5F5F5F5F5F5F5F5F5F5F5F5F5F5F5F5F5F5F5F5F5F5F5F5F5F5F5F5F5F5F5F5F5F5F5F5F5F5
310
F5F5F5F5F5F5F5F5F5F5F5F5F5F5F5F5F5F5F5F5F5F5F5F5F5F5F5F5F5F5F5F5F5F5F5F5F5F5F5F5F5F5F5F5F5F5F5F5F5F5F5F5F5F5F5F5F5F5F5F5F5F5F5F5F5F5F5F5F5F5F5F5F5F5F5F5F5F5F5F5F5F5F5F5F5F5F5F5E2F5F5EF28F5F5F5E2F5F5F5F5F5F5F5F5F5F5F5F5F5F5F5F5F5F5F5F5F5F5F5F5F5F5F5F5F5F5
310
F5F5F5F5F5F5F5F5F5F5F5F5F5F5F5F5F5F5F5F5F5F5F5F5F5F5F5F5F5F5F5F5F5F5F5F5F5F5F5F5F5F5F5F5F5F5F5F5F5F5F5F5F5F5F5F5F5F5F5F5F5F5F5F5F5F5F5F5F5F5F5F5F5F5F5F5F5F5F5F5F5F5F5F5F5F5F5F5F5F5F5F5F5F5F5F5F5F5F5F5F5F5F5F5F5F5F5F5F5F5F5F5F5F5F5F5F5F5F5F5F5F5CACAF5F5F5
310
F5F5F5F5F5F5F5F5F5F5F5F5F5F5E2F5F5EF28F5F5F5E2F5F5F5F5BEBEBEBEF5BEBEBEBEBEF5BEBEBEBEBEBEF5BEBEBEBEBEF5BEBEBEBEBEBEF5BEBEBEBEBEF5BEBEBEBEBEBFF5BEBEBEBEBEF5BEBEBEBEBEF5BEBEBEBEBEBEF5BEBEBEBEBEF5BEBEBEBEBEBEF5BEBEBEBEBEF5BEBEBEBEBEF5BEBEBEBEBEBEF5BEBE2D2D2D
310
2D2D2D2D2D2D2D2D2D2D2D2D2D2D2D2D2D2D2D2D2D2D2D2D2D2D2D2D2D2D2D2D2D2D2D2D2D2D2D2D2D2D2D2D2D2D2D2D2D2D2D2D2D2D2D2D2D2D2D2D2D2D2DF5F5F5F5E2F5F5EF28F5F5F5E2F5F5F5F5BEF5F5F5F5F5F5F5F5F5F5F5F5F5F5F5F5F5F5F5F5F5F5F5F5F5F5F5F5F5F5F5F5F5F5F5F5F5F5F5F5F5F5F5F5F5F5
310
F5F5F5F5F5F5F5F5F5F5F5F5F5F5F5F5F5F5F5F5F5F5F5F5F5F5F5F5F5F5F5F5F5F5F5F5F5F5F5F5F5F5F5F5F5F5F5F5F5F52DED00E8E82DCACACACACACACACACACACACACACACACACAF5CACACACACACACACACACACACACACACACACACACACACACACACACACACACACACACACACACACACACACACACACA2DF5F5F5F5E2F5F5EF28F5F5
310
F5E2F5F5F5F5BEF5F5F5F5F5F5F5F5F5F5F5F5F5F5F5F5F5F5F5F5F5F5F5F5F5F5F5F5F5F5F5F5F5F5F5F5F5F5F5F5F5F5F5F5F5F5F5F5F5F5F5F5F5F5F5F5F5F5F5F5F5F5F5F5F5F5F5F5F5F5F5F5F5F5F5F5F5F5F5F5F5F5F5F5F5F5F5F5F5F5F5F5F5F5F5F52DED00E8E82D2D2D2D2D2D2D2D2D2D2D2D2D2D2D2D2D2D2D
310
2D2D2D2D2D2D2D2D2D2D2D2D2D2D2D2D2D2D2D2D2D2D2D2D2D2D2D2D2D2D2D2D2D2D2D2D2D2D2D2D2D2DF5F5F5F5E2F5F5EF28F5F5F5E2F5F5F5F5BEF5F5F5F5F5F5F5F5F5F5F5F5F5F5F5F5F5F5F5F5F5F5F5F5F5F5F5F5F5F5F5F5F5F5F5F5F5F5F5F5F5F5F5F5F5F5F5F5F5F5F5F5F5F5F5F5F5F5F5F5F5F5F5F5F5F5F5
310
F5F5F5F5F5F5F5F5F5F5F5F5F5F5F5F5F5F5F5F5F5F5F5F5F5F5F5F5F52D000000002DF5F5F5F5F5F5F5F5F5F5F5F5F5F5F5F5F5F5F5F5F5F5F5F5F5F5F5F5F5F52DF5F5F5F5F5F5F5F5F5F5F5F5F52DF5F5F5F5F5F5F5F5F5F5F5F5F5F52DF5F5F5F5E2F5F5EF28F5F5F5F5F5F5F5F5BEF5F5F5F5F5F5F5F5F5F5F5F5F5F5
310
F5F5F5F5F5F5F5F5F5F5F5F5F5F5F5F5F5F5F5F5F5F5F5F5F5F5F5F5F5F5F5F5F5F5F5F5F5F5F5F5F5F5F5F5F5F5F5F5F5F5F5F5F5F5F5F5F5F5F5F5F5F5F5F5F5F5F5F5F5F5F5F5F5F5F5F5F5F5F5F5F5F52D000000002DF5F5F5F5F5F5F5F5F5F5F5F5F5F5F5F5F5F5F5F5F5F5F5F5F5F5F5F5F5F52DF5F5F5F5F5F5F5F5
310
F5F5F5F5F52DF5F5F5F5F5F5F5F5F5F5F5F5F5F52DF5F5F5F5F5F5F5EF28F5F5F5F5F5F5F5F5BEF5F5F5F5F5F5F5F5F5F5F5F5F5F5F5F5F5F5F5F5F5F5F5F5F5F5F5F5F5F5F5F5F5F5F5F5F5F5F5F5F5F5F5F5F5F5F5F5F5F5F5F5F5F5F5F5F5F5F5F5F5F5F5F5F5F5F5F5F5F5F5F5F5F5F5F5F5F5F5F5F5F5F5F5F5F5F5F5
310
F5F5F5F5F5F5F5F52D00ED00ED2DCACACACACACACAF5F5F5F5F5F5F5F5F5F5F5F5F5F5F5F5F5F5F5F5F5F5F52DCACACACAF5F5F5F5F5F5F5F5F52DCACACACAF5F5F5F5F5F5F5F5F5F52DF5F5F5F5F5F5F5EF28F5F5F5F5F5F5F5F5F5F5F5F5F5F5F5F5F5F5F5F5F5F5F5F5F5F5F5F5F5F5F5F5F5F5F5F5F5F5F5F5F5F5F5F5
310
F5F5F5F5F5F5F5F5F5F5F5F5F5F5F5F5F5F5F5F5F5F5F5F5F5F5F5F5F5F5F5F5F5F5F5F5F5F5F5F5F5F5F5F5F5F5F5F5F5F5F5F5F5F5F5F5F5F5F5F5F52D00ED00ED2DCACACACACACACAF5F5F5F5F5F5F5F5F5F5F5F5F5F5F5F5F5F5F5F5F5F5F52DCACACACAF5F5F5F5F5F5F5F5F52DCACACACAF5F5F5F5F5F5F5F5F5F52D
310
F5F5F5F5F5F5F5EF28F5F5F5F5F5F5F5F5BEF5F5F5F5F5F5F5F5F5F5F5F5F5F5F5F5F5F5F5F5F5F5F5F5F5F5F5F5F5F5F5F5F5F5F5F5F5F5F5F5F5F5F5F5F5F5F5F5F5F5F5F5F5F5F5F5F5F5F5F5F5F5F5F5F5F5F5F5F5F5F5F5F5F5F5F5F5F5F5F5F5F5F5F5F5F5F5F5F5F5F5F5F5F5F5F52D000000002D2D2D2D2D2D2D2D
310
2D2D2D2D2D2D2D2D2D2D2D2D2D2D2D2D2D282D2D2D2D2D2D27272D2D2D2D2D2D2D2D2D2D152D2D2D2D2D2D2D2D2D2D2D2D2D2D2D2DF5F5F5F5F5F5F5EF28F5F5F5F5F5F5F5F5BEF5F5F5F5F5F5F5F5F5F5F5F5F5F5F5F5F5F5F5F5F5F5F5F5F5F5F5F5F5F5F5F5F5F5F5F5F5F5F5F5F5F5F5F5F5F5F5F5F5F5F5F5F5F5F5F5
310
F5F5F5F5F5F5F5F5F5F5F5F5F5F5F5F5F5F5F5F5F5F5F5F5F5F5F5F5F5F5F5F5F5F5F5F5F5F5F5F52D00ED00002D2828282828282828282828282828282828282828282828282828282828282D272727F5F515151515151515152DF5F5F5F5F5F5F5F5F5F5F5F5F5F52DF5F5F5F5F5F5F5EF28F5F5F5F5F5F5F5F5BEF5F5F5
310
F5F5F5F5F5F5F5F5F5F5F5F5F5F5F5F5F5F5F5F5F5F5F5F5F5F5F5F5F5F5F5F5F5F5F5F5F5F5F5F5F5F5F5F5F5F5F5F5F5F5F5F5F5F5F5F5F5F5F5F5F5F5F5F5F5F5F5F5F5F5F5F5F5F5F5F5F5F5F5F5F5F5F5F5F5F5F5F5F5F5F5F5F52D00ED8BED2D28282828282828282828282828282828F52828282828282828282828
310
28F52DF52727F51515151515151515152DF5F5F5F5F5F5F5F5F5F5F5F5F5F52DF5F5F5F5F5F5F5EF28F5F5F5F5F5F5F5F5BEF5F5F5F5F5F5F5F5F5F5F5F5F5F5F5F5F5F5F5F5F5F5F5F5F5F5F5F5F5F5F5F5F5F5F5F5F5F5F5F5F5F5F5F5F5F5F5F5F5F5F5F5F5F5F5F5F5F5F5F5F5F5F5F5F5F5F5F5F5F5F5F5F5F5F5F5F5
310
F5F5F5F5F5F5F5F5F5F5F5F5F5F5F5F5F5F5F52D000000ED2DF5F5F5F5F5F5F5F5F5F5F5F5F52828282828F52828F528282828282828282DF52727F51515151515151515152DF5F5F5F5F5F528282828282828282DF5F5F5F5F5F5F5EF28F5F5F5F5F5F5F5F5BEF5F5F5F5F5F5F5F5F5F5F5F5F5F5F5F5F5F5F5F5F5F5F5F5
310
F5F5F5F5F5F5F5F5F5F5F5F5F5F5F5F5F5F5F5F5F5F5F5F5F5F5F5F5F5F5F5F5F5F5F5F5F5F5F5F5F5F5F5F5F5F5F5F5F5F5F5F5F5F5F5F5F5F5F5F5F5F5F5F5F5F5F5F5F5F5F5F52D00ED00ED2DF5F5F5F5F5F5F5F5F5F5F5F5F528F5F52828282828F528282828282828282DF5F527F51515151515F51515152DF5F5F5F5
310
F5F528282828282828282DF5F5F5F5F5F5F5EF28F5F5F5F5F5F5F5F5F5F5F5F5F5F5F5F5F5F5F5F5F5F5F5F5F5F5F5F5F5F5F5F5F5F5F5F5F5F5F5F5F5F5F5F5F5F5F5F5F5F5F5F5F5F5F5F5F5F5F5F5F5F5F5F5F5F5F5F5F5F5F5F5F5F5F5F5F5F5F5F5F5F5F5F5F5F5F5F5F5F5F5F5F5F5F5F5F5F5F5F5F5F5F5F5F52DED
310
EDED8B2DCACACACACACACAF5F5F5F5282828282828282828282828F5282828282828CACACA27CAF5151515F5F5F515152DCACACACAF5F5F5F5F5F5F5F5F5F52DF5F5F5F5F5F5F5EF28F5F5F5E2F5F5F5F5BFF5F5F5F5F5F5F5F5F5F5F5F5F5F5F5F5F5F5F5F5F5F5F5F5F5F5F5F5F5F5F5F5F5F5F5F5F5F5F5F5F5F5F5F5F5
310
F5F5F5F5F5F5F5F5F5F5F5F5F5F5F5F5F5F5F5F5F5F5F5F5F5F5F5F5F5F5F5F5F5F5F5F5F5F5F5F5F5F5F5F5F5F5F5F5F5F5F52D000000002DCACACACACACACAF5F5F5F5F5F5F528F52828F528F5F5F5F528F5F528F528CACACACACAF5151515F5F5F5F5F52DCACACACAF5F5F5F5F5F5F5F5F5F52DF5F5F5F5E2F5F5EF28F5
310
F5F5E2F5F5F5F5BEF5F5F5F5F5F5F5F5F5F5F5F5F5F5F5F5F5F5F5F5F5F5F5F5F5F5F5F5F5F5F5F5F5F5F5F5F5F5F5F5F5F5F5F5F5F5F5F5F5F5F5F5F5F5F5F5F5F5F5F5F5F5F5F5F5F5F5F5F5F5F5F5F5F5F5F5F5F5F5F5F5F5F5F5F5F5F5F5F5F5F5F5F5F5F5F52D00EDEDED2D2D2D2D2D2D2D2D2D2D2D2D2D2D2D2D2D2D
310
2D2D2D2D2D2D2D2D2D2D2D2D2D2D2D2D2D2D2D2D2D2D2D2D2D2D2D2D2D2D2D2D2D2D2D2D2D2D2D2D2D2D2DF5F5F5F5E2F5F5EF28F5F5F5E2F5F5F5F5BEF5F5F5F5F5F5F5F5F5F5F5F5F5F5F5F5F5F5F5F5F5F5F5F5F5F5F5F5F5F5F5F5F5F5F5F5F5F5F5F5F5F5F5F5F5F5F5F5F5F5F5F5F5F5F5F5F5F5F5F5F5F5F5F5F5F5
310
F5F5F5F5F5F5F5F5F5F5F5F5F5F5F5F5F5F5F5F5F5F5F5F5F5F5F5F5F5F52D0000ED002DCACACACAF5CACACACACAF5F5F5F5F5F5F52727272727272727272727F5272727272727272727F5F5F5F5F5F52DCACACACAF5F5F5F5F5F5F5F528282DF5F5F5F5E2F5F5EF28F5F5F5E2F5F5F5F5BEF5F5F5F5F5F5F5F5F5F5F5F5F5
310
F5F5F5F5F5F5F5F5F5F5F5F5F5F5F5F5F5F5F5F5F5F5F5F5F5F5F5F5F5F5F5F5F5F5F5F5F5F5F5F5F5F5F5F5F5F5F5F5F5F5F5F5F5F5F5F5F5F5F5F5F5F5F5F5F5F5F5F5F5F5F5F5F5F5F5F5F5F5F5F5F5F5F52D00EF00ED2DCACACACAF5CACACACACAF5F5F5F5F5F527272727272727272727272727272727272727272727
310
F5F5F5F5F5F52DCACACACAF5F5F5F5F5F5F5F5F5F52DF5F5F5F5E2F5F5EF28F5F5F5E2F5F5F5F5BEF5F5F5F5F5F5F5F5F5F5F5F5F5F5F5F5F5F5F5F5F5F5F5F5F5F5F5F5F5F5F5F5F5F5F5F5F5F5F5F5F5F5F5F5F5F5F5F5F5F5F5F5F5F5F5F5F5F5F5F5F5F5F5F5F5F5F5F5F5F5F5F5F5F5F5F5F5F5F5F5F5F5F5F5F5F5F5
310
F5F5F5F5F5F5F5F5F52D000000ED2DCACA2D2D2D2D2D2DCA2D2D2D2D2D2D2D2D2D2D2D2D2D2D2D2D2D2D2D2D2D2D2D2D2D2D2D2D2D2D2D2D2D2D2D2D2D2D2D2D2D2D2D2D2D2D2D2D2D2D2DF5F5F5F5E2F5F5EF28F5F5F5E2F5F5F5F5BEF5F5F5F5F5F5F5F5F5F5F5F5F5F5F5F5F5F5F5F5F5F5F5F5F5F5F5F5F5F5F5F5F5F5
310
F5F5F5F5F5F5F5F5F5F5F5F5F5F5F5F5F5F5F5F5F5F5F5F5F5F5F5F5F5F5F5F5F5F5F5F5F5F5F5F5F5F5F5F5F5F5F5F5F5F5F5F5F5F5F5F5F5F5F5F5F5F52D00EDED002DCACACACACAF5F5F5F5F5F52828F528282828F528F528F528F528282828F528F52828F528F52828F5F5F5F5F52DCACACACACAF5F5F5282828282727
310
27F5F5F5F5E2F5F5EF28F5F5F5E2F5F5F5F5F5F5F5F5F5F5F5F5F5F5F5F5F5F5F5F5F5F5F5F5F5F5F5F5F5F5F5F5F5F5F5F5F5F5F5F5F5F5F5F5F5F5F5F5F5F5F5F5F5F5F5F5F5F5F5F5F5F5F5F5F5F5F5F5F5F5F5F5F5F5F5F5F5F5F5F5F5F5F5F5F5F5F5F5F5F5F5F5F5F5F5F5F5F5F5F5F52D008BEDED2DCACACACACAF5
310
F5F5F5F5F5F528F528282828F528F528F5282828282828F528F52828F528F528F5F5F5F5F5F52DCACACACACAF5F5F5F528F5F527272DF5F5F5F5E2F5F5EF28F5F5F5E2F5F5F5F5BEF5F5F5F5F5F5F5F5F5F5F5F5F5F5F5F5F5F5F5F5F5F5F5F5F5F5F5F5F5F5F5F5F5F5F5F5F5F5F5F5F5F5F5F5F5F5F5F5F5F5F5F5F5F5F5
310
F5F5F5F5F5F5F5F5F5F5F5F5F5F5F5F5F5F5F5F5F5F5F5F5F5F5F5F5F5F5F5F5F5F5F5F5F5F5F5F5F52D2D2D2D2D2DCA2D2D2D2D2D2D2D2D2D2D2D2D2D2D2D2D2D2D2D2D2D2D2D2D2D2D2D2D2D2D2D2D2D2D2D2D2D2D2D2D2D2D2D2D2D2D2D2D2D2D2D2D2D2D2D2D2D2D2DF5F5F5F5E2F5F5EF28F5F5F5E2F5F5F5F5BEF5F5
310
F5F5F5F5F5F5F5F5F5F5F5F5F5F5F5F5F5F5F5F5F5F5F5F5F5F5F5F5F5F5F5F5F5F5F5F5F5F5F5F5F5F5F5F5F5F5F5F5F5F5F5F5F5F5F5F5F5F5F5F5F5F5F5F5F5F5F5F5F5F5F5F5F5F5F5F5F5F5F5F5F5F5F5F5F5F5F5F5F5F5F5F5F5F52DF5F5F5F5F5F5F5F5F5F5F5F5F5F5F5F5F5F5F5F5F5F5F5F5F5F5F5F5F5F5F5F5
310
F5F5F5F5F5F5F5F5F5F5F5F5F5F5F5F5F5F5F5F5F5F5F5F5F5F5F5F5F5F5F5F52DF5F5F5F5E2F5F5EF28F5F5F5E2F5F5F5F5BEF5F5F5F5F5F5F5F5F5F5F5F5F5F5F5F51B1B1B1B1B1B1B1B1B1B1B1B1BF51B1B1B1B1BF51B1B1B1B1B1BF5F5F5F5F5F5F5F5F5F5F5F5F5F5F5F5F5F5F5F5F5F5F5F5F5F5F5F5F5F5F5F5F5F5
310
F5F5F5F5F5F5F5F5F5F5F5F5F5F5F5F5F5F5F5F52DF5F5F5F5F5F5F5F5F5F5F5F5F5F5F5F5F5F5F5F5F5F5F5F5F5F5F5F5F5F5F5F5F5F5F5F5F5F5F5F5F5F5F5F5F5F5F5F5F5F5F5F5F5F5F5F5F5F5F5F5F5F5F5F52DF5F5F5F5E2F5F5EF28F5F5F5E2F5F5F5F5BEF5F5F5F5F5F5F5F5F5F5F5F5F5F5F5F51B1B1B1B1B1B1B
310
1B1B1B1B1B1BF51B1B1B1B1B1B1B1B1B1B1B1BF5F5F5F5F5F5F5F5F5F5F5F5F5F5F5F5F5F5F5F5F5F5F5F5F5F5F5F5F5F5F5F5F5F5F5F5F5F5F5F5F5F5F5F5F5F5F5F5F5F5F5F5F5F52DF5F5F5F5F5F5F5F5F5F5F5F5F5F5F5F5F5F5F5F5F5F5F5F5F5F5F5F5F5F5F5F5F5F5F5F5F5F5F5F5F5F5F5F5F5F5F5F5F5F5F5F5F5
310
F5F5F5F5F5F5F5F5F5F5F52DF5F5F5F5E2F5F5EF28F5F5F5E2F5F5F5F5BEF5F5F5F5F5F5F5F5F5F5F5F5F5F5F5F51B1B1BF51B1B1B1B1B1B1BF51B1B1B1B1B1BF51B1B1B1B1B1B1B1B1B1B1BF51B1B1B1B1B1BF51B1B1B1B1B1B1B1B1BF5F5F5F5F5F5F5F5F5F5F5F5F5F5F5F5F5F5F5F5F5F5F5F5F5F5F5F5F5F5F5F5F52D
310
F5F5F5F5F5CAF5F5F5F5F5F5F5F5F5F5F5F5F5F5F5F5F5F5F5F5F5F5F5F5F5F5F5F5F5F5F5F5F5F5F5F5F5F5F5F5F5F5F5F5F5F5F5F5F5F5F5F5F5F5F5F5F5F52DF5F5F5F5E2F5F5EF28F5F5F5E2F5F5F5F5F5F5F5F5F5F5F5F5F5F5F5F5F5F51B1BF51B1B1B1B1B1B1B1B1B1B1BF51B1B1B1B1B1BF51B1B1B1B1B1B1B1B1B
310
1B1B1B1B1B1B1B1B1BF51B1B1B1B1B1B1B1B1BF5F5F5F5F5F5F5F5F5F5F5F5F5F5F5F5F5F5F5F5F5F5F5F5F5F5F5F5F5F5F5F5F52DCACACACACACACACAF5F5F5F5F5F5F5F5F5F5F5F5F5F5F5F5F5F5F5F5F5F5F5F5F5F5F5F5F5F5F5F5F5F5F5F5F5F5F5F5F5F5F5F5F5F5F5F5F5F5F5F5F5F5F5F52DF5F5F5F5E2F5F5EF28
310
F5F5F5E2F5F5F5F5BEF5F5F5F5F5F5F5F5F5F5F5F5F5F5F5F51B1B1B1B1B1B1B1B1B1B1BF51B1B1B1B1B1BF51B1B1B1B1B1B1B1B1BF51B1B1B1B1B1B1B1BF51B1B1B1B1B1B1B1B1BF5F5F5F5F5F5F5F5F5F5F5F5F5F5F5F5F5F5F5F5F5F5F5F5F5F5F5F5F5F5F5F5F52D2D2D2D2D2D2D2D2D2D2D2D2D2D2D2D2D2D2D2D2D2D
310
2D2D2D2D2D2D2D2D2D2D2D2D2D2D2D2D2D2D2D2D2D2D2D2D2D2D2D282D2D2D2D282D2D2D2D2D2D2D2D2D2D2DF5F5F5F5E2F5F5EF28F5F5F5E2F5F5F5F5BEF5F5F5F5F5F5F5F5F5F5F5F5F5F5F5F51B1B1B1B1B1B1B1B1B1B1B1B1B1B1B1B1B1B1B1B1B1B1B1B1BF51B1B1B1B1B1B1B1B1B1B1B1B1B1B1B1B1B1B1B1B1B1B1B
310
1BF5F5F5F5F5F5F5F5F5F5F5F5F5F5F5F5F5F5F5F5F5F5F5F5F5F5F5F5F5F52DF5F5F5F5F5F5F5F5F5F5F5F5F5F5F52828282828F5F528F528282828282828282828282828282828282828282828282828282828282828F5F5F5F5F5F5F5F5F52DF5F5F5F5E2F5F5EF28F5F5F5E2F5F5F5F5BEF5F5F5F5F5F5F5F5F5F5F5F5
310
F5F5F5F51B1B1B1B1B1B1B1B1BF51B1B1B1B1B1B1B1B1B1B1B1B1B1B1B1B1B1B1B1B1B1B1B1B1B1B1B1B1B1B1B1B1B1B1B1B1B1B1B1BF5F5F5F5F5F5F5F5F5F5F5F5F5F5F5F5F5F5F5F5F5F5F5F5F5F5F5F5F5F52DF5F5F5F5F5F5F5F5F5F5F5F5F5F5282828282828F5F52828282828282828282828282828282828282828
310
28282828F5282828282828282828F5F5F5F5F5F5F5F52DF5F5F5F5E2F5F5EF28F5F5F5F5F5F5F5F5BEF5F5F5F5F5F5F5F5F5F5F5F5F5F5F5F51BF5F5F5F5F5F5F5F5F5F5F51BF5F5F5F5F5F5F51BF5F5F5F5F5F5F5F5F5F5F5F5F5F5F5F5F5F5F5F5F5F5F5F5F5F5F5F5F5F5F5F5F5F5F5F5F5F5F5F5F5F5F5F5F5F5F5F5F5
310
F5F5F5F5F5F5F5F5F5F52DF5F5F5F5F5F5F5F5F5F5F5F5F5F5282828282828F528282828282828282828282828282828282828282828282828F5282828282828282828F5F5F5F5F5F5F5F52DF5F5F5F5F5F5F5EF28F5F5F5F5F5F5F5F5BEF5F5F5F5F5F5F5F5F5F5F5F5F51B1BF51B1B1B1B1B1B1B1B1B1B1B1B1B1B1B1B1B
310
1B1B1B1B1B1B1B1B1B1B1B1B1B1B1B1B1B1B1B1B1B1B1B1BF51B1B1B1B1B1B1B1BF5F5F5F5F5F5F5F5F5F5F5F5F5F5F5F5F5F5F5F5F5F5F5F5F5F5F5F5F5F52DCACACACACAF5F5F5F5F5F5F5F5F5F527272727272727272727272727272727272727272727F527272727272727272727272727272727F5F5F5F5F5F5F5F5F5
310
F52DF5F5F5F5F5F5F5EF28F5F5F5F5F5F5F5F5BEF5F5F5F5F5F5F5F5F5F5F5F5F5F5F5F51B1B1B1B1B1B1B1B1B1B1B1B1B1B1B1B1B1B1B1B1B1B1B1B1B1B1B1B1B1B1B1B1B1B1B1B1B1B1B1B1BF51B1B1B1B1B1B1B1BF5F5F5F5F5F5F5F5F5F5F5F5F5F5F5F5F5F5F5F5F5F5F5F5F5F5F5F5F5F52DCACACACACAF5F5F5F5F5
310
F5F5F5F5F52727272727272727272727272727272727272727272727F527272727272727272727272727272727F5F5F5F5F5F5F5F5F52DF5F5F5F5F5F5F5EF28F5F5F5F5F5F5F5F5F5F5F5F5F5F5F5F5F5F5F5F5F5F5F5F5F51B1B1B1B1B1B1B1B1B1B1B1B1B1B1B1B1B1B1B1B1B1B1B1BF51B1B1B1B1B1B1B1B1B1B1BF51B
310
1B1BF5F5F51B1B1B1B1B1B1B1B1B1B1B1B1B1B1B1B1B1B1B1B1BF5F5F5F5F5F5F5F5F5F5F5F5F5F5F5F52D2D2D2D2D2D2D2D2D2D2D2D2D2D2D2D2D2D2D2D2D2D2D2D2D2D2D2D2D2D2D2D2D2D2D2D2D2D2D2D2D2D2D2D2D2D2D2D2D2D2D2D2D2D2D2D2D2D2D2D2D2D2D2D2D2DF5F5F5F5F5F5F5EF28F5F5F5F5F5F5F5F5BEF5
310
F5F5F5F5F5F5F5F5F5F5F5F5F5F5F51B1B1B1B1B1B1B1B1B1B1B1B1B1B1B1B1B1B1B1B1B1B1B1BF51B1B1B1B1B1B1B1B1B1B1BF51B1B1B1B1BF51B1B1B1B1B1B1B1B1B1B1B1B1B1B1B1B1B1B1B1B1BF5F5F5F5F5F5F5F5F5F5F5F5F5F5F5F5F5F5F5F5F5F5F5F5F5F5F5F5F5F5F5F5F5F5F5F5F5F5F5F5F5F5F5F5F5F5F5F5
310
F5F5F5F5F5F5F5F5F5F5F5F5F5F5F5F5F5F5F5F5F5F5F5F5F5F5F5F5F5F5F5F5F5BEF5F5F5F5F5F5F5EF28F5F5F5F5F5F5F5F5BEF5F5F5F5F5F5F5F5F5F5F5F5F5F5F5F51B1B1B1B1B1B1B1B1B1B1B1B1B1B1B1B1B1B1B1B1B1BF5F5F51B1B1B1B1B1B1B1B1B1B1BF51B1B1BF5F5F51B1B1BF5F51B1B1B1B1B1B1B1B1B1B1B
310
1B1B1B1B1BF5F5F5F5F5F5F5F5F5F5F5F5F5F5F5F5F5F5F5F5F5F5F5F5F5F5F5F5F5F5F5F5F5F5F5F5F5F5F5F5F5F5F5F5F5F5F5F5F5F5F5F5F5F5F5F5F5F5F5F5F5F5F5F5F5F5F5F5F5F5F5F5F5F5F5F5F5F5F5F5F5BEF5F5F5F5F5F5F5EF28F5F5F5F5F5F5F5F5BEF5F5F5F5F5F5F5F5F5F5F5F5F5F5F5F51B1B1B1B1B1B
310
1B1B1BF51B1B1B1B1B1B1B1B1B1B1B1BF51B1B1B1B1B1B1B1B1BF51B1B1B1B1BF5F5F5F5F5F5F5F5F5F5F5F5F5F5F5F5F5F5F5F5F5F5F5F5F5F5F5F5F5F5F5F5F5F5F5F5F5F5F5F5F5F5F5F5F5F5F5F5F5F5F5F5F5F5F5F5F5F5F5F5F5F5F5F5F5F5F5F5F5F5F5F5F5F5F5F5F5F5F5F5F5F5F5F5F5F5F5F5F5F5F5F5F5F5F5
310
F5F5F5F5F5F5F5F5F5F5F5F5BEF5F5F5F5F5F5F5EF28F5F5F5F5F5F5F5F5BEF5F5F5F5F5F5F5F5F5F5F5F5F51B1BF51B1B1B1B1B1B1B1B1BF51B1B1B1B1B1B1B1B1B1B1B1BF51B1B1B1B1B1B1B1B1BF51B1B1B1B1BF5F5F5F5F5F5F5F5F5F5F5F5F5F5F5F5F5F5F5F5F5F5F5F5F5F5F5F5F5F5F5F5F5F5F5F5F5F5F5F5F5F5
310
F5F5F5F5F5F5F5F5F5F5F5F5F5F5F5F5F5F5F5F5F5F5F5F5F5F5F5F5F5F5F5F5F5F5F5F5F5F5F5F5F5F5F5F5F5F5F5F5F5F5F5F5F5F5F5F5F5F5F5F5F5F5F5F5F5BEF5F5F5F5F5F5F5EF28F5F5F5F5F5F5F5F5BEF5F5F5F5F5F5F5F5F5F5F5F5F5F5F5F51B1B1B1B1B1B1B1B1B1B1B1B1B1B1B1B1B1B1B1B1B1BF51B1B1B1B
310
1B1B1B1B1BF51B1B1B1B1BF5F5F51BF5F5F5F5F5F5F5F5F5F5F5F5F5F5F5F5F5F5F5F5F5F5F5F5F5F5F5F5F5F5F5F5F5F5F5F5F5F5F5F5F5F5F5F5F5F5F5F5F5F5F5F5F5F5F5F5F5F5F5F5F5F5F5F5F5F5F5F5F5F5F5F5F5F5F5F5F5F5F5F5F5F5F5F5F5F5F5F5F5F5F5F5F5F5F5F5F5F5F5F5F5F5F5BEF5F5F5F5F5F5F5EF
310
28F5F5F5E2F5F5F5F5F5F5F5F5F5F5F5F5F5F5F5F5F5F51B1BF51B1B1B1B1B1B1B1BF51B1B1B1B1B1B1B1BF51B1B1B1B1B1B1B1B1B1B1B1B1B1B1B1BF51B1B1B1B1B1B1B1B1B1B1BF5F5F5F5F5F5F5F5F5F5F5F5F5F5F5F5F5F5F5F5F5F5F5F5F5F5F5F5F5F5F5F5F5F5F5F5F5F5F5F5F5F5F5F5F5F5F5F5F5F5F5F5F5F5F5
310
F5F5F5F5F5F5F5F5F5F5F5F5F5F5F5F5F5F5F5F5F5F5F5F5F5F5F5F5F5F5F5F5F5F5F5F5F5F5F5F5F5F5F5F5F5F5F5F5F5E2F5F5EF28F5F5F5E2F5F5F5F5BEF5F5F5F5F5F5F5F5F5F5F5F5F5F5F5F51B1B1B1B1B1B1B1BF51B1B1B1B1B1B1B1BF51B1B1B1B1B1B1B1B1B1B1B1B1B1B1B1BF51B1B1B1B1B1B1B1B1B1B1BF5F5
310
F5F5F5F5F5F5F5F5F5F5F5F5F5F5F5F5F5F5F5F5F5F5F5F5F5F5F5F5F5F5F5F5F5F5F5F5F5F5F5F5F5F5F5F5F5F5F5F5F5F5F5F5F5F5F5F5F5F5F5F5F5F5F5F5F5F5F5F5F5F5F5F5F5F5F5F5F5F5F5F5F5F5F5F5F5F5F5F5F5F5F5F5F5F5F5F5F5BEF5F5F5F5E2F5F5EF28F5F5F5E2F5F5F5F5BEF5F5F5F5F5F5F5F5F5F5F5
310
F5F5F5F5F5F5F5F5F5F5F5F5F5F5F5F5F5F5F5F5F5F5F5F5F5F5F5F5F51BF5F5F5F5F5F5F5F5F5F5F5F5F5F5F5F5F51BF5F5F5F5F5F5F5F5F5F5F5F5F5F5F5F5F5F5F5F5F5F5F5F5F5F5F5F5F5F5F5F5F5F5F5F5F5F5F5F5F5F5F5F5F5F5F5F5F5F5F5F5F5F5F5F5F5F5F5F5F5F5F5F5F5F5F5F5F5F5F5F5F5F5F5F5F5F5F5
310
F5F5F5F5F5F5F5F5F5F5F5F5F5F5F5F5F5F5F5F5F5F5F5BEF5F5F5F5E2F5F5EF28F5F5F5E2F5F5F5F5BEF5F5F5F5F5F5F5F5F5F5F5F5F51B1BF51B1B1B1B1B1BF51B1B1B1B1B1B1B1B1B1B1B1B1B1B1B1B1B1B1B1B1B1B1B1B1B1BF51B1B1B1B1B1B1B1B1B1B1B1B1B1B1BF51B1B1B1B1B1B1B1B1B1B1BF5F5F5F5F5F5F5F5
310
F5F5F5F5F5F5F5F5F5F5F5F5F5F5F5F5F5F5F5F5F5F5F5F5F5F5F5F5F5F5F5F5F5F5F5F5F5F5F5F5F5F5F5F5F5F5F5F5F5F5F5F5F5F5F5F5F5F5F5F5F5F5F5F5F5F5F5F5F5F5F5F5F5F5F5F5BEF5F5F5F5E2F5F5EF28F5F5F5E2F5F5F5F5BEF5F5F5F5F5F5F5F5F5F5F5F5F5F5F5F51B1B1B1B1B1BF51B1B1B1B1B1B1B1B1B
310
1B1B1B1B1B1B1B1B1B1B1B1B1B1B1B1B1BF51B1B1B1B1B1B1B1BF51B1B1B1B1B1B1B1B1BF51B1B1B1B1B1B1B1BF5F5F5F5F5F5F5F5F5F5F5F5F5F5F5F5F5F5F5F5F5F5F5F5F5F5F5F5F5F5F5F5F5F5F5F5F5F5F5F5F5F5F5F5F5F5F5F5F5F5F5F5F5F5F5F5F5F5F5F5F5F5F5F5F5F5F5F5F5F5F5F5F5F5F5F5F5F5F5F5F5F5
310
F5F5BEF5F5F5F5E2F5F5EF28F5F5F5E2F5F5F5F5BEF5F5F5F5F5F5F5F5F5F5F5F5F5F5F5F51B1B1B1B1B1B1B1B1B1B1B1B1B1B1B1B1B1B1B1BF5F5F51B1B1B1B1B1B1B1B1B1B1B1B1B1B1B1B1BF5F5F5F5F5F5F5F5F5F5F5F5F5F5F5F5F5F5F5F5F5F5F5F5F5F5F5F5F5F5F5F5F5F5F5F5F5F5F5F5F5F5F5F5F5F5F5F5F5F5
310
F5F5F5F5F5F5F5F5F5F5F5F5F5F5F5F5F5F5F5F5F5F5F5F5F5F5F5F5F5F5F5F5F5F5F5F5F5F5F5F5F5F5F5F5F5F5F5F5F5F5F5F5F5F5F5BEF5F5F5F5E2F5F5EF28F5F5F5E2F5F5F5F5BEF5F5F5F5F5F5F5F5F5F5F5F5F51B1BF51B1B1B1B1B1B1B1B1BF51B1B1B1B1B1B1B1B1B1B1B1BF51B1B1B1B1BF5F51BF51B1B1B1B1B
310
1B1B1BF5F5F5F5F5F5F5F5F5F5F5F5F5F5F5F5F5F5F5F5F5F5F5F5F5F5F5F5F5F5F5F5F5F5F5F5F5F5F5F5F5F5F5F5F5F5F5F5F5F5F5F5F5F5F5F5F5F5F5F5F5F5F5F5F5F5F5F5F5F5F5F5F5F5F5F5F5F5F5F5F5F5F5F5F5F5F5F5F5F5F5F5F5F5F5F5F5F5F5F5F5F5F5F5F5BEF5F5F5F5E2F5F5EF28F5F5F5E2F5F5F5F5BF
310
F5F5F5F5F5F5F5F5F5F5F5F5F5F5F5F51B1B1B1B1B1B1B1BF51B1B1B1B1B1B1B1B1B1B1BF5F5F51B1B1B1B1B1B1B1B1B1B1B1B1B1B1B1B1BF5F5F5F5F5F5F5F5F5F5F5F5F5F5F5F5F5F5F5F5F5F5F5F5F5F5F5F5F5F5F5F5F5F5F5F5F5F5F5F5F5F5F5F5F5F5F5F5F5F5F5F5F5F5F5F5F5F5F5F5F5F5F5F5F5F5F5F5F5F5F5
310
F5F5F5F5F5F5F5F5F5F5F5F5F5F5F5F5F5F5F5F5F5F5F5F5F5F5F5F5F5F5F5F5F5F5BFF5F5F5F5E2F5F5EF28F5F5F5E2F5F5F5F5BEF5F5F5F5F5F5F5F5F5F5F5F5F51B1BF51B1B1B1B1B1B1BF51B1B1B1B1B1B1B1B1BF51B1B1B1B1B1B1B1B1B1B1B1BF5F5F5F5F5F5F5F5F5F5F5F5F5F5F5F5F5F5F5F5F5F5F5F5F5F5F5F5
310
F5F5F5F5F5F5F5F5F5F5F5F5F5F5F5F5F5F5F5F5F5F5F5F5F5F5F5F5F5F5F5F5F5F5F5F5F5F5F5F5F5F5F5F5F5F5F5F5F5F5F5F5F5F5F5F5F5F5F5F5F5F5F5F5F5F5F5F5F5F5F5F5F5F5F5F5F5F5F5F5F5F5F5F5F5F5F5BEF5F5F5F5E2F5F5EF28F5F5F5E2F5F5F5F5BEF5F5F5F5F5F5F5F5F5F5F5F5F5F5F5F51B1B1B1B1B
310
1B1BF51B1B1B1B1B1B1B1B1B1B1B1B1B1B1B1B1B1B1B1B1B1BF5F5F5F5F5F5F5F5F5F5F5F5F5F5F5F5F5F5F5F5F5F5F5F5F5F5F5F5F5F5F5F5F5F5F5F5F5F5F5F5F5F5F5F5F5F5F5F5F5F5F5F5F5F5F5F5F5F5F5F5F5F5F5F5F5F5F5F5F5F5F5F5F5F5F5F5F5F5F5F5F5F5F5F5F5F5F5F5F5F5F5F5F5F5F5F5F5F5F5F5F5F5
310
F5F5F5F5F5F5F5F5F5F5F5F5F5BEF5F5F5F5E2F5F5EF28F5F5F5E2F5F5F5F5BEF5F5F5F5F5F5F5F5F5F5F5F5F5F5F5F5F5F5F5F5F5F5F5F5F5F5F5F5F5F5F5F5F5F5F5F5F5F5F5F5F5F5F5F51BF5F5F5F5F5F5F5F5F5F5F5F5F5F5F5F5F5F5F5F5F5F5F5F5F5F5F5F5F5F5F5F5F5F5F5F5F5F5F5F5F5F5F5F5F5F5F5F5F5F5
310
F5F5F5F5F5F5F5F5F5F5F5F5F5F5F5F5F5F5F5F5F5F5F5F5F5F5F5F5F5F5F5F5F5F5F5F5F5F5F5F5F5F5F5F5F5F5F5F5F5F5F5F5F5F5F5F5F5F5F5F5F5F5F5F5F5F5BEF5F5F5F5E2F5F5EF28F5F5F5E2F5F5F5F5BEF5F5F5F5F5F5F5F5F5F5F5F5F5F5F5F5F5F5F5F5F5F5F5F5F5F5F5F5F5F5F5F5F5F5F5F5F5F5F5F5F5F5
310
F5F5F5F5F5F5F5F5F5F5F5F5F5F5F5F5F5F5F5F5F5F5F5F5F5F5F5F5F5F5F5F5F5F5F5F5F5F5F5F5F5F5F5F5F5F5F5F5F5F5F5F5F5F5F5F5F5F5F5F5F5F5F5F5F5F5F5F5F5F5F5F5F5F5F5F5F5F5F5F5F5F5F5F5F5F5F5F5F5F5F5F5F5F5F5F5F5F5F5F5F5F5F5F5F5F5F5F5F5F5F5F5F5F5F5F5F5F5F5BEF5F5F5F5E2F5F5
310
EF28F5F5F5E2F5F5F5F5BEF5F5F5F5F5F5F5F5F5F5F5F5F5F5F5F5F5F5F5F5F5F5F5F5F5F5F5F5F5F5F5F5F5F5F5F5F5F5F5F5F5F5F5F5F5F5F5F5F5F5F5F5F5F5F5F5F5F5F5F5F5F5F5F5F5F5F5F5F5F5F5F5F5F5F5F5F5F5F5F5F5F5F5F5F5F5F5F5F5F5F5F5F5F5F5F5F5F5F5F5F5F5F5F5F5F5F5F5F5F5F5F5F5F5F5F5
310
F5F5F5F5F5F5F5F5F5F5F5F5F5F5F5F5F5F5F5F5F5F5F5F5F5F5F5F5F5F5F5F5F5F5F5F5F5F5F5F5F5F5F5F5F5BEF5F5F5F5E2F5F5EF28F5F5F5E2F5F5F5F5F5F5F5F5F5F5F5F5F5F5F5F5F5F5F5F5F5F5F5F5F5F5F5F5F5F5F5F5F5F5F5F5F5F5F5F5F5F5F5F5F5F5F5F5F5F5F5F5F5F5F5F5F5F5F5F5F5F5F5F5F5F5F5F5
310
F5F5F5F5F5F5F5F5F5F5F5F5F5F5F5F5F5F5F5F5F5F5F5F5F5F5F5F5F5F5F5F5F5F5F5F5F5F5F5F5F5F5F5F5F5F5F5F5F5F5F5F5F5F5F5F5F5F5F5F5F5F5F5F5F5F5F5F5F5F5F5F5F5F5F5F5F5F5F5F5F5F5F5F5F5F5F5F5F5F5F5F5F5F5F5F5F5F5F5F5F5F5F5E2F5F5EF28F5F5F5E2F5F5F5F5BEF5F5F5F5F5F5F5F5F5F5
310
F5F5F5F5F5F5F5F5F5F5F5F5F5F5F5F5F5F5F5F5F5F5F5F5F5F5F5F5F5F5F5F5F5F5F5F5F5F5F5F5F5F5F5F5F5F5F5F5F5F5F5F5F5F5F5F5F5F5F5F5F5F5F5F5F5F5F5F5F5F5F5F5F5F5F5F5F5F5F5F5F5F5F5F5F5F5F5F5F5F5F5F5F5F5F5F5F5F5F5F5F5F5F5F5F5F5F5F5F5F5F5F5F5F5F5F5F5F5F5F5F5F5F5F5F5F5F5
310
F5F5F5F5F5F5F5F5F5F5F5F5F5F5F5F5F5F5F5F5F5F5F5F5BEF5F5F5F5E2F5F5EF28F5F5F5F5F5F5F5F5BEF5F5F5F5F5F5F5F5F5F5F5F5F5F5F5F5F5F5F5F5F5F5F5F5F5F5F5F5F5F5F5F5F5F5F5F5F5F5F5F5F5F5F5F5F5F5F5F5F5F5F5F5F5F5F5F5F5F5F5F5F5F5F5F5F5F5F5F5F5F5F5F5F5F5F5F5F5F5F5F5F5F5F5F5
310
F5F5F5F5F5F5F5F5F5F5F5F5F5F5F5F5F5F5F5F5F5F5F5F5F5F5F5F5F5F5F5F5F5F5F5F5F5F5F5F5F5F5F5F5F5F5F5F5F5F5F5F5F5F5F5F5F5F5F5F5F5F5F5F5F5F5F5F5F5F5F5F5F5F5F5F5F5BEF5F5F5F5F5F5F5EF28F5F5F5F5F5F5F5F5BEF5F5F5F5F5F5F5F5F5F5F5F5F5F5F5F5F5F5F5F5F5F5F5F5F5F5F5F5F5F5F5
310
F5F5F5F5F5F5F5F5F5F5F5F5F5F5F5F5F5F5F5F5F5F5F5F5F5F5F5F5F5F5F5F5F5F5F5F5F5F5F5F5F5F5F5F5F5F5F5F5F5F5F5F5F5F5F5F5F5F5F5F5F5F5F5F5F5F5F5F5F5F5F5F5F5F5F5F5F5F5F5F5F5F5F5F5F5F5F5F5F5F5F5F5F5F5F5F5F5F5F5F5F5F5F5F5F5F5F5F5F5F5F5F5F5F5F5F5F5F5F5F5F5F5F5F5F5F5F5
310
F5F5F5BEF5F5F5F5F5F5F5EF28F5F5F5F5F5F5F5F5BEF5F5F5F5F5F5F5F5F5F5F5F5F5F5F5F5F5F5F5F5F5F5F5F5F5F5F5F5F5F5F5F5F5F5F5F5F5F5F5F5F5F5F5F5F5F5F5F5F5F5F5F5F5F5F5F5F5F5F5F5F5F5F5F5F5F5F5F5F5F5F5F5F5F5F5F5F5F5F5F5F5F5F5F5F5F5F5F5F5F5F5F5F5F5F5F5F5F5F5F5F5F5F5F5F5
310
F5F5F5F5F5F5F5F5F5F5F5F5F5F5F5F5F5F5F5F5F5F5F5F5F5F5F5F5F5F5F5F5F5F5F5F5F5F5F5F5F5F5F5F5F5F5F5F5F5F5F5F5F5F5F5F5BEF5F5F5F5F5F5F5EF28F5F5F5F5F5F5F5F5BEF5F5F5F5F5F5F5F5F5F5F5F5F5F5F5F5F5F5F5F5F5F5F5F5F5F5F5F5F5F5F5F5F5F5F5F5F5F5F5F5F5F5F5F5F5F5F5F5F5F5F5F5
310
F5F5F5F5F5F5F5F5F5F5F5F5F5F5F5F5F5F5F5F5F5F5F5F5F5F5F5F5F5F5F5F5F5F5F5F5F5F5F5F5F5F5F5F5F5F5F5F5F5F5F5F5F5F5F5F5F5F5F5F5F5F5F5F5F5F5F5F5F5F5F5F5F5F5F5F5F5F5F5F5F5F5F5F5F5F5F5F5F5F5F5F5F5F5F5F5F5F5F5F5F5F5F5F5F5F5F5F5F5BEF5F5F5F5F5F5F5EF28F5F5F5F5F5F5F5F5
310
F5F5F5F5F5F5F5F5F5F5F5F5F5F5F5F5F5F5F5F5F5F5F5F5F5F5F5F5F5F5F5F5F5F5F5F5F5F5F5F5F5F5F5F5F5F5F5F5F5F5F5F5F5F5F5F5F5F5F5F5F5F5F5F5F5F5F5F5F5F5F5F5F5F5F5F5F5F5F5F5F5F5F5F5F5F5F5F5F5F5F5F5F5F5F5F5F5F5F5F5F5F5F5F5F5F5F5F5F5F5F5F5F5F5F5F5F5F5F5F5F5F5F5F5F5F5F5
310
F5F5F5F5F5F5F5F5F5F5F5F5F5F5F5F5F5F5F5F5F5F5F5F5F5F5F5F5F5F5F5F5F5F5F5F5F5F5F5F5F5F5F5EF28F5F5F5F5F5F5F5F5BFF5F5F5F5F5F5F5F5F5F5F5F5F5F5F5F5F5F5F5F5F5F5F5F5F5F5F5F5F5F5F5F5F5F5F5F5F5F5F5F5F5F5F5F5F5F5F5F5F5F5F5F5F5F5F5F5F5F5F5F5F5F5F5F5F5F5F5F5F5F5F5F5F5
310
F5F5F5F5F5F5F5F5F5F5F5F5F5F5F5F5F5F5F5F5F5F5F5F5F5F5F5F5F5F5F5F5F5F5F5F5F5F5F5F5F5F5F5F5F5F5F5F5F5F5F5F5F5F5F5F5F5F5F5F5F5F5F5F5F5F5F5F5F5F5F5F5F5F5F5F5F5F5F5F5F5F5F5F5F5F5F5F5BFF5F5F5F5F5F5F5EF28F5F5F5F5F5F5F5F5BEF5F5F5F5F5F5F5F5F5F5F5F5F5F5F5F5F5F5F5F5
310
F5F5F5F5F5F5F5F5F5F5F5F5F5F5F5F5F5F5F5F5F5F5F5F5F5F5F5F5F5F5F5F5F5F5F5F5F5F5F5F5F5F5F5F5F5F5F5F5F5F5F5F5F5F5F5F5F5F5F5F5F5F5F5F5F5F5F5F5F5F5F5F5F5F5F5F5F5F5F5F5F5F5F5F5F5F5F5F5F5F5F5F5F5F5F5F5F5F5F5F5F5F5F5F5F5F5F5F5F5F5F5F5F5F5F5F5F5F5F5F5F5F5F5F5F5F5F5
310
F5F5F5F5F5F5F5F5F5F5F5F5F5F5BEF5F5F5F5F5F5F5EF28F5F5F5F5F5F5F5F5BEF5F5F5F5F5F5F5F5F5F5F5F5F5F5F5F5F5F5F5F5F5F5F5F5F5F5F5F5F5F5F5F5F5F5F5F5F5F5F5F5F5F5F5F5F5F5F5F5F5F5F5F5F5F5F5F5F5F5F5F5F5F5F5F5F5F5F5F5F5F5F5F5F5F5F5F5F5F5F5F5F5F5F5F5F5F5F5F5F5F5F5F5F5F5
310
F5F5F5F5F5F5F5F5F5F5F5F5F5F5F5F5F5F5F5F5F5F5F5F5F5F5F5F5F5F5F5F5F5F5F5F5F5F5F5F5F5F5F5F5F5F5F5F5F5F5F5F5F5F5F5F5F5F5F5F5F5F5F5F5F5F5F5BEF5F5F5F5F5F5F5EF28F5F5F5F5F5F5F5F5BEF5F5F5F5F5F5F5F5F5F5F5F5F5F5F5F5F5F5F5F5F5F5F5F5F5F5F5F5F5F5F5F5F5F5F5F5F5F5F5F5F5
310
F5F5F5F5F5F5F5F5F5F5F5F5F5F5F5F5F5F5F5F5F5F5F5F5F5F5F5F5F5F5F5F5F5F5F5F5F5F5F5F5F5F5F5F5F5F5F5F5F5F5F5F5F5F5F5F5F5F5F5F5F5F5F5F5F5F5F5F5F5F5F5F5F5F5F5F5F5F5F5F5F5F5F5F5F5F5F5F5F5F5F5F5F5F5F5F5F5F5F5F5F5F5F5F5F5F5F5F5F5F5F5F5F5F5F5F5F5F5F5F5BEF5F5F5F5F5F5
310
F5EF28F5F5F5E2F5F5F5F5BEF5F5F5F5F5F5F5F5F5F5F5F5F5F5F5F5F5F5F5F5F5F5F5F5F5F5F5F5F5F5F5F5F5F5F5F5F5F5F5F5F5F5F5F5F5F5F5F5F5F5F5F5F5F5F5F5F5F5F5F5F5F5F5F5F5F5F5F5F5F5F5F5F5F5F5F5F5F5F5F5F5F5F5F5F5F5F5F5F5F5F5F5F5F5F5F5F5F5F5F5F5F5F5F5F5F5F5F5F5F5F5F5F5F5F5
310
F5F5F5F5F5F5F5F5F5F5F5F5F5F5F5F5F5F5F5F5F5F5F5F5F5F5F5F5F5F5F5F5F5F5F5F5F5F5F5F5F5F5F5F5F5F5BEF5F5F5F5E2F5F5EF28F5F5F5E2F5F5F5F5BEF5F5F5F5F5F5F5F5F5F5F5F5F5F5F5F5F5F5F5F5F5F5F5F5F5F5F5F5F5F5F5F5F5F5F5F5F5F5F5F5F5F5F5F5F5F5F5F5F5F5F5F5F5F5F5F5F5F5F5F5F5F5
310
F5F5F5F5F5F5F5F5F5F5F5F5F5F5F5F5F553535353537853535353535353535353785353535353535378535353535353537853535353535353535353535353535353535353F5F5F5F5F5F5F5F5F5F5F5F5F5F5F5F5F5F5F5F5F5F5F5F5F5F5F5F5F5F5BEF5F5F5F5E2F5F5EF28F5F5F5E2F5F5F5F5F5F5F5F5F5F5F5F5F5F5
310
F5F5F5F5F5F5F5F5F5F5F5F5F5F5F5F5F5F5F5F5F5F5F5F5F5F5F5F5F5F5F5F5F5F5F5F5F5F5F5F5F5F5F5F5F5F5F5F5F5F5F5F5F5F5F5F5F5F5F5F5F5F5F5F5F5F5F5F5F5F553F5F5F5F578F5F5F5F5F5F5F5F5F5F578F5F5F5F5F5F5F578F5F5F5F5F5F5F578F5F5F5F5F5F5636363636363F5F5F5F5F5F553F5F5F5F5F5
310
F5F5F5F5F5F5F5F5F5F5F5F5F5F5F5F5F5F5F5F5F5F5F5F5F5F5F5F5F5F5E2F5F5EF28F5F5F5E2F5F5F5F5BEF5F5F5F5F5F5F5F5F5F5F5F5F5F5F5F5F5F5F5F5F5F5F5F5F5F5F5F5F5F5F5F5F5F5F5F5F5F5F5F5F5F5F5F5F5F5F5F5F5F5F5F5F5F5F5F5F5F5F5F5F5F5F5F5F5F5F5F5F5F5F5F5F5F5F5F5F5F5F553F5F5F5
310
F578F5F5F5F5F5F5F5F5F5F578F5F5F5F5F5F5F578F5F5F5F5F5F5F578F5F5F5F5F5F5636363636363F5F5F5F5F5F553F5F5F5F5F5F5F5F5F5F5F5F5F5F5F5F5F5F5F5F5F5F5F5F5F5F5F5F5F5F5BEF5F5F5F5E2F5F5EF28F5F5F5E2F5F5F5F5BEF5F5F5F5F5F5F5F5F5F5F5F5F5F5F5F5F5F5F5F5F5F5F5F5F5F5F5F5F5F5
310
F5F5F5F5F5F5F5F5F5F5F5F5F5F5F5F5F5F5F5F5F5F5F5F5F5F5F5F5F5F5F5F5F5F5F5F5F5F5F5F5F5F5F5F5F5F5F5F5F553F5F5F5F578F5F5F5F5F5F5F5F5F5F578F5F5F5F5F5F5F578F5F5F5F5F5F5F578F5F5F5F5F5F56363F5636363F5F5F5F5F5F553F5F5F5F5F5F5F5F5F5F5F5F5F5F5F5F5F5F5F5F5F5F5F5F5F5F5
310
F5F5F5F5BEF5F5F5F5E2F5F5EF28F5F5F5E2F5F5F5F5BEF5F5F5F5F5F5F5F5F5F5F5F5F5F5F5F5F5F5F5F5F5F5F5F5F5F5F5F5F5F5F5F5F5F5F5F5F5F5F5F5F5F5F5F5F5F5F5F5F5F5F5F5F5F5F5F5F5F5F5F5F5F5F5F5F5F5F5F5F5F5F5F5F5F5F5F5F5F5F553F5F563F578F5F5F5F563F5F5F5F5F578F5F5F5F5F5F5F578
310
F5F5F5F5F5F5F578F5F5F5F5F5F563F5F5636363F5F5F5F5F5F553F5F5F5F5F5F5F5F5F5F5F5F5F5F5F5F5F5F5F5F5F5F5F5F5F5F5F5F5F5F5BEF5F5F5F5E2F5F5EF28F5F5F5E2F5F5F5F5BEF5F5F5F5F5F5F5F5F5F5F5F5F5F5F5F5F5F5F5F5F5F5F5F5F5F5F5F5F5F5F5F5F5F5F5F5F5F5F5F5F5F5F5F5F5F5F5F5F5F5F5
310
F5F5F5F5F5F5F5F5F5F5F5F5F5F5F5F5F5F5F5F5F5F5F5F5F5F5F5F553F56363F578F5F56363F563636363F578F5F5636363F5F578F5F5636363F5F578F5F5F5F5F5F563F5F5F56363F5F5F5F5F5F553F5F5F5F5F5F5F5F5F5F5F5F5F5F5F5F5F5F5F5F5F5F5F5F5F5F5F5F5F5F5BEF5F5F5F5E2F5F5EF28F5F5F5E2F5F5F5
310
F5BEF5F5F5F5F5F5F5F5F5F5F5F5F5F5F5F5F5F5F5F5F5F5F5F5F5F5F5F5F5F5F5F5F5F5F5F5F5F5F5F5F5F5F5F5F5F5F5F5F5F5F5F5F5F5F5F5F5F5F5F5F5F5F5F5F5F5F5F5F5F5F5F5F5F5F5F5F5F5F553F5F563F578F5636363F563636363F578F5F5636363F5F578F5F5636363F5F578F5F5F5F5F5F56363F5F56363F5
310
F5F5F5F5F553F5F5F5F5F5F5F5F5F5F5F5F5F5F5F5F5F5F5F5F5F5F5F5F5F5F5F5F5F5F5BEF5F5F5F5E2F5F5EF28F5F5F5E2F5F5F5F5F5F5F5F5F5F5F5F5F5F5F5F5F5F5F5F5F5F5F5F5F5F5F5F5F5F5F5F5F5F5F5F5F5F5F5F5F5F5F5F5F5F5F5F5F5F5F5F5F5F5F5F5F5F5F5F5F5F5F5F5F5F5F5F5F5F5F5F5F5F5F5F5F5
310
F5F5F5F5F5F5F553F5F5F5F578F5F5F5F5F5F5F5F5F5F578F5F5F5F5F5F5F578F5F5F5F5F5F5F578F5F5F5F5F5F56363F5636363F5F5F5F5F5F553F5F5F5F5F5F5F5F5F5F5F5F5F5F5F5F5F5F5F5F5F5F5F5F5F5F5F5F5F5F5F5F5F5F5F5E2F5F5EF28F5F5F5E2F5F5F5F5BEF5F5F5F5F5F5F5F5F5F5F5F5F5F5F5F5F5F5F5
310
F5F5F5F5F5F5F5F5F5F5F5F5F5F5F5F5F5F5F5F5F5F5F5F5F5F5F5F5F5F5F5F5F5F5F5F5F5F5F5F5F5F5F5F5F5F5F5F5F5F5F5F5F5F5F5F5F5F5F5F553F5F5F5F578F5F5F5F5F5F5F5F5F5F578F5F5F5F5F5F5F578F5F5F5F5F5F5F578F5F5F5F5F5F563F563636363F5F5F5F5F5F553F5F5F5F5F5F5F5F5F5F5F5F5F5F5F5
310
F5F5F5F5F5F5F5F5F5F5F5F5F5F5F5BEF5F5F5F5E2F5F5EF28F5F5F5E2F5F5F5F5BEF5F5F5F5F5F5F5F5F5F5F5F5F5F5F5F5F5F5F5F5F5F5F5F5F5F5F5F5F5F5F5F5F5F5F5F5F5F5F5F5F5F5F5F5F5F5F5F5F5F5F5F5F5F5F5F5F5F5F5F5F5F5F5F5F5F5F5F5F5F5F5F5F5F5F5F5F5F5F553F5F5F5F578F5F5F5F5F5F5F5F5
310
F5F578F5F5F5F5F5F5F578F5F5F5F5F5F5F578F5F5F5F5F5F5636363636363F5F5F5F5F5F553F5F5F5F5F5F5F5F5F5F5F5F5F5F5F5F5F5F5F5F5F5F5F5F5F5F5F5F5F5F5BEF5F5F5F5E2F5F5EF28F5F5F5E2F5F5F5F5BEF5F5F5F5F5F5F5F55353535353785353535353535353535353537853535353535353785353535353
310
53537853535353535353535353535353535353535353535353F5F5F5F5F5F5F5F5F5F5F5F5F5F553F5F5F5F578F5F5F5F5F5F5F5F5F5F578F5F5F5F5F5F5F578F5F5F5F5F5F5F578F5F5F5F5F5F5F5F5F5F5F5F5F5F5F5F5F5F553F5F5F5F5F5F5F5F5F5F5F5F5F5F5F5F5F5F5F5F5F5F5F5F5F5F5F5F5F5F5BEF5F5F5F5E2
310
F5F5EF28F5F5F5E2F5F5F5F5BEF5F5F5F5F5F5F5F553F5F5F5F578F5F5F5F5F5F5F5F5F5F5F5F578F5F5F5F5F5F5F578F5F5F5F5F5F5F578F5F5F5F5F5636363636363636363636363F5F5F5F553F5F5F5F5F5F5F5F5F5F5F5F5F5F57878787878787878787878787878787878787878787878787878787878787878787878
310
7878787878787878787878787878787878F5F5F5F5F5F5F5F5F5F5F5F5F5F5F5F5F5F5F5F5F5F5F5F5F5F5F5F5F5F5BEF5F5F5F5E2F5F5EF28F5F5F5E2F5F5F5F5BEF5F5F5F5F5F5F5F553F5F5F5F578F5F5F5F5F5F5F5F5F5F5F5F578F5F5F5F5F5F5F578F5F5F5F5F5F5F578F5F5F5F5F5636363636363636363636363F5
310
F5F5F553F5F5F5F5F5F5F5F5F5F5F5F5F5F553F5F5F5F578F5F5F5F5F5F5F5F5F5F578F5F5F5ABF5F5F578F5F5F5ABF5F5F578F5F5F5F5F5F5F5F5F5F5F5F5F5F5F5F5F5F553F5F5F5F5F5F5F5F5F5F5F5F5F5F5F5F5F5F5F5F5F5F5F5F5F5F5F5F5F5F5BEF5F5F5F5E2F5F5EF28F5F5F5E2F5F5F5F5BEF5F5F5F5F5F5F5F5
310
53F5F5F5F578F5F5F5F5F5F5F5F5F5F5F5F578F5F5F5F5F5F5F578F5F5F5F5F5F5F578F5F5F5F5F56363F5F5F56363F5F5636363F5F5F5F553F5F5F5F5F5F5F5F5F5F5F5F5F5F553F5F5F5F578F5F5F5F5F5F5F5F5F5F578F5F5F5ABF5F5F578F5F5F5ABF5F5F578F5F5F5F5F5F5F5F5F5F5F5F5F5F5F5F5F5F553F5F5F5F5
310
F5F5F5F5F5F5F5F5F5F5F5F5F5F5F5F5F5F5F5F5F5F5F5F5F5F5BEF5F5F5F5E2F5F5EF28F5F5F5E2F5F5F5F5F5F5F5F5F5F5F5F5F553F5F5F5F578F5F5F5F5F5F5F5F5F5F5F5F578F5F5F5F5F5F5F578F5F5F5F5F5F5F578F5F5F5F5F563F56363F563636363636363F5F5F5F553F5F5F5F5F5F5F5F5F5F5F5F5F5F553F5F5
310
F5F578F5F5F5ABF5F5F5F5F5F57878787878787878787878787878787878F5F5F5F5F5F5F5F5F5F5F5F5F5F5F5F5F5F553F5F5F5F5F5F5F5F5F5F5F5F5F5F5F5F5F5F5F5F5F5F5F5F5F5F5F5F5F5F5F5F5F5F5F5E2F5F5EF28F5F5F5F5F5F5F5F5BEF5F5F5F5F5F5F5F553F5F5F5F578F5F5F5F5F5F5F5F5F5F5F5F578F5F5
310
F5F5F5F5F578F5F5F5F5F5F5F578F5F5F5F5F563F5F5F5636363F5F5636363F5F5F5F553F5F5F5F5F5F5F5F5F5F5F5F5F5F553ABABABAB78F5F5ABABABABABABF5F578F5F5ABABABABABABABABABABABF5F578F5F5F5F5F5ABABABABABABABABF5F5F5F5F553F5F5F5F5F5F5F5F5F5F5F5F5F5F5F5F5F5F5F5F5F5F5F5F5F5
310
F5F5F5F5F5BEF5F5F5F5F5F5F5EF28F5F5F5F5F5F5F5F5BEF5F5F5F5F5F5F5F553F5F563F578F5F563636363F5636363F5F578F5F5636363F5F578F5F5636363F5F578F5F5F5F5F563F5F5F5636363F5F5636363F5F5F5F553F5F5F5F5F5F5F5F5F5F5F5F5F5F553ABABABAB78F5F5ABABABABABABF5F578F5F5ABABABABAB
310
F5ABABABABABF5F578F5F5F5F5F5ABABABABABABABABF5F5F5F5F553F5F5F5F5F5F5F5F5F5F5F5F5F5F5F5F5F5F5F5F5F5F5F5F5F5F5F5F5F5F5BEF5F5F5F5F5F5F5EF28F5F5F5F5F5F5F5F5BEF5F5F5F5F5F5F5F553F5F563F578F5F56363636363636363F5F578F5F563636363F578F5F563636363F578F5F5F5F5F563F5
310
F5636363636363636363F5F5F5F553F5F5F5F5F5F5F5F5F5F5F5F5F5F553F5F5F5F578F5F5F5F5F5F5F5F5F5F578F5F5F5F5ABABABABABABF5F5F5F5F578F5F5F5F5F5F5F5F5F5F5F5F5F5F5F5F5F5F553F5F5F5F5F5F5F5F5F5F5F5F5F5F5F5F5F5F5F5F5F5F5F5F5F5F5F5F5F5F5BEF5F5F5F5F5F5F5EF28F5F5F5F5F5F5
310
F5F5BEF5F5F5F5F5F5F5F553F56363F578F5F56363636363636363F5F578F5F563636363F578F5F563636363F578F5F5F5F5F563F56363F563F56363F56363F5F5F5F553F5F5F5F5F5F5F5F5F5F5F5F5F5F553F5F5F5F578F5F5F5F5F5F5F5F5F5F578F5F5F5F5ABABABABABABABF5F5F5F578F5F5F5F5F5F5F5F5F5F5F5F5
310
F5F5F5F5F5F553F5F5F5F5F5F5F5F5F5F5F5F5F5F5F5F5F5F5F5F5F5F5F5F5F5F5F5F5F5F5BEF5F5F5F5F5F5F5EF28F5F5F5F5F5F5F5F5BEF5F5F5F5F5F5F5F553F5F5F5F578F5F5F5F5F5F5F5F5F5F5F5F578F5F5F5F5F5F5F578F5F5F5F5F5F5F578F5F5F5F5F5636363F5F563F56363636363F5F5F5F553F5F5F5F5F5F5
310
F5F5F5F5F5F5F5F578787878787878787878787878787878787878787878787878AB7878787878787878787878787878787878787878787878787878F5F5F5F5F5F5F5F5F5F5F5F5F5F5F5F5F5F5F5F5F5F5F5F5F5F5F5F5F5F5BEF5F5F5F5F5F5F5EF28F5F5F5F5F5F5F5F5F5F5F5F5F5F5F5F5F553F5F5F5F578F5F5F5F5
310
F5F5F5F5F5F5F5F578F5F5F5F5F5F5F578F5F5F5F5F5F5F578F5F5F5F5F5636363636363636363636363F5F5F5F553F5F5F5F5F5F5F5F5F5F5F5F5F5F553F5F5F584848484848484848484848484848484F5F5F5F5F5F5F5F5F5F5F5F5F5F5F5F5F5F5848484848484F5F5F5F5F5F5F553F5F5F5F5F5F5F5F5F5F5F5F5F5F5
310
F5F5F5F5F5F5F5F5F5F5F5F5F5F5F5F5F5F5F5F5F5F5F5F5EF28F5F5F5F5F5F5F5F5BEF5F5F5F5F5F5F5F553F5F5F5F578F5F5F5F5F5F5F5F5F5F5F5F578F5F5F5F5F5F5F578F5F5F5F5F5F5F578F5F5F5F5F5F5F5F5F5F5F5F5F5F5F5F5F5F5F5F5F553F5F5F5F5F5F5F5F5F5F5F5F5F5F553F5F5F5848484848484848484
310
84848484848484F5F5F5F5F5F5F5F5F5F5F5F5F5F5F5F5F584848484848484F5F5F5F5F5F5F553F5F5F5F5F5F5F5F5F5F5F5F5F5F5F5F5F5F5F5F5F5F5F5F5F5F5F5F5F5F5BEF5F5F5F5F5F5F5EF28F5F5F5F5F5F5F5F5BEF5F5F5F5F5F5F5F553F5F5F5F578F5F5F5F5F5F5F5F5F5F5F5F578F5F5F5F5F5F5F578F5F5F5F5
310
F5F5F578F5F5F5F5F5F5F5F5F5F5F5F5F5F5F5F5F5F5F5F5F553F5F5F5F5F5F5F5F5F5F5F5F5F5F553535353848484848453848484538484848484845353535353535353535353535353535353848484848484848453535353535353F5F5F5F5F5F5F5F5F5F5F5F5F5F5F5F5F5F5F5F5F5F5F5F5F5F5F5F5F5F5BEF5F5F5F5
310
F5F5F5EF28F5F5F5F5F5F5F5F5BEF5F5F5F5F5F5F5F553F5F5F5F578F5F5F5F5F5F5F5F5F5F5F5F578F5F5F5F5F5F5F578F5F5F5F5F5F5F578F5F5F5F5F5F5F5F5F5F5F5F5F5F5F5F5F5F5F5F5F553F5F5F5F5F5F5F5F5F5F5F5F5F5F5F5F5F5F5F5F5F5F5F5F5F5F5F5F5F5F5F5F5F5F5F5F5F5F5F5F5F5F5F5F5F5F5F5F5
310
F5F5F5F5F5F5F5F5F5F5F5F5F5F5F5F5F5F5F5F5F5F5F5F5F5F5F5F5F5F5F5F5F5F5F5F5F5F5F5F5F5F5F5F5F5F5F5F5BEF5F5F5F5F5F5F5EF28F5F5F5E2F5F5F5F5BEF5F5F5F5F5F5F5F578787878787878787878787878787878787878787878787878787878787878787878787878787878787878787878787878787878
310
7878787878F5F5F5F5F5F5F5F5F5F5F5F5F5F5F5F5F5F5F5F5F5F5F5F5F5F5F5F5F5F5F5F5F5F5F5F5F5F5F5F5F5F5F5F5F5F5F5F5F5F5F5F5F5F5F5F5F5F5F5F5F5F5F5F5F5F5F5F5F5F5F5F5F5F5F5F5F5F5F5F5F5F5F5F5F5F5F5F5F5F5F5F5F5F5F5F5BEF5F5F5F5E2F5F5EF28F5F5F5E2F5F5F5F5BEF5F5F5F5F5F5F5
310
F553F5F5F5F578F5F5F5F5F5F5F5F5F5F5F5F578F5F5F5F5F5F5F578F5F5F5F5F5F5F578F5F5F5F5F5F5F5F5F5F5F5F5F5F5F5F5F5F5F5F5F553F5F5F5F5F5F5F5F5F5F5F5F5F5F5F5F5F5F5F5F5F5F5F5F5F5F5F5F5F5F5F5F5F5F5F5F5F5F5F5F5F5F5F5F5F5F5F5F5F5F5F5F5F5F5F5F5F5F5F5F5F5F5F5F5F5F5F5F5F5
310
F5F5F5F5F5F5F5F5F5F5F5F5F5F5F5F5F5F5F5F5F5F5F5F5F5F5F5BEF5F5F5F5E2F5F5EF28F5F5F5E2F5F5F5F5BEF5F5F5F5F5F5F5F553F5F5F5F578F5F5F5F5F5F5F5F5F5F5F5F578F5F5F5F5F5F5F578F5F5F5F5F5F5F578F5F5F5F5F563636363636363636363F5F5F5F5F5F553F5F5F5F5F5F5F5F5F5F5F5F5F5F5F5F5
310
F5F5F5F5F5F5F5F5F5F5F5F5F5F5F5F5F5F5F5F5F5F5F5F5F5F5F5F5F5F5F5F5F5F5F5F5F5F5F5F5F5F5F5F5F5F5F5F5F5F5F5F5F5F5F5F5F5F5F5F5F5F5F5F5F5F5F5F5F5F5F5F5F5F5F5F5F5F5F5F5BEF5F5F5F5E2F5F5EF28F5F5F5E2F5F5F5F5BFF5F5F5F5F5F5F5F553F5F5F5F578F5F5F5F5F5F5F5F5F5F5F5F578F5
310
F5F5F5F5F5F578F5F5F5F5F5F5F578F5F5F5F5F5636363F5F563F5636363F5F5F5F5F5F553F5F5F5F5F5F5F5F5F5F5F5F5F5F5F5F5F5F5F5F5F5F5F5F5F5F5F5F5F5F5F5F5F5F5F5F5F5F5F5F5F5F5F5F5F5F5F5F5F5F5F5F5F5F5F5F5F5F5F5F5F5F5F5F5F5F5F5F5F5F5F5F5F5F5F5F5F5F5F5F5F5F5F5F5F5F5F5F5F5F5
310
F5F5F5F5F5F5BFF5F5F5F5E2F5F5EF28F5F5F5E2F5F5F5F5BEF5F5F5F5F5F5F5F553F5F5F5F578F5F5F5F5F5F5F5F5F5F5F5F578F5F5F5F5F5F5F578F5F5F5F5F5F5F578F5F5F5F5F563636363F563F5636363F5F5F5F5F5F553F5F5F5F5F5F5F5F5F5F5F5F5F5F5F5F5F5F5F5F5F5F5F5F5F5F5F5F5F5F5F5F5F5F5F5F5F5
310
F5F5F5F5F5F5F5F5F5F5F5F5F5F5F5F5F5F5F5F5F5F5F5F5F5F5F5F5F5F5F5F5F5F5F5F5F5F5F5F5F5F5F5F5F5F5F5F5F5F5F5F5F5F5F5F5F5F5F5BEF5F5F5F5E2F5F5EF28F5F5F5E2F5F5F5F5BEF5F5F5F5F5F5F5F553F5F5F5F578F5F5F5F5F5F5F5F5F5F5F5F578F5F5F5F5F5F5F578F5F5F5F5F5F5F578F5F5F5F5F563
310
63F5F5636363F56363F5F5F5F5F5F553F5F5F5F5F5F5F5F5F5F5F5F5F5F5F5F5F5F5F5F5F5F5F5F5F5F5F5F5F5F5F5F5F5F5F5F5F5F5F5F5F5F5F5F5F5F5F5F5F5F5F5F5F5F5F5F5F5F5F5F5F5F5F5F5F5F5F5F5F5F5F5F5F5F5F5F5F5F5F5F5F5F5F5F5F5F5F5F5F5F5F5F5F5F5F5F5BEF5F5F5F5E2F5F5EF28F5F5F5E2F5
310
F5F5F5BEF5F5F5F5F5F5F5F553F5F5F5F578F5F5F5F5F5F5F5F5F5F5F5F578F5F5F5F5F5F5F578F5F5F5F5F5F5F578F5F5F5F5F56363F5F5636363F56363F5F5F5F5F5F553F5F5F5F5F5F5F5F5F5F5F5F5F5787878787878787878787878787878787878787878787878787878787878787878787878787878787878787878
310
787878787878787878787878787878F5F5F5F5F5F5F5F5F5F5F5F5F5F5F5F5F5F5F5F5F5F5F5BEF5F5F5F5E2F5F5EF28F5F5F5E2F5F5F5F5BEF5F5F5F5F5F5F5F553F5F563F578F5F563636363F5636363F5F578F5F563636363F578F5F563636363F578F5F5F5F5F56363F5F5636363F56363F5F5F5F5F5F553F5F5F5F5F5
310
F5F5F5F5F5F5F5F578F56363F578F563636363F563636363F578F5F5636363F5F578F5F563636363F5F578F5F5F5F5F5F5F5F57863636363636363636363636363636378F5F5F5F5F5F5F5F5F5F5F5F5F5F5F5F5F5F5F5F5F5F5F5BEF5F5F5F5E2F5F5EF28F5F5F5E2F5F5F5F5BEF5F5F5F5F5F5F5F553F56363F578F5F563
310
63636363636363F5F578F5F563636363F578F5F563636363F578F5F5F5F5F56363F56363636363F563F5F5F5F5F5F553F5F5F5F5F5F5F5F5F5F5F5F5F578F56363F578F5636363636363636363F578F5F563636363F578F5F563636363F5F578F5F5F56363F5F5F57863636363636363636363636363636378F5F5F5F5F5F5
310
F5F5F5F5F5F5F5F5F5F5F5F5F5F5F5F5F5BEF5F5F5F5E2F5F5EF28F5F5F5E2F5F5F5F5F5F5F5F5F5F5F5F5F553F5F563F578F5F5F5F5F5F563F5F5F5F5F578F5F5F5F5F5F5F578F5F5F5F5F5F5F578F5F5F5F5F5636363F5F56363636363F5F5F5F5F5F553F5F5F5F5F5F5F5F5F5F5F5F5F578787878787878787878787878
310
7878787878787878787878787878787878787878787878787878787878787878787878787878787878787878787878F5F5F5F5F5F5F5F5F5F5F5F5F5F5F5F5F5F5F5F5F5F5F5F5F5F5F5F5E2F5F5EF28F5F5F5E2F5F5F5F5BEF5F5F5F5F5F5F5F553F5F5F5F578F5F5F5F5F5F5F5F5F5F5F5F578F5F5F5F5F5F5F578F5F5F5
310
F5F5F5F578F5F5F5F5F563636363636363636363F5F5F5F5F5F553F5F5F5F5F5F5F5F5F5F5F5F5F578F5F563F578F563636363F5636363F5F578F5F5636363F5F578F5F563636363F5F578F5F563636363F5F578F5F5F5F5F5F5F5F5F5F5F5F5F5F5F578F5F5F5F5F5F5F5F5F5F5F5F5F5F5F5F5F5F5F5F5F5F5F5BEF5F5F5
310
F5E2F5F5EF28F5F5F5E2F5F5F5F5BEF5F5F5F5F5F5F5F553F5F5F5F578F5F5F5F5F5F5F5F5F5F5F5F578F5F5F5F5F5F5F578F5F5F5F5F5F5F578F5F5F5F5F563636363636363636363F5F5F5F5F5F553F5F5F5F5F5F5F5F5F5F5F5F5F578F56363F578F5636363636363636363F578F5F5636363F5F578F5F563636363F5F5
310
78F5F563636363F5F578F5F5F5F5F5F5F5F5F5F5F5F5F5F5F578F5F5F5F5F5F5F5F5F5F5F5F5F5F5F5F5F5F5F5F5F5F5F5BEF5F5F5F5E2F5F5EF28F5F5F5E2F5F5F5F5BEF5F5F5F5F5F5F5F553F5F5F5F578F5F5F5F5F5F5F5F5F5F5F5F578F5F5F5F5F5F5F578F5F5F5F5F5F5F578F5F5F5F5F5F5F5F5F5F5F5F5F5F5F5F5
310
F5F5F5F5F553F5F5F5F5F5F5F5F5F5F5F5F5F5787878787878787878787878787878787878787878787878787878787878787878787878787878787878787878787878787878787878787878787878F5F5F5F5F5F5F5F5F5F5F5F5F5F5F5F5F5F5F5F5F5F5F5BEF5F5F5F5E2F5F5EF28F5F5F5E2F5F5F5F5BEF5F5F5F5F5F5
310
F5F553F5F5F5F578F5F5F5F5F5F5F5F5F5F5F5F578F5F5F5F5F5F5F578F5F5F5F5F5F5F578F5F5F5F5F5F5F5F5F5F5F5F5F5F5F5F5F5F5F5F5F553F5F5F5F5F5F5F5F5F5F5F5F5F578F5F563F578F563636363F5636363F5F578F5F5636363F5F578F5F563636363F5F578F5636363636363F578F5F5F5F5F5F5F5F5F5F5F5
310
F5F5F5F578F5F5F5F5F5F5F5F5F5F5F5F5F5F5F5F5F5F5F5F5F5F5F5BEF5F5F5F5E2F5F5EF28F5F5F5E2F5F5F5F5BEF5F5F5F5F5F5F5F553F5F5F5F578F5F5F5F5F5F5F5F5F5F5F5F578F5F5F5F5F5F5F578F5F5F5F5F5F5F578F5F5F5F5F5F5F5F5F5F5F5F5F5F5F5F5F5F5F5F5F553F5F5F5F5F5F5F5F5F5F5F5F5F578F5
310
6363F578F5636363636363636363F578F5F5636363F5F578F5F563636363F5F578F5636363636363F578F5F5F5F5F5F5F5F5F5F5F5F5F5F5F578F5F5F5F5F5F5F5F5F5F5F5F5F5F5F5F5F5F5F5F5F5F5F5BEF5F5F5F5E2F5F5EF28F5F5F5F5F5F5F5F5F5F5F5F5F5F5F5F5F578787878787878787878787878787878787878
310
7878787878787878787878787878787878787878787878787878787878787878787878787878F5F5F5F5F5F5F5F5F5F5F5F5F5787878637878786363636363636363787878787863636378787878787863636378787878787878787878787878787878787878787878787878787878F5F5F5F5F5F5F5F5F5F5F5F5F5F5F5F5
310
F5F5F5F5F5F5F5F5F5F5F5F5F5F5F5EF28F5F5F5F5F5F5F5F5BFF5F5F5F5F5F5F5F553F5F5F5F578F5F5F5F5F5F5F5F5F5F5F5F578F5F5F5F5F5F5F578F5F5F5F5F5F5F578F5F5F5F5F563636363636363636363F5F5F5F5F5F553F5F5F5F5F5F5F5F5F5F5F5F5F578F5F5F5F578F5F5F5F5F5F5F5F5F5F5F578F5F5ABABAB
310
F5F578F5F5F5ABABABF5F578F5F5F5F5F5F5F5F578F5F5F5F5F5F5F5F5F5F5F5F5F5F5F578F5F5F5F5F5F5F5F5F5F5F5F5F5F5F5F5F5F5F5F5F5F5F5BFF5F5F5F5F5F5F5EF28F5F5F5F5F5F5F5F5BEF5F5F5F5F5F5F5F553F5F5F5F578F5F5F5F5F5F5F5F5F5F5F5F578F5F5F5F5F5F5F578F5F5F5F5F5F5F578F5F5F5F5F5
310
63636363636363636363F5F5F5F5F5F553F5F5F5F5F5F5F5F5F5F5F5F5F578F5F5F5F578F5F5F5F5F5F5F5F5F5F5F578F5F5ABABABF5F578F5F5F5ABABABF5F578F5F5F5F5F5F5F5F578F5F5F5F5F5F5F5F5F5F5F5F5F5F5F578F5F5F5F5F5F5F5F5F5F5F5F5F5F5F5F5F5F5F5F5F5F5F5BEF5F5F5F5F5F5F5EF28F5F5F5F5
310
F5F5F5F5BEF5F5F5F5F5F5F5F553F5F5F5F578F5F5F5F5F5F5F5F5F5F5F5F578F5F5F5F5F5F5F578F5F5F5F5F5F5F578F5F5F5F5F563636363F56363F56363F5F5F5F5F5F553F5F5F5F5F5F5F5F5F5F5F5F5F578F5F5F5F578F5F5F5ABF5F5F5F5F5F5F5787878ABAB78787878787878ABAB78787878F5F5F5ABABF5F5F578
310
F5F5F5F5F5F5F5F5ABABF5F5F5F5F578F5F5F5F5F5F5F5F5F5F5F5F5F5F5F5F5F5F5F5F5F5F5F5BEF5F5F5F5F5F5F5EF28F5F5F5F5F5F5F5F5BEF5F5F5F5F5F5F5F553F5F5F5F578F5F5F5F5F5F5F5F5F5F5F5F578F5F5F5F5F5F5F578F5F5F5F5F5F5F578F5F5F5F5F56363F563636363F56363F5F5F5F5F5F553F5F5F5F5
310
F5F5F5F5F5F5F5F5F578ABABABAB78F5F5ABABABABABABABF5F578F5ABF5ABABABABABABF5ABABABABABF578ABABABABABABABAB78F5F5F5F5F5ABABABABABF5F5F5F5F578F5F5F5F5F5F5F5F5F5F5F5F5F5F5F5F5F5F5F5F5F5F5F5BEF5F5F5F5F5F5F5EF28F5F5F5F5F5F5F5F5BEF5F5F5F5F5F5F5F553F5F5F5F578F5F5
310
F5F5F5F5F5F5F5F5F5F578F5F5F5F5F5F5F578F5F5F5F5F5F5F578F5F5F5F5F56363F5F5636363F56363F5F5F5F5F5F553F5F5F5F5F5F5F5F5F5F5F5F5F578ABABABAB78F5F5ABABABABABABABF5F578F5ABABABABABABABABF5ABABABABABF578ABABABABABABABAB78F5F5F5F5F5ABABABABABF5F5F5F5F578F5F5F5F5F5
310
F5F5F5F5F5F5F5F5F5F5F5F5F5F5F5F5F5F5BEF5F5F5F5F5F5F5EF28F5F5F5F5F5F5F5F5BEF5F5F5F5F5F5F5F553F56363F578F5F5F5F5F563F5F5F5F5F5F578F5F5F5F5F5F5F578F5F5F5F5F5F5F578F5F5F5F5F56363F563636363636363F5F5F5F5F5F553F5F5F5F5F5F5F5F5F5F5F5F5F578F5F5F5F578F5F5F5F5F5F5
310
F5F5F5F5F578F5F5F5F5ABABABABABABABF5F5F5F5F578F5F5F5F5F5F5F5F578F5F5F5F5F5F5F5F5F5F5F5F5F5F5F578F5F5F5F5F5F5F5F5F5F5F5F5F5F5F5F5F5F5F5F5F5F5F5BEF5F5F5F5F5F5F5EF28F5F5F5F5F5F5F5F5F5F5F5F5F5F5F5F5F553F5F563F578F5F56363636363636363F5F578F5F563636363F578F5F5
310
63636363F578F5F5F5F5F5636363F5F56363636363F5F5F5F5F5F553F5F5F5F5F5F5F5F5F5F5F5F5F578F5F5F5F578F5F5F5F5F5F5F5F5F5F5F578F5F5F5F5ABABABABABABABABF5F5F5F578F5F5F5F5F5F5F5F578F5F5F5F5F5F5F5F5F5F5F5F5F5F5F578F5F5F5F5F5F5F5F5F5F5F5F5F5F5F5F5F5F5F5F5F5F5F5F5F5F5
310
F5F5F5F5F5EF28F5F5F5F5F5F5F5F5BEF5F5F5F5F5F5F5F553F56363F578F5F56363636363636363F5F578F5F563636363F578F5F563636363F578F5F5F5F5F563636363636363636363F5F5F5F5F5F553F5F5F5F5F5F5F5F5F5F5F5F5F578F5F5F5F578F5F5F5F5F5F5F5F5F5F5F578F5F5F5F5F5F5F5F5ABF5F5F5F5F5F5
310
F578F5F5F5F5F5F5F5F578F5F5F5F5F5F5F5F5F5F5F5F5F5F5F578F5F5F5F5F5F5F5F5F5F5F5F5F5F5F5F5F5F5F5F5F5F5F5BEF5F5F5F5F5F5F5EF28F5F5F5E2F5F5F5F5BEF5F5F5F5F5F5F5F553F5F5F5F578F5F5F5F5F5F5F5F5F5F5F5F578F5F5F5F5F5F5F578F5F5F5F5F5F5F578F5F5F5F5F563636363636363636363
310
F5F5F5F5F5F553F5F5F5F5F5F5F5F5F5F5F5F5F5787878787878787878787878787878787878787878787878787878787878787878787878787878787878787878787878787878787878787878787878F5F5F5F5F5F5F5F5F5F5F5F5F5F5F5F5F5F5F5F5F5F5F5BEF5F5F5F5E2F5F5EF28F5F5F5E2F5F5F5F5BEF5F5F5F5F5
310
F5F5F553F5F5F5F578F5F5F5F5F5F5F5F5F5F5F5F578F5F5F5F5F5F5F578F5F5F5F5F5F5F578F5F5F5F5F5F5F5F5F5F5F5F5F5F5F5F5F5F5F5F5F553F5F5F5F5F5F5F5F5F5F5F5F5F578F5F5F5848484848484F58484848484848484848484F5F5F5F5F5F5F5F5F5F5F5F5F5F5F5F5F5F5F5F5F5F5F5F5F5F5F5F5F5F5F5F5
310
F5F5F5F5F578F5F5F5F5F5F5F5F5F5F5F5F5F5F5F5F5F5F5F5F5F5F5F5BEF5F5F5F5E2F5F5EF28F5F5F5E2F5F5F5F5BEF5F5F5F5F5F5F5F553F5F5F5F578F5F5F5F5F5F5F5F5F5F5F5F578F5F5F5F5F5F5F578F5F5F5F5F5F5F578F5F5F5F5F5F5F5F5F5F5F5F5F5F5F5F5F5F5F5F5F553F5F5F5F5F5F5F5F5F5F5F5F5F578
310
F5F5F5848484848484848484848484848484848484F5F5F5F5F5F5F5F5F5F5F5F5F5F5F5F5F5F5F5F5F5F5F5F5F5F5F5F5F5F5F5F5F5F5F5F5F578F5F5F5F5F5F5F5F5F5F5F5F5F5F5F5F5F5F5F5F5F5F5F5BEF5F5F5F5E2F5F5EF28F5F5F5E2F5F5F5F5BEF5F5F5F5F5F5F5F553F5F5F5F578F5F5F5F5F5F5F5F5F5F5F5F5
310
78F5F5F5F5F5F5F578F5F5F5F5F5F5F578F5F5F5F5F5F5F5F5F5F5F5F5F5F5F5F5F5F5F5F5F553F5F5F5F5F5F5F5F5F5F5F5F5F5787878787878787878787878787878787878787878787878787878787878787878787878787878787878787878787878787878787878787878787878F5F5F5F5F5F5F5F5F5F5F5F5F5F5F5
310
F5F5F5F5F5F5F5F5BEF5F5F5F5E2F5F5EF28F5F5F5E2F5F5F5F5F5F5F5F5F5F5F5F5F553F5F5F5F578F5F5F5F5F5F5F5F5F5F5F5F578F5F5F5F5F5F5F578F5F5F5F5F5F5F578F5F5F5F5F5F5F5F5F5F5F5F5F5F5F5F5F5F5F5F5F553F5F5F5F5F5F5F5F5F5F5F5F5F5F5F5F5F5F5F5F5F5F5F5F5F5F5F5F5F5F5F5F5F5F5F5
310
F5F5F5F5F5F5F5F5F5F5F5F5F5F5F5F5F5F5F5F5F5F5F5F5F5F5F5F5F5F5F5F5F5F5F5F5F5F5F5F5F5F5F5F5F5F5F5F5F5F5F5F5F5F5F5F5F5F5F5F5F5F5F5F5F5F5E2F5F5EF28F5F5F5E2F5F5F5F5BEF5F5F5F5F5F5F5F553F5F5F5F578F5F5F5F5F5F5F5F5F5F5F5F578F5F5F5F5F5F5F578F5F5F5F5F5F5F578F5F5F5F5
310
F5F5F5F5F5F5F5F5F5F5F5F5F5F5F5F5F553F5F5F5F5F5F5F5F5F5F5F5F5F5F5F5F5F5F5F5F5F5F5F5F5F5F5F5F5F5F5F5F5F5F5F5F5F5F5F5F5F5F5F5F5F5F5F5F5F5F5F5F5F5F5F5F5F5F5F5F5F5F5F5F5F5F5F5F5F5F5F5F5F5F5F5F5F5F5F5F5F5F5F5F5F5F5F5F5F5F5F5F5F5F5F5F5BEF5F5F5F5E2F5F5EF28F5F5F5
310
E2F5F5F5F5BEF5F5F5F5F5F5F5F5787878787878787878787878787878787878787878787878787878787878787878787878787878787878787878787878787878787878787878F5F5F5F5F5F5F5F5F5F5F5F5F5F5F5F5F5F5F5F5F5F5F5F5F5F5F5F5F5F5F5F5F5F5F5F5F5F5F5F5F5F5F5F5F5F5F5F5F5F5F5F5F5F5F5F5
310
F5F5F5F5F5F5F5F5F5F5F5F5F5F5F5F5F5F5F5F5F5F5F5F5F5F5F5F5F5F5F5F5F5F5F5F5F5F5F5F5BEF5F5F5F5E2F5F5EF28F5F5F5E2F5F5F5F5BEF5F5F5F5F5F5F5F553F5F5F5F578F5F5F5F5F5F5F5F5F5F5F5F578F5F5F5F5F5F5F578F5F5F5F5F5F5F578F5F5F5F5F5F5F5F5F5F5F5F5F5F5F5F5F5F5F5F5F553F5F5F5
310
F5F5F5F5F5F5F5F5F5F5F5F5F5F5F5F5F5F5F5F5F5F5F5F5F5F5F5F5F5F5F5F5F5F5F5F5F5F5F5F5F5F5F5F5F5F5F5F5F5F5F5F5F5F5F5F5F5F5F5F5F5F5F5F5F5F5F5F5F5F5F5F5F5F5F5F5F5F5F5F5F5F5F5F5F5F5F5F5F5F5F5F5F5BEF5F5F5F5E2F5F5EF28F5F5F5E2F5F5F5F5BEF5F5F5F5F5F5F5F553F5F5F5F578F5
310
F5F5F5F5F5F5F5F5F5F5F578F5F5F5F5F5F5F578F5F5F5F5F5F5F578F5F5F5F5F5F56363636363636363F5F5F5F5F5F5F553F5F5F5F5F5F5F5F5F5F5F5F5F5F5F5F5F5F5F5F5F5F5F5F5F5F5F5F5F5F5F5F5F5F5F5F5F5F5F5F5F5F5F5F5F5F5F5F5F5F5F5F5F5F5F5F5F5F5F5F5F5F5F5F5F5F5F5F5F5F5F5F5F5F5F5F5F5
310
F5F5F5F5F5F5F5F5F5F5F5F5F5F5F5F5F5F5F5BEF5F5F5F5E2F5F5EF28F5F5F5E2F5F5F5F5BEF5F5F5F5F5F5F5F553F5F5F5F578F5F5F5F5F5F5F5F5F5F5F5F578F5F5F5F5F5F5F578F5F5F5F5F5F5F578F5F5F5F5F5F56363636363636363F5F5F5F5F5F5F553F5F5F5F5F5F5F5F5F5F5F5F5F5F5F5F5F5F5F5F5F5F5F5F5
310
F5F5F5F5F5F5F5F5F5F5F5F5F5F5F5F5F5F5F5F5F5F5F5F5F5F5F5F5F5F5F5F5F5F5F5F5F5F5F5F5F5F5F5F5F5F5F5F5F5F5F5F5F5F5F5F5F5F5F5F5F5F5F5F5F5F5F5F5F5F5F5F5BEF5F5F5F5E2F5F5EF28F5F5F5E2F5F5F5F5BEF5F5F5F5F5F5F5F553F5F5F5F578F5F5F5F5F5F5F5F5F5F5F5F578F5F5F5F5F5F5F578F5
310
F5F5F5F5F5F578F5F5F5F5F5F5636363F5F5F56363F5F5F5F5F5F5F553F5F5F5F5F5F5F5F5F5F5F5F5F5F5F5F5F5F5F5F5F5F5F5F5F5F5F5F5F5F5F5F5F5F5F5F5F5F5F5F5F5F5F5F5F5F5F5F5F5F5F5F5F5F5F5F5F5F5F5F5F5F5F5F5F5F5F5F5F5F5F5F5F5F5F5F5F5F5F5F5F5F5F5F5F5F5F5F5F5F5F5F5F5F5F5F5BEF5
310
F5F5F5E2F5F5EF28F5F5F5E2F5F5F5F5BFF5F5F5F5F5F5F5F553F5F5F5F578F5F5F5F5F5F5F5F5F5F5F5F578F5F5F5F5F5F5F578F5F5F5F5F5F5F578F5F5F5F5F5F56363F563F5F56363F5F5F5F5F5F5F553F5F5F5F5F5F5F5F5F5F5F5F5F5F5F5F5F5F5F5F5F5F5F5F5F5F5F5F5F5F5F5F5F5F5F5F5F5F5F5F5F5F5F5F5F5
310
F5F5F5F5F5F5F5F5F5F5F5F5F5F5F5F5F5F5F5F5F5F5F5F5F5F5F5F5F5F5F5F5F5F5F5F5F5F5F5F5F5F5F5F5F5F5F5F5F5F5F5BFF5F5F5F5E2F5F5EF28F5F5F5E2F5F5F5F5BEF5F5F5F5F5F5F5F553F5F563F578F5F563636363F5636363F5F578F5F563636363F578F5F563636363F578F5F5F5F5F5F56363F5F563636363
310
F5F5F5F5F5F5F553F5F5F5F5F5F5F5F5F5F5F5F5F578786363787878787878787878787878787878787878787878787878787878787878787878787878787878787878787878787878787878787878787878787878787878787878787878787878F5F5F5F5F5F5F5BEF5F5F5F5E2F5F5EF28F5F5F5E2F5F5F5F5BEF5F5F5F5
310
F5F5F5F553F56363F578F5F56363636363636363F5F578F5F563636363F578F5F563F56363F578F5F5F5F5F5F563F563F5F5636363F5F5F5F5F5F5F553F5F5F5F5F5F5F5F5F5F5F5F5F578F56363F578F5F5F5F5F5F5F5F5F5F5F578F5F5F5F578F5F5F5F5F578F5F5F5F5F578F5F5F5F5F578F5F5F5F5F5F5F5F5F5F5F5F5
310
F578F5F5F5F5F5F578F5F5F5F5F5F5F5F5F5F5F5F5F578F5F5F5F5F5F5F5BEF5F5F5F5E2F5F5EF28F5F5F5E2F5F5F5F5BEF5F5F5F5F5F5F5F553F5F563F578F5F56363636363636363F5F578F5F563636363F578F5F563636363F578F5F5F5F5F5F563F563F5F5636363F5F5F5F5F5F5F553F5F5F5F5F5F5F5F5F5F5F5F5F5
310
78636363F578F5F5F5F5F5F5F5F5F5F5F578F5F5F5F578F5F5F5F5F578F5F5F5F5F578F5F5F5F5F578F5F5F5F5F5F5F5F5F5F5F5F5F578F5F5F5F5F5F578F5F5F5F5F5F5F5F5F5F5F5F5F578F5F5F5F5F5F5F5BEF5F5F5F5E2F5F5EF28F5F5F5E2F5F5F5F5BEF5F5F5F5F5F5F5F553F5F5F5F578F5F5F5F5F5F5F5F5F5F5F5
310
F578F5F5F5F5F5F5F578F5F5F5F5F5F5F578F5F5F5F5F5F563F563F563636363F5F5F5F5F5F5F553F5F5F5F5F5F5F5F5F5F5F5F5F57878787878787878787878787878787878787878787878787878787878787878787878787878787878787878787878787878787878787878787878787878787878787878787878787878
310
7878F5F5F5F5F5F5F5BEF5F5F5F5E2F5F5EF28F5F5F5F5F5F5F5F5BEF5F5F5F5F5F5F5F553F5F5F5F578F5F5F5F5F5F5F5F5F5F5F5F578F5F5F5F5F5F5F578F5F5F5F5F5F5F578F5F5F5F5F5F563F5636363F56363F5F5F5F5F5F5F553F5F5F5F5F5F5F5F5F5F5F5F5F578F563F5F578F56363636363636363F5F578636363
310
6378F56363636378F5636363F57863636363F5786363636363636363636363636378F5F5F5F5F5F578F5F5636363636363636363F5F578F5F5F5F5F5F5F5BEF5F5F5F5F5F5F5EF28F5F5F5F5F5F5F5F5F5F5F5F5F5F5F5F5F553F5F5F5F578F5F5F5F5F5F5F5F5F5F5F5F578F5F5F5F5F5F5F578F5F5F5F5F5F5F578F5F5F5
310
F5F5F56363636363F56363F5F5F5F5F5F5F553F5F5F5F5F5F5F5F5F5F5F5F5F578F563F5F578F56363636363636363F5F5786363636378F56363636378F5636363F57863636363F5786363636363636363636363636378F5F5F5F5F5F578F5F5F56363636363636363F5F578F5F5F5F5F5F5F5F5F5F5F5F5F5F5F5EF28F5F5
310
F5F5F5F5F5F5BEF5F5F5F5F5F5F5F553F5F5F5F578F5F5F5F5F5F5F5F5F5F5F5F578F5F5F5F5F5F5F578F5F5F5F5F5F5F578F5F5F5F5F5F56363636363636363F5F5F5F5F5F5F553F5F5F5F5F5F5F5F5F5F5F5F5F5787878787878787878787878787878787878787878787878787878787878787878787878787878787878
310
78787878787878787878787878787878787878787878787878787878787878787878F5F5F5F5F5F5F5BEF5F5F5F5F5F5F5EF28F5F5F5F5F5F5F5F5BEF5F5F5F5F5F5F5F553F5F5F5F578F5F5F5F5F5F5F5F5F5F5F5F578F5F5F5F5F5F5F578F5F5F5F5F5F5F578F5F5F5F5F5F56363636363636363F5F5F5F5F5F5F553F5F5
310
F5F5F5F5F5F5F5F5F5F5F578F563F5F578F56363636363636363F5F5786363636378F56363636378F5636363F57863636363F578F5F5F5F56363636363F5F5F5F578F5F5F5F5F5F578F5F5636363636363636363F5F578F5F5F5F5F5F5F5BEF5F5F5F5F5F5F5EF28F5F5F5F5F5F5F5F5BEF5F5F5F5F5F5F5F5787878787878
310
787878787878787878787878787878787878787878787878787878787878787878787878787878787878787878787878787878F5F5F5F5F5F5F5F5F5F5F5F5F578F563F5F578F56363636363636363F5F5786363636378F56363636378F5636363F57863636363F578F5F5F5F56363636363F5F5F5F578F5F5F5F5F5F578F5
310
F5F56363636363636363F5F578F5F5F5F5F5F5F5BEF5F5F5F5F5F5F5EF28F5F5F5F5F5F5F5F5BEF5F5F5F5F5F5F5F553F5F5F5F578F5F5F5F5F5F5F5F5F5F5F5F578F5F5F5F5F5F5F578F5F5F5F5F5F5F578F5F5F5F5F5F5636363636363636363F5F5F5F5F5F553F5F5F5F5F5F5F5F5F5F5F5F5F578787878787878787878
310
787878787878787878787878787878787878787878787878787878787878787878787878787878787878787878787878787878787878787878787878787878787878F5F5F5F5F5F5F5BEF5F5F5F5F5F5F5EF28F5F5F5F5F5F5F5F5BEF5F5F5F5F5F5F5F553F5F5F5F578F5F5F5F5F5F5F5F5F5F5F5F578F5F5F5F5F5F5F578
310
F5F5F5F5F5F5F578F5F5F5F5F5F5636363636363636363F5F5F5F5F5F553F5F5F5F5F5F5F5F5F5F5F5F5F578F563F5F578F5F56363F563636363F5F578F56363F578F56363636378F5636363F57863636363F578F5F5F5F56363636363F5F5F5F578F5F5F5F5F5F578F5F5F5F5F5F5F5F5F5F5F5F5F578F5F5F5F5F5F5F5BE
310
F5F5F5F5F5F5F5EF28F5F5F5F5F5F5F5F5F5F5F5F5F5F5F5F5F553F5F5F5F578F5F5F5F5F5F5F5F5F5F5F5F578F5F5F5F5F5F5F578F5F5F5F5F5F5F578F5F5F5F5F5F56363F5F5F5F5636363F5F5F5F5F5F553F5F5F5F5F5F5F5F5F5F5F5F5F578F563F5F578F5F56363F563636363F5F578F56363F578F56363636378F563
310
6363F57863636363F578F5F5F5F563636363F5F5F5F5F578F5F5F5F5F5F578F5F5F5F5F5F5F5F5F5F5F5F5F578F5F5F5F5F5F5F5F5F5F5F5F5F5F5F5EF28F5F5F5F5F5F5F5F5BFF5F5F5F5F5F5F5F553F5F5F5F578F5F5F5F5F5F5F5F5F5F5F5F578F5F5F5F5F5F5F578F5F5F5F5F5F5F578F5F5F5F5F5F563636363F56363
310
6363F5F5F5F5F5F553F5F5F5F5F5F5F5F5F5F5F5F5F578787878787878787878787878787878787878787878787878787878787878787878787878787878787878787878787878787878787878787878787878787878787878787878787878787878F5F5F5F5F5F5F5BFF5F5F5F5F5F5F5EF28F5F5F5E2F5F5F5F5BEF5F5F5
310
F5F5F5F5F553F5F5F5F578F5F5F5F5F5F5F5F5F5F5F5F578F5F5F5F5F5F5F578F5F5F5F5F5F5F578F5F5F5F5F5F56363F5636363F56363F5F5F5F5F5F553F5F5F5F5F5F5F5F5F5F5F5F5F578F56363F578F5F56363F563636363F5F578F56363F578F56363636378F5636363F57863636363F578F5F5F5F56363636363F5F5
310
F5F578F5F5F5F5F5F578F5F5F5F5F5F5F5F5F5F5F5F5F578F5F5F5F5F5F5F5BEF5F5F5F5E2F5F5EF28F5F5F5E2F5F5F5F5BEF5F5F5F5F5F5F5F553F5F5F5F578F5F5F5F5F5F563F5F5F5F5F578F5F5F5F5F5F5F578F5F5F5F5F5F5F578F5F5F5F5F5F5636363636363636363F5F5F5F5F5F553F5F5F5F5F5F5F5F5F5F5F5F5
310
F578F56363F578F5F56363F563636363F5F578F56363F578F56363636378F5636363F57863636363F578F5F5F5F563636363F5F5F5F5F578F5F5F5F5F5F578F5F5F5F5F5F5F5F5F5F5F5F5F578F5F5F5F5F5F5F5BEF5F5F5F5E2F5F5EF28F5F5F5E2F5F5F5F5BEF5F5F5F5F5F5F5F553F5F563F578F5F5F5636363F5636363
310
F5F578F5F563636363F578F5F5636363F5F578F5F5F5F5F5F5636363636363636363F5F5F5F5F5F553F5F5F5F5F5F5F5F5F5F5F5F5F578787878787878787878787878787878787878787878787878787878787878787878787878787878787878787878787878787878787878787878787878787878787878787878787878
310
787878F5F5F5F5F5F5F5BEF5F5F5F5E2F5F5EF28F5F5F5E2F5F5F5F5BEF5F5F5F5F5F5F5F553F56363F578F5F5F5636363F5636363F5F578F5F563636363F578F5F5636363F5F578F5F5F5F5F5F5F5F5F5F5F5F5F5F5F5F5F5F5F5F5F553F5F5F5F5F5F5F5F5F5F5F5F5F578F56363F578F5F563636363636363F5F578F563
310
63F578F56363636378F5636363F57863636363F578F5F5F5F56363636363F5F5F5F578F5F563F5F5F578F5F5F5F5F5F5F5F5F5F5F5F5F578F5F5F5F5F5F5F5BEF5F5F5F5E2F5F5EF28F5F5F5E2F5F5F5F5BEF5F5F5F5F5F5F5F553F5F5F5F578F5F5F5F5F5F5F5F5F5F5F5F578F5F5F5F5F5F5F578F5F5F5F5F5F5F578F5F5
310
F5F5F5F5F5F5F5F5F5F5F5F5F5F5F5F5F5F5F553F5F5F5F5F5F5F5F5F5F5F5F5F578F56363F578F5F56363F563636363F5F578F56363F578F56363636378F5636363F57863636363F578F5F5F5F56363636363F5F5F5F578F5F56363F5F578F5F5F5F5F5F5F5F5F5F5F5F5F578F5F5F5F5F5F5F5BEF5F5F5F5E2F5F5EF28F5
310
F5F5E2F5F5F5F5F5F5F5F5F5F5F5F5F553F5F5F5F578F5F5F5F5F5F5F5F5F5F5F5F578F5F5F5F5F5F5F578F5F5F5F5F5F5F578F5F5F5F5F5F5F5F5F5F5F5F5F5F5F5F5F5F5F5F5F553F5F5F5F5F5F5F5F5F5F5F5F5F57878787878787878787878787878787878787878787878787878787878787878787878787878787878
310
7878787878787878787878787878787878787878787878787878787878787878787878F5F5F5F5F5F5F5F5F5F5F5F5E2F5F5EF28F5F5F5E2F5F5F5F5BEF5F5F5F5F5F5F5F553F5F5F5F578F5F5F5F5F5F5F5F5F5F5F5F578F5F5F5F5F5F5F578F5F5F5F5F5F5F578F5F5F5F5F5F5F5F5F5F5F5F5F5F5F5F5F5F5F5F5F553F5
310
F5F5F5F5F5F5F5F5F5F5F5F578F563F5F578F5F563636363636363F5F578F56363F578F56363636378F5636363F57863636363F578F5F5F5F56363636363F5F5F5F578F5F5F5F5F5F5786363636363636363F56363636378F5F5F5F5F5F5F5BEF5F5F5F5E2F5F5EF28F5F5F5E2F5F5F5F5BEF5F5F5F5F5F5F5F553F5F5F5F5
310
78F5F5F5F5F5F5F5F5F5F5F5F578F5F5F5F5F5F5F578F5F5F5F5F5F5F578F5F5F5F5F5F5F5F5F5F5F5F5F5F5F5F5F5F5F5F5F553F5F5F5F5F5F5F5F5F5F5F5F5F578F563F5F578F5F56363F563636363F5F578F56363F578F56363636378F5636363F57863636363F578F5F5F5F56363636363F5F5F5F578F5F5F5F5F5F578
310
6363636363636363F56363636378F5F5F5F5F5F5F5BEF5F5F5F5E2F5F5EF28F5F5F5E2F5F5F5F5BEF5F5F5F5F5F5F5F553F5F5F5F578F5F5F5F5F5F5F5F5F5F5F5F578F5F5F5F5F5F5F578F5F5F5F5F5F5F578F5F5F5F5F5F5F5F5F5F5F5F5F5F5F5F5F5F5F5F5F553F5F5F5F5F5F5F5F5F5F5F5F5F5787878787878787878
310
78787878787878787878787878787878787878787878787878787878787878787878787878787878787878787878787878787878787878787878787878787878787878F5F5F5F5F5F5F5BEF5F5F5F5E2F5F5EF28F5F5F5E2F5F5F5F5BEF5F5F5F5F5F5F5F553F5F5F5F578F5F5F5F5F5F5F5F5F5F5F5F578F5F5F5F5F5F5F5
310
78F5F5F5F5F5F5F578F5F5F5F5F5F5F5F5F5F5F5F5F5F5F5F5F5F5F5F5F553F5F5F5F5F5F5F5F5F5F5F5F5F578F56363F578F5F563636363636363F5F578F56363F578F56363636378F5636363F57863636363F578F5F5F5F56363636363F5F5F5F578F5F5F5F5F5F578F5F5F5F5F5F5F5F5F5F5F5F5F578F5F5F5F5F5F5F5
310
BEF5F5F5F5E2F5F5EF28F5F5F5E2F5F5F5F5BEF5F5F5F5F5F5F5F5787878787878787878787878787878787878787878787878787878787878787878787878787878787878787878787878787878787878787878F5F5F5F5F5F5F5F5F5F5F5F5F578F56363F578F5F56363F563636363F5F578F56363F578F56363636378F5
310
636363F57863636363F578F5F5F5F56363636363F5F5F5F578F5F5F5F5F5F578F5F5F5F5F5F5F5F5F5F5F5F5F578F5F5F5F5F5F5F5BEF5F5F5F5E2F5F5EF28F5F5F5E2F5F5F5F5F5F5F5F5F5F5F5F5F553F5F5F5F578F5F5F5F5F5F5F5F5F5F5F5F578F5F5F5F5F5F5F578F5F5F5F5F5F5F578F5F5F5F5F5F5F56363636363
310
63F5F5F5F5F5F5F5F553F5F5F5F5F5F5F5F5F5F5F5F5F578787878787878787878786378787878787878787878787878787878787878787878787878787878787878787878787878787878787878787878787878787878787878787878787878787878F5F5F5F5F5F5F5F5F5F5F5F5E2F5F5EF28F5F5F5E2F5F5F5F5BEF5F5
310
F5F5F5F5F5F553F5F5F5F578F5F5F5F5F5F5F5F5F5F5F5F578F5F5F5F5F5F5F578F5F5F5F5F5F5F578F5F5F5F5F5F5F56363F5F56363F5F5F5F5F5F5F5F553F5F5F5F5F5F5F5F5F5F5F5F5F578F5F5F5F578F5F5F5F5F5F5F5F5F5F5F578F5F5F5F578F5F5F5F5F578F5F5F5F5F578F5F5F5F5F578F5F5F5F5F5F5F5F5F5F5
310
F5F5F578F5F5F5F5F5F578F5F5F5F5F5F5F5F5F5F5F5F5F578F5F5F5F5F5F5F5BEF5F5F5F5E2F5F5EF28F5F5F5E2F5F5F5F5BEF5F5F5F5F5F5F5F553F5F5F5F578F5F5F5F5F5F5F5F5F5F5F5F578F5F5F5F5F5F5F578F5F5F5F5F5F5F578F5F5F5F5F5F5F56363F5636363F5F5F5F5F5F5F5F553F5F5F5F5F5F5F5F5F5F5F5
310
F5F578F5F5F5F578F5F5F5F5F5F5F5F5F5F5F578F5ABABF578F5F5ABABF578F5ABABABF578F5ABABABF578F5F5F5F5F5F5F5F5F5F5F5F5F578F5F5F5F5F5F578F5F5F5F5F5F5F5F5F5F5F5F5F578F5F5F5F5F5F5F5BEF5F5F5F5E2F5F5EF28F5F5F5E2F5F5F5F5BEF5F5F5F5F5F5F5F553F5F5F5F578F5F5F5F5F5F5F5F5F5
310
F5F5F578F5F5F5F5F5F5F578F5F5F5F5F5F5F578F5F5F5F5F5F5F5636363636363F5F5F5F5F5F5F5F553F5F5F5F5F5F5F5F5F5F5F5F5F578F5F5F5F578F5F5F5F5F5F5F5F5F5F5F578F5ABABF578F5F5ABABF578F5ABABABF578F5ABABABF578F5F5F5F5F5F5F5F5F5F5F5F5F578F5F5F5F5F5F578F5F5F5F5F5F5F5F5F5F5
310
F5F5F578F5F5F5F5F5F5F5BEF5F5F5F5E2F5F5EF28F5F5F5F5F5F5F5F5BEF5F5F5F5F5F5F5F553F5F5F5F578F5F5F5F5F5F5F5F5F5F5F5F578F5F5F5F5F5F5F578F5F5F5F5F5F5F578F5F5F5F5F5F5F5636363F56363F5F5F5F5F5F5F5F553F5F5F5F5F5F5F5F5F5F5F5F5F578F5F5F5F578F5F5F5F5F5F5F5F5F5F5F578F5
310
F5F5F578F5F5ABF5F578F5ABABF5F578F5ABABF5F578F5F5F5F5F5F5F5F5F5F5F5F5F578F5F5F5F5F5F578F5F5F5F5F5F5F5F5F5F5F5F5F578F5F5F5F5F5F5F5BEF5F5F5F5F5F5F5EF28F5F5F5F5F5F5F5F5BEF5F5F5F5F5F5F5F553F5F563F578F5F5F563636363636363F5F578F5F5636363F5F578F5F563636363F578F5
310
F5F5F5F5F5F5636363F56363F5F5F5F5F5F5F5F553F5F5F5F5F5F5F5F5F5F5F5F5F578F5F5F5F578F5F5F5F5F5F5F5F5F5F5F5787878787878787878787878787878787878787878787878F5F5F5F5F5F5F5F5F5F5F5F5F578ABABABABABAB78F5F5F5F5F5F5F5F5F5F5F5F5F578F5F5F5F5F5F5F5BEF5F5F5F5F5F5F5EF28
310
F5F5F5F5F5F5F5F5BEF5F5F5F5F5F5F5F553F56363F578F5F5F56363F563F56363F5F578F5F5636363F5F578F5F563F56363F578F5F5F5F5F5F5F5636363F56363F5F5F5F5F5F5F5F553F5F5F5F5F5F5F5F5F5F5F5F5F578ABABABAB78F5F5ABABABABABABABF5F578F5F5ABABABABABF5F5F578F5F5F5ABABABABABF5F5F5
310
78F5F5ABABABABABABABABF5F5F578ABABABABABAB78F5F5F5F5ABABABABABF5F5F5F578F5F5F5F5F5F5F5BEF5F5F5F5F5F5F5EF28F5F5F5F5F5F5F5F5F5F5F5F5F5F5F5F5F553F56363F578F5F5F56363F563636363F5F578F5F5636363F5F578F5F563636363F578F5F5F5F5F5F5F563636363F563F5F5F5F5F5F5F5F553
310
F5F5F5F5F5F5F5F5F5F5F5F5F578ABABABAB78F5F5ABABABABABABABF5F578F5F5ABABABABABF5F5F578F5F5F5ABABABABABF5F5F578F5F5ABABABABABABABABF5F5F578ABABABABABAB78F5F5F5F5ABABABABABF5F5F5F578F5F5F5F5F5F5F5F5F5F5F5F5F5F5F5EF28F5F5F5F5F5F5F5F5BEF5F5F5F5F5F5F5F553F5F5F5
310
F578F5F5F5F5F5F5F5F5F5F5F5F578F5F5F5F5F5F5F578F5F5F5F5F5F5F578F5F5F5F5F5F5F5636363636363F5F5F5F5F5F5F5F553F5F5F5F5F5F5F5F5F5F5F5F5F5ABABF5F5F578F5F5F5F5F5ABF5F5ABF5F578F5F5F5ABF5F5ABF5F5F578F5F5F5F5F5F5F5F5F5F5F578F5F5F5ABF5F5F5F5ABF5F5F5F578ABABABABABAB
310
78F5F5F5F5F5F5F5F5ABF5F5F5F578F5F5F5F5F5F5F5BEF5F5F5F5F5F5F5EF28F5F5F5F5F5F5F5F5BEF5F5F5F5F5F5F5F553F5F5F5F578F5F5F5F5F5F5F5F5F5F5F5F578F5F5F5F5F5F5F578F5F5F5F5F5F5F578F5F5F5F5F5F5F56363F5636363F5F5F5F5F5F5F5F553F5F5F5F5F5F5F5F5F5F5F5F5F578F5F5F5F578F5F5
310
F5F5F5F5F5F5F5F5F578F5ABF5ABABABABABABF578F5ABABABABABABABABABF578F5F5F5F5F5F5F5F5F5F5F5F5F578ABF5F5ABF5F578F5F5F5F5F5F5F5F5F5F5F5F5F578F5F5F5F5F5F5F5BEF5F5F5F5F5F5F5EF28F5F5F5F5F5F5F5F5BEF5F5F5F5F5F5F5F553F5F5F5F578F5F5F5F5F5F5F5F5F5F5F5F578F5F5F5F5F5F5
310
F578F5F5F5F5F5F5F578F5F5F5F5F5F5F5636363636363F5F5F5F5F5F5F5F553F5F5F5F5F5F5F5F5F5F5F5F5F578F5F5F5F578F5F5F5F5F5F5F5F5F5F5F578ABABF5ABABABABABABF578F5ABABF5ABABABABABABF578F5F5F5F5F5F5F5F5F5F5F5F5F578F5F5F5F5F5F578F5F5F5F5F5F5F5F5F5F5F5F5F578F5F5F5F5F5F5
310
F5BEF5F5F5F5F5F5F5EF28F5F5F5F5F5F5F5F5BEF5F5F5F5F5F5F5F553F5F5F5F578F5F5F5F5F5F5F5F5F5F5F5F578F5F5F5F5F5F5F578F5F5F5F5F5F5F578F5F5F5F5F5F5F5F5F5F5F5F5F5F5F5F5F5F5F5F5F553F5F5F5F5F5F5F5F5F5F5F5F5F578F5F5F5F578F5F5F5F5F5F5F5F5F5F5F5787878787878787878AB7878
310
7878AB787878787878787878F5F5F5F5F5F5F5F5F5F5F5F5F578F5F5F5F5F5F578F5F5F5F5F5F5F5F5F5F5F5F5F578F5F5F5F5F5F5F5BEF5F5F5F5F5F5F5EF28F5F5F5F5F5F5F5F5BEF5F5F5F5F5F5F5F553F5F5F5F578F5F5F5F5F5F5F5F5F5F5F5F578F5F5F5F5F5F5F578F5F5F5F5F5F5F578F5F5F5F5F5F5F5F5F5F5F5
310
F5F5F5F5F5F5F5F5F5F553F5F5F5F5F5F5F5F5F5F5F5F5F578F5F5F5F578F5F5F5F5F5F5F5F5F5F5F578F5F5F5F5F5F5F5ABABABABABABABF5F5F5F5F5F5F5F578F5F5F5F5F5F5F5F5F5F5F5F5F578F5F5F5F5F5F578F5F5F5F5F5F5F5F5F5F5F5F5F578F5F5F5F5F5F5F5BEF5F5F5F5F5F5F5EF28F5F5F5E2F5F5F5F5F5F5
310
F5F5F5F5F5F5F5787878787878787878787878787878787878787878787878787878787878787878787878787878787878787878787878787878787878787878F5F5F5F5F5F5F5F5F5F5F5F5F578F5F5F5F578F5F5F5F5F5F5F5F5F5F5F578F5F5F5F5F5F5F5ABABABABABABABF5F5F5F5F5F5F5F578F5F5F5F5F5F5F5F5F5
310
F5F5F5F578F5F5F5F5F5F578F5F5F5F5F5F5F5F5F5F5F5F5F578F5F5F5F5F5F5F5F5F5F5F5F5E2F5F5EF28F5F5F5E2F5F5F5F5BEF5F5F5F5F5F5F5F553F5F5F5F578F5F5F5F5F5F5F5F5F5F5F5F578F5F5F5F5F5F5F578F5F5F5F5F5F5F578F5F5F5F5F5F5F563636363636363F5F5F5F5F5F5F553F5F5F5F5F5F5F5F5F5F5
310
F5F5F578787878787878787878787878787878787878787878787878787878787878787878787878787878787878787878787878787878787878787878787878787878787878787878787878787878F5F5F5F5F5F5F5BEF5F5F5F5E2F5F5EF28F5F5F5E2F5F5F5F5BEF5F5F5F5F5F5F5F553F5F5F5F578F5F5F5F5F5F5F5F5
310
F5F5F5F578F5F5F5F5F5F5F578F5F5F5F5F5F5F578F5F5F5F5F5F5F563636363636363F5F5F5F5F5F5F553F5F5F5F5F5F5F5F5F5F5F5F5F578F5F5F5848484848484F58484848484848484848484F5F5F5F5F5F5F5F5F5F5F5F5F5F5F5F5F5F5F5F5F5F5F5F5F5F5F5F5F5F5F5F5F5F5F5F5F5F5F5F5F5F5F5F5F5F5F5F5F5
310
F5F5F5F578F5F5F5F5F5F5F5BEF5F5F5F5E2F5F5EF28F5F5F5E2F5F5F5F5BEF5F5F5F5F5F5F5F553F5F5F5F578F5F5F5F5F5F5F5F5F5F5F5F578F5F5F5F5F5F5F578F5F5F5F5F5F5F578F5F5F5F5F5F5F56363F5F5636363F5F5F5F5F5F5F553F5F5F5F5F5F5F5F5F5F5F5F5F578F5F5F58484848484848484848484848484
310
84848484F5F5F5F5F5F5F5F5F5F5F5F5F5F5F5F5F5F5F5F5F5F5F5F5F5F5F5F5F5F5F5F5F5F5F5F5F5F5F5F5F5F5F5F5F5F5F5F5F5F5F5F5F578F5F5F5F5F5F5F5BEF5F5F5F5E2F5F5EF28F5F5F5E2F5F5F5F5BEF5F5F5F5F5F5F5F553F5F5F5F578F5F5F5F5F5F5F5F5F5F5F5F578F5F5F5F5F5F5F578F5F5F5F5F5F5F578
310
F5F5F5F5F5F5F563636363F56363F5F5F5F5F5F5F553F5F5F5F5F5F5F5F5F5F5F5F5F578787878787878787878787878787878787878787878787878787878787878787878787878787878787878787878787878787878787878787878787878787878787878787878787878787878F5F5F5F5F5F5F5BEF5F5F5F5E2F5F5EF
310
28F5F5F5E2F5F5F5F5BEF5F5F5F5F5F5F5F553F5F5F5F578F5F5F5F5F5F5F5F5F5F5F5F578F5F5F5F5F5F5F578F5F5F5F5F5F5F578F5F5F5F5F5F5F5636363F5636363F5F5F5F5F5F5F553F5F5F5F5F5F5F5F5F5F5F5F5F5F5F5F5F5F5F5F5F5F5F5F5F5F5F5F5F5F5F5F5F5F5F5F5F5F5F5F5F5F5F5F5F5F5F5F5F5F5F5F5
310
F5F5F5F5F5F5F5F5F5F5F5F5F5F5F5F5F5F5F5F5F5F5F5F5F5F5F5F5F5F5F5F5F5F5F5F5F5F5F5F5F5F5F5F5BEF5F5F5F5E2F5F5EF28F5F5F5E2F5F5F5F5BEF5F5F5F5F5F5F5F553F5F5F5F578F5F5F5F5F563F5F5F5F5F5F578F5F5F5F5F5F5F578F5F5F5F5F5F5F578F5F5F5F5F5F5F5636363F5636363F5F5F5F5F5F5F5
310
53F5F5F5F5F5F5F5F5F5F5F5F5F5F5F5F5F5F5F5F5F5F5F5F5F5F5F5F5F5F5F5F5F5F5F5F5F5F5F5F5F5F5F5F5F5F5F5F5F5F5F5F5F5F5F5F5F5F5F5F5F5F5F5F5F5F5F5F5F5F5F5F5F5F5F5F5F5F5F5F5F5F5F5F5F5F5F5F5F5F5F5F5F5F5F5F5BEF5F5F5F5E2F5F5EF28F5F5F5E2F5F5F5F5BFF5F5F5F5F5F5F5F553F563
310
63F578F5F5F56363F563636363F5F578F5F5636363F5F578F5F563636363F578F5F5F5F5F5F5F5636363F5636363F5F5F5F5F5F5F553F5F5F5F5F5F5F5F5F5F5F5F5F5F5F5F5F5F5F5F5F5F5F5F5F5F5F5F5F5F5F5F5F5F5F5F5F5F5F5F5F5F5F5F5F5F5F5F5F5F5F5F5F5F5F5F5F5F5F5F5F5F5F5F5F5F5F5F5F5F5F5F5F5
310
F5F5F5F5F5F5F5F5F5F5F5F5F5F5F5F5F5F5F5F5F5F5F5BFF5F5F5F5E2F5F5EF28F5F5F5E2F5F5F5F5BEF5F5F5F5F5F5F5F553F56363F578F5F5F56363F563636363F5F578F5F5636363F5F578F5F563636363F578F5F5F5F5F5F5F563636363636363F5F5F5F5F5F5F553F5F5F5F5F5F5F5F5F5F5F5F5F5F5F5F5F5F5F5F5
310
F5F5F5F5F5F5F5F5F5F5F5F5F5F5F5F5F5F5F5F5F5F5F5F5F5F5F5F5F5F5F5F5F5F5F5F5F5F5F5F5F5F5F5F5F5F5F5F5F5F5F5F5F5F5F5F5F5F5F5F5F5F5F5F5F5F5F5F5F5F5F5F5F5F5F5F5BEF5F5F5F5E2F5F5EF28F5F5F5E2F5F5F5F5BEF5F5F5F5F5F5F5F553F5F5F5F578F5F5F5F5F5F5F5F5F5F5F5F578F5F5F5F5F5
310
F5F578F5F5F5F5F5F5F578F5F5F5F5F5F5F56363F563636363F5F5F5F5F5F5F553F5F5F5F5F5F5F5F5F5F5F5F5F5F5F5F5F5F5F5F5F5F5F5F5F5F5F5F5F5F5F5F5F5F5F5F5F5F5F5F5F5F5F5F5F5F5F5F5F5F5F5F5F5F5F5F5F5F5F5F5F5F5F5F5F5F5F5F5F5F5F5F5F5F5F5F5F5F5F5F5F5F5F5F5F5F5F5F5F5F5F5F5F5F5
310
F5F5BEF5F5F5F5E2F5F5EF28F5F5F5E2F5F5F5F5BEF5F5F5F5F5F5F5F553F5F5F5F578F5F5F5F5F5F5F5F5F5F5F5F578F5F5F5F5F5F5F578F5F5F5F5F5F5F578F5F5F5F5F5F5F563636363636363F5F5F5F5F5F5F553F5F5F5F5F5F5F5F5F5F5F5F5F5F5F5F5F5F5F5F5F5F5F5F5F5F5F5F5F5F5F5F5F5F5F5F5F5F5F5F5F5
310
F5F5F5F5F5F5F5F5F5F5F5F5F5F5F5F5F5F5F5F5F5F5F5F5F5F5F5F5F5F5F5F5F5F5F5F5F5F5F5F5F5F5F5F5F5F5F5F5F5F5F5F5F5F5F5BEF5F5F5F5E2F5F5EF28F5F5F5E2F5F5F5F5BEF5F5F5F5F5F5F5F553F5F5F5F578F5F5F5F5F5F5F5F5F5F5F5F578F5F5F5F5F5F5F578F5F5F5F5F5F5F578F5F5F5F5F5F5F5636363
310
63636363F5F5F5F5F5F5F553F5F5F5F5F5F5F5F5F5F5F5F5F5F5F5F5F5F5F5F5F5F5F5F5F5F5F5F5F5F5F5F5F5F5F5F5F5F5F5F5F5F5F5F5F5F5F5F5F5F5F5F5F5F5F5F5F5F5F5F5F5F5F5F5F5F5F5F5F5F5F5F5F5F5F5F5F5F5F5F5F5F5F5F5F5F5F5F5F5F5F5F5F5F5F5F5BEF5F5F5F5E2F5F5EF28F5F5F5E2F5F5F5F5BE
310
F5F5F5F5F5F5F5F553F5F5F5F578F5F5F5F5F5F5F5F5F5F5F5F578F5F5F5F5F5F5F578F5F5F5F5F5F5F578F5F5F5F5F5F5F5F5F5F5F5F5F5F5F5F5F5F5F5F5F553F5F5F5F5F5F5F5F5F5F5F5F5F5F5F5F5F5F5F5F5F5F5F5F5F5F5F5F5F5F5F5F5F5F5F5F5F5F5F5F5F5F5F5F5F5F5F5F5F5F5F5F5F5F5F5F5F5F5F5F5F5F5
310
F5F5F5F5F5F5F5F5F5F5F5F5F5F5F5F5F5F5F5F5F5F5F5F5F5F5F5F5F5F5F5F5F5F5BEF5F5F5F5E2F5F5EF28F5F5F5E2F5F5F5F5F5F5F5F5F5F5F5F5F553F5F5F5F578F5F5F5F5F5F5F5F5F5F5F5F578F5F5F5F5F5F5F578F5F5F5F5F5F5F578F5F5F5F5F5F5F5F5F5F5F5F5F5F5F5F5F5F5F5F5F553F5F5F5F5F5F5F5F5F5
310
F5F5F5787878787878787878787878787878787878787878787878787878787878787878787878787878787878787878787878787878787878787878F5F5F5F5F5F5F5F5F5F5F5F5F5F5F5F5F5F5F5F5F5F5F5F5F5F5F5F5F5F5F5F5E2F5F5EF28F5F5F5E2F5F5F5F5BEF5F5F5F5F5F5F5F553F5F5F5F578F5F5F5F5F5F5F5
310
F5F5F5F5F578F5F5F5F5F5F5F578F5F5F5F5F5F5F578F5F5F5F5F5F5F5F5F5F5F5F5F5F5F5F5F5F5F5F5F553F5F5F5F5F5F5F5F5F5F5F5F578F5F5F5F578F5F5F5F5F5F5F5F5F5F5F5F5F578F5F5F5F5F5F5F578F5F5F5F5F5F5F578F5F5F5F5F563636363636363636363F5F5F5F5F578F5F5F5F5F5F5F5F5F5F5F5F5F5F5
310
F5F5F5F5F5F5F5F5F5F5F5F5F5BEF5F5F5F5E2F5F5EF28F5F5F5E2F5F5F5F5BEF5F5F5F5F5F5F5F5787878787878787878787878787878787878787878787878787878787878787878787878787878787878787878787878787878787878787878F5F5F5F5F5F5F5F5F5F5F5F578F5F5F5F578F5F5F5F5F5F5F5F5F5F5F5F5
310
F578F5F5F5F5F5F5F578F5F5F5F5F5F5F578F5F5F5F5F56363F5F56363F5636363F5F5F5F5F578F5F5F5F5F5F5F5F5F5F5F5F5F5F5F5F5F5F5F5F5F5F5F5F5F5F5F5BEF5F5F5F5E2F5F5EF28F5F5F5F5F5F5F5F5BEF5F5F5F5F5F5F5F553F5F5F5F578F5F5F5F5F5F5F5F5F5F5F5F578F5F5F5F5F5F5F578F5F5F5F5F5F5F5
310
78F5F5F5F5F5F5F563636363636363F5F5F5F5F5F5F553F5F5F5F5F5F5F5F5F5F5F5F578F5F5F5F578F5F5F5F5F5F5F5F5F5F5F5F5F578F5F5F5F5F5F5F578F5F5F5F5F5F5F578F5F5F5F5F5636363F56363F5636363F5F5F5F5F578F5F5F5F5F5F5F5F5F5F5F5F5F5F5F5F5F5F5F5F5F5F5F5F5F5F5F5BEF5F5F5F5F5F5F5
310
EF28F5F5F5F5F5F5F5F5BEF5F5F5F5F5F5F5F553F5F5F5F578F5F5F5F5F5F5F5F5F5F5F5F578F5F5F5F5F5F5F578F5F5F5F5F5F5F578F5F5F5F5F5F5F56363F5F5636363F5F5F5F5F5F5F553F5F5F5F5F5F5F5F5F5F5F5F578F5F5F5F578F5F5F5F5F5F5F5F5F5F5F5F5F578F5F5F5F5F5F5F578F5F5F5F5F5F5F578F5F5F5
310
F5F563F56363636363636363F5F5F5F5F578F5F5F5F5F5F5F5F5F5F5F5F5F5F5F5F5F5F5F5F5F5F5F5F5F5F5F5BEF5F5F5F5F5F5F5EF28F5F5F5F5F5F5F5F5BEF5F5F5F5F5F5F5F553F5F5F5F578F5F5F5F5F5F5F5F5F5F5F5F578F5F5F5F5F5F5F578F5F5F5F5F5F5F578F5F5F5F5F5F5F5636363F5636363F5F5F5F5F5F5
310
F553F5F5F5F5F5F5F5F5F5F5F5F578F5F5F5F578F5F5F5F5F5F5F5F5F5F5F5F5F578F5F5F5F5F5F5F578F5F5F5F5F5F5F578F5F5F5F5F563F5F5636363F5F56363F5F5F5F5F578F5F5F5F5F5F5F5F5F5F5F5F5F5F5F5F5F5F5F5F5F5F5F5F5F5F5F5BEF5F5F5F5F5F5F5EF28F5F5F5F5F5F5F5F5F5F5F5F5F5F5F5F5F553F5
310
F5F5F578F5F5F5F5F5F5F5F5F5F5F5F578F5F5F5F5F5F5F578F5F5F5F5F5F5F578F5F5F5F5F5F5F5636363F5636363F5F5F5F5F5F5F553F5F5F5F5F5F5F5F5F5F5F5F578F5F563F578F5F5F5636363F563636363F5F578F563636363F5F578F563636363F5F578F5F5F5F5F563F5F5F56363F5636363F5F5F5F5F578F5F5F5
310
F5F5F5F5F5F5F5F5F5F5F5F5F5F5F5F5F5F5F5F5F5F5F5F5F5F5F5F5F5F5F5F5EF28F5F5F5F5F5F5F5F5BFF5F5F5F5F5F5F5F553F5F5F5F578F5F5F5F5F5F5F5F5F5F5F5F578F5F5F5F5F5F5F578F5F5F5F5F5F5F578F5F5F5F5F5F5F5636363F5636363F5F5F5F5F5F5F553F5F5F5F5F5F5F5F5F5F5F5F578F5F563F578F5
310
F5636363636363636363F5F578F563636363F5F578F563636363F5F578F5F5F5F5F563F5F563636363636363F5F5F5F5F578F5F5F5F5F5F5F5F5F5F5F5F5F5F5F5F5F5F5F5F5F5F5F5F5F5F5F5BFF5F5F5F5F5F5F5EF28F5F5F5F5F5F5F5F5BEF5F5F5F5F5F5F5F553F56363F578F5F5F563636363636363F5F578F5F56363
310
63F5F578F5F563636363F578F5F5F5F5F5F5F563636363636363F5F5F5F5F5F5F553F5F5F5F5F5F5F5F5F5F5F5F578F5F563F578F5F5F56363636363636363F5F578F563636363F5F578F563636363F5F578F5F5F5F5F563F56363636363636363F5F5F5F5F578F5F5F5F5F5F5F5F5F5F5F5F5F5F5F5F5F5F5F5F5F5F5F5F5
310
F5F5F5BEF5F5F5F5F5F5F5EF28F5F5F5F5F5F5F5F5BEF5F5F5F5F5F5F5F553F5F563F578F5F5F56363F563636363F5F578F5F5636363F5F578F5F563636363F578F5F5F5F5F5F5F56363F563636363F5F5F5F5F5F5F553F5F5F5F5F5F5F5F5F5F5F5F578F5F5F5F578F5F5F5F5F5F5F5F5F5F5F5F5F578F5F5F5F5F5F5F578
310
F5F5F5F5F5F5F578F5F5F5F5F563F563F563F563636363F5F5F5F5F578F5F5F5F5F5F5F5F5F5F5F5F5F5F5F5F5F5F5F5F5F5F5F5F5F5F5F5BEF5F5F5F5F5F5F5EF28F5F5F5F5F5F5F5F5BEF5F5F5F5F5F5F5F553F56363F578F5F5F56363F563636363F5F578F5F5636363F5F578F5F563636363F578F5F5F5F5F5F5F56363
310
6363636363F5F5F5F5F5F5F553F5F5F5F5F5F5F5F5F5F5F5F578F5F5F5F578F5F5F5F5F5F5F5F5F5F5F5F5F578F5F5F5F5F5F5F578F5F5F5F5F5F5F578F5F5F5F5F56363F5F563F563636363F5F5F5F5F578F5F5F5F5F5F5F5F5F5F5F5F5F5F5F5F5F5F5F5F5F5F5F5F5F5F5F5BEF5F5F5F5F5F5F5EF28F5F5F5F5F5F5F5F5
310
BEF5F5F5F5F5F5F5F553F5F5F5F578F5F5F5F5F5F5F5F5F5F5F5F578F5F5F5F5F5F5F578F5F5F5F5F5F5F578F5F5F5F5F5F5F5F5F5F5F5F5F5F5F5F5F5F5F5F5F553F5F5F5F5F5F5F5F5F5F5F5F578F5F5F5F578F5F5F5F5F5F5F5F5F5F5F5F5F578F5F5F5F5F5F5F578F5F5F5F5F5F5F578F5F5F5F5F56363636363636363
310
6363F5F5F5F5F578F5F5F5F5F5F5F5F5F5F5F5F5F5F5F5F5F5F5F5F5F5F5F5F5F5F5F5BEF5F5F5F5F5F5F5EF28F5F5F5E2F5F5F5F5BEF5F5F5F5F5F5F5F553F5F5F5F578F5F5F5F5F5F5F5F5F5F5F5F578F5F5F5F5F5F5F578F5F5F5F5F5F5F578F5F5F5F5F5F5F5F5F5F5F5F5F5F5F5F5F5F5F5F5F553F5F5F5F5F5F5F5F5
310
F5F5F5F578F5F5F5F578F5F5F5F5F5F5F5F5F5F5F5F5F578F5F5F5F5F5F5F578F5F5F5F5F5F5F578F5F5F5F5F5F5F5F5F5F5F5F5F5F5F5F5F5F5F5F578F5F5F5F5F5F5F5F5F5F5F5F5F5F5F5F5F5F5F5F5F5F5F5F5F5F5F5BEF5F5F5F5E2F5F5EF28F5F5F5E2F5F5F5F5F5F5F5F5F5F5F5F5F553F5F5F5F578F5F5F5F5F5F5
310
F5F5F5F5F5F578F5F5F5F5F5F5F578F5F5F5F5F5F5F578F5F5F5F5F5F5F5F5F5F5F5F5F5F5F5F5F5F5F5F5F553F5F5F5F5F5F5F5F5F5F5F5F578F5F5F5F578F5F5F5F5F5F5F5F5F5F5F5F5F578F5F5F5F5F5F5F578F5F5F5F5F5F5F578F5F5F5F5F5F5F5F5F5F5F5F5F5F5F5F5F5F5F5F578F5F5F5F5F5F5F5F5F5F5F5F5F5
310
F5F5F5F5F5F5F5F5F5F5F5F5F5F5F5F5F5F5F5E2F5F5EF28F5F5F5E2F5F5F5F5BEF5F5F5F5F5F5F5F553F5F5F5F578F5F5F5F5F5F5F5F5F5F5F5F578F5F5F5F5F5F5F578F5F5F5F5F5F5F578F5F5F5F5F5F5F5F5F5F5F5F5F5F5F5F5F5F5F5F5F553F5F5F5F5F5F5F5F5F5F5F5F57878787878787878787878787878787878
310
78787878787878787878787878787878787878787878787878787878787878787878787878787878F5F5F5F5F5F5F5F5F5F5F5F5F5F5F5F5F5F5F5F5F5F5F5F5F5F5F5BEF5F5F5F5E2F5F5EF28F5F5F5E2F5F5F5F5BEF5F5F5F5F5F5F5F553F5F5F5F578F5F5F5F5F5F5F5F5F5F5F5F578F5F5F5F5F5F5F578F5F5F5F5F5F5
310
F578F5F5F5F5F5F5F5F5F5F5F5F5F5F5F5F5F5F5F5F5F553F5F5F5F5F5F5F5F5F5F5F5F578F5F5F5F578F5F5F5F5F5F5F5F5F5F5F5F5F578F5F5F5F5F5F5F578F5F5F5F5F5F5F578F5F5F5F5F5F5F5F5F5F5F5F5F5F5F5F5F5F5F5F578F5F5F5F5F5F5F5F5F5F5F5F5F5F5F5F5F5F5F5F5F5F5F5F5F5F5F5BEF5F5F5F5E2F5
310
F5EF28F5F5F5E2F5F5F5F5BEF5F5F5F5F5F5F5F5787878787878787878787878787878787878787878787878787878787878787878787878787878787878787878787878787878787878787878F5F5F5F5F5F5F5F5F5F5F5F578F5F5F5F578F5F5F5F5F5F5F5F5F5F5F5F5F578F5F5F5F5F5F5F578F5F5F5F5F5F5F578F5F5
310
F5F5F563636363636363636363F5F5F5F5F578F5F5F5F5F5F5F5F5F5F5F5F5F5F5F5F5F5F5F5F5F5F5F5F5F5F5F5BEF5F5F5F5E2F5F5EF28F5F5F5E2F5F5F5F5BEF5F5F5F5F5F5F5F553F5F5F5F578F5F5F5F5F5F5F5F5F5F5F5F578F5F5F5F5F5F5F578F5F5F5F5F5F5F578F5F5F5F5F5F5F563636363636363F5F5F5F5F5
310
F5F553F5F5F5F5F5F5F5F5F5F5F5F578F5F5F5F578F5F5F5F5F5F5F5F5F5F5F5F5F578F5F5F5F5F5F5F578F5F5F5F5F5F5F578F5F5F5F5F56363F5F56363F5636363F5F5F5F5F578F5F5F5F5F5F5F5F5F5F5F5F5F5F5F5F5F5F5F5F5F5F5F5F5F5F5F5BEF5F5F5F5E2F5F5EF28F5F5F5E2F5F5F5F5BEF5F5F5F5F5F5F5F553
310
F5F5F5F578F5F5F5F5F5F5F5F5F5F5F5F578F5F5F5F5F5F5F578F5F5F5F5F5F5F578F5F5F5F5F5F5F563636363636363F5F5F5F5F5F5F553F5F5F5F5F5F5F5F5F5F5F5F578F5F5F5F578F5F5F5F5F5F5F5F5F5F5F5F5F578F5F5F5F5F5F5F578F5F5F5F5F5F5F578F5F5F5F5F563F563F5636363636363F5F5F5F5F578F5F5
310
F5F5F5F5F5F5F5F5F5F5F5F5F5F5F5F5F5F5F5F5F5F5F5F5F5BEF5F5F5F5E2F5F5EF28F5F5F5E2F5F5F5F5F5F5F5F5F5F5F5F5F553F5F5F5F578F5F5F5F5F5F5F5F5F5F5F5F578F5F5F5F5F5F5F578F5F5F5F5F5F5F578F5F5F5F5F5F5F5636363F5636363F5F5F5F5F5F5F553F5F5F5F5F5F5F5F5F5F5F5F578F5F5F5F578
310
F5F5F5F5F5F5F5F5F5F5F5F5F578F5F5F5F5F5F5F578F5F5F5F5F5F5F578F5F5F5F5F563F56363636363F56363F5F5F5F5F578F5F5F5F5F5F5F5F5F5F5F5F5F5F5F5F5F5F5F5F5F5F5F5F5F5F5F5F5F5F5F5F5E2F5F5EF28F5F5F5E2F5F5F5F5BEF5F5F5F5F5F5F5F553F5F5F5F578F5F5F5F5F5F5F5F5F5F5F5F578F5F5F5
310
F5F5F5F578F5F5F5F5F5F5F578F5F5F5F5F5F5F5636363F5636363F5F5F5F5F5F5F553F5F5F5F5F5F5F5F5F5F5F5F578F5F5F5F578F5F5F5F5F563F5F5F5F5F5F5F578F5F5F5F5F5F5F578F5F5F5F5F5F5F578F5F5F5F5F563F5F5636363F5F56363F5F5F5F5F578F5F5F5F5F5F5F5F5F5F5F5F5F5F5F5F5F5F5F5F5F5F5F5
310
F5F5F5F5BEF5F5F5F5E2F5F5EF28F5F5F5E2F5F5F5F5BEF5F5F5F5F5F5F5F553F5F5F5F578F5F5F5F5F5F5F5F5F5F5F5F578F5F5F5F5F5F5F578F5F5F5F5F5F5F578F5F5F5F5F5F5F563636363636363F5F5F5F5F5F5F553F5F5F5F5F5F5F5F5F5F5F5F578F56363F578F5F5F56363636363636363F5F578F563636363F5F5
310
78F563636363F5F578F5F5F5F5F563F5F5F56363F5636363F5F5F5F5F578F5F5F5F5F5F5F5F5F5F5F5F5F5F5F5F5F5F5F5F5F5F5F5F5F5F5F5BEF5F5F5F5E2F5F5EF28F5F5F5E2F5F5F5F5BEF5F5F5F5F5F5F5F553F5F5F5F578F5F5F5F5F563F5F5F5F5F5F578F5F5F5F5F5F5F578F5F5F5F5F5F5F578F5F5F5F5F5F5F563
310
636363636363F5F5F5F5F5F5F553F5F5F5F5F5F5F5F5F5F5F5F578F56363F578F5F5636363636363636363F5F578F563636363F5F578F563636363F5F578F5F5F5F5F563F5F563636363636363F5F5F5F5F578F5F5F5F5F5F5F5F5F5F5F5F5F5F5F5F5F5F5F5F5F5F5F5F5F5F5F5BEF5F5F5F5E2F5F5EF28F5F5F5E2F5F5F5
310
F5BEF5F5F5F5F5F5F5F553F56363F578F5F5F5636363F56363F5F5F578F5F5636363F5F578F5F5636363F5F578F5F5F5F5F5F5F563636363636363F5F5F5F5F5F5F553F5F5F5F5F5F5F5F5F5F5F5F578F5F5F5F578F5F5F5F5F5F5F5F5F5F5F5F5F578F5F5F5F5F5F5F578F5F5F5F5F5F5F578F5F5F5F5F563F5636363F563
310
636363F5F5F5F5F578F5F5F5F5F5F5F5F5F5F5F5F5F5F5F5F5F5F5F5F5F5F5F5F5F5F5F5BEF5F5F5F5E2F5F5EF28F5F5F5E2F5F5F5F5BEF5F5F5F5F5F5F5F553F56363F578F5F5F5636363636363F5F5F578F5F5636363F5F578F5F5636363F5F578F5F5F5F5F5F5F5F5F5F5F5F5F5F5F5F5F5F5F5F5F553F5F5F5F5F5F5F5
310
F5F5F5F5F578F5F5F5F578F5F5F5F5F5F5F5F5F5F5F5F5F578F5F5F5F5F5F5F578F5F5F5F5F5F5F578F5F5F5F5F5636363F563F563636363F5F5F5F5F578F5F5F5F5F5F5F5F5F5F5F5F5F5F5F5F5F5F5F5F5F5F5F5F5F5F5F5BEF5F5F5F5E2F5F5EF28F5F5F5E2F5F5F5F5BEF5F5F5F5F5F5F5F553F5F5F5F578F5F5F5F5F5
310
F563F5F5F5F5F578F5F5F5F5F5F5F578F5F5F5F5F5F5F578F5F5F5F5F5F5F5F5F5F5F5F5F5F5F5F5F5F5F5F5F553F5F5F5F5F5F5F5F5F5F5F5F578F5F5F5F578F5F5F5F5F5F5F5F5F5F5F5F5F578F5F5F5F5F5F5F578F5F5F5F5F5F5F578F5F5F5F5F56363F5F563F563636363F5F5F5F5F578F5F5F5F5F5F5F5F5F5F5F5F5
310
F5F5F5F5F5F5F5F5F5F5F5F5F5F5F5BEF5F5F5F5E2F5F5EF28F5F5F5E2F5F5F5F5BFF5F5F5F5F5F5F5F553F5F5F5F578F5F5F5F5F5F5F5F5F5F5F5F578F5F5F5F5F5F5F578F5F5F5F5F5F5F578F5F5F5F5F5F5F5F5F5F5F5F5F5F5F5F5F5F5F5F5F553F5F5F5F5F5F5F5F5F5F5F5F578F5F5F5F578F5F5F5F5F5F5F5F5F5F5
310
F5F5F578F5F5F5F5F5F5F578F5F5F5F5F5F5F578F5F5F5F5F563636363636363636363F5F5F5F5F578F5F5F5F5F5F5F5F5F5F5F5F5F5F5F5F5F5F5F5F5F5F5F5F5F5F5F5BFF5F5F5F5E2F5F5EF28F5F5F5F5F5F5F5F5BEF5F5F5F5F5F5F5F553F5F5F5F578F5F5F5F5F5F5F5F5F5F5F5F578F5F5F5F5F5F5F578F5F5F5F5F5
310
F5F578F5F5F5F5F5F5F5F5F5F5F5F5F5F5F5F5F5F5F5F5F553F5F5F5F5F5F5F5F5F5F5F5F578F5F5F5F578F5F5F5F5F5F5F5F5F5F5F5F5F578F5F5F5F5F5F5F578F5F5F5F5F5F5F578F5F5F5F5F5F5F5F5F5F5F5F5F5F5F5F5F5F5F5F578F5F5F5F5F5F5F5F5F5F5F5F5F5F5F5F5F5F5F5F5F5F5F5F5F5F5F5BEF5F5F5F5F5
310
F5F5EF28F5F5F5F5F5F5F5F5BEF5F5F5F5F5F5F5F553F5F5F5F578F5F5F5F5F5F5F5F5F5F5F5F578F5F5F5F5F5F5F578F5F5F5F5F5F5F578F5F5F5F5F5F5F5F5F5F5F5F5F5F5F5F5F5F5F5F5F553F5F5F5F5F5F5F5F5F5F5F5F578F5F5F5F578F5F5F5F5F5F5F5F5F5F5F5F5F578F5F5F5F5F5F5F578F5F5F5F5F5F5F578F5
310
F5F5F5F5F5F5F5F5F5F5F5F5F5F5F5F5F5F5F578F5F5F5F5F5F5F5F5F5F5F5F5F5F5F5F5F5F5F5F5F5F5F5F5F5F5F5BEF5F5F5F5F5F5F5EF28F5F5F5F5F5F5F5F5BEF5F5F5F5F5F5F5F553F5F5F5F578F5F5F5F5F5F5F5F5F5F5F5F578F5F5F5F5F5F5F578F5F5F5F5F5F5F578F5F5F5F5F5F5F5F5F5F5F5F5F5F5F5F5F5F5
310
F5F5F553F5F5F5F5F5F5F5F5F5F5F5F5787878787878787878787878787878787878787878787878787878787878787878787878787878787878787878787878787878787878787878F5F5F5F5F5F5F5F5F5F5F5F5F5F5F5F5F5F5F5F5F5F5F5F5F5F5F5BEF5F5F5F5F5F5F5EF28F5F5F5F5F5F5F5F5BEF5F5F5F5F5F5F5F5
310
53F5F5F5F578F5F5F5F5F5F5F5F5F5F5F5F578F5F5F5F5F5F5F578F5F5F5F5F5F5F578F5F5F5F5F5F5F5F5F5F5F5F5F5F5F5F5F5F5F5F5F553F5F5F5F5F5F5F5F5F5F5F5F578F5F5F5F578F5F5F5F5F5F5F5F5F5F5F5F5F578F5F5F5F5F5F5F578F5F5F5F5F5F5F578F5F5F5F5F5F5F56363636363F5F5F5F5F5F5F5F578F5
310
F5F5F5F5F5F5F5F5F5F5F5F5F5F5F5F5F5F5F5F5F5F5F5F5F5F5BEF5F5F5F5F5F5F5EF28F5F5F5F5F5F5F5F5BEF5F5F5F5F5F5F5F5787878787878787878787878787878787878787878787878787878787878787878787878787878787878787878787878787878787878787878F5F5F5F5F5F5F5F5F5F5F5F578F5F5F5F5
310
78F5F5F5F5F5F5F5F5F5F5F5F5F578F5F5F5F5F5F5F578F5F5F5F5F5F5F578F5F5F5F5F5F5F563F5F56363F5F5F5F5F5F5F5F578F5F5F5F5F5F5F5F5F5F5F5F5F5F5F5F5F5F5F5F5F5F5F5F5F5F5F5BEF5F5F5F5F5F5F5EF28F5F5F5F5F5F5F5F5F5F5F5F5F5F5F5F5F553F5F5F5F578F5F5F5F5F5F5F5F5F5F5F5F578F5F5
310
F5F5F5F5F578F5F5F5F5F5F5F578F5F5F5F5F5F5F5F56363636363F5F5F5F5F5F5F5F553F5F5F5F5F5F5F5F5F5F5F5F578F5F5F5F578F5F5F5F5F5F5F5F5F5F5F5F5F578F5F5F5F5F5F5F578F5F5F5F5F5F5F578F5F5F5F5F5F5F56363F56363F5F5F5F5F5F5F5F578F5F5F5F5F5F5F5F5F5F5F5F5F5F5F5F5F5F5F5F5F5F5
310
F5F5F5F5F5F5F5F5F5F5F5F5F5EF28F5F5F5F5F5F5F5F5BEF5F5F5F5F5F5F5F553F5F5F5F578F5F5F5F5F5F5F5F5F5F5F5F578F5F5F5F5F5F5F578F5F5F5F5F5F5F578F5F5F5F5F5F5F5F56363F56363F5F5F5F5F5F5F5F553F5F5F5F5F5F5F5F5F5F5F5F578F5F5F5F578F5F5F5F5F5F5F5F5F5F5F5F5F578F5F5F5F5F5F5
310
F578F5F5F5F5F5F5F578F5F5F5F5F5F5F5636363F563F5F5F5F5F5F5F5F578F5F5F5F5F5F5F5F5F5F5F5F5F5F5F5F5F5F5F5F5F5F5F5F5F5F5F5BEF5F5F5F5F5F5F5EF28F5F5F5F5F5F5F5F5BEF5F5F5F5F5F5F5F553F5F5F5F578F5F5F5F5F5F5F5F5F5F5F5F578F5F5F5F5F5F5F578F5F5F5F5F5F5F578F5F5F5F5F5F5F5
310
F56363F56363F5F5F5F5F5F5F5F553F5F5F5F5F5F5F5F5F5F5F5F578F5F5F5F578F5F5F5F5F5F5F5F5F5F5F5F5F578F5F5F5F5F5F5F578F5F5F5F5F5F5F578F5F5F5F5F5F5F56363636363F5F5F5F5F5F5F5F578F5F5F5F5F5F5F5F5F5F5F5F5F5F5F5F5F5F5F5F5F5F5F5F5F5F5F5BEF5F5F5F5F5F5F5EF28F5F5F5F5F5F5
310
F5F5BEF5F5F5F5F5F5F5F553F5F5F5F578F5F5F5F5F5F5F5F5F5F5F5F578F5F5F5F5F5F5F578F5F5F5F5F5F5F578F5F5F5F5F5F5F5F56363636363F5F5F5F5F5F5F5F553F5F5F5F5F5F5F5F5F5F5F5F578F5F563F578F5F5F5636363F563636363F5F578F563636363F5F578F563636363F5F578F5F5F5F5F5F5F56363F563
310
63F5F5F5F5F5F5F5F578F5F5F5F5F5F5F5F5F5F5F5F5F5F5F5F5F5F5F5F5F5F5F5F5F5F5F5BEF5F5F5F5F5F5F5EF28F5F5F5E2F5F5F5F5BEF5F5F5F5F5F5F5F553F5F5F5F578F5F5F5F5F5F5F5F5F5F5F5F578F5F5F5F5F5F5F578F5F5F5F5F5F5F578F5F5F5F5F5F5F5F56363636363F5F5F5F5F5F5F5F553F5F5F5F5F5F5
310
F5F5F5F5F5F578F5F563F578F5F5636363636363636363F5F578F563636363F5F578F563636363F5F578F5F5F5F5F5F5F56363F56363F5F5F5F5F5F5F5F578F5F5F5F5F5F5F5F5F5F5F5F5F5F5F5F5F5F5F5F5F5F5F5F5F5F5F5BEF5F5F5F5E2F5F5EF28F5F5F5E2F5F5F5F5BEF5F5F5F5F5F5F5F553F56363F578F5F5F563
310
636363636363F5F578F5F5F56363F5F578F5F563636363F578F5F5F5F5F5F5F5F56363636363F5F5F5F5F5F5F5F553F5F5F5F5F5F5F5F5F5F5F5F578F5F563F578F5F5F56363636363636363F5F578F563636363F5F578F563636363F5F578F5F5F5F5F5F5F56363636363F5F5F5F5F5F5F5F578F5F5F5F5F5F5F5F5F5F5F5
310
F5F5F5F5F5F5F5F5F5F5F5F5F5F5F5F5BEF5F5F5F5E2F5F5EF28F5F5F5E2F5F5F5F5BEF5F5F5F5F5F5F5F553F5F563F578F5F5F56363F563F56363F5F578F5F5636363F5F578F5F563F56363F578F5F5F5F5F5F5F5F56363636363F5F5F5F5F5F5F5F553F5F5F5F5F5F5F5F5F5F5F5F578F5F5F5F578F5F5F5F5F5F5F5F5F5
310
F5F5F5F578F5F5F5F5F5F5F578F5F5F5F5F5F5F578F5F5F5F5F5F5F563F5636363F5F5F5F5F5F5F5F578F5F5F5F5F5F5F5F5F5F5F5F5F5F5F5F5F5F5F5F5F5F5F5F5F5F5F5BEF5F5F5F5E2F5F5EF28F5F5F5E2F5F5F5F5BFF5F5F5F5F5F5F5F553F56363F578F5F5F56363F563636363F5F578F5F5636363F5F578F5F56363
310
6363F578F5F5F5F5F5F5F5F56363636363F5F5F5F5F5F5F5F553F5F5F5F5F5F5F5F5F5F5F5F578F5F5F5F578F5F5F5F5F5F5F5F5F5F5F5F5F578F5F5F5F5F5F5F578F5F5F5F5F5F5F578F5F5F5F5F5F5F563F5636363F5F5F5F5F5F5F5F578F5F5F5F5F5F5F5F5F5F5F5F5F5F5F5F5F5F5F5F5F5F5F5F5F5F5F5BFF5F5F5F5
310
E2F5F5EF28F5F5F5E2F5F5F5F5BEF5F5F5F5F5F5F5F553F5F5F5F578F5F5F5F5F5F5F5F5F5F5F5F578F5F5F5F5F5F5F578F5F5F5F5F5F5F578F5F5F5F5F5F5F5F56363636363F5F5F5F5F5F5F5F553F5F5F5F5F5F5F5F5F5F5F5F578F5F5F5F578F5F5F5F5F5F5F5F5F5F5F5F5F578F5F5F5F5F5F5F578F5F5F5F5F5F5F578
310
F5F5F5F5F5F5F56363636363F5F5F5F5F5F5F5F578F5F5F5F5F5F5F5F5F5F5F5F5F5F5F5F5F5F5F5F5F5F5F5F5F5F5F5BEF5F5F5F5E2F5F5EF28F5F5F5E2F5F5F5F5BEF5F5F5F5F5F5F5F553F5F5F5F578F5F5F5F5F5F5F5F5F5F5F5F578F5F5F5F5F5F5F578F5F5F5F5F5F5F578F5F5F5F5F5F5F5F56363636363F5F5F5F5
310
F5F5F5F553F5F5F5F5F5F5F5F5F5F5F5F578F5F5F5F578F5F5F5F5F5F5F5F5F5F5F5F5F578F5F5F5F5F5F5F578F5F5F5F5F5F5F578F5F5F5F5F5F5F56363636363F5F5F5F5F5F5F5F578F5F5F5F5F5F5F5F5F5F5F5F5F5F5F5F5F5F5F5F5F5F5F5F5F5F5F5BEF5F5F5F5E2F5F5EF28F5F5F5E2F5F5F5F5BEF5F5F5F5F5F5F5
310
F553F5F5F5F578F5F5F5F5F5F5F5F5F5F5F5F578F5F5F5F5F5F5F578F5F5F5F5F5F5F578F5F5F5F5F5F5F5F56363636363F5F5F5F5F5F5F5F553F5F5F5F5F5F5F5F5F5F5F5F578F5F5F5F578F5F5F5F5F5F5F5F5F5F5F5F5F578F5F5F5F5F5F5F578F5F5F5F5F5F5F578F5F5F5F5F5F5F5F5F5F5F5F5F5F5F5F5F5F5F5F578
310
F5F5F5F5F5F5F5F5F5F5F5F5F5F5F5F5F5F5F5F5F5F5F5F5F5F5F5BEF5F5F5F5E2F5F5EF28F5F5F5E2F5F5F5F5BEF5F5F5F5F5F5F5F553F5F5F5F578F5F5F5F5F5F5F5F5F5F5F5F578F5F5F5F5F5F5F578F5F5F5F5F5F5F578F5F5F5F5F5F5F5F5F5F5F563F5F5F5F5F5F5F5F5F553F5F5F5F5F5F5F5F5F5F5F5F578787878
310
7878787878787878787878787878787878787878787878787878787878787878787878787878787878787878787878787878787878F5F5F5F5F5F5F5F5F5F5F5F5F5F5F5F5F5F5F5F5F5F5F5F5F5F5F5BEF5F5F5F5E2F5F5EF28F5F5F5E2F5F5F5F5BEF5F5F5F5F5F5F5F553F5F5F5F578F5F5F5F5F5F5F5F5F5F5F5F578F5
310
F5F5F5F5F5F578F5F5F5F5F5F5F578F5F5F5F5F5F5F5F5F5F5F5F5F5F5F5F5F5F5F5F5F553F5F5F5F5F5F5F5F5F5F5F5F578F5F5F5F578F5F5F5F5F5F5F5F5F5F5F5F5F578F5F5ABABF5F5F578F5F5ABABF5F5F578F5F5F5F5F5F5F5F5F5F5F5F5F5F5F5F5F5F5F5F578F5F5F5F5F5F5F5F5F5F5F5F5F5F5F5F5F5F5F5F5F5
310
F5F5F5F5F5F5BEF5F5F5F5E2F5F5EF28F5F5F5E2F5F5F5F5F5F5F5F5F5F5F5F5F5787878787878787878787878787878787878787878787878787878787878787878787878787878787878787878787878787878787878787878F5F5F5F5F5F5F5F5F5F5F5F578F5F5F5F578F5F5F5F5F5F5F5F5F5F5F5F5F578F5F5ABABF5
310
F5F578F5F5ABABF5F5F578F5F5F5F5F5F5F5F5F5F5F5F5F5F5F5F5F5F5F5F578F5F5F5F5F5F5F5F5F5F5F5F5F5F5F5F5F5F5F5F5F5F5F5F5F5F5F5F5F5F5F5F5E2F5F5EF28F5F5F5E2F5F5F5F5BEF5F5F5F5F5F5F5F553F5F5F5F578F5F5F5F5F5F5F5F5F5F5F5F578F5F5ABABABF5F578F5F5ABABABF5F578F5F5F5F5F5F5
310
F5F5F5F5F5F5F5F5F5F5F5F5F5F5F553F5F5F5F5F5F5F5F5F5F5F5F578F5F5F5F578F5F5F5F5ABF5F5F5F5F5F5F5F57878787878787878787878787878787878F5F5F5F5F5F5F5F5F5F5F5F5F5F5F5F5F5F5F5F578F5F5F5F5F5F5F5F5F5F5F5F5F5F5F5F5F5F5F5F5F5F5F5F5F5F5F5BEF5F5F5F5E2F5F5EF28F5F5F5E2F5
310
F5F5F5BEF5F5F5F5F5F5F5F553F5F5F5F578F5F5F5F5F5F5F5F5F5F5F5F578F5F5ABABABF5F578F5F5ABABABF5F578F5F5F5F5F5F5F5F5F5F5F5F5F5F5F5F5F5F5F5F5F553F5F5F5F5F5F5F5F5F5F5F5F578ABABABABABF5F5F5ABABABABABABABF5F5F578ABABABABABABABABABABABABABABF578F5F5F5F5F5F5ABABABAB
310
ABABABABF5F5F5F5F5F578F5F5F5F5F5F5F5F5F5F5F5F5F5F5F5F5F5F5F5F5F5F5F5F5F5F5F5BEF5F5F5F5E2F5F5EF28F5F5F5E2F5F5F5F5BEF5F5F5F5F5F5F5F553F5F5F5F578F5F5F5F5ABF5F5F5F5F5F5F578787878AB787878787878ABAB78787878F5F5F5F5F5F5F5F5F5F5F5F5F5F5F5F5F5F5F5F5F553F5F5F5F5F5
310
F5F5F5F5F5F5F578ABABABAB78F5F5F5ABABABABABABABF5F5F578ABABABABABABABABABABABABABABF578F5F5F5F5F5F5ABABABABABABABABF5F5F5F5F5F578F5F5F5F5F5F5F5F5F5F5F5F5F5F5F5F5F5F5F5F5F5F5F5F5F5F5F5BEF5F5F5F5E2F5F5EF28F5F5F5E2F5F5F5F5BEF5F5F5F5F5F5F5F553ABABABAB78F5F5F5
310
ABABABABABABABF5F578F5ABF5ABABABABABABF5ABABABABAB78F5F5F5F5F5F5F5ABABABABABABABABF5F5F5F5F5F553F5F5F5F5F5F5F5F5F5F5F5F578F5F5F5F578F5F5F5F5F5F5F5F5F5F5F5F5F578F5F5F5ABABABABABABABF5F5F5F5F578F5F5F5F5F5F5F5F5F5F5F5F5F5F5F5F5F5F5F5F578F5F5F5F5F5F5F5F5F5F5
310
F5F5F5F5F5F5F5F5F5F5F5F5F5F5F5F5F5BEF5F5F5F5E2F5F5EF28F5F5F5E2F5F5F5F5BEF5F5F5F5F5F5F5F553ABABABAB78F5F5F5ABABABABABABABF5F578F5ABF5ABABABABABABF5ABABABABAB78F5F5F5F5F5F5F5ABABABABABABABABF5F5F5F5F5F553F5F5F5F5F5F5F5F5F5F5F5F578F5F5F5F578F5F5F5F5F5F5F5F5
310
F5F5F5F5F578F5F5F5ABABABABABABABABF5F5F5F578F5F5F5F5F5F5F5F5F5F5F5F5F5F5F5F5F5F5F5F578F5F5F5F5F5F5F5F5F5F5F5F5F5F5F5F5F5F5F5F5F5F5F5F5F5F5F5BEF5F5F5F5E2F5F5EF28F5F5F5E2F5F5F5F5F5F5F5F5F5F5F5F5F553F5F5F5F578F5F5F5F5F5F5F5F5F5F5F5F578F5F5F5F5ABABABABABABAB
310
F5F5F5F578F5F5F5F5F5F5F5F5F5F5F5F5F5F5F5F5F5F5F5F5F553F5F5F5F5F5F5F5F5F5F5F5F5787878787878787878787878787878787878787878787878787878AB7878787878787878787878787878787878787878787878787878787878F5F5F5F5F5F5F5F5F5F5F5F5F5F5F5F5F5F5F5F5F5F5F5F5F5F5F5F5F5F5F5
310
F5E2F5F5EF28F5F5F5F5F5F5F5F5BFF5F5F5F5F5F5F5F553F5F5F5F578F5F5F5F5F5F5F5F5F5F5F5F578F5F5F5F5ABABABABABABABABF5F5F578F5F5F5F5F5F5F5F5F5F5F5F5F5F5F5F5F5F5F5F5F553F5F5F5F5F5F5F5F5F5F5F5F578F5F5F5F58484848484F58484848484848484848484F5F5F5F5F5F5F5F5F5F5F5F5F5
310
F5F5F5F5F5F5F5F5F5F5F5F5F5F5F5F5F5F5F5F5F578F5F5F5F5F5F5F5F5F5F5F5F5F5F5F5F5F5F5F5F5F5F5F5F5F5F5F5BFF5F5F5F5F5F5F5EF28F5F5F5F5F5F5F5F5BEF5F5F5F5F5F5F5F553F5F5F5F578F5F5F5F5F5F5F5F5F5F5F5F578F5F5F5F5F5F5F5F5ABF5F5F5F5F5F578F5F5F5F5F5F5F5F5F5F5F5F5F5F5F5F5
310
F5F5F5F5F553F5F5F5F5F5F5F5F5F5F5F5F578F5F5F5F58484F58484F58484848484848484848484F5F5F5F5F5F5F5F5F5F5F5F5F5F5F5F5F5F5F5F5F5F5F5F5F5F5F5F5F5F5F5F5F5F578F5F5F5F5F5F5F5F5F5F5F5F5F5F5F5F5F5F5F5F5F5F5F5F5F5F5F5BEF5F5F5F5F5F5F5EF28F5F5F5F5F5F5F5F5BEF5F5F5F5F5F5
310
F5F5787878787878787878787878787878787878787878787878787878787878787878787878787878787878787878787878787878787878787878F5F5F5F5F5F5F5F5F5F5F5F57878787878848484848478848484848484848484848478787878787878787878787878787878787878787878787878787878787878787878
310
78F5F5F5F5F5F5F5F5F5F5F5F5F5F5F5F5F5F5F5F5F5F5F5F5F5F5F5BEF5F5F5F5F5F5F5EF28F5F5F5F5F5F5F5F5BEF5F5F5F5F5F5F5F553F5F5F5848484848484F5F5F5F5F5F5F5F5F5F5F5F5F5F5F5F5F5F5F5F5F5F5F5F5F5F5F5F5F5F5F5F5F5F5F5F5F5F5F5F5F5F5F5F5F5F553F5F5F5F5F5F5F5F5F5F5F5F5F5F5F5
310
F5F5F5F5F5F5F5F5F5F5F5F5F5F5F5F5F5F5F5F5F5F5F5F5F5F5F5F5F5F5F5F5F5F5F5F5F5F5F5F5F5F5F5F5F5F5F5F5F5F5F5F5F5F5F5F5F5F5F5F5F5F5F5F5F5F5F5F5F5F5F5F5F5F5F5F5F5F5F5F5F5BEF5F5F5F5F5F5F5EF28F5F5F5F5F5F5F5F5BEF5F5F5F5F5F5F5F553F5F5F58484848484F5F5F5F5F5F5F5F5F5F5
310
F5F5F5F5F5F5F5F5F5F5F5F5F5F5F5F5F5F5F5F5F5F5F5F5F5F5F5F5F5F5F5F5F5F5F5F5F553F5F5F5F5F5F5F5F5F5F5F5F5F5F5F5F5F5F5F5F5F5F5F5F5F5F5F5F5F5F5F5F5F5F5F5F5F5F5F5F5F5F5F5F5F5F5F5F5F5F5F5F5F5F5F5F5F5F5F5F5F5F5F5F5F5F5F5F5F5F5F5F5F5F5F5F5F5F5F5F5F5F5F5F5F5F5F5F5F5
310
F5F5F5F5F5F5F5BEF5F5F5F5F5F5F5EF28F5F5F5F5F5F5F5F5BEF5F5F5F5F5F5F5F5535353535353535353535353535353535353535353535353535353535353535353535353535353535353535353535353535353535353535353F5F5F5F5F5F5F5F5F5F5F5F5F5F5F5F5F5F5F5F5F5F5F5F5F5F5F5F5F5F5F5F5F5F5F5F5
310
F5F5F5F5F5F5F5F5F5F5F5F5F5F5F5F5F5F5F5F5F5F5F5F5F5F5F5F5F5F5F5F5F5F5F5F5F5F5F5F5F5F5F5F5F5F5F5F5F5F5F5F5F5F5F5F5F5F5F5F5BEF5F5F5F5F5F5F5EF28F5F5F5F5F5F5F5F5BFF5F5F5F5F5F5F5F5F5F5F5F5F5F5F5F5F5F5F5F5F5F5F5F5F5F5F5F5F5F5F5F5F5F5F5F5F5F5F5F5F5F5F5F5F5F5F5F5
310
F5F5F5F5F5F5F5F5F5F5F5F5F5F5F5F5F5F5F5F5F5F5F5F5F5F5F5F5F5F5F5F5F5F5F5F5F5F5F5F5F5F5F5F5F5F5F5F5F5F5F5F5F5F5F5F5F5F5F5F5F5F5F5F5F5F5F5F5F5F5F5F5F5F5F5F5F5F5F5F5F5F5F5F5F5F5F5F5F5F5F5F5F5F5F5F5F5F5F5F5F5F5F5F5F5F5F5F5F5F5F5F5F5BFF5F5F5F5F5F5F5EF28F5F5F5F5
310
F5F5F5F5BEF5F5F5F5F5F5F5F5F5F5F5F5F5F5F5F5F5F5F5F5F5F5F5F5F5F5F5F5F5F5F5F5F5F5F5F5F5F5F5F5F5F5F5F5F5F5F5F5F5F5F5F5F5F5F5F5F5F5F5F5F5F5F5F5F5F5F5F5F5F5F5F5F5F5F5F5F5F5F5F5F5F5F5F5F5F5F5F5F5F5F5F5F5F5F5F5F5F5F5F5F5F5F5F5F5F5F5F5F5F5F5F5F5F5F5F5F5F5F5F5F5F5
310
F5F5F5F5F5F5F5F5F5F5F5F5F5F5F5F5F5F5F5F5F5F5F5F5F5F5F5F5F5F5F5F5F5F5F5F5F5F5F5BEF5F5F5F5F5F5F5EF28F5F5F5F5F5F5F5F5BEF5F527272727272727272727272727272727272727272727272727272727272727272727272727272727272727272727272727272727272727272727272727272727272727
310
272727272727272727F5F5F5F5F5272727272727272727272727272727272727272727272727272727272727272727272727272727272727272727F5F5F5F5F5F5F5F5F5F5F5F5F5F5F5F5F5F5F5F5F5F52727272727272D2D2D2DF5BEF5F5F5F5F5F5F5EF28F5F5F5E2F5F5F5F5BEF5F52727272727272727272727272727
310
2727272727272727272727272727272727272727272727272727272727272727272727272727272727272727272727272727272727272727272727272727F5F5F5F5F5272727272727272727272727272727272727272727272727272727272727272727272727272727272727272727F5F5F5F5F5F5F5F5F5F5F5F5F5F5F5
310
F5F5F5F5F5F5F52727272727272D2D2D2DF5BEF5F5F5F5E2F5F5EF28F5F5F5E2F5F5F5F5BEF5F527272727272727272727272727272727272727272727272727272727272727272727272727272727272727272727272727272727272727272727272727272727272727272727272727272727F5F5F5F5F527272727272727
310
2727272727272727272727272727272727272727272727272727272727272727272727272727F5F5F5F5F5F5F5F5F5F5F5F5F5F5F5F5F5F5F5F5F5F52727272727272D2D2D2DF5BEF5F5F5F5E2F5F5EF28F5F5F5E2F5F5F5F5BEF5F52727272727272727272727272727272727272727272727272727272727272727272727
310
2727272727272727272727272727272727272727272727272727272727272727272727272727272727F5F5F5F5F5272727272727272727272727272727272727272727272727272727272727272727272727272727272727272727F5F5F5F5F5F5F5F5F5F5F5F5F5F5F5F5F5F5F5F5F5F52727272727272D2D2D2DF5BEF5F5
310
F5F5E2F5F5EF28F5F5F5E2F5F5F5F5BEBEBE27272727272727272727272727272727272727272727272727272727272727272727272727272727272727272727272727272727272727272727272727272727272727272727272727272727BEBEF5BEBE27272727272727272727272727272727272727272727272727272727
310
2727272727272727272727272727272727BEBEBEF5BEBEBEBEBEBEF5BEBEBEBEBEF5BEBEBEBEBE2727272727272D2D2D2DBEBEF5F5F5F5E2F5F5EF28F5F5F5E2F5F5F5F5F5F5F5F5F5F5F5F5F5F5F5F5F5F5F5F5F5F5F5F5F5F5F5F5F5F5F5F5F5F5F5F5F5F5F5F5F5F5F5F5F5F5F5F5F5F5F5F5F5F5F5F5F5F5F5F5F5F5F5
310
F5F5F5F5F5F5F5F5F5F5F5F5F5F5F5F5F5F5F5F5F5F5F5F5F5F5F5F5F5F5F5F5F5F5F5F5F5F5F5F5F5F5F5F5F5F5F5F5F5F5F5F5F5F5F5F5F5F5F5F5F5F5F5F5F5F5F5F5F5F5F5F5F5F5F5F5F5F5F5F5F5F5F5F5F5F5F5F5F5F5F5F5F5F5F5F5F5F5F5F5F5F5F5F5F5F5F5F5E2F5F5EF28F5F5F5E2F5F5F5F5F5F5F5F5F5F5
310
F5F5F5F5F5F5F5F5F5F5F5F5F5F5F5F5F5F5F5F5F5F5F5F5F5F5F5F5F5F5F5F5F5F5F5F5F5F5F5F5F5F5F5F5F5F5F5F5F5F5F5F5F5F5F5F5F5F5F5F5F5F5F5F5F5F5F5F5F5F5F5F5F5F5F5F5F5F5F5F5F5F5F5F5F5F5F5F5F5F5F5F5F5F5F5F5F5F5F5F5F5F5F5F5F5F5F5F5F5F5F5F5F5F5F5F5F5F5F5F5F5F5F5F5F5F5F5
310
F5F5F5F5F5F5F5F5F5F5F5F5F5F5F5F5F5F5F5F5F5F5F5F5F5F5F5F5F5F5F5F5F5F5E2F5F5EF28F5F5F5E2F5F5F5F5F5F5F5F5F5F5F5F5F5F5F5F5F5F5F5F5F5F5F5F5F5F5F5F5F5F5F5F5F5F5F5F5F5F5F5F5F5F5F5F5F5F5F5F5F5F5F5F5F5F5F5F5F5F5F5F5F5F5F5F5F5F5F5F5F5F5F5F5F5F5F5F5F5F5F5F5F5F5F5F5
310
F5F5F5F5F5F5F5F5F5F5F5F5F5F5F5F5F5F5F5F5F5F5F5F5F5F5F5F5F5F5F5F5F5F5F5F5F5F5F5F5F5F5F5F5F5F5F5F5F5F5F5F5F5F5F5F5F5F5F5F5F5F5F5F5F5F5F5F5F5F5F5F5F5F5F5F5F5F5F5F5F5F5F5F5F5F5F5E2F5F5EF28F5F5F5E2E2E2E2E2E2E2E2F5F5F5F5F5F5F5F5F5E2E2E2E2E2E2E2E2E2E2E2E2E2E2E2
310
E2F5F5F5F5F5F5F5F5F5E2E2E2E2E2E2E2E2E2E2E2E2E2E2E2E2F5F5F5F5F5F5F5F5E2E2E2E2E2E2E2E2E2E2E2E2E2E2E2E2F5F5F5F5F5F5F5F5F5E2E2E2E2E2E2E2E2E2E2E2E2E2E2E2E2F5F5F5F5F5F5F5F5E2E2E2E2E2E2E2E2E2E2E2E2E2E2E2E2F5F5F5F5F5F5F5F5F5E2E2E2E2E2E2E2E2E2E2E2E2E2E2E2E2F5F5F5
310
F5F5F5F5F5F5E2E2E2E2E2E2E2E2F5F5EF28F5F5F5F5F5F5F5F5F5F5F5F5F5F5F5F5F5F5F5F5F5F5F5F5F5F5F5F5F5F5F5F5F5F5F5F5F5F5F5F5F5F5F5F5F5F5F5F5F5F5F5F5F5F5F5F5F5F5F5F5F5F5F5F5F5F5F5F5F5F5F5F5F5F5F5F5F5F5F5F5F5F5F5F5F5F5F5F5F5F5F5F5F5F5F5F5F5F5F5F5F5F5F5F5F5F5F5F5F5
310
F5F5F5F5F5F5F5F5F5F5F5F5F5F5F5F5F5F5F5F5F5F5F5F5F5F5F5F5F5F5F5F5F5F5F5F5F5F5F5F5F5F5F5F5F5F5F5F5F5F5F5F5F5F5F5F5F5F5F5F5F5F5F5F5F5F5F5F5F5EF28F5F5F5F5F5F5F5F5F5F5F5F5F5F5F5F5F5F5F5F5F5F5F5F5F5F5F5F5F5F5F5F5F5F5F5F5F5F5F5F5F5F5F5F5F5F5F5F5F5F5F5F5F5F5F5F5
310
F5F5F5F5F5F5F5F5F5F5F5F5F5F5F5F5F5F5F5F5F5F5F5F5F5F5F5F5F5F5F5F5F5F5F5F5F5F5F5F5F5F5F5F5F5F5F5F5F5F5F5F5F5F5F5F5F5F5F5F5F5F5F5F5F5F5F5F5F5F5F5F5F5F5F5F5F5F5F5F5F5F5F5F5F5F5F5F5F5F5F5F5F5F5F5F5F5F5F5F5F5F5F5F5F5F5F5F5F5F5F5F5F5F5F5F5F5F5F5F5F5F5EF28F5F5F5
310
F5F5F5F5F5F5F5F5F5F5F5F5F5F5F5F5F5F5F5F5F5F5F5F5F5F5F5F5F5F5F5F5F5F5F5F5F5F5F5F5F5F5F5F5F5F5F5F5F5F5F5F5F5F5F5F5F5F5F5F5F5F5F5F5F5F5F5F5F5F5F5F5F5F5F5F5F5F5F5F5F5F5F5F5F5F5F5F5F5F5F5F5F5F5F5F5F5F5F5F5F5F5F5F5F5F5F5F5F5F5F5F5F5F5F5F5F5F5F5F5F5F5F5F5F5F5F5
310
F5F5F5F5F5F5F5F5F5F5F5F5F5F5F5F5F5F5F5F5F5F5F5F5F5F5F5F5F5F5F5F5F5F5F5F5F5F5F5F5F5F5F5F5F5F5F5F5EF28DCDCDCDCDCDCDCDCDCDCDCDCDCDCDCDCDCDCDCDCDCDCDCDCDCDCDCDCDCDCDCDCDCDCDCDCDCDCDCDCDCDCDCDCDCDCDCDCDCDCDCDCDCDCDCDCDCDCDCDCDCDCDCDCDCDCDCDCDCDCDCDCDCDCDCDCDC
310
DCDCDCDCDCDCDCDCDCDCDCDCDCDCDCDCDCDCDCDCDCDCDCDCDCDCDCDCDCDCDCDCDCDCDCDCDCDCDCDCDCDCDCDCDCDCDCDCDCDCDCDCDCDCDCDCDCDCDCDCDCDCDCDCDCDCDCDCDCDCDCDCDCDCDCDCDCDCDCDCDCDCDCDCDCDCDCDCDCDCDCDCDCDCDCDCDCDCDCDCDCEF28282828282828282828282828282828282828282828282828
310
28282828282828282828282828282828282828282828282828282828282828282828282828282828282828282828282828282828282828282828282828282828282828282828282828282828282828282828282828282828282828282828282828282828282828282828282828282828282828282828282828282828282828
310
282828282828282828282828282828282828282828282828282828
  0
XRECORD
  5
1D4
102
{ACAD_REACTORS
330
1D3
102
}
330
1D3
100
AcDbXrecord
280
     1
102
MATERIAL
148
0.0
149
0.0
149
0.0
 93
        0
 94
      127
282
     0
 72
     1
 77
     1
171
     1
175
     1
179
     1
273
     0
  0
XRECORD
  5
1D1
102
{ACAD_REACTORS
330
1D0
102
}
330
1D0
100
AcDbXrecord
280
     1
102
MATERIAL
148
0.0
149
0.0
149
0.0
 93
        0
 94
      127
282
     0
 72
     1
 77
     1
171
     1
175
     1
179
     1
273
     0
  0
XRECORD
  5
F
102
{ACAD_REACTORS
330
E
102
}
330
E
100
AcDbXrecord
280
     1
102
MATERIAL
148
0.0
149
0.0
149
0.0
 93
        0
 94
      127
282
     0
 72
     1
 77
     1
171
     1
175
     1
179
     1
273
     0
  0
CELLSTYLEMAP
  5
281
102
{ACAD_REACTORS
330
1DA
102
}
330
1DA
100
AcDbCellStyleMap
 90
        3
300
CELLSTYLE
  1
TABLEFORMAT_BEGIN
 90
        5
170
     1
 91
        0
 92
    32768
 62
   257
 93
        1
300
CONTENTFORMAT
  1
CONTENTFORMAT_BEGIN
 90
        0
 91
        0
 92
        4
 93
        0
300

 40
0.0
140
1.0
 94
        5
 62
     0
340
1BE
144
0.25
309
CONTENTFORMAT_END
171
     1
301
MARGIN
  1
CELLMARGIN_BEGIN
 40
0.06
 40
0.06
 40
0.06
 40
0.06
 40
0.18
 40
0.18
309
CELLMARGIN_END
 94
        6
 95
        1
302
GRIDFORMAT
  1
GRIDFORMAT_BEGIN
 90
        0
 91
        1
 62
     0
 92
       -2
340
0
 93
        0
 40
0.045
309
GRIDFORMAT_END
 95
        2
302
GRIDFORMAT
  1
GRIDFORMAT_BEGIN
 90
        0
 91
        1
 62
     0
 92
       -2
340
0
 93
        0
 40
0.045
309
GRIDFORMAT_END
 95
        4
302
GRIDFORMAT
  1
GRIDFORMAT_BEGIN
 90
        0
 91
        1
 62
     0
 92
       -2
340
0
 93
        0
 40
0.045
309
GRIDFORMAT_END
 95
        8
302
GRIDFORMAT
  1
GRIDFORMAT_BEGIN
 90
        0
 91
        1
 62
     0
 92
       -2
340
0
 93
        0
 40
0.045
309
GRIDFORMAT_END
 95
       16
302
GRIDFORMAT
  1
GRIDFORMAT_BEGIN
 90
        0
 91
        1
 62
     0
 92
       -2
340
0
 93
        0
 40
0.045
309
GRIDFORMAT_END
 95
       32
302
GRIDFORMAT
  1
GRIDFORMAT_BEGIN
 90
        0
 91
        1
 62
     0
 92
       -2
340
0
 93
        0
 40
0.045
309
GRIDFORMAT_END
309
TABLEFORMAT_END
  1
CELLSTYLE_BEGIN
 90
        1
 91
        1
300
_TITLE
309
CELLSTYLE_END
300
CELLSTYLE
  1
TABLEFORMAT_BEGIN
 90
        5
170
     1
 91
        0
 92
        0
 62
   257
 93
        1
300
CONTENTFORMAT
  1
CONTENTFORMAT_BEGIN
 90
        0
 91
        0
 92
        4
 93
        0
300

 40
0.0
140
1.0
 94
        5
 62
     0
340
1BE
144
0.18
309
CONTENTFORMAT_END
171
     1
301
MARGIN
  1
CELLMARGIN_BEGIN
 40
0.06
 40
0.06
 40
0.06
 40
0.06
 40
0.18
 40
0.18
309
CELLMARGIN_END
 94
        6
 95
        1
302
GRIDFORMAT
  1
GRIDFORMAT_BEGIN
 90
        0
 91
        1
 62
     0
 92
       -2
340
0
 93
        0
 40
0.045
309
GRIDFORMAT_END
 95
        2
302
GRIDFORMAT
  1
GRIDFORMAT_BEGIN
 90
        0
 91
        1
 62
     0
 92
       -2
340
0
 93
        0
 40
0.045
309
GRIDFORMAT_END
 95
        4
302
GRIDFORMAT
  1
GRIDFORMAT_BEGIN
 90
        0
 91
        1
 62
     0
 92
       -2
340
0
 93
        0
 40
0.045
309
GRIDFORMAT_END
 95
        8
302
GRIDFORMAT
  1
GRIDFORMAT_BEGIN
 90
        0
 91
        1
 62
     0
 92
       -2
340
0
 93
        0
 40
0.045
309
GRIDFORMAT_END
 95
       16
302
GRIDFORMAT
  1
GRIDFORMAT_BEGIN
 90
        0
 91
        1
 62
     0
 92
       -2
340
0
 93
        0
 40
0.045
309
GRIDFORMAT_END
 95
       32
302
GRIDFORMAT
  1
GRIDFORMAT_BEGIN
 90
        0
 91
        1
 62
     0
 92
       -2
340
0
 93
        0
 40
0.045
309
GRIDFORMAT_END
309
TABLEFORMAT_END
  1
CELLSTYLE_BEGIN
 90
        2
 91
        1
300
_HEADER
309
CELLSTYLE_END
300
CELLSTYLE
  1
TABLEFORMAT_BEGIN
 90
        5
170
     1
 91
        0
 92
        0
 62
   257
 93
        1
300
CONTENTFORMAT
  1
CONTENTFORMAT_BEGIN
 90
        0
 91
        0
 92
        4
 93
        0
300

 40
0.0
140
1.0
 94
        2
 62
     0
340
1BE
144
0.18
309
CONTENTFORMAT_END
171
     1
301
MARGIN
  1
CELLMARGIN_BEGIN
 40
0.06
 40
0.06
 40
0.06
 40
0.06
 40
0.18
 40
0.18
309
CELLMARGIN_END
 94
        6
 95
        1
302
GRIDFORMAT
  1
GRIDFORMAT_BEGIN
 90
        0
 91
        1
 62
     0
 92
       -2
340
0
 93
        0
 40
0.045
309
GRIDFORMAT_END
 95
        2
302
GRIDFORMAT
  1
GRIDFORMAT_BEGIN
 90
        0
 91
        1
 62
     0
 92
       -2
340
0
 93
        0
 40
0.045
309
GRIDFORMAT_END
 95
        4
302
GRIDFORMAT
  1
GRIDFORMAT_BEGIN
 90
        0
 91
        1
 62
     0
 92
       -2
340
0
 93
        0
 40
0.045
309
GRIDFORMAT_END
 95
        8
302
GRIDFORMAT
  1
GRIDFORMAT_BEGIN
 90
        0
 91
        1
 62
     0
 92
       -2
340
0
 93
        0
 40
0.045
309
GRIDFORMAT_END
 95
       16
302
GRIDFORMAT
  1
GRIDFORMAT_BEGIN
 90
        0
 91
        1
 62
     0
 92
       -2
340
0
 93
        0
 40
0.045
309
GRIDFORMAT_END
 95
       32
302
GRIDFORMAT
  1
GRIDFORMAT_BEGIN
 90
        0
 91
        1
 62
     0
 92
       -2
340
0
 93
        0
 40
0.045
309
GRIDFORMAT_END
309
TABLEFORMAT_END
  1
CELLSTYLE_BEGIN
 90
        3
 91
        2
300
_DATA
309
CELLSTYLE_END
  0
XRECORD
  5
28B
102
{ACAD_REACTORS
330
1DA
102
}
330
1DA
100
AcDbXrecord
280
     1
102
ACAD_ROUNDTRIP_PRE2007_TABLESTYLE
 90
        4
 91
        0
  1

 92
        4
 93
        0
  2

 94
        4
 95
        0
  3

  0
ENDSEC
  0
EOF
