  0
SECTION
  2
HEADER
  9
$ACADVER
  1
AC1015
  9
$ACADMAINTVER
 70
    18
  9
$DWGCODEPAGE
  3
ANSI_1250
  9
$INSBASE
 10
215187.233673673
 20
127657.5168525552
 30
0.0
  9
$EXTMIN
 10
1.000000000000000E+20
 20
1.000000000000000E+20
 30
1.000000000000000E+20
  9
$EXTMAX
 10
0.0
 20
0.0
 30
0.0
  9
$LIMMIN
 10
0.0
 20
0.0
  9
$LIMMAX
 10
420.0
 20
297.0
  9
$ORTHOMODE
 70
     0
  9
$REGENMODE
 70
     1
  9
$FILLMODE
 70
     1
  9
$QTEXTMODE
 70
     0
  9
$MIRRTEXT
 70
     0
  9
$LTSCALE
 40
75.0
  9
$ATTMODE
 70
     1
  9
$TEXTSIZE
 40
20.0
  9
$TRACEWID
 40
1.0
  9
$TEXTSTYLE
  7
ROMANS
  9
$CLAYER
  8
0Wymiary-PL
  9
$CELTYPE
  6
ByLayer
  9
$CECOLOR
 62
   256
  9
$CELTSCALE
 40
1.0
  9
$DISPSILH
 70
     0
  9
$DIMSCALE
 40
96.0
  9
$DIMASZ
 40
30.0
  9
$DIMEXO
 40
43.0
  9
$DIMDLI
 40
0.0
  9
$DIMRND
 40
0.5
  9
$DIMDLE
 40
12.0
  9
$DIMEXE
 40
13.0
  9
$DIMTP
 40
0.0
  9
$DIMTM
 40
0.0
  9
$DIMTXT
 40
80.0
  9
$DIMCEN
 40
0.0
  9
$DIMTSZ
 40
0.0
  9
$DIMTOL
 70
     0
  9
$DIMLIM
 70
     0
  9
$DIMTIH
 70
     0
  9
$DIMTOH
 70
     0
  9
$DIMSE1
 70
     1
  9
$DIMSE2
 70
     1
  9
$DIMTAD
 70
     0
  9
$DIMZIN
 70
    12
  9
$DIMBLK
  1
B-DIM
  9
$DIMASO
 70
     1
  9
$DIMSHO
 70
     1
  9
$DIMPOST
  1

  9
$DIMAPOST
  1

  9
$DIMALT
 70
     0
  9
$DIMALTD
 70
     2
  9
$DIMALTF
 40
25.4
  9
$DIMLFAC
 40
1.0
  9
$DIMTOFL
 70
     1
  9
$DIMTVP
 40
1.0
  9
$DIMTIX
 70
     1
  9
$DIMSOXD
 70
     0
  9
$DIMSAH
 70
     0
  9
$DIMBLK1
  1

  9
$DIMBLK2
  1

  9
$DIMSTYLE
  2
500
  9
$DIMCLRD
 70
     1
  9
$DIMCLRE
 70
     1
  9
$DIMCLRT
 70
    10
  9
$DIMTFAC
 40
1.0
  9
$DIMGAP
 40
0.0
  9
$DIMJUST
 70
     0
  9
$DIMSD1
 70
     0
  9
$DIMSD2
 70
     0
  9
$DIMTOLJ
 70
     1
  9
$DIMTZIN
 70
     0
  9
$DIMALTZ
 70
     0
  9
$DIMALTTZ
 70
     0
  9
$DIMUPT
 70
     0
  9
$DIMDEC
 70
     1
  9
$DIMTDEC
 70
     1
  9
$DIMALTU
 70
     2
  9
$DIMALTTD
 70
     2
  9
$DIMTXSTY
  7
ROMANS
  9
$DIMAUNIT
 70
     0
  9
$DIMADEC
 70
     0
  9
$DIMALTRND
 40
0.0
  9
$DIMAZIN
 70
     0
  9
$DIMDSEP
 70
    46
  9
$DIMATFIT
 70
     3
  9
$DIMFRAC
 70
     0
  9
$DIMLDRBLK
  1
B-DIM
  9
$DIMLUNIT
 70
     2
  9
$DIMLWD
 70
    -2
  9
$DIMLWE
 70
    -2
  9
$DIMTMOVE
 70
     2
  9
$LUNITS
 70
     2
  9
$LUPREC
 70
     1
  9
$SKETCHINC
 40
1.0
  9
$FILLETRAD
 40
0.0
  9
$AUNITS
 70
     0
  9
$AUPREC
 70
     0
  9
$MENU
  1
.
  9
$ELEVATION
 40
0.0
  9
$PELEVATION
 40
0.0
  9
$THICKNESS
 40
0.0
  9
$LIMCHECK
 70
     0
  9
$CHAMFERA
 40
0.0
  9
$CHAMFERB
 40
0.0
  9
$CHAMFERC
 40
20.0
  9
$CHAMFERD
 40
0.0
  9
$SKPOLY
 70
     0
  9
$TDCREATE
 40
2452027.670547454
  9
$TDUCREATE
 40
2452027.587214121
  9
$TDUPDATE
 40
2455054.610243229
  9
$TDUUPDATE
 40
2455054.526909896
  9
$TDINDWG
 40
9.0045803935
  9
$TDUSRTIMER
 40
9.0045803935
  9
$USRTIMER
 70
     1
  9
$ANGBASE
 50
0.0
  9
$ANGDIR
 70
     0
  9
$PDMODE
 70
     0
  9
$PDSIZE
 40
0.0
  9
$PLINEWID
 40
0.0
  9
$SPLFRAME
 70
     0
  9
$SPLINETYPE
 70
     6
  9
$SPLINESEGS
 70
     8
  9
$HANDSEED
  5
3CB
  9
$SURFTAB1
 70
     6
  9
$SURFTAB2
 70
     6
  9
$SURFTYPE
 70
     6
  9
$SURFU
 70
     6
  9
$SURFV
 70
     6
  9
$UCSBASE
  2

  9
$UCSNAME
  2

  9
$UCSORG
 10
0.0
 20
0.0
 30
0.0
  9
$UCSXDIR
 10
1.0
 20
0.0
 30
0.0
  9
$UCSYDIR
 10
0.0
 20
1.0
 30
0.0
  9
$UCSORTHOREF
  2

  9
$UCSORTHOVIEW
 70
     0
  9
$UCSORGTOP
 10
0.0
 20
0.0
 30
0.0
  9
$UCSORGBOTTOM
 10
0.0
 20
0.0
 30
0.0
  9
$UCSORGLEFT
 10
0.0
 20
0.0
 30
0.0
  9
$UCSORGRIGHT
 10
0.0
 20
0.0
 30
0.0
  9
$UCSORGFRONT
 10
0.0
 20
0.0
 30
0.0
  9
$UCSORGBACK
 10
0.0
 20
0.0
 30
0.0
  9
$PUCSBASE
  2

  9
$PUCSNAME
  2

  9
$PUCSORG
 10
0.0
 20
0.0
 30
0.0
  9
$PUCSXDIR
 10
1.0
 20
0.0
 30
0.0
  9
$PUCSYDIR
 10
0.0
 20
1.0
 30
0.0
  9
$PUCSORTHOREF
  2

  9
$PUCSORTHOVIEW
 70
     0
  9
$PUCSORGTOP
 10
0.0
 20
0.0
 30
0.0
  9
$PUCSORGBOTTOM
 10
0.0
 20
0.0
 30
0.0
  9
$PUCSORGLEFT
 10
0.0
 20
0.0
 30
0.0
  9
$PUCSORGRIGHT
 10
0.0
 20
0.0
 30
0.0
  9
$PUCSORGFRONT
 10
0.0
 20
0.0
 30
0.0
  9
$PUCSORGBACK
 10
0.0
 20
0.0
 30
0.0
  9
$USERI1
 70
     0
  9
$USERI2
 70
     0
  9
$USERI3
 70
     0
  9
$USERI4
 70
     0
  9
$USERI5
 70
     0
  9
$USERR1
 40
0.0
  9
$USERR2
 40
0.0
  9
$USERR3
 40
0.0
  9
$USERR4
 40
0.0
  9
$USERR5
 40
0.0
  9
$WORLDVIEW
 70
     1
  9
$SHADEDGE
 70
     3
  9
$SHADEDIF
 70
    70
  9
$TILEMODE
 70
     1
  9
$MAXACTVP
 70
    64
  9
$PINSBASE
 10
0.0
 20
0.0
 30
0.0
  9
$PLIMCHECK
 70
     0
  9
$PEXTMIN
 10
1.000000000000000E+20
 20
1.000000000000000E+20
 30
1.000000000000000E+20
  9
$PEXTMAX
 10
-1.000000000000000E+20
 20
-1.000000000000000E+20
 30
-1.000000000000000E+20
  9
$PLIMMIN
 10
0.0
 20
0.0
  9
$PLIMMAX
 10
420.0
 20
297.0
  9
$UNITMODE
 70
     0
  9
$VISRETAIN
 70
     1
  9
$PLINEGEN
 70
     0
  9
$PSLTSCALE
 70
     1
  9
$TREEDEPTH
 70
  3020
  9
$CMLSTYLE
  2
Standard
  9
$CMLJUST
 70
     0
  9
$CMLSCALE
 40
20.0
  9
$PROXYGRAPHICS
 70
     1
  9
$MEASUREMENT
 70
     0
  9
$CELWEIGHT
370
    -1
  9
$ENDCAPS
280
     0
  9
$JOINSTYLE
280
     0
  9
$LWDISPLAY
290
     0
  9
$INSUNITS
 70
     1
  9
$HYPERLINKBASE
  1

  9
$STYLESHEET
  1

  9
$XEDIT
290
     1
  9
$CEPSNTYPE
380
     0
  9
$PSTYLEMODE
290
     1
  9
$FINGERPRINTGUID
  2
{79067748-383E-4A71-9443-875BFAA9640F}
  9
$VERSIONGUID
  2
{FA555AA1-2F0F-414F-B09C-FC7273459EE7}
  9
$EXTNAMES
290
     1
  9
$PSVPSCALE
 40
0.0
  9
$OLESTARTUP
290
     0
  0
ENDSEC
  0
SECTION
  2
CLASSES
  0
CLASS
  1
ACDBDICTIONARYWDFLT
  2
AcDbDictionaryWithDefault
  3
ObjectDBX Classes
 90
        0
280
     0
281
     0
  0
CLASS
  1
ACDBPLACEHOLDER
  2
AcDbPlaceHolder
  3
ObjectDBX Classes
 90
        0
280
     0
281
     0
  0
CLASS
  1
LAYOUT
  2
AcDbLayout
  3
ObjectDBX Classes
 90
        0
280
     0
281
     0
  0
CLASS
  1
DICTIONARYVAR
  2
AcDbDictionaryVar
  3
ObjectDBX Classes
 90
        0
280
     0
281
     0
  0
CLASS
  1
SORTENTSTABLE
  2
AcDbSortentsTable
  3
ObjectDBX Classes
 90
        0
280
     0
281
     0
  0
CLASS
  1
AEC_VARS_DWG_SETUP
  2
AecDbVarsDwgSetup
  3
AecBase50|Product Desc: Autodesk Architectural Desktop 2007 |Company: Autodesk,Inc. |WEB Address: www.autodesk.com
 90
    32897
280
     0
281
     0
  0
CLASS
  1
AEC_DISP_REP_CONFIG
  2
AecDbDispRepConfig
  3
AecBase50|Product Desc: Autodesk Architectural Desktop 2007 |Company: Autodesk,Inc. |WEB Address: www.autodesk.com
 90
    32897
280
     0
281
     0
  0
CLASS
  1
AEC_DISP_REP_SET
  2
AecDbDispRepSet
  3
AecBase50|Product Desc: Autodesk Architectural Desktop 2007 |Company: Autodesk,Inc. |WEB Address: www.autodesk.com
 90
    32897
280
     0
281
     0
  0
CLASS
  1
AEC_DISP_REP_2D_SECTION
  2
AecDbDispRep2dSection
  3
AecBase50|Product Desc: Autodesk Architectural Desktop 2007 |Company: Autodesk,Inc. |WEB Address: www.autodesk.com
 90
    32897
280
     0
281
     0
  0
CLASS
  1
AEC_DISP_REP_ANCHOR_BUB_TO_GRID
  2
AecDbDispRepAnchorBubToGrid
  3
AecStructureBase50|Product Desc: Autodesk Architectural Desktop 2007 |Company: Autodesk,Inc. |WEB Address: www.autodesk.com
 90
    32897
280
     0
281
     0
  0
CLASS
  1
AEC_DISP_REP_ANCHOR_BUB_TO_GRID_MODEL
  2
AecDbDispRepAnchorBubToGridMdl
  3
AecStructureBase50|Product Desc: Autodesk Architectural Desktop 2007 |Company: Autodesk,Inc. |WEB Address: www.autodesk.com
 90
    32897
280
     0
281
     0
  0
CLASS
  1
AEC_DISP_REP_ANCHOR_ENT_TO_NODE
  2
AecDbDispRepAnchorEntToNode
  3
AecBaseEx50|Product Desc: Autodesk Architectural Desktop 2007 |Company: Autodesk,Inc. |WEB Address: www.autodesk.com
 90
    32897
280
     0
281
     0
  0
CLASS
  1
AEC_DISP_REP_ANCHOR_TAG_TO_ENT
  2
AecDbDispRepAnchorTagToEnt
  3
AecScheduleData50|Product Desc: Autodesk Architectural Desktop 2007 |Company: Autodesk,Inc. |WEB Address: www.autodesk.com
 90
    32897
280
     0
281
     0
  0
CLASS
  1
AEC_DISP_REP_AREA
  2
AecDbDispRepArea
  3
AecAreaCalculationBase50|Product Desc: Autodesk Architectural Desktop 2007 |Company: Autodesk,Inc. |WEB Address: www.autodesk.com
 90
    32897
280
     0
281
     0
  0
CLASS
  1
AEC_DISP_REP_AREA_DECOMPOSED
  2
AecDbDispRepAreaDecomposed
  3
AecAreaCalculationBase50|Product Desc: Autodesk Architectural Desktop 2007 |Company: Autodesk,Inc. |WEB Address: www.autodesk.com
 90
    32897
280
     0
281
     0
  0
CLASS
  1
AEC_DISP_REP_AREAGROUP
  2
AecDbDispRepAreaGroup
  3
AecAreaCalculationBase50|Product Desc: Autodesk Architectural Desktop 2007 |Company: Autodesk,Inc. |WEB Address: www.autodesk.com
 90
    32897
280
     0
281
     0
  0
CLASS
  1
AEC_DISP_REP_BDG_ELEVLINE_MODEL
  2
AecDbDispRepBdgElevLineModel
  3
AecArchBase50|Product Desc: Autodesk Architectural Desktop 2007 |Company: Autodesk,Inc. |WEB Address: www.autodesk.com
 90
    32897
280
     0
281
     0
  0
CLASS
  1
AEC_DISP_REP_BDG_SECTIONLINE_PLAN
  2
AecDbDispRepBdgElevLinePlan
  3
AecArchBase50|Product Desc: Autodesk Architectural Desktop 2007 |Company: Autodesk,Inc. |WEB Address: www.autodesk.com
 90
    32897
280
     0
281
     0
  0
CLASS
  1
AEC_DISP_REP_BDG_SECTIONLINE_MODEL
  2
AecDbDispRepBdgSectionLineModel
  3
AecArchBase50|Product Desc: Autodesk Architectural Desktop 2007 |Company: Autodesk,Inc. |WEB Address: www.autodesk.com
 90
    32897
280
     0
281
     0
  0
CLASS
  1
AEC_DISP_REP_BDG_SECTIONLINE_PLAN
  2
AecDbDispRepBdgSectionLinePlan
  3
AecArchBase50|Product Desc: Autodesk Architectural Desktop 2007 |Company: Autodesk,Inc. |WEB Address: www.autodesk.com
 90
    32897
280
     0
281
     0
  0
CLASS
  1
AEC_DISP_REP_BDG_SECTION_SUBDIV
  2
AecDbDispRepBdgSectionSubDiv
  3
AecArchBase50|Product Desc: Autodesk Architectural Desktop 2007 |Company: Autodesk,Inc. |WEB Address: www.autodesk.com
 90
    32897
280
     0
281
     0
  0
CLASS
  1
AEC_DISP_REP_CAMERA
  2
AecDbDispRepCamera
  3
AecBase50|Product Desc: Autodesk Architectural Desktop 2007 |Company: Autodesk,Inc. |WEB Address: www.autodesk.com
 90
    32897
280
     0
281
     0
  0
CLASS
  1
AEC_DISP_REP_CEILING_GRID
  2
AecDbDispRepCeilingGrid
  3
AecArchBase50|Product Desc: Autodesk Architectural Desktop 2007 |Company: Autodesk,Inc. |WEB Address: www.autodesk.com
 90
    33661
280
     0
281
     0
  0
CLASS
  1
AEC_DISP_REP_CEILING_GRID_MODEL
  2
AecDbDispRepCeilingGridModel
  3
AecArchBase50|Product Desc: Autodesk Architectural Desktop 2007 |Company: Autodesk,Inc. |WEB Address: www.autodesk.com
 90
    32897
280
     0
281
     0
  0
CLASS
  1
AEC_DISP_REP_CEILING_GRID_RCP
  2
AecDbDispRepCeilingGridRcp
  3
AecArchBase50|Product Desc: Autodesk Architectural Desktop 2007 |Company: Autodesk,Inc. |WEB Address: www.autodesk.com
 90
    32897
280
     0
281
     0
  0
CLASS
  1
AEC_DISP_REP_CLIP_VOLUME_MODEL
  2
AecDbDispRepClipVolModel
  3
AecBase50|Product Desc: Autodesk Architectural Desktop 2007 |Company: Autodesk,Inc. |WEB Address: www.autodesk.com
 90
    32897
280
     0
281
     0
  0
CLASS
  1
AEC_DISP_REP_CLIP_VOLUME_PLAN
  2
AecDbDispRepClipVolPlan
  3
AecBase50|Product Desc: Autodesk Architectural Desktop 2007 |Company: Autodesk,Inc. |WEB Address: www.autodesk.com
 90
    32897
280
     0
281
     0
  0
CLASS
  1
AEC_DISP_REP_CLIP_VOLUME_RESULT_SUBDIV
  2
AecDbDispRepClipVolResSubDiv
  3
AecBase50|Product Desc: Autodesk Architectural Desktop 2007 |Company: Autodesk,Inc. |WEB Address: www.autodesk.com
 90
    32897
280
     0
281
     0
  0
CLASS
  1
AEC_DISP_REP_CLIP_VOLUME_RESULT
  2
AecDbDispRepClipVolResult
  3
AecBase50|Product Desc: Autodesk Architectural Desktop 2007 |Company: Autodesk,Inc. |WEB Address: www.autodesk.com
 90
    32897
280
     0
281
     0
  0
CLASS
  1
AEC_DISP_REP_COLUMN_GRID
  2
AecDbDispRepColumnGrid
  3
AecStructureBase50|Product Desc: Autodesk Architectural Desktop 2007 |Company: Autodesk,Inc. |WEB Address: www.autodesk.com
 90
    32897
280
     0
281
     0
  0
CLASS
  1
AEC_DISP_REP_COLUMN_GRID_MODEL
  2
AecDbDispRepColumnGridModel
  3
AecStructureBase50|Product Desc: Autodesk Architectural Desktop 2007 |Company: Autodesk,Inc. |WEB Address: www.autodesk.com
 90
    32897
280
     0
281
     0
  0
CLASS
  1
AEC_DISP_REP_CURTAIN_WALL_LAYOUT_MODEL
  2
AecDbDispRepCurtainWallLayoutModel
  3
AecArchBase50|Product Desc: Autodesk Architectural Desktop 2007 |Company: Autodesk,Inc. |WEB Address: www.autodesk.com
 90
    32897
280
     0
281
     0
  0
CLASS
  1
AEC_DISP_REP_CURTAIN_WALL_LAYOUT_PLAN
  2
AecDbDispRepCurtainWallLayoutPlan
  3
AecArchBase50|Product Desc: Autodesk Architectural Desktop 2007 |Company: Autodesk,Inc. |WEB Address: www.autodesk.com
 90
    32897
280
     0
281
     0
  0
CLASS
  1
AEC_DISP_REP_CURTAIN_WALL_UNIT_MODEL
  2
AecDbDispRepCurtainWallUnitModel
  3
AecArchBase50|Product Desc: Autodesk Architectural Desktop 2007 |Company: Autodesk,Inc. |WEB Address: www.autodesk.com
 90
    32897
280
     0
281
     0
  0
CLASS
  1
AEC_DISP_REP_CURTAIN_WALL_UNIT_PLAN
  2
AecDbDispRepCurtainWallUnitPlan
  3
AecArchBase50|Product Desc: Autodesk Architectural Desktop 2007 |Company: Autodesk,Inc. |WEB Address: www.autodesk.com
 90
    32897
280
     0
281
     0
  0
CLASS
  1
AEC_DB_DISP_REP_DIM_GROUP_PLAN
  2
AecDbDispRepDimGroupPlan
  3
AecArchDACHBase50|Product Desc: Autodesk Architectural Desktop 2007 |Company: Autodesk,Inc. |WEB Address: www.autodesk.com
 90
    32897
280
     0
281
     0
  0
CLASS
  1
AEC_DISP_REP_DOOR_MODEL
  2
AecDbDispRepDoorModel
  3
AecArchBase50|Product Desc: Autodesk Architectural Desktop 2007 |Company: Autodesk,Inc. |WEB Address: www.autodesk.com
 90
    32897
280
     0
281
     0
  0
CLASS
  1
AEC_DISP_REP_DOOR_NOMINAL
  2
AecDbDispRepDoorNominal
  3
AecArchBase50|Product Desc: Autodesk Architectural Desktop 2007 |Company: Autodesk,Inc. |WEB Address: www.autodesk.com
 90
    32897
280
     0
281
     0
  0
CLASS
  1
AEC_DISP_REP_DOOR_PLAN
  2
AecDbDispRepDoorPlan
  3
AecArchBase50|Product Desc: Autodesk Architectural Desktop 2007 |Company: Autodesk,Inc. |WEB Address: www.autodesk.com
 90
    32897
280
     0
281
     0
  0
CLASS
  1
AEC_DISP_REP_EDITINPLACEPROFILE
  2
AecDbDispRepEditInPlaceProfile
  3
AecBase50|Product Desc: Autodesk Architectural Desktop 2007 |Company: Autodesk,Inc. |WEB Address: www.autodesk.com
 90
    32897
280
     0
281
     0
  0
CLASS
  1
AEC_DISP_REP_ENT_REF
  2
AecDbDispRepEntRef
  3
AecBase50|Product Desc: Autodesk Architectural Desktop 2007 |Company: Autodesk,Inc. |WEB Address: www.autodesk.com
 90
    32897
280
     0
281
     0
  0
CLASS
  1
AEC_DISP_REP_LAYOUT_CURVE
  2
AecDbDispRepLayoutCurve
  3
AecBase50|Product Desc: Autodesk Architectural Desktop 2007 |Company: Autodesk,Inc. |WEB Address: www.autodesk.com
 90
    32897
280
     0
281
     0
  0
CLASS
  1
AEC_DISP_REP_LAYOUT_GRID2D
  2
AecDbDispRepLayoutGrid2d
  3
AecBase50|Product Desc: Autodesk Architectural Desktop 2007 |Company: Autodesk,Inc. |WEB Address: www.autodesk.com
 90
    32897
280
     0
281
     0
  0
CLASS
  1
AEC_DISP_REP_LAYOUT_GRID3D
  2
AecDbDispRepLayoutGrid3d
  3
AecBase50|Product Desc: Autodesk Architectural Desktop 2007 |Company: Autodesk,Inc. |WEB Address: www.autodesk.com
 90
    32897
280
     0
281
     0
  0
CLASS
  1
AEC_DISP_REP_MASKBLOCK_REF
  2
AecDbDispRepMaskBlockRef
  3
AecBase50|Product Desc: Autodesk Architectural Desktop 2007 |Company: Autodesk,Inc. |WEB Address: www.autodesk.com
 90
    32897
280
     0
281
     0
  0
CLASS
  1
AEC_DISP_REP_MASKBLOCK_REF_RCP
  2
AecDbDispRepMaskBlockRefRcp
  3
AecArchBase50|Product Desc: Autodesk Architectural Desktop 2007 |Company: Autodesk,Inc. |WEB Address: www.autodesk.com
 90
    32897
280
     0
281
     0
  0
CLASS
  1
AEC_DISP_REP_MASS_ELEM_MODEL
  2
AecDbDispRepMassElemModel
  3
AecBaseEx50|Product Desc: Autodesk Architectural Desktop 2007 |Company: Autodesk,Inc. |WEB Address: www.autodesk.com
 90
    32897
280
     0
281
     0
  0
CLASS
  1
AEC_DISP_REP_MASS_ELEM_SCHEM
  2
AecDbDispRepMassElemSchem
  3
AecBaseEx50|Product Desc: Autodesk Architectural Desktop 2007 |Company: Autodesk,Inc. |WEB Address: www.autodesk.com
 90
    32897
280
     0
281
     0
  0
CLASS
  1
AEC_DISP_REP_MASS_GROUP_MODEL
  2
AecDbDispRepMassGroupModel
  3
AecBaseEx50|Product Desc: Autodesk Architectural Desktop 2007 |Company: Autodesk,Inc. |WEB Address: www.autodesk.com
 90
    32897
280
     0
281
     0
  0
CLASS
  1
AEC_DISP_REP_MASS_GROUP_PLAN
  2
AecDbDispRepMassGroupPlan
  3
AecBaseEx50|Product Desc: Autodesk Architectural Desktop 2007 |Company: Autodesk,Inc. |WEB Address: www.autodesk.com
 90
    32897
280
     0
281
     0
  0
CLASS
  1
AEC_DISP_REP_MATERIAL
  2
AecDbDispRepMaterial
  3
AecBase50|Product Desc: Autodesk Architectural Desktop 2007 |Company: Autodesk,Inc. |WEB Address: www.autodesk.com
 90
    32897
280
     0
281
     0
  0
CLASS
  1
AEC_DISP_REP_MVBLOCK_REF
  2
AecDbDispRepMvBlockRef
  3
AecBase50|Product Desc: Autodesk Architectural Desktop 2007 |Company: Autodesk,Inc. |WEB Address: www.autodesk.com
 90
    32897
280
     0
281
     0
  0
CLASS
  1
AEC_DISP_REP_MVBLOCK_REF_MODEL
  2
AecDbDispRepMvBlockRefModel
  3
AecBase50|Product Desc: Autodesk Architectural Desktop 2007 |Company: Autodesk,Inc. |WEB Address: www.autodesk.com
 90
    32897
280
     0
281
     0
  0
CLASS
  1
AEC_DISP_REP_OPENING
  2
AecDbDispRepOpening
  3
AecArchBase50|Product Desc: Autodesk Architectural Desktop 2007 |Company: Autodesk,Inc. |WEB Address: www.autodesk.com
 90
    32897
280
     0
281
     0
  0
CLASS
  1
AEC_DISP_REP_OPENING_MODEL
  2
AecDbDispRepOpeningModel
  3
AecArchBase50|Product Desc: Autodesk Architectural Desktop 2007 |Company: Autodesk,Inc. |WEB Address: www.autodesk.com
 90
    32897
280
     0
281
     0
  0
CLASS
  1
AEC_DISP_REP_POLYGON_MODEL
  2
AecDbDispRepPolygonModel
  3
AecBaseEx50|Product Desc: Autodesk Architectural Desktop 2007 |Company: Autodesk,Inc. |WEB Address: www.autodesk.com
 90
    32897
280
     0
281
     0
  0
CLASS
  1
AEC_DISP_REP_RAILING_MODEL
  2
AecDbDispRepRailingModel
  3
AecArchBase50|Product Desc: Autodesk Architectural Desktop 2007 |Company: Autodesk,Inc. |WEB Address: www.autodesk.com
 90
    32897
280
     0
281
     0
  0
CLASS
  1
AEC_DISP_REP_RAILING_PLAN
  2
AecDbDispRepRailingPlan
  3
AecArchBase50|Product Desc: Autodesk Architectural Desktop 2007 |Company: Autodesk,Inc. |WEB Address: www.autodesk.com
 90
    32897
280
     0
281
     0
  0
CLASS
  1
AEC_DISP_REP_ROOF_MODEL
  2
AecDbDispRepRoofModel
  3
AecArchBase50|Product Desc: Autodesk Architectural Desktop 2007 |Company: Autodesk,Inc. |WEB Address: www.autodesk.com
 90
    32897
280
     0
281
     0
  0
CLASS
  1
AEC_DISP_REP_ROOF_PLAN
  2
AecDbDispRepRoofPlan
  3
AecArchBase50|Product Desc: Autodesk Architectural Desktop 2007 |Company: Autodesk,Inc. |WEB Address: www.autodesk.com
 90
    32897
280
     0
281
     0
  0
CLASS
  1
AEC_DISP_REP_ROOFSLAB_MODEL
  2
AecDbDispRepRoofSlabModel
  3
AecArchBase50|Product Desc: Autodesk Architectural Desktop 2007 |Company: Autodesk,Inc. |WEB Address: www.autodesk.com
 90
    32897
280
     0
281
     0
  0
CLASS
  1
AEC_DISP_REP_ROOFSLAB_PLAN
  2
AecDbDispRepRoofSlabPlan
  3
AecArchBase50|Product Desc: Autodesk Architectural Desktop 2007 |Company: Autodesk,Inc. |WEB Address: www.autodesk.com
 90
    32897
280
     0
281
     0
  0
CLASS
  1
AEC_DISP_REP_SCHEDULE_TABLE
  2
AecDbDispRepScheduleTable
  3
AecSchedule50|Product Desc: Autodesk Architectural Desktop 2007 |Company: Autodesk,Inc. |WEB Address: www.autodesk.com
 90
    32897
280
     0
281
     0
  0
CLASS
  1
AEC_DISP_REP_SLAB_MODEL
  2
AecDbDispRepSlabModel
  3
AecArchBase50|Product Desc: Autodesk Architectural Desktop 2007 |Company: Autodesk,Inc. |WEB Address: www.autodesk.com
 90
    32897
280
     0
281
     0
  0
CLASS
  1
AEC_DISP_REP_SLAB_PLAN
  2
AecDbDispRepSlabPlan
  3
AecArchBase50|Product Desc: Autodesk Architectural Desktop 2007 |Company: Autodesk,Inc. |WEB Address: www.autodesk.com
 90
    32897
280
     0
281
     0
  0
CLASS
  1
AEC_DISP_REP_SLICE
  2
AecDbDispRepSlice
  3
AecBase50|Product Desc: Autodesk Architectural Desktop 2007 |Company: Autodesk,Inc. |WEB Address: www.autodesk.com
 90
    32897
280
     0
281
     0
  0
CLASS
  1
AEC_DISP_REP_SPACE_BOUNDARY_MODEL
  2
AecDbDispRepSpaceBoundaryModel
  3
AecArchBase50|Product Desc: Autodesk Architectural Desktop 2007 |Company: Autodesk,Inc. |WEB Address: www.autodesk.com
 90
    32897
280
     0
281
     0
  0
CLASS
  1
AEC_DISP_REP_SPACE_BOUNDARY_PLAN
  2
AecDbDispRepSpaceBoundaryPlan
  3
AecArchBase50|Product Desc: Autodesk Architectural Desktop 2007 |Company: Autodesk,Inc. |WEB Address: www.autodesk.com
 90
    32897
280
     0
281
     0
  0
CLASS
  1
AEC_DISP_REP_SPACE_BOUNDARY_SCHEM
  2
AecDbDispRepSpaceBoundarySketch
  3
AecArchBase50|Product Desc: Autodesk Architectural Desktop 2007 |Company: Autodesk,Inc. |WEB Address: www.autodesk.com
 90
    32897
280
     0
281
     0
  0
CLASS
  1
AEC_DISP_REP_SPACE_MODEL
  2
AecDbDispRepSpaceModel
  3
AecArchBase50|Product Desc: Autodesk Architectural Desktop 2007 |Company: Autodesk,Inc. |WEB Address: www.autodesk.com
 90
    32897
280
     0
281
     0
  0
CLASS
  1
AEC_DISP_REP_SPACE_PLAN
  2
AecDbDispRepSpacePlan
  3
AecArchBase50|Product Desc: Autodesk Architectural Desktop 2007 |Company: Autodesk,Inc. |WEB Address: www.autodesk.com
 90
    32897
280
     0
281
     0
  0
CLASS
  1
AEC_DISP_REP_STAIR_MODEL
  2
AecDbDispRepStairModel
  3
AecArchBase50|Product Desc: Autodesk Architectural Desktop 2007 |Company: Autodesk,Inc. |WEB Address: www.autodesk.com
 90
    32897
280
     0
281
     0
  0
CLASS
  1
AEC_DISP_REP_STAIR_PLAN
  2
AecDbDispRepStairPlan
  3
AecArchBase50|Product Desc: Autodesk Architectural Desktop 2007 |Company: Autodesk,Inc. |WEB Address: www.autodesk.com
 90
    32897
280
     0
281
     0
  0
CLASS
  1
AEC_DISP_REP_WALL_GRAPH
  2
AecDbDispRepWallGraph
  3
AecArchBase50|Product Desc: Autodesk Architectural Desktop 2007 |Company: Autodesk,Inc. |WEB Address: www.autodesk.com
 90
    32897
280
     0
281
     0
  0
CLASS
  1
AEC_DISP_REP_WALL_MODEL
  2
AecDbDispRepWallModel
  3
AecArchBase50|Product Desc: Autodesk Architectural Desktop 2007 |Company: Autodesk,Inc. |WEB Address: www.autodesk.com
 90
    32897
280
     0
281
     0
  0
CLASS
  1
AEC_DISP_REP_WALL_PLAN
  2
AecDbDispRepWallPlan
  3
AecArchBase50|Product Desc: Autodesk Architectural Desktop 2007 |Company: Autodesk,Inc. |WEB Address: www.autodesk.com
 90
    32897
280
     0
281
     0
  0
CLASS
  1
AEC_DISP_REP_WALL_SCHEM
  2
AecDbDispRepWallSchem
  3
AecArchBase50|Product Desc: Autodesk Architectural Desktop 2007 |Company: Autodesk,Inc. |WEB Address: www.autodesk.com
 90
    32897
280
     0
281
     0
  0
CLASS
  1
AEC_DISP_REP_WINDOW_ASSEMBLY_MODEL
  2
AecDbDispRepWindowAssemblyModel
  3
AecArchBase50|Product Desc: Autodesk Architectural Desktop 2007 |Company: Autodesk,Inc. |WEB Address: www.autodesk.com
 90
    32897
280
     0
281
     0
  0
CLASS
  1
AEC_DISP_REP_WINDOW_ASSEMBLY_PLAN
  2
AecDbDispRepWindowAssemblyPlan
  3
AecArchBase50|Product Desc: Autodesk Architectural Desktop 2007 |Company: Autodesk,Inc. |WEB Address: www.autodesk.com
 90
    32897
280
     0
281
     0
  0
CLASS
  1
AEC_AECDBDISPREPWINDOWASSEMBLYPLAN100
  2
AecDbDispRepWindowAssemblyPlan100
  3
AecArchDACHBase50|Product Desc: Autodesk Architectural Desktop 2007 |Company: Autodesk,Inc. |WEB Address: www.autodesk.com
 90
    32897
280
     0
281
     0
  0
CLASS
  1
AEC_DISP_REP_WINDOW_MODEL
  2
AecDbDispRepWindowModel
  3
AecArchBase50|Product Desc: Autodesk Architectural Desktop 2007 |Company: Autodesk,Inc. |WEB Address: www.autodesk.com
 90
    32897
280
     0
281
     0
  0
CLASS
  1
AEC_DISP_REP_WINDOW_NOMINAL
  2
AecDbDispRepWindowNominal
  3
AecArchBase50|Product Desc: Autodesk Architectural Desktop 2007 |Company: Autodesk,Inc. |WEB Address: www.autodesk.com
 90
    32897
280
     0
281
     0
  0
CLASS
  1
AEC_DISP_REP_WINDOW_PLAN
  2
AecDbDispRepWindowPlan
  3
AecArchBase50|Product Desc: Autodesk Architectural Desktop 2007 |Company: Autodesk,Inc. |WEB Address: www.autodesk.com
 90
    32897
280
     0
281
     0
  0
CLASS
  1
AECS_DISP_REP_MEMBER_LOGICAL
  2
AecsDbDispRepMemberLogical
  3
AecStructureBase50|Product Desc: Autodesk Architectural Desktop 2007 |Company: Autodesk,Inc. |WEB Address: www.autodesk.com
 90
    32897
280
     0
281
     0
  0
CLASS
  1
AECS_DISP_REP_MEMBER_MODEL_DESIGN
  2
AecsDbDispRepMemberModelDesign
  3
AecStructureBase50|Product Desc: Autodesk Architectural Desktop 2007 |Company: Autodesk,Inc. |WEB Address: www.autodesk.com
 90
    32897
280
     0
281
     0
  0
CLASS
  1
AECS_DISP_REP_MEMBER_PLAN_DESIGN
  2
AecsDbDispRepMemberPlanDesign
  3
AecStructureBase50|Product Desc: Autodesk Architectural Desktop 2007 |Company: Autodesk,Inc. |WEB Address: www.autodesk.com
 90
    32897
280
     0
281
     0
  0
CLASS
  1
AEC_DISP_PROPS_ENT
  2
AecDbDispPropsEnt
  3
AecBase50|Product Desc: Autodesk Architectural Desktop 2007 |Company: Autodesk,Inc. |WEB Address: www.autodesk.com
 90
    32897
280
     0
281
     0
  0
CLASS
  1
AEC_DISP_PROPS_CLIP_VOLUME
  2
AecDbDispPropsClipVol
  3
AecBase50|Product Desc: Autodesk Architectural Desktop 2007 |Company: Autodesk,Inc. |WEB Address: www.autodesk.com
 90
    32897
280
     0
281
     0
  0
CLASS
  1
AEC_DISP_PROPS_SLICE
  2
AecDbDispPropsSlice
  3
AecBase50|Product Desc: Autodesk Architectural Desktop 2007 |Company: Autodesk,Inc. |WEB Address: www.autodesk.com
 90
    32897
280
     0
281
     0
  0
CLASS
  1
AEC_DISP_PROPS_ROOFSLAB_PLAN
  2
AecDbDispPropsRoofSlabPlan
  3
AecArchBase50|Product Desc: Autodesk Architectural Desktop 2007 |Company: Autodesk,Inc. |WEB Address: www.autodesk.com
 90
    32897
280
     0
281
     0
  0
CLASS
  1
AEC_DISP_PROPS_GRID_ASSEMBLY_MODEL
  2
AecDbDispPropsGridAssemblyModel
  3
AecArchBase50|Product Desc: Autodesk Architectural Desktop 2007 |Company: Autodesk,Inc. |WEB Address: www.autodesk.com
 90
    32897
280
     0
281
     0
  0
CLASS
  1
AEC_DISP_PROPS_ROOF
  2
AecDbDispPropsRoof
  3
AecArchBase50|Product Desc: Autodesk Architectural Desktop 2007 |Company: Autodesk,Inc. |WEB Address: www.autodesk.com
 90
    32897
280
     0
281
     0
  0
CLASS
  1
AEC_DISP_PROPS_SPACE_MODEL
  2
AecDbDispPropsSpaceModel
  3
AecArchBase50|Product Desc: Autodesk Architectural Desktop 2007 |Company: Autodesk,Inc. |WEB Address: www.autodesk.com
 90
    32897
280
     0
281
     0
  0
CLASS
  1
AEC_DISP_PROPS_EDITINPLACEPROFILE_MODEL
  2
AecDbDispPropsEditInPlaceProfile
  3
AecBase50|Product Desc: Autodesk Architectural Desktop 2007 |Company: Autodesk,Inc. |WEB Address: www.autodesk.com
 90
    32897
280
     0
281
     0
  0
CLASS
  1
AEC_DISP_PROPS_DOOR
  2
AecDbDispPropsDoor
  3
AecArchBase50|Product Desc: Autodesk Architectural Desktop 2007 |Company: Autodesk,Inc. |WEB Address: www.autodesk.com
 90
    32897
280
     0
281
     0
  0
CLASS
  1
AEC_DISP_PROPS_MASKBLOCK
  2
AecDbDispPropsMaskBlock
  3
AecBase50|Product Desc: Autodesk Architectural Desktop 2007 |Company: Autodesk,Inc. |WEB Address: www.autodesk.com
 90
    32897
280
     0
281
     0
  0
CLASS
  1
AEC_DISP_PROPS_SPACE_PLAN
  2
AecDbDispPropsSpacePlan
  3
AecArchBase50|Product Desc: Autodesk Architectural Desktop 2007 |Company: Autodesk,Inc. |WEB Address: www.autodesk.com
 90
    32897
280
     0
281
     0
  0
CLASS
  1
AEC_DISP_PROPS_RAILING_PLAN
  2
AecDbDispPropsRailingPlan
  3
AecArchBase50|Product Desc: Autodesk Architectural Desktop 2007 |Company: Autodesk,Inc. |WEB Address: www.autodesk.com
 90
    32897
280
     0
281
     0
  0
CLASS
  1
AEC_DISP_PROPS_LAYOUT_GRID2D
  2
AecDbDispPropsLayoutGrid2d
  3
AecBase50|Product Desc: Autodesk Architectural Desktop 2007 |Company: Autodesk,Inc. |WEB Address: www.autodesk.com
 90
    32897
280
     0
281
     0
  0
CLASS
  1
AEC_DISP_PROPS_CLIP_VOLUME_RESULT
  2
AecDbDispPropsClipVolResSubDiv
  3
AecBase50|Product Desc: Autodesk Architectural Desktop 2007 |Company: Autodesk,Inc. |WEB Address: www.autodesk.com
 90
    32897
280
     0
281
     0
  0
CLASS
  1
AEC_DISP_PROPS_STAIR_MODEL
  2
AecDbDispPropsStairModel
  3
AecArchBase50|Product Desc: Autodesk Architectural Desktop 2007 |Company: Autodesk,Inc. |WEB Address: www.autodesk.com
 90
    32897
280
     0
281
     0
  0
CLASS
  1
AEC_DISP_PROPS_LAYOUT_CURVE
  2
AecDbDispPropsLayoutCurve
  3
AecBase50|Product Desc: Autodesk Architectural Desktop 2007 |Company: Autodesk,Inc. |WEB Address: www.autodesk.com
 90
    32897
280
     0
281
     0
  0
CLASS
  1
AEC_DISP_PROPS_POLYGON_MODEL
  2
AecDbDispPropsPolygonModel
  3
AecBaseEx50|Product Desc: Autodesk Architectural Desktop 2007 |Company: Autodesk,Inc. |WEB Address: www.autodesk.com
 90
    32897
280
     0
281
     0
  0
CLASS
  1
AEC_DISP_PROPS_MASS_GROUP
  2
AecDbDispPropsMassGroup
  3
AecBaseEx50|Product Desc: Autodesk Architectural Desktop 2007 |Company: Autodesk,Inc. |WEB Address: www.autodesk.com
 90
    32897
280
     0
281
     0
  0
CLASS
  1
AEC_DISP_PROPS_STAIR_PLAN
  2
AecDbDispPropsStairPlan
  3
AecArchBase50|Product Desc: Autodesk Architectural Desktop 2007 |Company: Autodesk,Inc. |WEB Address: www.autodesk.com
 90
    32897
280
     0
281
     0
  0
CLASS
  1
AEC_DISP_PROPS_OPENING
  2
AecDbDispPropsOpening
  3
AecArchBase50|Product Desc: Autodesk Architectural Desktop 2007 |Company: Autodesk,Inc. |WEB Address: www.autodesk.com
 90
    32897
280
     0
281
     0
  0
CLASS
  1
AEC_DISP_PROPS_WALL_GRAPH
  2
AecDbDispPropsWallGraph
  3
AecArchBase50|Product Desc: Autodesk Architectural Desktop 2007 |Company: Autodesk,Inc. |WEB Address: www.autodesk.com
 90
    32897
280
     0
281
     0
  0
CLASS
  1
AEC_DISP_PROPS_DOOR_NOMINAL
  2
AecDbDispPropsDoorNominal
  3
AecArchBase50|Product Desc: Autodesk Architectural Desktop 2007 |Company: Autodesk,Inc. |WEB Address: www.autodesk.com
 90
    32897
280
     0
281
     0
  0
CLASS
  1
AEC_DISP_PROPS_SLAB
  2
AecDbDispPropsSlab
  3
AecArchBase50|Product Desc: Autodesk Architectural Desktop 2007 |Company: Autodesk,Inc. |WEB Address: www.autodesk.com
 90
    32897
280
     0
281
     0
  0
CLASS
  1
AEC_DISP_PROPS_WALL_MODEL
  2
AecDbDispPropsWallModel
  3
AecArchBase50|Product Desc: Autodesk Architectural Desktop 2007 |Company: Autodesk,Inc. |WEB Address: www.autodesk.com
 90
    32897
280
     0
281
     0
  0
CLASS
  1
AEC_DISP_PROPS_MATERIAL
  2
AecDbDispPropsMaterial
  3
AecBase50|Product Desc: Autodesk Architectural Desktop 2007 |Company: Autodesk,Inc. |WEB Address: www.autodesk.com
 90
    32897
280
     0
281
     0
  0
CLASS
  1
AEC_DISP_PROPS_WINDOW
  2
AecDbDispPropsWindow
  3
AecArchBase50|Product Desc: Autodesk Architectural Desktop 2007 |Company: Autodesk,Inc. |WEB Address: www.autodesk.com
 90
    32897
280
     0
281
     0
  0
CLASS
  1
AEC_DISP_PROPS_LAYOUT_GRID3D
  2
AecDbDispPropsLayoutGrid3d
  3
AecBase50|Product Desc: Autodesk Architectural Desktop 2007 |Company: Autodesk,Inc. |WEB Address: www.autodesk.com
 90
    32897
280
     0
281
     0
  0
CLASS
  1
AEC_DISP_PROPS_GRID_ASSEMBLY_PLAN
  2
AecDbDispPropsGridAssemblyPlan
  3
AecArchBase50|Product Desc: Autodesk Architectural Desktop 2007 |Company: Autodesk,Inc. |WEB Address: www.autodesk.com
 90
    32897
280
     0
281
     0
  0
CLASS
  1
AEC_DISP_PROPS_WALL_SCHEM
  2
AecDbDispPropsWallSchem
  3
AecArchBase50|Product Desc: Autodesk Architectural Desktop 2007 |Company: Autodesk,Inc. |WEB Address: www.autodesk.com
 90
    32897
280
     0
281
     0
  0
CLASS
  1
AEC_DISP_PROPS_WALL_PLAN
  2
AecDbDispPropsWallPlan
  3
AecArchBase50|Product Desc: Autodesk Architectural Desktop 2007 |Company: Autodesk,Inc. |WEB Address: www.autodesk.com
 90
    32897
280
     0
281
     0
  0
CLASS
  1
AEC_DISP_PROPS_SPACE_BOUNDARY
  2
AecDbDispPropsSpaceBoundary
  3
AecArchBase50|Product Desc: Autodesk Architectural Desktop 2007 |Company: Autodesk,Inc. |WEB Address: www.autodesk.com
 90
    32897
280
     0
281
     0
  0
CLASS
  1
AEC_DISP_PROPS_SLAB_PLAN
  2
AecDbDispPropsSlabPlan
  3
AecArchBase50|Product Desc: Autodesk Architectural Desktop 2007 |Company: Autodesk,Inc. |WEB Address: www.autodesk.com
 90
    32897
280
     0
281
     0
  0
CLASS
  1
AEC_DISP_PROPS_RAILING_MODEL
  2
AecDbDispPropsRailingModel
  3
AecArchBase50|Product Desc: Autodesk Architectural Desktop 2007 |Company: Autodesk,Inc. |WEB Address: www.autodesk.com
 90
    32897
280
     0
281
     0
  0
CLASS
  1
AEC_DISP_PROPS_MASS_ELEM_MODEL
  2
AecDbDispPropsMassElem
  3
AecBaseEx50|Product Desc: Autodesk Architectural Desktop 2007 |Company: Autodesk,Inc. |WEB Address: www.autodesk.com
 90
    32897
280
     0
281
     0
  0
CLASS
  1
AEC_DISP_PROPS_DIM
  2
AecDbDispPropsDimGroup
  3
AecArchDACHBase50|Product Desc: Autodesk Architectural Desktop 2007 |Company: Autodesk,Inc. |WEB Address: www.autodesk.com
 90
    32897
280
     0
281
     0
  0
CLASS
  1
AEC_DISP_PROPS_ROOFSLAB
  2
AecDbDispPropsRoofSlab
  3
AecArchBase50|Product Desc: Autodesk Architectural Desktop 2007 |Company: Autodesk,Inc. |WEB Address: www.autodesk.com
 90
    32897
280
     0
281
     0
  0
CLASS
  1
AEC_DISP_PROPS_ENT_REF
  2
AecDbDispPropsEntRef
  3
AecBase50|Product Desc: Autodesk Architectural Desktop 2007 |Company: Autodesk,Inc. |WEB Address: www.autodesk.com
 90
    32897
280
     0
281
     0
  0
CLASS
  1
AEC_DISP_PROPS_2D_SECTION
  2
AecDbDispProps2dSection
  3
AecBase50|Product Desc: Autodesk Architectural Desktop 2007 |Company: Autodesk,Inc. |WEB Address: www.autodesk.com
 90
    32897
280
     0
281
     0
  0
CLASS
  1
AECS_DISP_PROPS_MEMBER_LOGICAL
  2
AecsDbDispPropsMemberLogical
  3
AecStructureBase50|Product Desc: Autodesk Architectural Desktop 2007 |Company: Autodesk,Inc. |WEB Address: www.autodesk.com
 90
    32897
280
     0
281
     0
  0
CLASS
  1
AEC_DISP_PROPS_AREA_DECOMPOSED
  2
AecDbDispPropsAreaDecomposed
  3
AecAreaCalculationBase50|Product Desc: Autodesk Architectural Desktop 2007 |Company: Autodesk,Inc. |WEB Address: www.autodesk.com
 90
    32897
280
     0
281
     0
  0
CLASS
  1
AEC_DISP_PROPS_CAMERA
  2
AecDbDispPropsCamera
  3
AecBase50|Product Desc: Autodesk Architectural Desktop 2007 |Company: Autodesk,Inc. |WEB Address: www.autodesk.com
 90
    32897
280
     0
281
     0
  0
CLASS
  1
AECS_DISP_PROPS_MEMBER
  2
AecsDbDispPropsMember
  3
AecStructureBase50|Product Desc: Autodesk Architectural Desktop 2007 |Company: Autodesk,Inc. |WEB Address: www.autodesk.com
 90
    32897
280
     0
281
     0
  0
CLASS
  1
AECS_DISP_PROPS_MEMBER_PLAN
  2
AecsDbDispPropsMemberPlan
  3
AecStructureBase50|Product Desc: Autodesk Architectural Desktop 2007 |Company: Autodesk,Inc. |WEB Address: www.autodesk.com
 90
    32897
280
     0
281
     0
  0
CLASS
  1
AEC_DISP_PROPS_AREAGROUP
  2
AecDbDispPropsAreaGroup
  3
AecAreaCalculationBase50|Product Desc: Autodesk Architectural Desktop 2007 |Company: Autodesk,Inc. |WEB Address: www.autodesk.com
 90
    32897
280
     0
281
     0
  0
CLASS
  1
AEC_DISP_PROPS_WINDOW_NOMINAL
  2
AecDbDispPropsWindowNominal
  3
AecArchBase50|Product Desc: Autodesk Architectural Desktop 2007 |Company: Autodesk,Inc. |WEB Address: www.autodesk.com
 90
    32897
280
     0
281
     0
  0
CLASS
  1
AEC_DISP_PROPS_AREA
  2
AecDbDispPropsArea
  3
AecAreaCalculationBase50|Product Desc: Autodesk Architectural Desktop 2007 |Company: Autodesk,Inc. |WEB Address: www.autodesk.com
 90
    32897
280
     0
281
     0
  0
CLASS
  1
AEC_DISP_PROPS_SCHEDULE_TABLE
  2
AecDbDispPropsScheduleTable
  3
AecSchedule50|Product Desc: Autodesk Architectural Desktop 2007 |Company: Autodesk,Inc. |WEB Address: www.autodesk.com
 90
    32897
280
     0
281
     0
  0
CLASS
  1
AEC_LAYERKEY_STYLE
  2
AecDbLayerKeyStyle
  3
AecBase50|Product Desc: Autodesk Architectural Desktop 2007 |Company: Autodesk,Inc. |WEB Address: www.autodesk.com
 90
    32897
280
     0
281
     0
  0
CLASS
  1
AEC_VARS_ARCHBASE
  2
AecDbVarsArchBase
  3
AecArchBase50|Product Desc: Autodesk Architectural Desktop 2007 |Company: Autodesk,Inc. |WEB Address: www.autodesk.com
 90
    32897
280
     0
281
     0
  0
CLASS
  1
AEC_VARS_MUNICH
  2
AecDbVarsMunich
  3
AecArchDACHBase50|Product Desc: Autodesk Architectural Desktop 2007 |Company: Autodesk,Inc. |WEB Address: www.autodesk.com
 90
    32897
280
     0
281
     0
  0
CLASS
  1
AEC_NOTIFICATION_TRACKER
  2
AecDbNotificationTracker
  3
AecBase50|Product Desc: Autodesk Architectural Desktop 2007 |Company: Autodesk,Inc. |WEB Address: www.autodesk.com
 90
    32897
280
     0
281
     0
  0
CLASS
  1
AEC_DISP_REP_ANCHOR
  2
AecDbDispRepAnchor
  3
AecBase50|Product Desc: Autodesk Architectural Desktop 2007 |Company: Autodesk,Inc. |WEB Address: www.autodesk.com
 90
    32897
280
     0
281
     0
  0
CLASS
  1
AEC_DISP_REP_POLYGON_TRUECOLOUR
  2
AecDbDispRepPolygonTrueColour
  3
AecBaseEx50|Product Desc: Autodesk Architectural Desktop 2007 |Company: Autodesk,Inc. |WEB Address: www.autodesk.com
 90
    32897
280
     0
281
     0
  0
CLASS
  1
AEC_DISP_PROPS_POLYGON_TRUECOLOUR
  2
AecDbDispPropsPolygonTrueColour
  3
AecBaseEx50|Product Desc: Autodesk Architectural Desktop 2007 |Company: Autodesk,Inc. |WEB Address: www.autodesk.com
 90
    32897
280
     0
281
     0
  0
CLASS
  1
AEC_DISP_REP_BDG_ELEVLINE_RCP
  2
AecDbDispRepBdgElevLineRcp
  3
AecArchBase50|Product Desc: Autodesk Architectural Desktop 2007 |Company: Autodesk,Inc. |WEB Address: www.autodesk.com
 90
    32897
280
     0
281
     0
  0
CLASS
  1
AEC_DISP_REP_BDG_SECTIONLINE_RCP
  2
AecDbDispRepBdgSectionLineRcp
  3
AecArchBase50|Product Desc: Autodesk Architectural Desktop 2007 |Company: Autodesk,Inc. |WEB Address: www.autodesk.com
 90
    32897
280
     0
281
     0
  0
CLASS
  1
AEC_DISP_REP_BDG_SECTION_MODEL
  2
AecDbDispRepBdgSectionModel
  3
AecArchBase50|Product Desc: Autodesk Architectural Desktop 2007 |Company: Autodesk,Inc. |WEB Address: www.autodesk.com
 90
    32897
280
     0
281
     0
  0
CLASS
  1
AEC_DISP_REP_DOOR_ELEV
  2
AecDbDispRepDoorElev
  3
AecArchBase50|Product Desc: Autodesk Architectural Desktop 2007 |Company: Autodesk,Inc. |WEB Address: www.autodesk.com
 90
    32897
280
     0
281
     0
  0
CLASS
  1
AEC_DISP_REP_DOOR_RCP
  2
AecDbDispRepDoorRcp
  3
AecArchBase50|Product Desc: Autodesk Architectural Desktop 2007 |Company: Autodesk,Inc. |WEB Address: www.autodesk.com
 90
    32897
280
     0
281
     0
  0
CLASS
  1
AEC_DISP_REP_DOOR_THRESHOLD_PLAN
  2
AecDbDispRepDoorThresholdPlan
  3
AecArchBase50|Product Desc: Autodesk Architectural Desktop 2007 |Company: Autodesk,Inc. |WEB Address: www.autodesk.com
 90
    32897
280
     0
281
     0
  0
CLASS
  1
AEC_DISP_PROPS_DOOR_THRESHOLD_PLAN
  2
AecDbDispPropsDoorThresholdPlan
  3
AecArchBase50|Product Desc: Autodesk Architectural Desktop 2007 |Company: Autodesk,Inc. |WEB Address: www.autodesk.com
 90
    32897
280
     0
281
     0
  0
CLASS
  1
AEC_DISP_REP_MASS_ELEM_RCP
  2
AecDbDispRepMassElemRcp
  3
AecArchBase50|Product Desc: Autodesk Architectural Desktop 2007 |Company: Autodesk,Inc. |WEB Address: www.autodesk.com
 90
    32897
280
     0
281
     0
  0
CLASS
  1
AEC_DISP_REP_MASS_GROUP_RCP
  2
AecDbDispRepMassGroupRcp
  3
AecArchBase50|Product Desc: Autodesk Architectural Desktop 2007 |Company: Autodesk,Inc. |WEB Address: www.autodesk.com
 90
    32897
280
     0
281
     0
  0
CLASS
  1
AEC_DISP_REP_MVBLOCK_REF_RCP
  2
AecDbDispRepMvBlockRefRcp
  3
AecArchBase50|Product Desc: Autodesk Architectural Desktop 2007 |Company: Autodesk,Inc. |WEB Address: www.autodesk.com
 90
    32897
280
     0
281
     0
  0
CLASS
  1
AEC_DISP_REP_ROOF_RCP
  2
AecDbDispRepRoofRcp
  3
AecArchBase50|Product Desc: Autodesk Architectural Desktop 2007 |Company: Autodesk,Inc. |WEB Address: www.autodesk.com
 90
    32897
280
     0
281
     0
  0
CLASS
  1
AEC_DISP_REP_SPACE_BOUNDARY_DIAGRAM
  2
AecDbDispRepSpaceBoundaryDgrm
  3
AecArchBase50|Product Desc: Autodesk Architectural Desktop 2007 |Company: Autodesk,Inc. |WEB Address: www.autodesk.com
 90
    32897
280
     0
281
     0
  0
CLASS
  1
AEC_DISP_REP_SPACE_RCP
  2
AecDbDispRepSpaceRcp
  3
AecArchBase50|Product Desc: Autodesk Architectural Desktop 2007 |Company: Autodesk,Inc. |WEB Address: www.autodesk.com
 90
    32897
280
     0
281
     0
  0
CLASS
  1
AEC_DISP_REP_SPACE_VOLUME
  2
AecDbDispRepSpaceVolume
  3
AecArchBase50|Product Desc: Autodesk Architectural Desktop 2007 |Company: Autodesk,Inc. |WEB Address: www.autodesk.com
 90
    32897
280
     0
281
     0
  0
CLASS
  1
AEC_DISP_REP_STAIR_PLAN_OVERLAPPING
  2
AecDbDispRepStairPlanOverlapping
  3
AecArchBase50|Product Desc: Autodesk Architectural Desktop 2007 |Company: Autodesk,Inc. |WEB Address: www.autodesk.com
 90
    32897
280
     0
281
     0
  0
CLASS
  1
AEC_DISP_PROPS_STAIR_PLAN_OVERLAPPING
  2
AecDbDispPropsStairPlanOverlapping
  3
AecArchBase50|Product Desc: Autodesk Architectural Desktop 2007 |Company: Autodesk,Inc. |WEB Address: www.autodesk.com
 90
    32897
280
     0
281
     0
  0
CLASS
  1
AEC_DISP_REP_STAIR_RCP
  2
AecDbDispRepStairRcp
  3
AecArchBase50|Product Desc: Autodesk Architectural Desktop 2007 |Company: Autodesk,Inc. |WEB Address: www.autodesk.com
 90
    32897
280
     0
281
     0
  0
CLASS
  1
AEC_DISP_REP_WALL_RCP
  2
AecDbDispRepWallRcp
  3
AecArchBase50|Product Desc: Autodesk Architectural Desktop 2007 |Company: Autodesk,Inc. |WEB Address: www.autodesk.com
 90
    32897
280
     0
281
     0
  0
CLASS
  1
AEC_DISP_REP_WINDOWASSEMBLY_SILL_PLAN
  2
AecDbDispRepWindowAssemblySillPlan
  3
AecArchBase50|Product Desc: Autodesk Architectural Desktop 2007 |Company: Autodesk,Inc. |WEB Address: www.autodesk.com
 90
    32897
280
     0
281
     0
  0
CLASS
  1
AEC_DISP_PROPS_WINDOW_ASSEMBLY_SILL_PLAN
  2
AecDbDispPropsWindowAssemblySillPlan
  3
AecArchBase50|Product Desc: Autodesk Architectural Desktop 2007 |Company: Autodesk,Inc. |WEB Address: www.autodesk.com
 90
    32897
280
     0
281
     0
  0
CLASS
  1
AEC_DISP_REP_WINDOW_ELEV
  2
AecDbDispRepWindowElev
  3
AecArchBase50|Product Desc: Autodesk Architectural Desktop 2007 |Company: Autodesk,Inc. |WEB Address: www.autodesk.com
 90
    32897
280
     0
281
     0
  0
CLASS
  1
AEC_DISP_REP_WINDOW_RCP
  2
AecDbDispRepWindowRcp
  3
AecArchBase50|Product Desc: Autodesk Architectural Desktop 2007 |Company: Autodesk,Inc. |WEB Address: www.autodesk.com
 90
    32897
280
     0
281
     0
  0
CLASS
  1
AEC_DISP_REP_WINDOW_SILL_PLAN
  2
AecDbDispRepWindowSillPlan
  3
AecArchBase50|Product Desc: Autodesk Architectural Desktop 2007 |Company: Autodesk,Inc. |WEB Address: www.autodesk.com
 90
    32897
280
     0
281
     0
  0
CLASS
  1
AEC_DISP_PROPS_WINDOW_SILL_PLAN
  2
AecDbDispPropsWindowSillPlan
  3
AecArchBase50|Product Desc: Autodesk Architectural Desktop 2007 |Company: Autodesk,Inc. |WEB Address: www.autodesk.com
 90
    32897
280
     0
281
     0
  0
CLASS
  1
AEC_DISP_REP_ANCHOR_BUB_TO_GRID_RCP
  2
AecDbDispRepAnchorBubToGridRcp
  3
AecStructureBase50|Product Desc: Autodesk Architectural Desktop 2007 |Company: Autodesk,Inc. |WEB Address: www.autodesk.com
 90
    32897
280
     0
281
     0
  0
CLASS
  1
AEC_DISP_REP_COLUMN_GRID_RCP
  2
AecDbDispRepColumnGridRcp
  3
AecStructureBase50|Product Desc: Autodesk Architectural Desktop 2007 |Company: Autodesk,Inc. |WEB Address: www.autodesk.com
 90
    32897
280
     0
281
     0
  0
CLASS
  1
AECS_DISP_REP_MEMBER_ELEVATION_DESIGN
  2
AecsDbDispRepMemberElevationDesign
  3
AecStructureBase50|Product Desc: Autodesk Architectural Desktop 2007 |Company: Autodesk,Inc. |WEB Address: www.autodesk.com
 90
    32897
280
     0
281
     0
  0
CLASS
  1
AECS_DISP_PROPS_MEMBER_PROJECTED
  2
AecsDbDispPropsMemberProjected
  3
AecStructureBase50|Product Desc: Autodesk Architectural Desktop 2007 |Company: Autodesk,Inc. |WEB Address: www.autodesk.com
 90
    32897
280
     0
281
     0
  0
CLASS
  1
AECS_DISP_REP_MEMBER_ELEVATION_DETAIL
  2
AecsDbDispRepMemberElevationDetail
  3
AecStructureBase50|Product Desc: Autodesk Architectural Desktop 2007 |Company: Autodesk,Inc. |WEB Address: www.autodesk.com
 90
    32897
280
     0
281
     0
  0
CLASS
  1
AECS_DISP_REP_MEMBER_MODEL_DETAIL
  2
AecsDbDispRepMemberModelDetail
  3
AecStructureBase50|Product Desc: Autodesk Architectural Desktop 2007 |Company: Autodesk,Inc. |WEB Address: www.autodesk.com
 90
    32897
280
     0
281
     0
  0
CLASS
  1
AECS_DISP_REP_MEMBER_PLAN_DETAIL
  2
AecsDbDispRepMemberPlanDetail
  3
AecStructureBase50|Product Desc: Autodesk Architectural Desktop 2007 |Company: Autodesk,Inc. |WEB Address: www.autodesk.com
 90
    32897
280
     0
281
     0
  0
CLASS
  1
AECS_DISP_REP_MEMBER_PLAN_SKETCH
  2
AecsDbDispRepMemberPlanSketch
  3
AecStructureBase50|Product Desc: Autodesk Architectural Desktop 2007 |Company: Autodesk,Inc. |WEB Address: www.autodesk.com
 90
    32897
280
     0
281
     0
  0
CLASS
  1
AECS_DISP_PROPS_MEMBER_PLAN_SKETCH
  2
AecsDbDispPropsMemberPlanSketch
  3
AecStructureBase50|Product Desc: Autodesk Architectural Desktop 2007 |Company: Autodesk,Inc. |WEB Address: www.autodesk.com
 90
    32897
280
     0
281
     0
  0
CLASS
  1
AEC_AECDBDISPREPAREA100
  2
AecDbDispRepArea100
  3
AecArchDACHBase50|Product Desc: Autodesk Architectural Desktop 2007 |Company: Autodesk,Inc. |WEB Address: www.autodesk.com
 90
    32897
280
     0
281
     0
  0
CLASS
  1
AEC_AECDBDISPREPAREAGROUP100
  2
AecDbDispRepAreaGroup100
  3
AecArchDACHBase50|Product Desc: Autodesk Architectural Desktop 2007 |Company: Autodesk,Inc. |WEB Address: www.autodesk.com
 90
    32897
280
     0
281
     0
  0
CLASS
  1
AEC_AECDBDISPREPBDGELEVLINEPLAN100
  2
AecDbDispRepBdgElevLinePlan100
  3
AecArchDACHBase50|Product Desc: Autodesk Architectural Desktop 2007 |Company: Autodesk,Inc. |WEB Address: www.autodesk.com
 90
    32897
280
     0
281
     0
  0
CLASS
  1
AEC_AECDBDISPREPBDGSECTIONLINEPLAN100
  2
AecDbDispRepBdgSectionLinePlan100
  3
AecArchDACHBase50|Product Desc: Autodesk Architectural Desktop 2007 |Company: Autodesk,Inc. |WEB Address: www.autodesk.com
 90
    32897
280
     0
281
     0
  0
CLASS
  1
AEC_AECDBDISPREPCEILINGGRIDPLAN100
  2
AecDbDispRepCeilingGridPlan100
  3
AecArchDACHBase50|Product Desc: Autodesk Architectural Desktop 2007 |Company: Autodesk,Inc. |WEB Address: www.autodesk.com
 90
    32897
280
     0
281
     0
  0
CLASS
  1
AEC_AECDBDISPREPCOLUMNGRIDPLAN100
  2
AecDbDispRepColumnGridPlan100
  3
AecArchDACHBase50|Product Desc: Autodesk Architectural Desktop 2007 |Company: Autodesk,Inc. |WEB Address: www.autodesk.com
 90
    32897
280
     0
281
     0
  0
CLASS
  1
AEC_AECDBDISPREPCURTAINWALLLAYOUTPLAN100
  2
AecDbDispRepCurtainWallLayoutPlan100
  3
AecArchDACHBase50|Product Desc: Autodesk Architectural Desktop 2007 |Company: Autodesk,Inc. |WEB Address: www.autodesk.com
 90
    32897
280
     0
281
     0
  0
CLASS
  1
AEC_AECDBDISPREPCURTAINWALLUNITPLAN100
  2
AecDbDispRepCurtainWallUnitPlan100
  3
AecArchDACHBase50|Product Desc: Autodesk Architectural Desktop 2007 |Company: Autodesk,Inc. |WEB Address: www.autodesk.com
 90
    32897
280
     0
281
     0
  0
CLASS
  1
AEC_AECDBDISPREPMVBLOCKREFPLAN100
  2
AecDbDispRepMvBlockRefPlan100
  3
AecArchDACHBase50|Product Desc: Autodesk Architectural Desktop 2007 |Company: Autodesk,Inc. |WEB Address: www.autodesk.com
 90
    32897
280
     0
281
     0
  0
CLASS
  1
AEC_AECDBDISPREPROOFPLAN100
  2
AecDbDispRepRoofPlan100
  3
AecArchDACHBase50|Product Desc: Autodesk Architectural Desktop 2007 |Company: Autodesk,Inc. |WEB Address: www.autodesk.com
 90
    32897
280
     0
281
     0
  0
CLASS
  1
AEC_AECDBDISPREPROOFSLABPLAN100
  2
AecDbDispRepRoofSlabPlan100
  3
AecArchDACHBase50|Product Desc: Autodesk Architectural Desktop 2007 |Company: Autodesk,Inc. |WEB Address: www.autodesk.com
 90
    32897
280
     0
281
     0
  0
CLASS
  1
AEC_AECDBDISPREPSLABPLAN100
  2
AecDbDispRepSlabPlan100
  3
AecArchDACHBase50|Product Desc: Autodesk Architectural Desktop 2007 |Company: Autodesk,Inc. |WEB Address: www.autodesk.com
 90
    32897
280
     0
281
     0
  0
CLASS
  1
AEC_AECDBDISPREPSPACEBOUNDARYPLAN100
  2
AecDbDispRepSpaceBoundaryPlan100
  3
AecArchDACHBase50|Product Desc: Autodesk Architectural Desktop 2007 |Company: Autodesk,Inc. |WEB Address: www.autodesk.com
 90
    32897
280
     0
281
     0
  0
CLASS
  1
AEC_AECDBDISPREPSPACEPLAN100
  2
AecDbDispRepSpacePlan100
  3
AecArchDACHBase50|Product Desc: Autodesk Architectural Desktop 2007 |Company: Autodesk,Inc. |WEB Address: www.autodesk.com
 90
    32897
280
     0
281
     0
  0
CLASS
  1
AEC_AECDBDISPREPWALLPLAN100
  2
AecDbDispRepWallPlan100
  3
AecArchDACHBase50|Product Desc: Autodesk Architectural Desktop 2007 |Company: Autodesk,Inc. |WEB Address: www.autodesk.com
 90
    32897
280
     0
281
     0
  0
CLASS
  1
AEC_AECDBDISPREPAREA50
  2
AecDbDispRepArea50
  3
AecArchDACHBase50|Product Desc: Autodesk Architectural Desktop 2007 |Company: Autodesk,Inc. |WEB Address: www.autodesk.com
 90
    32897
280
     0
281
     0
  0
CLASS
  1
AEC_AECDBDISPREPAREAGROUP50
  2
AecDbDispRepAreaGroup50
  3
AecArchDACHBase50|Product Desc: Autodesk Architectural Desktop 2007 |Company: Autodesk,Inc. |WEB Address: www.autodesk.com
 90
    32897
280
     0
281
     0
  0
CLASS
  1
AEC_AECDBDISPREPBDGELEVLINEPLAN50
  2
AecDbDispRepBdgElevLinePlan50
  3
AecArchDACHBase50|Product Desc: Autodesk Architectural Desktop 2007 |Company: Autodesk,Inc. |WEB Address: www.autodesk.com
 90
    32897
280
     0
281
     0
  0
CLASS
  1
AEC_AECDBDISPREPBDGSECTIONLINEPLAN50
  2
AecDbDispRepBdgSectionLinePlan50
  3
AecArchDACHBase50|Product Desc: Autodesk Architectural Desktop 2007 |Company: Autodesk,Inc. |WEB Address: www.autodesk.com
 90
    32897
280
     0
281
     0
  0
CLASS
  1
AEC_AECDBDISPREPCEILINGGRIDPLAN50
  2
AecDbDispRepCeilingGridPlan50
  3
AecArchDACHBase50|Product Desc: Autodesk Architectural Desktop 2007 |Company: Autodesk,Inc. |WEB Address: www.autodesk.com
 90
    32897
280
     0
281
     0
  0
CLASS
  1
AEC_AECDBDISPREPCOLUMNGRIDPLAN50
  2
AecDbDispRepColumnGridPlan50
  3
AecArchDACHBase50|Product Desc: Autodesk Architectural Desktop 2007 |Company: Autodesk,Inc. |WEB Address: www.autodesk.com
 90
    32897
280
     0
281
     0
  0
CLASS
  1
AEC_AECDBDISPREPCURTAINWALLLAYOUTPLAN50
  2
AecDbDispRepCurtainWallLayoutPlan50
  3
AecArchDACHBase50|Product Desc: Autodesk Architectural Desktop 2007 |Company: Autodesk,Inc. |WEB Address: www.autodesk.com
 90
    32897
280
     0
281
     0
  0
CLASS
  1
AEC_AECDBDISPREPCURTAINWALLUNITPLAN50
  2
AecDbDispRepCurtainWallUnitPlan50
  3
AecArchDACHBase50|Product Desc: Autodesk Architectural Desktop 2007 |Company: Autodesk,Inc. |WEB Address: www.autodesk.com
 90
    32897
280
     0
281
     0
  0
CLASS
  1
AEC_AECDBDISPREPMVBLOCKREFPLAN50
  2
AecDbDispRepMvBlockRefPlan50
  3
AecArchDACHBase50|Product Desc: Autodesk Architectural Desktop 2007 |Company: Autodesk,Inc. |WEB Address: www.autodesk.com
 90
    32897
280
     0
281
     0
  0
CLASS
  1
AEC_AECDBDISPREPROOFPLAN50
  2
AecDbDispRepRoofPlan50
  3
AecArchDACHBase50|Product Desc: Autodesk Architectural Desktop 2007 |Company: Autodesk,Inc. |WEB Address: www.autodesk.com
 90
    32897
280
     0
281
     0
  0
CLASS
  1
AEC_AECDBDISPREPROOFSLABPLAN50
  2
AecDbDispRepRoofSlabPlan50
  3
AecArchDACHBase50|Product Desc: Autodesk Architectural Desktop 2007 |Company: Autodesk,Inc. |WEB Address: www.autodesk.com
 90
    32897
280
     0
281
     0
  0
CLASS
  1
AEC_AECDBDISPREPSLABPLAN50
  2
AecDbDispRepSlabPlan50
  3
AecArchDACHBase50|Product Desc: Autodesk Architectural Desktop 2007 |Company: Autodesk,Inc. |WEB Address: www.autodesk.com
 90
    32897
280
     0
281
     0
  0
CLASS
  1
AEC_AECDBDISPREPSPACEBOUNDARYPLAN50
  2
AecDbDispRepSpaceBoundaryPlan50
  3
AecArchDACHBase50|Product Desc: Autodesk Architectural Desktop 2007 |Company: Autodesk,Inc. |WEB Address: www.autodesk.com
 90
    32897
280
     0
281
     0
  0
CLASS
  1
AEC_AECDBDISPREPSPACEPLAN50
  2
AecDbDispRepSpacePlan50
  3
AecArchDACHBase50|Product Desc: Autodesk Architectural Desktop 2007 |Company: Autodesk,Inc. |WEB Address: www.autodesk.com
 90
    32897
280
     0
281
     0
  0
CLASS
  1
AEC_AECDBDISPREPWALLPLAN50
  2
AecDbDispRepWallPlan50
  3
AecArchDACHBase50|Product Desc: Autodesk Architectural Desktop 2007 |Company: Autodesk,Inc. |WEB Address: www.autodesk.com
 90
    32897
280
     0
281
     0
  0
CLASS
  1
AEC_AECDBDISPREPWINDOWASSEMBLYPLAN50
  2
AecDbDispRepWindowAssemblyPlan50
  3
AecArchDACHBase50|Product Desc: Autodesk Architectural Desktop 2007 |Company: Autodesk,Inc. |WEB Address: www.autodesk.com
 90
    32897
280
     0
281
     0
  0
CLASS
  1
AEC_DB_DISP_REP_DIM_GROUP_PLAN100
  2
AecDbDispRepDimGroupPlan100
  3
AecArchDACHBase50|Product Desc: Autodesk Architectural Desktop 2007 |Company: Autodesk,Inc. |WEB Address: www.autodesk.com
 90
    32897
280
     0
281
     0
  0
CLASS
  1
AEC_DB_DISP_REP_DIM_GROUP_PLAN50
  2
AecDbDispRepDimGroupPlan50
  3
AecArchDACHBase50|Product Desc: Autodesk Architectural Desktop 2007 |Company: Autodesk,Inc. |WEB Address: www.autodesk.com
 90
    32897
280
     0
281
     0
  0
CLASS
  1
AEC_DISP_REP_DOOR_PLAN_50
  2
AecDbDispRepDoorPlan50
  3
AecArchDACHBase50|Product Desc: Autodesk Architectural Desktop 2007 |Company: Autodesk,Inc. |WEB Address: www.autodesk.com
 90
    32897
280
     0
281
     0
  0
CLASS
  1
AEC_DISP_PROPS_DOOR_PLAN_50
  2
AecDbDispPropsDoorPlan50
  3
AecArchDACHBase50|Product Desc: Autodesk Architectural Desktop 2007 |Company: Autodesk,Inc. |WEB Address: www.autodesk.com
 90
    32897
280
     0
281
     0
  0
CLASS
  1
AEC_DISP_REP_DOOR_PLAN_HEKTO
  2
AecDbDispRepDoorPlanHekto
  3
AecArchDACHBase50|Product Desc: Autodesk Architectural Desktop 2007 |Company: Autodesk,Inc. |WEB Address: www.autodesk.com
 90
    32897
280
     0
281
     0
  0
CLASS
  1
AEC_DISP_PROPS_DOOR_PLAN_100
  2
AecDbDispPropsDoorPlan100
  3
AecArchDACHBase50|Product Desc: Autodesk Architectural Desktop 2007 |Company: Autodesk,Inc. |WEB Address: www.autodesk.com
 90
    32897
280
     0
281
     0
  0
CLASS
  1
AEC_DISP_REP_DOOR_THRESHOLD_SYMBOL_PLAN
  2
AecDbDispRepDoorThresholdSymbolPlan
  3
AecArchDACHBase50|Product Desc: Autodesk Architectural Desktop 2007 |Company: Autodesk,Inc. |WEB Address: www.autodesk.com
 90
    32897
280
     0
281
     0
  0
CLASS
  1
AEC_DISP_PROPS_DOOR_THRESHOLD_SYMBOL_PLAN
  2
AecDbDispPropsDoorThresholdSymbolPlan
  3
AecArchDACHBase50|Product Desc: Autodesk Architectural Desktop 2007 |Company: Autodesk,Inc. |WEB Address: www.autodesk.com
 90
    32897
280
     0
281
     0
  0
CLASS
  1
AEC_DISPREPAECDBDISPREPMASSELEMPLAN100
  2
AecDbDispRepMassElemPlan100
  3
AecArchDACHBase50|Product Desc: Autodesk Architectural Desktop 2007 |Company: Autodesk,Inc. |WEB Address: www.autodesk.com
 90
    32897
280
     0
281
     0
  0
CLASS
  1
AEC_DISPROPSMASSELEMPLANCOMMON
  2
AecDbDispPropsMassElemPlanCommon
  3
AecArchDACHBase50|Product Desc: Autodesk Architectural Desktop 2007 |Company: Autodesk,Inc. |WEB Address: www.autodesk.com
 90
    32897
280
     0
281
     0
  0
CLASS
  1
AEC_DISPREPAECDBDISPREPMASSELEMPLAN50
  2
AecDbDispRepMassElemPlan50
  3
AecArchDACHBase50|Product Desc: Autodesk Architectural Desktop 2007 |Company: Autodesk,Inc. |WEB Address: www.autodesk.com
 90
    32897
280
     0
281
     0
  0
CLASS
  1
AEC_DISPREPAECDBDISPREPMASSGROUPPLAN100
  2
AecDbDispRepMassGroupPlan100
  3
AecArchDACHBase50|Product Desc: Autodesk Architectural Desktop 2007 |Company: Autodesk,Inc. |WEB Address: www.autodesk.com
 90
    32897
280
     0
281
     0
  0
CLASS
  1
AEC_DISPROPSMASSGROUPPLANCOMMON
  2
AecDbDispPropsMassGroupPlanCommon
  3
AecArchDACHBase50|Product Desc: Autodesk Architectural Desktop 2007 |Company: Autodesk,Inc. |WEB Address: www.autodesk.com
 90
    32897
280
     0
281
     0
  0
CLASS
  1
AEC_DISPREPAECDBDISPREPMASSGROUPPLAN50
  2
AecDbDispRepMassGroupPlan50
  3
AecArchDACHBase50|Product Desc: Autodesk Architectural Desktop 2007 |Company: Autodesk,Inc. |WEB Address: www.autodesk.com
 90
    32897
280
     0
281
     0
  0
CLASS
  1
AEC_DISPREPAECDBDISPREPOPENINGPLAN100
  2
AecDbDispRepOpeningPlan100
  3
AecArchDACHBase50|Product Desc: Autodesk Architectural Desktop 2007 |Company: Autodesk,Inc. |WEB Address: www.autodesk.com
 90
    32897
280
     0
281
     0
  0
CLASS
  1
AEC_DISPROPSOPENINGPLANCOMMONHATCHED
  2
AecDbDispPropsOpeningPlanCommonHatched
  3
AecArchDACHBase50|Product Desc: Autodesk Architectural Desktop 2007 |Company: Autodesk,Inc. |WEB Address: www.autodesk.com
 90
    32897
280
     0
281
     0
  0
CLASS
  1
AEC_DISPREPAECDBDISPREPOPENINGPLAN50
  2
AecDbDispRepOpeningPlan50
  3
AecArchDACHBase50|Product Desc: Autodesk Architectural Desktop 2007 |Company: Autodesk,Inc. |WEB Address: www.autodesk.com
 90
    32897
280
     0
281
     0
  0
CLASS
  1
AEC_DISPREPAECDBDISPREPOPENINGPLANREFLECTED
  2
AecDbDispRepOpeningPlanReflected
  3
AecArchDACHBase50|Product Desc: Autodesk Architectural Desktop 2007 |Company: Autodesk,Inc. |WEB Address: www.autodesk.com
 90
    32897
280
     0
281
     0
  0
CLASS
  1
AEC_DISPROPSOPENINGPLANCOMMON
  2
AecDbDispPropsOpeningPlanCommon
  3
AecArchDACHBase50|Product Desc: Autodesk Architectural Desktop 2007 |Company: Autodesk,Inc. |WEB Address: www.autodesk.com
 90
    32897
280
     0
281
     0
  0
CLASS
  1
AEC_DISPREPAECDBDISPREPOPENINGSILLPLAN
  2
AecDbDispRepOpeningSillPlan
  3
AecArchDACHBase50|Product Desc: Autodesk Architectural Desktop 2007 |Company: Autodesk,Inc. |WEB Address: www.autodesk.com
 90
    32897
280
     0
281
     0
  0
CLASS
  1
AEC_DISPROPSOPENINGSILLPLAN
  2
AecDbDispPropsOpeningSillPlan
  3
AecArchDACHBase50|Product Desc: Autodesk Architectural Desktop 2007 |Company: Autodesk,Inc. |WEB Address: www.autodesk.com
 90
    32897
280
     0
281
     0
  0
CLASS
  1
AEC_DISP_REP_RAILING_PLAN_100
  2
AecDbDispRepRailingPlan100
  3
AecArchDACHBase50|Product Desc: Autodesk Architectural Desktop 2007 |Company: Autodesk,Inc. |WEB Address: www.autodesk.com
 90
    32897
280
     0
281
     0
  0
CLASS
  1
AEC_DISP_ROPS_RAILING_PLAN_100
  2
AecDbDispPropsRailingPlan100
  3
AecArchDACHBase50|Product Desc: Autodesk Architectural Desktop 2007 |Company: Autodesk,Inc. |WEB Address: www.autodesk.com
 90
    32897
280
     0
281
     0
  0
CLASS
  1
AEC_DISP_REP_RAILING_PLAN_50
  2
AecDbDispRepRailingPlan50
  3
AecArchDACHBase50|Product Desc: Autodesk Architectural Desktop 2007 |Company: Autodesk,Inc. |WEB Address: www.autodesk.com
 90
    32897
280
     0
281
     0
  0
CLASS
  1
AEC_DISP_ROPS_RAILING_PLAN_50
  2
AecDbDispPropsRailingPlan50
  3
AecArchDACHBase50|Product Desc: Autodesk Architectural Desktop 2007 |Company: Autodesk,Inc. |WEB Address: www.autodesk.com
 90
    32897
280
     0
281
     0
  0
CLASS
  1
AEC_DISP_REP_STAIR_PLAN_100
  2
AecDbDispRepStairPlan100
  3
AecArchDACHBase50|Product Desc: Autodesk Architectural Desktop 2007 |Company: Autodesk,Inc. |WEB Address: www.autodesk.com
 90
    32897
280
     0
281
     0
  0
CLASS
  1
AEC_DISP_ROPS_STAIR_PLAN_100
  2
AecDbDispPropsStairPlan100
  3
AecArchDACHBase50|Product Desc: Autodesk Architectural Desktop 2007 |Company: Autodesk,Inc. |WEB Address: www.autodesk.com
 90
    32897
280
     0
281
     0
  0
CLASS
  1
AEC_DISP_REP_STAIR_PLAN_50
  2
AecDbDispRepStairPlan50
  3
AecArchDACHBase50|Product Desc: Autodesk Architectural Desktop 2007 |Company: Autodesk,Inc. |WEB Address: www.autodesk.com
 90
    32897
280
     0
281
     0
  0
CLASS
  1
AEC_DISP_ROPS_STAIR_PLAN_50
  2
AecDbDispPropsStairPlan50
  3
AecArchDACHBase50|Product Desc: Autodesk Architectural Desktop 2007 |Company: Autodesk,Inc. |WEB Address: www.autodesk.com
 90
    32897
280
     0
281
     0
  0
CLASS
  1
AEC_DISP_REP_WINDOW_PLAN_100
  2
AecDbDispRepWindowPlan100
  3
AecArchDACHBase50|Product Desc: Autodesk Architectural Desktop 2007 |Company: Autodesk,Inc. |WEB Address: www.autodesk.com
 90
    32897
280
     0
281
     0
  0
CLASS
  1
AEC_DISP_PROPS_WINDOW_PLAN_100
  2
AecDbDispPropsWindowPlan100
  3
AecArchDACHBase50|Product Desc: Autodesk Architectural Desktop 2007 |Company: Autodesk,Inc. |WEB Address: www.autodesk.com
 90
    32897
280
     0
281
     0
  0
CLASS
  1
AEC_DISP_REP_WINDOW_PLAN_50
  2
AecDbDispRepWindowPlan50
  3
AecArchDACHBase50|Product Desc: Autodesk Architectural Desktop 2007 |Company: Autodesk,Inc. |WEB Address: www.autodesk.com
 90
    32897
280
     0
281
     0
  0
CLASS
  1
AEC_DISP_PROPS_WINDOW_PLAN_50
  2
AecDbDispPropsWindowPlan50
  3
AecArchDACHBase50|Product Desc: Autodesk Architectural Desktop 2007 |Company: Autodesk,Inc. |WEB Address: www.autodesk.com
 90
    32897
280
     0
281
     0
  0
CLASS
  1
BINRECORD
  2
AcAecBinRecord
  3
AecBase50|Product Desc: Autodesk Architectural Desktop 2007 |Company: Autodesk,Inc. |WEB Address: www.autodesk.com
 90
    32897
280
     0
281
     0
  0
CLASS
  1
SPATIAL_FILTER
  2
AcDbSpatialFilter
  3
ObjectDBX Classes
 90
    32768
280
     0
281
     0
  0
CLASS
  1
AEC_VARS_STRUCTUREBASE
  2
AecsDbVarsStructureBase
  3
AecStructureBase50|Product Desc: Autodesk Architectural Desktop 2007 |Company: Autodesk,Inc. |WEB Address: www.autodesk.com
 90
    32897
280
     0
281
     0
  0
CLASS
  1
DIMASSOC
  2
AcDbDimAssoc
  3
"AcDbDimAssoc|Product Desc:     AcDim ARX App For Dimension|Company:          Autodesk, Inc.|WEB Address:      www.autodesk.com"
 90
    32768
280
     0
281
     0
  0
CLASS
  1
TABLESTYLE
  2
AcDbTableStyle
  3
ObjectDBX Classes
 90
     4095
280
     0
281
     0
  0
CLASS
  1
MATERIAL
  2
AcDbMaterial
  3
ObjectDBX Classes
 90
     1153
280
     0
281
     0
  0
CLASS
  1
VISUALSTYLE
  2
AcDbVisualStyle
  3
ObjectDBX Classes
 90
     4095
280
     0
281
     0
  0
CLASS
  1
EXACXREFPANELOBJECT
  2
ExAcXREFPanelObject
  3
EXAC_ESW
 90
    33793
280
     0
281
     0
  0
CLASS
  1
NPOCOLLECTION
  2
AcDbImpNonPersistentObjectsCollection
  3
ObjectDBX Classes
 90
    33921
280
     0
281
     0
  0
CLASS
  1
AEC_AECDBDISPREPZONE100
  2
AecDbDispRepZonePlan100
  3
AecArchDACHBase50|Product Desc: Autodesk Architectural Desktop 2007 |Company: Autodesk,Inc. |WEB Address: www.autodesk.com
 90
    32897
280
     0
281
     0
  0
CLASS
  1
AEC_DISP_PROPS_ZONE
  2
AecDbDispPropsZone
  3
AecArchBase50|Product Desc: Autodesk Architectural Desktop 2007 |Company: Autodesk,Inc. |WEB Address: www.autodesk.com
 90
    32897
280
     0
281
     0
  0
CLASS
  1
AEC_AECDBDISPREPZONE50
  2
AecDbDispRepZonePlan50
  3
AecArchDACHBase50|Product Desc: Autodesk Architectural Desktop 2007 |Company: Autodesk,Inc. |WEB Address: www.autodesk.com
 90
    32897
280
     0
281
     0
  0
CLASS
  1
AEC_DISP_REP_DISPLAYTHEME
  2
AecDbDispRepDisplayTheme
  3
AecBase50|Product Desc: Autodesk Architectural Desktop 2007 |Company: Autodesk,Inc. |WEB Address: www.autodesk.com
 90
    32897
280
     0
281
     0
  0
CLASS
  1
AEC_DISP_PROPS_DISPLAYTHEME
  2
AecDbDispPropsDisplayTheme
  3
AecBase50|Product Desc: Autodesk Architectural Desktop 2007 |Company: Autodesk,Inc. |WEB Address: www.autodesk.com
 90
    32897
280
     0
281
     0
  0
CLASS
  1
AEC_DISP_REP_ANCHOR_EXT_TAG_TO_ENT
  2
AecDbDispRepAnchorExtendedTagToEnt
  3
AecScheduleData50|Product Desc: Autodesk Architectural Desktop 2007 |Company: Autodesk,Inc. |WEB Address: www.autodesk.com
 90
    32897
280
     0
281
     0
  0
CLASS
  1
AEC_DISP_REP_SPACE_DECOMPOSED
  2
AecDbDispRepSpaceDecomposed
  3
AecArchBase50|Product Desc: Autodesk Architectural Desktop 2007 |Company: Autodesk,Inc. |WEB Address: www.autodesk.com
 90
    32897
280
     0
281
     0
  0
CLASS
  1
AEC_DISP_PROPS_SPACE_DECOMPOSED
  2
AecDbDispPropsSpaceDecomposed
  3
AecArchBase50|Product Desc: Autodesk Architectural Desktop 2007 |Company: Autodesk,Inc. |WEB Address: www.autodesk.com
 90
    32897
280
     0
281
     0
  0
CLASS
  1
AEC_DISP_REP_ZONE
  2
AecDbDispRepZone
  3
AecArchBase50|Product Desc: Autodesk Architectural Desktop 2007 |Company: Autodesk,Inc. |WEB Address: www.autodesk.com
 90
    32897
280
     0
281
     0
  0
CLASS
  1
ACAD_EVALUATION_GRAPH
  2
AcDbEvalGraph
  3
ObjectDBX Classes
 90
    33921
280
     0
281
     0
  0
CLASS
  1
BLOCKFLIPPARAMETER
  2
AcDbBlockFlipParameter
  3
ObjectDBX Classes
 90
    33921
280
     0
281
     0
  0
CLASS
  1
BLOCKFLIPGRIP
  2
AcDbBlockFlipGrip
  3
ObjectDBX Classes
 90
    33921
280
     0
281
     0
  0
CLASS
  1
BLOCKGRIPLOCATIONCOMPONENT
  2
AcDbBlockGripExpr
  3
ObjectDBX Classes
 90
    33921
280
     0
281
     0
  0
CLASS
  1
BLOCKFLIPACTION
  2
AcDbBlockFlipAction
  3
ObjectDBX Classes
 90
    33921
280
     0
281
     0
  0
CLASS
  1
BLOCKROTATIONPARAMETER
  2
AcDbBlockRotationParameter
  3
ObjectDBX Classes
 90
    33921
280
     0
281
     0
  0
CLASS
  1
BLOCKROTATIONGRIP
  2
AcDbBlockRotationGrip
  3
ObjectDBX Classes
 90
    33921
280
     0
281
     0
  0
CLASS
  1
BLOCKROTATEACTION
  2
AcDbBlockRotateAction
  3
ObjectDBX Classes
 90
    33921
280
     0
281
     0
  0
CLASS
  1
BLOCKBASEPOINTPARAMETER
  2
AcDbBlockBasepointParameter
  3
ObjectDBX Classes
 90
    33921
280
     0
281
     0
  0
CLASS
  1
ACDB_DYNAMICBLOCKPURGEPREVENTER_VERSION
  2
AcDbDynamicBlockPurgePreventer
  3
ObjectDBX Classes
 90
    33921
280
     0
281
     0
  0
CLASS
  1
ACDB_BLOCKREPRESENTATION_DATA
  2
AcDbBlockRepresentationData
  3
ObjectDBX Classes
 90
    33921
280
     0
281
     0
  0
CLASS
  1
SCALE
  2
AcDbScale
  3
ObjectDBX Classes
 90
     1153
280
     0
281
     0
  0
CLASS
  1
MLEADERSTYLE
  2
AcDbMLeaderStyle
  3
ACDB_MLEADERSTYLE_CLASS
 90
    36863
280
     0
281
     0
  0
CLASS
  1
CELLSTYLEMAP
  2
AcDbCellStyleMap
  3
ObjectDBX Classes
 90
     1152
280
     0
281
     0
  0
CLASS
  1
AEC_DOOR
  2
AecDbDoor
  3
AecArchBase50|Product Desc: Autodesk Architectural Desktop 2007 |Company: Autodesk,Inc. |WEB Address: www.autodesk.com
 90
    33661
280
     0
281
     1
  0
CLASS
  1
AEC_DOOR_STYLE
  2
AecDbDoorStyle
  3
AecArchBase50|Product Desc: Autodesk Architectural Desktop 2007 |Company: Autodesk,Inc. |WEB Address: www.autodesk.com
 90
    32897
280
     0
281
     0
  0
CLASS
  1
AEC_STDSIZE_OPENINGS
  2
AecDbStdSizeOpeningList
  3
AecArchBase50|Product Desc: Autodesk Architectural Desktop 2007 |Company: Autodesk,Inc. |WEB Address: www.autodesk.com
 90
    32897
280
     0
281
     0
  0
CLASS
  1
AecDbPropertySet
  2
AecDbPropertySet
  3
AecScheduleData50|Product Desc: Autodesk Architectural Desktop 2007 |Company: Autodesk,Inc. |WEB Address: www.autodesk.com
 90
    32897
280
     0
281
     0
  0
CLASS
  1
AEC_MATERIAL_DEF
  2
AecDbMaterialDef
  3
AecBase50|Product Desc: Autodesk Architectural Desktop 2007 |Company: Autodesk,Inc. |WEB Address: www.autodesk.com
 90
    32897
280
     0
281
     0
  0
CLASS
  1
AEC_SCHEDULE_DATA_FORMAT
  2
AecDbScheduleDataFormat
  3
AecScheduleData50|Product Desc: Autodesk Architectural Desktop 2007 |Company: Autodesk,Inc. |WEB Address: www.autodesk.com
 90
    32897
280
     0
281
     0
  0
CLASS
  1
AEC_PROPERTY_SET_DEF
  2
AecDbPropertySetDef
  3
AecScheduleData50|Product Desc: Autodesk Architectural Desktop 2007 |Company: Autodesk,Inc. |WEB Address: www.autodesk.com
 90
    32897
280
     0
281
     0
  0
CLASS
  1
BLOCKLINEARPARAMETER
  2
AcDbBlockLinearParameter
  3
ObjectDBX Classes
 90
    33921
280
     0
281
     0
  0
CLASS
  1
BLOCKLINEARGRIP
  2
AcDbBlockLinearGrip
  3
ObjectDBX Classes
 90
    33921
280
     0
281
     0
  0
CLASS
  1
BLOCKSTRETCHACTION
  2
AcDbBlockStretchAction
  3
ObjectDBX Classes
 90
    33921
280
     0
281
     0
  0
CLASS
  1
AEC_SPACE
  2
AecDbSpace
  3
AecArchBase50|Product Desc: Autodesk Architectural Desktop 2007 |Company: Autodesk,Inc. |WEB Address: www.autodesk.com
 90
    33661
280
     0
281
     1
  0
CLASS
  1
AEC_LIST_DEF
  2
AecDbListDefinition
  3
AecBase50|Product Desc: Autodesk Architectural Desktop 2007 |Company: Autodesk,Inc. |WEB Address: www.autodesk.com
 90
    32897
280
     0
281
     0
  0
CLASS
  1
AEC_LIST_DEF
  2
AecDbListItem
  3
AecBase50|Product Desc: Autodesk Architectural Desktop 2007 |Company: Autodesk,Inc. |WEB Address: www.autodesk.com
 90
    32897
280
     0
281
     0
  0
CLASS
  1
AEC_ROOFSLAB_STYLE
  2
AecDbRoofSlabStyle
  3
AecArchBase50|Product Desc: Autodesk Architectural Desktop 2007 |Company: Autodesk,Inc. |WEB Address: www.autodesk.com
 90
    32897
280
     0
281
     0
  0
CLASS
  1
AEC_ROOFSLABEDGE_STYLE
  2
AecDbRoofSlabEdgeStyle
  3
AecArchBase50|Product Desc: Autodesk Architectural Desktop 2007 |Company: Autodesk,Inc. |WEB Address: www.autodesk.com
 90
    32897
280
     0
281
     0
  0
CLASS
  1
AEC_SLAB_STYLE
  2
AecDbSlabStyle
  3
AecArchBase50|Product Desc: Autodesk Architectural Desktop 2007 |Company: Autodesk,Inc. |WEB Address: www.autodesk.com
 90
    32897
280
     0
281
     0
  0
CLASS
  1
AEC_SLABEDGE_STYLE
  2
AecDbSlabEdgeStyle
  3
AecArchBase50|Product Desc: Autodesk Architectural Desktop 2007 |Company: Autodesk,Inc. |WEB Address: www.autodesk.com
 90
    32897
280
     0
281
     0
  0
CLASS
  1
AEC_SPACE_STYLES
  2
AecDbSpaceStyle
  3
AecArchBase50|Product Desc: Autodesk Architectural Desktop 2007 |Company: Autodesk,Inc. |WEB Address: www.autodesk.com
 90
    32897
280
     0
281
     0
  0
CLASS
  1
AEC_REFEDIT_STATUS_TRACKER
  2
AecDbRefEditStatusTracker
  3
AecArchBase50|Product Desc: Autodesk Architectural Desktop 2007 |Company: Autodesk,Inc. |WEB Address: www.autodesk.com
 90
    32897
280
     0
281
     0
  0
ENDSEC
  0
SECTION
  2
TABLES
  0
TABLE
  2
VPORT
  5
38F
330
0
100
AcDbSymbolTable
 70
     1
  0
VPORT
  5
390
330
38F
100
AcDbSymbolTableRecord
100
AcDbViewportTableRecord
  2
*Active
 70
     0
 10
0.0
 20
0.0
 11
1.0
 21
1.0
 12
225580.2827427022
 22
129083.433381917
 13
0.0
 23
0.0
 14
10.0
 24
10.0
 15
10.0
 25
10.0
 16
0.0
 26
0.0
 36
1.0
 17
0.0
 27
0.0
 37
0.0
 40
61165.62438593015
 41
1.765927977839335
 42
50.0
 43
0.0
 44
0.0
 50
0.0
 51
0.0
 71
     0
 72
  1000
 73
     1
 74
     1
 75
     0
 76
     0
 77
     0
 78
     0
281
     0
 65
     1
110
0.0
120
0.0
130
0.0
111
1.0
121
0.0
131
0.0
112
0.0
122
1.0
132
0.0
 79
     0
146
0.0
  0
ENDTAB
  0
TABLE
  2
LTYPE
  5
38A
330
0
100
AcDbSymbolTable
 70
     2
  0
LTYPE
  5
38B
330
38A
100
AcDbSymbolTableRecord
100
AcDbLinetypeTableRecord
  2
ByBlock
 70
     0
  3

 72
    65
 73
     0
 40
0.0
  0
LTYPE
  5
38C
330
38A
100
AcDbSymbolTableRecord
100
AcDbLinetypeTableRecord
  2
ByLayer
 70
     0
  3

 72
    65
 73
     0
 40
0.0
  0
LTYPE
  5
E
330
38A
100
AcDbSymbolTableRecord
100
AcDbLinetypeTableRecord
  2
Continuous
 70
     0
  3
Solid line
 72
    65
 73
     0
 40
0.0
  0
LTYPE
  5
17
330
38A
100
AcDbSymbolTableRecord
100
AcDbLinetypeTableRecord
  2
HIDDEN
 70
     0
  3
Hidden __ __ __ __ __ __ __ __ __ __ __ __ __ _
 72
    65
 73
     2
 40
0.375
 49
0.25
 74
     0
 49
-0.125
 74
     0
  0
ENDTAB
  0
TABLE
  2
LAYER
  5
382
102
{ACAD_XDICTIONARY
360
383
102
}
330
0
100
AcDbSymbolTable
 70
    11
  0
LAYER
  5
6
102
{ACAD_XDICTIONARY
360
7
102
}
330
382
100
AcDbSymbolTableRecord
100
AcDbLayerTableRecord
  2
0
 70
     0
 62
     7
  6
Continuous
370
    -3
390
9
1001
RAK
1000
{ACET-LAYISO
1070
     0
1070
     7
1000
Continuous
1071
       -3
1071
        1
1005
9
1000
ACET-LAYISO}
  0
LAYER
  5
181
330
382
100
AcDbSymbolTableRecord
100
AcDbLayerTableRecord
  2
DEFPOINTS
 70
     0
 62
     7
  6
Continuous
290
     0
370
    -3
390
9
1001
RAK
1000
{ACET-LAYISO
1070
     0
1070
     7
1000
Continuous
1071
       -3
1071
        0
1005
9
1000
ACET-LAYISO}
  0
LAYER
  5
1C
102
{ACAD_XDICTIONARY
360
1D
102
}
330
382
100
AcDbSymbolTableRecord
100
AcDbLayerTableRecord
  2
RAMKI-A4
 70
     0
 62
     2
  6
Continuous
290
     0
370
    -3
390
9
1001
RAK
1000
{ACET-LAYISO
1070
     0
1070
     2
1000
Continuous
1071
       -3
1071
        0
1005
9
1000
ACET-LAYISO}
  0
LAYER
  5
11
102
{ACAD_XDICTIONARY
360
12
102
}
330
382
100
AcDbSymbolTableRecord
100
AcDbLayerTableRecord
  2
NAPISY
 70
     0
 62
   140
  6
Continuous
370
    -3
390
9
1001
RAK
1000
{ACET-LAYISO
1070
     0
1070
   140
1000
Continuous
1071
       -3
1071
        1
1005
9
1000
ACET-LAYISO}
  0
LAYER
  5
20
102
{ACAD_XDICTIONARY
360
21
102
}
330
382
100
AcDbSymbolTableRecord
100
AcDbLayerTableRecord
  2
TEREN$0$A-MassElement-G
 70
     0
 62
   210
  6
Continuous
370
     9
390
9
1001
AcAecLayerStandard
1000
BS1192 - Descriptive
1001
RAK
1000
{ACET-LAYISO
1070
     0
1070
   210
1000
Continuous
1071
        9
1071
        1
1005
9
1000
ACET-LAYISO}
  0
LAYER
  5
92
102
{ACAD_XDICTIONARY
360
93
102
}
330
382
100
AcDbSymbolTableRecord
100
AcDbLayerTableRecord
  2
0Hatch
 70
     0
 62
   122
  6
Continuous
370
     5
390
9
  0
LAYER
  5
16E
102
{ACAD_XDICTIONARY
360
16F
102
}
330
382
100
AcDbSymbolTableRecord
100
AcDbLayerTableRecord
  2
0Wymiary-PL
 70
     0
 62
     1
  6
Continuous
370
     5
390
9
  0
LAYER
  5
8E
102
{ACAD_XDICTIONARY
360
8F
102
}
330
382
100
AcDbSymbolTableRecord
100
AcDbLayerTableRecord
  2
A-Wall-G
 70
     0
 62
     7
  6
Continuous
370
    50
390
9
1001
RAK
1000
{DRUK
1070
     0
1070
    50
1000
Continuous
1071
       35
1071
        1
1005
9
1000
DRUK}
1001
AcAecLayerStandard
1000
1m1_ARCHON
1000
Architects, Walls, Graphics
  0
LAYER
  5
154
102
{ACAD_XDICTIONARY
360
155
102
}
330
382
100
AcDbSymbolTableRecord
100
AcDbLayerTableRecord
  2
A-Wall D-G
 70
     0
 62
     7
  6
Continuous
370
    50
390
9
  0
LAYER
  5
97
102
{ACAD_XDICTIONARY
360
98
102
}
330
382
100
AcDbSymbolTableRecord
100
AcDbLayerTableRecord
  2
A-MassElement-G
 70
     0
 62
   210
  6
Continuous
370
    -3
390
9
  0
LAYER
  5
A2
102
{ACAD_XDICTIONARY
360
A3
102
}
330
382
100
AcDbSymbolTableRecord
100
AcDbLayerTableRecord
  2
teren$0$A-PlantOutdoor-G
 70
     0
 62
   100
  6
Continuous
370
     5
390
9
  0
ENDTAB
  0
TABLE
  2
STYLE
  5
387
330
0
100
AcDbSymbolTable
 70
     3
  0
STYLE
  5
388
330
387
100
AcDbSymbolTableRecord
100
AcDbTextStyleTableRecord
  2
Standard
 70
     0
 40
0.0
 41
1.0
 50
0.0
 71
     0
 42
2.5
  3
txt
  4

  0
STYLE
  5
17F
330
387
100
AcDbSymbolTableRecord
100
AcDbTextStyleTableRecord
  2
ROMANS
 70
     0
 40
0.0
 41
0.9
 50
0.0
 71
     0
 42
20.0
  3
romans.shx
  4

  0
STYLE
  5
14
330
387
100
AcDbSymbolTableRecord
100
AcDbTextStyleTableRecord
  2
AVA
 70
     0
 40
0.0
 41
1.0
 50
0.0
 71
     0
 42
158.5644099714409
  3
ARIAL.TTF
  4

1001
ACAD
1000
Arial CE
1071
    60962
  0
ENDTAB
  0
TABLE
  2
VIEW
  5
38D
330
0
100
AcDbSymbolTable
 70
     1
  0
VIEW
  5
37A
330
38D
100
AcDbSymbolTableRecord
100
AcDbViewTableRecord
  2
RODODENDRON 5
 70
     0
 40
14020.0
 10
220287.1664355166
 20
148687.514558954
 41
10200.00000000003
 11
0.0
 21
0.0
 31
1.0
 12
0.0
 22
0.0
 32
0.0
 42
50.0
 43
0.0
 44
0.0
 50
0.0
 71
     0
281
     0
 72
     1
110
0.0
120
0.0
130
0.0
111
1.0
121
0.0
131
0.0
112
0.0
122
1.0
132
0.0
 79
     0
146
0.0
  0
ENDTAB
  0
TABLE
  2
UCS
  5
38E
330
0
100
AcDbSymbolTable
 70
     0
  0
ENDTAB
  0
TABLE
  2
APPID
  5
391
330
0
100
AcDbSymbolTable
 70
     4
  0
APPID
  5
15
330
391
100
AcDbSymbolTableRecord
100
AcDbRegAppTableRecord
  2
ACAD
 70
     0
  0
APPID
  5
F
330
391
100
AcDbSymbolTableRecord
100
AcDbRegAppTableRecord
  2
RAK
 70
     0
  0
APPID
  5
23
330
391
100
AcDbSymbolTableRecord
100
AcDbRegAppTableRecord
  2
AcAecLayerStandard
 70
     0
  0
APPID
  5
37D
330
391
100
AcDbSymbolTableRecord
100
AcDbRegAppTableRecord
  2
ACAD_PSEXT
 70
     0
  0
ENDTAB
  0
TABLE
  2
DIMSTYLE
  5
392
330
0
100
AcDbSymbolTable
 70
     2
100
AcDbDimStyleTable
 71
     2
340
185
340
393
  0
DIMSTYLE
105
185
102
{ACAD_REACTORS
330
16D
330
186
330
191
330
19E
330
1A9
330
1B6
330
1C1
330
1CE
330
317
330
322
330
32D
330
33A
330
345
330
352
330
35D
330
36A
102
}
330
392
100
AcDbSymbolTableRecord
100
AcDbDimStyleTableRecord
  2
500
 70
     0
 41
30.0
 42
43.0
 43
0.0
 44
13.0
 45
0.5
 46
12.0
 73
     0
 74
     0
 75
     1
 76
     1
 78
    12
140
80.0
141
0.0
145
1.0
147
0.0
172
     1
174
     1
176
     1
177
     1
178
    10
271
     1
272
     1
279
     2
340
17F
341
175
342
175
  0
DIMSTYLE
105
393
330
392
100
AcDbSymbolTableRecord
100
AcDbDimStyleTableRecord
  2
Standard
 70
     0
340
388
  0
ENDTAB
  0
TABLE
  2
BLOCK_RECORD
  5
1
330
0
100
AcDbSymbolTable
 70
    17
  0
BLOCK_RECORD
  5
2
102
{ACAD_XDICTIONARY
360
3
102
}
330
1
100
AcDbSymbolTableRecord
100
AcDbBlockTableRecord
  2
*Model_Space
340
378
  0
BLOCK_RECORD
  5
37E
330
1
100
AcDbSymbolTableRecord
100
AcDbBlockTableRecord
  2
*Paper_Space
340
381
  0
BLOCK_RECORD
  5
175
102
{ACAD_XDICTIONARY
360
176
102
}
330
1
100
AcDbSymbolTableRecord
100
AcDbBlockTableRecord
  2
B-DIM
340
0
102
{BLKREFS
331
174
331
17D
331
18A
331
18B
331
197
331
198
331
1A2
331
1A3
331
1AF
331
1B0
331
1BA
331
1BB
331
1C7
331
1C8
331
1D2
331
1D3
331
31B
331
31C
331
326
331
327
331
333
331
334
331
33E
331
33F
331
34B
331
34C
331
356
331
357
331
363
331
364
331
36E
331
36F
102
}
  0
BLOCK_RECORD
  5
171
330
1
100
AcDbSymbolTableRecord
100
AcDbBlockTableRecord
  2
*D1
340
0
  0
BLOCK_RECORD
  5
187
330
1
100
AcDbSymbolTableRecord
100
AcDbBlockTableRecord
  2
*D2
340
0
  0
BLOCK_RECORD
  5
192
330
1
100
AcDbSymbolTableRecord
100
AcDbBlockTableRecord
  2
*D3
340
0
  0
BLOCK_RECORD
  5
19F
330
1
100
AcDbSymbolTableRecord
100
AcDbBlockTableRecord
  2
*D4
340
0
  0
BLOCK_RECORD
  5
1AA
330
1
100
AcDbSymbolTableRecord
100
AcDbBlockTableRecord
  2
*D5
340
0
  0
BLOCK_RECORD
  5
1B7
330
1
100
AcDbSymbolTableRecord
100
AcDbBlockTableRecord
  2
*D6
340
0
  0
BLOCK_RECORD
  5
1C2
330
1
100
AcDbSymbolTableRecord
100
AcDbBlockTableRecord
  2
*D7
340
0
  0
BLOCK_RECORD
  5
1CF
330
1
100
AcDbSymbolTableRecord
100
AcDbBlockTableRecord
  2
*D8
340
0
  0
BLOCK_RECORD
  5
318
330
1
100
AcDbSymbolTableRecord
100
AcDbBlockTableRecord
  2
*D9
340
0
  0
BLOCK_RECORD
  5
323
330
1
100
AcDbSymbolTableRecord
100
AcDbBlockTableRecord
  2
*D10
340
0
  0
BLOCK_RECORD
  5
32E
330
1
100
AcDbSymbolTableRecord
100
AcDbBlockTableRecord
  2
*D11
340
0
  0
BLOCK_RECORD
  5
33B
330
1
100
AcDbSymbolTableRecord
100
AcDbBlockTableRecord
  2
*D12
340
0
  0
BLOCK_RECORD
  5
346
330
1
100
AcDbSymbolTableRecord
100
AcDbBlockTableRecord
  2
*D13
340
0
  0
BLOCK_RECORD
  5
353
330
1
100
AcDbSymbolTableRecord
100
AcDbBlockTableRecord
  2
*D14
340
0
  0
BLOCK_RECORD
  5
35E
330
1
100
AcDbSymbolTableRecord
100
AcDbBlockTableRecord
  2
*D15
340
0
  0
BLOCK_RECORD
  5
36B
330
1
100
AcDbSymbolTableRecord
100
AcDbBlockTableRecord
  2
*D16
340
0
  0
ENDTAB
  0
ENDSEC
  0
SECTION
  2
BLOCKS
  0
BLOCK
  5
5
330
2
100
AcDbEntity
  8
0
100
AcDbBlockBegin
  2
*Model_Space
 70
     0
 10
0.0
 20
0.0
 30
0.0
  3
*Model_Space
  1

  0
ENDBLK
  5
377
330
2
100
AcDbEntity
  8
0
100
AcDbBlockEnd
  0
BLOCK
  5
37F
330
37E
100
AcDbEntity
 67
     1
  8
0
100
AcDbBlockBegin
  2
*Paper_Space
 70
     0
 10
0.0
 20
0.0
 30
0.0
  3
*Paper_Space
  1

  0
ENDBLK
  5
380
330
37E
100
AcDbEntity
 67
     1
  8
0
100
AcDbBlockEnd
  0
BLOCK
  5
178
330
175
100
AcDbEntity
  8
0
100
AcDbBlockBegin
  2
B-DIM
 70
     0
 10
0.0
 20
0.0
 30
0.0
  3
B-DIM
  1

  0
LINE
  5
179
330
175
100
AcDbEntity
  8
0
 62
     1
100
AcDbLine
 10
0.000000000000091
 20
-1.1
 30
0.0
 11
0.000000000000091
 21
1.1
 31
0.0
  0
LWPOLYLINE
  5
17A
330
175
100
AcDbEntity
  8
0
 62
     1
100
AcDbPolyline
 90
        2
 70
     0
 43
0.3
 10
-0.7071067811864851
 20
-0.7071067811864851
 10
0.707106781186576
 20
0.707106781186576
  0
LINE
  5
17B
330
175
100
AcDbEntity
  8
0
 62
     1
100
AcDbLine
 10
1.20000000000009
 20
0.0
 30
0.0
 11
-1.199999999999909
 21
0.0
 31
0.0
  0
ENDBLK
  5
17C
330
175
100
AcDbEntity
  8
0
100
AcDbBlockEnd
  0
BLOCK
  5
172
330
171
100
AcDbEntity
  8
0
100
AcDbBlockBegin
  2
*D1
 70
     1
 10
0.0
 20
0.0
 30
0.0
  3
*D1
  1

  0
LINE
  5
173
330
171
100
AcDbEntity
  8
0Wymiary-PL
 62
     1
370
    -2
100
AcDbLine
 10
217289.7868238984
 20
137297.4787603711
 30
0.0
 11
217609.7868238984
 21
137297.4787603711
 31
0.0
  0
INSERT
  5
174
330
171
100
AcDbEntity
  8
0Wymiary-PL
 62
     1
370
    -2
100
AcDbBlockReference
  2
B-DIM
 10
217259.7868238984
 20
137297.4787603711
 30
0.0
 41
30.0
 42
30.0
 43
30.0
 50
180.0
  0
INSERT
  5
17D
330
171
100
AcDbEntity
  8
0Wymiary-PL
 62
     1
370
    -2
100
AcDbBlockReference
  2
B-DIM
 10
217639.7868238984
 20
137297.4787603711
 30
0.0
 41
30.0
 42
30.0
 43
30.0
  0
MTEXT
  5
17E
330
171
100
AcDbEntity
  8
0Wymiary-PL
 62
    10
100
AcDbMText
 10
217449.7868238983
 20
137377.4787603712
 30
0.0
 40
80.0
 41
0.0
 71
     5
 72
     1
  1
\A1;380
  7
ROMANS
 73
     1
 44
1.0
1001
ACAD
1000
MTEXTBEGIN
1070
    73
1070
     1
1070
    44
1040
1.0
1070
    74
1070
     0
1000
MTEXTEND
  0
POINT
  5
180
330
171
100
AcDbEntity
  8
DEFPOINTS
 62
     0
100
AcDbPoint
 10
217259.7868238984
 20
136235.916753274
 30
0.0
  0
POINT
  5
182
330
171
100
AcDbEntity
  8
DEFPOINTS
 62
     0
100
AcDbPoint
 10
217639.7868238984
 20
136779.4618528231
 30
0.0
  0
POINT
  5
183
330
171
100
AcDbEntity
  8
DEFPOINTS
 62
     0
100
AcDbPoint
 10
217639.7868238984
 20
137297.4787603711
 30
0.0
  0
ENDBLK
  5
184
330
171
100
AcDbEntity
  8
0
100
AcDbBlockEnd
  0
BLOCK
  5
188
330
187
100
AcDbEntity
  8
0
100
AcDbBlockBegin
  2
*D2
 70
     1
 10
0.0
 20
0.0
 30
0.0
  3
*D2
  1

  0
LINE
  5
189
330
187
100
AcDbEntity
  8
0Wymiary-PL
 62
     1
370
    -2
100
AcDbLine
 10
217669.7868238984
 20
137297.4787603711
 30
0.0
 11
218709.7868238984
 21
137297.4787603711
 31
0.0
  0
INSERT
  5
18A
330
187
100
AcDbEntity
  8
0Wymiary-PL
 62
     1
370
    -2
100
AcDbBlockReference
  2
B-DIM
 10
217639.7868238984
 20
137297.4787603711
 30
0.0
 41
30.0
 42
30.0
 43
30.0
 50
180.0
  0
INSERT
  5
18B
330
187
100
AcDbEntity
  8
0Wymiary-PL
 62
     1
370
    -2
100
AcDbBlockReference
  2
B-DIM
 10
218739.7868238984
 20
137297.4787603711
 30
0.0
 41
30.0
 42
30.0
 43
30.0
  0
MTEXT
  5
18C
330
187
100
AcDbEntity
  8
0Wymiary-PL
 62
    10
100
AcDbMText
 10
218189.7868238984
 20
137377.4787603712
 30
0.0
 40
80.0
 41
0.0
 71
     5
 72
     1
  1
\A1;1100
  7
ROMANS
 73
     1
 44
1.0
1001
ACAD
1000
MTEXTBEGIN
1070
    73
1070
     1
1070
    44
1040
1.0
1070
    74
1070
     0
1000
MTEXTEND
  0
POINT
  5
18D
330
187
100
AcDbEntity
  8
DEFPOINTS
 62
     0
100
AcDbPoint
 10
217639.7868238984
 20
136779.4618528231
 30
0.0
  0
POINT
  5
18E
330
187
100
AcDbEntity
  8
DEFPOINTS
 62
     0
100
AcDbPoint
 10
218739.7868238984
 20
136779.4618528231
 30
0.0
  0
POINT
  5
18F
330
187
100
AcDbEntity
  8
DEFPOINTS
 62
     0
100
AcDbPoint
 10
218739.7868238984
 20
137297.4787603711
 30
0.0
  0
ENDBLK
  5
190
330
187
100
AcDbEntity
  8
0
100
AcDbBlockEnd
  0
BLOCK
  5
193
330
192
100
AcDbEntity
  8
0
100
AcDbBlockBegin
  2
*D3
 70
     1
 10
0.0
 20
0.0
 30
0.0
  3
*D3
  1

  0
LINE
  5
194
330
192
100
AcDbEntity
  8
0Wymiary-PL
 62
     1
370
    -2
100
AcDbLine
 10
218709.7868238984
 20
137297.4787603711
 30
0.0
 11
218679.7868238984
 21
137297.4787603711
 31
0.0
  0
LINE
  5
195
330
192
100
AcDbEntity
  8
0Wymiary-PL
 62
     1
370
    -2
100
AcDbLine
 10
218859.7868238984
 20
137297.4787603711
 30
0.0
 11
218889.7868238984
 21
137297.4787603711
 31
0.0
  0
LINE
  5
196
330
192
100
AcDbEntity
  8
0Wymiary-PL
 62
     1
370
    -2
100
AcDbLine
 10
218739.7868238984
 20
137297.4787603711
 30
0.0
 11
218829.7868238984
 21
137297.4787603711
 31
0.0
  0
INSERT
  5
197
330
192
100
AcDbEntity
  8
0Wymiary-PL
 62
     1
370
    -2
100
AcDbBlockReference
  2
B-DIM
 10
218739.7868238984
 20
137297.4787603711
 30
0.0
 41
30.0
 42
30.0
 43
30.0
  0
INSERT
  5
198
330
192
100
AcDbEntity
  8
0Wymiary-PL
 62
     1
370
    -2
100
AcDbBlockReference
  2
B-DIM
 10
218829.7868238984
 20
137297.4787603711
 30
0.0
 41
30.0
 42
30.0
 43
30.0
 50
180.0
  0
MTEXT
  5
199
330
192
100
AcDbEntity
  8
0Wymiary-PL
 62
    10
100
AcDbMText
 10
218784.7868238984
 20
137377.4787603712
 30
0.0
 40
80.0
 41
0.0
 71
     5
 72
     1
  1
\A1;90
  7
ROMANS
 73
     1
 44
1.0
1001
ACAD
1000
MTEXTBEGIN
1070
    73
1070
     1
1070
    44
1040
1.0
1070
    74
1070
     0
1000
MTEXTEND
  0
POINT
  5
19A
330
192
100
AcDbEntity
  8
DEFPOINTS
 62
     0
100
AcDbPoint
 10
218739.7868238984
 20
136779.4618528231
 30
0.0
  0
POINT
  5
19B
330
192
100
AcDbEntity
  8
DEFPOINTS
 62
     0
100
AcDbPoint
 10
218829.7868238984
 20
136528.4618528231
 30
0.0
  0
POINT
  5
19C
330
192
100
AcDbEntity
  8
DEFPOINTS
 62
     0
100
AcDbPoint
 10
218829.7868238984
 20
137297.4787603711
 30
0.0
  0
ENDBLK
  5
19D
330
192
100
AcDbEntity
  8
0
100
AcDbBlockEnd
  0
BLOCK
  5
1A0
330
19F
100
AcDbEntity
  8
0
100
AcDbBlockBegin
  2
*D4
 70
     1
 10
0.0
 20
0.0
 30
0.0
  3
*D4
  1

  0
LINE
  5
1A1
330
19F
100
AcDbEntity
  8
0Wymiary-PL
 62
     1
370
    -2
100
AcDbLine
 10
218799.7868238984
 20
137555.3097628788
 30
0.0
 11
217289.7868238984
 21
137555.3097628788
 31
0.0
  0
INSERT
  5
1A2
330
19F
100
AcDbEntity
  8
0Wymiary-PL
 62
     1
370
    -2
100
AcDbBlockReference
  2
B-DIM
 10
218829.7868238984
 20
137555.3097628788
 30
0.0
 41
30.0
 42
30.0
 43
30.0
  0
INSERT
  5
1A3
330
19F
100
AcDbEntity
  8
0Wymiary-PL
 62
     1
370
    -2
100
AcDbBlockReference
  2
B-DIM
 10
217259.7868238984
 20
137555.3097628788
 30
0.0
 41
30.0
 42
30.0
 43
30.0
 50
180.0
  0
MTEXT
  5
1A4
330
19F
100
AcDbEntity
  8
0Wymiary-PL
 62
    10
100
AcDbMText
 10
218044.7868238983
 20
137635.3097628788
 30
0.0
 40
80.0
 41
0.0
 71
     5
 72
     1
  1
\A1;1570
  7
ROMANS
 73
     1
 44
1.0
1001
ACAD
1000
MTEXTBEGIN
1070
    73
1070
     1
1070
    44
1040
1.0
1070
    74
1070
     0
1000
MTEXTEND
  0
POINT
  5
1A5
330
19F
100
AcDbEntity
  8
DEFPOINTS
 62
     0
100
AcDbPoint
 10
218829.7868238984
 20
136528.4618528231
 30
0.0
  0
POINT
  5
1A6
330
19F
100
AcDbEntity
  8
DEFPOINTS
 62
     0
100
AcDbPoint
 10
217259.7868238984
 20
136678.4618528231
 30
0.0
  0
POINT
  5
1A7
330
19F
100
AcDbEntity
  8
DEFPOINTS
 62
     0
100
AcDbPoint
 10
217259.7868238984
 20
137555.3097628788
 30
0.0
  0
ENDBLK
  5
1A8
330
19F
100
AcDbEntity
  8
0
100
AcDbBlockEnd
  0
BLOCK
  5
1AB
330
1AA
100
AcDbEntity
  8
0
100
AcDbBlockBegin
  2
*D5
 70
     1
 10
0.0
 20
0.0
 30
0.0
  3
*D5
  1

  0
LINE
  5
1AC
330
1AA
100
AcDbEntity
  8
0Wymiary-PL
 62
     1
370
    -2
100
AcDbLine
 10
217034.0156972632
 20
136809.4618528231
 30
0.0
 11
217034.0156972632
 21
136839.4618528231
 31
0.0
  0
LINE
  5
1AD
330
1AA
100
AcDbEntity
  8
0Wymiary-PL
 62
     1
370
    -2
100
AcDbLine
 10
217034.0156972632
 20
136648.4618528231
 30
0.0
 11
217034.0156972632
 21
136618.4618528231
 31
0.0
  0
LINE
  5
1AE
330
1AA
100
AcDbEntity
  8
0Wymiary-PL
 62
     1
370
    -2
100
AcDbLine
 10
217034.0156972632
 20
136779.4618528231
 30
0.0
 11
217034.0156972632
 21
136678.4618528231
 31
0.0
  0
INSERT
  5
1AF
330
1AA
100
AcDbEntity
  8
0Wymiary-PL
 62
     1
370
    -2
100
AcDbBlockReference
  2
B-DIM
 10
217034.0156972632
 20
136779.4618528231
 30
0.0
 41
30.0
 42
30.0
 43
30.0
 50
270.0
  0
INSERT
  5
1B0
330
1AA
100
AcDbEntity
  8
0Wymiary-PL
 62
     1
370
    -2
100
AcDbBlockReference
  2
B-DIM
 10
217034.0156972632
 20
136678.4618528231
 30
0.0
 41
30.0
 42
30.0
 43
30.0
 50
90.0
  0
MTEXT
  5
1B1
330
1AA
100
AcDbEntity
  8
0Wymiary-PL
 62
    10
100
AcDbMText
 10
216954.0156972631
 20
136728.9618528232
 30
0.0
 40
80.0
 41
0.0
 71
     5
 72
     1
  1
\A1;101
  7
ROMANS
 11
0.0000000000000001
 21
1.0
 31
0.0
 73
     1
 44
1.0
1001
ACAD
1000
MTEXTBEGIN
1070
    73
1070
     1
1070
    44
1040
1.0
1070
    74
1070
     0
1000
MTEXTEND
  0
POINT
  5
1B2
330
1AA
100
AcDbEntity
  8
DEFPOINTS
 62
     0
100
AcDbPoint
 10
217639.7868238984
 20
136779.4618528231
 30
0.0
  0
POINT
  5
1B3
330
1AA
100
AcDbEntity
  8
DEFPOINTS
 62
     0
100
AcDbPoint
 10
217639.7868238984
 20
136678.4618528231
 30
0.0
  0
POINT
  5
1B4
330
1AA
100
AcDbEntity
  8
DEFPOINTS
 62
     0
100
AcDbPoint
 10
217034.0156972632
 20
136678.4618528231
 30
0.0
  0
ENDBLK
  5
1B5
330
1AA
100
AcDbEntity
  8
0
100
AcDbBlockEnd
  0
BLOCK
  5
1B8
330
1B7
100
AcDbEntity
  8
0
100
AcDbBlockBegin
  2
*D6
 70
     1
 10
0.0
 20
0.0
 30
0.0
  3
*D6
  1

  0
LINE
  5
1B9
330
1B7
100
AcDbEntity
  8
0Wymiary-PL
 62
     1
370
    -2
100
AcDbLine
 10
217034.0156972632
 20
136648.4618528231
 30
0.0
 11
217034.0156972632
 21
136030.4618528231
 31
0.0
  0
INSERT
  5
1BA
330
1B7
100
AcDbEntity
  8
0Wymiary-PL
 62
     1
370
    -2
100
AcDbBlockReference
  2
B-DIM
 10
217034.0156972632
 20
136678.4618528231
 30
0.0
 41
30.0
 42
30.0
 43
30.0
 50
90.0
  0
INSERT
  5
1BB
330
1B7
100
AcDbEntity
  8
0Wymiary-PL
 62
     1
370
    -2
100
AcDbBlockReference
  2
B-DIM
 10
217034.0156972632
 20
136000.4618528231
 30
0.0
 41
30.0
 42
30.0
 43
30.0
 50
270.0
  0
MTEXT
  5
1BC
330
1B7
100
AcDbEntity
  8
0Wymiary-PL
 62
    10
100
AcDbMText
 10
216954.0156972631
 20
136339.4618528232
 30
0.0
 40
80.0
 41
0.0
 71
     5
 72
     1
  1
\A1;678
  7
ROMANS
 11
0.0000000000000001
 21
1.0
 31
0.0
 73
     1
 44
1.0
1001
ACAD
1000
MTEXTBEGIN
1070
    73
1070
     1
1070
    44
1040
1.0
1070
    74
1070
     0
1000
MTEXTEND
  0
POINT
  5
1BD
330
1B7
100
AcDbEntity
  8
DEFPOINTS
 62
     0
100
AcDbPoint
 10
217639.7868238984
 20
136678.4618528231
 30
0.0
  0
POINT
  5
1BE
330
1B7
100
AcDbEntity
  8
DEFPOINTS
 62
     0
100
AcDbPoint
 10
217259.7868238984
 20
136000.4618528231
 30
0.0
  0
POINT
  5
1BF
330
1B7
100
AcDbEntity
  8
DEFPOINTS
 62
     0
100
AcDbPoint
 10
217034.0156972632
 20
136000.4618528231
 30
0.0
  0
ENDBLK
  5
1C0
330
1B7
100
AcDbEntity
  8
0
100
AcDbBlockEnd
  0
BLOCK
  5
1C3
330
1C2
100
AcDbEntity
  8
0
100
AcDbBlockBegin
  2
*D7
 70
     1
 10
0.0
 20
0.0
 30
0.0
  3
*D7
  1

  0
LINE
  5
1C4
330
1C2
100
AcDbEntity
  8
0Wymiary-PL
 62
     1
370
    -2
100
AcDbLine
 10
217034.0156972632
 20
136030.4618528231
 30
0.0
 11
217034.0156972632
 21
136060.4618528231
 31
0.0
  0
LINE
  5
1C5
330
1C2
100
AcDbEntity
  8
0Wymiary-PL
 62
     1
370
    -2
100
AcDbLine
 10
217034.0156972632
 20
135869.4618528231
 30
0.0
 11
217034.0156972632
 21
135839.4618528231
 31
0.0
  0
LINE
  5
1C6
330
1C2
100
AcDbEntity
  8
0Wymiary-PL
 62
     1
370
    -2
100
AcDbLine
 10
217034.0156972632
 20
136000.4618528231
 30
0.0
 11
217034.0156972632
 21
135899.4618528231
 31
0.0
  0
INSERT
  5
1C7
330
1C2
100
AcDbEntity
  8
0Wymiary-PL
 62
     1
370
    -2
100
AcDbBlockReference
  2
B-DIM
 10
217034.0156972632
 20
136000.4618528231
 30
0.0
 41
30.0
 42
30.0
 43
30.0
 50
270.0
  0
INSERT
  5
1C8
330
1C2
100
AcDbEntity
  8
0Wymiary-PL
 62
     1
370
    -2
100
AcDbBlockReference
  2
B-DIM
 10
217034.0156972632
 20
135899.4618528231
 30
0.0
 41
30.0
 42
30.0
 43
30.0
 50
90.0
  0
MTEXT
  5
1C9
330
1C2
100
AcDbEntity
  8
0Wymiary-PL
 62
    10
100
AcDbMText
 10
216954.0156972631
 20
135949.9618528232
 30
0.0
 40
80.0
 41
0.0
 71
     5
 72
     1
  1
\A1;101
  7
ROMANS
 11
0.0000000000000001
 21
1.0
 31
0.0
 73
     1
 44
1.0
1001
ACAD
1000
MTEXTBEGIN
1070
    73
1070
     1
1070
    44
1040
1.0
1070
    74
1070
     0
1000
MTEXTEND
  0
POINT
  5
1CA
330
1C2
100
AcDbEntity
  8
DEFPOINTS
 62
     0
100
AcDbPoint
 10
217259.7868238984
 20
136000.4618528231
 30
0.0
  0
POINT
  5
1CB
330
1C2
100
AcDbEntity
  8
DEFPOINTS
 62
     0
100
AcDbPoint
 10
217770.6014586135
 20
135899.4618528231
 30
0.0
  0
POINT
  5
1CC
330
1C2
100
AcDbEntity
  8
DEFPOINTS
 62
     0
100
AcDbPoint
 10
217034.0156972632
 20
135899.4618528231
 30
0.0
  0
ENDBLK
  5
1CD
330
1C2
100
AcDbEntity
  8
0
100
AcDbBlockEnd
  0
BLOCK
  5
1D0
330
1CF
100
AcDbEntity
  8
0
100
AcDbBlockBegin
  2
*D8
 70
     1
 10
0.0
 20
0.0
 30
0.0
  3
*D8
  1

  0
LINE
  5
1D1
330
1CF
100
AcDbEntity
  8
0Wymiary-PL
 62
     1
370
    -2
100
AcDbLine
 10
216760.5957784626
 20
135929.4618528231
 30
0.0
 11
216760.5957784626
 21
136749.4618528231
 31
0.0
  0
INSERT
  5
1D2
330
1CF
100
AcDbEntity
  8
0Wymiary-PL
 62
     1
370
    -2
100
AcDbBlockReference
  2
B-DIM
 10
216760.5957784626
 20
135899.4618528231
 30
0.0
 41
30.0
 42
30.0
 43
30.0
 50
270.0
  0
INSERT
  5
1D3
330
1CF
100
AcDbEntity
  8
0Wymiary-PL
 62
     1
370
    -2
100
AcDbBlockReference
  2
B-DIM
 10
216760.5957784626
 20
136779.4618528231
 30
0.0
 41
30.0
 42
30.0
 43
30.0
 50
90.0
  0
MTEXT
  5
1D4
330
1CF
100
AcDbEntity
  8
0Wymiary-PL
 62
    10
100
AcDbMText
 10
216680.5957784626
 20
136339.4618528232
 30
0.0
 40
80.0
 41
0.0
 71
     5
 72
     1
  1
\A1;880
  7
ROMANS
 11
0.0000000000000001
 21
1.0
 31
0.0
 73
     1
 44
1.0
1001
ACAD
1000
MTEXTBEGIN
1070
    73
1070
     1
1070
    44
1040
1.0
1070
    74
1070
     0
1000
MTEXTEND
  0
POINT
  5
1D5
330
1CF
100
AcDbEntity
  8
DEFPOINTS
 62
     0
100
AcDbPoint
 10
217770.6014586135
 20
135899.4618528231
 30
0.0
  0
POINT
  5
1D6
330
1CF
100
AcDbEntity
  8
DEFPOINTS
 62
     0
100
AcDbPoint
 10
217770.6014586135
 20
136779.4618528231
 30
0.0
  0
POINT
  5
1D7
330
1CF
100
AcDbEntity
  8
DEFPOINTS
 62
     0
100
AcDbPoint
 10
216760.5957784626
 20
136779.4618528231
 30
0.0
  0
ENDBLK
  5
1D8
330
1CF
100
AcDbEntity
  8
0
100
AcDbBlockEnd
  0
BLOCK
  5
319
330
318
100
AcDbEntity
  8
0
100
AcDbBlockBegin
  2
*D9
 70
     1
 10
0.0
 20
0.0
 30
0.0
  3
*D9
  1

  0
LINE
  5
31A
330
318
100
AcDbEntity
  8
0Wymiary-PL
 62
     1
370
    -2
100
AcDbLine
 10
223509.9916658467
 20
137297.4787603711
 30
0.0
 11
223189.9916658467
 21
137297.4787603711
 31
0.0
  0
INSERT
  5
31B
330
318
100
AcDbEntity
  8
0Wymiary-PL
 62
     1
370
    -2
100
AcDbBlockReference
  2
B-DIM
 10
223539.9916658467
 20
137297.4787603711
 30
0.0
 41
30.0
 42
30.0
 43
30.0
  0
INSERT
  5
31C
330
318
100
AcDbEntity
  8
0Wymiary-PL
 62
     1
370
    -2
100
AcDbBlockReference
  2
B-DIM
 10
223159.9916658467
 20
137297.4787603711
 30
0.0
 41
30.0
 42
30.0
 43
30.0
 50
180.0
  0
MTEXT
  5
31D
330
318
100
AcDbEntity
  8
0Wymiary-PL
 62
    10
100
AcDbMText
 10
223349.9916658467
 20
137377.4787603712
 30
0.0
 40
80.0
 41
0.0
 71
     5
 72
     1
  1
\A1;380
  7
ROMANS
 73
     1
 44
1.0
1001
ACAD
1000
MTEXTBEGIN
1070
    73
1070
     1
1070
    44
1040
1.0
1070
    74
1070
     0
1000
MTEXTEND
  0
POINT
  5
31E
330
318
100
AcDbEntity
  8
DEFPOINTS
 62
     0
100
AcDbPoint
 10
223539.9916658467
 20
136235.916753274
 30
0.0
  0
POINT
  5
31F
330
318
100
AcDbEntity
  8
DEFPOINTS
 62
     0
100
AcDbPoint
 10
223159.9916658467
 20
136779.4618528231
 30
0.0
  0
POINT
  5
320
330
318
100
AcDbEntity
  8
DEFPOINTS
 62
     0
100
AcDbPoint
 10
223159.9916658467
 20
137297.4787603711
 30
0.0
  0
ENDBLK
  5
321
330
318
100
AcDbEntity
  8
0
100
AcDbBlockEnd
  0
BLOCK
  5
324
330
323
100
AcDbEntity
  8
0
100
AcDbBlockBegin
  2
*D10
 70
     1
 10
0.0
 20
0.0
 30
0.0
  3
*D10
  1

  0
LINE
  5
325
330
323
100
AcDbEntity
  8
0Wymiary-PL
 62
     1
370
    -2
100
AcDbLine
 10
223129.9916658467
 20
137297.4787603711
 30
0.0
 11
222089.9916658467
 21
137297.4787603711
 31
0.0
  0
INSERT
  5
326
330
323
100
AcDbEntity
  8
0Wymiary-PL
 62
     1
370
    -2
100
AcDbBlockReference
  2
B-DIM
 10
223159.9916658467
 20
137297.4787603711
 30
0.0
 41
30.0
 42
30.0
 43
30.0
  0
INSERT
  5
327
330
323
100
AcDbEntity
  8
0Wymiary-PL
 62
     1
370
    -2
100
AcDbBlockReference
  2
B-DIM
 10
222059.9916658467
 20
137297.4787603711
 30
0.0
 41
30.0
 42
30.0
 43
30.0
 50
180.0
  0
MTEXT
  5
328
330
323
100
AcDbEntity
  8
0Wymiary-PL
 62
    10
100
AcDbMText
 10
222609.9916658467
 20
137377.4787603712
 30
0.0
 40
80.0
 41
0.0
 71
     5
 72
     1
  1
\A1;1100
  7
ROMANS
 73
     1
 44
1.0
1001
ACAD
1000
MTEXTBEGIN
1070
    73
1070
     1
1070
    44
1040
1.0
1070
    74
1070
     0
1000
MTEXTEND
  0
POINT
  5
329
330
323
100
AcDbEntity
  8
DEFPOINTS
 62
     0
100
AcDbPoint
 10
223159.9916658467
 20
136779.4618528231
 30
0.0
  0
POINT
  5
32A
330
323
100
AcDbEntity
  8
DEFPOINTS
 62
     0
100
AcDbPoint
 10
222059.9916658467
 20
136779.4618528231
 30
0.0
  0
POINT
  5
32B
330
323
100
AcDbEntity
  8
DEFPOINTS
 62
     0
100
AcDbPoint
 10
222059.9916658467
 20
137297.4787603711
 30
0.0
  0
ENDBLK
  5
32C
330
323
100
AcDbEntity
  8
0
100
AcDbBlockEnd
  0
BLOCK
  5
32F
330
32E
100
AcDbEntity
  8
0
100
AcDbBlockBegin
  2
*D11
 70
     1
 10
0.0
 20
0.0
 30
0.0
  3
*D11
  1

  0
LINE
  5
330
330
32E
100
AcDbEntity
  8
0Wymiary-PL
 62
     1
370
    -2
100
AcDbLine
 10
222089.9916658467
 20
137297.4787603711
 30
0.0
 11
222119.9916658467
 21
137297.4787603711
 31
0.0
  0
LINE
  5
331
330
32E
100
AcDbEntity
  8
0Wymiary-PL
 62
     1
370
    -2
100
AcDbLine
 10
221939.9916658467
 20
137297.4787603711
 30
0.0
 11
221909.9916658467
 21
137297.4787603711
 31
0.0
  0
LINE
  5
332
330
32E
100
AcDbEntity
  8
0Wymiary-PL
 62
     1
370
    -2
100
AcDbLine
 10
222059.9916658467
 20
137297.4787603711
 30
0.0
 11
221969.9916658467
 21
137297.4787603711
 31
0.0
  0
INSERT
  5
333
330
32E
100
AcDbEntity
  8
0Wymiary-PL
 62
     1
370
    -2
100
AcDbBlockReference
  2
B-DIM
 10
222059.9916658467
 20
137297.4787603711
 30
0.0
 41
30.0
 42
30.0
 43
30.0
 50
180.0
  0
INSERT
  5
334
330
32E
100
AcDbEntity
  8
0Wymiary-PL
 62
     1
370
    -2
100
AcDbBlockReference
  2
B-DIM
 10
221969.9916658467
 20
137297.4787603711
 30
0.0
 41
30.0
 42
30.0
 43
30.0
  0
MTEXT
  5
335
330
32E
100
AcDbEntity
  8
0Wymiary-PL
 62
    10
100
AcDbMText
 10
222014.9916658467
 20
137377.4787603712
 30
0.0
 40
80.0
 41
0.0
 71
     5
 72
     1
  1
\A1;90
  7
ROMANS
 73
     1
 44
1.0
1001
ACAD
1000
MTEXTBEGIN
1070
    73
1070
     1
1070
    44
1040
1.0
1070
    74
1070
     0
1000
MTEXTEND
  0
POINT
  5
336
330
32E
100
AcDbEntity
  8
DEFPOINTS
 62
     0
100
AcDbPoint
 10
222059.9916658467
 20
136779.4618528231
 30
0.0
  0
POINT
  5
337
330
32E
100
AcDbEntity
  8
DEFPOINTS
 62
     0
100
AcDbPoint
 10
221969.9916658467
 20
136528.4618528231
 30
0.0
  0
POINT
  5
338
330
32E
100
AcDbEntity
  8
DEFPOINTS
 62
     0
100
AcDbPoint
 10
221969.9916658467
 20
137297.4787603711
 30
0.0
  0
ENDBLK
  5
339
330
32E
100
AcDbEntity
  8
0
100
AcDbBlockEnd
  0
BLOCK
  5
33C
330
33B
100
AcDbEntity
  8
0
100
AcDbBlockBegin
  2
*D12
 70
     1
 10
0.0
 20
0.0
 30
0.0
  3
*D12
  1

  0
LINE
  5
33D
330
33B
100
AcDbEntity
  8
0Wymiary-PL
 62
     1
370
    -2
100
AcDbLine
 10
221999.9916658467
 20
137555.3097628788
 30
0.0
 11
223509.9916658467
 21
137555.3097628788
 31
0.0
  0
INSERT
  5
33E
330
33B
100
AcDbEntity
  8
0Wymiary-PL
 62
     1
370
    -2
100
AcDbBlockReference
  2
B-DIM
 10
221969.9916658467
 20
137555.3097628788
 30
0.0
 41
30.0
 42
30.0
 43
30.0
 50
180.0
  0
INSERT
  5
33F
330
33B
100
AcDbEntity
  8
0Wymiary-PL
 62
     1
370
    -2
100
AcDbBlockReference
  2
B-DIM
 10
223539.9916658467
 20
137555.3097628788
 30
0.0
 41
30.0
 42
30.0
 43
30.0
  0
MTEXT
  5
340
330
33B
100
AcDbEntity
  8
0Wymiary-PL
 62
    10
100
AcDbMText
 10
222754.9916658467
 20
137635.3097628788
 30
0.0
 40
80.0
 41
0.0
 71
     5
 72
     1
  1
\A1;1570
  7
ROMANS
 73
     1
 44
1.0
1001
ACAD
1000
MTEXTBEGIN
1070
    73
1070
     1
1070
    44
1040
1.0
1070
    74
1070
     0
1000
MTEXTEND
  0
POINT
  5
341
330
33B
100
AcDbEntity
  8
DEFPOINTS
 62
     0
100
AcDbPoint
 10
221969.9916658467
 20
136528.4618528231
 30
0.0
  0
POINT
  5
342
330
33B
100
AcDbEntity
  8
DEFPOINTS
 62
     0
100
AcDbPoint
 10
223539.9916658467
 20
136678.4618528231
 30
0.0
  0
POINT
  5
343
330
33B
100
AcDbEntity
  8
DEFPOINTS
 62
     0
100
AcDbPoint
 10
223539.9916658467
 20
137555.3097628788
 30
0.0
  0
ENDBLK
  5
344
330
33B
100
AcDbEntity
  8
0
100
AcDbBlockEnd
  0
BLOCK
  5
347
330
346
100
AcDbEntity
  8
0
100
AcDbBlockBegin
  2
*D13
 70
     1
 10
0.0
 20
0.0
 30
0.0
  3
*D13
  1

  0
LINE
  5
348
330
346
100
AcDbEntity
  8
0Wymiary-PL
 62
     1
370
    -2
100
AcDbLine
 10
223765.7627924819
 20
136809.4618528231
 30
0.0
 11
223765.7627924819
 21
136839.4618528231
 31
0.0
  0
LINE
  5
349
330
346
100
AcDbEntity
  8
0Wymiary-PL
 62
     1
370
    -2
100
AcDbLine
 10
223765.7627924819
 20
136648.4618528231
 30
0.0
 11
223765.7627924819
 21
136618.4618528231
 31
0.0
  0
LINE
  5
34A
330
346
100
AcDbEntity
  8
0Wymiary-PL
 62
     1
370
    -2
100
AcDbLine
 10
223765.7627924819
 20
136779.4618528231
 30
0.0
 11
223765.7627924819
 21
136678.4618528231
 31
0.0
  0
INSERT
  5
34B
330
346
100
AcDbEntity
  8
0Wymiary-PL
 62
     1
370
    -2
100
AcDbBlockReference
  2
B-DIM
 10
223765.7627924819
 20
136779.4618528231
 30
0.0
 41
30.0
 42
30.0
 43
30.0
 50
270.0
  0
INSERT
  5
34C
330
346
100
AcDbEntity
  8
0Wymiary-PL
 62
     1
370
    -2
100
AcDbBlockReference
  2
B-DIM
 10
223765.7627924819
 20
136678.4618528231
 30
0.0
 41
30.0
 42
30.0
 43
30.0
 50
90.0
  0
MTEXT
  5
34D
330
346
100
AcDbEntity
  8
0Wymiary-PL
 62
    10
100
AcDbMText
 10
223685.7627924818
 20
136728.9618528232
 30
0.0
 40
80.0
 41
0.0
 71
     5
 72
     1
  1
\A1;101
  7
ROMANS
 11
0.0000000000000001
 21
1.0
 31
0.0
 73
     1
 44
1.0
1001
ACAD
1000
MTEXTBEGIN
1070
    73
1070
     1
1070
    44
1040
1.0
1070
    74
1070
     0
1000
MTEXTEND
  0
POINT
  5
34E
330
346
100
AcDbEntity
  8
DEFPOINTS
 62
     0
100
AcDbPoint
 10
223159.9916658467
 20
136779.4618528231
 30
0.0
  0
POINT
  5
34F
330
346
100
AcDbEntity
  8
DEFPOINTS
 62
     0
100
AcDbPoint
 10
223159.9916658467
 20
136678.4618528231
 30
0.0
  0
POINT
  5
350
330
346
100
AcDbEntity
  8
DEFPOINTS
 62
     0
100
AcDbPoint
 10
223765.7627924819
 20
136678.4618528231
 30
0.0
  0
ENDBLK
  5
351
330
346
100
AcDbEntity
  8
0
100
AcDbBlockEnd
  0
BLOCK
  5
354
330
353
100
AcDbEntity
  8
0
100
AcDbBlockBegin
  2
*D14
 70
     1
 10
0.0
 20
0.0
 30
0.0
  3
*D14
  1

  0
LINE
  5
355
330
353
100
AcDbEntity
  8
0Wymiary-PL
 62
     1
370
    -2
100
AcDbLine
 10
223765.7627924819
 20
136648.4618528231
 30
0.0
 11
223765.7627924819
 21
136030.4618528231
 31
0.0
  0
INSERT
  5
356
330
353
100
AcDbEntity
  8
0Wymiary-PL
 62
     1
370
    -2
100
AcDbBlockReference
  2
B-DIM
 10
223765.7627924819
 20
136678.4618528231
 30
0.0
 41
30.0
 42
30.0
 43
30.0
 50
90.0
  0
INSERT
  5
357
330
353
100
AcDbEntity
  8
0Wymiary-PL
 62
     1
370
    -2
100
AcDbBlockReference
  2
B-DIM
 10
223765.7627924819
 20
136000.4618528231
 30
0.0
 41
30.0
 42
30.0
 43
30.0
 50
270.0
  0
MTEXT
  5
358
330
353
100
AcDbEntity
  8
0Wymiary-PL
 62
    10
100
AcDbMText
 10
223685.7627924818
 20
136339.4618528232
 30
0.0
 40
80.0
 41
0.0
 71
     5
 72
     1
  1
\A1;678
  7
ROMANS
 11
0.0000000000000001
 21
1.0
 31
0.0
 73
     1
 44
1.0
1001
ACAD
1000
MTEXTBEGIN
1070
    73
1070
     1
1070
    44
1040
1.0
1070
    74
1070
     0
1000
MTEXTEND
  0
POINT
  5
359
330
353
100
AcDbEntity
  8
DEFPOINTS
 62
     0
100
AcDbPoint
 10
223159.9916658467
 20
136678.4618528231
 30
0.0
  0
POINT
  5
35A
330
353
100
AcDbEntity
  8
DEFPOINTS
 62
     0
100
AcDbPoint
 10
223539.9916658467
 20
136000.4618528231
 30
0.0
  0
POINT
  5
35B
330
353
100
AcDbEntity
  8
DEFPOINTS
 62
     0
100
AcDbPoint
 10
223765.7627924819
 20
136000.4618528231
 30
0.0
  0
ENDBLK
  5
35C
330
353
100
AcDbEntity
  8
0
100
AcDbBlockEnd
  0
BLOCK
  5
35F
330
35E
100
AcDbEntity
  8
0
100
AcDbBlockBegin
  2
*D15
 70
     1
 10
0.0
 20
0.0
 30
0.0
  3
*D15
  1

  0
LINE
  5
360
330
35E
100
AcDbEntity
  8
0Wymiary-PL
 62
     1
370
    -2
100
AcDbLine
 10
223765.7627924819
 20
136030.4618528231
 30
0.0
 11
223765.7627924819
 21
136060.4618528231
 31
0.0
  0
LINE
  5
361
330
35E
100
AcDbEntity
  8
0Wymiary-PL
 62
     1
370
    -2
100
AcDbLine
 10
223765.7627924819
 20
135869.4618528231
 30
0.0
 11
223765.7627924819
 21
135839.4618528231
 31
0.0
  0
LINE
  5
362
330
35E
100
AcDbEntity
  8
0Wymiary-PL
 62
     1
370
    -2
100
AcDbLine
 10
223765.7627924819
 20
136000.4618528231
 30
0.0
 11
223765.7627924819
 21
135899.4618528231
 31
0.0
  0
INSERT
  5
363
330
35E
100
AcDbEntity
  8
0Wymiary-PL
 62
     1
370
    -2
100
AcDbBlockReference
  2
B-DIM
 10
223765.7627924819
 20
136000.4618528231
 30
0.0
 41
30.0
 42
30.0
 43
30.0
 50
270.0
  0
INSERT
  5
364
330
35E
100
AcDbEntity
  8
0Wymiary-PL
 62
     1
370
    -2
100
AcDbBlockReference
  2
B-DIM
 10
223765.7627924819
 20
135899.4618528231
 30
0.0
 41
30.0
 42
30.0
 43
30.0
 50
90.0
  0
MTEXT
  5
365
330
35E
100
AcDbEntity
  8
0Wymiary-PL
 62
    10
100
AcDbMText
 10
223685.7627924818
 20
135949.9618528232
 30
0.0
 40
80.0
 41
0.0
 71
     5
 72
     1
  1
\A1;101
  7
ROMANS
 11
0.0000000000000001
 21
1.0
 31
0.0
 73
     1
 44
1.0
1001
ACAD
1000
MTEXTBEGIN
1070
    73
1070
     1
1070
    44
1040
1.0
1070
    74
1070
     0
1000
MTEXTEND
  0
POINT
  5
366
330
35E
100
AcDbEntity
  8
DEFPOINTS
 62
     0
100
AcDbPoint
 10
223539.9916658467
 20
136000.4618528231
 30
0.0
  0
POINT
  5
367
330
35E
100
AcDbEntity
  8
DEFPOINTS
 62
     0
100
AcDbPoint
 10
223029.1770311316
 20
135899.4618528231
 30
0.0
  0
POINT
  5
368
330
35E
100
AcDbEntity
  8
DEFPOINTS
 62
     0
100
AcDbPoint
 10
223765.7627924819
 20
135899.4618528231
 30
0.0
  0
ENDBLK
  5
369
330
35E
100
AcDbEntity
  8
0
100
AcDbBlockEnd
  0
BLOCK
  5
36C
330
36B
100
AcDbEntity
  8
0
100
AcDbBlockBegin
  2
*D16
 70
     1
 10
0.0
 20
0.0
 30
0.0
  3
*D16
  1

  0
LINE
  5
36D
330
36B
100
AcDbEntity
  8
0Wymiary-PL
 62
     1
370
    -2
100
AcDbLine
 10
224039.1827112825
 20
135929.4618528231
 30
0.0
 11
224039.1827112825
 21
136749.4618528231
 31
0.0
  0
INSERT
  5
36E
330
36B
100
AcDbEntity
  8
0Wymiary-PL
 62
     1
370
    -2
100
AcDbBlockReference
  2
B-DIM
 10
224039.1827112825
 20
135899.4618528231
 30
0.0
 41
30.0
 42
30.0
 43
30.0
 50
270.0
  0
INSERT
  5
36F
330
36B
100
AcDbEntity
  8
0Wymiary-PL
 62
     1
370
    -2
100
AcDbBlockReference
  2
B-DIM
 10
224039.1827112825
 20
136779.4618528231
 30
0.0
 41
30.0
 42
30.0
 43
30.0
 50
90.0
  0
MTEXT
  5
370
330
36B
100
AcDbEntity
  8
0Wymiary-PL
 62
    10
100
AcDbMText
 10
223959.1827112825
 20
136339.4618528232
 30
0.0
 40
80.0
 41
0.0
 71
     5
 72
     1
  1
\A1;880
  7
ROMANS
 11
0.0000000000000001
 21
1.0
 31
0.0
 73
     1
 44
1.0
1001
ACAD
1000
MTEXTBEGIN
1070
    73
1070
     1
1070
    44
1040
1.0
1070
    74
1070
     0
1000
MTEXTEND
  0
POINT
  5
371
330
36B
100
AcDbEntity
  8
DEFPOINTS
 62
     0
100
AcDbPoint
 10
223029.1770311316
 20
135899.4618528231
 30
0.0
  0
POINT
  5
372
330
36B
100
AcDbEntity
  8
DEFPOINTS
 62
     0
100
AcDbPoint
 10
223029.1770311316
 20
136779.4618528231
 30
0.0
  0
POINT
  5
373
330
36B
100
AcDbEntity
  8
DEFPOINTS
 62
     0
100
AcDbPoint
 10
224039.1827112825
 20
136779.4618528231
 30
0.0
  0
ENDBLK
  5
374
330
36B
100
AcDbEntity
  8
0
100
AcDbBlockEnd
  0
ENDSEC
  0
SECTION
  2
ENTITIES
  0
TEXT
  5
10
330
2
100
AcDbEntity
  8
NAPISY
370
     5
100
AcDbText
 10
216646.5520012698
 20
128323.0717886572
 30
0.0
 40
100.0
  1
   O B R Y S   B U D Y N K U           S K A L A   1 : 5 0 0 
  7
AVA
100
AcDbText
  0
LINE
  5
16
330
2
100
AcDbEntity
  8
NAPISY
  6
HIDDEN
 62
     1
 48
8.0
370
     5
100
AcDbLine
 10
220399.8892448725
 20
132297.6012553763
 30
0.0
 11
220399.8892448725
 21
138473.1198157809
 31
0.0
  0
TEXT
  5
18
330
2
100
AcDbEntity
  8
NAPISY
370
     5
100
AcDbText
 10
220340.3680678792
 20
133204.7823300529
 30
0.0
 40
100.0
  1
OŚ ODBICIA LUSTRZANEGO
 50
90.0
  7
AVA
100
AcDbText
  0
TEXT
  5
19
330
2
100
AcDbEntity
  8
NAPISY
370
     5
100
AcDbText
 10
216742.7650523877
 20
140786.437049539
 30
0.0
 40
150.0
  1
MOŻNA WKLEIĆ DO PROJEKTU ZAGOSPODAROWANIA TERENU
  7
AVA
100
AcDbText
  0
TEXT
  5
1A
330
2
100
AcDbEntity
  8
NAPISY
370
     5
100
AcDbText
 10
216666.4297817526
 20
141116.3055269018
 30
0.0
 40
150.0
  1
"DOM  W  WERBENACH 5"
  7
AVA
100
AcDbText
  0
LWPOLYLINE
  5
1B
330
2
100
AcDbEntity
  8
RAMKI-A4
370
     5
100
AcDbPolyline
 90
        4
 70
     1
 43
0.0
 10
215187.2000545948
 20
127657.5157057546
 10
215187.2000545948
 20
141677.5157057546
 10
225387.2000545948
 20
141677.5157057546
 10
225387.2000545948
 20
127657.5157057546
  0
LINE
  5
1F
330
2
100
AcDbEntity
  8
TEREN$0$A-MassElement-G
  6
Continuous
 62
   210
370
     5
100
AcDbLine
 10
218264.7868238984
 20
137119.4618528231
 30
0.0
 11
218114.7868238983
 21
137119.4618528231
 31
0.0
  0
LINE
  5
24
330
2
100
AcDbEntity
  8
TEREN$0$A-MassElement-G
  6
Continuous
 62
   210
370
     5
100
AcDbLine
 10
218264.7868238984
 20
137089.4618528231
 30
0.0
 11
218114.7868238983
 21
137089.4618528231
 31
0.0
  0
LINE
  5
25
330
2
100
AcDbEntity
  8
TEREN$0$A-MassElement-G
  6
Continuous
 62
   210
370
     5
100
AcDbLine
 10
218114.7868238983
 20
137029.4618528231
 30
0.0
 11
218114.7868238983
 21
137119.4618528231
 31
0.0
  0
LINE
  5
26
330
2
100
AcDbEntity
  8
TEREN$0$A-MassElement-G
  6
Continuous
 62
   210
370
     5
100
AcDbLine
 10
218264.7868238984
 20
137029.4618528231
 30
0.0
 11
218264.7868238984
 21
137119.4618528231
 31
0.0
  0
LINE
  5
27
330
2
100
AcDbEntity
  8
TEREN$0$A-MassElement-G
  6
Continuous
 62
   210
370
     5
100
AcDbLine
 10
218264.7868238984
 20
137059.4618528231
 30
0.0
 11
218114.7868238983
 21
137059.4618528231
 31
0.0
  0
LINE
  5
28
330
2
100
AcDbEntity
  8
TEREN$0$A-MassElement-G
  6
Continuous
 62
   210
370
     5
100
AcDbLine
 10
218739.7868238984
 20
136528.4618528231
 30
0.0
 11
218829.7868238984
 21
136528.4618528231
 31
0.0
  0
ARC
  5
29
330
2
100
AcDbEntity
  8
TEREN$0$A-MassElement-G
  6
Continuous
 62
   210
370
     5
100
AcDbCircle
 10
218819.4756053604
 20
136411.2132008383
 30
0.0
 40
230.7515578881974
100
AcDbArc
 50
272.5611358779674
 51
3.54020283334019
  0
ARC
  5
2A
330
2
100
AcDbEntity
  8
TEREN$0$A-MassElement-G
  6
Continuous
 62
   210
370
     5
100
AcDbCircle
 10
218819.7868238983
 20
136799.4618528231
 30
0.0
 40
230.0000000000088
100
AcDbArc
 50
0.0
 51
90.0
  0
LINE
  5
2B
330
2
100
AcDbEntity
  8
TEREN$0$A-MassElement-G
  6
Continuous
 62
   210
370
     5
100
AcDbLine
 10
218819.7868238983
 20
137029.4618528231
 30
0.0
 11
218080.8867742392
 21
137029.4618528231
 31
0.0
  0
ARC
  5
2C
330
2
100
AcDbEntity
  8
TEREN$0$A-MassElement-G
  6
Continuous
 62
   210
370
     5
100
AcDbCircle
 10
-217929.7868238984
 20
135769.4618528231
 30
0.0
 40
89.99999999999079
210
0.0
220
0.0
230
-1.0
100
AcDbArc
 50
180.0
 51
270.0
  0
LINE
  5
2D
330
2
100
AcDbEntity
  8
TEREN$0$A-MassElement-G
  6
Continuous
 62
   210
370
     5
100
AcDbLine
 10
218364.934010156
 20
135739.4618528231
 30
0.0
 11
218014.6396376407
 21
135739.4618528231
 31
0.0
  0
LINE
  5
2E
330
2
100
AcDbEntity
  8
TEREN$0$A-MassElement-G
  6
Continuous
 62
   210
370
     5
100
AcDbLine
 10
217929.7868238984
 20
135679.4618528231
 30
0.0
 11
218449.7868238983
 21
135679.4618528231
 31
0.0
  0
ARC
  5
2F
330
2
100
AcDbEntity
  8
TEREN$0$A-MassElement-G
  6
Continuous
 62
   210
370
     5
100
AcDbCircle
 10
-218449.7868238984
 20
135769.4618528231
 30
0.0
 40
90.00000000000627
210
0.0
220
0.0
230
-1.0
100
AcDbArc
 50
270.0
 51
0.0
  0
LINE
  5
30
330
2
100
AcDbEntity
  8
TEREN$0$A-MassElement-G
  6
Continuous
 62
   210
370
     5
100
AcDbLine
 10
218382.7047845734
 20
135709.4618528231
 30
0.0
 11
217996.8688632234
 21
135709.4618528231
 31
0.0
  0
LINE
  5
31
330
2
100
AcDbEntity
  8
TEREN$0$A-MassElement-G
  6
Continuous
 62
   210
370
     5
100
AcDbLine
 10
218359.7868238984
 20
135769.4618528231
 30
0.0
 11
218359.7868238984
 21
135899.4618528231
 31
0.0
  0
LINE
  5
32
330
2
100
AcDbEntity
  8
TEREN$0$A-MassElement-G
  6
Continuous
 62
   210
370
     5
100
AcDbLine
 10
218379.7868238984
 20
135899.4618528231
 30
0.0
 11
218379.7868238984
 21
135769.4618528231
 31
0.0
  0
3DFACE
  5
33
330
2
100
AcDbEntity
  8
TEREN$0$A-MassElement-G
  6
Continuous
 62
   210
370
     5
100
AcDbFace
 10
218449.7868238983
 20
135699.4618528231
 30
0.0
 11
218449.7868238983
 21
135679.4618528231
 31
0.0
 12
218449.7868238983
 22
135679.4618528231
 32
0.0
 13
218449.7868238983
 23
135699.4618528231
 33
0.0
  0
3DFACE
  5
34
330
2
100
AcDbEntity
  8
TEREN$0$A-MassElement-G
  6
Continuous
 62
   210
370
     5
100
AcDbFace
 10
218434.2103585214
 20
135701.2168989704
 30
0.0
 11
218449.7868238983
 21
135699.4618528231
 31
0.0
 12
218449.7868238983
 22
135699.4618528231
 32
0.0
 13
218434.2103585214
 23
135701.2168989704
 33
0.0
  0
3DFACE
  5
35
330
2
100
AcDbEntity
  8
TEREN$0$A-MassElement-G
  6
Continuous
 62
   210
370
     5
100
AcDbFace
 10
218419.4149621601
 20
135706.3940320699
 30
0.0
 11
218434.2103585214
 21
135701.2168989704
 31
0.0
 12
218434.2103585214
 22
135701.2168989704
 32
0.0
 13
218419.4149621601
 23
135706.3940320699
 33
0.0
  0
3DFACE
  5
36
330
2
100
AcDbEntity
  8
TEREN$0$A-MassElement-G
  6
Continuous
 62
   210
370
     5
100
AcDbFace
 10
218406.1425377683
 20
135714.7336490503
 30
0.0
 11
218419.4149621601
 21
135706.3940320699
 31
0.0
 12
218419.4149621601
 22
135706.3940320699
 32
0.0
 13
218406.1425377683
 23
135714.7336490503
 33
0.0
  0
3DFACE
  5
37
330
2
100
AcDbEntity
  8
TEREN$0$A-MassElement-G
  6
Continuous
 62
   210
370
     5
100
AcDbFace
 10
218395.0586201256
 20
135725.817566693
 30
0.0
 11
218406.1425377683
 21
135714.7336490503
 31
0.0
 12
218406.1425377683
 22
135714.7336490503
 32
0.0
 13
218395.0586201256
 23
135725.817566693
 33
0.0
  0
3DFACE
  5
38
330
2
100
AcDbEntity
  8
TEREN$0$A-MassElement-G
  6
Continuous
 62
   210
370
     5
100
AcDbFace
 10
218386.7190031452
 20
135739.0899910849
 30
0.0
 11
218395.0586201256
 21
135725.817566693
 31
0.0
 12
218395.0586201256
 22
135725.817566693
 32
0.0
 13
218386.7190031452
 23
135739.0899910849
 33
0.0
  0
3DFACE
  5
39
330
2
100
AcDbEntity
  8
TEREN$0$A-MassElement-G
  6
Continuous
 62
   210
370
     5
100
AcDbFace
 10
218381.5418700456
 20
135753.8853874462
 30
0.0
 11
218386.7190031452
 21
135739.0899910849
 31
0.0
 12
218386.7190031452
 22
135739.0899910849
 32
0.0
 13
218381.5418700456
 23
135753.8853874462
 33
0.0
  0
3DFACE
  5
3A
330
2
100
AcDbEntity
  8
TEREN$0$A-MassElement-G
  6
Continuous
 62
   210
370
     5
100
AcDbFace
 10
218379.7868238984
 20
135769.4618528231
 30
0.0
 11
218381.5418700456
 21
135753.8853874462
 31
0.0
 12
218381.5418700456
 22
135753.8853874462
 32
0.0
 13
218379.7868238984
 23
135769.4618528231
 33
0.0
  0
3DFACE
  5
3B
330
2
100
AcDbEntity
  8
TEREN$0$A-MassElement-G
  6
Continuous
 62
   210
370
     5
100
AcDbFace
 10
218379.7868238984
 20
135769.4618528231
 30
0.0
 11
218379.7868238984
 21
135769.4618528231
 31
0.0
 12
218359.7868238984
 22
135769.4618528231
 32
0.0
 13
218359.7868238984
 23
135769.4618528231
 33
0.0
  0
3DFACE
  5
3C
330
2
100
AcDbEntity
  8
TEREN$0$A-MassElement-G
  6
Continuous
 62
   210
370
     5
100
AcDbFace
 10
218449.7868238983
 20
135679.4618528231
 30
0.0
 11
218449.7868238983
 21
135699.4618528231
 31
0.0
 12
218434.2103585214
 22
135701.2168989704
 32
0.0
 13
218434.2103585214
 23
135701.2168989704
 33
0.0
 70
    12
  0
3DFACE
  5
3D
330
2
100
AcDbEntity
  8
TEREN$0$A-MassElement-G
  6
Continuous
 62
   210
370
     5
100
AcDbFace
 10
218449.7868238983
 20
135679.4618528231
 30
0.0
 11
218434.2103585214
 21
135701.2168989704
 31
0.0
 12
218419.4149621601
 22
135706.3940320699
 32
0.0
 13
218419.4149621601
 23
135706.3940320699
 33
0.0
 70
    13
  0
3DFACE
  5
3E
330
2
100
AcDbEntity
  8
TEREN$0$A-MassElement-G
  6
Continuous
 62
   210
370
     5
100
AcDbFace
 10
218359.7868238984
 20
135769.4618528231
 30
0.0
 11
218379.7868238984
 21
135769.4618528231
 31
0.0
 12
218381.5418700456
 22
135753.8853874462
 32
0.0
 13
218381.5418700456
 23
135753.8853874462
 33
0.0
 70
    12
  0
3DFACE
  5
3F
330
2
100
AcDbEntity
  8
TEREN$0$A-MassElement-G
  6
Continuous
 62
   210
370
     5
100
AcDbFace
 10
218359.7868238984
 20
135769.4618528231
 30
0.0
 11
218381.5418700456
 21
135753.8853874462
 31
0.0
 12
218386.7190031452
 22
135739.0899910849
 32
0.0
 13
218386.7190031452
 23
135739.0899910849
 33
0.0
 70
    13
  0
LINE
  5
40
330
2
100
AcDbEntity
  8
TEREN$0$A-MassElement-G
  6
Continuous
 62
   210
370
     5
100
AcDbLine
 10
217999.7868238984
 20
135899.4618528231
 30
0.0
 11
217999.7868238984
 21
135769.4618528231
 31
0.0
  0
LINE
  5
41
330
2
100
AcDbEntity
  8
TEREN$0$A-MassElement-G
  6
Continuous
 62
   210
370
     5
100
AcDbLine
 10
217999.7868238984
 20
135769.4618528231
 30
0.0
 11
218379.7868238984
 21
135769.4618528231
 31
0.0
  0
3DFACE
  5
42
330
2
100
AcDbEntity
  8
TEREN$0$A-MassElement-G
  6
Continuous
 62
   210
370
     5
100
AcDbFace
 10
217929.7868238984
 20
135679.4618528231
 30
0.0
 11
217929.7868238984
 21
135679.4618528231
 31
0.0
 12
217929.7868238984
 22
135699.4618528231
 32
0.0
 13
217929.7868238984
 23
135699.4618528231
 33
0.0
  0
3DFACE
  5
43
330
2
100
AcDbEntity
  8
TEREN$0$A-MassElement-G
  6
Continuous
 62
   210
370
     5
100
AcDbFace
 10
217929.7868238984
 20
135699.4618528231
 30
0.0
 11
217929.7868238984
 21
135699.4618528231
 31
0.0
 12
217945.3632892753
 22
135701.2168989704
 32
0.0
 13
217945.3632892753
 23
135701.2168989704
 33
0.0
  0
3DFACE
  5
44
330
2
100
AcDbEntity
  8
TEREN$0$A-MassElement-G
  6
Continuous
 62
   210
370
     5
100
AcDbFace
 10
217945.3632892753
 20
135701.2168989704
 30
0.0
 11
217945.3632892753
 21
135701.2168989704
 31
0.0
 12
217960.1586856366
 22
135706.3940320699
 32
0.0
 13
217960.1586856366
 23
135706.3940320699
 33
0.0
  0
3DFACE
  5
45
330
2
100
AcDbEntity
  8
TEREN$0$A-MassElement-G
  6
Continuous
 62
   210
370
     5
100
AcDbFace
 10
217960.1586856366
 20
135706.3940320699
 30
0.0
 11
217960.1586856366
 21
135706.3940320699
 31
0.0
 12
217973.4311100284
 22
135714.7336490503
 32
0.0
 13
217973.4311100284
 23
135714.7336490503
 33
0.0
  0
3DFACE
  5
46
330
2
100
AcDbEntity
  8
TEREN$0$A-MassElement-G
  6
Continuous
 62
   210
370
     5
100
AcDbFace
 10
217973.4311100284
 20
135714.7336490503
 30
0.0
 11
217973.4311100284
 21
135714.7336490503
 31
0.0
 12
217984.5150276711
 22
135725.817566693
 32
0.0
 13
217984.5150276711
 23
135725.817566693
 33
0.0
  0
3DFACE
  5
47
330
2
100
AcDbEntity
  8
TEREN$0$A-MassElement-G
  6
Continuous
 62
   210
370
     5
100
AcDbFace
 10
217984.5150276711
 20
135725.817566693
 30
0.0
 11
217984.5150276711
 21
135725.817566693
 31
0.0
 12
217992.8546446515
 22
135739.0899910849
 32
0.0
 13
217992.8546446515
 23
135739.0899910849
 33
0.0
  0
3DFACE
  5
48
330
2
100
AcDbEntity
  8
TEREN$0$A-MassElement-G
  6
Continuous
 62
   210
370
     5
100
AcDbFace
 10
217992.8546446515
 20
135739.0899910849
 30
0.0
 11
217992.8546446515
 21
135739.0899910849
 31
0.0
 12
217998.0317777511
 22
135753.8853874462
 32
0.0
 13
217998.0317777511
 23
135753.8853874462
 33
0.0
  0
3DFACE
  5
49
330
2
100
AcDbEntity
  8
TEREN$0$A-MassElement-G
  6
Continuous
 62
   210
370
     5
100
AcDbFace
 10
217998.0317777511
 20
135753.8853874462
 30
0.0
 11
217998.0317777511
 21
135753.8853874462
 31
0.0
 12
217999.7868238984
 22
135769.4618528231
 32
0.0
 13
217999.7868238984
 23
135769.4618528231
 33
0.0
  0
3DFACE
  5
4A
330
2
100
AcDbEntity
  8
TEREN$0$A-MassElement-G
  6
Continuous
 62
   210
370
     5
100
AcDbFace
 10
218019.7868238984
 20
135769.4618528231
 30
0.0
 11
217999.7868238984
 21
135769.4618528231
 31
0.0
 12
217999.7868238984
 22
135769.4618528231
 32
0.0
 13
218019.7868238984
 23
135769.4618528231
 33
0.0
  0
3DFACE
  5
4B
330
2
100
AcDbEntity
  8
TEREN$0$A-MassElement-G
  6
Continuous
 62
   210
370
     5
100
AcDbFace
 10
218019.7868238984
 20
135769.4618528231
 30
0.0
 11
217999.7868238984
 21
135769.4618528231
 31
0.0
 12
217998.0317777511
 22
135753.8853874462
 32
0.0
 13
217998.0317777511
 23
135753.8853874462
 33
0.0
 70
    12
  0
3DFACE
  5
4C
330
2
100
AcDbEntity
  8
TEREN$0$A-MassElement-G
  6
Continuous
 62
   210
370
     5
100
AcDbFace
 10
218019.7868238984
 20
135769.4618528231
 30
0.0
 11
217998.0317777511
 21
135753.8853874462
 31
0.0
 12
217992.8546446515
 22
135739.0899910849
 32
0.0
 13
217992.8546446515
 23
135739.0899910849
 33
0.0
 70
    13
  0
3DFACE
  5
4D
330
2
100
AcDbEntity
  8
TEREN$0$A-MassElement-G
  6
Continuous
 62
   210
370
     5
100
AcDbFace
 10
217929.7868238984
 20
135679.4618528231
 30
0.0
 11
217929.7868238984
 21
135699.4618528231
 31
0.0
 12
217945.3632892753
 22
135701.2168989704
 32
0.0
 13
217945.3632892753
 23
135701.2168989704
 33
0.0
 70
    12
  0
3DFACE
  5
4E
330
2
100
AcDbEntity
  8
TEREN$0$A-MassElement-G
  6
Continuous
 62
   210
370
     5
100
AcDbFace
 10
217929.7868238984
 20
135679.4618528231
 30
0.0
 11
217945.3632892753
 21
135701.2168989704
 31
0.0
 12
217960.1586856366
 22
135706.3940320699
 32
0.0
 13
217960.1586856366
 23
135706.3940320699
 33
0.0
 70
    13
  0
LINE
  5
4F
330
2
100
AcDbEntity
  8
TEREN$0$A-MassElement-G
  6
Continuous
 62
   210
370
     5
100
AcDbLine
 10
219109.7868238983
 20
136544.3618457565
 30
0.0
 11
219109.7868238983
 21
136684.3618457565
 31
0.0
  0
LINE
  5
50
330
2
100
AcDbEntity
  8
TEREN$0$A-MassElement-G
  6
Continuous
 62
   210
370
     5
100
AcDbLine
 10
219049.7868238983
 20
136544.3618457565
 30
0.0
 11
219139.7868238984
 21
136544.3618457565
 31
0.0
  0
LINE
  5
51
330
2
100
AcDbEntity
  8
TEREN$0$A-MassElement-G
  6
Continuous
 62
   210
370
     5
100
AcDbLine
 10
219079.7868238984
 20
136544.3618457565
 30
0.0
 11
219079.7868238984
 21
136684.3618457565
 31
0.0
  0
LINE
  5
52
330
2
100
AcDbEntity
  8
TEREN$0$A-MassElement-G
  6
Continuous
 62
   210
370
     5
100
AcDbLine
 10
219049.7868238983
 20
136684.3618457565
 30
0.0
 11
219139.7868238984
 21
136684.3618457565
 31
0.0
  0
LINE
  5
53
330
2
100
AcDbEntity
  8
TEREN$0$A-MassElement-G
  6
Continuous
 62
   210
370
     5
100
AcDbLine
 10
218080.8867742392
 20
136779.4618528231
 30
0.0
 11
218080.8867742392
 21
137029.4618528231
 31
0.0
  0
LINE
  5
54
330
2
100
AcDbEntity
  8
TEREN$0$A-MassElement-G
  6
Continuous
 62
   210
370
     5
100
AcDbLine
 10
218094.7868238984
 20
137029.4618528231
 30
0.0
 11
218094.7868238984
 21
137059.4618528231
 31
0.0
  0
LINE
  5
55
330
2
100
AcDbEntity
  8
TEREN$0$A-MassElement-G
  6
Continuous
 62
   210
370
     5
100
AcDbLine
 10
218094.7868238984
 20
137059.4618528231
 30
0.0
 11
218050.8867742392
 21
137059.4618528231
 31
0.0
  0
LINE
  5
56
330
2
100
AcDbEntity
  8
TEREN$0$A-MassElement-G
  6
Continuous
 62
   210
370
     5
100
AcDbLine
 10
218050.8867742392
 20
137059.4618528231
 30
0.0
 11
218050.8867742392
 21
136779.4618528231
 31
0.0
  0
ARC
  5
57
330
2
100
AcDbEntity
  8
TEREN$0$A-MassElement-G
  6
Continuous
 62
   210
370
     5
100
AcDbCircle
 10
-218819.7868238983
 20
136799.4618528231
 30
0.0
 40
230.0000000000008
210
0.0
220
0.0
230
-1.0
100
AcDbArc
 50
90.0
 51
180.0
  0
LINE
  5
58
330
2
100
AcDbEntity
  8
TEREN$0$A-MassElement-G
  6
Continuous
 62
   210
370
     5
100
AcDbLine
 10
219049.7868238983
 20
136704.3618457565
 30
0.0
 11
219079.7868238984
 21
136704.3618457565
 31
0.0
  0
LINE
  5
59
330
2
100
AcDbEntity
  8
TEREN$0$A-MassElement-G
  6
Continuous
 62
   210
370
     5
100
AcDbLine
 10
218284.7868238984
 20
137059.4618528231
 30
0.0
 11
218284.7868238984
 21
137029.4618528231
 31
0.0
  0
LINE
  5
5A
330
2
100
AcDbEntity
  8
TEREN$0$A-MassElement-G
  6
Continuous
 62
   210
370
     5
100
AcDbLine
 10
219049.7868238983
 20
136410.4618528231
 30
0.0
 11
219049.7868238983
 21
136799.4618528231
 31
0.0
  0
ARC
  5
5B
330
2
100
AcDbEntity
  8
TEREN$0$A-MassElement-G
  6
Continuous
 62
   210
370
     5
100
AcDbCircle
 10
-218819.7868238983
 20
136410.4618528231
 30
0.0
 40
230.0000000000008
210
0.0
220
0.0
230
-1.0
100
AcDbArc
 50
180.0
 51
267.5080936312843
  0
LINE
  5
5C
330
2
100
AcDbEntity
  8
TEREN$0$A-MassElement-G
  6
Continuous
 62
   210
370
     5
100
AcDbLine
 10
218829.7868238984
 20
136180.6793469616
 30
0.0
 11
218829.7868238984
 21
136150.6542316878
 31
0.0
  0
ARC
  5
5D
330
2
100
AcDbEntity
  8
TEREN$0$A-MassElement-G
  6
Continuous
 62
   210
370
     5
100
AcDbCircle
 10
218819.7868238983
 20
136410.4618528231
 30
0.0
 40
260.0000000000004
100
AcDbArc
 50
272.2042275043376
 51
0.0
  0
LINE
  5
5E
330
2
100
AcDbEntity
  8
TEREN$0$A-MassElement-G
  6
Continuous
 62
   210
370
     5
100
AcDbLine
 10
219049.7868238983
 20
136524.3618457565
 30
0.0
 11
219139.7868238984
 21
136524.3618457565
 31
0.0
  0
3DFACE
  5
5F
330
2
100
AcDbEntity
  8
TEREN$0$A-MassElement-G
  6
Continuous
 62
   210
370
     5
100
AcDbFace
 10
218114.7868238983
 20
137029.4618528231
 30
0.0
 11
218114.7868238983
 21
137059.4618528231
 31
0.0
 12
218094.7868238984
 22
137059.4618528231
 32
0.0
 13
218094.7868238984
 23
137029.4618528231
 33
0.0
  0
3DFACE
  5
60
330
2
100
AcDbEntity
  8
TEREN$0$A-MassElement-G
  6
Continuous
 62
   210
370
     5
100
AcDbFace
 10
218094.7868238984
 20
137029.4618528231
 30
0.0
 11
218094.7868238984
 21
137029.4618528231
 31
0.0
 12
218094.7868238984
 22
137119.4618528231
 32
0.0
 13
218094.7868238984
 23
137119.4618528231
 33
0.0
 70
     2
  0
3DFACE
  5
61
330
2
100
AcDbEntity
  8
TEREN$0$A-MassElement-G
  6
Continuous
 62
   210
370
     5
100
AcDbFace
 10
218094.7868238984
 20
137059.4618528231
 30
0.0
 11
218094.7868238984
 21
137119.4618528231
 31
0.0
 12
218094.7868238984
 22
137029.4618528231
 32
0.0
 13
218094.7868238984
 23
137029.4618528231
 33
0.0
 70
     2
  0
3DFACE
  5
62
330
2
100
AcDbEntity
  8
TEREN$0$A-MassElement-G
  6
Continuous
 62
   210
370
     5
100
AcDbFace
 10
218094.7868238984
 20
137119.4618528231
 30
0.0
 11
218114.7868238983
 21
137119.4618528231
 31
0.0
 12
218114.7868238983
 22
137119.4618528231
 32
0.0
 13
218094.7868238984
 23
137119.4618528231
 33
0.0
  0
3DFACE
  5
63
330
2
100
AcDbEntity
  8
TEREN$0$A-MassElement-G
  6
Continuous
 62
   210
370
     5
100
AcDbFace
 10
218114.7868238983
 20
137029.4618528231
 30
0.0
 11
218114.7868238983
 21
137119.4618528231
 31
0.0
 12
218114.7868238983
 22
137059.4618528231
 32
0.0
 13
218114.7868238983
 23
137029.4618528231
 33
0.0
 70
     2
  0
3DFACE
  5
64
330
2
100
AcDbEntity
  8
TEREN$0$A-MassElement-G
  6
Continuous
 62
   210
370
     5
100
AcDbFace
 10
218114.7868238983
 20
137119.4618528231
 30
0.0
 11
218114.7868238983
 21
137059.4618528231
 31
0.0
 12
218114.7868238983
 22
137119.4618528231
 32
0.0
 13
218114.7868238983
 23
137119.4618528231
 33
0.0
 70
     2
  0
3DFACE
  5
65
330
2
100
AcDbEntity
  8
TEREN$0$A-MassElement-G
  6
Continuous
 62
   210
370
     5
100
AcDbFace
 10
218114.7868238983
 20
137119.4618528231
 30
0.0
 11
218094.7868238984
 21
137119.4618528231
 31
0.0
 12
218094.7868238984
 22
137059.4618528231
 32
0.0
 13
218114.7868238983
 23
137059.4618528231
 33
0.0
  0
3DFACE
  5
66
330
2
100
AcDbEntity
  8
TEREN$0$A-MassElement-G
  6
Continuous
 62
   210
370
     5
100
AcDbFace
 10
218094.7868238984
 20
137029.4618528231
 30
0.0
 11
218114.7868238983
 21
137029.4618528231
 31
0.0
 12
218114.7868238983
 22
137029.4618528231
 32
0.0
 13
218094.7868238984
 23
137029.4618528231
 33
0.0
  0
3DFACE
  5
67
330
2
100
AcDbEntity
  8
TEREN$0$A-MassElement-G
  6
Continuous
 62
   210
370
     5
100
AcDbFace
 10
218114.7868238983
 20
137029.4618528231
 30
0.0
 11
218094.7868238984
 21
137029.4618528231
 31
0.0
 12
218094.7868238984
 22
137119.4618528231
 32
0.0
 13
218114.7868238983
 23
137119.4618528231
 33
0.0
  0
3DFACE
  5
68
330
2
100
AcDbEntity
  8
TEREN$0$A-MassElement-G
  6
Continuous
 62
   210
370
     5
100
AcDbFace
 10
218264.7868238984
 20
137029.4618528231
 30
0.0
 11
218284.7868238984
 21
137029.4618528231
 31
0.0
 12
218284.7868238984
 22
137059.4618528231
 32
0.0
 13
218264.7868238984
 23
137059.4618528231
 33
0.0
  0
3DFACE
  5
69
330
2
100
AcDbEntity
  8
TEREN$0$A-MassElement-G
  6
Continuous
 62
   210
370
     5
100
AcDbFace
 10
218284.7868238984
 20
137119.4618528231
 30
0.0
 11
218284.7868238984
 21
137059.4618528231
 31
0.0
 12
218284.7868238984
 22
137029.4618528231
 32
0.0
 13
218284.7868238984
 23
137119.4618528231
 33
0.0
 70
     2
  0
3DFACE
  5
6A
330
2
100
AcDbEntity
  8
TEREN$0$A-MassElement-G
  6
Continuous
 62
   210
370
     5
100
AcDbFace
 10
218284.7868238984
 20
137029.4618528231
 30
0.0
 11
218284.7868238984
 21
137029.4618528231
 31
0.0
 12
218284.7868238984
 22
137059.4618528231
 32
0.0
 13
218284.7868238984
 23
137059.4618528231
 33
0.0
 70
     2
  0
3DFACE
  5
6B
330
2
100
AcDbEntity
  8
TEREN$0$A-MassElement-G
  6
Continuous
 62
   210
370
     5
100
AcDbFace
 10
218284.7868238984
 20
137119.4618528231
 30
0.0
 11
218284.7868238984
 21
137119.4618528231
 31
0.0
 12
218264.7868238984
 22
137119.4618528231
 32
0.0
 13
218264.7868238984
 23
137119.4618528231
 33
0.0
  0
3DFACE
  5
6C
330
2
100
AcDbEntity
  8
TEREN$0$A-MassElement-G
  6
Continuous
 62
   210
370
     5
100
AcDbFace
 10
218264.7868238984
 20
137059.4618528231
 30
0.0
 11
218264.7868238984
 21
137119.4618528231
 31
0.0
 12
218264.7868238984
 22
137029.4618528231
 32
0.0
 13
218264.7868238984
 23
137029.4618528231
 33
0.0
 70
     2
  0
3DFACE
  5
6D
330
2
100
AcDbEntity
  8
TEREN$0$A-MassElement-G
  6
Continuous
 62
   210
370
     5
100
AcDbFace
 10
218264.7868238984
 20
137119.4618528231
 30
0.0
 11
218264.7868238984
 21
137029.4618528231
 31
0.0
 12
218264.7868238984
 22
137119.4618528231
 32
0.0
 13
218264.7868238984
 23
137119.4618528231
 33
0.0
 70
     2
  0
3DFACE
  5
6E
330
2
100
AcDbEntity
  8
TEREN$0$A-MassElement-G
  6
Continuous
 62
   210
370
     5
100
AcDbFace
 10
218264.7868238984
 20
137119.4618528231
 30
0.0
 11
218264.7868238984
 21
137059.4618528231
 31
0.0
 12
218284.7868238984
 22
137059.4618528231
 32
0.0
 13
218284.7868238984
 23
137119.4618528231
 33
0.0
  0
3DFACE
  5
6F
330
2
100
AcDbEntity
  8
TEREN$0$A-MassElement-G
  6
Continuous
 62
   210
370
     5
100
AcDbFace
 10
218284.7868238984
 20
137029.4618528231
 30
0.0
 11
218284.7868238984
 21
137029.4618528231
 31
0.0
 12
218264.7868238984
 22
137029.4618528231
 32
0.0
 13
218264.7868238984
 23
137029.4618528231
 33
0.0
  0
3DFACE
  5
70
330
2
100
AcDbEntity
  8
TEREN$0$A-MassElement-G
  6
Continuous
 62
   210
370
     5
100
AcDbFace
 10
218264.7868238984
 20
137029.4618528231
 30
0.0
 11
218264.7868238984
 21
137119.4618528231
 31
0.0
 12
218284.7868238984
 22
137119.4618528231
 32
0.0
 13
218284.7868238984
 23
137029.4618528231
 33
0.0
  0
3DFACE
  5
71
330
2
100
AcDbEntity
  8
TEREN$0$A-MassElement-G
  6
Continuous
 62
   210
370
     5
100
AcDbFace
 10
219049.7868238983
 20
136704.3618457565
 30
0.0
 11
219049.7868238983
 21
136684.3618457565
 31
0.0
 12
219079.7868238984
 22
136684.3618457565
 32
0.0
 13
219079.7868238984
 23
136704.3618457565
 33
0.0
  0
3DFACE
  5
72
330
2
100
AcDbEntity
  8
TEREN$0$A-MassElement-G
  6
Continuous
 62
   210
370
     5
100
AcDbFace
 10
219139.7868238984
 20
136704.3618457565
 30
0.0
 11
219049.7868238983
 21
136704.3618457565
 31
0.0
 12
219079.7868238984
 22
136704.3618457565
 32
0.0
 13
219139.7868238984
 23
136704.3618457565
 33
0.0
 70
     2
  0
3DFACE
  5
73
330
2
100
AcDbEntity
  8
TEREN$0$A-MassElement-G
  6
Continuous
 62
   210
370
     5
100
AcDbFace
 10
219049.7868238983
 20
136704.3618457565
 30
0.0
 11
219079.7868238984
 21
136704.3618457565
 31
0.0
 12
219049.7868238983
 22
136704.3618457565
 32
0.0
 13
219049.7868238983
 23
136704.3618457565
 33
0.0
 70
     2
  0
3DFACE
  5
74
330
2
100
AcDbEntity
  8
TEREN$0$A-MassElement-G
  6
Continuous
 62
   210
370
     5
100
AcDbFace
 10
219139.7868238984
 20
136704.3618457565
 30
0.0
 11
219139.7868238984
 21
136704.3618457565
 31
0.0
 12
219139.7868238984
 22
136684.3618457565
 32
0.0
 13
219139.7868238984
 23
136684.3618457565
 33
0.0
  0
3DFACE
  5
75
330
2
100
AcDbEntity
  8
TEREN$0$A-MassElement-G
  6
Continuous
 62
   210
370
     5
100
AcDbFace
 10
219049.7868238983
 20
136684.3618457565
 30
0.0
 11
219049.7868238983
 21
136684.3618457565
 31
0.0
 12
219139.7868238984
 22
136684.3618457565
 32
0.0
 13
219079.7868238984
 23
136684.3618457565
 33
0.0
 70
     2
  0
3DFACE
  5
76
330
2
100
AcDbEntity
  8
TEREN$0$A-MassElement-G
  6
Continuous
 62
   210
370
     5
100
AcDbFace
 10
219139.7868238984
 20
136684.3618457565
 30
0.0
 11
219139.7868238984
 21
136684.3618457565
 31
0.0
 12
219049.7868238983
 22
136684.3618457565
 32
0.0
 13
219049.7868238983
 23
136684.3618457565
 33
0.0
 70
     2
  0
3DFACE
  5
77
330
2
100
AcDbEntity
  8
TEREN$0$A-MassElement-G
  6
Continuous
 62
   210
370
     5
100
AcDbFace
 10
219079.7868238984
 20
136684.3618457565
 30
0.0
 11
219139.7868238984
 21
136684.3618457565
 31
0.0
 12
219139.7868238984
 22
136704.3618457565
 32
0.0
 13
219079.7868238984
 23
136704.3618457565
 33
0.0
  0
3DFACE
  5
78
330
2
100
AcDbEntity
  8
TEREN$0$A-MassElement-G
  6
Continuous
 62
   210
370
     5
100
AcDbFace
 10
219049.7868238983
 20
136704.3618457565
 30
0.0
 11
219049.7868238983
 21
136704.3618457565
 31
0.0
 12
219049.7868238983
 22
136684.3618457565
 32
0.0
 13
219049.7868238983
 23
136684.3618457565
 33
0.0
  0
3DFACE
  5
79
330
2
100
AcDbEntity
  8
TEREN$0$A-MassElement-G
  6
Continuous
 62
   210
370
     5
100
AcDbFace
 10
219139.7868238984
 20
136684.3618457565
 30
0.0
 11
219049.7868238983
 21
136684.3618457565
 31
0.0
 12
219049.7868238983
 22
136704.3618457565
 32
0.0
 13
219139.7868238984
 23
136704.3618457565
 33
0.0
  0
3DFACE
  5
7A
330
2
100
AcDbEntity
  8
TEREN$0$A-MassElement-G
  6
Continuous
 62
   210
370
     5
100
AcDbFace
 10
219049.7868238983
 20
136524.3618457565
 30
0.0
 11
219079.7868238984
 21
136524.3618457565
 31
0.0
 12
219079.7868238984
 22
136544.3618457565
 32
0.0
 13
219049.7868238983
 23
136544.3618457565
 33
0.0
  0
3DFACE
  5
7B
330
2
100
AcDbEntity
  8
TEREN$0$A-MassElement-G
  6
Continuous
 62
   210
370
     5
100
AcDbFace
 10
219079.7868238984
 20
136524.3618457565
 30
0.0
 11
219049.7868238983
 21
136524.3618457565
 31
0.0
 12
219139.7868238984
 22
136524.3618457565
 32
0.0
 13
219139.7868238984
 23
136524.3618457565
 33
0.0
 70
     2
  0
3DFACE
  5
7C
330
2
100
AcDbEntity
  8
TEREN$0$A-MassElement-G
  6
Continuous
 62
   210
370
     5
100
AcDbFace
 10
219049.7868238983
 20
136524.3618457565
 30
0.0
 11
219139.7868238984
 21
136524.3618457565
 31
0.0
 12
219049.7868238983
 22
136524.3618457565
 32
0.0
 13
219049.7868238983
 23
136524.3618457565
 33
0.0
 70
     2
  0
3DFACE
  5
7D
330
2
100
AcDbEntity
  8
TEREN$0$A-MassElement-G
  6
Continuous
 62
   210
370
     5
100
AcDbFace
 10
219139.7868238984
 20
136524.3618457565
 30
0.0
 11
219139.7868238984
 21
136544.3618457565
 31
0.0
 12
219139.7868238984
 22
136544.3618457565
 32
0.0
 13
219139.7868238984
 23
136524.3618457565
 33
0.0
  0
3DFACE
  5
7E
330
2
100
AcDbEntity
  8
TEREN$0$A-MassElement-G
  6
Continuous
 62
   210
370
     5
100
AcDbFace
 10
219139.7868238984
 20
136544.3618457565
 30
0.0
 11
219139.7868238984
 21
136544.3618457565
 31
0.0
 12
219049.7868238983
 22
136544.3618457565
 32
0.0
 13
219079.7868238984
 23
136544.3618457565
 33
0.0
 70
     2
  0
3DFACE
  5
7F
330
2
100
AcDbEntity
  8
TEREN$0$A-MassElement-G
  6
Continuous
 62
   210
370
     5
100
AcDbFace
 10
219049.7868238983
 20
136544.3618457565
 30
0.0
 11
219049.7868238983
 21
136544.3618457565
 31
0.0
 12
219139.7868238984
 22
136544.3618457565
 32
0.0
 13
219139.7868238984
 23
136544.3618457565
 33
0.0
 70
     2
  0
3DFACE
  5
80
330
2
100
AcDbEntity
  8
TEREN$0$A-MassElement-G
  6
Continuous
 62
   210
370
     5
100
AcDbFace
 10
219079.7868238984
 20
136544.3618457565
 30
0.0
 11
219079.7868238984
 21
136524.3618457565
 31
0.0
 12
219139.7868238984
 22
136524.3618457565
 32
0.0
 13
219139.7868238984
 23
136544.3618457565
 33
0.0
  0
3DFACE
  5
81
330
2
100
AcDbEntity
  8
TEREN$0$A-MassElement-G
  6
Continuous
 62
   210
370
     5
100
AcDbFace
 10
219049.7868238983
 20
136524.3618457565
 30
0.0
 11
219049.7868238983
 21
136544.3618457565
 31
0.0
 12
219049.7868238983
 22
136544.3618457565
 32
0.0
 13
219049.7868238983
 23
136524.3618457565
 33
0.0
  0
3DFACE
  5
82
330
2
100
AcDbEntity
  8
TEREN$0$A-MassElement-G
  6
Continuous
 62
   210
370
     5
100
AcDbFace
 10
219139.7868238984
 20
136544.3618457565
 30
0.0
 11
219139.7868238984
 21
136524.3618457565
 31
0.0
 12
219049.7868238983
 22
136524.3618457565
 32
0.0
 13
219049.7868238983
 23
136544.3618457565
 33
0.0
  0
LINE
  5
83
330
2
100
AcDbEntity
  8
TEREN$0$A-MassElement-G
  6
Continuous
 62
   210
370
     5
100
AcDbLine
 10
217349.9870602313
 20
136713.4618528231
 30
0.0
 11
217349.9870602313
 21
136678.4618528231
 31
0.0
  0
LINE
  5
84
330
2
100
AcDbEntity
  8
TEREN$0$A-MassElement-G
  6
Continuous
 62
   210
370
     5
100
AcDbLine
 10
217549.9870602314
 20
136678.4618528231
 30
0.0
 11
217549.9870602314
 21
136713.4618528231
 31
0.0
  0
LINE
  5
85
330
2
100
AcDbEntity
  8
TEREN$0$A-MassElement-G
  6
Continuous
 62
   210
370
     5
100
AcDbLine
 10
217549.9870602314
 20
136713.4618528231
 30
0.0
 11
217349.9870602313
 21
136713.4618528231
 31
0.0
  0
LINE
  5
86
330
2
100
AcDbEntity
  8
TEREN$0$A-MassElement-G
  6
Continuous
 62
   210
370
     5
100
AcDbLine
 10
217259.7868238984
 20
136000.4618528231
 30
0.0
 11
217259.7868238984
 21
135894.4618528231
 31
0.0
  0
LINE
  5
87
330
2
100
AcDbEntity
  8
TEREN$0$A-MassElement-G
  6
Continuous
 62
   210
370
     5
100
AcDbLine
 10
217259.7868238984
 20
135894.4618528231
 30
0.0
 11
217634.7868238984
 21
135894.4618528231
 31
0.0
  0
LINE
  5
88
330
2
100
AcDbEntity
  8
TEREN$0$A-MassElement-G
  6
Continuous
 62
   210
370
     5
100
AcDbLine
 10
217634.7868238984
 20
135894.4618528231
 30
0.0
 11
217634.7868238984
 21
136000.4618528231
 31
0.0
  0
CIRCLE
  5
89
330
2
100
AcDbEntity
  8
TEREN$0$A-MassElement-G
  6
Continuous
 62
   210
370
     5
100
AcDbCircle
 10
218104.7868238984
 20
137110.3129166529
 30
0.0
 40
9.0
  0
CIRCLE
  5
8A
330
2
100
AcDbEntity
  8
TEREN$0$A-MassElement-G
  6
Continuous
 62
   210
370
     5
100
AcDbCircle
 10
-218274.7868238983
 20
137110.3129166529
 30
0.0
 40
9.0
210
0.0
220
0.0
230
-1.0
  0
CIRCLE
  5
8B
330
2
100
AcDbEntity
  8
TEREN$0$A-MassElement-G
  6
Continuous
 62
   210
370
     5
100
AcDbCircle
 10
219130.6378877281
 20
136694.3618457565
 30
0.0
 40
9.0
  0
CIRCLE
  5
8C
330
2
100
AcDbEntity
  8
TEREN$0$A-MassElement-G
  6
Continuous
 62
   210
370
     5
100
AcDbCircle
 10
-219130.6378877281
 20
136534.3618457565
 30
0.0
 40
9.0
210
0.0
220
0.0
230
-1.0
  0
CIRCLE
  5
8D
330
2
100
AcDbEntity
  8
A-Wall-G
370
     5
100
AcDbCircle
 10
218047.2868238984
 20
135821.9569325047
 30
0.0
 40
17.50492031843157
  0
HATCH
  5
91
330
2
100
AcDbEntity
  8
0Hatch
 48
4.0
100
AcDbHatch
 10
0.0
 20
0.0
 30
0.0
210
0.0
220
0.0
230
1.0
  2
SOLID
 70
     1
 71
     1
 91
        1
 92
        7
 72
     1
 73
     1
 93
        2
 10
218064.7868238984
 20
135821.9618528231
 42
1.0
 10
218029.7868238984
 20
135821.9618528231
 42
1.0
 97
        1
330
95
 75
     0
 76
     1
 47
1.508860821248343
 98
        1
 10
218046.3487194424
 20
135820.1622684594
1001
ACAD
1010
0.0
1020
0.0
1030
0.0
  0
CIRCLE
  5
95
102
{ACAD_REACTORS
330
91
102
}
330
2
100
AcDbEntity
  8
A-Wall-G
  6
Continuous
 62
     7
370
     5
100
AcDbCircle
 10
218047.2868238984
 20
135821.9618528231
 30
0.0
 40
17.5
  0
CIRCLE
  5
96
330
2
100
AcDbEntity
  8
A-MassElement-G
  6
Continuous
 62
   210
370
     5
100
AcDbCircle
 10
218047.2868238984
 20
135821.9618528231
 30
0.0
 40
22.5
  0
HATCH
  5
99
330
2
100
AcDbEntity
  8
0Hatch
 48
4.0
100
AcDbHatch
 10
0.0
 20
0.0
 30
0.0
210
0.0
220
0.0
230
1.0
  2
SOLID
 70
     1
 71
     1
 91
        1
 92
        7
 72
     1
 73
     1
 93
        2
 10
218349.7868238983
 20
135821.9618528231
 42
1.0
 10
218314.7868238984
 20
135821.9618528231
 42
1.0
 97
        1
330
9A
 75
     0
 76
     1
 47
1.508860821248343
 98
        1
 10
218336.2283665411
 20
135821.6711201793
1001
ACAD
1010
0.0
1020
0.0
1030
0.0
  0
CIRCLE
  5
9A
102
{ACAD_REACTORS
330
99
102
}
330
2
100
AcDbEntity
  8
A-Wall-G
  6
Continuous
 62
     7
370
     5
100
AcDbCircle
 10
-218332.2868238984
 20
135821.9618528231
 30
0.0
 40
17.5
210
0.0
220
0.0
230
-1.0
  0
CIRCLE
  5
9B
330
2
100
AcDbEntity
  8
A-MassElement-G
  6
Continuous
 62
   210
370
     5
100
AcDbCircle
 10
-218332.2868238984
 20
135821.9618528231
 30
0.0
 40
22.5
210
0.0
220
0.0
230
-1.0
  0
LINE
  5
9C
330
2
100
AcDbEntity
  8
TEREN$0$A-MassElement-G
  6
Continuous
 62
   210
370
     5
100
AcDbLine
 10
217634.7868238984
 20
135894.4618528231
 30
0.0
 11
217449.7868238983
 21
136000.4618528231
 31
0.0
  0
LINE
  5
9D
330
2
100
AcDbEntity
  8
TEREN$0$A-MassElement-G
  6
Continuous
 62
   210
370
     5
100
AcDbLine
 10
217449.7868238983
 20
136000.4618528231
 30
0.0
 11
217259.7868238984
 21
135894.4618528231
 31
0.0
  0
LINE
  5
9E
330
2
100
AcDbEntity
  8
TEREN$0$A-MassElement-G
  6
Continuous
 62
   210
370
     5
100
AcDbLine
 10
219079.7868238984
 20
136704.3618457565
 30
0.0
 11
219079.7868238984
 21
136799.4618528231
 31
0.0
  0
ARC
  5
9F
330
2
100
AcDbEntity
  8
TEREN$0$A-MassElement-G
  6
Continuous
 62
   210
370
     5
100
AcDbCircle
 10
218819.7868238983
 20
136799.4618528231
 30
0.0
 40
260.0000000000002
100
AcDbArc
 50
0.0
 51
90.0
  0
LINE
  5
A0
330
2
100
AcDbEntity
  8
TEREN$0$A-MassElement-G
  6
Continuous
 62
   210
370
     5
100
AcDbLine
 10
218819.7868238983
 20
137059.4618528231
 30
0.0
 11
218284.7868238984
 21
137059.4618528231
 31
0.0
  0
LINE
  5
A1
330
2
100
AcDbEntity
  8
teren$0$A-PlantOutdoor-G
370
     5
100
AcDbLine
 10
218397.889543056
 20
137059.4618528231
 30
0.0
 11
218397.889543056
 21
137110.4034515049
 31
0.0
  0
LINE
  5
A4
330
2
100
AcDbEntity
  8
teren$0$A-PlantOutdoor-G
370
     5
100
AcDbLine
 10
218377.889543056
 20
137059.4618528231
 30
0.0
 11
218377.889543056
 21
137088.1636284317
 31
0.0
  0
LINE
  5
A5
330
2
100
AcDbEntity
  8
teren$0$A-PlantOutdoor-G
370
     5
100
AcDbLine
 10
218357.889543056
 20
137059.4618528231
 30
0.0
 11
218357.889543056
 21
137110.4034515049
 31
0.0
  0
LINE
  5
A6
330
2
100
AcDbEntity
  8
teren$0$A-PlantOutdoor-G
370
     5
100
AcDbLine
 10
218337.889543056
 20
137059.4618528231
 30
0.0
 11
218337.889543056
 21
137088.1636284317
 31
0.0
  0
LINE
  5
A7
330
2
100
AcDbEntity
  8
teren$0$A-PlantOutdoor-G
370
     5
100
AcDbLine
 10
218317.889543056
 20
137059.4618528231
 30
0.0
 11
218317.889543056
 21
137110.4034515049
 31
0.0
  0
LINE
  5
A8
330
2
100
AcDbEntity
  8
teren$0$A-PlantOutdoor-G
370
     5
100
AcDbLine
 10
218297.889543056
 20
137059.4618528231
 30
0.0
 11
218297.889543056
 21
137088.1636284317
 31
0.0
  0
LINE
  5
A9
330
2
100
AcDbEntity
  8
teren$0$A-PlantOutdoor-G
370
     5
100
AcDbLine
 10
218423.2636407534
 20
137059.4618528231
 30
0.0
 11
218423.2636407534
 21
137088.1636284317
 31
0.0
  0
LINE
  5
AA
330
2
100
AcDbEntity
  8
TEREN$0$A-MassElement-G
370
     5
100
AcDbLine
 10
218284.7868238984
 20
137119.4618528231
 30
0.0
 11
218819.7868238983
 21
137119.4618528231
 31
0.0
  0
LINE
  5
AB
330
2
100
AcDbEntity
  8
TEREN$0$A-MassElement-G
  6
Continuous
 62
   210
370
     5
100
AcDbLine
 10
218819.7868238983
 20
137119.4618528231
 30
0.0
 11
218853.235932144
 21
137117.708859341
 31
0.0
  0
LINE
  5
AC
330
2
100
AcDbEntity
  8
TEREN$0$A-MassElement-G
  6
Continuous
 62
   210
370
     5
100
AcDbLine
 10
218853.235932144
 20
137117.708859341
 30
0.0
 11
218886.3185649601
 21
137112.4690850579
 31
0.0
  0
LINE
  5
AD
330
2
100
AcDbEntity
  8
TEREN$0$A-MassElement-G
  6
Continuous
 62
   210
370
     5
100
AcDbLine
 10
218886.3185649601
 20
137112.4690850579
 30
0.0
 11
218918.6722620983
 21
137103.7999380376
 31
0.0
  0
LINE
  5
AE
330
2
100
AcDbEntity
  8
TEREN$0$A-MassElement-G
  6
Continuous
 62
   210
370
     5
100
AcDbLine
 10
218918.6722620983
 20
137103.7999380376
 30
0.0
 11
218949.9425496826
 21
137091.7963992688
 31
0.0
  0
LINE
  5
AF
330
2
100
AcDbEntity
  8
TEREN$0$A-MassElement-G
  6
Continuous
 62
   210
370
     5
100
AcDbLine
 10
218949.9425496826
 20
137091.7963992688
 30
0.0
 11
218979.7868238984
 21
137076.5899820341
 31
0.0
  0
LINE
  5
B0
330
2
100
AcDbEntity
  8
TEREN$0$A-MassElement-G
  6
Continuous
 62
   210
370
     5
100
AcDbLine
 10
218979.7868238984
 20
137076.5899820341
 30
0.0
 11
219007.8781046319
 21
137058.3472910231
 31
0.0
  0
LINE
  5
B1
330
2
100
AcDbEntity
  8
TEREN$0$A-MassElement-G
  6
Continuous
 62
   210
370
     5
100
AcDbLine
 10
219007.8781046319
 20
137058.3472910231
 30
0.0
 11
219033.9086179332
 21
137037.2681969759
 31
0.0
  0
LINE
  5
B2
330
2
100
AcDbEntity
  8
TEREN$0$A-MassElement-G
  6
Continuous
 62
   210
370
     5
100
AcDbLine
 10
219033.9086179332
 20
137037.2681969759
 30
0.0
 11
219057.5931680511
 21
137013.583646858
 31
0.0
  0
LINE
  5
B3
330
2
100
AcDbEntity
  8
TEREN$0$A-MassElement-G
  6
Continuous
 62
   210
370
     5
100
AcDbLine
 10
219057.5931680511
 20
137013.583646858
 30
0.0
 11
219078.6722620984
 21
136987.5531335567
 31
0.0
  0
LINE
  5
B4
330
2
100
AcDbEntity
  8
TEREN$0$A-MassElement-G
  6
Continuous
 62
   210
370
     5
100
AcDbLine
 10
219078.6722620984
 20
136987.5531335567
 30
0.0
 11
219096.9149531094
 21
136959.4618528231
 31
0.0
  0
LINE
  5
B5
330
2
100
AcDbEntity
  8
TEREN$0$A-MassElement-G
  6
Continuous
 62
   210
370
     5
100
AcDbLine
 10
219096.9149531094
 20
136959.4618528231
 30
0.0
 11
219112.121370344
 21
136929.6175786074
 31
0.0
  0
LINE
  5
B6
330
2
100
AcDbEntity
  8
TEREN$0$A-MassElement-G
  6
Continuous
 62
   210
370
     5
100
AcDbLine
 10
219112.121370344
 20
136929.6175786074
 30
0.0
 11
219124.1249091128
 21
136898.3472910231
 31
0.0
  0
LINE
  5
B7
330
2
100
AcDbEntity
  8
TEREN$0$A-MassElement-G
  6
Continuous
 62
   210
370
     5
100
AcDbLine
 10
219124.1249091128
 20
136898.3472910231
 30
0.0
 11
219132.7940561332
 21
136865.9935938848
 31
0.0
  0
LINE
  5
B8
330
2
100
AcDbEntity
  8
TEREN$0$A-MassElement-G
  6
Continuous
 62
   210
370
     5
100
AcDbLine
 10
219132.7940561332
 20
136865.9935938848
 30
0.0
 11
219138.0338304162
 21
136832.9109610688
 31
0.0
  0
LINE
  5
B9
330
2
100
AcDbEntity
  8
TEREN$0$A-MassElement-G
  6
Continuous
 62
   210
370
     5
100
AcDbLine
 10
219138.0338304162
 20
136832.9109610688
 30
0.0
 11
219139.7868238984
 21
136799.4618528231
 31
0.0
  0
LINE
  5
BA
330
2
100
AcDbEntity
  8
TEREN$0$A-MassElement-G
  6
Continuous
 62
   210
370
     5
100
AcDbLine
 10
219139.7868238984
 20
136165.4618528231
 30
0.0
 11
219139.7868238984
 21
136799.4618528231
 31
0.0
  0
LINE
  5
BB
330
2
100
AcDbEntity
  8
TEREN$0$A-MassElement-G
  6
Continuous
 62
   210
370
     5
100
AcDbLine
 10
219139.7868238984
 20
136165.4618528231
 30
0.0
 11
219138.8672793459
 21
136136.2014707225
 31
0.0
  0
LINE
  5
BC
330
2
100
AcDbEntity
  8
TEREN$0$A-MassElement-G
  6
Continuous
 62
   210
370
     5
100
AcDbLine
 10
219138.8672793459
 20
136136.2014707225
 30
0.0
 11
219136.1122747109
 21
136107.0565659822
 31
0.0
  0
LINE
  5
BD
330
2
100
AcDbEntity
  8
TEREN$0$A-MassElement-G
  6
Continuous
 62
   210
370
     5
100
AcDbLine
 10
219136.1122747109
 20
136107.0565659822
 30
0.0
 11
219131.5326827379
 21
136078.1421602262
 31
0.0
  0
LINE
  5
BE
330
2
100
AcDbEntity
  8
TEREN$0$A-MassElement-G
  6
Continuous
 62
   210
370
     5
100
AcDbLine
 10
219131.5326827379
 20
136078.1421602262
 30
0.0
 11
219125.1465769843
 21
136049.5723654043
 31
0.0
  0
LINE
  5
BF
330
2
100
AcDbEntity
  8
TEREN$0$A-MassElement-G
  6
Continuous
 62
   210
370
     5
100
AcDbLine
 10
219125.1465769843
 20
136049.5723654043
 30
0.0
 11
219116.9791604919
 21
136021.4599334444
 31
0.0
  0
LINE
  5
C0
330
2
100
AcDbEntity
  8
TEREN$0$A-MassElement-G
  6
Continuous
 62
   210
370
     5
100
AcDbLine
 10
219116.9791604919
 20
136021.4599334444
 30
0.0
 11
219107.0626663223
 21
135993.9158112721
 31
0.0
  0
LINE
  5
C1
330
2
100
AcDbEntity
  8
TEREN$0$A-MassElement-G
  6
Continuous
 62
   210
370
     5
100
AcDbLine
 10
219107.0626663223
 20
135993.9158112721
 30
0.0
 11
219095.4362303475
 21
135967.0487029538
 31
0.0
  0
LINE
  5
C2
330
2
100
AcDbEntity
  8
TEREN$0$A-MassElement-G
  6
Continuous
 62
   210
370
     5
100
AcDbLine
 10
219095.4362303475
 20
135967.0487029538
 30
0.0
 11
219082.1457367988
 21
135940.9646406917
 31
0.0
  0
LINE
  5
C3
330
2
100
AcDbEntity
  8
TEREN$0$A-MassElement-G
  6
Continuous
 62
   210
370
     5
100
AcDbLine
 10
219082.1457367988
 20
135940.9646406917
 30
0.0
 11
219067.2436371823
 21
135915.7665663629
 31
0.0
  0
LINE
  5
C4
330
2
100
AcDbEntity
  8
TEREN$0$A-MassElement-G
  6
Continuous
 62
   210
370
     5
100
AcDbLine
 10
219067.2436371823
 20
135915.7665663629
 30
0.0
 11
219050.7887432771
 21
135891.5539252548
 31
0.0
  0
LINE
  5
C5
330
2
100
AcDbEntity
  8
TEREN$0$A-MassElement-G
  6
Continuous
 62
   210
370
     5
100
AcDbLine
 10
219050.7887432771
 20
135891.5539252548
 30
0.0
 11
219032.8459950319
 21
135868.4222736002
 31
0.0
  0
LINE
  5
C6
330
2
100
AcDbEntity
  8
TEREN$0$A-MassElement-G
  6
Continuous
 62
   210
370
     5
100
AcDbLine
 10
219032.8459950319
 20
135868.4222736002
 30
0.0
 11
219013.4657804927
 21
135846.4424776763
 31
0.0
  0
LINE
  5
C7
330
2
100
AcDbEntity
  8
TEREN$0$A-MassElement-G
  6
Continuous
 62
   210
370
     5
100
AcDbLine
 10
219013.4657804927
 20
135846.4424776763
 30
0.0
 11
218992.7857752611
 21
135825.7624724447
 31
0.0
  0
LINE
  5
C8
330
2
100
AcDbEntity
  8
TEREN$0$A-MassElement-G
  6
Continuous
 62
   210
370
     5
100
AcDbLine
 10
218992.7857752611
 20
135825.7624724447
 30
0.0
 11
218970.8264031212
 21
135806.4026816896
 31
0.0
  0
LINE
  5
C9
330
2
100
AcDbEntity
  8
TEREN$0$A-MassElement-G
  6
Continuous
 62
   210
370
     5
100
AcDbLine
 10
218970.8264031212
 20
135806.4026816896
 30
0.0
 11
218947.717573982
 21
135788.4776364019
 31
0.0
  0
LINE
  5
CA
330
2
100
AcDbEntity
  8
TEREN$0$A-MassElement-G
  6
Continuous
 62
   210
370
     5
100
AcDbLine
 10
218947.717573982
 20
135788.4776364019
 30
0.0
 11
218923.4821103585
 21
135772.0050395392
 31
0.0
  0
LINE
  5
CB
330
2
100
AcDbEntity
  8
TEREN$0$A-MassElement-G
  6
Continuous
 62
   210
370
     5
100
AcDbLine
 10
218923.4821103585
 20
135772.0050395392
 30
0.0
 11
218898.2583005605
 21
135757.0898270461
 31
0.0
  0
LINE
  5
CC
330
2
100
AcDbEntity
  8
teren$0$A-PlantOutdoor-G
370
     5
100
AcDbLine
 10
218523.2636407534
 20
137059.4618528231
 30
0.0
 11
218523.2636407534
 21
137110.4034515049
 31
0.0
  0
LINE
  5
CD
330
2
100
AcDbEntity
  8
teren$0$A-PlantOutdoor-G
370
     5
100
AcDbLine
 10
218503.2636407534
 20
137059.4618528231
 30
0.0
 11
218503.2636407534
 21
137088.1636284317
 31
0.0
  0
LINE
  5
CE
330
2
100
AcDbEntity
  8
teren$0$A-PlantOutdoor-G
370
     5
100
AcDbLine
 10
218483.2636407534
 20
137059.4618528231
 30
0.0
 11
218483.2636407534
 21
137110.4034515049
 31
0.0
  0
LINE
  5
CF
330
2
100
AcDbEntity
  8
teren$0$A-PlantOutdoor-G
370
     5
100
AcDbLine
 10
218463.2636407534
 20
137059.4618528231
 30
0.0
 11
218463.2636407534
 21
137088.1636284317
 31
0.0
  0
LINE
  5
D0
330
2
100
AcDbEntity
  8
teren$0$A-PlantOutdoor-G
370
     5
100
AcDbLine
 10
218443.2636407534
 20
137059.4618528231
 30
0.0
 11
218443.2636407534
 21
137110.4034515049
 31
0.0
  0
LINE
  5
D1
330
2
100
AcDbEntity
  8
teren$0$A-PlantOutdoor-G
370
     5
100
AcDbLine
 10
218548.6377384508
 20
137059.4618528231
 30
0.0
 11
218548.6377384508
 21
137088.1636284317
 31
0.0
  0
LINE
  5
D2
330
2
100
AcDbEntity
  8
teren$0$A-PlantOutdoor-G
370
     5
100
AcDbLine
 10
218648.6377384508
 20
137059.4618528231
 30
0.0
 11
218648.6377384508
 21
137110.4034515049
 31
0.0
  0
LINE
  5
D3
330
2
100
AcDbEntity
  8
teren$0$A-PlantOutdoor-G
370
     5
100
AcDbLine
 10
218628.6377384508
 20
137059.4618528231
 30
0.0
 11
218628.6377384508
 21
137088.1636284317
 31
0.0
  0
LINE
  5
D4
330
2
100
AcDbEntity
  8
teren$0$A-PlantOutdoor-G
370
     5
100
AcDbLine
 10
218608.6377384508
 20
137059.4618528231
 30
0.0
 11
218608.6377384508
 21
137110.4034515049
 31
0.0
  0
LINE
  5
D5
330
2
100
AcDbEntity
  8
teren$0$A-PlantOutdoor-G
370
     5
100
AcDbLine
 10
218588.6377384508
 20
137059.4618528231
 30
0.0
 11
218588.6377384508
 21
137088.1636284317
 31
0.0
  0
LINE
  5
D6
330
2
100
AcDbEntity
  8
teren$0$A-PlantOutdoor-G
370
     5
100
AcDbLine
 10
218568.6377384508
 20
137059.4618528231
 30
0.0
 11
218568.6377384508
 21
137110.4034515049
 31
0.0
  0
LINE
  5
D7
330
2
100
AcDbEntity
  8
teren$0$A-PlantOutdoor-G
370
     5
100
AcDbLine
 10
218674.0118361482
 20
137059.4618528231
 30
0.0
 11
218674.0118361482
 21
137088.1636284317
 31
0.0
  0
LINE
  5
D8
330
2
100
AcDbEntity
  8
teren$0$A-PlantOutdoor-G
370
     5
100
AcDbLine
 10
218774.0118361482
 20
137059.4618528231
 30
0.0
 11
218774.0118361482
 21
137110.4034515049
 31
0.0
  0
LINE
  5
D9
330
2
100
AcDbEntity
  8
teren$0$A-PlantOutdoor-G
370
     5
100
AcDbLine
 10
218754.0118361482
 20
137059.4618528231
 30
0.0
 11
218754.0118361482
 21
137088.1636284317
 31
0.0
  0
LINE
  5
DA
330
2
100
AcDbEntity
  8
teren$0$A-PlantOutdoor-G
370
     5
100
AcDbLine
 10
218734.0118361483
 20
137059.4618528231
 30
0.0
 11
218734.0118361483
 21
137110.4034515049
 31
0.0
  0
LINE
  5
DB
330
2
100
AcDbEntity
  8
teren$0$A-PlantOutdoor-G
370
     5
100
AcDbLine
 10
218714.0118361482
 20
137059.4618528231
 30
0.0
 11
218714.0118361482
 21
137088.1636284317
 31
0.0
  0
LINE
  5
DC
330
2
100
AcDbEntity
  8
teren$0$A-PlantOutdoor-G
370
     5
100
AcDbLine
 10
218694.0118361482
 20
137059.4618528231
 30
0.0
 11
218694.0118361482
 21
137110.4034515049
 31
0.0
  0
LINE
  5
DD
330
2
100
AcDbEntity
  8
teren$0$A-PlantOutdoor-G
370
     5
100
AcDbLine
 10
218799.3859338456
 20
137059.4618528231
 30
0.0
 11
218799.3859338456
 21
137088.1636284317
 31
0.0
  0
LINE
  5
DE
330
2
100
AcDbEntity
  8
teren$0$A-PlantOutdoor-G
370
     5
100
AcDbLine
 10
218819.3859338456
 20
137059.4618528231
 30
0.0
 11
218819.3859338456
 21
137110.4034515049
 31
0.0
  0
LINE
  5
DF
330
2
100
AcDbEntity
  8
teren$0$A-PlantOutdoor-G
370
     5
100
AcDbLine
 10
218438.7949115934
 20
135759.4618528231
 30
0.0
 11
218438.7949115934
 21
135708.5202541413
 31
0.0
  0
LINE
  5
E0
330
2
100
AcDbEntity
  8
teren$0$A-PlantOutdoor-G
370
     5
100
AcDbLine
 10
218458.7949115934
 20
135759.4618528231
 30
0.0
 11
218458.7949115934
 21
135730.7600772145
 31
0.0
  0
LINE
  5
E1
330
2
100
AcDbEntity
  8
teren$0$A-PlantOutdoor-G
370
     5
100
AcDbLine
 10
218478.7949115934
 20
135759.4618528231
 30
0.0
 11
218478.7949115934
 21
135708.5202541413
 31
0.0
  0
LINE
  5
E2
330
2
100
AcDbEntity
  8
teren$0$A-PlantOutdoor-G
370
     5
100
AcDbLine
 10
218498.7949115934
 20
135759.4618528231
 30
0.0
 11
218498.7949115934
 21
135730.7600772145
 31
0.0
  0
LINE
  5
E3
330
2
100
AcDbEntity
  8
teren$0$A-PlantOutdoor-G
370
     5
100
AcDbLine
 10
218518.7949115934
 20
135759.4618528231
 30
0.0
 11
218518.7949115934
 21
135708.5202541413
 31
0.0
  0
LINE
  5
E4
330
2
100
AcDbEntity
  8
teren$0$A-PlantOutdoor-G
370
     5
100
AcDbLine
 10
218413.420813896
 20
135759.4618528231
 30
0.0
 11
218413.420813896
 21
135730.7600772145
 31
0.0
  0
LINE
  5
E5
330
2
100
AcDbEntity
  8
teren$0$A-PlantOutdoor-G
370
     5
100
AcDbLine
 10
218569.2964702584
 20
135759.4618528231
 30
0.0
 11
218569.2964702584
 21
135708.5202541413
 31
0.0
  0
LINE
  5
E6
330
2
100
AcDbEntity
  8
teren$0$A-PlantOutdoor-G
370
     5
100
AcDbLine
 10
218589.2964702583
 20
135759.4618528231
 30
0.0
 11
218589.2964702583
 21
135730.7600772145
 31
0.0
  0
LINE
  5
E7
330
2
100
AcDbEntity
  8
teren$0$A-PlantOutdoor-G
370
     5
100
AcDbLine
 10
218609.2964702583
 20
135759.4618528231
 30
0.0
 11
218609.2964702583
 21
135708.5202541413
 31
0.0
  0
LINE
  5
E8
330
2
100
AcDbEntity
  8
teren$0$A-PlantOutdoor-G
370
     5
100
AcDbLine
 10
218629.2964702583
 20
135759.4618528231
 30
0.0
 11
218629.2964702583
 21
135730.7600772145
 31
0.0
  0
LINE
  5
E9
330
2
100
AcDbEntity
  8
teren$0$A-PlantOutdoor-G
370
     5
100
AcDbLine
 10
218649.2964702583
 20
135759.4618528231
 30
0.0
 11
218649.2964702583
 21
135708.5202541413
 31
0.0
  0
LINE
  5
EA
330
2
100
AcDbEntity
  8
teren$0$A-PlantOutdoor-G
370
     5
100
AcDbLine
 10
218543.9223725609
 20
135759.4618528231
 30
0.0
 11
218543.9223725609
 21
135730.7600772145
 31
0.0
  0
LINE
  5
EB
330
2
100
AcDbEntity
  8
teren$0$A-PlantOutdoor-G
370
     5
100
AcDbLine
 10
218699.1609215958
 20
135759.4618528231
 30
0.0
 11
218702.6023405218
 21
135707.4523316521
 31
-56.45015012238346
  0
LINE
  5
EC
330
2
100
AcDbEntity
  8
teren$0$A-PlantOutdoor-G
370
     5
100
AcDbLine
 10
218724.6721167254
 20
135762.6632840894
 30
-15.0
 11
218728.4321137324
 21
135732.89984305
 31
-38.5
  0
LINE
  5
ED
330
2
100
AcDbEntity
  8
teren$0$A-PlantOutdoor-G
370
     5
100
AcDbLine
 10
218749.8636376202
 20
135766.6532290273
 30
0.0
 11
218759.2770086327
 21
135717.3066100626
 31
-54.35188153330201
  0
LINE
  5
EE
330
2
100
AcDbEntity
  8
teren$0$A-PlantOutdoor-G
370
     5
100
AcDbLine
 10
218673.7868238984
 20
135759.4618528231
 30
0.0
 11
218673.7868238984
 21
135730.7600772145
 31
0.0
  0
LINE
  5
EF
330
2
100
AcDbEntity
  8
teren$0$A-PlantOutdoor-G
370
     5
100
AcDbLine
 10
218673.7868238984
 20
135759.4618528231
 30
-15.0
 11
218673.7868238983
 21
135729.4618528231
 31
-38.5
  0
LINE
  5
F0
330
2
100
AcDbEntity
  8
teren$0$A-PlantOutdoor-G
370
     5
100
AcDbLine
 10
218774.7549180873
 20
135772.2170894049
 30
0.0
 11
218782.2156147023
 21
135743.159594571
 31
-38.5
  0
LINE
  5
F1
330
2
100
AcDbEntity
  8
teren$0$A-PlantOutdoor-G
370
     5
100
AcDbLine
 10
218799.2477236146
 20
135779.3329072073
 30
-15.0
 11
218814.1700526429
 21
135733.4067008204
 31
-52.82690904275586
  0
LINE
  5
F2
330
2
100
AcDbEntity
  8
teren$0$A-PlantOutdoor-G
370
     5
100
AcDbLine
 10
218823.2453922883
 20
135787.9725995525
 30
0.0
 11
218834.2891288689
 21
135760.0793049758
 31
-38.5
  0
LINE
  5
F3
330
2
100
AcDbEntity
  8
teren$0$A-PlantOutdoor-G
370
     5
100
AcDbLine
 10
218846.6532162738
 20
135798.1020695219
 30
-15.0
 11
218865.492893757
 21
135758.0657169228
 31
-49.66055689922979
  0
LINE
  5
F4
330
2
100
AcDbEntity
  8
teren$0$A-PlantOutdoor-G
370
     5
100
AcDbLine
 10
218869.3788155836
 20
135809.6813407253
 30
-15.0
 11
218883.8314258067
 21
135783.392140324
 31
-38.5
  0
LINE
  5
F5
330
2
100
AcDbEntity
  8
teren$0$A-PlantOutdoor-G
370
     5
100
AcDbLine
 10
218891.3325026598
 20
135822.6647150693
 30
0.0
 11
218915.3982893193
 21
135784.7431032422
 31
-50.18213919105731
  0
LINE
  5
F6
330
2
100
AcDbEntity
  8
teren$0$A-PlantOutdoor-G
370
     5
100
AcDbLine
 10
218912.4276363292
 20
135837.0009531069
 30
-15.0
 11
218930.0611938978
 21
135812.7304432756
 31
-38.5
  0
LINE
  5
F7
330
2
100
AcDbEntity
  8
teren$0$A-PlantOutdoor-G
370
     5
100
AcDbLine
 10
218932.5809637363
 20
135852.6334762562
 30
0.0
 11
218964.7051901769
 21
135812.8283803697
 31
-52.19110786576816
  0
LINE
  5
F8
330
2
100
AcDbEntity
  8
teren$0$A-PlantOutdoor-G
370
     5
100
AcDbLine
 10
218969.7480866315
 20
135887.5357278161
 30
-15.0
 11
219005.9140795489
 21
135853.5735998816
 31
-53.86316464063715
  0
LINE
  5
F9
330
2
100
AcDbEntity
  8
teren$0$A-PlantOutdoor-G
370
     5
100
AcDbLine
 10
218986.6152004654
 20
135906.6677129852
 30
-15.0
 11
219009.7305977486
 21
135887.5449932927
 31
-38.5
  0
LINE
  5
FA
330
2
100
AcDbEntity
  8
teren$0$A-PlantOutdoor-G
370
     5
100
AcDbLine
 10
219002.2477236146
 20
135926.8210403924
 30
0.0
 11
219039.5488633141
 21
135899.7201760576
 31
-51.11694970695737
  0
LINE
  5
FB
330
2
100
AcDbEntity
  8
teren$0$A-PlantOutdoor-G
370
     5
100
AcDbLine
 10
219016.5839616522
 20
135947.9161740617
 30
-15.0
 11
219041.9137994172
 21
135931.8413702123
 31
-38.5
  0
LINE
  5
FC
330
2
100
AcDbEntity
  8
teren$0$A-PlantOutdoor-G
370
     5
100
AcDbLine
 10
219029.5673359962
 20
135969.8698611379
 30
-15.0
 11
219074.0130939584
 21
135945.4355989279
 31
-54.73020465314791
  0
LINE
  5
FD
330
2
100
AcDbEntity
  8
teren$0$A-PlantOutdoor-G
370
     5
100
AcDbLine
 10
219041.1466071996
 20
135992.5954604477
 30
0.0
 11
219068.2914187735
 21
135979.8220817008
 31
-38.5
  0
LINE
  5
FE
330
2
100
AcDbEntity
  8
teren$0$A-PlantOutdoor-G
370
     5
100
AcDbLine
 10
219051.276077169
 20
136016.0032844331
 30
0.0
 11
219098.3334729025
 21
135996.654154583
 31
-51.31238769676214
  0
LINE
  5
FF
330
2
100
AcDbEntity
  8
teren$0$A-PlantOutdoor-G
370
     5
100
AcDbLine
 10
219059.9157695142
 20
136040.0009531068
 30
-15.0
 11
219088.447465003
 21
136030.7304432756
 31
-38.5
  0
LINE
  5
100
330
2
100
AcDbEntity
  8
teren$0$A-PlantOutdoor-G
370
     5
100
AcDbLine
 10
219067.0315873166
 20
136064.4937586341
 30
-15.0
 11
219118.3017915676
 21
136052.5220092437
 31
-52.70909409625756
  0
LINE
  5
101
330
2
100
AcDbEntity
  8
teren$0$A-PlantOutdoor-G
370
     5
100
AcDbLine
 10
219072.5954476942
 20
136089.3850391012
 30
-15.0
 11
219109.3602362054
 21
136082.3717806104
 31
-44.31839369027442
  0
LINE
  5
102
330
2
100
AcDbEntity
  8
teren$0$A-PlantOutdoor-G
370
     5
100
AcDbLine
 10
219076.585392632
 20
136114.5765599961
 30
-15.0
 11
219124.9213567146
 21
136108.4703076969
 31
-53.16410724939787
  0
LINE
  5
103
330
2
100
AcDbEntity
  8
teren$0$A-PlantOutdoor-G
370
     5
100
AcDbLine
 10
219078.9856756403
 20
136139.9689018943
 30
-15.0
 11
219108.9264774931
 21
136138.0851863083
 31
-38.5
  0
LINE
  5
104
330
2
100
AcDbEntity
  8
teren$0$A-PlantOutdoor-G
370
     5
100
AcDbLine
 10
219079.7868238984
 20
136165.4618528231
 30
0.0
 11
219130.1513750006
 21
136165.4618528231
 31
-54.45223169673797
  0
LINE
  5
105
330
2
100
AcDbEntity
  8
teren$0$A-PlantOutdoor-G
370
     5
100
AcDbLine
 10
219079.7868238984
 20
136416.2100482179
 30
0.0
 11
219130.7284225801
 21
136416.2100482179
 31
0.0
  0
LINE
  5
106
330
2
100
AcDbEntity
  8
teren$0$A-PlantOutdoor-G
370
     5
100
AcDbLine
 10
219079.7868238984
 20
136436.2100482179
 30
0.0
 11
219108.4885995069
 21
136436.2100482179
 31
0.0
  0
LINE
  5
107
330
2
100
AcDbEntity
  8
teren$0$A-PlantOutdoor-G
370
     5
100
AcDbLine
 10
219079.7868238984
 20
136456.2100482179
 30
0.0
 11
219130.7284225801
 21
136456.2100482179
 31
0.0
  0
LINE
  5
108
330
2
100
AcDbEntity
  8
teren$0$A-PlantOutdoor-G
370
     5
100
AcDbLine
 10
219079.7868238984
 20
136390.8359505205
 30
0.0
 11
219108.4885995069
 21
136390.8359505205
 31
0.0
  0
LINE
  5
109
330
2
100
AcDbEntity
  8
teren$0$A-PlantOutdoor-G
370
     5
100
AcDbLine
 10
219079.7868238984
 20
136290.8359505205
 30
0.0
 11
219130.7284225801
 21
136290.8359505205
 31
0.0
  0
LINE
  5
10A
330
2
100
AcDbEntity
  8
teren$0$A-PlantOutdoor-G
370
     5
100
AcDbLine
 10
219079.7868238984
 20
136310.8359505205
 30
0.0
 11
219108.4885995069
 21
136310.8359505205
 31
0.0
  0
LINE
  5
10B
330
2
100
AcDbEntity
  8
teren$0$A-PlantOutdoor-G
370
     5
100
AcDbLine
 10
219079.7868238984
 20
136330.8359505205
 30
0.0
 11
219130.7284225801
 21
136330.8359505205
 31
0.0
  0
LINE
  5
10C
330
2
100
AcDbEntity
  8
teren$0$A-PlantOutdoor-G
370
     5
100
AcDbLine
 10
219079.7868238984
 20
136350.8359505205
 30
0.0
 11
219108.4885995069
 21
136350.8359505205
 31
0.0
  0
LINE
  5
10D
330
2
100
AcDbEntity
  8
teren$0$A-PlantOutdoor-G
370
     5
100
AcDbLine
 10
219079.7868238984
 20
136370.8359505205
 30
0.0
 11
219130.7284225801
 21
136370.8359505205
 31
0.0
  0
LINE
  5
10E
330
2
100
AcDbEntity
  8
teren$0$A-PlantOutdoor-G
370
     5
100
AcDbLine
 10
219079.7868238984
 20
136265.4618528231
 30
0.0
 11
219108.4885995069
 21
136265.4618528231
 31
0.0
  0
LINE
  5
10F
330
2
100
AcDbEntity
  8
teren$0$A-PlantOutdoor-G
370
     5
100
AcDbLine
 10
219079.7868238984
 20
136165.4618528231
 30
0.0
 11
219130.7284225801
 21
136165.4618528231
 31
0.0
  0
LINE
  5
110
330
2
100
AcDbEntity
  8
teren$0$A-PlantOutdoor-G
370
     5
100
AcDbLine
 10
219079.7868238984
 20
136185.4618528231
 30
0.0
 11
219108.4885995069
 21
136185.4618528231
 31
0.0
  0
LINE
  5
111
330
2
100
AcDbEntity
  8
teren$0$A-PlantOutdoor-G
370
     5
100
AcDbLine
 10
219079.7868238984
 20
136205.4618528231
 30
0.0
 11
219130.7284225801
 21
136205.4618528231
 31
0.0
  0
LINE
  5
112
330
2
100
AcDbEntity
  8
teren$0$A-PlantOutdoor-G
370
     5
100
AcDbLine
 10
219079.7868238984
 20
136225.4618528231
 30
0.0
 11
219108.4885995069
 21
136225.4618528231
 31
0.0
  0
LINE
  5
113
330
2
100
AcDbEntity
  8
teren$0$A-PlantOutdoor-G
370
     5
100
AcDbLine
 10
219079.7868238984
 20
136245.4618528231
 30
0.0
 11
219130.7284225801
 21
136245.4618528231
 31
0.0
  0
LINE
  5
114
330
2
100
AcDbEntity
  8
teren$0$A-PlantOutdoor-G
370
     5
100
AcDbLine
 10
219079.7868238984
 20
136501.5841459153
 30
0.0
 11
219130.7284225801
 21
136501.5841459153
 31
0.0
  0
LINE
  5
115
330
2
100
AcDbEntity
  8
teren$0$A-PlantOutdoor-G
370
     5
100
AcDbLine
 10
219079.7868238984
 20
136521.5841459153
 30
0.0
 11
219108.4885995069
 21
136521.5841459153
 31
0.0
  0
LINE
  5
116
330
2
100
AcDbEntity
  8
teren$0$A-PlantOutdoor-G
370
     5
100
AcDbLine
 10
219079.7868238984
 20
136476.2100482179
 30
0.0
 11
219108.4885995069
 21
136476.2100482179
 31
0.0
  0
LINE
  5
117
330
2
100
AcDbEntity
  8
teren$0$A-PlantOutdoor-G
370
     5
100
AcDbLine
 10
218846.9642243479
 20
137058.0375456188
 30
-14.99999999999999
 11
218850.100078246
 21
137087.8732024799
 31
-38.5
  0
LINE
  5
118
330
2
100
AcDbEntity
  8
teren$0$A-PlantOutdoor-G
370
     5
100
AcDbLine
 10
218873.843863511
 20
137053.7802290139
 30
-15.0
 11
218884.2716636759
 21
137102.8391716455
 31
-54.28804306489375
  0
LINE
  5
119
330
2
100
AcDbEntity
  8
teren$0$A-PlantOutdoor-G
370
     5
100
AcDbLine
 10
218900.1312424359
 20
137046.7365470599
 30
-14.99999999999864
 11
218909.4017522671
 21
137075.2682425487
 31
-38.5
  0
LINE
  5
11A
330
2
100
AcDbEntity
  8
teren$0$A-PlantOutdoor-G
370
     5
100
AcDbLine
 10
218925.5383510981
 20
137036.9836718102
 30
-15.0
 11
218945.9985679418
 21
137082.9380712434
 31
-54.40429300828372
  0
LINE
  5
11B
330
2
100
AcDbEntity
  8
teren$0$A-PlantOutdoor-G
370
     5
100
AcDbLine
 10
218949.7868238984
 20
137024.6284578071
 30
-14.99999999999999
 11
218964.7868238984
 21
137050.6092199206
 31
-38.5
  0
LINE
  5
11C
330
2
100
AcDbEntity
  8
teren$0$A-PlantOutdoor-G
370
     5
100
AcDbLine
 10
218972.6109894944
 20
137009.8062713606
 30
-15.0
 11
219003.1961665956
 21
137051.903156157
 31
-55.76044547868886
  0
LINE
  5
11D
330
2
100
AcDbEntity
  8
teren$0$A-PlantOutdoor-G
370
     5
100
AcDbLine
 10
218993.7607815517
 20
136992.6795074472
 30
-15.0
 11
219013.8346997424
 21
137014.9738522116
 31
-38.5
  0
LINE
  5
11E
330
2
100
AcDbEntity
  8
teren$0$A-PlantOutdoor-G
370
     5
100
AcDbLine
 10
219013.0044785226
 20
136973.4358104764
 30
-15.0
 11
219051.3620193014
 21
137007.9730953231
 31
-55.43187713446099
  0
LINE
  5
11F
330
2
100
AcDbEntity
  8
teren$0$A-PlantOutdoor-G
370
     5
100
AcDbLine
 10
219030.1312424359
 20
136952.2860184191
 30
-15.0
 11
219054.4017522671
 21
136969.9195759879
 31
-38.5
  0
LINE
  5
120
330
2
100
AcDbEntity
  8
teren$0$A-PlantOutdoor-G
370
     5
100
AcDbLine
 10
219044.9534288823
 20
136929.4618528231
 30
-14.99999999999982
 11
219087.7219436869
 21
136954.1542663584
 31
-53.68478120532552
  0
LINE
  5
121
330
2
100
AcDbEntity
  8
teren$0$A-PlantOutdoor-G
370
     5
100
AcDbLine
 10
219057.3086428855
 20
136905.2133800227
 30
-15.0
 11
219084.7150066147
 21
136917.4154793151
 31
-38.5
  0
LINE
  5
122
330
2
100
AcDbEntity
  8
teren$0$A-PlantOutdoor-G
370
     5
100
AcDbLine
 10
219067.0615181351
 20
136879.8062713606
 30
-14.99999999999425
 11
219112.1445040128
 21
136894.4546214373
 31
-52.13239434155138
  0
LINE
  5
123
330
2
100
AcDbEntity
  8
teren$0$A-PlantOutdoor-G
370
     5
100
AcDbLine
 10
219074.1052000891
 20
136853.5188924358
 30
-15.0
 11
219103.4496281112
 21
136859.7562431603
 31
-38.5
  0
LINE
  5
124
330
2
100
AcDbEntity
  8
teren$0$A-PlantOutdoor-G
370
     5
100
AcDbLine
 10
219078.3625166941
 20
136826.6392532728
 30
-15.0
 11
219130.7509314702
 21
136832.1454975445
 31
-56.26363810162971
  0
LINE
  5
125
330
2
100
AcDbEntity
  8
teren$0$A-PlantOutdoor-G
370
     5
100
AcDbLine
 10
219079.7868238984
 20
136799.4618528231
 30
0.0
 11
219109.7868238983
 21
136799.4618528231
 31
-38.5
  0
LINE
  5
126
330
2
100
AcDbEntity
  8
teren$0$A-PlantOutdoor-G
370
     5
100
AcDbLine
 10
219079.7868238984
 20
136775.6868510564
 30
-15.0
 11
219134.8377846801
 21
136775.6868510564
 31
-58.12325261239458
  0
LINE
  5
127
330
2
100
AcDbEntity
  8
teren$0$A-PlantOutdoor-G
370
     5
100
AcDbLine
 10
219079.7868238984
 20
136751.9118492898
 30
-15.0
 11
219109.7868238983
 21
136751.9118492898
 31
-38.5
  0
LINE
  5
128
330
2
100
AcDbEntity
  8
teren$0$A-PlantOutdoor-G
370
     5
100
AcDbLine
 10
219079.7868238984
 20
136728.1368475232
 30
-15.0
 11
219130.3656070341
 21
136728.1368475232
 31
-54.62004678964392
  0
LINE
  5
129
330
2
100
AcDbEntity
  8
teren$0$A-PlantOutdoor-G
370
     5
100
AcDbLine
 10
217998.6547758655
 20
135759.4146486424
 30
0.0
 11
217971.3295011975
 21
135735.5132475645
 31
0.0
  0
LINE
  5
12A
330
2
100
AcDbEntity
  8
teren$0$A-PlantOutdoor-G
370
     5
100
AcDbLine
 10
217965.0980961713
 20
135759.4618528231
 30
0.0
 11
217924.7130637282
 21
135715.6533876222
 31
0.0
  0
LINE
  5
12B
330
2
100
AcDbEntity
  8
teren$0$A-PlantOutdoor-G
370
     5
100
AcDbLine
 10
217931.2702781031
 20
135759.4618528231
 30
0.0
 11
217910.5285510007
 21
135729.4618528231
 31
0.0
  0
LINE
  5
12C
330
2
100
AcDbEntity
  8
teren$0$A-PlantOutdoor-G
370
     5
100
AcDbLine
 10
217897.4424600348
 20
135759.4618528231
 30
0.0
 11
217874.0911644703
 21
135708.8002904943
 31
0.0
  0
LINE
  5
12D
330
2
100
AcDbEntity
  8
teren$0$A-PlantOutdoor-G
370
     5
100
AcDbLine
 10
217863.6146419666
 20
135759.4618528231
 30
0.0
 11
217856.7007329325
 21
135729.4618528231
 31
0.0
  0
LINE
  5
12E
330
2
100
AcDbEntity
  8
teren$0$A-PlantOutdoor-G
370
     5
100
AcDbLine
 10
217829.7868238983
 20
135759.4618528231
 30
0.0
 11
217829.7868238983
 21
135711.419150412
 31
0.0
  0
LINE
  5
12F
330
2
100
AcDbEntity
  8
teren$0$A-PlantOutdoor-G
370
     5
100
AcDbLine
 10
217808.6681711179
 20
135761.1239268428
 30
0.0
 11
217803.9751371667
 21
135731.4932766249
 31
0.0
  0
LINE
  5
130
330
2
100
AcDbEntity
  8
teren$0$A-PlantOutdoor-G
370
     5
100
AcDbLine
 10
217788.0695296577
 20
135766.0692231233
 30
0.0
 11
217773.939044927
 21
135722.5800628952
 31
0.0
  0
LINE
  5
131
330
2
100
AcDbEntity
  8
teren$0$A-PlantOutdoor-G
370
     5
100
AcDbLine
 10
217768.4981064335
 20
135774.1759720577
 30
0.0
 11
217754.8783914413
 21
135747.445776332
 31
0.0
  0
LINE
  5
132
330
2
100
AcDbEntity
  8
teren$0$A-PlantOutdoor-G
370
     5
100
AcDbLine
 10
217750.4358148389
 20
135785.2445585825
 30
0.0
 11
217723.2164925206
 21
135747.7803754562
 31
0.0
  0
LINE
  5
133
330
2
100
AcDbEntity
  8
teren$0$A-PlantOutdoor-G
370
     5
100
AcDbLine
 10
217734.3274084382
 20
135799.0024373629
 30
0.0
 11
217713.1142050026
 21
135777.7892339274
 31
0.0
  0
LINE
  5
134
330
2
100
AcDbEntity
  8
teren$0$A-PlantOutdoor-G
370
     5
100
AcDbLine
 10
217720.5695296577
 20
135815.1108437636
 30
0.0
 11
217685.197005975
 21
135789.4112009852
 31
0.0
  0
LINE
  5
135
330
2
100
AcDbEntity
  8
teren$0$A-PlantOutdoor-G
370
     5
100
AcDbLine
 10
217709.5009431329
 20
135833.1731353583
 30
0.0
 11
217682.7707474073
 21
135819.5534203661
 31
0.0
  0
LINE
  5
136
330
2
100
AcDbEntity
  8
teren$0$A-PlantOutdoor-G
370
     5
100
AcDbLine
 10
217701.3941941985
 20
135852.7445585825
 30
0.0
 11
217655.9681296821
 21
135837.9847354987
 31
0.0
  0
LINE
  5
137
330
2
100
AcDbEntity
  8
teren$0$A-PlantOutdoor-G
370
     5
100
AcDbLine
 10
217696.448897918
 20
135873.3432000427
 30
0.0
 11
217651.9723115533
 21
135866.2988008038
 31
0.0
  0
LINE
  5
138
330
2
100
AcDbEntity
  8
teren$0$A-PlantOutdoor-G
370
     5
100
AcDbLine
 10
217694.7868238984
 20
135894.4618528231
 30
0.0
 11
217649.3916477647
 21
135894.4618528231
 31
0.0
  0
LINE
  5
139
330
2
100
AcDbEntity
  8
TEREN$0$A-MassElement-G
  6
Continuous
 62
   210
370
     5
100
AcDbLine
 10
217929.7868238984
 20
135699.4618528231
 30
0.0
 11
217829.7868238983
 21
135699.4618528231
 31
0.0
  0
LINE
  5
13A
330
2
100
AcDbEntity
  8
TEREN$0$A-MassElement-G
  6
Continuous
 62
   210
370
     5
100
AcDbLine
 10
217829.7868238983
 20
135699.4618528231
 30
0.0
 11
217799.2821032155
 21
135701.8626264071
 31
0.0
  0
LINE
  5
13B
330
2
100
AcDbEntity
  8
TEREN$0$A-MassElement-G
  6
Continuous
 62
   210
370
     5
100
AcDbLine
 10
217799.2821032155
 20
135701.8626264071
 30
0.0
 11
217769.5285099952
 21
135709.0058321456
 31
0.0
  0
LINE
  5
13C
330
2
100
AcDbEntity
  8
TEREN$0$A-MassElement-G
  6
Continuous
 62
   210
370
     5
100
AcDbLine
 10
217769.5285099952
 20
135709.0058321456
 30
0.0
 11
217741.2586764491
 21
135720.7155806064
 31
0.0
  0
LINE
  5
13D
330
2
100
AcDbEntity
  8
TEREN$0$A-MassElement-G
  6
Continuous
 62
   210
370
     5
100
AcDbLine
 10
217741.2586764491
 20
135720.7155806064
 30
0.0
 11
217715.1686997013
 21
135736.70353892
 31
0.0
  0
LINE
  5
13E
330
2
100
AcDbEntity
  8
TEREN$0$A-MassElement-G
  6
Continuous
 62
   210
370
     5
100
AcDbLine
 10
217715.1686997013
 20
135736.70353892
 30
0.0
 11
217691.901001567
 21
135756.5760304917
 31
0.0
  0
LINE
  5
13F
330
2
100
AcDbEntity
  8
TEREN$0$A-MassElement-G
  6
Continuous
 62
   210
370
     5
100
AcDbLine
 10
217691.901001567
 20
135756.5760304917
 30
0.0
 11
217672.0285099952
 21
135779.8437286261
 31
0.0
  0
LINE
  5
140
330
2
100
AcDbEntity
  8
TEREN$0$A-MassElement-G
  6
Continuous
 62
   210
370
     5
100
AcDbLine
 10
217672.0285099952
 20
135779.8437286261
 30
0.0
 11
217656.0405516816
 21
135805.9337053739
 31
0.0
  0
LINE
  5
141
330
2
100
AcDbEntity
  8
TEREN$0$A-MassElement-G
  6
Continuous
 62
   210
370
     5
100
AcDbLine
 10
217656.0405516816
 20
135805.9337053739
 30
0.0
 11
217644.3308032208
 21
135834.20353892
 31
0.0
  0
LINE
  5
142
330
2
100
AcDbEntity
  8
TEREN$0$A-MassElement-G
  6
Continuous
 62
   210
370
     5
100
AcDbLine
 10
217644.3308032208
 20
135834.20353892
 30
0.0
 11
217637.172818729
 21
135864.1449140059
 31
0.0
  0
LINE
  5
143
330
2
100
AcDbEntity
  8
TEREN$0$A-MassElement-G
  6
Continuous
 62
   210
370
     5
100
AcDbLine
 10
217634.7868238984
 20
135894.4618528231
 30
0.0
 11
217637.2166124757
 21
135863.9617276637
 31
0.0
  0
LINE
  5
144
330
2
100
AcDbEntity
  8
TEREN$0$A-MassElement-G
  6
Continuous
 62
   210
370
     5
100
AcDbLine
 10
217694.3933153642
 20
135899.4618528231
 30
0.0
 11
217696.448897918
 21
135873.3432000427
 31
0.0
  0
LINE
  5
145
330
2
100
AcDbEntity
  8
TEREN$0$A-MassElement-G
  6
Continuous
 62
   210
370
     5
100
AcDbLine
 10
217696.448897918
 20
135873.3432000427
 30
0.0
 11
217701.3941941985
 21
135852.7445585825
 31
0.0
  0
LINE
  5
146
330
2
100
AcDbEntity
  8
TEREN$0$A-MassElement-G
  6
Continuous
 62
   210
370
     5
100
AcDbLine
 10
217701.3941941985
 20
135852.7445585825
 30
0.0
 11
217709.5009431329
 21
135833.1731353583
 31
0.0
  0
LINE
  5
147
330
2
100
AcDbEntity
  8
TEREN$0$A-MassElement-G
  6
Continuous
 62
   210
370
     5
100
AcDbLine
 10
217709.5009431329
 20
135833.1731353583
 30
0.0
 11
217720.5695296577
 21
135815.1108437636
 31
0.0
  0
LINE
  5
148
330
2
100
AcDbEntity
  8
TEREN$0$A-MassElement-G
  6
Continuous
 62
   210
370
     5
100
AcDbLine
 10
217720.5695296577
 20
135815.1108437636
 30
0.0
 11
217734.3274084382
 21
135799.0024373629
 31
0.0
  0
LINE
  5
149
330
2
100
AcDbEntity
  8
TEREN$0$A-MassElement-G
  6
Continuous
 62
   210
370
     5
100
AcDbLine
 10
217734.3274084382
 20
135799.0024373629
 30
0.0
 11
217750.4358148389
 21
135785.2445585825
 31
0.0
  0
LINE
  5
14A
330
2
100
AcDbEntity
  8
TEREN$0$A-MassElement-G
  6
Continuous
 62
   210
370
     5
100
AcDbLine
 10
217750.4358148389
 20
135785.2445585825
 30
0.0
 11
217768.4981064335
 21
135774.1759720577
 31
0.0
  0
LINE
  5
14B
330
2
100
AcDbEntity
  8
TEREN$0$A-MassElement-G
  6
Continuous
 62
   210
370
     5
100
AcDbLine
 10
217768.4981064335
 20
135774.1759720577
 30
0.0
 11
217788.0695296577
 21
135766.0692231233
 31
0.0
  0
LINE
  5
14C
330
2
100
AcDbEntity
  8
TEREN$0$A-MassElement-G
  6
Continuous
 62
   210
370
     5
100
AcDbLine
 10
217788.0695296577
 20
135766.0692231233
 30
0.0
 11
217808.6681711179
 21
135761.1239268428
 31
0.0
  0
LINE
  5
14D
330
2
100
AcDbEntity
  8
TEREN$0$A-MassElement-G
  6
Continuous
 62
   210
370
     5
100
AcDbLine
 10
217808.6681711179
 20
135761.1239268428
 30
0.0
 11
217829.7868238983
 21
135759.4618528231
 31
0.0
  0
LINE
  5
14E
330
2
100
AcDbEntity
  8
TEREN$0$A-MassElement-G
  6
Continuous
 62
   210
370
     5
100
AcDbLine
 10
217829.7868238983
 20
135759.4618528231
 30
0.0
 11
217998.6547758655
 21
135759.4146486424
 31
0.0
  0
LINE
  5
14F
330
2
100
AcDbEntity
  8
teren$0$A-PlantOutdoor-G
370
     5
100
AcDbLine
 10
218047.8251566001
 20
136803.0503209597
 30
0.0
 11
218004.4543251604
 21
136806.664556913
 31
0.0
  0
HATCH
  5
150
330
2
100
AcDbEntity
  8
0Hatch
 48
4.0
100
AcDbHatch
 10
0.0
 20
0.0
 30
0.0
210
0.0
220
0.0
230
1.0
  2
SOLID
 70
     1
 71
     0
 91
        1
 92
        7
 72
     0
 73
     1
 93
        8
 10
217319.7868238984
 20
136618.4618528231
 10
217399.9870602314
 20
136618.4618528231
 10
217399.9870602314
 20
136678.4618528231
 10
217259.7868238984
 20
136678.4618528231
 10
217259.7868238984
 20
136000.4618528231
 10
217329.7868238984
 20
136000.4618528231
 10
217329.7868238984
 20
136060.4618528231
 10
217319.7868238984
 20
136060.4618528231
 97
        0
 75
     0
 76
     1
 47
1.583881310445319
 98
        1
 10
217295.7603234584
 20
136213.8413065777
1001
ACAD
1010
0.0
1020
0.0
1030
0.0
  0
HATCH
  5
151
330
2
100
AcDbEntity
  8
0Hatch
 48
4.0
100
AcDbHatch
 10
0.0
 20
0.0
 30
0.0
210
0.0
220
0.0
230
1.0
  2
SOLID
 70
     1
 71
     0
 91
        1
 92
        7
 72
     0
 73
     1
 93
        8
 10
217569.7868238984
 20
136060.4618528231
 10
217569.7868238984
 20
136000.4618528231
 10
217639.7868238983
 20
136000.4618528231
 10
217639.7868238984
 20
135899.4618528231
 10
218139.7868238984
 20
135899.4618528231
 10
218139.7868238984
 20
135959.4618528231
 10
217699.7868238983
 20
135959.4618528231
 10
217699.7868238984
 20
136060.4618528231
 97
        0
 75
     0
 76
     1
 47
1.583881310445319
 98
        1
 10
217636.5045449311
 20
136036.4466106708
1001
ACAD
1010
0.0
1020
0.0
1030
0.0
  0
HATCH
  5
152
330
2
100
AcDbEntity
  8
0Hatch
 48
4.0
100
AcDbHatch
 10
0.0
 20
0.0
 30
0.0
210
0.0
220
0.0
230
1.0
  2
SOLID
 70
     1
 71
     0
 91
        1
 92
        7
 72
     0
 73
     1
 93
       20
 10
217699.7868238984
 20
136618.4618528231
 10
217699.7868238984
 20
136719.4618528231
 10
218679.7868238984
 20
136719.4618528231
 10
218679.7868238984
 20
136468.4618528231
 10
218769.7868238982
 20
136468.4618528231
 10
218769.7868238982
 20
136210.5261161839
 10
218679.7868238984
 20
136210.3337373193
 10
218679.7868238984
 20
135959.4618528231
 10
218239.7868238984
 20
135959.4618528231
 10
218239.7868238984
 20
135899.4618528231
 10
218739.7868238984
 20
135899.4618528231
 10
218739.7868238984
 20
136150.4618528231
 10
218829.7868238982
 20
136150.6542316878
 10
218829.7868238982
 20
136528.4618528231
 10
218739.7868238984
 20
136528.4618528231
 10
218739.7868238984
 20
136779.4618528231
 10
217639.7868238984
 20
136779.4618528231
 10
217639.7868238984
 20
136678.4618528231
 10
217499.9870602314
 20
136678.4618528231
 10
217499.9870602313
 20
136618.4618528231
 97
        0
 75
     0
 76
     1
 47
1.987654777062425
 98
        1
 10
217636.8168944881
 20
136647.2534133406
1001
ACAD
1010
0.0
1020
0.0
1030
0.0
  0
LINE
  5
153
330
2
100
AcDbEntity
  8
A-Wall D-G
  6
Continuous
 62
     7
370
     5
100
AcDbLine
 10
217499.9870602313
 20
136678.4618528231
 30
0.0
 11
217499.9870602313
 21
136618.4618528231
 31
0.0
  0
LINE
  5
156
330
2
100
AcDbEntity
  8
A-Wall D-G
  6
Continuous
 62
     7
370
     5
100
AcDbLine
 10
217399.9870602314
 20
136678.4618528231
 30
0.0
 11
217399.9870602314
 21
136617.4729438643
 31
0.0
  0
LINE
  5
157
330
2
100
AcDbEntity
  8
A-Wall D-G
  6
Continuous
 62
     7
370
     5
100
AcDbLine
 10
217329.7868238984
 20
136000.4618528231
 30
0.0
 11
217329.7868238984
 21
136060.4618528231
 31
0.0
  0
LINE
  5
158
330
2
100
AcDbEntity
  8
A-Wall D-G
  6
Continuous
 62
     7
370
     5
100
AcDbLine
 10
217569.7868238984
 20
136000.4618528231
 30
0.0
 11
217569.7868238984
 21
136060.4618528231
 31
0.0
  0
LINE
  5
159
330
2
100
AcDbEntity
  8
A-Wall D-G
  6
Continuous
 62
     7
370
     5
100
AcDbLine
 10
218139.7868238984
 20
135899.4618528231
 30
0.0
 11
218139.7868238984
 21
135959.4618528231
 31
0.0
  0
LINE
  5
15A
330
2
100
AcDbEntity
  8
A-Wall D-G
  6
Continuous
 62
     7
370
     5
100
AcDbLine
 10
218239.7868238984
 20
135899.4618528231
 30
0.0
 11
218239.7868238984
 21
135959.4618528231
 31
0.0
  0
LWPOLYLINE
  5
15B
330
2
100
AcDbEntity
  8
TEREN$0$A-MassElement-G
  6
Continuous
 62
   210
370
     5
100
AcDbPolyline
 90
       10
 70
     0
 43
0.0
 10
218898.2583005605
 20
135757.0898270461
 10
218872.1999737677
 20
135743.8124463739
 10
218845.3328654494
 20
135732.1860103992
 10
218817.7887432771
 20
135722.2695162296
 10
218789.6763113172
 20
135714.1020997372
 10
218761.1065164953
 20
135707.7159939835
 10
218732.1921107393
 20
135703.1364020105
 10
218703.047205999
 20
135700.3813973755
 10
218673.7868238984
 20
135699.4618528231
 10
218449.7868238984
 20
135699.4618528231
  0
LWPOLYLINE
  5
15C
330
2
100
AcDbEntity
  8
TEREN$0$A-MassElement-G
  6
Continuous
 62
   210
370
     5
100
AcDbPolyline
 90
       28
 70
     0
 43
0.0
 10
218380.9135532973
 20
135759.4618528231
 10
218673.7868238984
 20
135759.4618528231
 10
218699.2797748272
 20
135760.2630010812
 10
218724.6721167255
 20
135762.6632840894
 10
218749.8636376202
 20
135766.6532290273
 10
218774.7549180873
 20
135772.2170894049
 10
218799.2477236146
 20
135779.3329072073
 10
218823.2453922883
 20
135787.9725995525
 10
218846.6532162738
 20
135798.1020695219
 10
218869.3788155837
 20
135809.6813407253
 10
218891.3325026598
 20
135822.6647150693
 10
218912.4276363291
 20
135837.0009531069
 10
218932.5809637363
 20
135852.6334762562
 10
218951.7129489054
 20
135869.50059009
 10
218969.7480866314
 20
135887.5357278161
 10
218986.6152004653
 20
135906.6677129852
 10
219002.2477236146
 20
135926.8210403924
 10
219016.5839616522
 20
135947.9161740617
 10
219029.5673359962
 20
135969.8698611378
 10
219041.1466071996
 20
135992.5954604477
 10
219051.276077169
 20
136016.0032844331
 10
219059.9157695142
 20
136040.0009531069
 10
219067.0315873166
 20
136064.4937586342
 10
219072.5954476942
 20
136089.3850391013
 10
219076.585392632
 20
136114.576559996
 10
219078.9856756403
 20
136139.9689018942
 10
219079.7868238984
 20
136165.4618528231
 10
219079.7868238984
 20
136524.3618457565
  0
LWPOLYLINE
  5
15D
330
2
100
AcDbEntity
  8
teren$0$A-PlantOutdoor-G
370
     5
100
AcDbPolyline
 90
        2
 70
     0
 43
0.0
 10
218080.1534740119
 20
137059.4618528231
 10
218070.153474012
 20
137089.4618528231
  0
LWPOLYLINE
  5
15E
330
2
100
AcDbEntity
  8
teren$0$A-PlantOutdoor-G
370
     5
100
AcDbPolyline
 90
        2
 70
     0
 43
0.0
 10
218065.5201241256
 20
137059.4618528231
 10
218033.3703316884
 20
137107.686541479
  0
LWPOLYLINE
  5
15F
330
2
100
AcDbEntity
  8
teren$0$A-PlantOutdoor-G
370
     5
100
AcDbPolyline
 90
        2
 70
     0
 43
0.0
 10
218050.8867742393
 20
137059.4618528231
 10
218020.8867742392
 20
137089.4618528231
  0
LWPOLYLINE
  5
160
330
2
100
AcDbEntity
  8
teren$0$A-PlantOutdoor-G
370
     5
100
AcDbPolyline
 90
        2
 70
     0
 43
0.0
 10
218050.8867742393
 20
137036.1285194898
 10
218000.4394766884
 20
137082.3718755781
  0
LWPOLYLINE
  5
161
330
2
100
AcDbEntity
  8
teren$0$A-PlantOutdoor-G
370
     5
100
AcDbPolyline
 90
        2
 70
     0
 43
0.0
 10
218050.8867742393
 20
137012.7951861564
 10
218020.8867742392
 20
137037.7951861565
  0
LWPOLYLINE
  5
162
330
2
100
AcDbEntity
  8
teren$0$A-PlantOutdoor-G
370
     5
100
AcDbPolyline
 90
        2
 70
     0
 43
0.0
 10
218050.8867742393
 20
136989.4618528231
 10
218001.9018466627
 20
137026.2005485054
  0
LWPOLYLINE
  5
163
330
2
100
AcDbEntity
  8
teren$0$A-PlantOutdoor-G
370
     5
100
AcDbPolyline
 90
        2
 70
     0
 43
0.0
 10
218050.8867742393
 20
136966.1285194898
 10
218020.8867742392
 20
136986.1285194898
  0
LWPOLYLINE
  5
164
330
2
100
AcDbEntity
  8
teren$0$A-PlantOutdoor-G
370
     5
100
AcDbPolyline
 90
        2
 70
     0
 43
0.0
 10
218050.8867742393
 20
136942.7951861564
 10
218003.5687589285
 20
136970.3973617544
  0
LWPOLYLINE
  5
165
330
2
100
AcDbEntity
  8
teren$0$A-PlantOutdoor-G
370
     5
100
AcDbPolyline
 90
        2
 70
     0
 43
0.0
 10
218050.8867742393
 20
136919.4618528231
 10
218020.8867742392
 20
136934.4618528231
  0
LWPOLYLINE
  5
166
330
2
100
AcDbEntity
  8
teren$0$A-PlantOutdoor-G
370
     5
100
AcDbPolyline
 90
        2
 70
     0
 43
0.0
 10
218050.8867742393
 20
136896.1285194898
 10
218002.3458307686
 20
136916.3539126025
  0
LWPOLYLINE
  5
167
330
2
100
AcDbEntity
  8
teren$0$A-PlantOutdoor-G
370
     5
100
AcDbPolyline
 90
        2
 70
     0
 43
0.0
 10
218050.8867742393
 20
136872.7951861564
 10
218020.8867742392
 20
136882.7951861565
  0
LWPOLYLINE
  5
168
330
2
100
AcDbEntity
  8
teren$0$A-PlantOutdoor-G
370
     5
100
AcDbPolyline
 90
        2
 70
     0
 43
0.0
 10
218050.8867742393
 20
136849.4618528231
 10
217995.3734614888
 20
136863.3401810107
  0
LWPOLYLINE
  5
169
330
2
100
AcDbEntity
  8
teren$0$A-PlantOutdoor-G
370
     5
100
AcDbPolyline
 90
        2
 70
     0
 43
0.0
 10
218050.8867742393
 20
136826.1285194898
 10
218024.739630748
 20
136830.4863767383
  0
LWPOLYLINE
  5
16A
330
2
100
AcDbEntity
  8
TEREN$0$A-MassElement-G
  6
Continuous
 62
   210
370
     5
100
AcDbPolyline
 90
        3
 70
     0
 43
0.0
 10
217990.8867742392
 20
136779.4618528231
 10
217990.8867742392
 20
137119.4618528231
 10
218094.7868238984
 20
137119.4618528231
  0
LWPOLYLINE
  5
16B
330
2
100
AcDbEntity
  8
A-Wall D-G
  6
Continuous
 62
     7
370
     5
100
AcDbPolyline
 90
       12
 70
     1
 43
0.0
 10
217259.7868238984
 20
136678.4618528231
 10
217259.7868238984
 20
136000.4618528231
 10
217639.7868238984
 20
136000.4618528231
 10
217639.7868238984
 20
135899.4618528231
 10
218739.7868238984
 20
135899.4618528231
 10
218739.7868238984
 20
136150.4618528231
 10
218829.7868238982
 20
136150.6542316878
 10
218829.7868238982
 20
136528.4618528231
 10
218739.7868238984
 20
136528.4618528231
 10
218739.7868238984
 20
136779.4618528231
 10
217639.7868238984
 20
136779.4618528231
 10
217639.7868238984
 20
136678.4618528231
  0
LWPOLYLINE
  5
16C
330
2
100
AcDbEntity
  8
A-Wall D-G
  6
Continuous
 62
     7
370
     5
100
AcDbPolyline
 90
       12
 70
     1
 43
0.0
 10
217319.7868238984
 20
136618.4618528231
 10
217319.7868238984
 20
136060.4618528231
 10
217699.7868238984
 20
136060.4618528231
 10
217699.7868238984
 20
135959.4618528231
 10
218679.7868238984
 20
135959.4618528231
 10
218679.7868238984
 20
136210.3337373192
 10
218769.7868238982
 20
136210.5261161839
 10
218769.7868238982
 20
136468.4618528231
 10
218679.7868238984
 20
136468.4618528231
 10
218679.7868238984
 20
136719.4618528231
 10
217699.7868238984
 20
136719.4618528231
 10
217699.7868238984
 20
136618.4618528231
  0
DIMENSION
  5
16D
330
2
100
AcDbEntity
  8
0Wymiary-PL
100
AcDbDimension
  2
*D1
 10
217639.7868238984
 20
137297.4787603711
 30
0.0
 11
217449.7868238983
 21
137377.4787603712
 31
0.0
 71
     5
 42
380.0
  3
500
100
AcDbAlignedDimension
 13
217259.7868238984
 23
136235.916753274
 33
0.0
 14
217639.7868238984
 24
136779.4618528231
 34
0.0
100
AcDbRotatedDimension
  0
DIMENSION
  5
186
330
2
100
AcDbEntity
  8
0Wymiary-PL
100
AcDbDimension
  2
*D2
 10
218739.7868238984
 20
137297.4787603711
 30
0.0
 11
218189.7868238984
 21
137377.4787603712
 31
0.0
 71
     5
 42
1100.0
  3
500
100
AcDbAlignedDimension
 13
217639.7868238984
 23
136779.4618528231
 33
0.0
 14
218739.7868238984
 24
136779.4618528231
 34
0.0
100
AcDbRotatedDimension
  0
DIMENSION
  5
191
330
2
100
AcDbEntity
  8
0Wymiary-PL
100
AcDbDimension
  2
*D3
 10
218829.7868238984
 20
137297.4787603711
 30
0.0
 11
218784.7868238984
 21
137377.4787603712
 31
0.0
 71
     5
 42
90.0
  3
500
100
AcDbAlignedDimension
 13
218739.7868238984
 23
136779.4618528231
 33
0.0
 14
218829.7868238984
 24
136528.4618528231
 34
0.0
100
AcDbRotatedDimension
  0
DIMENSION
  5
19E
330
2
100
AcDbEntity
  8
0Wymiary-PL
100
AcDbDimension
  2
*D4
 10
217259.7868238984
 20
137555.3097628788
 30
0.0
 11
218044.7868238983
 21
137635.3097628788
 31
0.0
 71
     5
 42
1570.0
  3
500
100
AcDbAlignedDimension
 13
218829.7868238984
 23
136528.4618528231
 33
0.0
 14
217259.7868238984
 24
136678.4618528231
 34
0.0
100
AcDbRotatedDimension
  0
DIMENSION
  5
1A9
330
2
100
AcDbEntity
  8
0Wymiary-PL
100
AcDbDimension
  2
*D5
 10
217034.0156972632
 20
136678.4618528231
 30
0.0
 11
216954.0156972631
 21
136728.9618528232
 31
0.0
 71
     5
 42
101.0
  3
500
100
AcDbAlignedDimension
 13
217639.7868238984
 23
136779.4618528231
 33
0.0
 14
217639.7868238984
 24
136678.4618528231
 34
0.0
 50
90.0
100
AcDbRotatedDimension
  0
DIMENSION
  5
1B6
330
2
100
AcDbEntity
  8
0Wymiary-PL
100
AcDbDimension
  2
*D6
 10
217034.0156972632
 20
136000.4618528231
 30
0.0
 11
216954.0156972631
 21
136339.4618528232
 31
0.0
 71
     5
 42
678.0
  3
500
100
AcDbAlignedDimension
 13
217639.7868238984
 23
136678.4618528231
 33
0.0
 14
217259.7868238984
 24
136000.4618528231
 34
0.0
 50
90.0
100
AcDbRotatedDimension
  0
DIMENSION
  5
1C1
330
2
100
AcDbEntity
  8
0Wymiary-PL
100
AcDbDimension
  2
*D7
 10
217034.0156972632
 20
135899.4618528231
 30
0.0
 11
216954.0156972631
 21
135949.9618528232
 31
0.0
 71
     5
 42
101.0
  3
500
100
AcDbAlignedDimension
 13
217259.7868238984
 23
136000.4618528231
 33
0.0
 14
217770.6014586135
 24
135899.4618528231
 34
0.0
 50
90.0
100
AcDbRotatedDimension
  0
DIMENSION
  5
1CE
330
2
100
AcDbEntity
  8
0Wymiary-PL
100
AcDbDimension
  2
*D8
 10
216760.5957784626
 20
136779.4618528231
 30
0.0
 11
216680.5957784626
 21
136339.4618528232
 31
0.0
 71
     5
 42
880.0
  3
500
100
AcDbAlignedDimension
 13
217770.6014586135
 23
135899.4618528231
 33
0.0
 14
217770.6014586135
 24
136779.4618528231
 34
0.0
 50
90.0
100
AcDbRotatedDimension
  0
LINE
  5
1D9
330
2
100
AcDbEntity
  8
TEREN$0$A-MassElement-G
  6
Continuous
 62
   210
370
     5
100
AcDbLine
 10
222534.9916658467
 20
137119.4618528231
 30
0.0
 11
222684.9916658467
 21
137119.4618528231
 31
0.0
  0
LINE
  5
1DA
330
2
100
AcDbEntity
  8
TEREN$0$A-MassElement-G
  6
Continuous
 62
   210
370
     5
100
AcDbLine
 10
222534.9916658467
 20
137089.4618528231
 30
0.0
 11
222684.9916658467
 21
137089.4618528231
 31
0.0
  0
LINE
  5
1DB
330
2
100
AcDbEntity
  8
TEREN$0$A-MassElement-G
  6
Continuous
 62
   210
370
     5
100
AcDbLine
 10
222684.9916658467
 20
137029.4618528231
 30
0.0
 11
222684.9916658467
 21
137119.4618528231
 31
0.0
  0
LINE
  5
1DC
330
2
100
AcDbEntity
  8
TEREN$0$A-MassElement-G
  6
Continuous
 62
   210
370
     5
100
AcDbLine
 10
222534.9916658467
 20
137029.4618528231
 30
0.0
 11
222534.9916658467
 21
137119.4618528231
 31
0.0
  0
LINE
  5
1DD
330
2
100
AcDbEntity
  8
TEREN$0$A-MassElement-G
  6
Continuous
 62
   210
370
     5
100
AcDbLine
 10
222534.9916658467
 20
137059.4618528231
 30
0.0
 11
222684.9916658467
 21
137059.4618528231
 31
0.0
  0
LINE
  5
1DE
330
2
100
AcDbEntity
  8
TEREN$0$A-MassElement-G
  6
Continuous
 62
   210
370
     5
100
AcDbLine
 10
222059.9916658467
 20
136528.4618528231
 30
0.0
 11
221969.9916658467
 21
136528.4618528231
 31
0.0
  0
ARC
  5
1DF
330
2
100
AcDbEntity
  8
TEREN$0$A-MassElement-G
  6
Continuous
 62
   210
370
     5
100
AcDbCircle
 10
221980.3028843847
 20
136411.2132008383
 30
0.0
 40
230.7515578881974
100
AcDbArc
 50
176.4597971666419
 51
267.4388641220359
  0
ARC
  5
1E0
330
2
100
AcDbEntity
  8
TEREN$0$A-MassElement-G
  6
Continuous
 62
   210
370
     5
100
AcDbCircle
 10
221979.9916658467
 20
136799.4618528231
 30
0.0
 40
230.0000000000088
100
AcDbArc
 50
90.0
 51
180.0
  0
LINE
  5
1E1
330
2
100
AcDbEntity
  8
TEREN$0$A-MassElement-G
  6
Continuous
 62
   210
370
     5
100
AcDbLine
 10
221979.9916658467
 20
137029.4618528231
 30
0.0
 11
222718.8917155059
 21
137029.4618528231
 31
0.0
  0
ARC
  5
1E2
330
2
100
AcDbEntity
  8
TEREN$0$A-MassElement-G
  6
Continuous
 62
   210
370
     5
100
AcDbCircle
 10
-222869.9916658467
 20
135769.4618528231
 30
0.0
 40
89.99999999999079
210
0.0
220
0.0
230
-1.0
100
AcDbArc
 50
270.0
 51
0.000000000000007
  0
LINE
  5
1E3
330
2
100
AcDbEntity
  8
TEREN$0$A-MassElement-G
  6
Continuous
 62
   210
370
     5
100
AcDbLine
 10
222434.8444795891
 20
135739.4618528231
 30
0.0
 11
222785.1388521044
 21
135739.4618528231
 31
0.0
  0
LINE
  5
1E4
330
2
100
AcDbEntity
  8
TEREN$0$A-MassElement-G
  6
Continuous
 62
   210
370
     5
100
AcDbLine
 10
222869.9916658467
 20
135679.4618528231
 30
0.0
 11
222349.9916658468
 21
135679.4618528231
 31
0.0
  0
ARC
  5
1E5
330
2
100
AcDbEntity
  8
TEREN$0$A-MassElement-G
  6
Continuous
 62
   210
370
     5
100
AcDbCircle
 10
-222349.9916658467
 20
135769.4618528231
 30
0.0
 40
90.00000000000627
210
0.0
220
0.0
230
-1.0
100
AcDbArc
 50
180.0
 51
270.0
  0
LINE
  5
1E6
330
2
100
AcDbEntity
  8
TEREN$0$A-MassElement-G
  6
Continuous
 62
   210
370
     5
100
AcDbLine
 10
222417.0737051717
 20
135709.4618528231
 30
0.0
 11
222802.9096265217
 21
135709.4618528231
 31
0.0
  0
LINE
  5
1E7
330
2
100
AcDbEntity
  8
TEREN$0$A-MassElement-G
  6
Continuous
 62
   210
370
     5
100
AcDbLine
 10
222439.9916658467
 20
135769.4618528231
 30
0.0
 11
222439.9916658467
 21
135899.4618528231
 31
0.0
  0
LINE
  5
1E8
330
2
100
AcDbEntity
  8
TEREN$0$A-MassElement-G
  6
Continuous
 62
   210
370
     5
100
AcDbLine
 10
222419.9916658467
 20
135899.4618528231
 30
0.0
 11
222419.9916658467
 21
135769.4618528231
 31
0.0
  0
3DFACE
  5
1E9
330
2
100
AcDbEntity
  8
TEREN$0$A-MassElement-G
  6
Continuous
 62
   210
370
     5
100
AcDbFace
 10
222349.9916658468
 20
135699.4618528231
 30
0.0
 11
222349.9916658468
 21
135679.4618528231
 31
0.0
 12
222349.9916658468
 22
135679.4618528231
 32
0.0
 13
222349.9916658468
 23
135699.4618528231
 33
0.0
  0
3DFACE
  5
1EA
330
2
100
AcDbEntity
  8
TEREN$0$A-MassElement-G
  6
Continuous
 62
   210
370
     5
100
AcDbFace
 10
222365.5681312237
 20
135701.2168989704
 30
0.0
 11
222349.9916658468
 21
135699.4618528231
 31
0.0
 12
222349.9916658468
 22
135699.4618528231
 32
0.0
 13
222365.5681312237
 23
135701.2168989704
 33
0.0
  0
3DFACE
  5
1EB
330
2
100
AcDbEntity
  8
TEREN$0$A-MassElement-G
  6
Continuous
 62
   210
370
     5
100
AcDbFace
 10
222380.3635275849
 20
135706.3940320699
 30
0.0
 11
222365.5681312237
 21
135701.2168989704
 31
0.0
 12
222365.5681312237
 22
135701.2168989704
 32
0.0
 13
222380.3635275849
 23
135706.3940320699
 33
0.0
  0
3DFACE
  5
1EC
330
2
100
AcDbEntity
  8
TEREN$0$A-MassElement-G
  6
Continuous
 62
   210
370
     5
100
AcDbFace
 10
222393.6359519768
 20
135714.7336490503
 30
0.0
 11
222380.3635275849
 21
135706.3940320699
 31
0.0
 12
222380.3635275849
 22
135706.3940320699
 32
0.0
 13
222393.6359519768
 23
135714.7336490503
 33
0.0
  0
3DFACE
  5
1ED
330
2
100
AcDbEntity
  8
TEREN$0$A-MassElement-G
  6
Continuous
 62
   210
370
     5
100
AcDbFace
 10
222404.7198696195
 20
135725.817566693
 30
0.0
 11
222393.6359519768
 21
135714.7336490503
 31
0.0
 12
222393.6359519768
 22
135714.7336490503
 32
0.0
 13
222404.7198696195
 23
135725.817566693
 33
0.0
  0
3DFACE
  5
1EE
330
2
100
AcDbEntity
  8
TEREN$0$A-MassElement-G
  6
Continuous
 62
   210
370
     5
100
AcDbFace
 10
222413.0594865999
 20
135739.0899910849
 30
0.0
 11
222404.7198696195
 21
135725.817566693
 31
0.0
 12
222404.7198696195
 22
135725.817566693
 32
0.0
 13
222413.0594865999
 23
135739.0899910849
 33
0.0
  0
3DFACE
  5
1EF
330
2
100
AcDbEntity
  8
TEREN$0$A-MassElement-G
  6
Continuous
 62
   210
370
     5
100
AcDbFace
 10
222418.2366196994
 20
135753.8853874462
 30
0.0
 11
222413.0594865999
 21
135739.0899910849
 31
0.0
 12
222413.0594865999
 22
135739.0899910849
 32
0.0
 13
222418.2366196994
 23
135753.8853874462
 33
0.0
  0
3DFACE
  5
1F0
330
2
100
AcDbEntity
  8
TEREN$0$A-MassElement-G
  6
Continuous
 62
   210
370
     5
100
AcDbFace
 10
222419.9916658467
 20
135769.4618528231
 30
0.0
 11
222418.2366196994
 21
135753.8853874462
 31
0.0
 12
222418.2366196994
 22
135753.8853874462
 32
0.0
 13
222419.9916658467
 23
135769.4618528231
 33
0.0
  0
3DFACE
  5
1F1
330
2
100
AcDbEntity
  8
TEREN$0$A-MassElement-G
  6
Continuous
 62
   210
370
     5
100
AcDbFace
 10
222439.9916658467
 20
135769.4618528231
 30
0.0
 11
222439.9916658467
 21
135769.4618528231
 31
0.0
 12
222419.9916658467
 22
135769.4618528231
 32
0.0
 13
222419.9916658467
 23
135769.4618528231
 33
0.0
  0
3DFACE
  5
1F2
330
2
100
AcDbEntity
  8
TEREN$0$A-MassElement-G
  6
Continuous
 62
   210
370
     5
100
AcDbFace
 10
222365.5681312237
 20
135701.2168989704
 30
0.0
 11
222365.5681312237
 21
135701.2168989704
 31
0.0
 12
222349.9916658468
 22
135699.4618528231
 32
0.0
 13
222349.9916658468
 23
135679.4618528231
 33
0.0
 70
     9
  0
3DFACE
  5
1F3
330
2
100
AcDbEntity
  8
TEREN$0$A-MassElement-G
  6
Continuous
 62
   210
370
     5
100
AcDbFace
 10
222380.3635275849
 20
135706.3940320699
 30
0.0
 11
222380.3635275849
 21
135706.3940320699
 31
0.0
 12
222365.5681312237
 22
135701.2168989704
 32
0.0
 13
222349.9916658468
 23
135679.4618528231
 33
0.0
 70
    13
  0
3DFACE
  5
1F4
330
2
100
AcDbEntity
  8
TEREN$0$A-MassElement-G
  6
Continuous
 62
   210
370
     5
100
AcDbFace
 10
222418.2366196994
 20
135753.8853874462
 30
0.0
 11
222418.2366196994
 21
135753.8853874462
 31
0.0
 12
222419.9916658467
 22
135769.4618528231
 32
0.0
 13
222439.9916658467
 23
135769.4618528231
 33
0.0
 70
     9
  0
3DFACE
  5
1F5
330
2
100
AcDbEntity
  8
TEREN$0$A-MassElement-G
  6
Continuous
 62
   210
370
     5
100
AcDbFace
 10
222413.0594865999
 20
135739.0899910849
 30
0.0
 11
222413.0594865999
 21
135739.0899910849
 31
0.0
 12
222418.2366196994
 22
135753.8853874462
 32
0.0
 13
222439.9916658467
 23
135769.4618528231
 33
0.0
 70
    13
  0
LINE
  5
1F6
330
2
100
AcDbEntity
  8
TEREN$0$A-MassElement-G
  6
Continuous
 62
   210
370
     5
100
AcDbLine
 10
222799.9916658467
 20
135899.4618528231
 30
0.0
 11
222799.9916658467
 21
135769.4618528231
 31
0.0
  0
LINE
  5
1F7
330
2
100
AcDbEntity
  8
TEREN$0$A-MassElement-G
  6
Continuous
 62
   210
370
     5
100
AcDbLine
 10
222799.9916658467
 20
135769.4618528231
 30
0.0
 11
222419.9916658467
 21
135769.4618528231
 31
0.0
  0
3DFACE
  5
1F8
330
2
100
AcDbEntity
  8
TEREN$0$A-MassElement-G
  6
Continuous
 62
   210
370
     5
100
AcDbFace
 10
222869.9916658467
 20
135699.4618528231
 30
0.0
 11
222869.9916658467
 21
135699.4618528231
 31
0.0
 12
222869.9916658467
 22
135679.4618528231
 32
0.0
 13
222869.9916658467
 23
135679.4618528231
 33
0.0
  0
3DFACE
  5
1F9
330
2
100
AcDbEntity
  8
TEREN$0$A-MassElement-G
  6
Continuous
 62
   210
370
     5
100
AcDbFace
 10
222854.4152004698
 20
135701.2168989704
 30
0.0
 11
222854.4152004698
 21
135701.2168989704
 31
0.0
 12
222869.9916658467
 22
135699.4618528231
 32
0.0
 13
222869.9916658467
 23
135699.4618528231
 33
0.0
  0
3DFACE
  5
1FA
330
2
100
AcDbEntity
  8
TEREN$0$A-MassElement-G
  6
Continuous
 62
   210
370
     5
100
AcDbFace
 10
222839.6198041085
 20
135706.3940320699
 30
0.0
 11
222839.6198041085
 21
135706.3940320699
 31
0.0
 12
222854.4152004698
 22
135701.2168989704
 32
0.0
 13
222854.4152004698
 23
135701.2168989704
 33
0.0
  0
3DFACE
  5
1FB
330
2
100
AcDbEntity
  8
TEREN$0$A-MassElement-G
  6
Continuous
 62
   210
370
     5
100
AcDbFace
 10
222826.3473797166
 20
135714.7336490503
 30
0.0
 11
222826.3473797166
 21
135714.7336490503
 31
0.0
 12
222839.6198041085
 22
135706.3940320699
 32
0.0
 13
222839.6198041085
 23
135706.3940320699
 33
0.0
  0
3DFACE
  5
1FC
330
2
100
AcDbEntity
  8
TEREN$0$A-MassElement-G
  6
Continuous
 62
   210
370
     5
100
AcDbFace
 10
222815.263462074
 20
135725.817566693
 30
0.0
 11
222815.263462074
 21
135725.817566693
 31
0.0
 12
222826.3473797166
 22
135714.7336490503
 32
0.0
 13
222826.3473797166
 23
135714.7336490503
 33
0.0
  0
3DFACE
  5
1FD
330
2
100
AcDbEntity
  8
TEREN$0$A-MassElement-G
  6
Continuous
 62
   210
370
     5
100
AcDbFace
 10
222806.9238450936
 20
135739.0899910849
 30
0.0
 11
222806.9238450936
 21
135739.0899910849
 31
0.0
 12
222815.263462074
 22
135725.817566693
 32
0.0
 13
222815.263462074
 23
135725.817566693
 33
0.0
  0
3DFACE
  5
1FE
330
2
100
AcDbEntity
  8
TEREN$0$A-MassElement-G
  6
Continuous
 62
   210
370
     5
100
AcDbFace
 10
222801.746711994
 20
135753.8853874462
 30
0.0
 11
222801.746711994
 21
135753.8853874462
 31
0.0
 12
222806.9238450936
 22
135739.0899910849
 32
0.0
 13
222806.9238450936
 23
135739.0899910849
 33
0.0
  0
3DFACE
  5
1FF
330
2
100
AcDbEntity
  8
TEREN$0$A-MassElement-G
  6
Continuous
 62
   210
370
     5
100
AcDbFace
 10
222799.9916658467
 20
135769.4618528231
 30
0.0
 11
222799.9916658467
 21
135769.4618528231
 31
0.0
 12
222801.746711994
 22
135753.8853874462
 32
0.0
 13
222801.746711994
 23
135753.8853874462
 33
0.0
  0
3DFACE
  5
200
330
2
100
AcDbEntity
  8
TEREN$0$A-MassElement-G
  6
Continuous
 62
   210
370
     5
100
AcDbFace
 10
222779.9916658467
 20
135769.4618528231
 30
0.0
 11
222799.9916658467
 21
135769.4618528231
 31
0.0
 12
222799.9916658467
 22
135769.4618528231
 32
0.0
 13
222779.9916658467
 23
135769.4618528231
 33
0.0
  0
3DFACE
  5
201
330
2
100
AcDbEntity
  8
TEREN$0$A-MassElement-G
  6
Continuous
 62
   210
370
     5
100
AcDbFace
 10
222801.746711994
 20
135753.8853874462
 30
0.0
 11
222801.746711994
 21
135753.8853874462
 31
0.0
 12
222799.9916658467
 22
135769.4618528231
 32
0.0
 13
222779.9916658467
 23
135769.4618528231
 33
0.0
 70
     9
  0
3DFACE
  5
202
330
2
100
AcDbEntity
  8
TEREN$0$A-MassElement-G
  6
Continuous
 62
   210
370
     5
100
AcDbFace
 10
222806.9238450936
 20
135739.0899910849
 30
0.0
 11
222806.9238450936
 21
135739.0899910849
 31
0.0
 12
222801.746711994
 22
135753.8853874462
 32
0.0
 13
222779.9916658467
 23
135769.4618528231
 33
0.0
 70
    13
  0
3DFACE
  5
203
330
2
100
AcDbEntity
  8
TEREN$0$A-MassElement-G
  6
Continuous
 62
   210
370
     5
100
AcDbFace
 10
222854.4152004698
 20
135701.2168989704
 30
0.0
 11
222854.4152004698
 21
135701.2168989704
 31
0.0
 12
222869.9916658467
 22
135699.4618528231
 32
0.0
 13
222869.9916658467
 23
135679.4618528231
 33
0.0
 70
     9
  0
3DFACE
  5
204
330
2
100
AcDbEntity
  8
TEREN$0$A-MassElement-G
  6
Continuous
 62
   210
370
     5
100
AcDbFace
 10
222839.6198041085
 20
135706.3940320699
 30
0.0
 11
222839.6198041085
 21
135706.3940320699
 31
0.0
 12
222854.4152004698
 22
135701.2168989704
 32
0.0
 13
222869.9916658467
 23
135679.4618528231
 33
0.0
 70
    13
  0
LINE
  5
205
330
2
100
AcDbEntity
  8
TEREN$0$A-MassElement-G
  6
Continuous
 62
   210
370
     5
100
AcDbLine
 10
221689.9916658467
 20
136544.3618457565
 30
0.0
 11
221689.9916658467
 21
136684.3618457565
 31
0.0
  0
LINE
  5
206
330
2
100
AcDbEntity
  8
TEREN$0$A-MassElement-G
  6
Continuous
 62
   210
370
     5
100
AcDbLine
 10
221749.9916658467
 20
136544.3618457565
 30
0.0
 11
221659.9916658467
 21
136544.3618457565
 31
0.0
  0
LINE
  5
207
330
2
100
AcDbEntity
  8
TEREN$0$A-MassElement-G
  6
Continuous
 62
   210
370
     5
100
AcDbLine
 10
221719.9916658467
 20
136544.3618457565
 30
0.0
 11
221719.9916658467
 21
136684.3618457565
 31
0.0
  0
LINE
  5
208
330
2
100
AcDbEntity
  8
TEREN$0$A-MassElement-G
  6
Continuous
 62
   210
370
     5
100
AcDbLine
 10
221749.9916658467
 20
136684.3618457565
 30
0.0
 11
221659.9916658467
 21
136684.3618457565
 31
0.0
  0
LINE
  5
209
330
2
100
AcDbEntity
  8
TEREN$0$A-MassElement-G
  6
Continuous
 62
   210
370
     5
100
AcDbLine
 10
222718.8917155059
 20
136779.4618528231
 30
0.0
 11
222718.8917155059
 21
137029.4618528231
 31
0.0
  0
LINE
  5
20A
330
2
100
AcDbEntity
  8
TEREN$0$A-MassElement-G
  6
Continuous
 62
   210
370
     5
100
AcDbLine
 10
222704.9916658467
 20
137029.4618528231
 30
0.0
 11
222704.9916658467
 21
137059.4618528231
 31
0.0
  0
LINE
  5
20B
330
2
100
AcDbEntity
  8
TEREN$0$A-MassElement-G
  6
Continuous
 62
   210
370
     5
100
AcDbLine
 10
222704.9916658467
 20
137059.4618528231
 30
0.0
 11
222748.8917155059
 21
137059.4618528231
 31
0.0
  0
LINE
  5
20C
330
2
100
AcDbEntity
  8
TEREN$0$A-MassElement-G
  6
Continuous
 62
   210
370
     5
100
AcDbLine
 10
222748.8917155059
 20
137059.4618528231
 30
0.0
 11
222748.8917155059
 21
136779.4618528231
 31
0.0
  0
ARC
  5
20D
330
2
100
AcDbEntity
  8
TEREN$0$A-MassElement-G
  6
Continuous
 62
   210
370
     5
100
AcDbCircle
 10
-221979.9916658467
 20
136799.4618528231
 30
0.0
 40
230.0000000000008
210
0.0
220
0.0
230
-1.0
100
AcDbArc
 50
0.000000000000007
 51
90.0
  0
LINE
  5
20E
330
2
100
AcDbEntity
  8
TEREN$0$A-MassElement-G
  6
Continuous
 62
   210
370
     5
100
AcDbLine
 10
221749.9916658467
 20
136704.3618457565
 30
0.0
 11
221719.9916658467
 21
136704.3618457565
 31
0.0
  0
LINE
  5
20F
330
2
100
AcDbEntity
  8
TEREN$0$A-MassElement-G
  6
Continuous
 62
   210
370
     5
100
AcDbLine
 10
222514.9916658467
 20
137059.4618528231
 30
0.0
 11
222514.9916658467
 21
137029.4618528231
 31
0.0
  0
LINE
  5
210
330
2
100
AcDbEntity
  8
TEREN$0$A-MassElement-G
  6
Continuous
 62
   210
370
     5
100
AcDbLine
 10
221749.9916658467
 20
136410.4618528231
 30
0.0
 11
221749.9916658467
 21
136799.4618528231
 31
0.0
  0
ARC
  5
211
330
2
100
AcDbEntity
  8
TEREN$0$A-MassElement-G
  6
Continuous
 62
   210
370
     5
100
AcDbCircle
 10
-221979.9916658467
 20
136410.4618528231
 30
0.0
 40
230.0000000000008
210
0.0
220
0.0
230
-1.0
100
AcDbArc
 50
272.4919063686896
 51
0.000000000000007
  0
LINE
  5
212
330
2
100
AcDbEntity
  8
TEREN$0$A-MassElement-G
  6
Continuous
 62
   210
370
     5
100
AcDbLine
 10
221969.9916658467
 20
136180.6793469616
 30
0.0
 11
221969.9916658467
 21
136150.6542316878
 31
0.0
  0
ARC
  5
213
330
2
100
AcDbEntity
  8
TEREN$0$A-MassElement-G
  6
Continuous
 62
   210
370
     5
100
AcDbCircle
 10
221979.9916658467
 20
136410.4618528231
 30
0.0
 40
260.0000000000004
100
AcDbArc
 50
180.0
 51
267.7957724973092
  0
LINE
  5
214
330
2
100
AcDbEntity
  8
TEREN$0$A-MassElement-G
  6
Continuous
 62
   210
370
     5
100
AcDbLine
 10
221749.9916658467
 20
136524.3618457565
 30
0.0
 11
221659.9916658467
 21
136524.3618457565
 31
0.0
  0
3DFACE
  5
215
330
2
100
AcDbEntity
  8
TEREN$0$A-MassElement-G
  6
Continuous
 62
   210
370
     5
100
AcDbFace
 10
222704.9916658467
 20
137029.4618528231
 30
0.0
 11
222704.9916658467
 21
137059.4618528231
 31
0.0
 12
222684.9916658467
 22
137059.4618528231
 32
0.0
 13
222684.9916658467
 23
137029.4618528231
 33
0.0
  0
3DFACE
  5
216
330
2
100
AcDbEntity
  8
TEREN$0$A-MassElement-G
  6
Continuous
 62
   210
370
     5
100
AcDbFace
 10
222704.9916658467
 20
137119.4618528231
 30
0.0
 11
222704.9916658467
 21
137119.4618528231
 31
0.0
 12
222704.9916658467
 22
137029.4618528231
 32
0.0
 13
222704.9916658467
 23
137029.4618528231
 33
0.0
 70
     2
  0
3DFACE
  5
217
330
2
100
AcDbEntity
  8
TEREN$0$A-MassElement-G
  6
Continuous
 62
   210
370
     5
100
AcDbFace
 10
222704.9916658467
 20
137029.4618528231
 30
0.0
 11
222704.9916658467
 21
137029.4618528231
 31
0.0
 12
222704.9916658467
 22
137119.4618528231
 32
0.0
 13
222704.9916658467
 23
137059.4618528231
 33
0.0
 70
     2
  0
3DFACE
  5
218
330
2
100
AcDbEntity
  8
TEREN$0$A-MassElement-G
  6
Continuous
 62
   210
370
     5
100
AcDbFace
 10
222704.9916658467
 20
137119.4618528231
 30
0.0
 11
222684.9916658467
 21
137119.4618528231
 31
0.0
 12
222684.9916658467
 22
137119.4618528231
 32
0.0
 13
222704.9916658467
 23
137119.4618528231
 33
0.0
  0
3DFACE
  5
219
330
2
100
AcDbEntity
  8
TEREN$0$A-MassElement-G
  6
Continuous
 62
   210
370
     5
100
AcDbFace
 10
222684.9916658467
 20
137029.4618528231
 30
0.0
 11
222684.9916658467
 21
137059.4618528231
 31
0.0
 12
222684.9916658467
 22
137119.4618528231
 32
0.0
 13
222684.9916658467
 23
137029.4618528231
 33
0.0
 70
     2
  0
3DFACE
  5
21A
330
2
100
AcDbEntity
  8
TEREN$0$A-MassElement-G
  6
Continuous
 62
   210
370
     5
100
AcDbFace
 10
222684.9916658467
 20
137119.4618528231
 30
0.0
 11
222684.9916658467
 21
137119.4618528231
 31
0.0
 12
222684.9916658467
 22
137059.4618528231
 32
0.0
 13
222684.9916658467
 23
137119.4618528231
 33
0.0
 70
     2
  0
3DFACE
  5
21B
330
2
100
AcDbEntity
  8
TEREN$0$A-MassElement-G
  6
Continuous
 62
   210
370
     5
100
AcDbFace
 10
222684.9916658467
 20
137059.4618528231
 30
0.0
 11
222704.9916658467
 21
137059.4618528231
 31
0.0
 12
222704.9916658467
 22
137119.4618528231
 32
0.0
 13
222684.9916658467
 23
137119.4618528231
 33
0.0
  0
3DFACE
  5
21C
330
2
100
AcDbEntity
  8
TEREN$0$A-MassElement-G
  6
Continuous
 62
   210
370
     5
100
AcDbFace
 10
222704.9916658467
 20
137029.4618528231
 30
0.0
 11
222684.9916658467
 21
137029.4618528231
 31
0.0
 12
222684.9916658467
 22
137029.4618528231
 32
0.0
 13
222704.9916658467
 23
137029.4618528231
 33
0.0
  0
3DFACE
  5
21D
330
2
100
AcDbEntity
  8
TEREN$0$A-MassElement-G
  6
Continuous
 62
   210
370
     5
100
AcDbFace
 10
222684.9916658467
 20
137119.4618528231
 30
0.0
 11
222704.9916658467
 21
137119.4618528231
 31
0.0
 12
222704.9916658467
 22
137029.4618528231
 32
0.0
 13
222684.9916658467
 23
137029.4618528231
 33
0.0
  0
3DFACE
  5
21E
330
2
100
AcDbEntity
  8
TEREN$0$A-MassElement-G
  6
Continuous
 62
   210
370
     5
100
AcDbFace
 10
222534.9916658467
 20
137059.4618528231
 30
0.0
 11
222514.9916658467
 21
137059.4618528231
 31
0.0
 12
222514.9916658467
 22
137029.4618528231
 32
0.0
 13
222534.9916658467
 23
137029.4618528231
 33
0.0
  0
3DFACE
  5
21F
330
2
100
AcDbEntity
  8
TEREN$0$A-MassElement-G
  6
Continuous
 62
   210
370
     5
100
AcDbFace
 10
222514.9916658467
 20
137119.4618528231
 30
0.0
 11
222514.9916658467
 21
137029.4618528231
 31
0.0
 12
222514.9916658467
 22
137059.4618528231
 32
0.0
 13
222514.9916658467
 23
137119.4618528231
 33
0.0
 70
     2
  0
3DFACE
  5
220
330
2
100
AcDbEntity
  8
TEREN$0$A-MassElement-G
  6
Continuous
 62
   210
370
     5
100
AcDbFace
 10
222514.9916658467
 20
137059.4618528231
 30
0.0
 11
222514.9916658467
 21
137059.4618528231
 31
0.0
 12
222514.9916658467
 22
137029.4618528231
 32
0.0
 13
222514.9916658467
 23
137029.4618528231
 33
0.0
 70
     2
  0
3DFACE
  5
221
330
2
100
AcDbEntity
  8
TEREN$0$A-MassElement-G
  6
Continuous
 62
   210
370
     5
100
AcDbFace
 10
222534.9916658467
 20
137119.4618528231
 30
0.0
 11
222534.9916658467
 21
137119.4618528231
 31
0.0
 12
222514.9916658467
 22
137119.4618528231
 32
0.0
 13
222514.9916658467
 23
137119.4618528231
 33
0.0
  0
3DFACE
  5
222
330
2
100
AcDbEntity
  8
TEREN$0$A-MassElement-G
  6
Continuous
 62
   210
370
     5
100
AcDbFace
 10
222534.9916658467
 20
137029.4618528231
 30
0.0
 11
222534.9916658467
 21
137029.4618528231
 31
0.0
 12
222534.9916658467
 22
137119.4618528231
 32
0.0
 13
222534.9916658467
 23
137059.4618528231
 33
0.0
 70
     2
  0
3DFACE
  5
223
330
2
100
AcDbEntity
  8
TEREN$0$A-MassElement-G
  6
Continuous
 62
   210
370
     5
100
AcDbFace
 10
222534.9916658467
 20
137119.4618528231
 30
0.0
 11
222534.9916658467
 21
137119.4618528231
 31
0.0
 12
222534.9916658467
 22
137029.4618528231
 32
0.0
 13
222534.9916658467
 23
137119.4618528231
 33
0.0
 70
     2
  0
3DFACE
  5
224
330
2
100
AcDbEntity
  8
TEREN$0$A-MassElement-G
  6
Continuous
 62
   210
370
     5
100
AcDbFace
 10
222514.9916658467
 20
137119.4618528231
 30
0.0
 11
222514.9916658467
 21
137059.4618528231
 31
0.0
 12
222534.9916658467
 22
137059.4618528231
 32
0.0
 13
222534.9916658467
 23
137119.4618528231
 33
0.0
  0
3DFACE
  5
225
330
2
100
AcDbEntity
  8
TEREN$0$A-MassElement-G
  6
Continuous
 62
   210
370
     5
100
AcDbFace
 10
222534.9916658467
 20
137029.4618528231
 30
0.0
 11
222534.9916658467
 21
137029.4618528231
 31
0.0
 12
222514.9916658467
 22
137029.4618528231
 32
0.0
 13
222514.9916658467
 23
137029.4618528231
 33
0.0
  0
3DFACE
  5
226
330
2
100
AcDbEntity
  8
TEREN$0$A-MassElement-G
  6
Continuous
 62
   210
370
     5
100
AcDbFace
 10
222514.9916658467
 20
137029.4618528231
 30
0.0
 11
222514.9916658467
 21
137119.4618528231
 31
0.0
 12
222534.9916658467
 22
137119.4618528231
 32
0.0
 13
222534.9916658467
 23
137029.4618528231
 33
0.0
  0
3DFACE
  5
227
330
2
100
AcDbEntity
  8
TEREN$0$A-MassElement-G
  6
Continuous
 62
   210
370
     5
100
AcDbFace
 10
221719.9916658467
 20
136704.3618457565
 30
0.0
 11
221719.9916658467
 21
136684.3618457565
 31
0.0
 12
221749.9916658467
 22
136684.3618457565
 32
0.0
 13
221749.9916658467
 23
136704.3618457565
 33
0.0
  0
3DFACE
  5
228
330
2
100
AcDbEntity
  8
TEREN$0$A-MassElement-G
  6
Continuous
 62
   210
370
     5
100
AcDbFace
 10
221659.9916658467
 20
136704.3618457565
 30
0.0
 11
221719.9916658467
 21
136704.3618457565
 31
0.0
 12
221749.9916658467
 22
136704.3618457565
 32
0.0
 13
221659.9916658467
 23
136704.3618457565
 33
0.0
 70
     2
  0
3DFACE
  5
229
330
2
100
AcDbEntity
  8
TEREN$0$A-MassElement-G
  6
Continuous
 62
   210
370
     5
100
AcDbFace
 10
221749.9916658467
 20
136704.3618457565
 30
0.0
 11
221749.9916658467
 21
136704.3618457565
 31
0.0
 12
221719.9916658467
 22
136704.3618457565
 32
0.0
 13
221749.9916658467
 23
136704.3618457565
 33
0.0
 70
     2
  0
3DFACE
  5
22A
330
2
100
AcDbEntity
  8
TEREN$0$A-MassElement-G
  6
Continuous
 62
   210
370
     5
100
AcDbFace
 10
221659.9916658467
 20
136684.3618457565
 30
0.0
 11
221659.9916658467
 21
136684.3618457565
 31
0.0
 12
221659.9916658467
 22
136704.3618457565
 32
0.0
 13
221659.9916658467
 23
136704.3618457565
 33
0.0
  0
3DFACE
  5
22B
330
2
100
AcDbEntity
  8
TEREN$0$A-MassElement-G
  6
Continuous
 62
   210
370
     5
100
AcDbFace
 10
221719.9916658467
 20
136684.3618457565
 30
0.0
 11
221659.9916658467
 21
136684.3618457565
 31
0.0
 12
221749.9916658467
 22
136684.3618457565
 32
0.0
 13
221749.9916658467
 23
136684.3618457565
 33
0.0
 70
     2
  0
3DFACE
  5
22C
330
2
100
AcDbEntity
  8
TEREN$0$A-MassElement-G
  6
Continuous
 62
   210
370
     5
100
AcDbFace
 10
221749.9916658467
 20
136684.3618457565
 30
0.0
 11
221749.9916658467
 21
136684.3618457565
 31
0.0
 12
221659.9916658467
 22
136684.3618457565
 32
0.0
 13
221659.9916658467
 23
136684.3618457565
 33
0.0
 70
     2
  0
3DFACE
  5
22D
330
2
100
AcDbEntity
  8
TEREN$0$A-MassElement-G
  6
Continuous
 62
   210
370
     5
100
AcDbFace
 10
221719.9916658467
 20
136704.3618457565
 30
0.0
 11
221659.9916658467
 21
136704.3618457565
 31
0.0
 12
221659.9916658467
 22
136684.3618457565
 32
0.0
 13
221719.9916658467
 23
136684.3618457565
 33
0.0
  0
3DFACE
  5
22E
330
2
100
AcDbEntity
  8
TEREN$0$A-MassElement-G
  6
Continuous
 62
   210
370
     5
100
AcDbFace
 10
221749.9916658467
 20
136684.3618457565
 30
0.0
 11
221749.9916658467
 21
136684.3618457565
 31
0.0
 12
221749.9916658467
 22
136704.3618457565
 32
0.0
 13
221749.9916658467
 23
136704.3618457565
 33
0.0
  0
3DFACE
  5
22F
330
2
100
AcDbEntity
  8
TEREN$0$A-MassElement-G
  6
Continuous
 62
   210
370
     5
100
AcDbFace
 10
221659.9916658467
 20
136704.3618457565
 30
0.0
 11
221749.9916658467
 21
136704.3618457565
 31
0.0
 12
221749.9916658467
 22
136684.3618457565
 32
0.0
 13
221659.9916658467
 23
136684.3618457565
 33
0.0
  0
3DFACE
  5
230
330
2
100
AcDbEntity
  8
TEREN$0$A-MassElement-G
  6
Continuous
 62
   210
370
     5
100
AcDbFace
 10
221749.9916658467
 20
136544.3618457565
 30
0.0
 11
221719.9916658467
 21
136544.3618457565
 31
0.0
 12
221719.9916658467
 22
136524.3618457565
 32
0.0
 13
221749.9916658467
 23
136524.3618457565
 33
0.0
  0
3DFACE
  5
231
330
2
100
AcDbEntity
  8
TEREN$0$A-MassElement-G
  6
Continuous
 62
   210
370
     5
100
AcDbFace
 10
221659.9916658467
 20
136524.3618457565
 30
0.0
 11
221659.9916658467
 21
136524.3618457565
 31
0.0
 12
221749.9916658467
 22
136524.3618457565
 32
0.0
 13
221719.9916658467
 23
136524.3618457565
 33
0.0
 70
     2
  0
3DFACE
  5
232
330
2
100
AcDbEntity
  8
TEREN$0$A-MassElement-G
  6
Continuous
 62
   210
370
     5
100
AcDbFace
 10
221749.9916658467
 20
136524.3618457565
 30
0.0
 11
221749.9916658467
 21
136524.3618457565
 31
0.0
 12
221659.9916658467
 22
136524.3618457565
 32
0.0
 13
221749.9916658467
 23
136524.3618457565
 33
0.0
 70
     2
  0
3DFACE
  5
233
330
2
100
AcDbEntity
  8
TEREN$0$A-MassElement-G
  6
Continuous
 62
   210
370
     5
100
AcDbFace
 10
221659.9916658467
 20
136524.3618457565
 30
0.0
 11
221659.9916658467
 21
136544.3618457565
 31
0.0
 12
221659.9916658467
 22
136544.3618457565
 32
0.0
 13
221659.9916658467
 23
136524.3618457565
 33
0.0
  0
3DFACE
  5
234
330
2
100
AcDbEntity
  8
TEREN$0$A-MassElement-G
  6
Continuous
 62
   210
370
     5
100
AcDbFace
 10
221719.9916658467
 20
136544.3618457565
 30
0.0
 11
221749.9916658467
 21
136544.3618457565
 31
0.0
 12
221659.9916658467
 22
136544.3618457565
 32
0.0
 13
221659.9916658467
 23
136544.3618457565
 33
0.0
 70
     2
  0
3DFACE
  5
235
330
2
100
AcDbEntity
  8
TEREN$0$A-MassElement-G
  6
Continuous
 62
   210
370
     5
100
AcDbFace
 10
221659.9916658467
 20
136544.3618457565
 30
0.0
 11
221659.9916658467
 21
136544.3618457565
 31
0.0
 12
221749.9916658467
 22
136544.3618457565
 32
0.0
 13
221749.9916658467
 23
136544.3618457565
 33
0.0
 70
     2
  0
3DFACE
  5
236
330
2
100
AcDbEntity
  8
TEREN$0$A-MassElement-G
  6
Continuous
 62
   210
370
     5
100
AcDbFace
 10
221659.9916658467
 20
136544.3618457565
 30
0.0
 11
221659.9916658467
 21
136524.3618457565
 31
0.0
 12
221719.9916658467
 22
136524.3618457565
 32
0.0
 13
221719.9916658467
 23
136544.3618457565
 33
0.0
  0
3DFACE
  5
237
330
2
100
AcDbEntity
  8
TEREN$0$A-MassElement-G
  6
Continuous
 62
   210
370
     5
100
AcDbFace
 10
221749.9916658467
 20
136524.3618457565
 30
0.0
 11
221749.9916658467
 21
136544.3618457565
 31
0.0
 12
221749.9916658467
 22
136544.3618457565
 32
0.0
 13
221749.9916658467
 23
136524.3618457565
 33
0.0
  0
3DFACE
  5
238
330
2
100
AcDbEntity
  8
TEREN$0$A-MassElement-G
  6
Continuous
 62
   210
370
     5
100
AcDbFace
 10
221749.9916658467
 20
136544.3618457565
 30
0.0
 11
221749.9916658467
 21
136524.3618457565
 31
0.0
 12
221659.9916658467
 22
136524.3618457565
 32
0.0
 13
221659.9916658467
 23
136544.3618457565
 33
0.0
  0
LINE
  5
239
330
2
100
AcDbEntity
  8
TEREN$0$A-MassElement-G
  6
Continuous
 62
   210
370
     5
100
AcDbLine
 10
223449.7914295137
 20
136713.4618528231
 30
0.0
 11
223449.7914295137
 21
136678.4618528231
 31
0.0
  0
LINE
  5
23A
330
2
100
AcDbEntity
  8
TEREN$0$A-MassElement-G
  6
Continuous
 62
   210
370
     5
100
AcDbLine
 10
223249.7914295137
 20
136678.4618528231
 30
0.0
 11
223249.7914295137
 21
136713.4618528231
 31
0.0
  0
LINE
  5
23B
330
2
100
AcDbEntity
  8
TEREN$0$A-MassElement-G
  6
Continuous
 62
   210
370
     5
100
AcDbLine
 10
223249.7914295137
 20
136713.4618528231
 30
0.0
 11
223449.7914295137
 21
136713.4618528231
 31
0.0
  0
LINE
  5
23C
330
2
100
AcDbEntity
  8
TEREN$0$A-MassElement-G
  6
Continuous
 62
   210
370
     5
100
AcDbLine
 10
223539.9916658467
 20
136000.4618528231
 30
0.0
 11
223539.9916658467
 21
135894.4618528231
 31
0.0
  0
LINE
  5
23D
330
2
100
AcDbEntity
  8
TEREN$0$A-MassElement-G
  6
Continuous
 62
   210
370
     5
100
AcDbLine
 10
223539.9916658467
 20
135894.4618528231
 30
0.0
 11
223164.9916658467
 21
135894.4618528231
 31
0.0
  0
LINE
  5
23E
330
2
100
AcDbEntity
  8
TEREN$0$A-MassElement-G
  6
Continuous
 62
   210
370
     5
100
AcDbLine
 10
223164.9916658467
 20
135894.4618528231
 30
0.0
 11
223164.9916658467
 21
136000.4618528231
 31
0.0
  0
CIRCLE
  5
23F
330
2
100
AcDbEntity
  8
TEREN$0$A-MassElement-G
  6
Continuous
 62
   210
370
     5
100
AcDbCircle
 10
222694.9916658467
 20
137110.3129166529
 30
0.0
 40
9.0
  0
CIRCLE
  5
240
330
2
100
AcDbEntity
  8
TEREN$0$A-MassElement-G
  6
Continuous
 62
   210
370
     5
100
AcDbCircle
 10
-222524.9916658467
 20
137110.3129166529
 30
0.0
 40
9.0
210
0.0
220
0.0
230
-1.0
  0
CIRCLE
  5
241
330
2
100
AcDbEntity
  8
TEREN$0$A-MassElement-G
  6
Continuous
 62
   210
370
     5
100
AcDbCircle
 10
221669.1406020169
 20
136694.3618457565
 30
0.0
 40
9.0
  0
CIRCLE
  5
242
330
2
100
AcDbEntity
  8
TEREN$0$A-MassElement-G
  6
Continuous
 62
   210
370
     5
100
AcDbCircle
 10
-221669.1406020169
 20
136534.3618457565
 30
0.0
 40
9.0
210
0.0
220
0.0
230
-1.0
  0
CIRCLE
  5
243
330
2
100
AcDbEntity
  8
A-Wall-G
370
     5
100
AcDbCircle
 10
222752.4916658467
 20
135821.9569325047
 30
0.0
 40
17.50492031843157
  0
HATCH
  5
244
330
2
100
AcDbEntity
  8
0Hatch
 48
4.0
100
AcDbHatch
 10
0.0
 20
0.0
 30
0.0
210
0.0
220
0.0
230
1.0
  2
SOLID
 70
     1
 71
     0
 91
        1
 92
        7
 72
     1
 73
     1
 93
        2
 10
222734.9916658467
 20
135821.9618528231
 42
-1.0
 10
222769.9916658467
 20
135821.9618528231
 42
-1.0
 97
        0
 75
     0
 76
     1
 47
1.508860821248343
 98
        1
 10
222753.4297703027
 20
135820.1622684594
1001
ACAD
1010
0.0
1020
0.0
1030
0.0
  0
CIRCLE
  5
245
330
2
100
AcDbEntity
  8
A-Wall-G
  6
Continuous
 62
     7
370
     5
100
AcDbCircle
 10
222752.4916658467
 20
135821.9618528231
 30
0.0
 40
17.5
  0
CIRCLE
  5
246
330
2
100
AcDbEntity
  8
A-MassElement-G
  6
Continuous
 62
   210
370
     5
100
AcDbCircle
 10
222752.4916658467
 20
135821.9618528231
 30
0.0
 40
22.5
  0
HATCH
  5
247
330
2
100
AcDbEntity
  8
0Hatch
 48
4.0
100
AcDbHatch
 10
0.0
 20
0.0
 30
0.0
210
0.0
220
0.0
230
1.0
  2
SOLID
 70
     1
 71
     1
 91
        1
 92
        7
 72
     1
 73
     1
 93
        2
 10
222484.9916658467
 20
135821.9618528231
 42
1.0
 10
222449.9916658467
 20
135821.9618528231
 42
1.0
 97
        1
330
248
 75
     0
 76
     1
 47
1.508860821248343
 98
        1
 10
222463.550123204
 20
135821.6711201793
1001
ACAD
1010
0.0
1020
0.0
1030
0.0
  0
CIRCLE
  5
248
102
{ACAD_REACTORS
330
247
102
}
330
2
100
AcDbEntity
  8
A-Wall-G
  6
Continuous
 62
     7
370
     5
100
AcDbCircle
 10
-222467.4916658467
 20
135821.9618528231
 30
0.0
 40
17.5
210
0.0
220
0.0
230
-1.0
  0
CIRCLE
  5
249
330
2
100
AcDbEntity
  8
A-MassElement-G
  6
Continuous
 62
   210
370
     5
100
AcDbCircle
 10
-222467.4916658467
 20
135821.9618528231
 30
0.0
 40
22.5
210
0.0
220
0.0
230
-1.0
  0
LINE
  5
24A
330
2
100
AcDbEntity
  8
TEREN$0$A-MassElement-G
  6
Continuous
 62
   210
370
     5
100
AcDbLine
 10
223164.9916658467
 20
135894.4618528231
 30
0.0
 11
223349.9916658467
 21
136000.4618528231
 31
0.0
  0
LINE
  5
24B
330
2
100
AcDbEntity
  8
TEREN$0$A-MassElement-G
  6
Continuous
 62
   210
370
     5
100
AcDbLine
 10
223349.9916658467
 20
136000.4618528231
 30
0.0
 11
223539.9916658467
 21
135894.4618528231
 31
0.0
  0
LINE
  5
24C
330
2
100
AcDbEntity
  8
TEREN$0$A-MassElement-G
  6
Continuous
 62
   210
370
     5
100
AcDbLine
 10
221719.9916658467
 20
136704.3618457565
 30
0.0
 11
221719.9916658467
 21
136799.4618528231
 31
0.0
  0
ARC
  5
24D
330
2
100
AcDbEntity
  8
TEREN$0$A-MassElement-G
  6
Continuous
 62
   210
370
     5
100
AcDbCircle
 10
221979.9916658467
 20
136799.4618528231
 30
0.0
 40
260.0000000000002
100
AcDbArc
 50
90.0
 51
180.0
  0
LINE
  5
24E
330
2
100
AcDbEntity
  8
TEREN$0$A-MassElement-G
  6
Continuous
 62
   210
370
     5
100
AcDbLine
 10
221979.9916658467
 20
137059.4618528231
 30
0.0
 11
222514.9916658467
 21
137059.4618528231
 31
0.0
  0
LINE
  5
24F
330
2
100
AcDbEntity
  8
teren$0$A-PlantOutdoor-G
370
     5
100
AcDbLine
 10
222401.8889466891
 20
137059.4618528231
 30
0.0
 11
222401.8889466891
 21
137110.4034515049
 31
0.0
  0
LINE
  5
250
330
2
100
AcDbEntity
  8
teren$0$A-PlantOutdoor-G
370
     5
100
AcDbLine
 10
222421.8889466891
 20
137059.4618528231
 30
0.0
 11
222421.8889466891
 21
137088.1636284317
 31
0.0
  0
LINE
  5
251
330
2
100
AcDbEntity
  8
teren$0$A-PlantOutdoor-G
370
     5
100
AcDbLine
 10
222441.8889466891
 20
137059.4618528231
 30
0.0
 11
222441.8889466891
 21
137110.4034515049
 31
0.0
  0
LINE
  5
252
330
2
100
AcDbEntity
  8
teren$0$A-PlantOutdoor-G
370
     5
100
AcDbLine
 10
222461.8889466891
 20
137059.4618528231
 30
0.0
 11
222461.8889466891
 21
137088.1636284317
 31
0.0
  0
LINE
  5
253
330
2
100
AcDbEntity
  8
teren$0$A-PlantOutdoor-G
370
     5
100
AcDbLine
 10
222481.8889466891
 20
137059.4618528231
 30
0.0
 11
222481.8889466891
 21
137110.4034515049
 31
0.0
  0
LINE
  5
254
330
2
100
AcDbEntity
  8
teren$0$A-PlantOutdoor-G
370
     5
100
AcDbLine
 10
222501.8889466891
 20
137059.4618528231
 30
0.0
 11
222501.8889466891
 21
137088.1636284317
 31
0.0
  0
LINE
  5
255
330
2
100
AcDbEntity
  8
teren$0$A-PlantOutdoor-G
370
     5
100
AcDbLine
 10
222376.5148489917
 20
137059.4618528231
 30
0.0
 11
222376.5148489917
 21
137088.1636284317
 31
0.0
  0
LINE
  5
256
330
2
100
AcDbEntity
  8
TEREN$0$A-MassElement-G
370
     5
100
AcDbLine
 10
222514.9916658467
 20
137119.4618528231
 30
0.0
 11
221979.9916658467
 21
137119.4618528231
 31
0.0
  0
LINE
  5
257
330
2
100
AcDbEntity
  8
TEREN$0$A-MassElement-G
  6
Continuous
 62
   210
370
     5
100
AcDbLine
 10
221979.9916658467
 20
137119.4618528231
 30
0.0
 11
221946.5425576011
 21
137117.708859341
 31
0.0
  0
LINE
  5
258
330
2
100
AcDbEntity
  8
TEREN$0$A-MassElement-G
  6
Continuous
 62
   210
370
     5
100
AcDbLine
 10
221946.5425576011
 20
137117.708859341
 30
0.0
 11
221913.459924785
 21
137112.4690850579
 31
0.0
  0
LINE
  5
259
330
2
100
AcDbEntity
  8
TEREN$0$A-MassElement-G
  6
Continuous
 62
   210
370
     5
100
AcDbLine
 10
221913.459924785
 20
137112.4690850579
 30
0.0
 11
221881.1062276468
 21
137103.7999380376
 31
0.0
  0
LINE
  5
25A
330
2
100
AcDbEntity
  8
TEREN$0$A-MassElement-G
  6
Continuous
 62
   210
370
     5
100
AcDbLine
 10
221881.1062276468
 20
137103.7999380376
 30
0.0
 11
221849.8359400625
 21
137091.7963992688
 31
0.0
  0
LINE
  5
25B
330
2
100
AcDbEntity
  8
TEREN$0$A-MassElement-G
  6
Continuous
 62
   210
370
     5
100
AcDbLine
 10
221849.8359400625
 20
137091.7963992688
 30
0.0
 11
221819.9916658467
 21
137076.5899820341
 31
0.0
  0
LINE
  5
25C
330
2
100
AcDbEntity
  8
TEREN$0$A-MassElement-G
  6
Continuous
 62
   210
370
     5
100
AcDbLine
 10
221819.9916658467
 20
137076.5899820341
 30
0.0
 11
221791.9003851131
 21
137058.3472910231
 31
0.0
  0
LINE
  5
25D
330
2
100
AcDbEntity
  8
TEREN$0$A-MassElement-G
  6
Continuous
 62
   210
370
     5
100
AcDbLine
 10
221791.9003851131
 20
137058.3472910231
 30
0.0
 11
221765.8698718119
 21
137037.2681969759
 31
0.0
  0
LINE
  5
25E
330
2
100
AcDbEntity
  8
TEREN$0$A-MassElement-G
  6
Continuous
 62
   210
370
     5
100
AcDbLine
 10
221765.8698718119
 20
137037.2681969759
 30
0.0
 11
221742.185321694
 21
137013.583646858
 31
0.0
  0
LINE
  5
25F
330
2
100
AcDbEntity
  8
TEREN$0$A-MassElement-G
  6
Continuous
 62
   210
370
     5
100
AcDbLine
 10
221742.185321694
 20
137013.583646858
 30
0.0
 11
221721.1062276467
 21
136987.5531335567
 31
0.0
  0
LINE
  5
260
330
2
100
AcDbEntity
  8
TEREN$0$A-MassElement-G
  6
Continuous
 62
   210
370
     5
100
AcDbLine
 10
221721.1062276467
 20
136987.5531335567
 30
0.0
 11
221702.8635366357
 21
136959.4618528231
 31
0.0
  0
LINE
  5
261
330
2
100
AcDbEntity
  8
TEREN$0$A-MassElement-G
  6
Continuous
 62
   210
370
     5
100
AcDbLine
 10
221702.8635366357
 20
136959.4618528231
 30
0.0
 11
221687.6571194011
 21
136929.6175786074
 31
0.0
  0
LINE
  5
262
330
2
100
AcDbEntity
  8
TEREN$0$A-MassElement-G
  6
Continuous
 62
   210
370
     5
100
AcDbLine
 10
221687.6571194011
 20
136929.6175786074
 30
0.0
 11
221675.6535806323
 21
136898.3472910231
 31
0.0
  0
LINE
  5
263
330
2
100
AcDbEntity
  8
TEREN$0$A-MassElement-G
  6
Continuous
 62
   210
370
     5
100
AcDbLine
 10
221675.6535806323
 20
136898.3472910231
 30
0.0
 11
221666.9844336119
 21
136865.9935938848
 31
0.0
  0
LINE
  5
264
330
2
100
AcDbEntity
  8
TEREN$0$A-MassElement-G
  6
Continuous
 62
   210
370
     5
100
AcDbLine
 10
221666.9844336119
 20
136865.9935938848
 30
0.0
 11
221661.7446593289
 21
136832.9109610688
 31
0.0
  0
LINE
  5
265
330
2
100
AcDbEntity
  8
TEREN$0$A-MassElement-G
  6
Continuous
 62
   210
370
     5
100
AcDbLine
 10
221661.7446593289
 20
136832.9109610688
 30
0.0
 11
221659.9916658467
 21
136799.4618528231
 31
0.0
  0
LINE
  5
266
330
2
100
AcDbEntity
  8
TEREN$0$A-MassElement-G
  6
Continuous
 62
   210
370
     5
100
AcDbLine
 10
221659.9916658467
 20
136165.4618528231
 30
0.0
 11
221659.9916658467
 21
136799.4618528231
 31
0.0
  0
LINE
  5
267
330
2
100
AcDbEntity
  8
TEREN$0$A-MassElement-G
  6
Continuous
 62
   210
370
     5
100
AcDbLine
 10
221659.9916658467
 20
136165.4618528231
 30
0.0
 11
221660.9112103991
 21
136136.2014707225
 31
0.0
  0
LINE
  5
268
330
2
100
AcDbEntity
  8
TEREN$0$A-MassElement-G
  6
Continuous
 62
   210
370
     5
100
AcDbLine
 10
221660.9112103991
 20
136136.2014707225
 30
0.0
 11
221663.6662150341
 21
136107.0565659822
 31
0.0
  0
LINE
  5
269
330
2
100
AcDbEntity
  8
TEREN$0$A-MassElement-G
  6
Continuous
 62
   210
370
     5
100
AcDbLine
 10
221663.6662150341
 20
136107.0565659822
 30
0.0
 11
221668.2458070071
 21
136078.1421602262
 31
0.0
  0
LINE
  5
26A
330
2
100
AcDbEntity
  8
TEREN$0$A-MassElement-G
  6
Continuous
 62
   210
370
     5
100
AcDbLine
 10
221668.2458070071
 20
136078.1421602262
 30
0.0
 11
221674.6319127608
 21
136049.5723654043
 31
0.0
  0
LINE
  5
26B
330
2
100
AcDbEntity
  8
TEREN$0$A-MassElement-G
  6
Continuous
 62
   210
370
     5
100
AcDbLine
 10
221674.6319127608
 20
136049.5723654043
 30
0.0
 11
221682.7993292532
 21
136021.4599334444
 31
0.0
  0
LINE
  5
26C
330
2
100
AcDbEntity
  8
TEREN$0$A-MassElement-G
  6
Continuous
 62
   210
370
     5
100
AcDbLine
 10
221682.7993292532
 20
136021.4599334444
 30
0.0
 11
221692.7158234228
 21
135993.9158112721
 31
0.0
  0
LINE
  5
26D
330
2
100
AcDbEntity
  8
TEREN$0$A-MassElement-G
  6
Continuous
 62
   210
370
     5
100
AcDbLine
 10
221692.7158234228
 20
135993.9158112721
 30
0.0
 11
221704.3422593976
 21
135967.0487029538
 31
0.0
  0
LINE
  5
26E
330
2
100
AcDbEntity
  8
TEREN$0$A-MassElement-G
  6
Continuous
 62
   210
370
     5
100
AcDbLine
 10
221704.3422593976
 20
135967.0487029538
 30
0.0
 11
221717.6327529463
 21
135940.9646406917
 31
0.0
  0
LINE
  5
26F
330
2
100
AcDbEntity
  8
TEREN$0$A-MassElement-G
  6
Continuous
 62
   210
370
     5
100
AcDbLine
 10
221717.6327529463
 20
135940.9646406917
 30
0.0
 11
221732.5348525628
 21
135915.7665663629
 31
0.0
  0
LINE
  5
270
330
2
100
AcDbEntity
  8
TEREN$0$A-MassElement-G
  6
Continuous
 62
   210
370
     5
100
AcDbLine
 10
221732.5348525628
 20
135915.7665663629
 30
0.0
 11
221748.989746468
 21
135891.5539252548
 31
0.0
  0
LINE
  5
271
330
2
100
AcDbEntity
  8
TEREN$0$A-MassElement-G
  6
Continuous
 62
   210
370
     5
100
AcDbLine
 10
221748.989746468
 20
135891.5539252548
 30
0.0
 11
221766.9324947132
 21
135868.4222736002
 31
0.0
  0
LINE
  5
272
330
2
100
AcDbEntity
  8
TEREN$0$A-MassElement-G
  6
Continuous
 62
   210
370
     5
100
AcDbLine
 10
221766.9324947132
 20
135868.4222736002
 30
0.0
 11
221786.3127092524
 21
135846.4424776763
 31
0.0
  0
LINE
  5
273
330
2
100
AcDbEntity
  8
TEREN$0$A-MassElement-G
  6
Continuous
 62
   210
370
     5
100
AcDbLine
 10
221786.3127092524
 20
135846.4424776763
 30
0.0
 11
221806.9927144839
 21
135825.7624724447
 31
0.0
  0
LINE
  5
274
330
2
100
AcDbEntity
  8
TEREN$0$A-MassElement-G
  6
Continuous
 62
   210
370
     5
100
AcDbLine
 10
221806.9927144839
 20
135825.7624724447
 30
0.0
 11
221828.9520866238
 21
135806.4026816896
 31
0.0
  0
LINE
  5
275
330
2
100
AcDbEntity
  8
TEREN$0$A-MassElement-G
  6
Continuous
 62
   210
370
     5
100
AcDbLine
 10
221828.9520866238
 20
135806.4026816896
 30
0.0
 11
221852.0609157631
 21
135788.4776364019
 31
0.0
  0
LINE
  5
276
330
2
100
AcDbEntity
  8
TEREN$0$A-MassElement-G
  6
Continuous
 62
   210
370
     5
100
AcDbLine
 10
221852.0609157631
 20
135788.4776364019
 30
0.0
 11
221876.2963793865
 21
135772.0050395392
 31
0.0
  0
LINE
  5
277
330
2
100
AcDbEntity
  8
TEREN$0$A-MassElement-G
  6
Continuous
 62
   210
370
     5
100
AcDbLine
 10
221876.2963793865
 20
135772.0050395392
 30
0.0
 11
221901.5201891846
 21
135757.0898270461
 31
0.0
  0
LWPOLYLINE
  5
278
330
2
100
AcDbEntity
  8
TEREN$0$A-MassElement-G
  6
Continuous
 62
   210
370
     5
100
AcDbPolyline
 90
       10
 70
     0
 43
0.0
 10
221901.5201891846
 20
135757.0898270461
 10
221927.5785159774
 20
135743.8124463739
 10
221954.4456242957
 20
135732.1860103992
 10
221981.989746468
 20
135722.2695162296
 10
222010.1021784279
 20
135714.1020997372
 10
222038.6719732498
 20
135707.7159939835
 10
222067.5863790058
 20
135703.1364020105
 10
222096.7312837461
 20
135700.3813973755
 10
222125.9916658467
 20
135699.4618528231
 10
222349.9916658467
 20
135699.4618528231
  0
LWPOLYLINE
  5
279
330
2
100
AcDbEntity
  8
TEREN$0$A-MassElement-G
  6
Continuous
 62
   210
370
     5
100
AcDbPolyline
 90
       28
 70
     0
 43
0.0
 10
222418.8649364477
 20
135759.4618528231
 10
222125.9916658467
 20
135759.4618528231
 10
222100.4987149179
 20
135760.2630010812
 10
222075.1063730196
 20
135762.6632840894
 10
222049.9148521249
 20
135766.6532290273
 10
222025.0235716578
 20
135772.2170894049
 10
222000.5307661305
 20
135779.3329072073
 10
221976.5330974567
 20
135787.9725995525
 10
221953.1252734713
 20
135798.1020695219
 10
221930.3996741614
 20
135809.6813407253
 10
221908.4459870853
 20
135822.6647150693
 10
221887.350853416
 20
135837.0009531069
 10
221867.1975260088
 20
135852.6334762562
 10
221848.0655408397
 20
135869.50059009
 10
221830.0304031136
 20
135887.5357278161
 10
221813.1632892797
 20
135906.6677129852
 10
221797.5307661305
 20
135926.8210403924
 10
221783.1945280929
 20
135947.9161740617
 10
221770.2111537489
 20
135969.8698611378
 10
221758.6318825455
 20
135992.5954604477
 10
221748.5024125761
 20
136016.0032844331
 10
221739.8627202308
 20
136040.0009531069
 10
221732.7469024285
 20
136064.4937586342
 10
221727.1830420509
 20
136089.3850391013
 10
221723.193097113
 20
136114.576559996
 10
221720.7928141048
 20
136139.9689018942
 10
221719.9916658467
 20
136165.4618528231
 10
221719.9916658467
 20
136524.3618457565
  0
LINE
  5
27A
330
2
100
AcDbEntity
  8
teren$0$A-PlantOutdoor-G
370
     5
100
AcDbLine
 10
222276.5148489917
 20
137059.4618528231
 30
0.0
 11
222276.5148489917
 21
137110.4034515049
 31
0.0
  0
LINE
  5
27B
330
2
100
AcDbEntity
  8
teren$0$A-PlantOutdoor-G
370
     5
100
AcDbLine
 10
222296.5148489917
 20
137059.4618528231
 30
0.0
 11
222296.5148489917
 21
137088.1636284317
 31
0.0
  0
LINE
  5
27C
330
2
100
AcDbEntity
  8
teren$0$A-PlantOutdoor-G
370
     5
100
AcDbLine
 10
222316.5148489917
 20
137059.4618528231
 30
0.0
 11
222316.5148489917
 21
137110.4034515049
 31
0.0
  0
LINE
  5
27D
330
2
100
AcDbEntity
  8
teren$0$A-PlantOutdoor-G
370
     5
100
AcDbLine
 10
222336.5148489917
 20
137059.4618528231
 30
0.0
 11
222336.5148489917
 21
137088.1636284317
 31
0.0
  0
LINE
  5
27E
330
2
100
AcDbEntity
  8
teren$0$A-PlantOutdoor-G
370
     5
100
AcDbLine
 10
222356.5148489917
 20
137059.4618528231
 30
0.0
 11
222356.5148489917
 21
137110.4034515049
 31
0.0
  0
LINE
  5
27F
330
2
100
AcDbEntity
  8
teren$0$A-PlantOutdoor-G
370
     5
100
AcDbLine
 10
222251.1407512943
 20
137059.4618528231
 30
0.0
 11
222251.1407512943
 21
137088.1636284317
 31
0.0
  0
LINE
  5
280
330
2
100
AcDbEntity
  8
teren$0$A-PlantOutdoor-G
370
     5
100
AcDbLine
 10
222151.1407512942
 20
137059.4618528231
 30
0.0
 11
222151.1407512942
 21
137110.4034515049
 31
0.0
  0
LINE
  5
281
330
2
100
AcDbEntity
  8
teren$0$A-PlantOutdoor-G
370
     5
100
AcDbLine
 10
222171.1407512943
 20
137059.4618528231
 30
0.0
 11
222171.1407512943
 21
137088.1636284317
 31
0.0
  0
LINE
  5
282
330
2
100
AcDbEntity
  8
teren$0$A-PlantOutdoor-G
370
     5
100
AcDbLine
 10
222191.1407512942
 20
137059.4618528231
 30
0.0
 11
222191.1407512942
 21
137110.4034515049
 31
0.0
  0
LINE
  5
283
330
2
100
AcDbEntity
  8
teren$0$A-PlantOutdoor-G
370
     5
100
AcDbLine
 10
222211.1407512942
 20
137059.4618528231
 30
0.0
 11
222211.1407512942
 21
137088.1636284317
 31
0.0
  0
LINE
  5
284
330
2
100
AcDbEntity
  8
teren$0$A-PlantOutdoor-G
370
     5
100
AcDbLine
 10
222231.1407512942
 20
137059.4618528231
 30
0.0
 11
222231.1407512942
 21
137110.4034515049
 31
0.0
  0
LINE
  5
285
330
2
100
AcDbEntity
  8
teren$0$A-PlantOutdoor-G
370
     5
100
AcDbLine
 10
222125.7666535969
 20
137059.4618528231
 30
0.0
 11
222125.7666535969
 21
137088.1636284317
 31
0.0
  0
LINE
  5
286
330
2
100
AcDbEntity
  8
teren$0$A-PlantOutdoor-G
370
     5
100
AcDbLine
 10
222025.7666535968
 20
137059.4618528231
 30
0.0
 11
222025.7666535968
 21
137110.4034515049
 31
0.0
  0
LINE
  5
287
330
2
100
AcDbEntity
  8
teren$0$A-PlantOutdoor-G
370
     5
100
AcDbLine
 10
222045.7666535969
 20
137059.4618528231
 30
0.0
 11
222045.7666535969
 21
137088.1636284317
 31
0.0
  0
LINE
  5
288
330
2
100
AcDbEntity
  8
teren$0$A-PlantOutdoor-G
370
     5
100
AcDbLine
 10
222065.7666535968
 20
137059.4618528231
 30
0.0
 11
222065.7666535968
 21
137110.4034515049
 31
0.0
  0
LINE
  5
289
330
2
100
AcDbEntity
  8
teren$0$A-PlantOutdoor-G
370
     5
100
AcDbLine
 10
222085.7666535968
 20
137059.4618528231
 30
0.0
 11
222085.7666535968
 21
137088.1636284317
 31
0.0
  0
LINE
  5
28A
330
2
100
AcDbEntity
  8
teren$0$A-PlantOutdoor-G
370
     5
100
AcDbLine
 10
222105.7666535969
 20
137059.4618528231
 30
0.0
 11
222105.7666535969
 21
137110.4034515049
 31
0.0
  0
LINE
  5
28B
330
2
100
AcDbEntity
  8
teren$0$A-PlantOutdoor-G
370
     5
100
AcDbLine
 10
222000.3925558994
 20
137059.4618528231
 30
0.0
 11
222000.3925558994
 21
137088.1636284317
 31
0.0
  0
LINE
  5
28C
330
2
100
AcDbEntity
  8
teren$0$A-PlantOutdoor-G
370
     5
100
AcDbLine
 10
221980.3925558994
 20
137059.4618528231
 30
0.0
 11
221980.3925558994
 21
137110.4034515049
 31
0.0
  0
LINE
  5
28D
330
2
100
AcDbEntity
  8
teren$0$A-PlantOutdoor-G
370
     5
100
AcDbLine
 10
222360.9835781517
 20
135759.4618528231
 30
0.0
 11
222360.9835781517
 21
135708.5202541413
 31
0.0
  0
LINE
  5
28E
330
2
100
AcDbEntity
  8
teren$0$A-PlantOutdoor-G
370
     5
100
AcDbLine
 10
222340.9835781517
 20
135759.4618528231
 30
0.0
 11
222340.9835781517
 21
135730.7600772145
 31
0.0
  0
LINE
  5
28F
330
2
100
AcDbEntity
  8
teren$0$A-PlantOutdoor-G
370
     5
100
AcDbLine
 10
222320.9835781517
 20
135759.4618528231
 30
0.0
 11
222320.9835781517
 21
135708.5202541413
 31
0.0
  0
LINE
  5
290
330
2
100
AcDbEntity
  8
teren$0$A-PlantOutdoor-G
370
     5
100
AcDbLine
 10
222300.9835781517
 20
135759.4618528231
 30
0.0
 11
222300.9835781517
 21
135730.7600772145
 31
0.0
  0
LINE
  5
291
330
2
100
AcDbEntity
  8
teren$0$A-PlantOutdoor-G
370
     5
100
AcDbLine
 10
222280.9835781517
 20
135759.4618528231
 30
0.0
 11
222280.9835781517
 21
135708.5202541413
 31
0.0
  0
LINE
  5
292
330
2
100
AcDbEntity
  8
teren$0$A-PlantOutdoor-G
370
     5
100
AcDbLine
 10
222386.3576758491
 20
135759.4618528231
 30
0.0
 11
222386.3576758491
 21
135730.7600772145
 31
0.0
  0
LINE
  5
293
330
2
100
AcDbEntity
  8
teren$0$A-PlantOutdoor-G
370
     5
100
AcDbLine
 10
222230.4820194867
 20
135759.4618528231
 30
0.0
 11
222230.4820194867
 21
135708.5202541413
 31
0.0
  0
LINE
  5
294
330
2
100
AcDbEntity
  8
teren$0$A-PlantOutdoor-G
370
     5
100
AcDbLine
 10
222210.4820194867
 20
135759.4618528231
 30
0.0
 11
222210.4820194867
 21
135730.7600772145
 31
0.0
  0
LINE
  5
295
330
2
100
AcDbEntity
  8
teren$0$A-PlantOutdoor-G
370
     5
100
AcDbLine
 10
222190.4820194867
 20
135759.4618528231
 30
0.0
 11
222190.4820194867
 21
135708.5202541413
 31
0.0
  0
LINE
  5
296
330
2
100
AcDbEntity
  8
teren$0$A-PlantOutdoor-G
370
     5
100
AcDbLine
 10
222170.4820194867
 20
135759.4618528231
 30
0.0
 11
222170.4820194867
 21
135730.7600772145
 31
0.0
  0
LINE
  5
297
330
2
100
AcDbEntity
  8
teren$0$A-PlantOutdoor-G
370
     5
100
AcDbLine
 10
222150.4820194867
 20
135759.4618528231
 30
0.0
 11
222150.4820194867
 21
135708.5202541413
 31
0.0
  0
LINE
  5
298
330
2
100
AcDbEntity
  8
teren$0$A-PlantOutdoor-G
370
     5
100
AcDbLine
 10
222255.8561171842
 20
135759.4618528231
 30
0.0
 11
222255.8561171842
 21
135730.7600772145
 31
0.0
  0
LINE
  5
299
330
2
100
AcDbEntity
  8
teren$0$A-PlantOutdoor-G
370
     5
100
AcDbLine
 10
222100.6175681493
 20
135759.4618528231
 30
0.0
 11
222097.1761492233
 21
135707.4523316521
 31
-56.45015012238346
  0
LINE
  5
29A
330
2
100
AcDbEntity
  8
teren$0$A-PlantOutdoor-G
370
     5
100
AcDbLine
 10
222075.1063730197
 20
135762.6632840894
 30
-15.0
 11
222071.3463760127
 21
135732.89984305
 31
-38.5
  0
LINE
  5
29B
330
2
100
AcDbEntity
  8
teren$0$A-PlantOutdoor-G
370
     5
100
AcDbLine
 10
222049.9148521249
 20
135766.6532290273
 30
0.0
 11
222040.5014811124
 21
135717.3066100626
 31
-54.35188153330201
  0
LINE
  5
29C
330
2
100
AcDbEntity
  8
teren$0$A-PlantOutdoor-G
370
     5
100
AcDbLine
 10
222125.9916658467
 20
135759.4618528231
 30
0.0
 11
222125.9916658467
 21
135730.7600772145
 31
0.0
  0
LINE
  5
29D
330
2
100
AcDbEntity
  8
teren$0$A-PlantOutdoor-G
370
     5
100
AcDbLine
 10
222125.9916658467
 20
135759.4618528231
 30
-15.0
 11
222125.9916658468
 21
135729.4618528231
 31
-38.5
  0
LINE
  5
29E
330
2
100
AcDbEntity
  8
teren$0$A-PlantOutdoor-G
370
     5
100
AcDbLine
 10
222025.0235716578
 20
135772.2170894049
 30
0.0
 11
222017.5628750428
 21
135743.159594571
 31
-38.5
  0
LINE
  5
29F
330
2
100
AcDbEntity
  8
teren$0$A-PlantOutdoor-G
370
     5
100
AcDbLine
 10
222000.5307661305
 20
135779.3329072073
 30
-15.0
 11
221985.6084371021
 21
135733.4067008204
 31
-52.82690904275586
  0
LINE
  5
2A0
330
2
100
AcDbEntity
  8
teren$0$A-PlantOutdoor-G
370
     5
100
AcDbLine
 10
221976.5330974567
 20
135787.9725995525
 30
0.0
 11
221965.4893608762
 21
135760.0793049758
 31
-38.5
  0
LINE
  5
2A1
330
2
100
AcDbEntity
  8
teren$0$A-PlantOutdoor-G
370
     5
100
AcDbLine
 10
221953.1252734713
 20
135798.1020695219
 30
-15.0
 11
221934.2855959881
 21
135758.0657169228
 31
-49.66055689922979
  0
LINE
  5
2A2
330
2
100
AcDbEntity
  8
teren$0$A-PlantOutdoor-G
370
     5
100
AcDbLine
 10
221930.3996741615
 20
135809.6813407253
 30
-15.0
 11
221915.9470639384
 21
135783.392140324
 31
-38.5
  0
LINE
  5
2A3
330
2
100
AcDbEntity
  8
teren$0$A-PlantOutdoor-G
370
     5
100
AcDbLine
 10
221908.4459870853
 20
135822.6647150693
 30
0.0
 11
221884.3802004258
 21
135784.7431032422
 31
-50.18213919105731
  0
LINE
  5
2A4
330
2
100
AcDbEntity
  8
teren$0$A-PlantOutdoor-G
370
     5
100
AcDbLine
 10
221887.3508534159
 20
135837.0009531069
 30
-15.0
 11
221869.7172958472
 21
135812.7304432756
 31
-38.5
  0
LINE
  5
2A5
330
2
100
AcDbEntity
  8
teren$0$A-PlantOutdoor-G
370
     5
100
AcDbLine
 10
221867.1975260088
 20
135852.6334762562
 30
0.0
 11
221835.0732995682
 21
135812.8283803697
 31
-52.19110786576816
  0
LINE
  5
2A6
330
2
100
AcDbEntity
  8
teren$0$A-PlantOutdoor-G
370
     5
100
AcDbLine
 10
221830.0304031135
 20
135887.5357278161
 30
-15.0
 11
221793.8644101962
 21
135853.5735998816
 31
-53.86316464063715
  0
LINE
  5
2A7
330
2
100
AcDbEntity
  8
teren$0$A-PlantOutdoor-G
370
     5
100
AcDbLine
 10
221813.1632892797
 20
135906.6677129852
 30
-15.0
 11
221790.0478919965
 21
135887.5449932927
 31
-38.5
  0
LINE
  5
2A8
330
2
100
AcDbEntity
  8
teren$0$A-PlantOutdoor-G
370
     5
100
AcDbLine
 10
221797.5307661305
 20
135926.8210403924
 30
0.0
 11
221760.229626431
 21
135899.7201760576
 31
-51.11694970695737
  0
LINE
  5
2A9
330
2
100
AcDbEntity
  8
teren$0$A-PlantOutdoor-G
370
     5
100
AcDbLine
 10
221783.1945280928
 20
135947.9161740617
 30
-15.0
 11
221757.8646903278
 21
135931.8413702123
 31
-38.5
  0
LINE
  5
2AA
330
2
100
AcDbEntity
  8
teren$0$A-PlantOutdoor-G
370
     5
100
AcDbLine
 10
221770.2111537489
 20
135969.8698611379
 30
-15.0
 11
221725.7653957867
 21
135945.4355989279
 31
-54.73020465314791
  0
LINE
  5
2AB
330
2
100
AcDbEntity
  8
teren$0$A-PlantOutdoor-G
370
     5
100
AcDbLine
 10
221758.6318825455
 20
135992.5954604477
 30
0.0
 11
221731.4870709715
 21
135979.8220817008
 31
-38.5
  0
LINE
  5
2AC
330
2
100
AcDbEntity
  8
teren$0$A-PlantOutdoor-G
370
     5
100
AcDbLine
 10
221748.5024125761
 20
136016.0032844331
 30
0.0
 11
221701.4450168426
 21
135996.654154583
 31
-51.31238769676214
  0
LINE
  5
2AD
330
2
100
AcDbEntity
  8
teren$0$A-PlantOutdoor-G
370
     5
100
AcDbLine
 10
221739.8627202309
 20
136040.0009531068
 30
-15.0
 11
221711.331024742
 21
136030.7304432756
 31
-38.5
  0
LINE
  5
2AE
330
2
100
AcDbEntity
  8
teren$0$A-PlantOutdoor-G
370
     5
100
AcDbLine
 10
221732.7469024285
 20
136064.4937586341
 30
-15.0
 11
221681.4766981775
 21
136052.5220092437
 31
-52.70909409625756
  0
LINE
  5
2AF
330
2
100
AcDbEntity
  8
teren$0$A-PlantOutdoor-G
370
     5
100
AcDbLine
 10
221727.1830420509
 20
136089.3850391012
 30
-15.0
 11
221690.4182535397
 21
136082.3717806104
 31
-44.31839369027442
  0
LINE
  5
2B0
330
2
100
AcDbEntity
  8
teren$0$A-PlantOutdoor-G
370
     5
100
AcDbLine
 10
221723.193097113
 20
136114.5765599961
 30
-15.0
 11
221674.8571330305
 21
136108.4703076969
 31
-53.16410724939787
  0
LINE
  5
2B1
330
2
100
AcDbEntity
  8
teren$0$A-PlantOutdoor-G
370
     5
100
AcDbLine
 10
221720.7928141048
 20
136139.9689018943
 30
-15.0
 11
221690.852012252
 21
136138.0851863083
 31
-38.5
  0
LINE
  5
2B2
330
2
100
AcDbEntity
  8
teren$0$A-PlantOutdoor-G
370
     5
100
AcDbLine
 10
221719.9916658467
 20
136165.4618528231
 30
0.0
 11
221669.6271147445
 21
136165.4618528231
 31
-54.45223169673797
  0
LINE
  5
2B3
330
2
100
AcDbEntity
  8
teren$0$A-PlantOutdoor-G
370
     5
100
AcDbLine
 10
221719.9916658467
 20
136416.2100482179
 30
0.0
 11
221669.050067165
 21
136416.2100482179
 31
0.0
  0
LINE
  5
2B4
330
2
100
AcDbEntity
  8
teren$0$A-PlantOutdoor-G
370
     5
100
AcDbLine
 10
221719.9916658467
 20
136436.2100482179
 30
0.0
 11
221691.2898902381
 21
136436.2100482179
 31
0.0
  0
LINE
  5
2B5
330
2
100
AcDbEntity
  8
teren$0$A-PlantOutdoor-G
370
     5
100
AcDbLine
 10
221719.9916658467
 20
136456.2100482179
 30
0.0
 11
221669.050067165
 21
136456.2100482179
 31
0.0
  0
LINE
  5
2B6
330
2
100
AcDbEntity
  8
teren$0$A-PlantOutdoor-G
370
     5
100
AcDbLine
 10
221719.9916658467
 20
136390.8359505205
 30
0.0
 11
221691.2898902381
 21
136390.8359505205
 31
0.0
  0
LINE
  5
2B7
330
2
100
AcDbEntity
  8
teren$0$A-PlantOutdoor-G
370
     5
100
AcDbLine
 10
221719.9916658467
 20
136290.8359505205
 30
0.0
 11
221669.050067165
 21
136290.8359505205
 31
0.0
  0
LINE
  5
2B8
330
2
100
AcDbEntity
  8
teren$0$A-PlantOutdoor-G
370
     5
100
AcDbLine
 10
221719.9916658467
 20
136310.8359505205
 30
0.0
 11
221691.2898902381
 21
136310.8359505205
 31
0.0
  0
LINE
  5
2B9
330
2
100
AcDbEntity
  8
teren$0$A-PlantOutdoor-G
370
     5
100
AcDbLine
 10
221719.9916658467
 20
136330.8359505205
 30
0.0
 11
221669.050067165
 21
136330.8359505205
 31
0.0
  0
LINE
  5
2BA
330
2
100
AcDbEntity
  8
teren$0$A-PlantOutdoor-G
370
     5
100
AcDbLine
 10
221719.9916658467
 20
136350.8359505205
 30
0.0
 11
221691.2898902381
 21
136350.8359505205
 31
0.0
  0
LINE
  5
2BB
330
2
100
AcDbEntity
  8
teren$0$A-PlantOutdoor-G
370
     5
100
AcDbLine
 10
221719.9916658467
 20
136370.8359505205
 30
0.0
 11
221669.050067165
 21
136370.8359505205
 31
0.0
  0
LINE
  5
2BC
330
2
100
AcDbEntity
  8
teren$0$A-PlantOutdoor-G
370
     5
100
AcDbLine
 10
221719.9916658467
 20
136265.4618528231
 30
0.0
 11
221691.2898902381
 21
136265.4618528231
 31
0.0
  0
LINE
  5
2BD
330
2
100
AcDbEntity
  8
teren$0$A-PlantOutdoor-G
370
     5
100
AcDbLine
 10
221719.9916658467
 20
136165.4618528231
 30
0.0
 11
221669.050067165
 21
136165.4618528231
 31
0.0
  0
LINE
  5
2BE
330
2
100
AcDbEntity
  8
teren$0$A-PlantOutdoor-G
370
     5
100
AcDbLine
 10
221719.9916658467
 20
136185.4618528231
 30
0.0
 11
221691.2898902381
 21
136185.4618528231
 31
0.0
  0
LINE
  5
2BF
330
2
100
AcDbEntity
  8
teren$0$A-PlantOutdoor-G
370
     5
100
AcDbLine
 10
221719.9916658467
 20
136205.4618528231
 30
0.0
 11
221669.050067165
 21
136205.4618528231
 31
0.0
  0
LINE
  5
2C0
330
2
100
AcDbEntity
  8
teren$0$A-PlantOutdoor-G
370
     5
100
AcDbLine
 10
221719.9916658467
 20
136225.4618528231
 30
0.0
 11
221691.2898902381
 21
136225.4618528231
 31
0.0
  0
LINE
  5
2C1
330
2
100
AcDbEntity
  8
teren$0$A-PlantOutdoor-G
370
     5
100
AcDbLine
 10
221719.9916658467
 20
136245.4618528231
 30
0.0
 11
221669.050067165
 21
136245.4618528231
 31
0.0
  0
LINE
  5
2C2
330
2
100
AcDbEntity
  8
teren$0$A-PlantOutdoor-G
370
     5
100
AcDbLine
 10
221719.9916658467
 20
136501.5841459153
 30
0.0
 11
221669.050067165
 21
136501.5841459153
 31
0.0
  0
LINE
  5
2C3
330
2
100
AcDbEntity
  8
teren$0$A-PlantOutdoor-G
370
     5
100
AcDbLine
 10
221719.9916658467
 20
136521.5841459153
 30
0.0
 11
221691.2898902381
 21
136521.5841459153
 31
0.0
  0
LINE
  5
2C4
330
2
100
AcDbEntity
  8
teren$0$A-PlantOutdoor-G
370
     5
100
AcDbLine
 10
221719.9916658467
 20
136476.2100482179
 30
0.0
 11
221691.2898902381
 21
136476.2100482179
 31
0.0
  0
LINE
  5
2C5
330
2
100
AcDbEntity
  8
teren$0$A-PlantOutdoor-G
370
     5
100
AcDbLine
 10
221952.8142653971
 20
137058.0375456188
 30
-14.99999999999999
 11
221949.6784114991
 21
137087.8732024799
 31
-38.5
  0
LINE
  5
2C6
330
2
100
AcDbEntity
  8
teren$0$A-PlantOutdoor-G
370
     5
100
AcDbLine
 10
221925.9346262341
 20
137053.7802290139
 30
-15.0
 11
221915.5068260691
 21
137102.8391716455
 31
-54.28804306489375
  0
LINE
  5
2C7
330
2
100
AcDbEntity
  8
teren$0$A-PlantOutdoor-G
370
     5
100
AcDbLine
 10
221899.6472473092
 20
137046.7365470599
 30
-14.99999999999864
 11
221890.376737478
 21
137075.2682425487
 31
-38.5
  0
LINE
  5
2C8
330
2
100
AcDbEntity
  8
teren$0$A-PlantOutdoor-G
370
     5
100
AcDbLine
 10
221874.240138647
 20
137036.9836718102
 30
-15.0
 11
221853.7799218032
 21
137082.9380712434
 31
-54.40429300828372
  0
LINE
  5
2C9
330
2
100
AcDbEntity
  8
teren$0$A-PlantOutdoor-G
370
     5
100
AcDbLine
 10
221849.9916658467
 20
137024.6284578071
 30
-14.99999999999999
 11
221834.9916658467
 21
137050.6092199206
 31
-38.5
  0
LINE
  5
2CA
330
2
100
AcDbEntity
  8
teren$0$A-PlantOutdoor-G
370
     5
100
AcDbLine
 10
221827.1675002506
 20
137009.8062713606
 30
-15.0
 11
221796.5823231495
 21
137051.903156157
 31
-55.76044547868886
  0
LINE
  5
2CB
330
2
100
AcDbEntity
  8
teren$0$A-PlantOutdoor-G
370
     5
100
AcDbLine
 10
221806.0177081934
 20
136992.6795074472
 30
-15.0
 11
221785.9437900027
 21
137014.9738522116
 31
-38.5
  0
LINE
  5
2CC
330
2
100
AcDbEntity
  8
teren$0$A-PlantOutdoor-G
370
     5
100
AcDbLine
 10
221786.7740112225
 20
136973.4358104764
 30
-15.0
 11
221748.4164704437
 21
137007.9730953231
 31
-55.43187713446099
  0
LINE
  5
2CD
330
2
100
AcDbEntity
  8
teren$0$A-PlantOutdoor-G
370
     5
100
AcDbLine
 10
221769.6472473092
 20
136952.2860184191
 30
-15.0
 11
221745.376737478
 21
136969.9195759879
 31
-38.5
  0
LINE
  5
2CE
330
2
100
AcDbEntity
  8
teren$0$A-PlantOutdoor-G
370
     5
100
AcDbLine
 10
221754.8250608627
 20
136929.4618528231
 30
-14.99999999999982
 11
221712.0565460581
 21
136954.1542663584
 31
-53.68478120532552
  0
LINE
  5
2CF
330
2
100
AcDbEntity
  8
teren$0$A-PlantOutdoor-G
370
     5
100
AcDbLine
 10
221742.4698468596
 20
136905.2133800227
 30
-15.0
 11
221715.0634831304
 21
136917.4154793151
 31
-38.5
  0
LINE
  5
2D0
330
2
100
AcDbEntity
  8
teren$0$A-PlantOutdoor-G
370
     5
100
AcDbLine
 10
221732.71697161
 20
136879.8062713606
 30
-14.99999999999425
 11
221687.6339857323
 21
136894.4546214373
 31
-52.13239434155138
  0
LINE
  5
2D1
330
2
100
AcDbEntity
  8
teren$0$A-PlantOutdoor-G
370
     5
100
AcDbLine
 10
221725.673289656
 20
136853.5188924358
 30
-15.0
 11
221696.3288616339
 21
136859.7562431603
 31
-38.5
  0
LINE
  5
2D2
330
2
100
AcDbEntity
  8
teren$0$A-PlantOutdoor-G
370
     5
100
AcDbLine
 10
221721.4159730509
 20
136826.6392532728
 30
-15.0
 11
221669.0275582749
 21
136832.1454975445
 31
-56.26363810162971
  0
LINE
  5
2D3
330
2
100
AcDbEntity
  8
teren$0$A-PlantOutdoor-G
370
     5
100
AcDbLine
 10
221719.9916658467
 20
136799.4618528231
 30
0.0
 11
221689.9916658467
 21
136799.4618528231
 31
-38.5
  0
LINE
  5
2D4
330
2
100
AcDbEntity
  8
teren$0$A-PlantOutdoor-G
370
     5
100
AcDbLine
 10
221719.9916658467
 20
136775.6868510564
 30
-15.0
 11
221664.9407050649
 21
136775.6868510564
 31
-58.12325261239458
  0
LINE
  5
2D5
330
2
100
AcDbEntity
  8
teren$0$A-PlantOutdoor-G
370
     5
100
AcDbLine
 10
221719.9916658467
 20
136751.9118492898
 30
-15.0
 11
221689.9916658467
 21
136751.9118492898
 31
-38.5
  0
LINE
  5
2D6
330
2
100
AcDbEntity
  8
teren$0$A-PlantOutdoor-G
370
     5
100
AcDbLine
 10
221719.9916658467
 20
136728.1368475232
 30
-15.0
 11
221669.412882711
 21
136728.1368475232
 31
-54.62004678964392
  0
LINE
  5
2D7
330
2
100
AcDbEntity
  8
teren$0$A-PlantOutdoor-G
370
     5
100
AcDbLine
 10
222801.1237138796
 20
135759.4146486424
 30
0.0
 11
222828.4489885476
 21
135735.5132475645
 31
0.0
  0
LINE
  5
2D8
330
2
100
AcDbEntity
  8
teren$0$A-PlantOutdoor-G
370
     5
100
AcDbLine
 10
222834.6803935738
 20
135759.4618528231
 30
0.0
 11
222875.0654260169
 21
135715.6533876222
 31
0.0
  0
LINE
  5
2D9
330
2
100
AcDbEntity
  8
teren$0$A-PlantOutdoor-G
370
     5
100
AcDbLine
 10
222868.508211642
 20
135759.4618528231
 30
0.0
 11
222889.2499387444
 21
135729.4618528231
 31
0.0
  0
LINE
  5
2DA
330
2
100
AcDbEntity
  8
teren$0$A-PlantOutdoor-G
370
     5
100
AcDbLine
 10
222902.3360297103
 20
135759.4618528231
 30
0.0
 11
222925.6873252747
 21
135708.8002904943
 31
0.0
  0
LINE
  5
2DB
330
2
100
AcDbEntity
  8
teren$0$A-PlantOutdoor-G
370
     5
100
AcDbLine
 10
222936.1638477785
 20
135759.4618528231
 30
0.0
 11
222943.0777568126
 21
135729.4618528231
 31
0.0
  0
LINE
  5
2DC
330
2
100
AcDbEntity
  8
teren$0$A-PlantOutdoor-G
370
     5
100
AcDbLine
 10
222969.9916658467
 20
135759.4618528231
 30
0.0
 11
222969.9916658467
 21
135711.419150412
 31
0.0
  0
LINE
  5
2DD
330
2
100
AcDbEntity
  8
teren$0$A-PlantOutdoor-G
370
     5
100
AcDbLine
 10
222991.1103186271
 20
135761.1239268428
 30
0.0
 11
222995.8033525784
 21
135731.4932766249
 31
0.0
  0
LINE
  5
2DE
330
2
100
AcDbEntity
  8
teren$0$A-PlantOutdoor-G
370
     5
100
AcDbLine
 10
223011.7089600874
 20
135766.0692231233
 30
0.0
 11
223025.8394448181
 21
135722.5800628952
 31
0.0
  0
LINE
  5
2DF
330
2
100
AcDbEntity
  8
teren$0$A-PlantOutdoor-G
370
     5
100
AcDbLine
 10
223031.2803833115
 20
135774.1759720577
 30
0.0
 11
223044.9000983037
 21
135747.445776332
 31
0.0
  0
LINE
  5
2E0
330
2
100
AcDbEntity
  8
teren$0$A-PlantOutdoor-G
370
     5
100
AcDbLine
 10
223049.3426749062
 20
135785.2445585825
 30
0.0
 11
223076.5619972245
 21
135747.7803754562
 31
0.0
  0
LINE
  5
2E1
330
2
100
AcDbEntity
  8
teren$0$A-PlantOutdoor-G
370
     5
100
AcDbLine
 10
223065.4510813069
 20
135799.0024373629
 30
0.0
 11
223086.6642847425
 21
135777.7892339274
 31
0.0
  0
LINE
  5
2E2
330
2
100
AcDbEntity
  8
teren$0$A-PlantOutdoor-G
370
     5
100
AcDbLine
 10
223079.2089600873
 20
135815.1108437636
 30
0.0
 11
223114.5814837701
 21
135789.4112009852
 31
0.0
  0
LINE
  5
2E3
330
2
100
AcDbEntity
  8
teren$0$A-PlantOutdoor-G
370
     5
100
AcDbLine
 10
223090.2775466121
 20
135833.1731353583
 30
0.0
 11
223117.0077423378
 21
135819.5534203661
 31
0.0
  0
LINE
  5
2E4
330
2
100
AcDbEntity
  8
teren$0$A-PlantOutdoor-G
370
     5
100
AcDbLine
 10
223098.3842955466
 20
135852.7445585825
 30
0.0
 11
223143.810360063
 21
135837.9847354987
 31
0.0
  0
LINE
  5
2E5
330
2
100
AcDbEntity
  8
teren$0$A-PlantOutdoor-G
370
     5
100
AcDbLine
 10
223103.3295918271
 20
135873.3432000427
 30
0.0
 11
223147.8061781918
 21
135866.2988008038
 31
0.0
  0
LINE
  5
2E6
330
2
100
AcDbEntity
  8
teren$0$A-PlantOutdoor-G
370
     5
100
AcDbLine
 10
223104.9916658467
 20
135894.4618528231
 30
0.0
 11
223150.3868419804
 21
135894.4618528231
 31
0.0
  0
LINE
  5
2E7
330
2
100
AcDbEntity
  8
TEREN$0$A-MassElement-G
  6
Continuous
 62
   210
370
     5
100
AcDbLine
 10
222869.9916658467
 20
135699.4618528231
 30
0.0
 11
222969.9916658467
 21
135699.4618528231
 31
0.0
  0
LINE
  5
2E8
330
2
100
AcDbEntity
  8
TEREN$0$A-MassElement-G
  6
Continuous
 62
   210
370
     5
100
AcDbLine
 10
222969.9916658467
 20
135699.4618528231
 30
0.0
 11
223000.4963865296
 21
135701.8626264071
 31
0.0
  0
LINE
  5
2E9
330
2
100
AcDbEntity
  8
TEREN$0$A-MassElement-G
  6
Continuous
 62
   210
370
     5
100
AcDbLine
 10
223000.4963865296
 20
135701.8626264071
 30
0.0
 11
223030.2499797498
 21
135709.0058321456
 31
0.0
  0
LINE
  5
2EA
330
2
100
AcDbEntity
  8
TEREN$0$A-MassElement-G
  6
Continuous
 62
   210
370
     5
100
AcDbLine
 10
223030.2499797498
 20
135709.0058321456
 30
0.0
 11
223058.5198132959
 21
135720.7155806064
 31
0.0
  0
LINE
  5
2EB
330
2
100
AcDbEntity
  8
TEREN$0$A-MassElement-G
  6
Continuous
 62
   210
370
     5
100
AcDbLine
 10
223058.5198132959
 20
135720.7155806064
 30
0.0
 11
223084.6097900437
 21
135736.70353892
 31
0.0
  0
LINE
  5
2EC
330
2
100
AcDbEntity
  8
TEREN$0$A-MassElement-G
  6
Continuous
 62
   210
370
     5
100
AcDbLine
 10
223084.6097900437
 20
135736.70353892
 30
0.0
 11
223107.8774881781
 21
135756.5760304917
 31
0.0
  0
LINE
  5
2ED
330
2
100
AcDbEntity
  8
TEREN$0$A-MassElement-G
  6
Continuous
 62
   210
370
     5
100
AcDbLine
 10
223107.8774881781
 20
135756.5760304917
 30
0.0
 11
223127.7499797498
 21
135779.8437286261
 31
0.0
  0
LINE
  5
2EE
330
2
100
AcDbEntity
  8
TEREN$0$A-MassElement-G
  6
Continuous
 62
   210
370
     5
100
AcDbLine
 10
223127.7499797498
 20
135779.8437286261
 30
0.0
 11
223143.7379380635
 21
135805.9337053739
 31
0.0
  0
LINE
  5
2EF
330
2
100
AcDbEntity
  8
TEREN$0$A-MassElement-G
  6
Continuous
 62
   210
370
     5
100
AcDbLine
 10
223143.7379380635
 20
135805.9337053739
 30
0.0
 11
223155.4476865243
 21
135834.20353892
 31
0.0
  0
LINE
  5
2F0
330
2
100
AcDbEntity
  8
TEREN$0$A-MassElement-G
  6
Continuous
 62
   210
370
     5
100
AcDbLine
 10
223155.4476865243
 20
135834.20353892
 30
0.0
 11
223162.6056710161
 21
135864.1449140059
 31
0.0
  0
LINE
  5
2F1
330
2
100
AcDbEntity
  8
TEREN$0$A-MassElement-G
  6
Continuous
 62
   210
370
     5
100
AcDbLine
 10
223164.9916658467
 20
135894.4618528231
 30
0.0
 11
223162.5618772694
 21
135863.9617276637
 31
0.0
  0
LINE
  5
2F2
330
2
100
AcDbEntity
  8
TEREN$0$A-MassElement-G
  6
Continuous
 62
   210
370
     5
100
AcDbLine
 10
223105.3851743808
 20
135899.4618528231
 30
0.0
 11
223103.3295918271
 21
135873.3432000427
 31
0.0
  0
LINE
  5
2F3
330
2
100
AcDbEntity
  8
TEREN$0$A-MassElement-G
  6
Continuous
 62
   210
370
     5
100
AcDbLine
 10
223103.3295918271
 20
135873.3432000427
 30
0.0
 11
223098.3842955466
 21
135852.7445585825
 31
0.0
  0
LINE
  5
2F4
330
2
100
AcDbEntity
  8
TEREN$0$A-MassElement-G
  6
Continuous
 62
   210
370
     5
100
AcDbLine
 10
223098.3842955466
 20
135852.7445585825
 30
0.0
 11
223090.2775466121
 21
135833.1731353583
 31
0.0
  0
LINE
  5
2F5
330
2
100
AcDbEntity
  8
TEREN$0$A-MassElement-G
  6
Continuous
 62
   210
370
     5
100
AcDbLine
 10
223090.2775466121
 20
135833.1731353583
 30
0.0
 11
223079.2089600873
 21
135815.1108437636
 31
0.0
  0
LINE
  5
2F6
330
2
100
AcDbEntity
  8
TEREN$0$A-MassElement-G
  6
Continuous
 62
   210
370
     5
100
AcDbLine
 10
223079.2089600873
 20
135815.1108437636
 30
0.0
 11
223065.4510813069
 21
135799.0024373629
 31
0.0
  0
LINE
  5
2F7
330
2
100
AcDbEntity
  8
TEREN$0$A-MassElement-G
  6
Continuous
 62
   210
370
     5
100
AcDbLine
 10
223065.4510813069
 20
135799.0024373629
 30
0.0
 11
223049.3426749062
 21
135785.2445585825
 31
0.0
  0
LINE
  5
2F8
330
2
100
AcDbEntity
  8
TEREN$0$A-MassElement-G
  6
Continuous
 62
   210
370
     5
100
AcDbLine
 10
223049.3426749062
 20
135785.2445585825
 30
0.0
 11
223031.2803833115
 21
135774.1759720577
 31
0.0
  0
LINE
  5
2F9
330
2
100
AcDbEntity
  8
TEREN$0$A-MassElement-G
  6
Continuous
 62
   210
370
     5
100
AcDbLine
 10
223031.2803833115
 20
135774.1759720577
 30
0.0
 11
223011.7089600874
 21
135766.0692231233
 31
0.0
  0
LINE
  5
2FA
330
2
100
AcDbEntity
  8
TEREN$0$A-MassElement-G
  6
Continuous
 62
   210
370
     5
100
AcDbLine
 10
223011.7089600874
 20
135766.0692231233
 30
0.0
 11
222991.1103186271
 21
135761.1239268428
 31
0.0
  0
LINE
  5
2FB
330
2
100
AcDbEntity
  8
TEREN$0$A-MassElement-G
  6
Continuous
 62
   210
370
     5
100
AcDbLine
 10
222991.1103186271
 20
135761.1239268428
 30
0.0
 11
222969.9916658467
 21
135759.4618528231
 31
0.0
  0
LINE
  5
2FC
330
2
100
AcDbEntity
  8
TEREN$0$A-MassElement-G
  6
Continuous
 62
   210
370
     5
100
AcDbLine
 10
222969.9916658467
 20
135759.4618528231
 30
0.0
 11
222801.1237138796
 21
135759.4146486424
 31
0.0
  0
LWPOLYLINE
  5
2FD
330
2
100
AcDbEntity
  8
teren$0$A-PlantOutdoor-G
370
     5
100
AcDbPolyline
 90
        2
 70
     0
 43
0.0
 10
222719.6250157331
 20
137059.4618528231
 10
222729.6250157331
 20
137089.4618528231
  0
LWPOLYLINE
  5
2FE
330
2
100
AcDbEntity
  8
teren$0$A-PlantOutdoor-G
370
     5
100
AcDbPolyline
 90
        2
 70
     0
 43
0.0
 10
222734.2583656195
 20
137059.4618528231
 10
222766.4081580567
 20
137107.686541479
  0
LWPOLYLINE
  5
2FF
330
2
100
AcDbEntity
  8
teren$0$A-PlantOutdoor-G
370
     5
100
AcDbPolyline
 90
        2
 70
     0
 43
0.0
 10
222748.8917155058
 20
137059.4618528231
 10
222778.8917155058
 20
137089.4618528231
  0
LWPOLYLINE
  5
300
330
2
100
AcDbEntity
  8
teren$0$A-PlantOutdoor-G
370
     5
100
AcDbPolyline
 90
        2
 70
     0
 43
0.0
 10
222748.8917155058
 20
137036.1285194898
 10
222799.3390130567
 20
137082.3718755781
  0
LWPOLYLINE
  5
301
330
2
100
AcDbEntity
  8
teren$0$A-PlantOutdoor-G
370
     5
100
AcDbPolyline
 90
        2
 70
     0
 43
0.0
 10
222748.8917155058
 20
137012.7951861564
 10
222778.8917155058
 20
137037.7951861565
  0
LWPOLYLINE
  5
302
330
2
100
AcDbEntity
  8
teren$0$A-PlantOutdoor-G
370
     5
100
AcDbPolyline
 90
        2
 70
     0
 43
0.0
 10
222748.8917155058
 20
136989.4618528231
 10
222797.8766430823
 20
137026.2005485054
  0
LWPOLYLINE
  5
303
330
2
100
AcDbEntity
  8
teren$0$A-PlantOutdoor-G
370
     5
100
AcDbPolyline
 90
        2
 70
     0
 43
0.0
 10
222748.8917155058
 20
136966.1285194898
 10
222778.8917155058
 20
136986.1285194898
  0
LWPOLYLINE
  5
304
330
2
100
AcDbEntity
  8
teren$0$A-PlantOutdoor-G
370
     5
100
AcDbPolyline
 90
        2
 70
     0
 43
0.0
 10
222748.8917155058
 20
136942.7951861564
 10
222796.2097308166
 20
136970.3973617544
  0
LWPOLYLINE
  5
305
330
2
100
AcDbEntity
  8
teren$0$A-PlantOutdoor-G
370
     5
100
AcDbPolyline
 90
        2
 70
     0
 43
0.0
 10
222748.8917155058
 20
136919.4618528231
 10
222778.8917155058
 20
136934.4618528231
  0
LWPOLYLINE
  5
306
330
2
100
AcDbEntity
  8
teren$0$A-PlantOutdoor-G
370
     5
100
AcDbPolyline
 90
        2
 70
     0
 43
0.0
 10
222748.8917155058
 20
136896.1285194898
 10
222797.4326589765
 20
136916.3539126025
  0
LWPOLYLINE
  5
307
330
2
100
AcDbEntity
  8
teren$0$A-PlantOutdoor-G
370
     5
100
AcDbPolyline
 90
        2
 70
     0
 43
0.0
 10
222748.8917155058
 20
136872.7951861564
 10
222778.8917155058
 20
136882.7951861565
  0
LWPOLYLINE
  5
308
330
2
100
AcDbEntity
  8
teren$0$A-PlantOutdoor-G
370
     5
100
AcDbPolyline
 90
        2
 70
     0
 43
0.0
 10
222748.8917155058
 20
136849.4618528231
 10
222804.4050282563
 20
136863.3401810107
  0
LWPOLYLINE
  5
309
330
2
100
AcDbEntity
  8
teren$0$A-PlantOutdoor-G
370
     5
100
AcDbPolyline
 90
        2
 70
     0
 43
0.0
 10
222748.8917155058
 20
136826.1285194898
 10
222775.0388589971
 20
136830.4863767383
  0
LINE
  5
30A
330
2
100
AcDbEntity
  8
teren$0$A-PlantOutdoor-G
370
     5
100
AcDbLine
 10
222751.953333145
 20
136803.0503209597
 30
0.0
 11
222795.3241645847
 21
136806.664556913
 31
0.0
  0
LWPOLYLINE
  5
30B
330
2
100
AcDbEntity
  8
TEREN$0$A-MassElement-G
  6
Continuous
 62
   210
370
     5
100
AcDbPolyline
 90
        3
 70
     0
 43
0.0
 10
222808.8917155059
 20
136779.4618528231
 10
222808.8917155059
 20
137119.4618528231
 10
222704.9916658467
 20
137119.4618528231
  0
HATCH
  5
30C
330
2
100
AcDbEntity
  8
0Hatch
 48
4.0
100
AcDbHatch
 10
0.0
 20
0.0
 30
0.0
210
0.0
220
0.0
230
1.0
  2
SOLID
 70
     1
 71
     0
 91
        1
 92
        7
 72
     0
 73
     1
 93
        8
 10
223479.9916658467
 20
136618.4618528231
 10
223399.7914295137
 20
136618.4618528231
 10
223399.7914295137
 20
136678.4618528231
 10
223539.9916658467
 20
136678.4618528231
 10
223539.9916658467
 20
136000.4618528231
 10
223469.9916658467
 20
136000.4618528231
 10
223469.9916658467
 20
136060.4618528231
 10
223479.9916658467
 20
136060.4618528231
 97
        0
 75
     0
 76
     1
 47
1.583881310445319
 98
        1
 10
223504.0181662867
 20
136213.8413065777
1001
ACAD
1010
0.0
1020
0.0
1030
0.0
  0
HATCH
  5
30D
330
2
100
AcDbEntity
  8
0Hatch
 48
4.0
100
AcDbHatch
 10
0.0
 20
0.0
 30
0.0
210
0.0
220
0.0
230
1.0
  2
SOLID
 70
     1
 71
     0
 91
        1
 92
        7
 72
     0
 73
     1
 93
        8
 10
223229.9916658467
 20
136060.4618528231
 10
223229.9916658467
 20
136000.4618528231
 10
223159.9916658467
 20
136000.4618528231
 10
223159.9916658467
 20
135899.4618528231
 10
222659.9916658467
 20
135899.4618528231
 10
222659.9916658467
 20
135959.4618528231
 10
223099.9916658467
 20
135959.4618528231
 10
223099.9916658467
 20
136060.4618528231
 97
        0
 75
     0
 76
     1
 47
1.583881310445319
 98
        1
 10
223163.273944814
 20
136036.4466106708
1001
ACAD
1010
0.0
1020
0.0
1030
0.0
  0
HATCH
  5
30E
330
2
100
AcDbEntity
  8
0Hatch
 48
4.0
100
AcDbHatch
 10
0.0
 20
0.0
 30
0.0
210
0.0
220
0.0
230
1.0
  2
SOLID
 70
     1
 71
     0
 91
        1
 92
        7
 72
     0
 73
     1
 93
       20
 10
223099.9916658467
 20
136618.4618528231
 10
223099.9916658467
 20
136719.4618528231
 10
222119.9916658467
 20
136719.4618528231
 10
222119.9916658467
 20
136468.4618528231
 10
222029.9916658468
 20
136468.4618528231
 10
222029.9916658468
 20
136210.5261161839
 10
222119.9916658467
 20
136210.3337373193
 10
222119.9916658467
 20
135959.4618528231
 10
222559.9916658467
 20
135959.4618528231
 10
222559.9916658467
 20
135899.4618528231
 10
222059.9916658467
 20
135899.4618528231
 10
222059.9916658467
 20
136150.4618528231
 10
221969.9916658469
 20
136150.6542316878
 10
221969.9916658468
 20
136528.4618528231
 10
222059.9916658467
 20
136528.4618528231
 10
222059.9916658467
 20
136779.4618528231
 10
223159.9916658467
 20
136779.4618528231
 10
223159.9916658467
 20
136678.4618528231
 10
223299.7914295137
 20
136678.4618528231
 10
223299.7914295138
 20
136618.4618528231
 97
        0
 75
     0
 76
     1
 47
1.987654777062425
 98
        1
 10
223162.961595257
 20
136647.2534133406
1001
ACAD
1010
0.0
1020
0.0
1030
0.0
  0
LWPOLYLINE
  5
30F
330
2
100
AcDbEntity
  8
A-Wall D-G
  6
Continuous
 62
     7
370
     5
100
AcDbPolyline
 90
       12
 70
     1
 43
0.0
 10
223539.9916658467
 20
136678.4618528231
 10
223539.9916658467
 20
136000.4618528231
 10
223159.9916658467
 20
136000.4618528231
 10
223159.9916658467
 20
135899.4618528231
 10
222059.9916658467
 20
135899.4618528231
 10
222059.9916658467
 20
136150.4618528231
 10
221969.9916658468
 20
136150.6542316878
 10
221969.9916658468
 20
136528.4618528231
 10
222059.9916658467
 20
136528.4618528231
 10
222059.9916658467
 20
136779.4618528231
 10
223159.9916658467
 20
136779.4618528231
 10
223159.9916658467
 20
136678.4618528231
  0
LINE
  5
310
330
2
100
AcDbEntity
  8
A-Wall D-G
  6
Continuous
 62
     7
370
     5
100
AcDbLine
 10
223299.7914295137
 20
136678.4618528231
 30
0.0
 11
223299.7914295137
 21
136618.4618528231
 31
0.0
  0
LINE
  5
311
330
2
100
AcDbEntity
  8
A-Wall D-G
  6
Continuous
 62
     7
370
     5
100
AcDbLine
 10
223399.7914295137
 20
136678.4618528231
 30
0.0
 11
223399.7914295137
 21
136617.4729438643
 31
0.0
  0
LINE
  5
312
330
2
100
AcDbEntity
  8
A-Wall D-G
  6
Continuous
 62
     7
370
     5
100
AcDbLine
 10
223469.9916658467
 20
136000.4618528231
 30
0.0
 11
223469.9916658467
 21
136060.4618528231
 31
0.0
  0
LINE
  5
313
330
2
100
AcDbEntity
  8
A-Wall D-G
  6
Continuous
 62
     7
370
     5
100
AcDbLine
 10
223229.9916658467
 20
136000.4618528231
 30
0.0
 11
223229.9916658467
 21
136060.4618528231
 31
0.0
  0
LINE
  5
314
330
2
100
AcDbEntity
  8
A-Wall D-G
  6
Continuous
 62
     7
370
     5
100
AcDbLine
 10
222659.9916658467
 20
135899.4618528231
 30
0.0
 11
222659.9916658467
 21
135959.4618528231
 31
0.0
  0
LINE
  5
315
330
2
100
AcDbEntity
  8
A-Wall D-G
  6
Continuous
 62
     7
370
     5
100
AcDbLine
 10
222559.9916658467
 20
135899.4618528231
 30
0.0
 11
222559.9916658467
 21
135959.4618528231
 31
0.0
  0
LWPOLYLINE
  5
316
330
2
100
AcDbEntity
  8
A-Wall D-G
  6
Continuous
 62
     7
370
     5
100
AcDbPolyline
 90
       12
 70
     1
 43
0.0
 10
223479.9916658467
 20
136618.4618528231
 10
223479.9916658467
 20
136060.4618528231
 10
223099.9916658467
 20
136060.4618528231
 10
223099.9916658467
 20
135959.4618528231
 10
222119.9916658467
 20
135959.4618528231
 10
222119.9916658467
 20
136210.3337373192
 10
222029.9916658468
 20
136210.5261161839
 10
222029.9916658468
 20
136468.4618528231
 10
222119.9916658467
 20
136468.4618528231
 10
222119.9916658467
 20
136719.4618528231
 10
223099.9916658467
 20
136719.4618528231
 10
223099.9916658467
 20
136618.4618528231
  0
DIMENSION
  5
317
330
2
100
AcDbEntity
  8
0Wymiary-PL
100
AcDbDimension
  2
*D9
 10
223159.9916658467
 20
137297.4787603711
 30
0.0
 11
223349.9916658467
 21
137377.4787603712
 31
0.0
 71
     5
 42
380.0
  3
500
100
AcDbAlignedDimension
 13
223539.9916658467
 23
136235.916753274
 33
0.0
 14
223159.9916658467
 24
136779.4618528231
 34
0.0
 50
180.0
100
AcDbRotatedDimension
  0
DIMENSION
  5
322
330
2
100
AcDbEntity
  8
0Wymiary-PL
100
AcDbDimension
  2
*D10
 10
222059.9916658467
 20
137297.4787603711
 30
0.0
 11
222609.9916658467
 21
137377.4787603712
 31
0.0
 71
     5
 42
1100.0
  3
500
100
AcDbAlignedDimension
 13
223159.9916658467
 23
136779.4618528231
 33
0.0
 14
222059.9916658467
 24
136779.4618528231
 34
0.0
 50
180.0
100
AcDbRotatedDimension
  0
DIMENSION
  5
32D
330
2
100
AcDbEntity
  8
0Wymiary-PL
100
AcDbDimension
  2
*D11
 10
221969.9916658467
 20
137297.4787603711
 30
0.0
 11
222014.9916658467
 21
137377.4787603712
 31
0.0
 71
     5
 42
90.0
  3
500
100
AcDbAlignedDimension
 13
222059.9916658467
 23
136779.4618528231
 33
0.0
 14
221969.9916658467
 24
136528.4618528231
 34
0.0
 50
180.0
100
AcDbRotatedDimension
  0
DIMENSION
  5
33A
330
2
100
AcDbEntity
  8
0Wymiary-PL
100
AcDbDimension
  2
*D12
 10
223539.9916658467
 20
137555.3097628788
 30
0.0
 11
222754.9916658467
 21
137635.3097628788
 31
0.0
 71
     5
 42
1570.0
  3
500
100
AcDbAlignedDimension
 13
221969.9916658467
 23
136528.4618528231
 33
0.0
 14
223539.9916658467
 24
136678.4618528231
 34
0.0
 50
180.0
100
AcDbRotatedDimension
  0
DIMENSION
  5
345
330
2
100
AcDbEntity
  8
0Wymiary-PL
100
AcDbDimension
  2
*D13
 10
223765.7627924819
 20
136678.4618528231
 30
0.0
 11
223685.7627924818
 21
136728.9618528232
 31
0.0
 71
     5
 42
101.0
  3
500
100
AcDbAlignedDimension
 13
223159.9916658467
 23
136779.4618528231
 33
0.0
 14
223159.9916658467
 24
136678.4618528231
 34
0.0
 50
90.0
100
AcDbRotatedDimension
  0
DIMENSION
  5
352
330
2
100
AcDbEntity
  8
0Wymiary-PL
100
AcDbDimension
  2
*D14
 10
223765.7627924819
 20
136000.4618528231
 30
0.0
 11
223685.7627924818
 21
136339.4618528232
 31
0.0
 71
     5
 42
678.0
  3
500
100
AcDbAlignedDimension
 13
223159.9916658467
 23
136678.4618528231
 33
0.0
 14
223539.9916658467
 24
136000.4618528231
 34
0.0
 50
90.0
100
AcDbRotatedDimension
  0
DIMENSION
  5
35D
330
2
100
AcDbEntity
  8
0Wymiary-PL
100
AcDbDimension
  2
*D15
 10
223765.7627924819
 20
135899.4618528231
 30
0.0
 11
223685.7627924818
 21
135949.9618528232
 31
0.0
 71
     5
 42
101.0
  3
500
100
AcDbAlignedDimension
 13
223539.9916658467
 23
136000.4618528231
 33
0.0
 14
223029.1770311316
 24
135899.4618528231
 34
0.0
 50
90.0
100
AcDbRotatedDimension
  0
DIMENSION
  5
36A
330
2
100
AcDbEntity
  8
0Wymiary-PL
100
AcDbDimension
  2
*D16
 10
224039.1827112825
 20
136779.4618528231
 30
0.0
 11
223959.1827112825
 21
136339.4618528232
 31
0.0
 71
     5
 42
880.0
  3
500
100
AcDbAlignedDimension
 13
223029.1770311316
 23
135899.4618528231
 33
0.0
 14
223029.1770311316
 24
136779.4618528231
 34
0.0
 50
90.0
100
AcDbRotatedDimension
  0
LINE
  5
375
330
2
100
AcDbEntity
  8
TEREN$0$A-MassElement-G
  6
Continuous
 62
   210
370
     5
100
AcDbLine
 10
218019.7868238984
 20
135769.4618528231
 30
0.0
 11
218019.7868238984
 21
135899.4618528231
 31
0.0
  0
LINE
  5
376
330
2
100
AcDbEntity
  8
TEREN$0$A-MassElement-G
  6
Continuous
 62
   210
370
     5
100
AcDbLine
 10
222779.9916658467
 20
135769.4618528231
 30
0.0
 11
222779.9916658467
 21
135899.4618528231
 31
0.0
  0
ENDSEC
  0
SECTION
  2
OBJECTS
  0
DICTIONARY
  5
B
330
0
100
AcDbDictionary
281
     1
  3
ACAD_COLOR
350
39A
  3
ACAD_GROUP
350
395
  3
ACAD_LAYOUT
350
379
  3
ACAD_MATERIAL
350
D
  3
ACAD_MLINESTYLE
350
396
  3
ACAD_PLOTSETTINGS
350
397
  3
ACAD_PLOTSTYLENAME
350
A
  3
ACAD_SCALELIST
350
39B
  3
ACAD_TABLESTYLE
350
39C
  3
ACAD_VISUALSTYLE
350
37C
  3
ACDB_RECOMPOSE_DATA
350
3BE
  3
AcDbVariableDictionary
350
3B3
  3
DWGPROPS
350
3BF
  0
DICTIONARY
  5
383
330
382
100
AcDbDictionary
280
     1
281
     1
  3
ACAD_LAYERFILTERS
360
384
  3
ACAD_LAYERSTATES
360
385
  3
ACLYDICTIONARY
360
386
  0
DICTIONARY
  5
7
330
6
100
AcDbDictionary
280
     1
281
     1
  3
ADSK_XREC_LAYER_RECONCILED
360
8
  0
DICTIONARY
  5
1D
330
1C
100
AcDbDictionary
280
     1
281
     1
  3
ADSK_XREC_LAYER_RECONCILED
360
1E
  0
DICTIONARY
  5
12
330
11
100
AcDbDictionary
280
     1
281
     1
  3
ADSK_XREC_LAYER_RECONCILED
360
13
  0
DICTIONARY
  5
21
330
20
100
AcDbDictionary
280
     1
281
     1
  3
ADSK_XREC_LAYER_RECONCILED
360
22
  0
DICTIONARY
  5
93
330
92
100
AcDbDictionary
280
     1
281
     1
  3
ADSK_XREC_LAYER_RECONCILED
360
94
  0
DICTIONARY
  5
16F
330
16E
100
AcDbDictionary
280
     1
281
     1
  3
ADSK_XREC_LAYER_RECONCILED
360
170
  0
DICTIONARY
  5
8F
330
8E
100
AcDbDictionary
280
     1
281
     1
  3
ADSK_XREC_LAYER_RECONCILED
360
90
  0
DICTIONARY
  5
155
330
154
100
AcDbDictionary
280
     1
281
     1
  0
DICTIONARY
  5
98
330
97
100
AcDbDictionary
280
     1
281
     1
  0
DICTIONARY
  5
A3
330
A2
100
AcDbDictionary
280
     1
281
     1
  0
DICTIONARY
  5
3
330
2
100
AcDbDictionary
280
     1
281
     1
  3
ACAD_SORTENTS
360
3B2
  0
DICTIONARY
  5
176
330
175
100
AcDbDictionary
280
     1
281
     1
  3
ACAD_SORTENTS
360
3B1
  0
DICTIONARY
  5
39A
102
{ACAD_REACTORS
330
B
102
}
330
B
100
AcDbDictionary
281
     1
  0
DICTIONARY
  5
395
102
{ACAD_REACTORS
330
B
102
}
330
B
100
AcDbDictionary
281
     1
  0
DICTIONARY
  5
379
102
{ACAD_REACTORS
330
B
102
}
330
B
100
AcDbDictionary
281
     1
  3
Layout1
350
381
  3
Model
350
378
  0
DICTIONARY
  5
D
102
{ACAD_REACTORS
330
B
102
}
330
B
100
AcDbDictionary
281
     1
  3
ByBlock
350
399
  3
ByLayer
350
398
  3
Global
350
C
  0
DICTIONARY
  5
396
102
{ACAD_REACTORS
330
B
102
}
330
B
100
AcDbDictionary
281
     1
  3
Standard
350
39D
  0
DICTIONARY
  5
397
102
{ACAD_REACTORS
330
B
102
}
330
B
100
AcDbDictionary
281
     1
  0
ACDBDICTIONARYWDFLT
  5
A
102
{ACAD_REACTORS
330
B
102
}
330
B
100
AcDbDictionary
281
     1
  3
Normal
350
9
100
AcDbDictionaryWithDefault
340
9
  0
DICTIONARY
  5
39B
102
{ACAD_REACTORS
330
B
102
}
330
B
100
AcDbDictionary
281
     1
  3
A0
350
3A2
  3
A1
350
3A3
  3
A2
350
3A4
  3
A3
350
3A5
  3
A4
350
3A6
  3
A5
350
3A7
  3
A6
350
3A8
  3
A7
350
3A9
  3
A8
350
3AA
  3
A9
350
3AB
  3
B0
350
3AC
  3
B1
350
3AD
  3
B2
350
3AE
  3
B3
350
3AF
  3
B4
350
3B0
  0
DICTIONARY
  5
39C
102
{ACAD_REACTORS
330
B
102
}
330
B
100
AcDbDictionary
281
     1
  3
Standard
350
39E
  0
DICTIONARY
  5
37C
102
{ACAD_REACTORS
330
B
102
}
330
B
100
AcDbDictionary
281
     1
  3
2dWireframe
350
37B
  3
3dWireframe
350
3A1
  3
Realistic
350
3A0
  0
XRECORD
  5
3BE
102
{ACAD_REACTORS
330
B
102
}
330
B
100
AcDbXrecord
280
     1
 90
        1
330
39E
  0
DICTIONARY
  5
3B3
102
{ACAD_REACTORS
330
B
102
}
330
B
100
AcDbDictionary
281
     1
  3
CANNOSCALE
350
3B7
  3
CMLEADERSTYLE
350
3B5
  3
CTABLESTYLE
350
3B4
  3
DIMASSOC
350
3BB
  3
HIDETEXT
350
3BA
  3
INDEXCTL
350
3B9
  3
MSLTSCALE
350
3B6
  3
SORTENTS
350
3B8
  0
XRECORD
  5
3BF
102
{ACAD_REACTORS
330
B
102
}
330
B
100
AcDbXrecord
280
     1
  1
DWGPROPS COOKIE
  2

  3

  4

  6

  7

  8
anna.ciezak
  9

300
=
301
=
302
=
303
=
304
=
305
=
306
=
307
=
308
=
309
=
 40
9.004580393518518
 41
2452027.670547454
 42
2455054.610243229
  1

 90
        0
  0
DICTIONARY
  5
384
102
{ACAD_REACTORS
330
383
102
}
330
383
100
AcDbDictionary
281
     1
  0
DICTIONARY
  5
385
102
{ACAD_REACTORS
330
383
102
}
330
383
100
AcDbDictionary
281
     1
  0
DICTIONARY
  5
386
102
{ACAD_REACTORS
330
383
102
}
330
383
100
AcDbDictionary
281
     1
1001
ACAD
1000
<All
  0
XRECORD
  5
8
102
{ACAD_REACTORS
330
7
102
}
330
7
100
AcDbXrecord
280
     1
290
     1
  0
XRECORD
  5
1E
102
{ACAD_REACTORS
330
1D
102
}
330
1D
100
AcDbXrecord
280
     1
290
     1
  0
XRECORD
  5
13
102
{ACAD_REACTORS
330
12
102
}
330
12
100
AcDbXrecord
280
     1
290
     1
  0
XRECORD
  5
22
102
{ACAD_REACTORS
330
21
102
}
330
21
100
AcDbXrecord
280
     1
290
     1
  0
XRECORD
  5
94
102
{ACAD_REACTORS
330
93
102
}
330
93
100
AcDbXrecord
280
     1
290
     1
  0
XRECORD
  5
170
102
{ACAD_REACTORS
330
16F
102
}
330
16F
100
AcDbXrecord
280
     1
290
     1
  0
XRECORD
  5
90
102
{ACAD_REACTORS
330
8F
102
}
330
8F
100
AcDbXrecord
280
     1
290
     1
  0
SORTENTSTABLE
  5
3B2
102
{ACAD_REACTORS
330
3
102
}
330
3
100
AcDbSortentsTable
330
2
331
169
  5
15F
331
F3
  5
F5
331
132
  5
134
331
13A
  5
13C
331
FB
  5
FD
331
142
  5
144
331
CC
  5
CE
331
103
  5
105
331
10B
  5
10D
331
14A
  5
14C
331
D4
  5
D6
331
DC
  5
DE
331
113
  5
115
331
152
  5
164
331
E4
  5
E6
331
11B
  5
11D
331
15A
  5
16B
331
162
  5
158
331
EC
  5
EE
331
123
  5
125
331
12B
  5
12D
331
133
  5
135
331
16A
  5
161
331
F4
  5
F6
331
FC
  5
FE
331
13B
  5
13D
331
CD
  5
CF
331
104
  5
106
331
143
  5
145
331
14B
  5
14D
331
D5
  5
D7
331
10C
  5
10E
331
153
  5
166
331
DD
  5
DF
331
114
  5
116
331
11C
  5
11E
331
15B
  5
CC
331
E5
  5
E7
331
ED
  5
EF
331
124
  5
126
331
163
  5
159
331
12C
  5
12E
331
16B
  5
165
331
F5
  5
F7
331
134
  5
136
331
13C
  5
13E
331
FD
  5
FF
331
144
  5
146
331
CE
  5
D0
331
105
  5
107
331
10D
  5
10F
331
14C
  5
14E
331
D6
  5
D8
331
DE
  5
E0
331
115
  5
117
331
15C
  5
CD
331
E6
  5
E8
331
11D
  5
11F
331
164
  5
15A
331
EE
  5
F0
331
125
  5
127
331
12D
  5
12F
331
F6
  5
F8
331
135
  5
137
331
FE
  5
100
331
13D
  5
13F
331
CF
  5
D1
331
106
  5
108
331
145
  5
147
331
14D
  5
14F
331
D7
  5
D9
331
10E
  5
110
331
DF
  5
E1
331
116
  5
118
331
11E
  5
120
331
15D
  5
151
331
E7
  5
E9
331
EF
  5
F1
331
126
  5
128
331
165
  5
15B
331
12E
  5
130
331
F7
  5
F9
331
136
  5
138
331
13E
  5
140
331
FF
  5
101
331
107
  5
109
331
146
  5
148
331
D0
  5
D2
331
10F
  5
111
331
14E
  5
150
331
D8
  5
DA
331
E0
  5
E2
331
117
  5
119
331
156
  5
167
331
15E
  5
152
331
E8
  5
EA
331
11F
  5
121
331
166
  5
15C
331
127
  5
129
331
12F
  5
131
331
F0
  5
F2
331
F8
  5
FA
331
137
  5
139
331
100
  5
102
331
13F
  5
141
331
D1
  5
D3
331
108
  5
10A
331
147
  5
149
331
14F
  5
160
331
D9
  5
DB
331
110
  5
112
331
118
  5
11A
331
157
  5
168
331
E1
  5
E3
331
120
  5
122
331
15F
  5
153
331
E9
  5
EB
331
128
  5
12A
331
167
  5
15D
331
F1
  5
F3
331
130
  5
132
331
F9
  5
FB
331
138
  5
13A
331
140
  5
142
331
101
  5
103
331
109
  5
10B
331
148
  5
14A
331
D2
  5
D4
331
111
  5
113
331
150
  5
162
331
DA
  5
DC
331
E2
  5
E4
331
119
  5
11B
331
158
  5
169
331
160
  5
156
331
EA
  5
EC
331
121
  5
123
331
129
  5
12B
331
131
  5
133
331
168
  5
15E
331
F2
  5
F4
331
FA
  5
FC
331
139
  5
13B
331
102
  5
104
331
141
  5
143
331
D3
  5
D5
331
10A
  5
10C
331
149
  5
14B
331
151
  5
163
331
DB
  5
DD
331
112
  5
114
331
11A
  5
11C
331
159
  5
16A
331
E3
  5
E5
331
122
  5
124
331
161
  5
157
331
EB
  5
ED
331
12A
  5
12C
  0
SORTENTSTABLE
  5
3B1
102
{ACAD_REACTORS
330
176
102
}
330
176
100
AcDbSortentsTable
330
175
  0
LAYOUT
  5
381
102
{ACAD_XDICTIONARY
360
3C4
102
}
102
{ACAD_REACTORS
330
379
102
}
330
379
100
AcDbPlotSettings
  1

  2
C:\PROGRAM FILES\AUTOCAD LT 2000\plotters\DWF ePlot.pc3
  4

  6

 40
0.0
 41
0.0
 42
0.0
 43
0.0
 44
0.0
 45
0.0
 46
0.0
 47
0.0
 48
0.0
 49
0.0
140
0.0
141
0.0
142
1.0
143
1.0
 70
   688
 72
     0
 73
     0
 74
     5
  7
monochrome_140.ctb
 75
    16
147
1.0
148
0.0
149
0.0
100
AcDbLayout
  1
Layout1
 70
     1
 71
     1
 10
0.0
 20
0.0
 11
420.0
 21
297.0
 12
0.0
 22
0.0
 32
0.0
 14
1.000000000000000E+20
 24
1.000000000000000E+20
 34
1.000000000000000E+20
 15
-1.000000000000000E+20
 25
-1.000000000000000E+20
 35
-1.000000000000000E+20
146
0.0
 13
0.0
 23
0.0
 33
0.0
 16
1.0
 26
0.0
 36
0.0
 17
0.0
 27
1.0
 37
0.0
 76
     0
330
37E
  0
LAYOUT
  5
378
102
{ACAD_XDICTIONARY
360
3C2
102
}
102
{ACAD_REACTORS
330
379
102
}
330
379
100
AcDbPlotSettings
  1

  2
PDFCreator
  4
A4
  6
RODODENDRON 5
 40
3.174999952316284
 41
3.174999952316284
 42
3.175003051757812
 43
3.17498779296875
 44
209.8886566162109
 45
297.0530090332031
 46
-0.230673193931878
 47
5.151510643959028
 48
215187.2000545948
 49
127657.5157057546
140
225387.2000545948
141
141677.5157057546
142
1.0
143
50.0
 70
 11956
 72
     1
 73
     0
 74
     4
  7
monochrome_140.ctb
 75
    25
147
0.02
148
-215187.2000545948
149
-127657.5157057546
100
AcDbLayout
  1
Model
 70
     1
 71
     0
 10
0.0
 20
0.0
 11
12.0
 21
9.0
 12
0.0
 22
0.0
 32
0.0
 14
0.0
 24
0.0
 34
0.0
 15
0.0
 25
0.0
 35
0.0
146
0.0
 13
0.0
 23
0.0
 33
0.0
 16
1.0
 26
0.0
 36
0.0
 17
0.0
 27
1.0
 37
0.0
 76
     0
330
2
331
390
1001
ACAD_PSEXT
1000
PDFCreator
1000
PDFCreator
1000
PDFCreator:
1000
eDoc Printer
1070
     0
  0
MATERIAL
  5
399
102
{ACAD_XDICTIONARY
360
3C8
102
}
102
{ACAD_REACTORS
330
D
102
}
330
D
100
AcDbMaterial
  1
ByBlock
 73
     1
 78
     1
172
     1
176
     1
270
     1
274
     1
  0
MATERIAL
  5
398
102
{ACAD_XDICTIONARY
360
3C6
102
}
102
{ACAD_REACTORS
330
D
102
}
330
D
100
AcDbMaterial
  1
ByLayer
 73
     1
 78
     1
172
     1
176
     1
270
     1
274
     1
  0
MATERIAL
  5
C
102
{ACAD_XDICTIONARY
360
3C0
102
}
102
{ACAD_REACTORS
330
D
102
}
330
D
100
AcDbMaterial
  1
Global
 73
     1
 78
     1
172
     1
176
     1
270
     1
274
     1
  0
MLINESTYLE
  5
39D
102
{ACAD_REACTORS
330
396
102
}
330
396
100
AcDbMlineStyle
  2
STANDARD
 70
     0
  3

 62
   256
 51
90.0
 52
90.0
 71
     2
 49
0.5
 62
   256
  6
BYLAYER
 49
-0.5
 62
   256
  6
BYLAYER
  0
ACDBPLACEHOLDER
  5
9
102
{ACAD_REACTORS
330
A
102
}
330
A
  0
SCALE
  5
3A2
102
{ACAD_REACTORS
330
39B
102
}
330
39B
100
AcDbScale
 70
     0
300
1/64" = 1'-0"
140
0.015625
141
12.0
290
     0
  0
SCALE
  5
3A3
102
{ACAD_REACTORS
330
39B
102
}
330
39B
100
AcDbScale
 70
     0
300
1/32" = 1'-0"
140
0.03125
141
12.0
290
     0
  0
SCALE
  5
3A4
102
{ACAD_REACTORS
330
39B
102
}
330
39B
100
AcDbScale
 70
     0
300
1/16" = 1'-0"
140
0.0625
141
12.0
290
     0
  0
SCALE
  5
3A5
102
{ACAD_REACTORS
330
39B
102
}
330
39B
100
AcDbScale
 70
     0
300
3/32" = 1'-0"
140
0.09375
141
12.0
290
     0
  0
SCALE
  5
3A6
102
{ACAD_REACTORS
330
39B
102
}
330
39B
100
AcDbScale
 70
     0
300
1/8" = 1'-0"
140
0.125
141
12.0
290
     0
  0
SCALE
  5
3A7
102
{ACAD_REACTORS
330
39B
102
}
330
39B
100
AcDbScale
 70
     0
300
3/16" = 1'-0"
140
0.1875
141
12.0
290
     0
  0
SCALE
  5
3A8
102
{ACAD_REACTORS
330
39B
102
}
330
39B
100
AcDbScale
 70
     0
300
1/4" = 1'-0"
140
0.25
141
12.0
290
     0
  0
SCALE
  5
3A9
102
{ACAD_REACTORS
330
39B
102
}
330
39B
100
AcDbScale
 70
     0
300
3/8" = 1'-0"
140
0.375
141
12.0
290
     0
  0
SCALE
  5
3AA
102
{ACAD_REACTORS
330
39B
102
}
330
39B
100
AcDbScale
 70
     0
300
1/2" = 1'-0"
140
0.5
141
12.0
290
     0
  0
SCALE
  5
3AB
102
{ACAD_REACTORS
330
39B
102
}
330
39B
100
AcDbScale
 70
     0
300
3/4" = 1'-0"
140
0.75
141
12.0
290
     0
  0
SCALE
  5
3AC
102
{ACAD_REACTORS
330
39B
102
}
330
39B
100
AcDbScale
 70
     0
300
1" = 1'-0"
140
1.0
141
12.0
290
     0
  0
SCALE
  5
3AD
102
{ACAD_REACTORS
330
39B
102
}
330
39B
100
AcDbScale
 70
     0
300
1 1/2" = 1'-0"
140
1.5
141
12.0
290
     0
  0
SCALE
  5
3AE
102
{ACAD_REACTORS
330
39B
102
}
330
39B
100
AcDbScale
 70
     0
300
3" = 1'-0"
140
3.0
141
12.0
290
     0
  0
SCALE
  5
3AF
102
{ACAD_REACTORS
330
39B
102
}
330
39B
100
AcDbScale
 70
     0
300
6" = 1'-0"
140
6.0
141
12.0
290
     0
  0
SCALE
  5
3B0
102
{ACAD_REACTORS
330
39B
102
}
330
39B
100
AcDbScale
 70
     0
300
1'-0" = 1'-0"
140
12.0
141
12.0
290
     1
  0
TABLESTYLE
  5
39E
102
{ACAD_XDICTIONARY
360
39F
102
}
102
{ACAD_REACTORS
330
39C
102
}
330
39C
100
AcDbTableStyle
  3
Standard
 70
     0
 71
     0
 40
0.06
 41
0.06
280
     0
281
     0
  7
Standard
140
0.18
170
     2
 62
     0
 63
     7
283
     0
274
    -2
284
     1
 64
     0
275
    -2
285
     1
 65
     0
276
    -2
286
     1
 66
     0
277
    -2
287
     1
 67
     0
278
    -2
288
     1
 68
     0
279
    -2
289
     1
 69
     0
  7
Standard
140
0.25
170
     5
 62
     0
 63
     7
283
     0
274
    -2
284
     1
 64
     0
275
    -2
285
     1
 65
     0
276
    -2
286
     1
 66
     0
277
    -2
287
     1
 67
     0
278
    -2
288
     1
 68
     0
279
    -2
289
     1
 69
     0
  7
Standard
140
0.18
170
     5
 62
     0
 63
     7
283
     0
274
    -2
284
     1
 64
     0
275
    -2
285
     1
 65
     0
276
    -2
286
     1
 66
     0
277
    -2
287
     1
 67
     0
278
    -2
288
     1
 68
     0
279
    -2
289
     1
 69
     0
  0
VISUALSTYLE
  5
37B
102
{ACAD_REACTORS
330
37C
102
}
330
37C
100
AcDbVisualStyle
  2
2dWireframe
 70
     4
 71
     0
 72
     2
 73
     0
 90
        0
 40
-0.6
 41
-30.0
 62
     5
 63
     7
 74
     1
 91
        4
 64
     7
 65
   257
 75
     1
175
     1
 42
1.0
 92
        0
 66
   257
 43
1.0
 76
     1
 77
     6
 78
     2
 67
     7
 79
     5
170
     0
171
     0
290
     0
174
     0
 93
        1
 44
0.0
173
     0
291
     0
 45
0.0
1001
ACAD
1000
AcDbSavedByObjectVersion
1070
     0
  0
VISUALSTYLE
  5
3A1
102
{ACAD_REACTORS
330
37C
102
}
330
37C
100
AcDbVisualStyle
  2
3dWireframe
 70
     5
 71
     0
 72
     2
 73
     0
 90
        0
 40
-0.6
 41
-30.0
 62
     5
 63
     7
 74
     1
 91
        4
 64
     7
 65
   257
 75
     1
175
     1
 42
1.0
 92
        0
 66
   257
 43
1.0
 76
     1
 77
     6
 78
     2
 67
     7
 79
     5
170
     0
171
     0
290
     0
174
     0
 93
        1
 44
0.0
173
     0
291
     0
 45
0.0
1001
ACAD
1000
AcDbSavedByObjectVersion
1070
     0
  0
VISUALSTYLE
  5
3A0
102
{ACAD_REACTORS
330
37C
102
}
330
37C
100
AcDbVisualStyle
  2
Realistic
 70
     8
 71
     2
 72
     2
 73
     0
 90
        0
 40
-0.6
 41
-30.0
 62
     5
 63
     7
 74
     1
 91
        0
 64
     7
 65
   257
 75
     1
175
     1
 42
1.0
 92
        8
 66
     8
 43
1.0
 76
     1
 77
     6
 78
     2
 67
     7
 79
     5
170
     0
171
     0
290
     0
174
     0
 93
       13
 44
0.0
173
     0
291
     0
 45
0.0
1001
ACAD
1000
AcDbSavedByObjectVersion
1070
     0
  0
DICTIONARYVAR
  5
3B7
102
{ACAD_REACTORS
330
3B3
102
}
330
3B3
100
DictionaryVariables
280
     0
  1
1/8" = 1'-0"
  0
DICTIONARYVAR
  5
3B5
102
{ACAD_REACTORS
330
3B3
102
}
330
3B3
100
DictionaryVariables
280
     0
  1
STANDARD
  0
DICTIONARYVAR
  5
3B4
102
{ACAD_REACTORS
330
3B3
102
}
330
3B3
100
DictionaryVariables
280
     0
  1
STANDARD
  0
DICTIONARYVAR
  5
3BB
102
{ACAD_REACTORS
330
3B3
102
}
330
3B3
100
DictionaryVariables
280
     0
  1
1
  0
DICTIONARYVAR
  5
3BA
102
{ACAD_REACTORS
330
3B3
102
}
330
3B3
100
DictionaryVariables
280
     0
  1
1
  0
DICTIONARYVAR
  5
3B9
102
{ACAD_REACTORS
330
3B3
102
}
330
3B3
100
DictionaryVariables
280
     0
  1
0
  0
DICTIONARYVAR
  5
3B6
102
{ACAD_REACTORS
330
3B3
102
}
330
3B3
100
DictionaryVariables
280
     0
  1
1
  0
DICTIONARYVAR
  5
3B8
102
{ACAD_REACTORS
330
3B3
102
}
330
3B3
100
DictionaryVariables
280
     0
  1
127
  0
DICTIONARY
  5
3C4
330
381
100
AcDbDictionary
280
     1
281
     1
  3
ACAD_XREC_ROUNDTRIP
360
3C5
  0
DICTIONARY
  5
3C2
330
378
100
AcDbDictionary
280
     1
281
     1
  3
ACAD_XREC_ROUNDTRIP
360
3C3
  0
DICTIONARY
  5
3C8
330
399
100
AcDbDictionary
280
     1
281
     1
  3
ACAD_XREC_ROUNDTRIP
360
3C9
  0
DICTIONARY
  5
3C6
330
398
100
AcDbDictionary
280
     1
281
     1
  3
ACAD_XREC_ROUNDTRIP
360
3C7
  0
DICTIONARY
  5
3C0
330
C
100
AcDbDictionary
280
     1
281
     1
  3
ACAD_XREC_ROUNDTRIP
360
3C1
  0
DICTIONARY
  5
39F
330
39E
100
AcDbDictionary
280
     1
281
     1
  3
ACAD_ROUNDTRIP_2008_TABLESTYLE_CELLSTYLEMAP
360
3BD
  3
ACAD_XREC_ROUNDTRIP
360
3CA
  0
XRECORD
  5
3C5
102
{ACAD_REACTORS
330
3C4
102
}
330
3C4
100
AcDbXrecord
280
     1
102
SHADEPLOT
 70
     0
102
SHADEPLOTRESLEVEL
 70
     2
102
SHADEPLOTCUSTOMDPI
 70
   300
  0
XRECORD
  5
3C3
102
{ACAD_REACTORS
330
3C2
102
}
330
3C2
100
AcDbXrecord
280
     1
102
SHADEPLOT
 70
     1
102
SHADEPLOTRESLEVEL
 70
     2
102
SHADEPLOTCUSTOMDPI
 70
   300
  0
XRECORD
  5
3C9
102
{ACAD_REACTORS
330
3C8
102
}
330
3C8
100
AcDbXrecord
280
     1
102
MATERIAL
148
0.0
149
0.0
149
0.0
 93
        0
 94
       63
282
     0
 72
     1
 77
     1
171
     1
175
     1
179
     1
273
     0
  0
XRECORD
  5
3C7
102
{ACAD_REACTORS
330
3C6
102
}
330
3C6
100
AcDbXrecord
280
     1
102
MATERIAL
148
0.0
149
0.0
149
0.0
 93
        0
 94
       63
282
     0
 72
     1
 77
     1
171
     1
175
     1
179
     1
273
     0
  0
XRECORD
  5
3C1
102
{ACAD_REACTORS
330
3C0
102
}
330
3C0
100
AcDbXrecord
280
     1
102
MATERIAL
148
0.0
149
0.0
149
0.0
 93
        0
 94
       63
282
     0
 72
     1
 77
     1
171
     1
175
     1
179
     1
273
     0
  0
CELLSTYLEMAP
  5
3BD
102
{ACAD_REACTORS
330
39F
102
}
330
39F
100
AcDbCellStyleMap
 90
        3
300
CELLSTYLE
  1
TABLEFORMAT_BEGIN
 90
        5
170
     1
 91
        0
 92
    32768
 62
   257
 93
        1
300
CONTENTFORMAT
  1
CONTENTFORMAT_BEGIN
 90
        0
 91
        0
 92
        4
 93
        0
300

 40
0.0
140
1.0
 94
        5
 62
     0
340
388
144
0.25
309
CONTENTFORMAT_END
171
     0
 94
        6
 95
        1
302
GRIDFORMAT
  1
GRIDFORMAT_BEGIN
 90
        0
 91
        1
 62
     0
 92
       -2
340
0
 93
        0
 40
0.045
309
GRIDFORMAT_END
 95
        2
302
GRIDFORMAT
  1
GRIDFORMAT_BEGIN
 90
        0
 91
        1
 62
     0
 92
       -2
340
0
 93
        0
 40
0.045
309
GRIDFORMAT_END
 95
        4
302
GRIDFORMAT
  1
GRIDFORMAT_BEGIN
 90
        0
 91
        1
 62
     0
 92
       -2
340
0
 93
        0
 40
0.045
309
GRIDFORMAT_END
 95
        8
302
GRIDFORMAT
  1
GRIDFORMAT_BEGIN
 90
        0
 91
        1
 62
     0
 92
       -2
340
0
 93
        0
 40
0.045
309
GRIDFORMAT_END
 95
       16
302
GRIDFORMAT
  1
GRIDFORMAT_BEGIN
 90
        0
 91
        1
 62
     0
 92
       -2
340
0
 93
        0
 40
0.045
309
GRIDFORMAT_END
 95
       32
302
GRIDFORMAT
  1
GRIDFORMAT_BEGIN
 90
        0
 91
        1
 62
     0
 92
       -2
340
0
 93
        0
 40
0.045
309
GRIDFORMAT_END
309
TABLEFORMAT_END
  1
CELLSTYLE_BEGIN
 90
        1
 91
        1
300
_TITLE
309
CELLSTYLE_END
300
CELLSTYLE
  1
TABLEFORMAT_BEGIN
 90
        5
170
     1
 91
        0
 92
        0
 62
   257
 93
        1
300
CONTENTFORMAT
  1
CONTENTFORMAT_BEGIN
 90
        0
 91
        0
 92
        4
 93
        0
300

 40
0.0
140
1.0
 94
        5
 62
     0
340
388
144
0.18
309
CONTENTFORMAT_END
171
     0
 94
        6
 95
        1
302
GRIDFORMAT
  1
GRIDFORMAT_BEGIN
 90
        0
 91
        1
 62
     0
 92
       -2
340
0
 93
        0
 40
0.045
309
GRIDFORMAT_END
 95
        2
302
GRIDFORMAT
  1
GRIDFORMAT_BEGIN
 90
        0
 91
        1
 62
     0
 92
       -2
340
0
 93
        0
 40
0.045
309
GRIDFORMAT_END
 95
        4
302
GRIDFORMAT
  1
GRIDFORMAT_BEGIN
 90
        0
 91
        1
 62
     0
 92
       -2
340
0
 93
        0
 40
0.045
309
GRIDFORMAT_END
 95
        8
302
GRIDFORMAT
  1
GRIDFORMAT_BEGIN
 90
        0
 91
        1
 62
     0
 92
       -2
340
0
 93
        0
 40
0.045
309
GRIDFORMAT_END
 95
       16
302
GRIDFORMAT
  1
GRIDFORMAT_BEGIN
 90
        0
 91
        1
 62
     0
 92
       -2
340
0
 93
        0
 40
0.045
309
GRIDFORMAT_END
 95
       32
302
GRIDFORMAT
  1
GRIDFORMAT_BEGIN
 90
        0
 91
        1
 62
     0
 92
       -2
340
0
 93
        0
 40
0.045
309
GRIDFORMAT_END
309
TABLEFORMAT_END
  1
CELLSTYLE_BEGIN
 90
        2
 91
        1
300
_HEADER
309
CELLSTYLE_END
300
CELLSTYLE
  1
TABLEFORMAT_BEGIN
 90
        5
170
     1
 91
        0
 92
        0
 62
   257
 93
        1
300
CONTENTFORMAT
  1
CONTENTFORMAT_BEGIN
 90
        0
 91
        0
 92
        4
 93
        0
300

 40
0.0
140
1.0
 94
        2
 62
     0
340
388
144
0.18
309
CONTENTFORMAT_END
171
     0
 94
        6
 95
        1
302
GRIDFORMAT
  1
GRIDFORMAT_BEGIN
 90
        0
 91
        1
 62
     0
 92
       -2
340
0
 93
        0
 40
0.045
309
GRIDFORMAT_END
 95
        2
302
GRIDFORMAT
  1
GRIDFORMAT_BEGIN
 90
        0
 91
        1
 62
     0
 92
       -2
340
0
 93
        0
 40
0.045
309
GRIDFORMAT_END
 95
        4
302
GRIDFORMAT
  1
GRIDFORMAT_BEGIN
 90
        0
 91
        1
 62
     0
 92
       -2
340
0
 93
        0
 40
0.045
309
GRIDFORMAT_END
 95
        8
302
GRIDFORMAT
  1
GRIDFORMAT_BEGIN
 90
        0
 91
        1
 62
     0
 92
       -2
340
0
 93
        0
 40
0.045
309
GRIDFORMAT_END
 95
       16
302
GRIDFORMAT
  1
GRIDFORMAT_BEGIN
 90
        0
 91
        1
 62
     0
 92
       -2
340
0
 93
        0
 40
0.045
309
GRIDFORMAT_END
 95
       32
302
GRIDFORMAT
  1
GRIDFORMAT_BEGIN
 90
        0
 91
        1
 62
     0
 92
       -2
340
0
 93
        0
 40
0.045
309
GRIDFORMAT_END
309
TABLEFORMAT_END
  1
CELLSTYLE_BEGIN
 90
        3
 91
        2
300
_DATA
309
CELLSTYLE_END
  0
XRECORD
  5
3CA
102
{ACAD_REACTORS
330
39F
102
}
330
39F
100
AcDbXrecord
280
     1
102
ACAD_ROUNDTRIP_PRE2007_TABLESTYLE
 90
        4
 91
        0
  1

 92
        4
 93
        0
  2

 94
        4
 95
        0
  3

  0
ENDSEC
  0
EOF
