  0
SECTION
  2
HEADER
  9
$ACADVER
  1
AC1015
  9
$ACADMAINTVER
 70
    20
  9
$DWGCODEPAGE
  3
ANSI_1250
  9
$INSBASE
 10
0.0
 20
0.0
 30
0.0
  9
$EXTMIN
 10
226553.2566726145
 20
127657.5157057546
 30
0.0
  9
$EXTMAX
 10
236753.2566726145
 20
141677.5157057546
 30
0.0
  9
$LIMMIN
 10
0.0
 20
0.0
  9
$LIMMAX
 10
420.0
 20
297.0
  9
$ORTHOMODE
 70
     0
  9
$REGENMODE
 70
     1
  9
$FILLMODE
 70
     1
  9
$QTEXTMODE
 70
     0
  9
$MIRRTEXT
 70
     0
  9
$LTSCALE
 40
75.0
  9
$ATTMODE
 70
     1
  9
$TEXTSIZE
 40
20.0
  9
$TRACEWID
 40
1.0
  9
$TEXTSTYLE
  7
ROMANS
  9
$CLAYER
  8
0Wymiary-PL
  9
$CELTYPE
  6
ByLayer
  9
$CECOLOR
 62
   256
  9
$CELTSCALE
 40
1.0
  9
$DISPSILH
 70
     0
  9
$DIMSCALE
 40
1.0
  9
$DIMASZ
 40
30.0
  9
$DIMEXO
 40
43.0
  9
$DIMDLI
 40
0.0
  9
$DIMRND
 40
0.5
  9
$DIMDLE
 40
12.0
  9
$DIMEXE
 40
13.0
  9
$DIMTP
 40
0.0
  9
$DIMTM
 40
0.0
  9
$DIMTXT
 40
80.0
  9
$DIMCEN
 40
0.0
  9
$DIMTSZ
 40
0.0
  9
$DIMTOL
 70
     0
  9
$DIMLIM
 70
     0
  9
$DIMTIH
 70
     0
  9
$DIMTOH
 70
     0
  9
$DIMSE1
 70
     1
  9
$DIMSE2
 70
     1
  9
$DIMTAD
 70
     0
  9
$DIMZIN
 70
    12
  9
$DIMBLK
  1
B-DIM
  9
$DIMASO
 70
     1
  9
$DIMSHO
 70
     1
  9
$DIMPOST
  1

  9
$DIMAPOST
  1

  9
$DIMALT
 70
     0
  9
$DIMALTD
 70
     2
  9
$DIMALTF
 40
25.4
  9
$DIMLFAC
 40
1.0
  9
$DIMTOFL
 70
     1
  9
$DIMTVP
 40
1.0
  9
$DIMTIX
 70
     1
  9
$DIMSOXD
 70
     0
  9
$DIMSAH
 70
     0
  9
$DIMBLK1
  1

  9
$DIMBLK2
  1

  9
$DIMSTYLE
  2
500
  9
$DIMCLRD
 70
     1
  9
$DIMCLRE
 70
     1
  9
$DIMCLRT
 70
    10
  9
$DIMTFAC
 40
1.0
  9
$DIMGAP
 40
0.0
  9
$DIMJUST
 70
     0
  9
$DIMSD1
 70
     0
  9
$DIMSD2
 70
     0
  9
$DIMTOLJ
 70
     1
  9
$DIMTZIN
 70
     0
  9
$DIMALTZ
 70
     0
  9
$DIMALTTZ
 70
     0
  9
$DIMUPT
 70
     0
  9
$DIMDEC
 70
     1
  9
$DIMTDEC
 70
     1
  9
$DIMALTU
 70
     2
  9
$DIMALTTD
 70
     2
  9
$DIMTXSTY
  7
ROMANS
  9
$DIMAUNIT
 70
     0
  9
$DIMADEC
 70
     0
  9
$DIMALTRND
 40
0.0
  9
$DIMAZIN
 70
     0
  9
$DIMDSEP
 70
    46
  9
$DIMATFIT
 70
     3
  9
$DIMFRAC
 70
     0
  9
$DIMLDRBLK
  1
B-DIM
  9
$DIMLUNIT
 70
     2
  9
$DIMLWD
 70
    -2
  9
$DIMLWE
 70
    -2
  9
$DIMTMOVE
 70
     2
  9
$LUNITS
 70
     2
  9
$LUPREC
 70
     1
  9
$SKETCHINC
 40
1.0
  9
$FILLETRAD
 40
0.0
  9
$AUNITS
 70
     0
  9
$AUPREC
 70
     0
  9
$MENU
  1
.
  9
$ELEVATION
 40
0.0
  9
$PELEVATION
 40
0.0
  9
$THICKNESS
 40
0.0
  9
$LIMCHECK
 70
     0
  9
$CHAMFERA
 40
0.0
  9
$CHAMFERB
 40
0.0
  9
$CHAMFERC
 40
20.0
  9
$CHAMFERD
 40
0.0
  9
$SKPOLY
 70
     0
  9
$TDCREATE
 40
2452027.670547454
  9
$TDUCREATE
 40
2452027.587214121
  9
$TDUPDATE
 40
2455027.578840417
  9
$TDUUPDATE
 40
2455027.495507084
  9
$TDINDWG
 40
8.9451054051
  9
$TDUSRTIMER
 40
8.9451054051
  9
$USRTIMER
 70
     1
  9
$ANGBASE
 50
0.0
  9
$ANGDIR
 70
     0
  9
$PDMODE
 70
     0
  9
$PDSIZE
 40
0.0
  9
$PLINEWID
 40
0.0
  9
$SPLFRAME
 70
     0
  9
$SPLINETYPE
 70
     6
  9
$SPLINESEGS
 70
     8
  9
$HANDSEED
  5
498
  9
$SURFTAB1
 70
     6
  9
$SURFTAB2
 70
     6
  9
$SURFTYPE
 70
     6
  9
$SURFU
 70
     6
  9
$SURFV
 70
     6
  9
$UCSBASE
  2

  9
$UCSNAME
  2

  9
$UCSORG
 10
0.0
 20
0.0
 30
0.0
  9
$UCSXDIR
 10
1.0
 20
0.0
 30
0.0
  9
$UCSYDIR
 10
0.0
 20
1.0
 30
0.0
  9
$UCSORTHOREF
  2

  9
$UCSORTHOVIEW
 70
     0
  9
$UCSORGTOP
 10
0.0
 20
0.0
 30
0.0
  9
$UCSORGBOTTOM
 10
0.0
 20
0.0
 30
0.0
  9
$UCSORGLEFT
 10
0.0
 20
0.0
 30
0.0
  9
$UCSORGRIGHT
 10
0.0
 20
0.0
 30
0.0
  9
$UCSORGFRONT
 10
0.0
 20
0.0
 30
0.0
  9
$UCSORGBACK
 10
0.0
 20
0.0
 30
0.0
  9
$PUCSBASE
  2

  9
$PUCSNAME
  2

  9
$PUCSORG
 10
0.0
 20
0.0
 30
0.0
  9
$PUCSXDIR
 10
1.0
 20
0.0
 30
0.0
  9
$PUCSYDIR
 10
0.0
 20
1.0
 30
0.0
  9
$PUCSORTHOREF
  2

  9
$PUCSORTHOVIEW
 70
     0
  9
$PUCSORGTOP
 10
0.0
 20
0.0
 30
0.0
  9
$PUCSORGBOTTOM
 10
0.0
 20
0.0
 30
0.0
  9
$PUCSORGLEFT
 10
0.0
 20
0.0
 30
0.0
  9
$PUCSORGRIGHT
 10
0.0
 20
0.0
 30
0.0
  9
$PUCSORGFRONT
 10
0.0
 20
0.0
 30
0.0
  9
$PUCSORGBACK
 10
0.0
 20
0.0
 30
0.0
  9
$USERI1
 70
     0
  9
$USERI2
 70
     0
  9
$USERI3
 70
     0
  9
$USERI4
 70
     0
  9
$USERI5
 70
     0
  9
$USERR1
 40
0.0
  9
$USERR2
 40
0.0
  9
$USERR3
 40
0.0
  9
$USERR4
 40
0.0
  9
$USERR5
 40
0.0
  9
$WORLDVIEW
 70
     1
  9
$SHADEDGE
 70
     3
  9
$SHADEDIF
 70
    70
  9
$TILEMODE
 70
     1
  9
$MAXACTVP
 70
    64
  9
$PINSBASE
 10
0.0
 20
0.0
 30
0.0
  9
$PLIMCHECK
 70
     0
  9
$PEXTMIN
 10
1.000000000000000E+20
 20
1.000000000000000E+20
 30
1.000000000000000E+20
  9
$PEXTMAX
 10
-1.000000000000000E+20
 20
-1.000000000000000E+20
 30
-1.000000000000000E+20
  9
$PLIMMIN
 10
0.0
 20
0.0
  9
$PLIMMAX
 10
420.0
 20
297.0
  9
$UNITMODE
 70
     0
  9
$VISRETAIN
 70
     1
  9
$PLINEGEN
 70
     0
  9
$PSLTSCALE
 70
     1
  9
$TREEDEPTH
 70
  3020
  9
$CMLSTYLE
  2
Standard
  9
$CMLJUST
 70
     0
  9
$CMLSCALE
 40
20.0
  9
$PROXYGRAPHICS
 70
     1
  9
$MEASUREMENT
 70
     0
  9
$CELWEIGHT
370
    -1
  9
$ENDCAPS
280
     0
  9
$JOINSTYLE
280
     0
  9
$LWDISPLAY
290
     0
  9
$INSUNITS
 70
     1
  9
$HYPERLINKBASE
  1

  9
$STYLESHEET
  1
monochrome_140.ctb
  9
$XEDIT
290
     1
  9
$CEPSNTYPE
380
     0
  9
$PSTYLEMODE
290
     1
  9
$FINGERPRINTGUID
  2
{F3B4E62A-3740-4AEE-9F34-4ADEE5D58452}
  9
$VERSIONGUID
  2
{3BFCBA10-4B31-4912-A116-4A2BA2387C2D}
  9
$EXTNAMES
290
     1
  9
$PSVPSCALE
 40
0.0
  9
$OLESTARTUP
290
     0
  0
ENDSEC
  0
SECTION
  2
CLASSES
  0
CLASS
  1
ACDBDICTIONARYWDFLT
  2
AcDbDictionaryWithDefault
  3
ObjectDBX Classes
 90
        0
280
     0
281
     0
  0
CLASS
  1
ACDBPLACEHOLDER
  2
AcDbPlaceHolder
  3
ObjectDBX Classes
 90
        0
280
     0
281
     0
  0
CLASS
  1
LAYOUT
  2
AcDbLayout
  3
ObjectDBX Classes
 90
        0
280
     0
281
     0
  0
CLASS
  1
DICTIONARYVAR
  2
AcDbDictionaryVar
  3
ObjectDBX Classes
 90
        0
280
     0
281
     0
  0
CLASS
  1
SORTENTSTABLE
  2
AcDbSortentsTable
  3
ObjectDBX Classes
 90
        0
280
     0
281
     0
  0
CLASS
  1
AEC_VARS_DWG_SETUP
  2
AecDbVarsDwgSetup
  3
AecBase50|Product Desc: Autodesk Architectural Desktop 2007 |Company: Autodesk,Inc. |WEB Address: www.autodesk.com
 90
    32897
280
     0
281
     0
  0
CLASS
  1
AEC_DISP_REP_CONFIG
  2
AecDbDispRepConfig
  3
AecBase50|Product Desc: Autodesk Architectural Desktop 2007 |Company: Autodesk,Inc. |WEB Address: www.autodesk.com
 90
    32897
280
     0
281
     0
  0
CLASS
  1
AEC_DISP_REP_SET
  2
AecDbDispRepSet
  3
AecBase50|Product Desc: Autodesk Architectural Desktop 2007 |Company: Autodesk,Inc. |WEB Address: www.autodesk.com
 90
    32897
280
     0
281
     0
  0
CLASS
  1
AEC_DISP_REP_2D_SECTION
  2
AecDbDispRep2dSection
  3
AecBase50|Product Desc: Autodesk Architectural Desktop 2007 |Company: Autodesk,Inc. |WEB Address: www.autodesk.com
 90
    32897
280
     0
281
     0
  0
CLASS
  1
AEC_DISP_REP_ANCHOR_BUB_TO_GRID
  2
AecDbDispRepAnchorBubToGrid
  3
AecStructureBase50|Product Desc: Autodesk Architectural Desktop 2007 |Company: Autodesk,Inc. |WEB Address: www.autodesk.com
 90
    32897
280
     0
281
     0
  0
CLASS
  1
AEC_DISP_REP_ANCHOR_BUB_TO_GRID_MODEL
  2
AecDbDispRepAnchorBubToGridMdl
  3
AecStructureBase50|Product Desc: Autodesk Architectural Desktop 2007 |Company: Autodesk,Inc. |WEB Address: www.autodesk.com
 90
    32897
280
     0
281
     0
  0
CLASS
  1
AEC_DISP_REP_ANCHOR_ENT_TO_NODE
  2
AecDbDispRepAnchorEntToNode
  3
AecBaseEx50|Product Desc: Autodesk Architectural Desktop 2007 |Company: Autodesk,Inc. |WEB Address: www.autodesk.com
 90
    32897
280
     0
281
     0
  0
CLASS
  1
AEC_DISP_REP_ANCHOR_TAG_TO_ENT
  2
AecDbDispRepAnchorTagToEnt
  3
AecScheduleData50|Product Desc: Autodesk Architectural Desktop 2007 |Company: Autodesk,Inc. |WEB Address: www.autodesk.com
 90
    32897
280
     0
281
     0
  0
CLASS
  1
AEC_DISP_REP_AREA
  2
AecDbDispRepArea
  3
AecAreaCalculationBase50|Product Desc: Autodesk Architectural Desktop 2007 |Company: Autodesk,Inc. |WEB Address: www.autodesk.com
 90
    32897
280
     0
281
     0
  0
CLASS
  1
AEC_DISP_REP_AREA_DECOMPOSED
  2
AecDbDispRepAreaDecomposed
  3
AecAreaCalculationBase50|Product Desc: Autodesk Architectural Desktop 2007 |Company: Autodesk,Inc. |WEB Address: www.autodesk.com
 90
    32897
280
     0
281
     0
  0
CLASS
  1
AEC_DISP_REP_AREAGROUP
  2
AecDbDispRepAreaGroup
  3
AecAreaCalculationBase50|Product Desc: Autodesk Architectural Desktop 2007 |Company: Autodesk,Inc. |WEB Address: www.autodesk.com
 90
    32897
280
     0
281
     0
  0
CLASS
  1
AEC_DISP_REP_BDG_ELEVLINE_MODEL
  2
AecDbDispRepBdgElevLineModel
  3
AecArchBase50|Product Desc: Autodesk Architectural Desktop 2007 |Company: Autodesk,Inc. |WEB Address: www.autodesk.com
 90
    32897
280
     0
281
     0
  0
CLASS
  1
AEC_DISP_REP_BDG_SECTIONLINE_PLAN
  2
AecDbDispRepBdgElevLinePlan
  3
AecArchBase50|Product Desc: Autodesk Architectural Desktop 2007 |Company: Autodesk,Inc. |WEB Address: www.autodesk.com
 90
    32897
280
     0
281
     0
  0
CLASS
  1
AEC_DISP_REP_BDG_SECTIONLINE_MODEL
  2
AecDbDispRepBdgSectionLineModel
  3
AecArchBase50|Product Desc: Autodesk Architectural Desktop 2007 |Company: Autodesk,Inc. |WEB Address: www.autodesk.com
 90
    32897
280
     0
281
     0
  0
CLASS
  1
AEC_DISP_REP_BDG_SECTIONLINE_PLAN
  2
AecDbDispRepBdgSectionLinePlan
  3
AecArchBase50|Product Desc: Autodesk Architectural Desktop 2007 |Company: Autodesk,Inc. |WEB Address: www.autodesk.com
 90
    32897
280
     0
281
     0
  0
CLASS
  1
AEC_DISP_REP_BDG_SECTION_SUBDIV
  2
AecDbDispRepBdgSectionSubDiv
  3
AecArchBase50|Product Desc: Autodesk Architectural Desktop 2007 |Company: Autodesk,Inc. |WEB Address: www.autodesk.com
 90
    32897
280
     0
281
     0
  0
CLASS
  1
AEC_DISP_REP_CAMERA
  2
AecDbDispRepCamera
  3
AecBase50|Product Desc: Autodesk Architectural Desktop 2007 |Company: Autodesk,Inc. |WEB Address: www.autodesk.com
 90
    32897
280
     0
281
     0
  0
CLASS
  1
AEC_DISP_REP_CEILING_GRID
  2
AecDbDispRepCeilingGrid
  3
AecArchBase50|Product Desc: Autodesk Architectural Desktop 2007 |Company: Autodesk,Inc. |WEB Address: www.autodesk.com
 90
    33661
280
     0
281
     0
  0
CLASS
  1
AEC_DISP_REP_CEILING_GRID_MODEL
  2
AecDbDispRepCeilingGridModel
  3
AecArchBase50|Product Desc: Autodesk Architectural Desktop 2007 |Company: Autodesk,Inc. |WEB Address: www.autodesk.com
 90
    32897
280
     0
281
     0
  0
CLASS
  1
AEC_DISP_REP_CEILING_GRID_RCP
  2
AecDbDispRepCeilingGridRcp
  3
AecArchBase50|Product Desc: Autodesk Architectural Desktop 2007 |Company: Autodesk,Inc. |WEB Address: www.autodesk.com
 90
    32897
280
     0
281
     0
  0
CLASS
  1
AEC_DISP_REP_CLIP_VOLUME_MODEL
  2
AecDbDispRepClipVolModel
  3
AecBase50|Product Desc: Autodesk Architectural Desktop 2007 |Company: Autodesk,Inc. |WEB Address: www.autodesk.com
 90
    32897
280
     0
281
     0
  0
CLASS
  1
AEC_DISP_REP_CLIP_VOLUME_PLAN
  2
AecDbDispRepClipVolPlan
  3
AecBase50|Product Desc: Autodesk Architectural Desktop 2007 |Company: Autodesk,Inc. |WEB Address: www.autodesk.com
 90
    32897
280
     0
281
     0
  0
CLASS
  1
AEC_DISP_REP_CLIP_VOLUME_RESULT_SUBDIV
  2
AecDbDispRepClipVolResSubDiv
  3
AecBase50|Product Desc: Autodesk Architectural Desktop 2007 |Company: Autodesk,Inc. |WEB Address: www.autodesk.com
 90
    32897
280
     0
281
     0
  0
CLASS
  1
AEC_DISP_REP_CLIP_VOLUME_RESULT
  2
AecDbDispRepClipVolResult
  3
AecBase50|Product Desc: Autodesk Architectural Desktop 2007 |Company: Autodesk,Inc. |WEB Address: www.autodesk.com
 90
    32897
280
     0
281
     0
  0
CLASS
  1
AEC_DISP_REP_COLUMN_GRID
  2
AecDbDispRepColumnGrid
  3
AecStructureBase50|Product Desc: Autodesk Architectural Desktop 2007 |Company: Autodesk,Inc. |WEB Address: www.autodesk.com
 90
    32897
280
     0
281
     0
  0
CLASS
  1
AEC_DISP_REP_COLUMN_GRID_MODEL
  2
AecDbDispRepColumnGridModel
  3
AecStructureBase50|Product Desc: Autodesk Architectural Desktop 2007 |Company: Autodesk,Inc. |WEB Address: www.autodesk.com
 90
    32897
280
     0
281
     0
  0
CLASS
  1
AEC_DISP_REP_CURTAIN_WALL_LAYOUT_MODEL
  2
AecDbDispRepCurtainWallLayoutModel
  3
AecArchBase50|Product Desc: Autodesk Architectural Desktop 2007 |Company: Autodesk,Inc. |WEB Address: www.autodesk.com
 90
    32897
280
     0
281
     0
  0
CLASS
  1
AEC_DISP_REP_CURTAIN_WALL_LAYOUT_PLAN
  2
AecDbDispRepCurtainWallLayoutPlan
  3
AecArchBase50|Product Desc: Autodesk Architectural Desktop 2007 |Company: Autodesk,Inc. |WEB Address: www.autodesk.com
 90
    32897
280
     0
281
     0
  0
CLASS
  1
AEC_DISP_REP_CURTAIN_WALL_UNIT_MODEL
  2
AecDbDispRepCurtainWallUnitModel
  3
AecArchBase50|Product Desc: Autodesk Architectural Desktop 2007 |Company: Autodesk,Inc. |WEB Address: www.autodesk.com
 90
    32897
280
     0
281
     0
  0
CLASS
  1
AEC_DISP_REP_CURTAIN_WALL_UNIT_PLAN
  2
AecDbDispRepCurtainWallUnitPlan
  3
AecArchBase50|Product Desc: Autodesk Architectural Desktop 2007 |Company: Autodesk,Inc. |WEB Address: www.autodesk.com
 90
    32897
280
     0
281
     0
  0
CLASS
  1
AEC_DB_DISP_REP_DIM_GROUP_PLAN
  2
AecDbDispRepDimGroupPlan
  3
AecArchDACHBase50|Product Desc: Autodesk Architectural Desktop 2007 |Company: Autodesk,Inc. |WEB Address: www.autodesk.com
 90
    32897
280
     0
281
     0
  0
CLASS
  1
AEC_DISP_REP_DOOR_MODEL
  2
AecDbDispRepDoorModel
  3
AecArchBase50|Product Desc: Autodesk Architectural Desktop 2007 |Company: Autodesk,Inc. |WEB Address: www.autodesk.com
 90
    32897
280
     0
281
     0
  0
CLASS
  1
AEC_DISP_REP_DOOR_NOMINAL
  2
AecDbDispRepDoorNominal
  3
AecArchBase50|Product Desc: Autodesk Architectural Desktop 2007 |Company: Autodesk,Inc. |WEB Address: www.autodesk.com
 90
    32897
280
     0
281
     0
  0
CLASS
  1
AEC_DISP_REP_DOOR_PLAN
  2
AecDbDispRepDoorPlan
  3
AecArchBase50|Product Desc: Autodesk Architectural Desktop 2007 |Company: Autodesk,Inc. |WEB Address: www.autodesk.com
 90
    32897
280
     0
281
     0
  0
CLASS
  1
AEC_DISP_REP_EDITINPLACEPROFILE
  2
AecDbDispRepEditInPlaceProfile
  3
AecBase50|Product Desc: Autodesk Architectural Desktop 2007 |Company: Autodesk,Inc. |WEB Address: www.autodesk.com
 90
    32897
280
     0
281
     0
  0
CLASS
  1
AEC_DISP_REP_ENT_REF
  2
AecDbDispRepEntRef
  3
AecBase50|Product Desc: Autodesk Architectural Desktop 2007 |Company: Autodesk,Inc. |WEB Address: www.autodesk.com
 90
    32897
280
     0
281
     0
  0
CLASS
  1
AEC_DISP_REP_LAYOUT_CURVE
  2
AecDbDispRepLayoutCurve
  3
AecBase50|Product Desc: Autodesk Architectural Desktop 2007 |Company: Autodesk,Inc. |WEB Address: www.autodesk.com
 90
    32897
280
     0
281
     0
  0
CLASS
  1
AEC_DISP_REP_LAYOUT_GRID2D
  2
AecDbDispRepLayoutGrid2d
  3
AecBase50|Product Desc: Autodesk Architectural Desktop 2007 |Company: Autodesk,Inc. |WEB Address: www.autodesk.com
 90
    32897
280
     0
281
     0
  0
CLASS
  1
AEC_DISP_REP_LAYOUT_GRID3D
  2
AecDbDispRepLayoutGrid3d
  3
AecBase50|Product Desc: Autodesk Architectural Desktop 2007 |Company: Autodesk,Inc. |WEB Address: www.autodesk.com
 90
    32897
280
     0
281
     0
  0
CLASS
  1
AEC_DISP_REP_MASKBLOCK_REF
  2
AecDbDispRepMaskBlockRef
  3
AecBase50|Product Desc: Autodesk Architectural Desktop 2007 |Company: Autodesk,Inc. |WEB Address: www.autodesk.com
 90
    32897
280
     0
281
     0
  0
CLASS
  1
AEC_DISP_REP_MASKBLOCK_REF_RCP
  2
AecDbDispRepMaskBlockRefRcp
  3
AecArchBase50|Product Desc: Autodesk Architectural Desktop 2007 |Company: Autodesk,Inc. |WEB Address: www.autodesk.com
 90
    32897
280
     0
281
     0
  0
CLASS
  1
AEC_DISP_REP_MASS_ELEM_MODEL
  2
AecDbDispRepMassElemModel
  3
AecBaseEx50|Product Desc: Autodesk Architectural Desktop 2007 |Company: Autodesk,Inc. |WEB Address: www.autodesk.com
 90
    32897
280
     0
281
     0
  0
CLASS
  1
AEC_DISP_REP_MASS_ELEM_SCHEM
  2
AecDbDispRepMassElemSchem
  3
AecBaseEx50|Product Desc: Autodesk Architectural Desktop 2007 |Company: Autodesk,Inc. |WEB Address: www.autodesk.com
 90
    32897
280
     0
281
     0
  0
CLASS
  1
AEC_DISP_REP_MASS_GROUP_MODEL
  2
AecDbDispRepMassGroupModel
  3
AecBaseEx50|Product Desc: Autodesk Architectural Desktop 2007 |Company: Autodesk,Inc. |WEB Address: www.autodesk.com
 90
    32897
280
     0
281
     0
  0
CLASS
  1
AEC_DISP_REP_MASS_GROUP_PLAN
  2
AecDbDispRepMassGroupPlan
  3
AecBaseEx50|Product Desc: Autodesk Architectural Desktop 2007 |Company: Autodesk,Inc. |WEB Address: www.autodesk.com
 90
    32897
280
     0
281
     0
  0
CLASS
  1
AEC_DISP_REP_MATERIAL
  2
AecDbDispRepMaterial
  3
AecBase50|Product Desc: Autodesk Architectural Desktop 2007 |Company: Autodesk,Inc. |WEB Address: www.autodesk.com
 90
    32897
280
     0
281
     0
  0
CLASS
  1
AEC_DISP_REP_MVBLOCK_REF
  2
AecDbDispRepMvBlockRef
  3
AecBase50|Product Desc: Autodesk Architectural Desktop 2007 |Company: Autodesk,Inc. |WEB Address: www.autodesk.com
 90
    32897
280
     0
281
     0
  0
CLASS
  1
AEC_DISP_REP_MVBLOCK_REF_MODEL
  2
AecDbDispRepMvBlockRefModel
  3
AecBase50|Product Desc: Autodesk Architectural Desktop 2007 |Company: Autodesk,Inc. |WEB Address: www.autodesk.com
 90
    32897
280
     0
281
     0
  0
CLASS
  1
AEC_DISP_REP_OPENING
  2
AecDbDispRepOpening
  3
AecArchBase50|Product Desc: Autodesk Architectural Desktop 2007 |Company: Autodesk,Inc. |WEB Address: www.autodesk.com
 90
    32897
280
     0
281
     0
  0
CLASS
  1
AEC_DISP_REP_OPENING_MODEL
  2
AecDbDispRepOpeningModel
  3
AecArchBase50|Product Desc: Autodesk Architectural Desktop 2007 |Company: Autodesk,Inc. |WEB Address: www.autodesk.com
 90
    32897
280
     0
281
     0
  0
CLASS
  1
AEC_DISP_REP_POLYGON_MODEL
  2
AecDbDispRepPolygonModel
  3
AecBaseEx50|Product Desc: Autodesk Architectural Desktop 2007 |Company: Autodesk,Inc. |WEB Address: www.autodesk.com
 90
    32897
280
     0
281
     0
  0
CLASS
  1
AEC_DISP_REP_RAILING_MODEL
  2
AecDbDispRepRailingModel
  3
AecArchBase50|Product Desc: Autodesk Architectural Desktop 2007 |Company: Autodesk,Inc. |WEB Address: www.autodesk.com
 90
    32897
280
     0
281
     0
  0
CLASS
  1
AEC_DISP_REP_RAILING_PLAN
  2
AecDbDispRepRailingPlan
  3
AecArchBase50|Product Desc: Autodesk Architectural Desktop 2007 |Company: Autodesk,Inc. |WEB Address: www.autodesk.com
 90
    32897
280
     0
281
     0
  0
CLASS
  1
AEC_DISP_REP_ROOF_MODEL
  2
AecDbDispRepRoofModel
  3
AecArchBase50|Product Desc: Autodesk Architectural Desktop 2007 |Company: Autodesk,Inc. |WEB Address: www.autodesk.com
 90
    32897
280
     0
281
     0
  0
CLASS
  1
AEC_DISP_REP_ROOF_PLAN
  2
AecDbDispRepRoofPlan
  3
AecArchBase50|Product Desc: Autodesk Architectural Desktop 2007 |Company: Autodesk,Inc. |WEB Address: www.autodesk.com
 90
    32897
280
     0
281
     0
  0
CLASS
  1
AEC_DISP_REP_ROOFSLAB_MODEL
  2
AecDbDispRepRoofSlabModel
  3
AecArchBase50|Product Desc: Autodesk Architectural Desktop 2007 |Company: Autodesk,Inc. |WEB Address: www.autodesk.com
 90
    32897
280
     0
281
     0
  0
CLASS
  1
AEC_DISP_REP_ROOFSLAB_PLAN
  2
AecDbDispRepRoofSlabPlan
  3
AecArchBase50|Product Desc: Autodesk Architectural Desktop 2007 |Company: Autodesk,Inc. |WEB Address: www.autodesk.com
 90
    32897
280
     0
281
     0
  0
CLASS
  1
AEC_DISP_REP_SCHEDULE_TABLE
  2
AecDbDispRepScheduleTable
  3
AecSchedule50|Product Desc: Autodesk Architectural Desktop 2007 |Company: Autodesk,Inc. |WEB Address: www.autodesk.com
 90
    32897
280
     0
281
     0
  0
CLASS
  1
AEC_DISP_REP_SLAB_MODEL
  2
AecDbDispRepSlabModel
  3
AecArchBase50|Product Desc: Autodesk Architectural Desktop 2007 |Company: Autodesk,Inc. |WEB Address: www.autodesk.com
 90
    32897
280
     0
281
     0
  0
CLASS
  1
AEC_DISP_REP_SLAB_PLAN
  2
AecDbDispRepSlabPlan
  3
AecArchBase50|Product Desc: Autodesk Architectural Desktop 2007 |Company: Autodesk,Inc. |WEB Address: www.autodesk.com
 90
    32897
280
     0
281
     0
  0
CLASS
  1
AEC_DISP_REP_SLICE
  2
AecDbDispRepSlice
  3
AecBase50|Product Desc: Autodesk Architectural Desktop 2007 |Company: Autodesk,Inc. |WEB Address: www.autodesk.com
 90
    32897
280
     0
281
     0
  0
CLASS
  1
AEC_DISP_REP_SPACE_BOUNDARY_MODEL
  2
AecDbDispRepSpaceBoundaryModel
  3
AecArchBase50|Product Desc: Autodesk Architectural Desktop 2007 |Company: Autodesk,Inc. |WEB Address: www.autodesk.com
 90
    32897
280
     0
281
     0
  0
CLASS
  1
AEC_DISP_REP_SPACE_BOUNDARY_PLAN
  2
AecDbDispRepSpaceBoundaryPlan
  3
AecArchBase50|Product Desc: Autodesk Architectural Desktop 2007 |Company: Autodesk,Inc. |WEB Address: www.autodesk.com
 90
    32897
280
     0
281
     0
  0
CLASS
  1
AEC_DISP_REP_SPACE_BOUNDARY_SCHEM
  2
AecDbDispRepSpaceBoundarySketch
  3
AecArchBase50|Product Desc: Autodesk Architectural Desktop 2007 |Company: Autodesk,Inc. |WEB Address: www.autodesk.com
 90
    32897
280
     0
281
     0
  0
CLASS
  1
AEC_DISP_REP_SPACE_MODEL
  2
AecDbDispRepSpaceModel
  3
AecArchBase50|Product Desc: Autodesk Architectural Desktop 2007 |Company: Autodesk,Inc. |WEB Address: www.autodesk.com
 90
    32897
280
     0
281
     0
  0
CLASS
  1
AEC_DISP_REP_SPACE_PLAN
  2
AecDbDispRepSpacePlan
  3
AecArchBase50|Product Desc: Autodesk Architectural Desktop 2007 |Company: Autodesk,Inc. |WEB Address: www.autodesk.com
 90
    32897
280
     0
281
     0
  0
CLASS
  1
AEC_DISP_REP_STAIR_MODEL
  2
AecDbDispRepStairModel
  3
AecArchBase50|Product Desc: Autodesk Architectural Desktop 2007 |Company: Autodesk,Inc. |WEB Address: www.autodesk.com
 90
    32897
280
     0
281
     0
  0
CLASS
  1
AEC_DISP_REP_STAIR_PLAN
  2
AecDbDispRepStairPlan
  3
AecArchBase50|Product Desc: Autodesk Architectural Desktop 2007 |Company: Autodesk,Inc. |WEB Address: www.autodesk.com
 90
    32897
280
     0
281
     0
  0
CLASS
  1
AEC_DISP_REP_WALL_GRAPH
  2
AecDbDispRepWallGraph
  3
AecArchBase50|Product Desc: Autodesk Architectural Desktop 2007 |Company: Autodesk,Inc. |WEB Address: www.autodesk.com
 90
    32897
280
     0
281
     0
  0
CLASS
  1
AEC_DISP_REP_WALL_MODEL
  2
AecDbDispRepWallModel
  3
AecArchBase50|Product Desc: Autodesk Architectural Desktop 2007 |Company: Autodesk,Inc. |WEB Address: www.autodesk.com
 90
    32897
280
     0
281
     0
  0
CLASS
  1
AEC_DISP_REP_WALL_PLAN
  2
AecDbDispRepWallPlan
  3
AecArchBase50|Product Desc: Autodesk Architectural Desktop 2007 |Company: Autodesk,Inc. |WEB Address: www.autodesk.com
 90
    32897
280
     0
281
     0
  0
CLASS
  1
AEC_DISP_REP_WALL_SCHEM
  2
AecDbDispRepWallSchem
  3
AecArchBase50|Product Desc: Autodesk Architectural Desktop 2007 |Company: Autodesk,Inc. |WEB Address: www.autodesk.com
 90
    32897
280
     0
281
     0
  0
CLASS
  1
AEC_DISP_REP_WINDOW_ASSEMBLY_MODEL
  2
AecDbDispRepWindowAssemblyModel
  3
AecArchBase50|Product Desc: Autodesk Architectural Desktop 2007 |Company: Autodesk,Inc. |WEB Address: www.autodesk.com
 90
    32897
280
     0
281
     0
  0
CLASS
  1
AEC_DISP_REP_WINDOW_ASSEMBLY_PLAN
  2
AecDbDispRepWindowAssemblyPlan
  3
AecArchBase50|Product Desc: Autodesk Architectural Desktop 2007 |Company: Autodesk,Inc. |WEB Address: www.autodesk.com
 90
    32897
280
     0
281
     0
  0
CLASS
  1
AEC_AECDBDISPREPWINDOWASSEMBLYPLAN100
  2
AecDbDispRepWindowAssemblyPlan100
  3
AecArchDACHBase50|Product Desc: Autodesk Architectural Desktop 2007 |Company: Autodesk,Inc. |WEB Address: www.autodesk.com
 90
    32897
280
     0
281
     0
  0
CLASS
  1
AEC_DISP_REP_WINDOW_MODEL
  2
AecDbDispRepWindowModel
  3
AecArchBase50|Product Desc: Autodesk Architectural Desktop 2007 |Company: Autodesk,Inc. |WEB Address: www.autodesk.com
 90
    32897
280
     0
281
     0
  0
CLASS
  1
AEC_DISP_REP_WINDOW_NOMINAL
  2
AecDbDispRepWindowNominal
  3
AecArchBase50|Product Desc: Autodesk Architectural Desktop 2007 |Company: Autodesk,Inc. |WEB Address: www.autodesk.com
 90
    32897
280
     0
281
     0
  0
CLASS
  1
AEC_DISP_REP_WINDOW_PLAN
  2
AecDbDispRepWindowPlan
  3
AecArchBase50|Product Desc: Autodesk Architectural Desktop 2007 |Company: Autodesk,Inc. |WEB Address: www.autodesk.com
 90
    32897
280
     0
281
     0
  0
CLASS
  1
AECS_DISP_REP_MEMBER_LOGICAL
  2
AecsDbDispRepMemberLogical
  3
AecStructureBase50|Product Desc: Autodesk Architectural Desktop 2007 |Company: Autodesk,Inc. |WEB Address: www.autodesk.com
 90
    32897
280
     0
281
     0
  0
CLASS
  1
AECS_DISP_REP_MEMBER_MODEL_DESIGN
  2
AecsDbDispRepMemberModelDesign
  3
AecStructureBase50|Product Desc: Autodesk Architectural Desktop 2007 |Company: Autodesk,Inc. |WEB Address: www.autodesk.com
 90
    32897
280
     0
281
     0
  0
CLASS
  1
AECS_DISP_REP_MEMBER_PLAN_DESIGN
  2
AecsDbDispRepMemberPlanDesign
  3
AecStructureBase50|Product Desc: Autodesk Architectural Desktop 2007 |Company: Autodesk,Inc. |WEB Address: www.autodesk.com
 90
    32897
280
     0
281
     0
  0
CLASS
  1
AEC_DISP_PROPS_ENT
  2
AecDbDispPropsEnt
  3
AecBase50|Product Desc: Autodesk Architectural Desktop 2007 |Company: Autodesk,Inc. |WEB Address: www.autodesk.com
 90
    32897
280
     0
281
     0
  0
CLASS
  1
AEC_DISP_PROPS_CLIP_VOLUME
  2
AecDbDispPropsClipVol
  3
AecBase50|Product Desc: Autodesk Architectural Desktop 2007 |Company: Autodesk,Inc. |WEB Address: www.autodesk.com
 90
    32897
280
     0
281
     0
  0
CLASS
  1
AEC_DISP_PROPS_SLICE
  2
AecDbDispPropsSlice
  3
AecBase50|Product Desc: Autodesk Architectural Desktop 2007 |Company: Autodesk,Inc. |WEB Address: www.autodesk.com
 90
    32897
280
     0
281
     0
  0
CLASS
  1
AEC_DISP_PROPS_ROOFSLAB_PLAN
  2
AecDbDispPropsRoofSlabPlan
  3
AecArchBase50|Product Desc: Autodesk Architectural Desktop 2007 |Company: Autodesk,Inc. |WEB Address: www.autodesk.com
 90
    32897
280
     0
281
     0
  0
CLASS
  1
AEC_DISP_PROPS_GRID_ASSEMBLY_MODEL
  2
AecDbDispPropsGridAssemblyModel
  3
AecArchBase50|Product Desc: Autodesk Architectural Desktop 2007 |Company: Autodesk,Inc. |WEB Address: www.autodesk.com
 90
    32897
280
     0
281
     0
  0
CLASS
  1
AEC_DISP_PROPS_ROOF
  2
AecDbDispPropsRoof
  3
AecArchBase50|Product Desc: Autodesk Architectural Desktop 2007 |Company: Autodesk,Inc. |WEB Address: www.autodesk.com
 90
    32897
280
     0
281
     0
  0
CLASS
  1
AEC_DISP_PROPS_SPACE_MODEL
  2
AecDbDispPropsSpaceModel
  3
AecArchBase50|Product Desc: Autodesk Architectural Desktop 2007 |Company: Autodesk,Inc. |WEB Address: www.autodesk.com
 90
    32897
280
     0
281
     0
  0
CLASS
  1
AEC_DISP_PROPS_EDITINPLACEPROFILE_MODEL
  2
AecDbDispPropsEditInPlaceProfile
  3
AecBase50|Product Desc: Autodesk Architectural Desktop 2007 |Company: Autodesk,Inc. |WEB Address: www.autodesk.com
 90
    32897
280
     0
281
     0
  0
CLASS
  1
AEC_DISP_PROPS_DOOR
  2
AecDbDispPropsDoor
  3
AecArchBase50|Product Desc: Autodesk Architectural Desktop 2007 |Company: Autodesk,Inc. |WEB Address: www.autodesk.com
 90
    32897
280
     0
281
     0
  0
CLASS
  1
AEC_DISP_PROPS_MASKBLOCK
  2
AecDbDispPropsMaskBlock
  3
AecBase50|Product Desc: Autodesk Architectural Desktop 2007 |Company: Autodesk,Inc. |WEB Address: www.autodesk.com
 90
    32897
280
     0
281
     0
  0
CLASS
  1
AEC_DISP_PROPS_SPACE_PLAN
  2
AecDbDispPropsSpacePlan
  3
AecArchBase50|Product Desc: Autodesk Architectural Desktop 2007 |Company: Autodesk,Inc. |WEB Address: www.autodesk.com
 90
    32897
280
     0
281
     0
  0
CLASS
  1
AEC_DISP_PROPS_RAILING_PLAN
  2
AecDbDispPropsRailingPlan
  3
AecArchBase50|Product Desc: Autodesk Architectural Desktop 2007 |Company: Autodesk,Inc. |WEB Address: www.autodesk.com
 90
    32897
280
     0
281
     0
  0
CLASS
  1
AEC_DISP_PROPS_LAYOUT_GRID2D
  2
AecDbDispPropsLayoutGrid2d
  3
AecBase50|Product Desc: Autodesk Architectural Desktop 2007 |Company: Autodesk,Inc. |WEB Address: www.autodesk.com
 90
    32897
280
     0
281
     0
  0
CLASS
  1
AEC_DISP_PROPS_CLIP_VOLUME_RESULT
  2
AecDbDispPropsClipVolResSubDiv
  3
AecBase50|Product Desc: Autodesk Architectural Desktop 2007 |Company: Autodesk,Inc. |WEB Address: www.autodesk.com
 90
    32897
280
     0
281
     0
  0
CLASS
  1
AEC_DISP_PROPS_STAIR_MODEL
  2
AecDbDispPropsStairModel
  3
AecArchBase50|Product Desc: Autodesk Architectural Desktop 2007 |Company: Autodesk,Inc. |WEB Address: www.autodesk.com
 90
    32897
280
     0
281
     0
  0
CLASS
  1
AEC_DISP_PROPS_LAYOUT_CURVE
  2
AecDbDispPropsLayoutCurve
  3
AecBase50|Product Desc: Autodesk Architectural Desktop 2007 |Company: Autodesk,Inc. |WEB Address: www.autodesk.com
 90
    32897
280
     0
281
     0
  0
CLASS
  1
AEC_DISP_PROPS_POLYGON_MODEL
  2
AecDbDispPropsPolygonModel
  3
AecBaseEx50|Product Desc: Autodesk Architectural Desktop 2007 |Company: Autodesk,Inc. |WEB Address: www.autodesk.com
 90
    32897
280
     0
281
     0
  0
CLASS
  1
AEC_DISP_PROPS_MASS_GROUP
  2
AecDbDispPropsMassGroup
  3
AecBaseEx50|Product Desc: Autodesk Architectural Desktop 2007 |Company: Autodesk,Inc. |WEB Address: www.autodesk.com
 90
    32897
280
     0
281
     0
  0
CLASS
  1
AEC_DISP_PROPS_STAIR_PLAN
  2
AecDbDispPropsStairPlan
  3
AecArchBase50|Product Desc: Autodesk Architectural Desktop 2007 |Company: Autodesk,Inc. |WEB Address: www.autodesk.com
 90
    32897
280
     0
281
     0
  0
CLASS
  1
AEC_DISP_PROPS_OPENING
  2
AecDbDispPropsOpening
  3
AecArchBase50|Product Desc: Autodesk Architectural Desktop 2007 |Company: Autodesk,Inc. |WEB Address: www.autodesk.com
 90
    32897
280
     0
281
     0
  0
CLASS
  1
AEC_DISP_PROPS_WALL_GRAPH
  2
AecDbDispPropsWallGraph
  3
AecArchBase50|Product Desc: Autodesk Architectural Desktop 2007 |Company: Autodesk,Inc. |WEB Address: www.autodesk.com
 90
    32897
280
     0
281
     0
  0
CLASS
  1
AEC_DISP_PROPS_DOOR_NOMINAL
  2
AecDbDispPropsDoorNominal
  3
AecArchBase50|Product Desc: Autodesk Architectural Desktop 2007 |Company: Autodesk,Inc. |WEB Address: www.autodesk.com
 90
    32897
280
     0
281
     0
  0
CLASS
  1
AEC_DISP_PROPS_SLAB
  2
AecDbDispPropsSlab
  3
AecArchBase50|Product Desc: Autodesk Architectural Desktop 2007 |Company: Autodesk,Inc. |WEB Address: www.autodesk.com
 90
    32897
280
     0
281
     0
  0
CLASS
  1
AEC_DISP_PROPS_WALL_MODEL
  2
AecDbDispPropsWallModel
  3
AecArchBase50|Product Desc: Autodesk Architectural Desktop 2007 |Company: Autodesk,Inc. |WEB Address: www.autodesk.com
 90
    32897
280
     0
281
     0
  0
CLASS
  1
AEC_DISP_PROPS_MATERIAL
  2
AecDbDispPropsMaterial
  3
AecBase50|Product Desc: Autodesk Architectural Desktop 2007 |Company: Autodesk,Inc. |WEB Address: www.autodesk.com
 90
    32897
280
     0
281
     0
  0
CLASS
  1
AEC_DISP_PROPS_WINDOW
  2
AecDbDispPropsWindow
  3
AecArchBase50|Product Desc: Autodesk Architectural Desktop 2007 |Company: Autodesk,Inc. |WEB Address: www.autodesk.com
 90
    32897
280
     0
281
     0
  0
CLASS
  1
AEC_DISP_PROPS_LAYOUT_GRID3D
  2
AecDbDispPropsLayoutGrid3d
  3
AecBase50|Product Desc: Autodesk Architectural Desktop 2007 |Company: Autodesk,Inc. |WEB Address: www.autodesk.com
 90
    32897
280
     0
281
     0
  0
CLASS
  1
AEC_DISP_PROPS_GRID_ASSEMBLY_PLAN
  2
AecDbDispPropsGridAssemblyPlan
  3
AecArchBase50|Product Desc: Autodesk Architectural Desktop 2007 |Company: Autodesk,Inc. |WEB Address: www.autodesk.com
 90
    32897
280
     0
281
     0
  0
CLASS
  1
AEC_DISP_PROPS_WALL_SCHEM
  2
AecDbDispPropsWallSchem
  3
AecArchBase50|Product Desc: Autodesk Architectural Desktop 2007 |Company: Autodesk,Inc. |WEB Address: www.autodesk.com
 90
    32897
280
     0
281
     0
  0
CLASS
  1
AEC_DISP_PROPS_WALL_PLAN
  2
AecDbDispPropsWallPlan
  3
AecArchBase50|Product Desc: Autodesk Architectural Desktop 2007 |Company: Autodesk,Inc. |WEB Address: www.autodesk.com
 90
    32897
280
     0
281
     0
  0
CLASS
  1
AEC_DISP_PROPS_SPACE_BOUNDARY
  2
AecDbDispPropsSpaceBoundary
  3
AecArchBase50|Product Desc: Autodesk Architectural Desktop 2007 |Company: Autodesk,Inc. |WEB Address: www.autodesk.com
 90
    32897
280
     0
281
     0
  0
CLASS
  1
AEC_DISP_PROPS_SLAB_PLAN
  2
AecDbDispPropsSlabPlan
  3
AecArchBase50|Product Desc: Autodesk Architectural Desktop 2007 |Company: Autodesk,Inc. |WEB Address: www.autodesk.com
 90
    32897
280
     0
281
     0
  0
CLASS
  1
AEC_DISP_PROPS_RAILING_MODEL
  2
AecDbDispPropsRailingModel
  3
AecArchBase50|Product Desc: Autodesk Architectural Desktop 2007 |Company: Autodesk,Inc. |WEB Address: www.autodesk.com
 90
    32897
280
     0
281
     0
  0
CLASS
  1
AEC_DISP_PROPS_MASS_ELEM_MODEL
  2
AecDbDispPropsMassElem
  3
AecBaseEx50|Product Desc: Autodesk Architectural Desktop 2007 |Company: Autodesk,Inc. |WEB Address: www.autodesk.com
 90
    32897
280
     0
281
     0
  0
CLASS
  1
AEC_DISP_PROPS_DIM
  2
AecDbDispPropsDimGroup
  3
AecArchDACHBase50|Product Desc: Autodesk Architectural Desktop 2007 |Company: Autodesk,Inc. |WEB Address: www.autodesk.com
 90
    32897
280
     0
281
     0
  0
CLASS
  1
AEC_DISP_PROPS_ROOFSLAB
  2
AecDbDispPropsRoofSlab
  3
AecArchBase50|Product Desc: Autodesk Architectural Desktop 2007 |Company: Autodesk,Inc. |WEB Address: www.autodesk.com
 90
    32897
280
     0
281
     0
  0
CLASS
  1
AEC_DISP_PROPS_ENT_REF
  2
AecDbDispPropsEntRef
  3
AecBase50|Product Desc: Autodesk Architectural Desktop 2007 |Company: Autodesk,Inc. |WEB Address: www.autodesk.com
 90
    32897
280
     0
281
     0
  0
CLASS
  1
AEC_DISP_PROPS_2D_SECTION
  2
AecDbDispProps2dSection
  3
AecBase50|Product Desc: Autodesk Architectural Desktop 2007 |Company: Autodesk,Inc. |WEB Address: www.autodesk.com
 90
    32897
280
     0
281
     0
  0
CLASS
  1
AECS_DISP_PROPS_MEMBER_LOGICAL
  2
AecsDbDispPropsMemberLogical
  3
AecStructureBase50|Product Desc: Autodesk Architectural Desktop 2007 |Company: Autodesk,Inc. |WEB Address: www.autodesk.com
 90
    32897
280
     0
281
     0
  0
CLASS
  1
AEC_DISP_PROPS_AREA_DECOMPOSED
  2
AecDbDispPropsAreaDecomposed
  3
AecAreaCalculationBase50|Product Desc: Autodesk Architectural Desktop 2007 |Company: Autodesk,Inc. |WEB Address: www.autodesk.com
 90
    32897
280
     0
281
     0
  0
CLASS
  1
AEC_DISP_PROPS_CAMERA
  2
AecDbDispPropsCamera
  3
AecBase50|Product Desc: Autodesk Architectural Desktop 2007 |Company: Autodesk,Inc. |WEB Address: www.autodesk.com
 90
    32897
280
     0
281
     0
  0
CLASS
  1
AECS_DISP_PROPS_MEMBER
  2
AecsDbDispPropsMember
  3
AecStructureBase50|Product Desc: Autodesk Architectural Desktop 2007 |Company: Autodesk,Inc. |WEB Address: www.autodesk.com
 90
    32897
280
     0
281
     0
  0
CLASS
  1
AECS_DISP_PROPS_MEMBER_PLAN
  2
AecsDbDispPropsMemberPlan
  3
AecStructureBase50|Product Desc: Autodesk Architectural Desktop 2007 |Company: Autodesk,Inc. |WEB Address: www.autodesk.com
 90
    32897
280
     0
281
     0
  0
CLASS
  1
AEC_DISP_PROPS_AREAGROUP
  2
AecDbDispPropsAreaGroup
  3
AecAreaCalculationBase50|Product Desc: Autodesk Architectural Desktop 2007 |Company: Autodesk,Inc. |WEB Address: www.autodesk.com
 90
    32897
280
     0
281
     0
  0
CLASS
  1
AEC_DISP_PROPS_WINDOW_NOMINAL
  2
AecDbDispPropsWindowNominal
  3
AecArchBase50|Product Desc: Autodesk Architectural Desktop 2007 |Company: Autodesk,Inc. |WEB Address: www.autodesk.com
 90
    32897
280
     0
281
     0
  0
CLASS
  1
AEC_DISP_PROPS_AREA
  2
AecDbDispPropsArea
  3
AecAreaCalculationBase50|Product Desc: Autodesk Architectural Desktop 2007 |Company: Autodesk,Inc. |WEB Address: www.autodesk.com
 90
    32897
280
     0
281
     0
  0
CLASS
  1
AEC_DISP_PROPS_SCHEDULE_TABLE
  2
AecDbDispPropsScheduleTable
  3
AecSchedule50|Product Desc: Autodesk Architectural Desktop 2007 |Company: Autodesk,Inc. |WEB Address: www.autodesk.com
 90
    32897
280
     0
281
     0
  0
CLASS
  1
AEC_LAYERKEY_STYLE
  2
AecDbLayerKeyStyle
  3
AecBase50|Product Desc: Autodesk Architectural Desktop 2007 |Company: Autodesk,Inc. |WEB Address: www.autodesk.com
 90
    32897
280
     0
281
     0
  0
CLASS
  1
AEC_VARS_ARCHBASE
  2
AecDbVarsArchBase
  3
AecArchBase50|Product Desc: Autodesk Architectural Desktop 2007 |Company: Autodesk,Inc. |WEB Address: www.autodesk.com
 90
    32897
280
     0
281
     0
  0
CLASS
  1
AEC_VARS_MUNICH
  2
AecDbVarsMunich
  3
AecArchDACHBase50|Product Desc: Autodesk Architectural Desktop 2007 |Company: Autodesk,Inc. |WEB Address: www.autodesk.com
 90
    32897
280
     0
281
     0
  0
CLASS
  1
AEC_NOTIFICATION_TRACKER
  2
AecDbNotificationTracker
  3
AecBase50|Product Desc: Autodesk Architectural Desktop 2007 |Company: Autodesk,Inc. |WEB Address: www.autodesk.com
 90
    32897
280
     0
281
     0
  0
CLASS
  1
AEC_DISP_REP_ANCHOR
  2
AecDbDispRepAnchor
  3
AecBase50|Product Desc: Autodesk Architectural Desktop 2007 |Company: Autodesk,Inc. |WEB Address: www.autodesk.com
 90
    32897
280
     0
281
     0
  0
CLASS
  1
AEC_DISP_REP_POLYGON_TRUECOLOUR
  2
AecDbDispRepPolygonTrueColour
  3
AecBaseEx50|Product Desc: Autodesk Architectural Desktop 2007 |Company: Autodesk,Inc. |WEB Address: www.autodesk.com
 90
    32897
280
     0
281
     0
  0
CLASS
  1
AEC_DISP_PROPS_POLYGON_TRUECOLOUR
  2
AecDbDispPropsPolygonTrueColour
  3
AecBaseEx50|Product Desc: Autodesk Architectural Desktop 2007 |Company: Autodesk,Inc. |WEB Address: www.autodesk.com
 90
    32897
280
     0
281
     0
  0
CLASS
  1
AEC_DISP_REP_BDG_ELEVLINE_RCP
  2
AecDbDispRepBdgElevLineRcp
  3
AecArchBase50|Product Desc: Autodesk Architectural Desktop 2007 |Company: Autodesk,Inc. |WEB Address: www.autodesk.com
 90
    32897
280
     0
281
     0
  0
CLASS
  1
AEC_DISP_REP_BDG_SECTIONLINE_RCP
  2
AecDbDispRepBdgSectionLineRcp
  3
AecArchBase50|Product Desc: Autodesk Architectural Desktop 2007 |Company: Autodesk,Inc. |WEB Address: www.autodesk.com
 90
    32897
280
     0
281
     0
  0
CLASS
  1
AEC_DISP_REP_BDG_SECTION_MODEL
  2
AecDbDispRepBdgSectionModel
  3
AecArchBase50|Product Desc: Autodesk Architectural Desktop 2007 |Company: Autodesk,Inc. |WEB Address: www.autodesk.com
 90
    32897
280
     0
281
     0
  0
CLASS
  1
AEC_DISP_REP_DOOR_ELEV
  2
AecDbDispRepDoorElev
  3
AecArchBase50|Product Desc: Autodesk Architectural Desktop 2007 |Company: Autodesk,Inc. |WEB Address: www.autodesk.com
 90
    32897
280
     0
281
     0
  0
CLASS
  1
AEC_DISP_REP_DOOR_RCP
  2
AecDbDispRepDoorRcp
  3
AecArchBase50|Product Desc: Autodesk Architectural Desktop 2007 |Company: Autodesk,Inc. |WEB Address: www.autodesk.com
 90
    32897
280
     0
281
     0
  0
CLASS
  1
AEC_DISP_REP_DOOR_THRESHOLD_PLAN
  2
AecDbDispRepDoorThresholdPlan
  3
AecArchBase50|Product Desc: Autodesk Architectural Desktop 2007 |Company: Autodesk,Inc. |WEB Address: www.autodesk.com
 90
    32897
280
     0
281
     0
  0
CLASS
  1
AEC_DISP_PROPS_DOOR_THRESHOLD_PLAN
  2
AecDbDispPropsDoorThresholdPlan
  3
AecArchBase50|Product Desc: Autodesk Architectural Desktop 2007 |Company: Autodesk,Inc. |WEB Address: www.autodesk.com
 90
    32897
280
     0
281
     0
  0
CLASS
  1
AEC_DISP_REP_MASS_ELEM_RCP
  2
AecDbDispRepMassElemRcp
  3
AecArchBase50|Product Desc: Autodesk Architectural Desktop 2007 |Company: Autodesk,Inc. |WEB Address: www.autodesk.com
 90
    32897
280
     0
281
     0
  0
CLASS
  1
AEC_DISP_REP_MASS_GROUP_RCP
  2
AecDbDispRepMassGroupRcp
  3
AecArchBase50|Product Desc: Autodesk Architectural Desktop 2007 |Company: Autodesk,Inc. |WEB Address: www.autodesk.com
 90
    32897
280
     0
281
     0
  0
CLASS
  1
AEC_DISP_REP_MVBLOCK_REF_RCP
  2
AecDbDispRepMvBlockRefRcp
  3
AecArchBase50|Product Desc: Autodesk Architectural Desktop 2007 |Company: Autodesk,Inc. |WEB Address: www.autodesk.com
 90
    32897
280
     0
281
     0
  0
CLASS
  1
AEC_DISP_REP_ROOF_RCP
  2
AecDbDispRepRoofRcp
  3
AecArchBase50|Product Desc: Autodesk Architectural Desktop 2007 |Company: Autodesk,Inc. |WEB Address: www.autodesk.com
 90
    32897
280
     0
281
     0
  0
CLASS
  1
AEC_DISP_REP_SPACE_BOUNDARY_DIAGRAM
  2
AecDbDispRepSpaceBoundaryDgrm
  3
AecArchBase50|Product Desc: Autodesk Architectural Desktop 2007 |Company: Autodesk,Inc. |WEB Address: www.autodesk.com
 90
    32897
280
     0
281
     0
  0
CLASS
  1
AEC_DISP_REP_SPACE_RCP
  2
AecDbDispRepSpaceRcp
  3
AecArchBase50|Product Desc: Autodesk Architectural Desktop 2007 |Company: Autodesk,Inc. |WEB Address: www.autodesk.com
 90
    32897
280
     0
281
     0
  0
CLASS
  1
AEC_DISP_REP_SPACE_VOLUME
  2
AecDbDispRepSpaceVolume
  3
AecArchBase50|Product Desc: Autodesk Architectural Desktop 2007 |Company: Autodesk,Inc. |WEB Address: www.autodesk.com
 90
    32897
280
     0
281
     0
  0
CLASS
  1
AEC_DISP_REP_STAIR_PLAN_OVERLAPPING
  2
AecDbDispRepStairPlanOverlapping
  3
AecArchBase50|Product Desc: Autodesk Architectural Desktop 2007 |Company: Autodesk,Inc. |WEB Address: www.autodesk.com
 90
    32897
280
     0
281
     0
  0
CLASS
  1
AEC_DISP_PROPS_STAIR_PLAN_OVERLAPPING
  2
AecDbDispPropsStairPlanOverlapping
  3
AecArchBase50|Product Desc: Autodesk Architectural Desktop 2007 |Company: Autodesk,Inc. |WEB Address: www.autodesk.com
 90
    32897
280
     0
281
     0
  0
CLASS
  1
AEC_DISP_REP_STAIR_RCP
  2
AecDbDispRepStairRcp
  3
AecArchBase50|Product Desc: Autodesk Architectural Desktop 2007 |Company: Autodesk,Inc. |WEB Address: www.autodesk.com
 90
    32897
280
     0
281
     0
  0
CLASS
  1
AEC_DISP_REP_WALL_RCP
  2
AecDbDispRepWallRcp
  3
AecArchBase50|Product Desc: Autodesk Architectural Desktop 2007 |Company: Autodesk,Inc. |WEB Address: www.autodesk.com
 90
    32897
280
     0
281
     0
  0
CLASS
  1
AEC_DISP_REP_WINDOWASSEMBLY_SILL_PLAN
  2
AecDbDispRepWindowAssemblySillPlan
  3
AecArchBase50|Product Desc: Autodesk Architectural Desktop 2007 |Company: Autodesk,Inc. |WEB Address: www.autodesk.com
 90
    32897
280
     0
281
     0
  0
CLASS
  1
AEC_DISP_PROPS_WINDOW_ASSEMBLY_SILL_PLAN
  2
AecDbDispPropsWindowAssemblySillPlan
  3
AecArchBase50|Product Desc: Autodesk Architectural Desktop 2007 |Company: Autodesk,Inc. |WEB Address: www.autodesk.com
 90
    32897
280
     0
281
     0
  0
CLASS
  1
AEC_DISP_REP_WINDOW_ELEV
  2
AecDbDispRepWindowElev
  3
AecArchBase50|Product Desc: Autodesk Architectural Desktop 2007 |Company: Autodesk,Inc. |WEB Address: www.autodesk.com
 90
    32897
280
     0
281
     0
  0
CLASS
  1
AEC_DISP_REP_WINDOW_RCP
  2
AecDbDispRepWindowRcp
  3
AecArchBase50|Product Desc: Autodesk Architectural Desktop 2007 |Company: Autodesk,Inc. |WEB Address: www.autodesk.com
 90
    32897
280
     0
281
     0
  0
CLASS
  1
AEC_DISP_REP_WINDOW_SILL_PLAN
  2
AecDbDispRepWindowSillPlan
  3
AecArchBase50|Product Desc: Autodesk Architectural Desktop 2007 |Company: Autodesk,Inc. |WEB Address: www.autodesk.com
 90
    32897
280
     0
281
     0
  0
CLASS
  1
AEC_DISP_PROPS_WINDOW_SILL_PLAN
  2
AecDbDispPropsWindowSillPlan
  3
AecArchBase50|Product Desc: Autodesk Architectural Desktop 2007 |Company: Autodesk,Inc. |WEB Address: www.autodesk.com
 90
    32897
280
     0
281
     0
  0
CLASS
  1
AEC_DISP_REP_ANCHOR_BUB_TO_GRID_RCP
  2
AecDbDispRepAnchorBubToGridRcp
  3
AecStructureBase50|Product Desc: Autodesk Architectural Desktop 2007 |Company: Autodesk,Inc. |WEB Address: www.autodesk.com
 90
    32897
280
     0
281
     0
  0
CLASS
  1
AEC_DISP_REP_COLUMN_GRID_RCP
  2
AecDbDispRepColumnGridRcp
  3
AecStructureBase50|Product Desc: Autodesk Architectural Desktop 2007 |Company: Autodesk,Inc. |WEB Address: www.autodesk.com
 90
    32897
280
     0
281
     0
  0
CLASS
  1
AECS_DISP_REP_MEMBER_ELEVATION_DESIGN
  2
AecsDbDispRepMemberElevationDesign
  3
AecStructureBase50|Product Desc: Autodesk Architectural Desktop 2007 |Company: Autodesk,Inc. |WEB Address: www.autodesk.com
 90
    32897
280
     0
281
     0
  0
CLASS
  1
AECS_DISP_PROPS_MEMBER_PROJECTED
  2
AecsDbDispPropsMemberProjected
  3
AecStructureBase50|Product Desc: Autodesk Architectural Desktop 2007 |Company: Autodesk,Inc. |WEB Address: www.autodesk.com
 90
    32897
280
     0
281
     0
  0
CLASS
  1
AECS_DISP_REP_MEMBER_ELEVATION_DETAIL
  2
AecsDbDispRepMemberElevationDetail
  3
AecStructureBase50|Product Desc: Autodesk Architectural Desktop 2007 |Company: Autodesk,Inc. |WEB Address: www.autodesk.com
 90
    32897
280
     0
281
     0
  0
CLASS
  1
AECS_DISP_REP_MEMBER_MODEL_DETAIL
  2
AecsDbDispRepMemberModelDetail
  3
AecStructureBase50|Product Desc: Autodesk Architectural Desktop 2007 |Company: Autodesk,Inc. |WEB Address: www.autodesk.com
 90
    32897
280
     0
281
     0
  0
CLASS
  1
AECS_DISP_REP_MEMBER_PLAN_DETAIL
  2
AecsDbDispRepMemberPlanDetail
  3
AecStructureBase50|Product Desc: Autodesk Architectural Desktop 2007 |Company: Autodesk,Inc. |WEB Address: www.autodesk.com
 90
    32897
280
     0
281
     0
  0
CLASS
  1
AECS_DISP_REP_MEMBER_PLAN_SKETCH
  2
AecsDbDispRepMemberPlanSketch
  3
AecStructureBase50|Product Desc: Autodesk Architectural Desktop 2007 |Company: Autodesk,Inc. |WEB Address: www.autodesk.com
 90
    32897
280
     0
281
     0
  0
CLASS
  1
AECS_DISP_PROPS_MEMBER_PLAN_SKETCH
  2
AecsDbDispPropsMemberPlanSketch
  3
AecStructureBase50|Product Desc: Autodesk Architectural Desktop 2007 |Company: Autodesk,Inc. |WEB Address: www.autodesk.com
 90
    32897
280
     0
281
     0
  0
CLASS
  1
AEC_AECDBDISPREPAREA100
  2
AecDbDispRepArea100
  3
AecArchDACHBase50|Product Desc: Autodesk Architectural Desktop 2007 |Company: Autodesk,Inc. |WEB Address: www.autodesk.com
 90
    32897
280
     0
281
     0
  0
CLASS
  1
AEC_AECDBDISPREPAREAGROUP100
  2
AecDbDispRepAreaGroup100
  3
AecArchDACHBase50|Product Desc: Autodesk Architectural Desktop 2007 |Company: Autodesk,Inc. |WEB Address: www.autodesk.com
 90
    32897
280
     0
281
     0
  0
CLASS
  1
AEC_AECDBDISPREPBDGELEVLINEPLAN100
  2
AecDbDispRepBdgElevLinePlan100
  3
AecArchDACHBase50|Product Desc: Autodesk Architectural Desktop 2007 |Company: Autodesk,Inc. |WEB Address: www.autodesk.com
 90
    32897
280
     0
281
     0
  0
CLASS
  1
AEC_AECDBDISPREPBDGSECTIONLINEPLAN100
  2
AecDbDispRepBdgSectionLinePlan100
  3
AecArchDACHBase50|Product Desc: Autodesk Architectural Desktop 2007 |Company: Autodesk,Inc. |WEB Address: www.autodesk.com
 90
    32897
280
     0
281
     0
  0
CLASS
  1
AEC_AECDBDISPREPCEILINGGRIDPLAN100
  2
AecDbDispRepCeilingGridPlan100
  3
AecArchDACHBase50|Product Desc: Autodesk Architectural Desktop 2007 |Company: Autodesk,Inc. |WEB Address: www.autodesk.com
 90
    32897
280
     0
281
     0
  0
CLASS
  1
AEC_AECDBDISPREPCOLUMNGRIDPLAN100
  2
AecDbDispRepColumnGridPlan100
  3
AecArchDACHBase50|Product Desc: Autodesk Architectural Desktop 2007 |Company: Autodesk,Inc. |WEB Address: www.autodesk.com
 90
    32897
280
     0
281
     0
  0
CLASS
  1
AEC_AECDBDISPREPCURTAINWALLLAYOUTPLAN100
  2
AecDbDispRepCurtainWallLayoutPlan100
  3
AecArchDACHBase50|Product Desc: Autodesk Architectural Desktop 2007 |Company: Autodesk,Inc. |WEB Address: www.autodesk.com
 90
    32897
280
     0
281
     0
  0
CLASS
  1
AEC_AECDBDISPREPCURTAINWALLUNITPLAN100
  2
AecDbDispRepCurtainWallUnitPlan100
  3
AecArchDACHBase50|Product Desc: Autodesk Architectural Desktop 2007 |Company: Autodesk,Inc. |WEB Address: www.autodesk.com
 90
    32897
280
     0
281
     0
  0
CLASS
  1
AEC_AECDBDISPREPMVBLOCKREFPLAN100
  2
AecDbDispRepMvBlockRefPlan100
  3
AecArchDACHBase50|Product Desc: Autodesk Architectural Desktop 2007 |Company: Autodesk,Inc. |WEB Address: www.autodesk.com
 90
    32897
280
     0
281
     0
  0
CLASS
  1
AEC_AECDBDISPREPROOFPLAN100
  2
AecDbDispRepRoofPlan100
  3
AecArchDACHBase50|Product Desc: Autodesk Architectural Desktop 2007 |Company: Autodesk,Inc. |WEB Address: www.autodesk.com
 90
    32897
280
     0
281
     0
  0
CLASS
  1
AEC_AECDBDISPREPROOFSLABPLAN100
  2
AecDbDispRepRoofSlabPlan100
  3
AecArchDACHBase50|Product Desc: Autodesk Architectural Desktop 2007 |Company: Autodesk,Inc. |WEB Address: www.autodesk.com
 90
    32897
280
     0
281
     0
  0
CLASS
  1
AEC_AECDBDISPREPSLABPLAN100
  2
AecDbDispRepSlabPlan100
  3
AecArchDACHBase50|Product Desc: Autodesk Architectural Desktop 2007 |Company: Autodesk,Inc. |WEB Address: www.autodesk.com
 90
    32897
280
     0
281
     0
  0
CLASS
  1
AEC_AECDBDISPREPSPACEBOUNDARYPLAN100
  2
AecDbDispRepSpaceBoundaryPlan100
  3
AecArchDACHBase50|Product Desc: Autodesk Architectural Desktop 2007 |Company: Autodesk,Inc. |WEB Address: www.autodesk.com
 90
    32897
280
     0
281
     0
  0
CLASS
  1
AEC_AECDBDISPREPSPACEPLAN100
  2
AecDbDispRepSpacePlan100
  3
AecArchDACHBase50|Product Desc: Autodesk Architectural Desktop 2007 |Company: Autodesk,Inc. |WEB Address: www.autodesk.com
 90
    32897
280
     0
281
     0
  0
CLASS
  1
AEC_AECDBDISPREPWALLPLAN100
  2
AecDbDispRepWallPlan100
  3
AecArchDACHBase50|Product Desc: Autodesk Architectural Desktop 2007 |Company: Autodesk,Inc. |WEB Address: www.autodesk.com
 90
    32897
280
     0
281
     0
  0
CLASS
  1
AEC_AECDBDISPREPAREA50
  2
AecDbDispRepArea50
  3
AecArchDACHBase50|Product Desc: Autodesk Architectural Desktop 2007 |Company: Autodesk,Inc. |WEB Address: www.autodesk.com
 90
    32897
280
     0
281
     0
  0
CLASS
  1
AEC_AECDBDISPREPAREAGROUP50
  2
AecDbDispRepAreaGroup50
  3
AecArchDACHBase50|Product Desc: Autodesk Architectural Desktop 2007 |Company: Autodesk,Inc. |WEB Address: www.autodesk.com
 90
    32897
280
     0
281
     0
  0
CLASS
  1
AEC_AECDBDISPREPBDGELEVLINEPLAN50
  2
AecDbDispRepBdgElevLinePlan50
  3
AecArchDACHBase50|Product Desc: Autodesk Architectural Desktop 2007 |Company: Autodesk,Inc. |WEB Address: www.autodesk.com
 90
    32897
280
     0
281
     0
  0
CLASS
  1
AEC_AECDBDISPREPBDGSECTIONLINEPLAN50
  2
AecDbDispRepBdgSectionLinePlan50
  3
AecArchDACHBase50|Product Desc: Autodesk Architectural Desktop 2007 |Company: Autodesk,Inc. |WEB Address: www.autodesk.com
 90
    32897
280
     0
281
     0
  0
CLASS
  1
AEC_AECDBDISPREPCEILINGGRIDPLAN50
  2
AecDbDispRepCeilingGridPlan50
  3
AecArchDACHBase50|Product Desc: Autodesk Architectural Desktop 2007 |Company: Autodesk,Inc. |WEB Address: www.autodesk.com
 90
    32897
280
     0
281
     0
  0
CLASS
  1
AEC_AECDBDISPREPCOLUMNGRIDPLAN50
  2
AecDbDispRepColumnGridPlan50
  3
AecArchDACHBase50|Product Desc: Autodesk Architectural Desktop 2007 |Company: Autodesk,Inc. |WEB Address: www.autodesk.com
 90
    32897
280
     0
281
     0
  0
CLASS
  1
AEC_AECDBDISPREPCURTAINWALLLAYOUTPLAN50
  2
AecDbDispRepCurtainWallLayoutPlan50
  3
AecArchDACHBase50|Product Desc: Autodesk Architectural Desktop 2007 |Company: Autodesk,Inc. |WEB Address: www.autodesk.com
 90
    32897
280
     0
281
     0
  0
CLASS
  1
AEC_AECDBDISPREPCURTAINWALLUNITPLAN50
  2
AecDbDispRepCurtainWallUnitPlan50
  3
AecArchDACHBase50|Product Desc: Autodesk Architectural Desktop 2007 |Company: Autodesk,Inc. |WEB Address: www.autodesk.com
 90
    32897
280
     0
281
     0
  0
CLASS
  1
AEC_AECDBDISPREPMVBLOCKREFPLAN50
  2
AecDbDispRepMvBlockRefPlan50
  3
AecArchDACHBase50|Product Desc: Autodesk Architectural Desktop 2007 |Company: Autodesk,Inc. |WEB Address: www.autodesk.com
 90
    32897
280
     0
281
     0
  0
CLASS
  1
AEC_AECDBDISPREPROOFPLAN50
  2
AecDbDispRepRoofPlan50
  3
AecArchDACHBase50|Product Desc: Autodesk Architectural Desktop 2007 |Company: Autodesk,Inc. |WEB Address: www.autodesk.com
 90
    32897
280
     0
281
     0
  0
CLASS
  1
AEC_AECDBDISPREPROOFSLABPLAN50
  2
AecDbDispRepRoofSlabPlan50
  3
AecArchDACHBase50|Product Desc: Autodesk Architectural Desktop 2007 |Company: Autodesk,Inc. |WEB Address: www.autodesk.com
 90
    32897
280
     0
281
     0
  0
CLASS
  1
AEC_AECDBDISPREPSLABPLAN50
  2
AecDbDispRepSlabPlan50
  3
AecArchDACHBase50|Product Desc: Autodesk Architectural Desktop 2007 |Company: Autodesk,Inc. |WEB Address: www.autodesk.com
 90
    32897
280
     0
281
     0
  0
CLASS
  1
AEC_AECDBDISPREPSPACEBOUNDARYPLAN50
  2
AecDbDispRepSpaceBoundaryPlan50
  3
AecArchDACHBase50|Product Desc: Autodesk Architectural Desktop 2007 |Company: Autodesk,Inc. |WEB Address: www.autodesk.com
 90
    32897
280
     0
281
     0
  0
CLASS
  1
AEC_AECDBDISPREPSPACEPLAN50
  2
AecDbDispRepSpacePlan50
  3
AecArchDACHBase50|Product Desc: Autodesk Architectural Desktop 2007 |Company: Autodesk,Inc. |WEB Address: www.autodesk.com
 90
    32897
280
     0
281
     0
  0
CLASS
  1
AEC_AECDBDISPREPWALLPLAN50
  2
AecDbDispRepWallPlan50
  3
AecArchDACHBase50|Product Desc: Autodesk Architectural Desktop 2007 |Company: Autodesk,Inc. |WEB Address: www.autodesk.com
 90
    32897
280
     0
281
     0
  0
CLASS
  1
AEC_AECDBDISPREPWINDOWASSEMBLYPLAN50
  2
AecDbDispRepWindowAssemblyPlan50
  3
AecArchDACHBase50|Product Desc: Autodesk Architectural Desktop 2007 |Company: Autodesk,Inc. |WEB Address: www.autodesk.com
 90
    32897
280
     0
281
     0
  0
CLASS
  1
AEC_DB_DISP_REP_DIM_GROUP_PLAN100
  2
AecDbDispRepDimGroupPlan100
  3
AecArchDACHBase50|Product Desc: Autodesk Architectural Desktop 2007 |Company: Autodesk,Inc. |WEB Address: www.autodesk.com
 90
    32897
280
     0
281
     0
  0
CLASS
  1
AEC_DB_DISP_REP_DIM_GROUP_PLAN50
  2
AecDbDispRepDimGroupPlan50
  3
AecArchDACHBase50|Product Desc: Autodesk Architectural Desktop 2007 |Company: Autodesk,Inc. |WEB Address: www.autodesk.com
 90
    32897
280
     0
281
     0
  0
CLASS
  1
AEC_DISP_REP_DOOR_PLAN_50
  2
AecDbDispRepDoorPlan50
  3
AecArchDACHBase50|Product Desc: Autodesk Architectural Desktop 2007 |Company: Autodesk,Inc. |WEB Address: www.autodesk.com
 90
    32897
280
     0
281
     0
  0
CLASS
  1
AEC_DISP_PROPS_DOOR_PLAN_50
  2
AecDbDispPropsDoorPlan50
  3
AecArchDACHBase50|Product Desc: Autodesk Architectural Desktop 2007 |Company: Autodesk,Inc. |WEB Address: www.autodesk.com
 90
    32897
280
     0
281
     0
  0
CLASS
  1
AEC_DISP_REP_DOOR_PLAN_HEKTO
  2
AecDbDispRepDoorPlanHekto
  3
AecArchDACHBase50|Product Desc: Autodesk Architectural Desktop 2007 |Company: Autodesk,Inc. |WEB Address: www.autodesk.com
 90
    32897
280
     0
281
     0
  0
CLASS
  1
AEC_DISP_PROPS_DOOR_PLAN_100
  2
AecDbDispPropsDoorPlan100
  3
AecArchDACHBase50|Product Desc: Autodesk Architectural Desktop 2007 |Company: Autodesk,Inc. |WEB Address: www.autodesk.com
 90
    32897
280
     0
281
     0
  0
CLASS
  1
AEC_DISP_REP_DOOR_THRESHOLD_SYMBOL_PLAN
  2
AecDbDispRepDoorThresholdSymbolPlan
  3
AecArchDACHBase50|Product Desc: Autodesk Architectural Desktop 2007 |Company: Autodesk,Inc. |WEB Address: www.autodesk.com
 90
    32897
280
     0
281
     0
  0
CLASS
  1
AEC_DISP_PROPS_DOOR_THRESHOLD_SYMBOL_PLAN
  2
AecDbDispPropsDoorThresholdSymbolPlan
  3
AecArchDACHBase50|Product Desc: Autodesk Architectural Desktop 2007 |Company: Autodesk,Inc. |WEB Address: www.autodesk.com
 90
    32897
280
     0
281
     0
  0
CLASS
  1
AEC_DISPREPAECDBDISPREPMASSELEMPLAN100
  2
AecDbDispRepMassElemPlan100
  3
AecArchDACHBase50|Product Desc: Autodesk Architectural Desktop 2007 |Company: Autodesk,Inc. |WEB Address: www.autodesk.com
 90
    32897
280
     0
281
     0
  0
CLASS
  1
AEC_DISPROPSMASSELEMPLANCOMMON
  2
AecDbDispPropsMassElemPlanCommon
  3
AecArchDACHBase50|Product Desc: Autodesk Architectural Desktop 2007 |Company: Autodesk,Inc. |WEB Address: www.autodesk.com
 90
    32897
280
     0
281
     0
  0
CLASS
  1
AEC_DISPREPAECDBDISPREPMASSELEMPLAN50
  2
AecDbDispRepMassElemPlan50
  3
AecArchDACHBase50|Product Desc: Autodesk Architectural Desktop 2007 |Company: Autodesk,Inc. |WEB Address: www.autodesk.com
 90
    32897
280
     0
281
     0
  0
CLASS
  1
AEC_DISPREPAECDBDISPREPMASSGROUPPLAN100
  2
AecDbDispRepMassGroupPlan100
  3
AecArchDACHBase50|Product Desc: Autodesk Architectural Desktop 2007 |Company: Autodesk,Inc. |WEB Address: www.autodesk.com
 90
    32897
280
     0
281
     0
  0
CLASS
  1
AEC_DISPROPSMASSGROUPPLANCOMMON
  2
AecDbDispPropsMassGroupPlanCommon
  3
AecArchDACHBase50|Product Desc: Autodesk Architectural Desktop 2007 |Company: Autodesk,Inc. |WEB Address: www.autodesk.com
 90
    32897
280
     0
281
     0
  0
CLASS
  1
AEC_DISPREPAECDBDISPREPMASSGROUPPLAN50
  2
AecDbDispRepMassGroupPlan50
  3
AecArchDACHBase50|Product Desc: Autodesk Architectural Desktop 2007 |Company: Autodesk,Inc. |WEB Address: www.autodesk.com
 90
    32897
280
     0
281
     0
  0
CLASS
  1
AEC_DISPREPAECDBDISPREPOPENINGPLAN100
  2
AecDbDispRepOpeningPlan100
  3
AecArchDACHBase50|Product Desc: Autodesk Architectural Desktop 2007 |Company: Autodesk,Inc. |WEB Address: www.autodesk.com
 90
    32897
280
     0
281
     0
  0
CLASS
  1
AEC_DISPROPSOPENINGPLANCOMMONHATCHED
  2
AecDbDispPropsOpeningPlanCommonHatched
  3
AecArchDACHBase50|Product Desc: Autodesk Architectural Desktop 2007 |Company: Autodesk,Inc. |WEB Address: www.autodesk.com
 90
    32897
280
     0
281
     0
  0
CLASS
  1
AEC_DISPREPAECDBDISPREPOPENINGPLAN50
  2
AecDbDispRepOpeningPlan50
  3
AecArchDACHBase50|Product Desc: Autodesk Architectural Desktop 2007 |Company: Autodesk,Inc. |WEB Address: www.autodesk.com
 90
    32897
280
     0
281
     0
  0
CLASS
  1
AEC_DISPREPAECDBDISPREPOPENINGPLANREFLECTED
  2
AecDbDispRepOpeningPlanReflected
  3
AecArchDACHBase50|Product Desc: Autodesk Architectural Desktop 2007 |Company: Autodesk,Inc. |WEB Address: www.autodesk.com
 90
    32897
280
     0
281
     0
  0
CLASS
  1
AEC_DISPROPSOPENINGPLANCOMMON
  2
AecDbDispPropsOpeningPlanCommon
  3
AecArchDACHBase50|Product Desc: Autodesk Architectural Desktop 2007 |Company: Autodesk,Inc. |WEB Address: www.autodesk.com
 90
    32897
280
     0
281
     0
  0
CLASS
  1
AEC_DISPREPAECDBDISPREPOPENINGSILLPLAN
  2
AecDbDispRepOpeningSillPlan
  3
AecArchDACHBase50|Product Desc: Autodesk Architectural Desktop 2007 |Company: Autodesk,Inc. |WEB Address: www.autodesk.com
 90
    32897
280
     0
281
     0
  0
CLASS
  1
AEC_DISPROPSOPENINGSILLPLAN
  2
AecDbDispPropsOpeningSillPlan
  3
AecArchDACHBase50|Product Desc: Autodesk Architectural Desktop 2007 |Company: Autodesk,Inc. |WEB Address: www.autodesk.com
 90
    32897
280
     0
281
     0
  0
CLASS
  1
AEC_DISP_REP_RAILING_PLAN_100
  2
AecDbDispRepRailingPlan100
  3
AecArchDACHBase50|Product Desc: Autodesk Architectural Desktop 2007 |Company: Autodesk,Inc. |WEB Address: www.autodesk.com
 90
    32897
280
     0
281
     0
  0
CLASS
  1
AEC_DISP_ROPS_RAILING_PLAN_100
  2
AecDbDispPropsRailingPlan100
  3
AecArchDACHBase50|Product Desc: Autodesk Architectural Desktop 2007 |Company: Autodesk,Inc. |WEB Address: www.autodesk.com
 90
    32897
280
     0
281
     0
  0
CLASS
  1
AEC_DISP_REP_RAILING_PLAN_50
  2
AecDbDispRepRailingPlan50
  3
AecArchDACHBase50|Product Desc: Autodesk Architectural Desktop 2007 |Company: Autodesk,Inc. |WEB Address: www.autodesk.com
 90
    32897
280
     0
281
     0
  0
CLASS
  1
AEC_DISP_ROPS_RAILING_PLAN_50
  2
AecDbDispPropsRailingPlan50
  3
AecArchDACHBase50|Product Desc: Autodesk Architectural Desktop 2007 |Company: Autodesk,Inc. |WEB Address: www.autodesk.com
 90
    32897
280
     0
281
     0
  0
CLASS
  1
AEC_DISP_REP_STAIR_PLAN_100
  2
AecDbDispRepStairPlan100
  3
AecArchDACHBase50|Product Desc: Autodesk Architectural Desktop 2007 |Company: Autodesk,Inc. |WEB Address: www.autodesk.com
 90
    32897
280
     0
281
     0
  0
CLASS
  1
AEC_DISP_ROPS_STAIR_PLAN_100
  2
AecDbDispPropsStairPlan100
  3
AecArchDACHBase50|Product Desc: Autodesk Architectural Desktop 2007 |Company: Autodesk,Inc. |WEB Address: www.autodesk.com
 90
    32897
280
     0
281
     0
  0
CLASS
  1
AEC_DISP_REP_STAIR_PLAN_50
  2
AecDbDispRepStairPlan50
  3
AecArchDACHBase50|Product Desc: Autodesk Architectural Desktop 2007 |Company: Autodesk,Inc. |WEB Address: www.autodesk.com
 90
    32897
280
     0
281
     0
  0
CLASS
  1
AEC_DISP_ROPS_STAIR_PLAN_50
  2
AecDbDispPropsStairPlan50
  3
AecArchDACHBase50|Product Desc: Autodesk Architectural Desktop 2007 |Company: Autodesk,Inc. |WEB Address: www.autodesk.com
 90
    32897
280
     0
281
     0
  0
CLASS
  1
AEC_DISP_REP_WINDOW_PLAN_100
  2
AecDbDispRepWindowPlan100
  3
AecArchDACHBase50|Product Desc: Autodesk Architectural Desktop 2007 |Company: Autodesk,Inc. |WEB Address: www.autodesk.com
 90
    32897
280
     0
281
     0
  0
CLASS
  1
AEC_DISP_PROPS_WINDOW_PLAN_100
  2
AecDbDispPropsWindowPlan100
  3
AecArchDACHBase50|Product Desc: Autodesk Architectural Desktop 2007 |Company: Autodesk,Inc. |WEB Address: www.autodesk.com
 90
    32897
280
     0
281
     0
  0
CLASS
  1
AEC_DISP_REP_WINDOW_PLAN_50
  2
AecDbDispRepWindowPlan50
  3
AecArchDACHBase50|Product Desc: Autodesk Architectural Desktop 2007 |Company: Autodesk,Inc. |WEB Address: www.autodesk.com
 90
    32897
280
     0
281
     0
  0
CLASS
  1
AEC_DISP_PROPS_WINDOW_PLAN_50
  2
AecDbDispPropsWindowPlan50
  3
AecArchDACHBase50|Product Desc: Autodesk Architectural Desktop 2007 |Company: Autodesk,Inc. |WEB Address: www.autodesk.com
 90
    32897
280
     0
281
     0
  0
CLASS
  1
BINRECORD
  2
AcAecBinRecord
  3
AecBase50|Product Desc: Autodesk Architectural Desktop 2007 |Company: Autodesk,Inc. |WEB Address: www.autodesk.com
 90
    32897
280
     0
281
     0
  0
CLASS
  1
SPATIAL_FILTER
  2
AcDbSpatialFilter
  3
ObjectDBX Classes
 90
    32768
280
     0
281
     0
  0
CLASS
  1
AEC_VARS_STRUCTUREBASE
  2
AecsDbVarsStructureBase
  3
AecStructureBase50|Product Desc: Autodesk Architectural Desktop 2007 |Company: Autodesk,Inc. |WEB Address: www.autodesk.com
 90
    32897
280
     0
281
     0
  0
CLASS
  1
DIMASSOC
  2
AcDbDimAssoc
  3
"AcDbDimAssoc|Product Desc:     AcDim ARX App For Dimension|Company:          Autodesk, Inc.|WEB Address:      www.autodesk.com"
 90
    32768
280
     0
281
     0
  0
CLASS
  1
TABLESTYLE
  2
AcDbTableStyle
  3
ObjectDBX Classes
 90
     4095
280
     0
281
     0
  0
CLASS
  1
MATERIAL
  2
AcDbMaterial
  3
ObjectDBX Classes
 90
     1153
280
     0
281
     0
  0
CLASS
  1
VISUALSTYLE
  2
AcDbVisualStyle
  3
ObjectDBX Classes
 90
     4095
280
     0
281
     0
  0
CLASS
  1
EXACXREFPANELOBJECT
  2
ExAcXREFPanelObject
  3
EXAC_ESW
 90
    33793
280
     1
281
     0
  0
CLASS
  1
NPOCOLLECTION
  2
AcDbImpNonPersistentObjectsCollection
  3
ObjectDBX Classes
 90
     1153
280
     0
281
     0
  0
CLASS
  1
AEC_AECDBDISPREPZONE100
  2
AecDbDispRepZonePlan100
  3
AecArchDACHBase50|Product Desc: Autodesk Architectural Desktop 2007 |Company: Autodesk,Inc. |WEB Address: www.autodesk.com
 90
    32897
280
     0
281
     0
  0
CLASS
  1
AEC_DISP_PROPS_ZONE
  2
AecDbDispPropsZone
  3
AecArchBase50|Product Desc: Autodesk Architectural Desktop 2007 |Company: Autodesk,Inc. |WEB Address: www.autodesk.com
 90
    32897
280
     0
281
     0
  0
CLASS
  1
AEC_AECDBDISPREPZONE50
  2
AecDbDispRepZonePlan50
  3
AecArchDACHBase50|Product Desc: Autodesk Architectural Desktop 2007 |Company: Autodesk,Inc. |WEB Address: www.autodesk.com
 90
    32897
280
     0
281
     0
  0
CLASS
  1
AEC_DISP_REP_DISPLAYTHEME
  2
AecDbDispRepDisplayTheme
  3
AecBase50|Product Desc: Autodesk Architectural Desktop 2007 |Company: Autodesk,Inc. |WEB Address: www.autodesk.com
 90
    32897
280
     0
281
     0
  0
CLASS
  1
AEC_DISP_PROPS_DISPLAYTHEME
  2
AecDbDispPropsDisplayTheme
  3
AecBase50|Product Desc: Autodesk Architectural Desktop 2007 |Company: Autodesk,Inc. |WEB Address: www.autodesk.com
 90
    32897
280
     0
281
     0
  0
CLASS
  1
AEC_DISP_REP_ANCHOR_EXT_TAG_TO_ENT
  2
AecDbDispRepAnchorExtendedTagToEnt
  3
AecScheduleData50|Product Desc: Autodesk Architectural Desktop 2007 |Company: Autodesk,Inc. |WEB Address: www.autodesk.com
 90
    32897
280
     0
281
     0
  0
CLASS
  1
AEC_DISP_REP_SPACE_DECOMPOSED
  2
AecDbDispRepSpaceDecomposed
  3
AecArchBase50|Product Desc: Autodesk Architectural Desktop 2007 |Company: Autodesk,Inc. |WEB Address: www.autodesk.com
 90
    32897
280
     0
281
     0
  0
CLASS
  1
AEC_DISP_PROPS_SPACE_DECOMPOSED
  2
AecDbDispPropsSpaceDecomposed
  3
AecArchBase50|Product Desc: Autodesk Architectural Desktop 2007 |Company: Autodesk,Inc. |WEB Address: www.autodesk.com
 90
    32897
280
     0
281
     0
  0
CLASS
  1
AEC_DISP_REP_ZONE
  2
AecDbDispRepZone
  3
AecArchBase50|Product Desc: Autodesk Architectural Desktop 2007 |Company: Autodesk,Inc. |WEB Address: www.autodesk.com
 90
    32897
280
     0
281
     0
  0
CLASS
  1
ACAD_EVALUATION_GRAPH
  2
AcDbEvalGraph
  3
ObjectDBX Classes
 90
    33921
280
     0
281
     0
  0
CLASS
  1
BLOCKFLIPPARAMETER
  2
AcDbBlockFlipParameter
  3
ObjectDBX Classes
 90
    33921
280
     0
281
     0
  0
CLASS
  1
BLOCKFLIPGRIP
  2
AcDbBlockFlipGrip
  3
ObjectDBX Classes
 90
    33921
280
     0
281
     0
  0
CLASS
  1
BLOCKGRIPLOCATIONCOMPONENT
  2
AcDbBlockGripExpr
  3
ObjectDBX Classes
 90
    33921
280
     0
281
     0
  0
CLASS
  1
BLOCKFLIPACTION
  2
AcDbBlockFlipAction
  3
ObjectDBX Classes
 90
    33921
280
     0
281
     0
  0
CLASS
  1
BLOCKROTATIONPARAMETER
  2
AcDbBlockRotationParameter
  3
ObjectDBX Classes
 90
    33921
280
     0
281
     0
  0
CLASS
  1
BLOCKROTATIONGRIP
  2
AcDbBlockRotationGrip
  3
ObjectDBX Classes
 90
    33921
280
     0
281
     0
  0
CLASS
  1
BLOCKROTATEACTION
  2
AcDbBlockRotateAction
  3
ObjectDBX Classes
 90
    33921
280
     0
281
     0
  0
CLASS
  1
BLOCKBASEPOINTPARAMETER
  2
AcDbBlockBasepointParameter
  3
ObjectDBX Classes
 90
    33921
280
     0
281
     0
  0
CLASS
  1
ACDB_DYNAMICBLOCKPURGEPREVENTER_VERSION
  2
AcDbDynamicBlockPurgePreventer
  3
ObjectDBX Classes
 90
    33921
280
     0
281
     0
  0
CLASS
  1
ACDB_BLOCKREPRESENTATION_DATA
  2
AcDbBlockRepresentationData
  3
ObjectDBX Classes
 90
    33921
280
     0
281
     0
  0
CLASS
  1
SCALE
  2
AcDbScale
  3
ObjectDBX Classes
 90
     1153
280
     0
281
     0
  0
CLASS
  1
MLEADERSTYLE
  2
AcDbMLeaderStyle
  3
ACDB_MLEADERSTYLE_CLASS
 90
     4095
280
     0
281
     0
  0
CLASS
  1
CELLSTYLEMAP
  2
AcDbCellStyleMap
  3
ObjectDBX Classes
 90
     1152
280
     0
281
     0
  0
CLASS
  1
AEC_REFEDIT_STATUS_TRACKER
  2
AecDbRefEditStatusTracker
  3
AecArchBase50|Product Desc: Autodesk Architectural Desktop 2007 |Company: Autodesk,Inc. |WEB Address: www.autodesk.com
 90
      129
280
     0
281
     0
  0
ENDSEC
  0
SECTION
  2
TABLES
  0
TABLE
  2
VPORT
  5
27
330
0
100
AcDbSymbolTable
 70
     1
  0
VPORT
  5
28
330
27
100
AcDbSymbolTableRecord
100
AcDbViewportTableRecord
  2
*Active
 70
     0
 10
0.0
 20
0.0
 11
1.0
 21
1.0
 12
231991.7581839006
 22
132552.8995929473
 13
0.0
 23
0.0
 14
10.0
 24
10.0
 15
10.0
 25
10.0
 16
0.0
 26
0.0
 36
1.0
 17
0.0
 27
0.0
 37
0.0
 40
22103.70841099867
 41
2.246612466124661
 42
50.0
 43
0.0
 44
0.0
 50
0.0
 51
0.0
 71
     0
 72
  1000
 73
     1
 74
     1
 75
     0
 76
     0
 77
     0
 78
     0
281
     0
 65
     1
110
0.0
120
0.0
130
0.0
111
1.0
121
0.0
131
0.0
112
0.0
122
1.0
132
0.0
 79
     0
146
0.0
  0
ENDTAB
  0
TABLE
  2
LTYPE
  5
22
330
0
100
AcDbSymbolTable
 70
     2
  0
LTYPE
  5
23
330
22
100
AcDbSymbolTableRecord
100
AcDbLinetypeTableRecord
  2
ByBlock
 70
     0
  3

 72
    65
 73
     0
 40
0.0
  0
LTYPE
  5
24
330
22
100
AcDbSymbolTableRecord
100
AcDbLinetypeTableRecord
  2
ByLayer
 70
     0
  3

 72
    65
 73
     0
 40
0.0
  0
LTYPE
  5
C
330
22
100
AcDbSymbolTableRecord
100
AcDbLinetypeTableRecord
  2
Continuous
 70
     0
  3
Solid line
 72
    65
 73
     0
 40
0.0
  0
LTYPE
  5
57
330
22
100
AcDbSymbolTableRecord
100
AcDbLinetypeTableRecord
  2
HIDDEN
 70
     0
  3
Hidden __ __ __ __ __ __ __ __ __ __ __ __ __ _
 72
    65
 73
     2
 40
0.375
 49
0.25
 74
     0
 49
-0.125
 74
     0
  0
ENDTAB
  0
TABLE
  2
LAYER
  5
19
102
{ACAD_XDICTIONARY
360
1A
102
}
330
0
100
AcDbSymbolTable
 70
    11
  0
LAYER
  5
6
102
{ACAD_XDICTIONARY
360
475
102
}
330
19
100
AcDbSymbolTableRecord
100
AcDbLayerTableRecord
  2
0
 70
     0
 62
     7
  6
Continuous
370
    -3
390
7
1001
RAK
1000
{ACET-LAYISO
1070
     0
1070
     7
1000
Continuous
1071
       -3
1071
        1
1005
7
1000
ACET-LAYISO}
  0
LAYER
  5
10A
330
19
100
AcDbSymbolTableRecord
100
AcDbLayerTableRecord
  2
DEFPOINTS
 70
     0
 62
     7
  6
Continuous
290
     0
370
    -3
390
7
1001
RAK
1000
{ACET-LAYISO
1070
     0
1070
     7
1000
Continuous
1071
       -3
1071
        0
1005
7
1000
ACET-LAYISO}
  0
LAYER
  5
5D
102
{ACAD_XDICTIONARY
360
477
102
}
330
19
100
AcDbSymbolTableRecord
100
AcDbLayerTableRecord
  2
RAMKI-A4
 70
     0
 62
     2
  6
Continuous
290
     0
370
    -3
390
7
1001
RAK
1000
{ACET-LAYISO
1070
     0
1070
     2
1000
Continuous
1071
       -3
1071
        0
1005
7
1000
ACET-LAYISO}
  0
LAYER
  5
54
102
{ACAD_XDICTIONARY
360
479
102
}
330
19
100
AcDbSymbolTableRecord
100
AcDbLayerTableRecord
  2
NAPISY
 70
     0
 62
   140
  6
Continuous
370
    -3
390
7
1001
RAK
1000
{ACET-LAYISO
1070
     0
1070
   140
1000
Continuous
1071
       -3
1071
        1
1005
7
1000
ACET-LAYISO}
  0
LAYER
  5
3F
102
{ACAD_XDICTIONARY
360
47B
102
}
330
19
100
AcDbSymbolTableRecord
100
AcDbLayerTableRecord
  2
0Wymiary-PL
 70
     0
 62
     1
  6
Continuous
370
     5
390
7
  0
ENDTAB
  0
TABLE
  2
STYLE
  5
1F
330
0
100
AcDbSymbolTable
 70
     4
  0
STYLE
  5
20
330
1F
100
AcDbSymbolTableRecord
100
AcDbTextStyleTableRecord
  2
Standard
 70
     0
 40
0.0
 41
1.0
 50
0.0
 71
     0
 42
2.5
  3
txt
  4

  0
STYLE
  5
2C
330
1F
100
AcDbSymbolTableRecord
100
AcDbTextStyleTableRecord
  2
ROMANS
 70
     0
 40
0.0
 41
0.9
 50
0.0
 71
     0
 42
20.0
  3
romans.shx
  4

  0
STYLE
  5
55
330
1F
100
AcDbSymbolTableRecord
100
AcDbTextStyleTableRecord
  2
AVA
 70
     0
 40
0.0
 41
1.0
 50
0.0
 71
     0
 42
158.5644099714409
  3
ARIAL.TTF
  4

1001
ACAD
1000
Arial CE
1071
    60962
  0
ENDTAB
  0
TABLE
  2
VIEW
  5
25
330
0
100
AcDbSymbolTable
 70
     1
  0
VIEW
  5
11
330
25
100
AcDbSymbolTableRecord
100
AcDbViewTableRecord
  2
RODODENDRON 5
 70
     0
 40
14020.0
 10
220287.1664355166
 20
148687.514558954
 41
10200.00000000003
 11
0.0
 21
0.0
 31
1.0
 12
0.0
 22
0.0
 32
0.0
 42
50.0
 43
0.0
 44
0.0
 50
0.0
 71
     0
281
     0
 72
     1
110
0.0
120
0.0
130
0.0
111
1.0
121
0.0
131
0.0
112
0.0
122
1.0
132
0.0
 79
     0
146
0.0
  0
ENDTAB
  0
TABLE
  2
UCS
  5
26
330
0
100
AcDbSymbolTable
 70
     0
  0
ENDTAB
  0
TABLE
  2
APPID
  5
29
330
0
100
AcDbSymbolTable
 70
     7
  0
APPID
  5
1E
330
29
100
AcDbSymbolTableRecord
100
AcDbRegAppTableRecord
  2
ACAD
 70
     0
  0
APPID
  5
D
330
29
100
AcDbSymbolTableRecord
100
AcDbRegAppTableRecord
  2
RAK
 70
     0
  0
APPID
  5
60
330
29
100
AcDbSymbolTableRecord
100
AcDbRegAppTableRecord
  2
AcAecLayerStandard
 70
     0
  0
APPID
  5
14
330
29
100
AcDbSymbolTableRecord
100
AcDbRegAppTableRecord
  2
ACAD_PSEXT
 70
     0
  0
APPID
  5
276
330
29
100
AcDbSymbolTableRecord
100
AcDbRegAppTableRecord
  2
DCO15
 70
     0
  0
APPID
  5
292
330
29
100
AcDbSymbolTableRecord
100
AcDbRegAppTableRecord
  2
ACAD_MLEADERVER
 70
     0
  0
APPID
  5
29A
330
29
100
AcDbSymbolTableRecord
100
AcDbRegAppTableRecord
  2
ACAD_EXEMPT_FROM_CAD_STANDARDS
 70
     0
  0
ENDTAB
  0
TABLE
  2
DIMSTYLE
  5
2A
330
0
100
AcDbSymbolTable
 70
     4
100
AcDbDimStyleTable
 71
     2
340
2B
340
35
  0
DIMSTYLE
105
2B
102
{ACAD_REACTORS
330
102
330
10E
330
119
330
126
330
131
330
13E
330
149
330
156
330
1FE
330
209
330
214
330
221
330
22C
330
239
330
244
330
251
102
}
330
2A
100
AcDbSymbolTableRecord
100
AcDbDimStyleTableRecord
  2
500
 70
     0
 41
30.0
 42
43.0
 43
0.0
 44
13.0
 45
0.5
 46
12.0
 73
     0
 74
     0
 75
     1
 76
     1
 78
    12
140
80.0
141
0.0
145
1.0
147
0.0
172
     1
174
     1
176
     1
177
     1
178
    10
271
     1
272
     1
279
     2
340
2C
341
2D
342
2D
  0
DIMSTYLE
105
35
330
2A
100
AcDbSymbolTableRecord
100
AcDbDimStyleTableRecord
  2
Standard
 70
     0
340
20
  0
ENDTAB
  0
TABLE
  2
BLOCK_RECORD
  5
1
330
0
100
AcDbSymbolTable
 70
    34
  0
BLOCK_RECORD
  5
2
102
{ACAD_XDICTIONARY
360
3
102
}
330
1
100
AcDbSymbolTableRecord
100
AcDbBlockTableRecord
  2
*Model_Space
340
F
  0
BLOCK_RECORD
  5
15
330
1
100
AcDbSymbolTableRecord
100
AcDbBlockTableRecord
  2
*Paper_Space
340
18
  0
BLOCK_RECORD
  5
2D
102
{ACAD_XDICTIONARY
360
2E
102
}
330
1
100
AcDbSymbolTableRecord
100
AcDbBlockTableRecord
  2
B-DIM
340
0
102
{BLKREFS
331
255
331
256
331
24A
331
24B
331
23D
331
23E
331
232
331
233
331
225
331
226
331
21A
331
21B
331
20D
331
20E
331
202
331
203
331
15A
331
15B
331
14F
331
150
331
142
331
143
331
137
331
138
331
12A
331
12B
331
11F
331
120
331
112
331
113
331
106
331
107
331
3FA
331
3FB
331
403
331
404
331
40A
331
40B
331
413
331
414
331
41A
331
41B
331
423
331
424
331
42A
331
42B
331
431
331
432
331
438
331
439
331
441
331
442
331
448
331
449
331
451
331
452
331
458
331
459
331
461
331
462
331
468
331
469
331
46F
331
470
102
}
  0
BLOCK_RECORD
  5
2D1
330
1
100
AcDbSymbolTableRecord
100
AcDbBlockTableRecord
  2
*D17
340
0
  0
BLOCK_RECORD
  5
2DB
330
1
100
AcDbSymbolTableRecord
100
AcDbBlockTableRecord
  2
*D18
340
0
  0
BLOCK_RECORD
  5
2E7
330
1
100
AcDbSymbolTableRecord
100
AcDbBlockTableRecord
  2
*D19
340
0
  0
BLOCK_RECORD
  5
2F1
330
1
100
AcDbSymbolTableRecord
100
AcDbBlockTableRecord
  2
*D20
340
0
  0
BLOCK_RECORD
  5
2FD
330
1
100
AcDbSymbolTableRecord
100
AcDbBlockTableRecord
  2
*D21
340
0
  0
BLOCK_RECORD
  5
307
330
1
100
AcDbSymbolTableRecord
100
AcDbBlockTableRecord
  2
*D22
340
0
  0
BLOCK_RECORD
  5
313
330
1
100
AcDbSymbolTableRecord
100
AcDbBlockTableRecord
  2
*D23
340
0
  0
BLOCK_RECORD
  5
31D
330
1
100
AcDbSymbolTableRecord
100
AcDbBlockTableRecord
  2
*D24
340
0
  0
BLOCK_RECORD
  5
327
330
1
100
AcDbSymbolTableRecord
100
AcDbBlockTableRecord
  2
*D25
340
0
  0
BLOCK_RECORD
  5
331
330
1
100
AcDbSymbolTableRecord
100
AcDbBlockTableRecord
  2
*D26
340
0
  0
BLOCK_RECORD
  5
33D
330
1
100
AcDbSymbolTableRecord
100
AcDbBlockTableRecord
  2
*D27
340
0
  0
BLOCK_RECORD
  5
347
330
1
100
AcDbSymbolTableRecord
100
AcDbBlockTableRecord
  2
*D28
340
0
  0
BLOCK_RECORD
  5
353
330
1
100
AcDbSymbolTableRecord
100
AcDbBlockTableRecord
  2
*D29
340
0
  0
BLOCK_RECORD
  5
35D
330
1
100
AcDbSymbolTableRecord
100
AcDbBlockTableRecord
  2
*D30
340
0
  0
BLOCK_RECORD
  5
369
330
1
100
AcDbSymbolTableRecord
100
AcDbBlockTableRecord
  2
*D31
340
0
  0
BLOCK_RECORD
  5
373
330
1
100
AcDbSymbolTableRecord
100
AcDbBlockTableRecord
  2
*D32
340
0
  0
ENDTAB
  0
ENDSEC
  0
SECTION
  2
BLOCKS
  0
BLOCK
  5
5
330
2
100
AcDbEntity
  8
0
100
AcDbBlockBegin
  2
*Model_Space
 70
     0
 10
0.0
 20
0.0
 30
0.0
  3
*Model_Space
  1

  0
ENDBLK
  5
E
330
2
100
AcDbEntity
  8
0
100
AcDbBlockEnd
  0
BLOCK
  5
16
330
15
100
AcDbEntity
 67
     1
  8
0
100
AcDbBlockBegin
  2
*Paper_Space
 70
     0
 10
0.0
 20
0.0
 30
0.0
  3
*Paper_Space
  1

  0
ENDBLK
  5
17
330
15
100
AcDbEntity
 67
     1
  8
0
100
AcDbBlockEnd
  0
BLOCK
  5
30
330
2D
100
AcDbEntity
  8
0
100
AcDbBlockBegin
  2
B-DIM
 70
     0
 10
0.0
 20
0.0
 30
0.0
  3
B-DIM
  1

  0
LINE
  5
31
330
2D
100
AcDbEntity
  8
0
 62
     1
100
AcDbLine
 10
0.000000000000091
 20
-1.1
 30
0.0
 11
0.000000000000091
 21
1.1
 31
0.0
  0
LWPOLYLINE
  5
32
330
2D
100
AcDbEntity
  8
0
 62
     1
100
AcDbPolyline
 90
        2
 70
     0
 43
0.3
 10
-0.7071067811864851
 20
-0.7071067811864851
 10
0.707106781186576
 20
0.707106781186576
  0
LINE
  5
33
330
2D
100
AcDbEntity
  8
0
 62
     1
100
AcDbLine
 10
1.20000000000009
 20
0.0
 30
0.0
 11
-1.199999999999909
 21
0.0
 31
0.0
  0
ENDBLK
  5
34
330
2D
100
AcDbEntity
  8
0
100
AcDbBlockEnd
  0
BLOCK
  5
2D2
330
2D1
100
AcDbEntity
  8
0
100
AcDbBlockBegin
  2
*D17
 70
     1
 10
0.0
 20
0.0
 30
0.0
  3
*D17
  1

  0
LINE
  5
3F9
330
2D1
100
AcDbEntity
  8
0
 62
     1
370
    -2
100
AcDbLine
 10
234972.9025246843
 20
136247.1521566904
 30
0.0
 11
234972.9025246843
 21
137007.1521566904
 31
0.0
  0
INSERT
  5
3FA
330
2D1
100
AcDbEntity
  8
0
 62
     1
370
    -2
100
AcDbBlockReference
  2
B-DIM
 10
234972.9025246843
 20
136217.1521566904
 30
0.0
 41
30.0
 42
30.0
 43
30.0
 50
270.0
  0
INSERT
  5
3FB
330
2D1
100
AcDbEntity
  8
0
 62
     1
370
    -2
100
AcDbBlockReference
  2
B-DIM
 10
234972.9025246843
 20
137037.1521566904
 30
0.0
 41
30.0
 42
30.0
 43
30.0
 50
90.0
  0
MTEXT
  5
3FC
330
2D1
100
AcDbEntity
  8
0
 62
    10
370
     5
100
AcDbMText
 10
234892.9025246842
 20
136627.1521566904
 30
0.0
 40
80.0
 41
0.0
 71
     5
 72
     1
  1
\A1;820
  7
ROMANS
 11
0.0000000000000001
 21
1.0
 31
0.0
 73
     1
 44
1.0
1001
ACAD
1000
MTEXTBEGIN
1070
    73
1070
     1
1070
    44
1040
1.0
1070
    74
1070
     0
1000
MTEXTEND
  0
POINT
  5
3FD
330
2D1
100
AcDbEntity
  8
DEFPOINTS
 62
     0
100
AcDbPoint
 10
234117.9116305827
 20
136217.1521566904
 30
0.0
  0
POINT
  5
3FE
330
2D1
100
AcDbEntity
  8
DEFPOINTS
 62
     0
100
AcDbPoint
 10
234117.9116305827
 20
137037.1521566904
 30
0.0
  0
POINT
  5
3FF
330
2D1
100
AcDbEntity
  8
DEFPOINTS
 62
     0
100
AcDbPoint
 10
234972.9025246843
 20
137037.1521566904
 30
0.0
  0
ENDBLK
  5
2D3
330
2D1
100
AcDbEntity
  8
0
100
AcDbBlockEnd
  0
BLOCK
  5
2DC
330
2DB
100
AcDbEntity
  8
0
100
AcDbBlockBegin
  2
*D18
 70
     1
 10
0.0
 20
0.0
 30
0.0
  3
*D18
  1

  0
LINE
  5
400
330
2DB
100
AcDbEntity
  8
0
 62
     1
370
    -2
100
AcDbLine
 10
234784.5195720177
 20
136317.1521566904
 30
0.0
 11
234784.5195720177
 21
136347.1521566904
 31
0.0
  0
LINE
  5
401
330
2DB
100
AcDbEntity
  8
0
 62
     1
370
    -2
100
AcDbLine
 10
234784.5195720177
 20
136187.1521566904
 30
0.0
 11
234784.5195720177
 21
136157.1521566904
 31
0.0
  0
LINE
  5
402
330
2DB
100
AcDbEntity
  8
0
 62
     1
370
    -2
100
AcDbLine
 10
234784.5195720177
 20
136287.1521566904
 30
0.0
 11
234784.5195720177
 21
136217.1521566904
 31
0.0
  0
INSERT
  5
403
330
2DB
100
AcDbEntity
  8
0
 62
     1
370
    -2
100
AcDbBlockReference
  2
B-DIM
 10
234784.5195720177
 20
136287.1521566904
 30
0.0
 41
30.0
 42
30.0
 43
30.0
 50
270.0
  0
INSERT
  5
404
330
2DB
100
AcDbEntity
  8
0
 62
     1
370
    -2
100
AcDbBlockReference
  2
B-DIM
 10
234784.5195720177
 20
136217.1521566904
 30
0.0
 41
30.0
 42
30.0
 43
30.0
 50
90.0
  0
MTEXT
  5
405
330
2DB
100
AcDbEntity
  8
0
 62
    10
370
     5
100
AcDbMText
 10
234704.5195720177
 20
136252.1521566904
 30
0.0
 40
80.0
 41
0.0
 71
     5
 72
     1
  1
\A1;70
  7
ROMANS
 11
0.0000000000000001
 21
1.0
 31
0.0
 73
     1
 44
1.0
1001
ACAD
1000
MTEXTBEGIN
1070
    73
1070
     1
1070
    44
1040
1.0
1070
    74
1070
     0
1000
MTEXTEND
  0
POINT
  5
406
330
2DB
100
AcDbEntity
  8
DEFPOINTS
 62
     0
100
AcDbPoint
 10
234477.9116305827
 20
136287.1521566904
 30
0.0
  0
POINT
  5
407
330
2DB
100
AcDbEntity
  8
DEFPOINTS
 62
     0
100
AcDbPoint
 10
234117.9116305827
 20
136217.1521566904
 30
0.0
  0
POINT
  5
408
330
2DB
100
AcDbEntity
  8
DEFPOINTS
 62
     0
100
AcDbPoint
 10
234784.5195720177
 20
136217.1521566904
 30
0.0
  0
ENDBLK
  5
2DD
330
2DB
100
AcDbEntity
  8
0
100
AcDbBlockEnd
  0
BLOCK
  5
2E8
330
2E7
100
AcDbEntity
  8
0
100
AcDbBlockBegin
  2
*D19
 70
     1
 10
0.0
 20
0.0
 30
0.0
  3
*D19
  1

  0
LINE
  5
409
330
2E7
100
AcDbEntity
  8
0
 62
     1
370
    -2
100
AcDbLine
 10
234784.5195720177
 20
136937.1521566904
 30
0.0
 11
234784.5195720177
 21
136317.1521566904
 31
0.0
  0
INSERT
  5
40A
330
2E7
100
AcDbEntity
  8
0
 62
     1
370
    -2
100
AcDbBlockReference
  2
B-DIM
 10
234784.5195720177
 20
136967.1521566904
 30
0.0
 41
30.0
 42
30.0
 43
30.0
 50
90.0
  0
INSERT
  5
40B
330
2E7
100
AcDbEntity
  8
0
 62
     1
370
    -2
100
AcDbBlockReference
  2
B-DIM
 10
234784.5195720177
 20
136287.1521566904
 30
0.0
 41
30.0
 42
30.0
 43
30.0
 50
270.0
  0
MTEXT
  5
40C
330
2E7
100
AcDbEntity
  8
0
 62
    10
370
     5
100
AcDbMText
 10
234704.5195720177
 20
136627.1521566904
 30
0.0
 40
80.0
 41
0.0
 71
     5
 72
     1
  1
\A1;680
  7
ROMANS
 11
0.0000000000000001
 21
1.0
 31
0.0
 73
     1
 44
1.0
1001
ACAD
1000
MTEXTBEGIN
1070
    73
1070
     1
1070
    44
1040
1.0
1070
    74
1070
     0
1000
MTEXTEND
  0
POINT
  5
40D
330
2E7
100
AcDbEntity
  8
DEFPOINTS
 62
     0
100
AcDbPoint
 10
234477.9116305827
 20
136967.1521566904
 30
0.0
  0
POINT
  5
40E
330
2E7
100
AcDbEntity
  8
DEFPOINTS
 62
     0
100
AcDbPoint
 10
234477.9116305827
 20
136287.1521566904
 30
0.0
  0
POINT
  5
40F
330
2E7
100
AcDbEntity
  8
DEFPOINTS
 62
     0
100
AcDbPoint
 10
234784.5195720177
 20
136287.1521566904
 30
0.0
  0
ENDBLK
  5
2E9
330
2E7
100
AcDbEntity
  8
0
100
AcDbBlockEnd
  0
BLOCK
  5
2F2
330
2F1
100
AcDbEntity
  8
0
100
AcDbBlockBegin
  2
*D20
 70
     1
 10
0.0
 20
0.0
 30
0.0
  3
*D20
  1

  0
LINE
  5
410
330
2F1
100
AcDbEntity
  8
0
 62
     1
370
    -2
100
AcDbLine
 10
234784.5195720177
 20
137067.1521566904
 30
0.0
 11
234784.5195720177
 21
137097.1521566904
 31
0.0
  0
LINE
  5
411
330
2F1
100
AcDbEntity
  8
0
 62
     1
370
    -2
100
AcDbLine
 10
234784.5195720177
 20
136937.1521566904
 30
0.0
 11
234784.5195720177
 21
136907.1521566904
 31
0.0
  0
LINE
  5
412
330
2F1
100
AcDbEntity
  8
0
 62
     1
370
    -2
100
AcDbLine
 10
234784.5195720177
 20
137037.1521566904
 30
0.0
 11
234784.5195720177
 21
136967.1521566904
 31
0.0
  0
INSERT
  5
413
330
2F1
100
AcDbEntity
  8
0
 62
     1
370
    -2
100
AcDbBlockReference
  2
B-DIM
 10
234784.5195720177
 20
137037.1521566904
 30
0.0
 41
30.0
 42
30.0
 43
30.0
 50
270.0
  0
INSERT
  5
414
330
2F1
100
AcDbEntity
  8
0
 62
     1
370
    -2
100
AcDbBlockReference
  2
B-DIM
 10
234784.5195720177
 20
136967.1521566904
 30
0.0
 41
30.0
 42
30.0
 43
30.0
 50
90.0
  0
MTEXT
  5
415
330
2F1
100
AcDbEntity
  8
0
 62
    10
370
     5
100
AcDbMText
 10
234704.5195720177
 20
137002.1521566904
 30
0.0
 40
80.0
 41
0.0
 71
     5
 72
     1
  1
\A1;70
  7
ROMANS
 11
0.0000000000000001
 21
1.0
 31
0.0
 73
     1
 44
1.0
1001
ACAD
1000
MTEXTBEGIN
1070
    73
1070
     1
1070
    44
1040
1.0
1070
    74
1070
     0
1000
MTEXTEND
  0
POINT
  5
416
330
2F1
100
AcDbEntity
  8
DEFPOINTS
 62
     0
100
AcDbPoint
 10
234117.9116305827
 20
137037.1521566904
 30
0.0
  0
POINT
  5
417
330
2F1
100
AcDbEntity
  8
DEFPOINTS
 62
     0
100
AcDbPoint
 10
234477.9116305827
 20
136967.1521566904
 30
0.0
  0
POINT
  5
418
330
2F1
100
AcDbEntity
  8
DEFPOINTS
 62
     0
100
AcDbPoint
 10
234784.5195720177
 20
136967.1521566904
 30
0.0
  0
ENDBLK
  5
2F3
330
2F1
100
AcDbEntity
  8
0
100
AcDbBlockEnd
  0
BLOCK
  5
2FE
330
2FD
100
AcDbEntity
  8
0
100
AcDbBlockBegin
  2
*D21
 70
     1
 10
0.0
 20
0.0
 30
0.0
  3
*D21
  1

  0
LINE
  5
419
330
2FD
100
AcDbEntity
  8
0
 62
     1
370
    -2
100
AcDbLine
 10
234447.9116305827
 20
137614.3405796827
 30
0.0
 11
233347.9116305827
 21
137614.3405796827
 31
0.0
  0
INSERT
  5
41A
330
2FD
100
AcDbEntity
  8
0
 62
     1
370
    -2
100
AcDbBlockReference
  2
B-DIM
 10
234477.9116305827
 20
137614.3405796827
 30
0.0
 41
30.0
 42
30.0
 43
30.0
  0
INSERT
  5
41B
330
2FD
100
AcDbEntity
  8
0
 62
     1
370
    -2
100
AcDbBlockReference
  2
B-DIM
 10
233317.9116305827
 20
137614.3405796827
 30
0.0
 41
30.0
 42
30.0
 43
30.0
 50
180.0
  0
MTEXT
  5
41C
330
2FD
100
AcDbEntity
  8
0
 62
    10
370
     5
100
AcDbMText
 10
233897.9116305827
 20
137694.3405796827
 30
0.0
 40
80.0
 41
0.0
 71
     5
 72
     1
  1
\A1;1160
  7
ROMANS
 73
     1
 44
1.0
1001
ACAD
1000
MTEXTBEGIN
1070
    73
1070
     1
1070
    44
1040
1.0
1070
    74
1070
     0
1000
MTEXTEND
  0
POINT
  5
41D
330
2FD
100
AcDbEntity
  8
DEFPOINTS
 62
     0
100
AcDbPoint
 10
234477.9116305827
 20
136967.1521566904
 30
0.0
  0
POINT
  5
41E
330
2FD
100
AcDbEntity
  8
DEFPOINTS
 62
     0
100
AcDbPoint
 10
233317.9116305827
 20
136822.1521566904
 30
0.0
  0
POINT
  5
41F
330
2FD
100
AcDbEntity
  8
DEFPOINTS
 62
     0
100
AcDbPoint
 10
233317.9116305827
 20
137614.3405796827
 30
0.0
  0
ENDBLK
  5
2FF
330
2FD
100
AcDbEntity
  8
0
100
AcDbBlockEnd
  0
BLOCK
  5
308
330
307
100
AcDbEntity
  8
0
100
AcDbBlockBegin
  2
*D22
 70
     1
 10
0.0
 20
0.0
 30
0.0
  3
*D22
  1

  0
LINE
  5
420
330
307
100
AcDbEntity
  8
0
 62
     1
370
    -2
100
AcDbLine
 10
233447.9116305827
 20
137425.9576270162
 30
0.0
 11
233477.9116305827
 21
137425.9576270162
 31
0.0
  0
LINE
  5
421
330
307
100
AcDbEntity
  8
0
 62
     1
370
    -2
100
AcDbLine
 10
233287.9116305827
 20
137425.9576270162
 30
0.0
 11
233257.9116305827
 21
137425.9576270162
 31
0.0
  0
LINE
  5
422
330
307
100
AcDbEntity
  8
0
 62
     1
370
    -2
100
AcDbLine
 10
233417.9116305827
 20
137425.9576270162
 30
0.0
 11
233317.9116305827
 21
137425.9576270162
 31
0.0
  0
INSERT
  5
423
330
307
100
AcDbEntity
  8
0
 62
     1
370
    -2
100
AcDbBlockReference
  2
B-DIM
 10
233417.9116305827
 20
137425.9576270162
 30
0.0
 41
30.0
 42
30.0
 43
30.0
 50
180.0
  0
INSERT
  5
424
330
307
100
AcDbEntity
  8
0
 62
     1
370
    -2
100
AcDbBlockReference
  2
B-DIM
 10
233317.9116305827
 20
137425.9576270162
 30
0.0
 41
30.0
 42
30.0
 43
30.0
  0
MTEXT
  5
425
330
307
100
AcDbEntity
  8
0
 62
    10
370
     5
100
AcDbMText
 10
233367.9116305827
 20
137505.9576270162
 30
0.0
 40
80.0
 41
0.0
 71
     5
 72
     1
  1
\A1;100
  7
ROMANS
 73
     1
 44
1.0
1001
ACAD
1000
MTEXTBEGIN
1070
    73
1070
     1
1070
    44
1040
1.0
1070
    74
1070
     0
1000
MTEXTEND
  0
POINT
  5
426
330
307
100
AcDbEntity
  8
DEFPOINTS
 62
     0
100
AcDbPoint
 10
233417.9116305827
 20
137037.1521566904
 30
0.0
  0
POINT
  5
427
330
307
100
AcDbEntity
  8
DEFPOINTS
 62
     0
100
AcDbPoint
 10
233317.9116305827
 20
136822.1521566904
 30
0.0
  0
POINT
  5
428
330
307
100
AcDbEntity
  8
DEFPOINTS
 62
     0
100
AcDbPoint
 10
233317.9116305827
 20
137425.9576270162
 30
0.0
  0
ENDBLK
  5
309
330
307
100
AcDbEntity
  8
0
100
AcDbBlockEnd
  0
BLOCK
  5
314
330
313
100
AcDbEntity
  8
0
100
AcDbBlockBegin
  2
*D23
 70
     1
 10
0.0
 20
0.0
 30
0.0
  3
*D23
  1

  0
LINE
  5
429
330
313
100
AcDbEntity
  8
0
 62
     1
370
    -2
100
AcDbLine
 10
234087.9116305827
 20
137425.9576270162
 30
0.0
 11
233447.9116305827
 21
137425.9576270162
 31
0.0
  0
INSERT
  5
42A
330
313
100
AcDbEntity
  8
0
 62
     1
370
    -2
100
AcDbBlockReference
  2
B-DIM
 10
234117.9116305827
 20
137425.9576270162
 30
0.0
 41
30.0
 42
30.0
 43
30.0
  0
INSERT
  5
42B
330
313
100
AcDbEntity
  8
0
 62
     1
370
    -2
100
AcDbBlockReference
  2
B-DIM
 10
233417.9116305827
 20
137425.9576270162
 30
0.0
 41
30.0
 42
30.0
 43
30.0
 50
180.0
  0
MTEXT
  5
42C
330
313
100
AcDbEntity
  8
0
 62
    10
370
     5
100
AcDbMText
 10
233767.9116305827
 20
137505.9576270162
 30
0.0
 40
80.0
 41
0.0
 71
     5
 72
     1
  1
\A1;700
  7
ROMANS
 73
     1
 44
1.0
1001
ACAD
1000
MTEXTBEGIN
1070
    73
1070
     1
1070
    44
1040
1.0
1070
    74
1070
     0
1000
MTEXTEND
  0
POINT
  5
42D
330
313
100
AcDbEntity
  8
DEFPOINTS
 62
     0
100
AcDbPoint
 10
234117.9116305827
 20
137037.1521566904
 30
0.0
  0
POINT
  5
42E
330
313
100
AcDbEntity
  8
DEFPOINTS
 62
     0
100
AcDbPoint
 10
233417.9116305827
 20
137037.1521566904
 30
0.0
  0
POINT
  5
42F
330
313
100
AcDbEntity
  8
DEFPOINTS
 62
     0
100
AcDbPoint
 10
233417.9116305827
 20
137425.9576270162
 30
0.0
  0
ENDBLK
  5
315
330
313
100
AcDbEntity
  8
0
100
AcDbBlockEnd
  0
BLOCK
  5
31E
330
31D
100
AcDbEntity
  8
0
100
AcDbBlockBegin
  2
*D24
 70
     1
 10
0.0
 20
0.0
 30
0.0
  3
*D24
  1

  0
LINE
  5
430
330
31D
100
AcDbEntity
  8
0
 62
     1
370
    -2
100
AcDbLine
 10
234447.9116305827
 20
137425.9576270162
 30
0.0
 11
234147.9116305827
 21
137425.9576270162
 31
0.0
  0
INSERT
  5
431
330
31D
100
AcDbEntity
  8
0
 62
     1
370
    -2
100
AcDbBlockReference
  2
B-DIM
 10
234477.9116305827
 20
137425.9576270162
 30
0.0
 41
30.0
 42
30.0
 43
30.0
  0
INSERT
  5
432
330
31D
100
AcDbEntity
  8
0
 62
     1
370
    -2
100
AcDbBlockReference
  2
B-DIM
 10
234117.9116305827
 20
137425.9576270162
 30
0.0
 41
30.0
 42
30.0
 43
30.0
 50
180.0
  0
MTEXT
  5
433
330
31D
100
AcDbEntity
  8
0
 62
    10
370
     5
100
AcDbMText
 10
234297.9116305827
 20
137505.9576270162
 30
0.0
 40
80.0
 41
0.0
 71
     5
 72
     1
  1
\A1;360
  7
ROMANS
 73
     1
 44
1.0
1001
ACAD
1000
MTEXTBEGIN
1070
    73
1070
     1
1070
    44
1040
1.0
1070
    74
1070
     0
1000
MTEXTEND
  0
POINT
  5
434
330
31D
100
AcDbEntity
  8
DEFPOINTS
 62
     0
100
AcDbPoint
 10
234477.9116305827
 20
136967.1521566904
 30
0.0
  0
POINT
  5
435
330
31D
100
AcDbEntity
  8
DEFPOINTS
 62
     0
100
AcDbPoint
 10
234117.9116305827
 20
137037.1521566904
 30
0.0
  0
POINT
  5
436
330
31D
100
AcDbEntity
  8
DEFPOINTS
 62
     0
100
AcDbPoint
 10
234117.9116305827
 20
137425.9576270162
 30
0.0
  0
ENDBLK
  5
31F
330
31D
100
AcDbEntity
  8
0
100
AcDbBlockEnd
  0
BLOCK
  5
328
330
327
100
AcDbEntity
  8
0
100
AcDbBlockBegin
  2
*D25
 70
     1
 10
0.0
 20
0.0
 30
0.0
  3
*D25
  1

  0
LINE
  5
437
330
327
100
AcDbEntity
  8
0
 62
     1
370
    -2
100
AcDbLine
 10
228753.6052556549
 20
136247.1521566904
 30
0.0
 11
228753.6052556549
 21
137007.1521566904
 31
0.0
  0
INSERT
  5
438
330
327
100
AcDbEntity
  8
0
 62
     1
370
    -2
100
AcDbBlockReference
  2
B-DIM
 10
228753.6052556549
 20
136217.1521566904
 30
0.0
 41
30.0
 42
30.0
 43
30.0
 50
270.0
  0
INSERT
  5
439
330
327
100
AcDbEntity
  8
0
 62
     1
370
    -2
100
AcDbBlockReference
  2
B-DIM
 10
228753.6052556549
 20
137037.1521566904
 30
0.0
 41
30.0
 42
30.0
 43
30.0
 50
90.0
  0
MTEXT
  5
43A
330
327
100
AcDbEntity
  8
0
 62
    10
370
     5
100
AcDbMText
 10
228673.6052556549
 20
136627.1521566904
 30
0.0
 40
80.0
 41
0.0
 71
     5
 72
     1
  1
\A1;820
  7
ROMANS
 11
0.0000000000000001
 21
1.0
 31
0.0
 73
     1
 44
1.0
1001
ACAD
1000
MTEXTBEGIN
1070
    73
1070
     1
1070
    44
1040
1.0
1070
    74
1070
     0
1000
MTEXTEND
  0
POINT
  5
43B
330
327
100
AcDbEntity
  8
DEFPOINTS
 62
     0
100
AcDbPoint
 10
229413.9800952017
 20
136217.1521566904
 30
0.0
  0
POINT
  5
43C
330
327
100
AcDbEntity
  8
DEFPOINTS
 62
     0
100
AcDbPoint
 10
229413.9800952017
 20
137037.1521566904
 30
0.0
  0
POINT
  5
43D
330
327
100
AcDbEntity
  8
DEFPOINTS
 62
     0
100
AcDbPoint
 10
228753.6052556549
 20
137037.1521566904
 30
0.0
  0
ENDBLK
  5
329
330
327
100
AcDbEntity
  8
0
100
AcDbBlockEnd
  0
BLOCK
  5
332
330
331
100
AcDbEntity
  8
0
100
AcDbBlockBegin
  2
*D26
 70
     1
 10
0.0
 20
0.0
 30
0.0
  3
*D26
  1

  0
LINE
  5
43E
330
331
100
AcDbEntity
  8
0
 62
     1
370
    -2
100
AcDbLine
 10
228941.9882083215
 20
136317.1521566904
 30
0.0
 11
228941.9882083215
 21
136347.1521566904
 31
0.0
  0
LINE
  5
43F
330
331
100
AcDbEntity
  8
0
 62
     1
370
    -2
100
AcDbLine
 10
228941.9882083215
 20
136187.1521566904
 30
0.0
 11
228941.9882083215
 21
136157.1521566904
 31
0.0
  0
LINE
  5
440
330
331
100
AcDbEntity
  8
0
 62
     1
370
    -2
100
AcDbLine
 10
228941.9882083215
 20
136287.1521566904
 30
0.0
 11
228941.9882083215
 21
136217.1521566904
 31
0.0
  0
INSERT
  5
441
330
331
100
AcDbEntity
  8
0
 62
     1
370
    -2
100
AcDbBlockReference
  2
B-DIM
 10
228941.9882083215
 20
136287.1521566904
 30
0.0
 41
30.0
 42
30.0
 43
30.0
 50
270.0
  0
INSERT
  5
442
330
331
100
AcDbEntity
  8
0
 62
     1
370
    -2
100
AcDbBlockReference
  2
B-DIM
 10
228941.9882083215
 20
136217.1521566904
 30
0.0
 41
30.0
 42
30.0
 43
30.0
 50
90.0
  0
MTEXT
  5
443
330
331
100
AcDbEntity
  8
0
 62
    10
370
     5
100
AcDbMText
 10
228861.9882083214
 20
136252.1521566904
 30
0.0
 40
80.0
 41
0.0
 71
     5
 72
     1
  1
\A1;70
  7
ROMANS
 11
0.0000000000000001
 21
1.0
 31
0.0
 73
     1
 44
1.0
1001
ACAD
1000
MTEXTBEGIN
1070
    73
1070
     1
1070
    44
1040
1.0
1070
    74
1070
     0
1000
MTEXTEND
  0
POINT
  5
444
330
331
100
AcDbEntity
  8
DEFPOINTS
 62
     0
100
AcDbPoint
 10
229053.9800952017
 20
136287.1521566904
 30
0.0
  0
POINT
  5
445
330
331
100
AcDbEntity
  8
DEFPOINTS
 62
     0
100
AcDbPoint
 10
229413.9800952017
 20
136217.1521566904
 30
0.0
  0
POINT
  5
446
330
331
100
AcDbEntity
  8
DEFPOINTS
 62
     0
100
AcDbPoint
 10
228941.9882083215
 20
136217.1521566904
 30
0.0
  0
ENDBLK
  5
333
330
331
100
AcDbEntity
  8
0
100
AcDbBlockEnd
  0
BLOCK
  5
33E
330
33D
100
AcDbEntity
  8
0
100
AcDbBlockBegin
  2
*D27
 70
     1
 10
0.0
 20
0.0
 30
0.0
  3
*D27
  1

  0
LINE
  5
447
330
33D
100
AcDbEntity
  8
0
 62
     1
370
    -2
100
AcDbLine
 10
228941.9882083215
 20
136937.1521566904
 30
0.0
 11
228941.9882083215
 21
136317.1521566904
 31
0.0
  0
INSERT
  5
448
330
33D
100
AcDbEntity
  8
0
 62
     1
370
    -2
100
AcDbBlockReference
  2
B-DIM
 10
228941.9882083215
 20
136967.1521566904
 30
0.0
 41
30.0
 42
30.0
 43
30.0
 50
90.0
  0
INSERT
  5
449
330
33D
100
AcDbEntity
  8
0
 62
     1
370
    -2
100
AcDbBlockReference
  2
B-DIM
 10
228941.9882083215
 20
136287.1521566904
 30
0.0
 41
30.0
 42
30.0
 43
30.0
 50
270.0
  0
MTEXT
  5
44A
330
33D
100
AcDbEntity
  8
0
 62
    10
370
     5
100
AcDbMText
 10
228861.9882083214
 20
136627.1521566904
 30
0.0
 40
80.0
 41
0.0
 71
     5
 72
     1
  1
\A1;680
  7
ROMANS
 11
0.0000000000000001
 21
1.0
 31
0.0
 73
     1
 44
1.0
1001
ACAD
1000
MTEXTBEGIN
1070
    73
1070
     1
1070
    44
1040
1.0
1070
    74
1070
     0
1000
MTEXTEND
  0
POINT
  5
44B
330
33D
100
AcDbEntity
  8
DEFPOINTS
 62
     0
100
AcDbPoint
 10
229053.9800952017
 20
136967.1521566904
 30
0.0
  0
POINT
  5
44C
330
33D
100
AcDbEntity
  8
DEFPOINTS
 62
     0
100
AcDbPoint
 10
229053.9800952017
 20
136287.1521566904
 30
0.0
  0
POINT
  5
44D
330
33D
100
AcDbEntity
  8
DEFPOINTS
 62
     0
100
AcDbPoint
 10
228941.9882083215
 20
136287.1521566904
 30
0.0
  0
ENDBLK
  5
33F
330
33D
100
AcDbEntity
  8
0
100
AcDbBlockEnd
  0
BLOCK
  5
348
330
347
100
AcDbEntity
  8
0
100
AcDbBlockBegin
  2
*D28
 70
     1
 10
0.0
 20
0.0
 30
0.0
  3
*D28
  1

  0
LINE
  5
44E
330
347
100
AcDbEntity
  8
0
 62
     1
370
    -2
100
AcDbLine
 10
228941.9882083215
 20
137067.1521566904
 30
0.0
 11
228941.9882083215
 21
137097.1521566904
 31
0.0
  0
LINE
  5
44F
330
347
100
AcDbEntity
  8
0
 62
     1
370
    -2
100
AcDbLine
 10
228941.9882083215
 20
136937.1521566904
 30
0.0
 11
228941.9882083215
 21
136907.1521566904
 31
0.0
  0
LINE
  5
450
330
347
100
AcDbEntity
  8
0
 62
     1
370
    -2
100
AcDbLine
 10
228941.9882083215
 20
137037.1521566904
 30
0.0
 11
228941.9882083215
 21
136967.1521566904
 31
0.0
  0
INSERT
  5
451
330
347
100
AcDbEntity
  8
0
 62
     1
370
    -2
100
AcDbBlockReference
  2
B-DIM
 10
228941.9882083215
 20
137037.1521566904
 30
0.0
 41
30.0
 42
30.0
 43
30.0
 50
270.0
  0
INSERT
  5
452
330
347
100
AcDbEntity
  8
0
 62
     1
370
    -2
100
AcDbBlockReference
  2
B-DIM
 10
228941.9882083215
 20
136967.1521566904
 30
0.0
 41
30.0
 42
30.0
 43
30.0
 50
90.0
  0
MTEXT
  5
453
330
347
100
AcDbEntity
  8
0
 62
    10
370
     5
100
AcDbMText
 10
228861.9882083214
 20
137002.1521566904
 30
0.0
 40
80.0
 41
0.0
 71
     5
 72
     1
  1
\A1;70
  7
ROMANS
 11
0.0000000000000001
 21
1.0
 31
0.0
 73
     1
 44
1.0
1001
ACAD
1000
MTEXTBEGIN
1070
    73
1070
     1
1070
    44
1040
1.0
1070
    74
1070
     0
1000
MTEXTEND
  0
POINT
  5
454
330
347
100
AcDbEntity
  8
DEFPOINTS
 62
     0
100
AcDbPoint
 10
229413.9800952017
 20
137037.1521566904
 30
0.0
  0
POINT
  5
455
330
347
100
AcDbEntity
  8
DEFPOINTS
 62
     0
100
AcDbPoint
 10
229053.9800952017
 20
136967.1521566904
 30
0.0
  0
POINT
  5
456
330
347
100
AcDbEntity
  8
DEFPOINTS
 62
     0
100
AcDbPoint
 10
228941.9882083215
 20
136967.1521566904
 30
0.0
  0
ENDBLK
  5
349
330
347
100
AcDbEntity
  8
0
100
AcDbBlockEnd
  0
BLOCK
  5
354
330
353
100
AcDbEntity
  8
0
100
AcDbBlockBegin
  2
*D29
 70
     1
 10
0.0
 20
0.0
 30
0.0
  3
*D29
  1

  0
LINE
  5
457
330
353
100
AcDbEntity
  8
0
 62
     1
370
    -2
100
AcDbLine
 10
229083.9800952017
 20
137614.3405796827
 30
0.0
 11
230183.9800952017
 21
137614.3405796827
 31
0.0
  0
INSERT
  5
458
330
353
100
AcDbEntity
  8
0
 62
     1
370
    -2
100
AcDbBlockReference
  2
B-DIM
 10
229053.9800952017
 20
137614.3405796827
 30
0.0
 41
30.0
 42
30.0
 43
30.0
 50
180.0
  0
INSERT
  5
459
330
353
100
AcDbEntity
  8
0
 62
     1
370
    -2
100
AcDbBlockReference
  2
B-DIM
 10
230213.9800952017
 20
137614.3405796827
 30
0.0
 41
30.0
 42
30.0
 43
30.0
  0
MTEXT
  5
45A
330
353
100
AcDbEntity
  8
0
 62
    10
370
     5
100
AcDbMText
 10
229633.9800952017
 20
137694.3405796827
 30
0.0
 40
80.0
 41
0.0
 71
     5
 72
     1
  1
\A1;1160
  7
ROMANS
 73
     1
 44
1.0
1001
ACAD
1000
MTEXTBEGIN
1070
    73
1070
     1
1070
    44
1040
1.0
1070
    74
1070
     0
1000
MTEXTEND
  0
POINT
  5
45B
330
353
100
AcDbEntity
  8
DEFPOINTS
 62
     0
100
AcDbPoint
 10
229053.9800952017
 20
136967.1521566904
 30
0.0
  0
POINT
  5
45C
330
353
100
AcDbEntity
  8
DEFPOINTS
 62
     0
100
AcDbPoint
 10
230213.9800952017
 20
136822.1521566904
 30
0.0
  0
POINT
  5
45D
330
353
100
AcDbEntity
  8
DEFPOINTS
 62
     0
100
AcDbPoint
 10
230213.9800952017
 20
137614.3405796827
 30
0.0
  0
ENDBLK
  5
355
330
353
100
AcDbEntity
  8
0
100
AcDbBlockEnd
  0
BLOCK
  5
35E
330
35D
100
AcDbEntity
  8
0
100
AcDbBlockBegin
  2
*D30
 70
     1
 10
0.0
 20
0.0
 30
0.0
  3
*D30
  1

  0
LINE
  5
45E
330
35D
100
AcDbEntity
  8
0
 62
     1
370
    -2
100
AcDbLine
 10
230083.9800952017
 20
137425.9576270162
 30
0.0
 11
230053.9800952017
 21
137425.9576270162
 31
0.0
  0
LINE
  5
45F
330
35D
100
AcDbEntity
  8
0
 62
     1
370
    -2
100
AcDbLine
 10
230243.9800952017
 20
137425.9576270162
 30
0.0
 11
230273.9800952017
 21
137425.9576270162
 31
0.0
  0
LINE
  5
460
330
35D
100
AcDbEntity
  8
0
 62
     1
370
    -2
100
AcDbLine
 10
230113.9800952017
 20
137425.9576270162
 30
0.0
 11
230213.9800952017
 21
137425.9576270162
 31
0.0
  0
INSERT
  5
461
330
35D
100
AcDbEntity
  8
0
 62
     1
370
    -2
100
AcDbBlockReference
  2
B-DIM
 10
230113.9800952017
 20
137425.9576270162
 30
0.0
 41
30.0
 42
30.0
 43
30.0
  0
INSERT
  5
462
330
35D
100
AcDbEntity
  8
0
 62
     1
370
    -2
100
AcDbBlockReference
  2
B-DIM
 10
230213.9800952017
 20
137425.9576270162
 30
0.0
 41
30.0
 42
30.0
 43
30.0
 50
180.0
  0
MTEXT
  5
463
330
35D
100
AcDbEntity
  8
0
 62
    10
370
     5
100
AcDbMText
 10
230163.9800952017
 20
137505.9576270162
 30
0.0
 40
80.0
 41
0.0
 71
     5
 72
     1
  1
\A1;100
  7
ROMANS
 73
     1
 44
1.0
1001
ACAD
1000
MTEXTBEGIN
1070
    73
1070
     1
1070
    44
1040
1.0
1070
    74
1070
     0
1000
MTEXTEND
  0
POINT
  5
464
330
35D
100
AcDbEntity
  8
DEFPOINTS
 62
     0
100
AcDbPoint
 10
230113.9800952017
 20
137037.1521566904
 30
0.0
  0
POINT
  5
465
330
35D
100
AcDbEntity
  8
DEFPOINTS
 62
     0
100
AcDbPoint
 10
230213.9800952017
 20
136822.1521566904
 30
0.0
  0
POINT
  5
466
330
35D
100
AcDbEntity
  8
DEFPOINTS
 62
     0
100
AcDbPoint
 10
230213.9800952017
 20
137425.9576270162
 30
0.0
  0
ENDBLK
  5
35F
330
35D
100
AcDbEntity
  8
0
100
AcDbBlockEnd
  0
BLOCK
  5
36A
330
369
100
AcDbEntity
  8
0
100
AcDbBlockBegin
  2
*D31
 70
     1
 10
0.0
 20
0.0
 30
0.0
  3
*D31
  1

  0
LINE
  5
467
330
369
100
AcDbEntity
  8
0
 62
     1
370
    -2
100
AcDbLine
 10
229443.9800952017
 20
137425.9576270162
 30
0.0
 11
230083.9800952017
 21
137425.9576270162
 31
0.0
  0
INSERT
  5
468
330
369
100
AcDbEntity
  8
0
 62
     1
370
    -2
100
AcDbBlockReference
  2
B-DIM
 10
229413.9800952017
 20
137425.9576270162
 30
0.0
 41
30.0
 42
30.0
 43
30.0
 50
180.0
  0
INSERT
  5
469
330
369
100
AcDbEntity
  8
0
 62
     1
370
    -2
100
AcDbBlockReference
  2
B-DIM
 10
230113.9800952017
 20
137425.9576270162
 30
0.0
 41
30.0
 42
30.0
 43
30.0
  0
MTEXT
  5
46A
330
369
100
AcDbEntity
  8
0
 62
    10
370
     5
100
AcDbMText
 10
229763.9800952017
 20
137505.9576270162
 30
0.0
 40
80.0
 41
0.0
 71
     5
 72
     1
  1
\A1;700
  7
ROMANS
 73
     1
 44
1.0
1001
ACAD
1000
MTEXTBEGIN
1070
    73
1070
     1
1070
    44
1040
1.0
1070
    74
1070
     0
1000
MTEXTEND
  0
POINT
  5
46B
330
369
100
AcDbEntity
  8
DEFPOINTS
 62
     0
100
AcDbPoint
 10
229413.9800952017
 20
137037.1521566904
 30
0.0
  0
POINT
  5
46C
330
369
100
AcDbEntity
  8
DEFPOINTS
 62
     0
100
AcDbPoint
 10
230113.9800952017
 20
137037.1521566904
 30
0.0
  0
POINT
  5
46D
330
369
100
AcDbEntity
  8
DEFPOINTS
 62
     0
100
AcDbPoint
 10
230113.9800952017
 20
137425.9576270162
 30
0.0
  0
ENDBLK
  5
36B
330
369
100
AcDbEntity
  8
0
100
AcDbBlockEnd
  0
BLOCK
  5
374
330
373
100
AcDbEntity
  8
0
100
AcDbBlockBegin
  2
*D32
 70
     1
 10
0.0
 20
0.0
 30
0.0
  3
*D32
  1

  0
LINE
  5
46E
330
373
100
AcDbEntity
  8
0
 62
     1
370
    -2
100
AcDbLine
 10
229083.9800952017
 20
137425.9576270162
 30
0.0
 11
229383.9800952017
 21
137425.9576270162
 31
0.0
  0
INSERT
  5
46F
330
373
100
AcDbEntity
  8
0
 62
     1
370
    -2
100
AcDbBlockReference
  2
B-DIM
 10
229053.9800952017
 20
137425.9576270162
 30
0.0
 41
30.0
 42
30.0
 43
30.0
 50
180.0
  0
INSERT
  5
470
330
373
100
AcDbEntity
  8
0
 62
     1
370
    -2
100
AcDbBlockReference
  2
B-DIM
 10
229413.9800952017
 20
137425.9576270162
 30
0.0
 41
30.0
 42
30.0
 43
30.0
  0
MTEXT
  5
471
330
373
100
AcDbEntity
  8
0
 62
    10
370
     5
100
AcDbMText
 10
229233.9800952017
 20
137505.9576270162
 30
0.0
 40
80.0
 41
0.0
 71
     5
 72
     1
  1
\A1;360
  7
ROMANS
 73
     1
 44
1.0
1001
ACAD
1000
MTEXTBEGIN
1070
    73
1070
     1
1070
    44
1040
1.0
1070
    74
1070
     0
1000
MTEXTEND
  0
POINT
  5
472
330
373
100
AcDbEntity
  8
DEFPOINTS
 62
     0
100
AcDbPoint
 10
229053.9800952017
 20
136967.1521566904
 30
0.0
  0
POINT
  5
473
330
373
100
AcDbEntity
  8
DEFPOINTS
 62
     0
100
AcDbPoint
 10
229413.9800952017
 20
137037.1521566904
 30
0.0
  0
POINT
  5
474
330
373
100
AcDbEntity
  8
DEFPOINTS
 62
     0
100
AcDbPoint
 10
229413.9800952017
 20
137425.9576270162
 30
0.0
  0
ENDBLK
  5
375
330
373
100
AcDbEntity
  8
0
100
AcDbBlockEnd
  0
ENDSEC
  0
SECTION
  2
ENTITIES
  0
TEXT
  5
53
330
2
100
AcDbEntity
  8
NAPISY
370
     5
100
AcDbText
 10
228012.6086192895
 20
128323.0717886572
 30
0.0
 40
100.0
  1
   O B R Y S   B U D Y N K U           S K A L A   1 : 5 0 0 
  7
AVA
100
AcDbText
  0
LINE
  5
56
330
2
100
AcDbEntity
  8
NAPISY
  6
HIDDEN
 62
     1
 48
0.1
370
     5
100
AcDbLine
 10
231765.9458628922
 20
132297.6012553763
 30
0.0
 11
231765.9458628922
 21
138473.1198157809
 31
0.0
  0
TEXT
  5
58
330
2
100
AcDbEntity
  8
NAPISY
370
     5
100
AcDbText
 10
231706.4246858989
 20
132512.3704586351
 30
0.0
 40
100.0
  1
OŚ ODBICIA LUSTRZANEGO
 50
90.0
  7
AVA
100
AcDbText
  0
TEXT
  5
5A
330
2
100
AcDbEntity
  8
NAPISY
370
     5
100
AcDbText
 10
228108.8216704074
 20
140786.437049539
 30
0.0
 40
150.0
  1
MOŻNA WKLEIĆ DO PROJEKTU ZAGOSPODAROWANIA TERENU
  7
AVA
100
AcDbText
  0
TEXT
  5
5B
330
2
100
AcDbEntity
  8
NAPISY
370
     5
100
AcDbText
 10
228032.4863997722
 20
141116.3055269018
 30
0.0
 40
150.0
  1
"DOM  W  WINOGRONACH 4"
  7
AVA
100
AcDbText
  0
LWPOLYLINE
  5
5C
330
2
100
AcDbEntity
  8
RAMKI-A4
370
     5
100
AcDbPolyline
 90
        4
 70
     1
 43
0.0
 10
226553.2566726145
 20
127657.5157057546
 10
226553.2566726145
 20
141677.5157057546
 10
236753.2566726145
 20
141677.5157057546
 10
236753.2566726145
 20
127657.5157057546
  0
LINE
  5
5E
330
2
100
AcDbEntity
  8
0
  6
Continuous
370
     5
100
AcDbLine
 10
229708.9800952017
 20
136231.6521566904
 30
0.0
 11
229708.9800952017
 21
136241.6521566904
 31
0.0
  0
LINE
  5
61
330
2
100
AcDbEntity
  8
0
  6
Continuous
370
     5
100
AcDbLine
 10
229818.9800952017
 20
136231.6521566904
 30
0.0
 11
229818.9800952017
 21
136241.6521566904
 31
0.0
  0
LINE
  5
62
330
2
100
AcDbEntity
  8
0
  6
Continuous
370
     5
100
AcDbLine
 10
229372.9800952017
 20
136312.6521566904
 30
0.0
 11
229372.9800952017
 21
136300.6521566904
 31
0.0
  0
LINE
  5
63
330
2
100
AcDbEntity
  8
0
  6
Continuous
370
     5
100
AcDbLine
 10
229122.9800952018
 20
136312.6521566904
 30
0.0
 11
229122.9800952018
 21
136300.6521566904
 31
0.0
  0
LINE
  5
64
330
2
100
AcDbEntity
  8
0
  6
Continuous
370
     5
100
AcDbLine
 10
229297.9828577013
 20
136952.6521566904
 30
0.0
 11
229297.9828577013
 21
136942.6521566904
 31
0.0
  0
LINE
  5
65
330
2
100
AcDbEntity
  8
0
  6
Continuous
370
     5
100
AcDbLine
 10
229197.9828577014
 20
136952.6521566904
 30
0.0
 11
229197.9828577014
 21
136942.6521566904
 31
0.0
  0
HATCH
  5
66
330
2
100
AcDbEntity
  8
0
 48
4.0
370
     5
100
AcDbHatch
 10
0.0
 20
0.0
 30
0.0
210
0.0
220
0.0
230
1.0
  2
SOLID
 70
     1
 71
     0
 91
        1
 92
        1
 93
        8
 72
     1
 10
229297.9828577013
 20
136928.1521566904
 11
229452.9800952017
 21
136928.1521566904
 72
     1
 10
229452.9800952017
 20
136928.1521566904
 11
229452.9800952017
 21
136998.1521566904
 72
     1
 10
229452.9800952017
 20
136998.1521566904
 11
229613.9800952017
 21
136998.1521566904
 72
     1
 10
229613.9800952017
 20
136998.1521566904
 11
229613.9800952017
 21
137037.1521566904
 72
     1
 10
229613.9800952017
 20
137037.1521566904
 11
229413.9800952017
 21
137037.1521566904
 72
     1
 10
229413.9800952017
 20
137037.1521566904
 11
229413.9800952017
 21
136967.1521566904
 72
     1
 10
229413.9800952017
 20
136967.1521566904
 11
229297.9828577013
 21
136967.1521566904
 72
     1
 10
229297.9828577013
 20
136967.1521566904
 11
229297.9828577013
 21
136928.1521566904
 97
        0
 75
     0
 76
     1
 98
        1
 10
229415.8922594029
 20
136948.4881833472
1001
ACAD
1010
0.0
1020
0.0
1030
0.0
  0
HATCH
  5
68
330
2
100
AcDbEntity
  8
0
 48
4.0
370
     5
100
AcDbHatch
 10
0.0
 20
0.0
 30
0.0
210
0.0
220
0.0
230
1.0
  2
SOLID
 70
     1
 71
     0
 91
        1
 92
        7
 72
     0
 73
     1
 93
        6
 10
230113.9800952017
 20
136382.1521566904
 10
230074.9800952017
 20
136382.1521566904
 10
230074.9800952017
 20
136256.1521566904
 10
230014.9800952017
 20
136256.1521566904
 10
230014.9800952017
 20
136217.1521566904
 10
230113.9800952018
 20
136217.1521566904
 97
        0
 75
     0
 76
     1
 47
0.9043756111459192
 98
        1
 10
230085.5938852723
 20
136263.6187219869
1001
ACAD
1010
0.0
1020
0.0
1030
0.0
  0
LINE
  5
69
330
2
100
AcDbEntity
  8
0
  6
Continuous
370
     5
100
AcDbLine
 10
230074.9800952017
 20
136256.1521566904
 30
0.0
 11
230014.9800952017
 21
136256.1521566904
 31
0.0
  0
HATCH
  5
6A
330
2
100
AcDbEntity
  8
0
370
     5
100
AcDbHatch
 10
0.0
 20
0.0
 30
0.0
210
0.0
220
0.0
230
1.0
  2
SOLID
 70
     1
 71
     1
 91
        1
 92
        7
 72
     0
 73
     1
 93
        4
 10
229924.9800952017
 20
136256.1521566904
 10
229924.9800952018
 20
136217.1521566904
 10
230014.9800952017
 20
136217.1521566904
 10
230014.9800952017
 20
136256.1521566904
 97
        4
330
FD
330
73
330
FE
330
6C
 75
     0
 76
     1
 47
0.2761535321471447
 98
        1
 10
229951.1539593804
 20
136239.5639810922
1001
ACAD
1010
0.0
1020
0.0
1030
0.0
  0
LINE
  5
6C
102
{ACAD_REACTORS
330
6A
102
}
330
2
100
AcDbEntity
  8
0
  6
Continuous
370
     5
100
AcDbLine
 10
230014.9800952017
 20
136256.1521566904
 30
0.0
 11
230014.9800952017
 21
136217.1521566904
 31
0.0
  0
LINE
  5
6D
330
2
100
AcDbEntity
  8
0
  6
Continuous
370
     5
100
AcDbLine
 10
230014.9800952017
 20
136217.1521566904
 30
0.0
 11
230113.9800952018
 21
136217.1521566904
 31
0.0
  0
HATCH
  5
6E
330
2
100
AcDbEntity
  8
0
370
     5
100
AcDbHatch
 10
0.0
 20
0.0
 30
0.0
210
0.0
220
0.0
230
1.0
  2
SOLID
 70
     1
 71
     1
 91
        1
 92
        7
 72
     0
 73
     1
 93
        5
 10
229924.9800952017
 20
136217.1521566904
 10
229924.9800952018
 20
136256.1521566904
 10
229836.9800952018
 20
136256.1521566904
 10
229818.9800952017
 20
136256.1521566904
 10
229818.9800952017
 20
136217.1521566904
 97
        5
330
6F
330
70
330
71
330
72
330
73
 75
     0
 76
     1
 47
0.4451578992671792
 98
        1
 10
229861.6166089788
 20
136234.8958894312
1001
ACAD
1010
0.0
1020
0.0
1030
0.0
  0
LINE
  5
6F
102
{ACAD_REACTORS
330
6E
102
}
330
2
100
AcDbEntity
  8
0
  6
Continuous
370
     5
100
AcDbLine
 10
229924.9800952017
 20
136256.1521566904
 30
0.0
 11
229836.9800952018
 21
136256.1521566904
 31
0.0
  0
LINE
  5
70
102
{ACAD_REACTORS
330
6E
102
}
330
2
100
AcDbEntity
  8
0
  6
Continuous
370
     5
100
AcDbLine
 10
229836.9800952018
 20
136256.1521566904
 30
0.0
 11
229818.9800952017
 21
136256.1521566904
 31
0.0
  0
LINE
  5
71
102
{ACAD_REACTORS
330
6E
102
}
330
2
100
AcDbEntity
  8
0
  6
Continuous
370
     5
100
AcDbLine
 10
229818.9800952017
 20
136256.1521566904
 30
0.0
 11
229818.9800952017
 21
136217.1521566904
 31
0.0
  0
LINE
  5
72
102
{ACAD_REACTORS
330
6E
102
}
330
2
100
AcDbEntity
  8
0
  6
Continuous
370
     5
100
AcDbLine
 10
229818.9800952017
 20
136217.1521566904
 30
0.0
 11
229924.9800952017
 21
136217.1521566904
 31
0.0
  0
LINE
  5
73
102
{ACAD_REACTORS
330
6E
330
6A
102
}
330
2
100
AcDbEntity
  8
0
  6
Continuous
370
     5
100
AcDbLine
 10
229924.9800952017
 20
136217.1521566904
 30
0.0
 11
229924.9800952017
 21
136256.1521566904
 31
0.0
  0
LINE
  5
74
330
2
100
AcDbEntity
  8
0
  6
Continuous
370
     5
100
AcDbLine
 10
229708.9800952017
 20
136256.1521566904
 30
0.0
 11
229668.9800952017
 21
136256.1521566904
 31
0.0
  0
HATCH
  5
75
330
2
100
AcDbEntity
  8
0
370
     5
100
AcDbHatch
 10
0.0
 20
0.0
 30
0.0
210
0.0
220
0.0
230
1.0
  2
SOLID
 70
     1
 71
     1
 91
        1
 92
        7
 72
     0
 73
     1
 93
        8
 10
229372.9800952017
 20
136326.1521566904
 10
229372.9800952017
 20
136287.1521566904
 10
229413.9800952017
 20
136287.1521566904
 10
229413.9800952017
 20
136217.1521566904
 10
229512.9800952017
 20
136217.1521566904
 10
229512.9800952017
 20
136256.1521566904
 10
229452.9800952017
 20
136256.1521566904
 10
229452.9800952017
 20
136326.1521566904
 97
        8
330
A6
330
A7
330
A8
330
C9
330
7D
330
7E
330
7C
330
82
 75
     0
 76
     1
 47
1.468666056090918
 98
        1
 10
229432.4851814049
 20
136309.6338959343
1001
ACAD
1010
0.0
1020
0.0
1030
0.0
  0
HATCH
  5
76
330
2
100
AcDbEntity
  8
0
370
     5
100
AcDbHatch
 10
0.0
 20
0.0
 30
0.0
210
0.0
220
0.0
230
1.0
  2
SOLID
 70
     1
 71
     1
 91
        1
 92
        7
 72
     0
 73
     1
 93
        4
 10
229708.9800952017
 20
136256.1521566904
 10
229602.9800952017
 20
136256.1521566904
 10
229602.9800952017
 20
136217.1521566904
 10
229708.9800952017
 20
136217.1521566904
 97
        4
330
78
330
79
330
7A
330
7B
 75
     0
 76
     1
 47
1.468666056090918
 98
        1
 10
229641.185350411
 20
136242.0752613108
1001
ACAD
1010
0.0
1020
0.0
1030
0.0
  0
HATCH
  5
77
330
2
100
AcDbEntity
  8
0
370
     5
100
AcDbHatch
 10
0.0
 20
0.0
 30
0.0
210
0.0
220
0.0
230
1.0
  2
SOLID
 70
     1
 71
     1
 91
        1
 92
        7
 72
     0
 73
     1
 93
        4
 10
229602.9800952017
 20
136256.1521566904
 10
229512.9800952017
 20
136256.1521566904
 10
229512.9800952017
 20
136217.1521566904
 10
229602.9800952017
 20
136217.1521566904
 97
        4
330
F9
330
7E
330
FA
330
79
 75
     0
 76
     1
 47
1.468666056090918
 98
        1
 10
229567.6994076866
 20
136246.4812634788
1001
ACAD
1010
0.0
1020
0.0
1030
0.0
  0
LINE
  5
78
102
{ACAD_REACTORS
330
76
102
}
330
2
100
AcDbEntity
  8
0
  6
Continuous
370
     5
100
AcDbLine
 10
229708.9800952017
 20
136256.1521566904
 30
0.0
 11
229602.9800952017
 21
136256.1521566904
 31
0.0
  0
LINE
  5
79
102
{ACAD_REACTORS
330
76
330
77
102
}
330
2
100
AcDbEntity
  8
0
  6
Continuous
370
     5
100
AcDbLine
 10
229602.9800952017
 20
136256.1521566904
 30
0.0
 11
229602.9800952017
 21
136217.1521566904
 31
0.0
  0
LINE
  5
7A
102
{ACAD_REACTORS
330
76
102
}
330
2
100
AcDbEntity
  8
0
  6
Continuous
370
     5
100
AcDbLine
 10
229602.9800952017
 20
136217.1521566904
 30
0.0
 11
229708.9800952017
 21
136217.1521566904
 31
0.0
  0
LINE
  5
7B
102
{ACAD_REACTORS
330
76
102
}
330
2
100
AcDbEntity
  8
0
  6
Continuous
370
     5
100
AcDbLine
 10
229708.9800952017
 20
136217.1521566904
 30
0.0
 11
229708.9800952017
 21
136256.1521566904
 31
0.0
  0
LINE
  5
7C
102
{ACAD_REACTORS
330
75
102
}
330
2
100
AcDbEntity
  8
0
  6
Continuous
370
     5
100
AcDbLine
 10
229512.9800952017
 20
136256.1521566904
 30
0.0
 11
229452.9800952017
 21
136256.1521566904
 31
0.0
  0
LINE
  5
7D
102
{ACAD_REACTORS
330
75
102
}
330
2
100
AcDbEntity
  8
0
  6
Continuous
370
     5
100
AcDbLine
 10
229413.9800952017
 20
136217.1521566904
 30
0.0
 11
229512.9800952017
 21
136217.1521566904
 31
0.0
  0
LINE
  5
7E
102
{ACAD_REACTORS
330
75
330
77
102
}
330
2
100
AcDbEntity
  8
0
  6
Continuous
370
     5
100
AcDbLine
 10
229512.9800952017
 20
136217.1521566904
 30
0.0
 11
229512.9800952017
 21
136256.1521566904
 31
0.0
  0
HATCH
  5
7F
330
2
100
AcDbEntity
  8
0
 48
4.0
370
     5
100
AcDbHatch
 10
0.0
 20
0.0
 30
0.0
210
0.0
220
0.0
230
1.0
  2
SOLID
 70
     1
 71
     0
 91
        4
 92
        7
 72
     0
 73
     1
 93
        6
 10
230132.6628153653
 20
136600.8348768539
 10
230105.085650899
 20
136628.4120413202
 10
230074.9800952017
 20
136598.3064856229
 10
230074.9800952017
 20
136502.1521566904
 10
230113.9800952017
 20
136502.1521566904
 10
230113.9800952018
 20
136582.1521566904
 97
        0
 92
        7
 72
     0
 73
     1
 93
        6
 10
230213.9800952017
 20
136707.1521566904
 10
230174.9800952018
 20
136707.1521566904
 10
230174.9800952018
 20
136698.3064856229
 10
230168.7252612058
 20
136692.051651627
 10
230196.3024256721
 20
136664.4744871607
 10
230213.9800952017
 20
136682.1521566904
 97
        0
 92
        7
 72
     0
 73
     1
 93
        6
 10
230213.9800952017
 20
136822.1521566904
 10
230196.3024256721
 20
136839.82982622
 10
230168.7252612058
 20
136812.2526617538
 10
230174.9800952018
 20
136805.9978277578
 10
230174.9800952018
 20
136797.1521566904
 10
230213.9800952017
 20
136797.1521566904
 97
        0
 92
        7
 72
     0
 73
     1
 93
        8
 10
230113.9800952017
 20
137037.1521566904
 10
229913.9800952017
 20
137037.1521566904
 10
229913.9800952017
 20
136998.1521566904
 10
230074.9800952017
 20
136998.1521566904
 10
230074.9800952017
 20
136905.9978277578
 10
230105.085650899
 20
136875.8922720606
 10
230132.6628153653
 20
136903.4694365268
 10
230113.9800952018
 20
136922.1521566904
 97
        0
 75
     0
 76
     1
 47
1.280491492987919
 98
        4
 10
230101.5401355753
 20
136593.1379483825
 10
230189.953249132
 20
136689.1748133552
 10
230188.6719078523
 20
136815.9434715571
 10
230093.8519936876
 20
136935.0292037152
1001
ACAD
1010
0.0
1020
0.0
1030
0.0
  0
LINE
  5
80
330
2
100
AcDbEntity
  8
0
  6
Continuous
370
     5
100
AcDbLine
 10
230074.9800952017
 20
136998.1521566904
 30
0.0
 11
230074.9800952017
 21
136905.9978277578
 31
0.0
  0
LINE
  5
81
330
2
100
AcDbEntity
  8
0
  6
Continuous
370
     5
100
AcDbLine
 10
230113.9800952018
 20
136922.1521566904
 30
0.0
 11
230113.9800952017
 21
137037.1521566904
 31
0.0
  0
LINE
  5
82
102
{ACAD_REACTORS
330
75
102
}
330
2
100
AcDbEntity
  8
0
  6
Continuous
370
     5
100
AcDbLine
 10
229452.9800952017
 20
136256.1521566904
 30
0.0
 11
229452.9800952017
 21
136326.1521566904
 31
0.0
  0
LINE
  5
83
330
2
100
AcDbEntity
  8
0
  6
Continuous
370
     5
100
AcDbLine
 10
229413.9800952017
 20
136287.1521566904
 30
0.0
 11
229413.9800952017
 21
136217.1521566904
 31
0.0
  0
LINE
  5
84
330
2
100
AcDbEntity
  8
0
  6
Continuous
370
     5
100
AcDbLine
 10
229452.9800952017
 20
136998.1521566904
 30
0.0
 11
229613.9800952017
 21
136998.1521566904
 31
0.0
  0
LINE
  5
85
102
{ACAD_REACTORS
330
2B6
102
}
330
2
100
AcDbEntity
  8
0
  6
Continuous
370
     5
100
AcDbLine
 10
229613.9800952017
 20
136998.1521566904
 30
0.0
 11
229613.9800952017
 21
137037.1521566904
 31
0.0
  0
LINE
  5
86
330
2
100
AcDbEntity
  8
0
  6
Continuous
370
     5
100
AcDbLine
 10
229613.9800952017
 20
137037.1521566904
 30
0.0
 11
229413.9800952017
 21
137037.1521566904
 31
0.0
  0
LINE
  5
87
330
2
100
AcDbEntity
  8
0
  6
Continuous
370
     5
100
AcDbLine
 10
229913.9800952017
 20
136998.1521566904
 30
0.0
 11
230074.9800952017
 21
136998.1521566904
 31
0.0
  0
LINE
  5
88
330
2
100
AcDbEntity
  8
0
  6
Continuous
370
     5
100
AcDbLine
 10
230113.9800952017
 20
137037.1521566904
 30
0.0
 11
229913.9800952017
 21
137037.1521566904
 31
0.0
  0
LINE
  5
89
102
{ACAD_REACTORS
330
2B6
102
}
330
2
100
AcDbEntity
  8
0
  6
Continuous
370
     5
100
AcDbLine
 10
229913.9800952017
 20
137037.1521566904
 30
0.0
 11
229913.9800952017
 21
136998.1521566904
 31
0.0
  0
LINE
  5
8A
330
2
100
AcDbEntity
  8
0
  6
Continuous
370
     5
100
AcDbLine
 10
230174.9800952018
 20
136805.9978277578
 30
0.0
 11
230174.9800952018
 21
136797.1521566904
 31
0.0
  0
HATCH
  5
8B
330
2
100
AcDbEntity
  8
0
370
     5
100
AcDbHatch
 10
0.0
 20
0.0
 30
0.0
210
0.0
220
0.0
230
1.0
  2
SOLID
 70
     1
 71
     1
 91
        1
 92
        7
 72
     0
 73
     1
 93
        4
 10
230196.3024256721
 20
136839.82982622
 10
230132.6628153653
 20
136903.4694365268
 10
230105.0856508989
 20
136875.8922720605
 10
230168.7252612057
 20
136812.2526617537
 97
        2
330
101
330
9E
 75
     0
 76
     1
 47
1.494985917988874
 98
        1
 10
230171.541173993
 20
136851.0414876827
1001
ACAD
1010
0.0
1020
0.0
1030
0.0
  0
HATCH
  5
8C
330
2
100
AcDbEntity
  8
0
370
     5
100
AcDbHatch
 10
0.0
 20
0.0
 30
0.0
210
0.0
220
0.0
230
1.0
  2
SOLID
 70
     1
 71
     1
 91
        1
 92
        7
 72
     0
 73
     1
 93
        4
 10
230105.085650899
 20
136628.4120413202
 10
230132.6628153653
 20
136600.8348768539
 10
230196.3024256721
 20
136664.4744871608
 10
230168.7252612058
 20
136692.051651627
 97
        2
330
101
330
94
 75
     0
 76
     1
 47
1.494985917988874
 98
        1
 10
230167.0530591507
 20
136667.1582067388
1001
ACAD
1010
0.0
1020
0.0
1030
0.0
  0
HATCH
  5
8D
330
2
100
AcDbEntity
  8
0
370
     5
100
AcDbHatch
 10
0.0
 20
0.0
 30
0.0
210
0.0
220
0.0
230
1.0
  2
SOLID
 70
     1
 71
     1
 91
        1
 92
        7
 72
     0
 73
     1
 93
        4
 10
230213.9800952017
 20
136797.1521566904
 10
230174.9800952018
 20
136797.1521566904
 10
230174.9800952018
 20
136707.1521566904
 10
230213.9800952017
 20
136707.1521566904
 97
        3
330
8E
330
101
330
92
 75
     0
 76
     1
 47
1.494985917988874
 98
        1
 10
230196.974230591
 20
136768.8172338082
1001
ACAD
1010
0.0
1020
0.0
1030
0.0
  0
LINE
  5
8E
102
{ACAD_REACTORS
330
8D
102
}
330
2
100
AcDbEntity
  8
0
  6
Continuous
370
     5
100
AcDbLine
 10
230174.9800952018
 20
136797.1521566904
 30
0.0
 11
230213.9800952017
 21
136797.1521566904
 31
0.0
  0
LINE
  5
8F
330
2
100
AcDbEntity
  8
0
  6
Continuous
370
     5
100
AcDbLine
 10
230213.9800952017
 20
136797.1521566904
 30
0.0
 11
230213.9800952017
 21
136822.1521566904
 31
0.0
  0
LINE
  5
90
330
2
100
AcDbEntity
  8
0
  6
Continuous
370
     5
100
AcDbLine
 10
230174.9800952018
 20
136707.1521566904
 30
0.0
 11
230174.9800952018
 21
136698.3064856229
 31
0.0
  0
LINE
  5
91
330
2
100
AcDbEntity
  8
0
  6
Continuous
370
     5
100
AcDbLine
 10
230213.9800952017
 20
136682.1521566904
 30
0.0
 11
230213.9800952017
 21
136707.1521566904
 31
0.0
  0
LINE
  5
92
102
{ACAD_REACTORS
330
8D
102
}
330
2
100
AcDbEntity
  8
0
  6
Continuous
370
     5
100
AcDbLine
 10
230213.9800952017
 20
136707.1521566904
 30
0.0
 11
230174.9800952018
 21
136707.1521566904
 31
0.0
  0
LINE
  5
93
330
2
100
AcDbEntity
  8
0
  6
Continuous
370
     5
100
AcDbLine
 10
230174.9800952018
 20
136698.3064856229
 30
0.0
 11
230168.7252612058
 21
136692.051651627
 31
0.0
  0
LINE
  5
94
102
{ACAD_REACTORS
330
8C
102
}
330
2
100
AcDbEntity
  8
0
  6
Continuous
370
     5
100
AcDbLine
 10
230168.7252612058
 20
136692.051651627
 30
0.0
 11
230196.3024256721
 21
136664.4744871607
 31
0.0
  0
LINE
  5
95
330
2
100
AcDbEntity
  8
0
  6
Continuous
370
     5
100
AcDbLine
 10
230196.3024256721
 20
136664.4744871607
 30
0.0
 11
230213.9800952017
 21
136682.1521566904
 31
0.0
  0
LINE
  5
96
330
2
100
AcDbEntity
  8
0
  6
Continuous
370
     5
100
AcDbLine
 10
230105.085650899
 20
136628.4120413202
 30
0.0
 11
230074.9800952017
 21
136598.3064856229
 31
0.0
  0
LINE
  5
97
330
2
100
AcDbEntity
  8
0
  6
Continuous
370
     5
100
AcDbLine
 10
230113.9800952017
 20
136582.1521566904
 30
0.0
 11
230132.6628153653
 21
136600.8348768539
 31
0.0
  0
LINE
  5
98
330
2
100
AcDbEntity
  8
0
  6
Continuous
370
     5
100
AcDbLine
 10
230132.6628153653
 20
136600.8348768539
 30
0.0
 11
230105.085650899
 21
136628.4120413202
 31
0.0
  0
LINE
  5
99
330
2
100
AcDbEntity
  8
0
  6
Continuous
370
     5
100
AcDbLine
 10
230074.9800952017
 20
136905.9978277578
 30
0.0
 11
230105.085650899
 21
136875.8922720606
 31
0.0
  0
LINE
  5
9A
330
2
100
AcDbEntity
  8
0
  6
Continuous
370
     5
100
AcDbLine
 10
230105.085650899
 20
136875.8922720606
 30
0.0
 11
230132.6628153653
 21
136903.4694365268
 31
0.0
  0
LINE
  5
9B
330
2
100
AcDbEntity
  8
0
  6
Continuous
370
     5
100
AcDbLine
 10
230132.6628153653
 20
136903.4694365268
 30
0.0
 11
230113.9800952018
 21
136922.1521566904
 31
0.0
  0
LINE
  5
9C
330
2
100
AcDbEntity
  8
0
  6
Continuous
370
     5
100
AcDbLine
 10
230168.7252612058
 20
136812.2526617538
 30
0.0
 11
230174.9800952018
 21
136805.9978277578
 31
0.0
  0
LINE
  5
9D
330
2
100
AcDbEntity
  8
0
  6
Continuous
370
     5
100
AcDbLine
 10
230213.9800952017
 20
136822.1521566904
 30
0.0
 11
230196.3024256721
 21
136839.82982622
 31
0.0
  0
LINE
  5
9E
102
{ACAD_REACTORS
330
8B
102
}
330
2
100
AcDbEntity
  8
0
  6
Continuous
370
     5
100
AcDbLine
 10
230196.3024256721
 20
136839.82982622
 30
0.0
 11
230168.7252612058
 21
136812.2526617538
 31
0.0
  0
LINE
  5
9F
330
2
100
AcDbEntity
  8
0
  6
Continuous
370
     5
100
AcDbLine
 10
230074.9800952017
 20
136598.3064856229
 30
0.0
 11
230074.9800952017
 21
136502.1521566904
 31
0.0
  0
HATCH
  5
A0
330
2
100
AcDbEntity
  8
0
370
     5
100
AcDbHatch
 10
0.0
 20
0.0
 30
0.0
210
0.0
220
0.0
230
1.0
  2
SOLID
 70
     1
 71
     1
 91
        1
 92
        7
 72
     0
 73
     1
 93
        4
 10
230113.9800952017
 20
136502.1521566904
 10
230074.9800952017
 20
136502.1521566904
 10
230074.9800952017
 20
136382.1521566904
 10
230113.9800952017
 20
136382.1521566904
 97
        4
330
A1
330
FF
330
A5
330
100
 75
     0
 76
     1
 47
1.569704254784129
 98
        1
 10
230085.4446949267
 20
136444.1980319817
1001
ACAD
1010
0.0
1020
0.0
1030
0.0
  0
LINE
  5
A1
102
{ACAD_REACTORS
330
A0
102
}
330
2
100
AcDbEntity
  8
0
  6
Continuous
370
     5
100
AcDbLine
 10
230074.9800952017
 20
136502.1521566904
 30
0.0
 11
230113.9800952017
 21
136502.1521566904
 31
0.0
  0
LINE
  5
A2
330
2
100
AcDbEntity
  8
0
  6
Continuous
370
     5
100
AcDbLine
 10
230113.9800952017
 20
136502.1521566904
 30
0.0
 11
230113.9800952017
 21
136582.1521566904
 31
0.0
  0
LINE
  5
A3
330
2
100
AcDbEntity
  8
0
  6
Continuous
370
     5
100
AcDbLine
 10
230074.9800952017
 20
136382.1521566904
 30
0.0
 11
230074.9800952017
 21
136256.1521566904
 31
0.0
  0
LINE
  5
A4
330
2
100
AcDbEntity
  8
0
  6
Continuous
370
     5
100
AcDbLine
 10
230113.9800952018
 20
136217.1521566904
 30
0.0
 11
230113.9800952017
 21
136382.1521566904
 31
0.0
  0
LINE
  5
A5
102
{ACAD_REACTORS
330
A0
102
}
330
2
100
AcDbEntity
  8
0
  6
Continuous
370
     5
100
AcDbLine
 10
230113.9800952017
 20
136382.1521566904
 30
0.0
 11
230074.9800952017
 21
136382.1521566904
 31
0.0
  0
LINE
  5
A6
102
{ACAD_REACTORS
330
75
102
}
330
2
100
AcDbEntity
  8
0
  6
Continuous
370
     5
100
AcDbLine
 10
229452.9800952017
 20
136326.1521566904
 30
0.0
 11
229372.9800952017
 21
136326.1521566904
 31
0.0
  0
LINE
  5
A7
102
{ACAD_REACTORS
330
75
102
}
330
2
100
AcDbEntity
  8
0
  6
Continuous
370
     5
100
AcDbLine
 10
229372.9800952017
 20
136326.1521566904
 30
0.0
 11
229372.9800952017
 21
136287.1521566904
 31
0.0
  0
LINE
  5
A8
102
{ACAD_REACTORS
330
75
102
}
330
2
100
AcDbEntity
  8
0
  6
Continuous
370
     5
100
AcDbLine
 10
229372.9800952017
 20
136287.1521566904
 30
0.0
 11
229413.9800952017
 21
136287.1521566904
 31
0.0
  0
HATCH
  5
A9
330
2
100
AcDbEntity
  8
0
 48
4.0
370
     5
100
AcDbHatch
 10
0.0
 20
0.0
 30
0.0
210
0.0
220
0.0
230
1.0
  2
SOLID
 70
     1
 71
     0
 91
        2
 92
        7
 72
     0
 73
     1
 93
        6
 10
229197.9828577014
 20
136967.1521566904
 10
229053.9800952017
 20
136967.1521566904
 10
229053.9800952017
 20
136677.1521566904
 10
229092.9800952017
 20
136677.1521566904
 10
229092.9800952017
 20
136928.1521566904
 10
229197.9828577014
 20
136928.1521566904
 97
        0
 92
        7
 72
     0
 73
     1
 93
        6
 10
229092.9800952017
 20
136577.1521566904
 10
229053.9800952017
 20
136577.1521566904
 10
229053.9800952017
 20
136287.1521566904
 10
229122.9800952018
 20
136287.1521566904
 10
229122.9800952018
 20
136326.1521566904
 10
229092.9800952017
 20
136326.1521566904
 97
        0
 75
     0
 76
     1
 47
1.907679091602504
 98
        2
 10
229108.5499152786
 20
136959.9342270051
 10
229076.0976227541
 20
136450.5839038894
1001
ACAD
1010
0.0
1020
0.0
1030
0.0
  0
LINE
  5
AA
330
2
100
AcDbEntity
  8
0
  6
Continuous
370
     5
100
AcDbLine
 10
229122.9800952018
 20
136326.1521566904
 30
0.0
 11
229092.9800952017
 21
136326.1521566904
 31
0.0
  0
LINE
  5
AB
330
2
100
AcDbEntity
  8
0
  6
Continuous
370
     5
100
AcDbLine
 10
229053.9800952017
 20
136287.1521566904
 30
0.0
 11
229122.9800952018
 21
136287.1521566904
 31
0.0
  0
LINE
  5
AC
330
2
100
AcDbEntity
  8
0
  6
Continuous
370
     5
100
AcDbLine
 10
229122.9800952018
 20
136287.1521566904
 30
0.0
 11
229122.9800952018
 21
136326.1521566904
 31
0.0
  0
LINE
  5
AD
330
2
100
AcDbEntity
  8
0
  6
Continuous
370
     5
100
AcDbLine
 10
229413.9800952017
 20
137037.1521566904
 30
0.0
 11
229413.9800952017
 21
136967.1521566904
 31
0.0
  0
LINE
  5
AE
330
2
100
AcDbEntity
  8
0
  6
Continuous
370
     5
100
AcDbLine
 10
229092.9800952017
 20
136928.1521566904
 30
0.0
 11
229197.9828577014
 21
136928.1521566904
 31
0.0
  0
LINE
  5
AF
102
{ACAD_REACTORS
330
2A9
102
}
330
2
100
AcDbEntity
  8
0
  6
Continuous
370
     5
100
AcDbLine
 10
229197.9828577014
 20
136928.1521566904
 30
0.0
 11
229197.9828577014
 21
136967.1521566904
 31
0.0
  0
LINE
  5
B0
330
2
100
AcDbEntity
  8
0
  6
Continuous
370
     5
100
AcDbLine
 10
229197.9828577014
 20
136967.1521566904
 30
0.0
 11
229053.9800952017
 21
136967.1521566904
 31
0.0
  0
LINE
  5
B1
330
2
100
AcDbEntity
  8
0
  6
Continuous
370
     5
100
AcDbLine
 10
229297.9828577013
 20
136928.1521566904
 30
0.0
 11
229422.9800952017
 21
136928.1521566904
 31
0.0
  0
LINE
  5
B2
330
2
100
AcDbEntity
  8
0
  6
Continuous
370
     5
100
AcDbLine
 10
229413.9800952017
 20
136967.1521566904
 30
0.0
 11
229297.9828577013
 21
136967.1521566904
 31
0.0
  0
LINE
  5
B3
102
{ACAD_REACTORS
330
2A9
102
}
330
2
100
AcDbEntity
  8
0
  6
Continuous
370
     5
100
AcDbLine
 10
229297.9828577013
 20
136967.1521566904
 30
0.0
 11
229297.9828577013
 21
136928.1521566904
 31
0.0
  0
LINE
  5
B4
330
2
100
AcDbEntity
  8
0
  6
Continuous
370
     5
100
AcDbLine
 10
229092.9800952017
 20
136326.1521566904
 30
0.0
 11
229092.9800952017
 21
136577.1521566904
 31
0.0
  0
HATCH
  5
B5
330
2
100
AcDbEntity
  8
0
370
     5
100
AcDbHatch
 10
0.0
 20
0.0
 30
0.0
210
0.0
220
0.0
230
1.0
  2
SOLID
 70
     1
 71
     1
 91
        1
 92
        7
 72
     0
 73
     1
 93
        4
 10
229053.9800952018
 20
136577.1521566904
 10
229092.9800952017
 20
136577.1521566904
 10
229092.9800952017
 20
136677.1521566904
 10
229053.9800952017
 20
136677.1521566904
 97
        4
330
BA
330
F4
330
B6
330
F5
 75
     0
 76
     1
 47
1.14566181072168
 98
        1
 10
229072.8849790762
 20
136637.8461948791
1001
ACAD
1010
0.0
1020
0.0
1030
0.0
  0
LINE
  5
B6
102
{ACAD_REACTORS
330
B5
102
}
330
2
100
AcDbEntity
  8
0
  6
Continuous
370
     5
100
AcDbLine
 10
229092.9800952017
 20
136577.1521566904
 30
0.0
 11
229053.9800952017
 21
136577.1521566904
 31
0.0
  0
LINE
  5
B7
330
2
100
AcDbEntity
  8
0
  6
Continuous
370
     5
100
AcDbLine
 10
229053.9800952017
 20
136577.1521566904
 30
0.0
 11
229053.9800952017
 21
136287.1521566904
 31
0.0
  0
LINE
  5
B8
330
2
100
AcDbEntity
  8
0
  6
Continuous
370
     5
100
AcDbLine
 10
229092.9800952017
 20
136677.1521566904
 30
0.0
 11
229092.9800952017
 21
136928.1521566904
 31
0.0
  0
LINE
  5
B9
330
2
100
AcDbEntity
  8
0
  6
Continuous
370
     5
100
AcDbLine
 10
229053.9800952017
 20
136967.1521566904
 30
0.0
 11
229053.9800952017
 21
136677.1521566904
 31
0.0
  0
LINE
  5
BA
102
{ACAD_REACTORS
330
B5
102
}
330
2
100
AcDbEntity
  8
0
  6
Continuous
370
     5
100
AcDbLine
 10
229053.9800952017
 20
136677.1521566904
 30
0.0
 11
229092.9800952017
 21
136677.1521566904
 31
0.0
  0
LINE
  5
BB
330
2
100
AcDbEntity
  8
0
  6
Continuous
370
     5
100
AcDbLine
 10
229452.9800952017
 20
136928.1521566904
 30
0.0
 11
229452.9800952017
 21
136998.1521566904
 31
0.0
  0
LINE
  5
BC
330
2
100
AcDbEntity
  8
0
  6
Continuous
370
     5
100
AcDbLine
 10
229924.9800952017
 20
136231.1521566904
 30
0.0
 11
229924.9800952017
 21
136238.1521566904
 31
0.0
  0
LINE
  5
BE
330
2
100
AcDbEntity
  8
0
  6
Continuous
370
     5
100
AcDbLine
 10
229613.9800952017
 20
137022.6521566904
 30
0.0
 11
229613.9800952017
 21
137012.6521566904
 31
0.0
  0
LINE
  5
C0
330
2
100
AcDbEntity
  8
0
  6
Continuous
370
     5
100
AcDbLine
 10
229913.9800952017
 20
137012.6521566904
 30
0.0
 11
229913.9800952017
 21
137022.6521566904
 31
0.0
  0
LWPOLYLINE
  5
C1
330
2
100
AcDbEntity
  8
0
 48
4.0
370
     5
100
AcDbPolyline
 90
        2
 70
     0
 43
0.0
 10
229372.9800952017
 20
136287.1521566904
 10
229122.9800952018
 20
136287.1521566904
  0
LINE
  5
C2
330
2
100
AcDbEntity
  8
0
  6
Continuous
370
     5
100
AcDbLine
 10
229512.9800952017
 20
137037.1521566904
 30
0.0
 11
229512.9800952017
 21
137217.1521566904
 31
0.0
  0
ARC
  5
C3
330
2
100
AcDbEntity
  8
0
  6
Continuous
370
     5
100
AcDbCircle
 10
230074.9800952017
 20
136998.1521566904
 30
0.0
 40
270.000000000001
100
AcDbArc
 50
302.7340785247084
 51
143.921800028434
  0
LINE
  5
C4
330
2
100
AcDbEntity
  8
0
  6
Continuous
370
     5
100
AcDbLine
 10
229856.7623140747
 20
137157.1521566904
 30
0.0
 11
229512.9800952017
 21
137157.1521566904
 31
0.0
  0
LINE
  5
C5
330
2
100
AcDbEntity
  8
0
  6
Continuous
370
     5
100
AcDbLine
 10
230113.9800952017
 20
137037.1521566904
 30
0.0
 11
230113.9800952017
 21
136922.1521566904
 31
0.0
  0
ARC
  5
C6
330
2
100
AcDbEntity
  8
0
  6
Continuous
370
     5
100
AcDbCircle
 10
230074.9800952017
 20
136998.1521566904
 30
0.0
 40
300.0000000000002
100
AcDbArc
 50
299.1217256931157
 51
140.9498774631032
  0
ARC
  5
C7
330
2
100
AcDbEntity
  8
0
  6
Continuous
370
     5
100
AcDbCircle
 10
229764.1887850236
 20
136142.3296561852
 30
0.0
 40
170.6455213431021
100
AcDbArc
 50
197.8042193212797
 51
342.1957806787202
  0
LINE
  5
C8
330
2
100
AcDbEntity
  8
0
  6
Continuous
370
     5
100
AcDbLine
 10
229888.9800952017
 20
136090.1521566904
 30
0.0
 11
229957.931226893
 21
136090.1521566904
 31
0.0
  0
LINE
  5
C9
102
{ACAD_REACTORS
330
75
102
}
330
2
100
AcDbEntity
  8
0
  6
Continuous
370
     5
100
AcDbLine
 10
229413.9800952017
 20
136167.1521566904
 30
0.0
 11
229413.9800952017
 21
136287.1521566904
 31
0.0
  0
LINE
  5
CA
330
2
100
AcDbEntity
  8
0
  6
Continuous
370
     5
100
AcDbLine
 10
229413.9800952017
 20
136167.1521566904
 30
0.0
 11
229078.9800952017
 21
136167.1521566904
 31
0.0
  0
LINE
  5
CB
330
2
100
AcDbEntity
  8
0
  6
Continuous
370
     5
100
AcDbLine
 10
229078.9800952017
 20
136167.1521566904
 30
0.0
 11
229078.9800952017
 21
136287.1521566904
 31
0.0
  0
LINE
  5
CC
330
2
100
AcDbEntity
  8
0
  6
Continuous
370
     5
100
AcDbLine
 10
229078.9800952017
 20
136237.1521566904
 30
0.0
 11
229413.9800952017
 21
136237.1521566904
 31
0.0
  0
LINE
  5
CD
102
{ACAD_REACTORS
330
2A9
102
}
330
2
100
AcDbEntity
  8
0
  6
Continuous
370
     5
100
AcDbLine
 10
229167.9845038324
 20
136967.1544774557
 30
0.0
 11
229327.9845038324
 21
136967.1544774557
 31
0.0
  0
LINE
  5
CE
330
2
100
AcDbEntity
  8
0
  6
Continuous
370
     5
100
AcDbLine
 10
229327.9845038324
 20
136967.1544774557
 30
0.0
 11
229327.9845038324
 21
137067.1544774557
 31
0.0
  0
LINE
  5
CF
330
2
100
AcDbEntity
  8
0
  6
Continuous
370
     5
100
AcDbLine
 10
229327.9845038324
 20
137067.1544774557
 30
0.0
 11
229167.9845038324
 21
137067.1544774557
 31
0.0
  0
LINE
  5
D0
330
2
100
AcDbEntity
  8
0
  6
Continuous
370
     5
100
AcDbLine
 10
229167.9845038324
 20
137067.1544774557
 30
0.0
 11
229167.9845038324
 21
136967.1544774557
 31
0.0
  0
ARC
  5
D1
330
2
100
AcDbEntity
  8
0
  6
Continuous
370
     5
100
AcDbCircle
 10
-229764.1887850236
 20
136142.3296561852
 30
0.0
 40
170.6455213431023
210
0.0
220
0.0
230
-1.0
100
AcDbArc
 50
197.8042193212797
 51
342.1957806787202
  0
LINE
  5
D2
330
2
100
AcDbEntity
  8
0
  6
Continuous
370
     5
100
AcDbLine
 10
229570.4463431542
 20
136090.1521566904
 30
0.0
 11
229638.9800952017
 21
136090.1521566904
 31
0.0
  0
ARC
  5
D3
330
2
100
AcDbEntity
  8
0
  6
Continuous
370
     5
100
AcDbCircle
 10
229764.1887850236
 20
136142.3296561852
 30
0.0
 40
200.645521343102
100
AcDbArc
 50
195.0729200614819
 51
344.927079938518
  0
LINE
  5
D4
330
2
100
AcDbEntity
  8
0
  6
Continuous
370
     5
100
AcDbLine
 10
229888.9800952017
 20
136090.1521566904
 30
0.0
 11
229888.9800952017
 21
136217.1521566904
 31
0.0
  0
LINE
  5
D5
330
2
100
AcDbEntity
  8
0
  6
Continuous
370
     5
100
AcDbLine
 10
229638.9800952017
 20
136217.1521566904
 30
0.0
 11
229638.9800952017
 21
136090.1521566904
 31
0.0
  0
ARC
  5
D6
330
2
100
AcDbEntity
  8
0
  6
Continuous
370
     5
100
AcDbCircle
 10
229764.1887850236
 20
136142.3296561852
 30
0.0
 40
135.6455213431011
100
AcDbArc
 50
202.6226769464849
 51
337.3773230535151
  0
ARC
  5
D7
330
2
100
AcDbEntity
  8
0
  6
Continuous
370
     5
100
AcDbCircle
 10
230074.9800952017
 20
136998.1521566904
 30
0.0
 40
330.0000000000027
100
AcDbArc
 50
64.12790403639228
 51
138.4222042142064
  0
LINE
  5
D8
330
2
100
AcDbEntity
  8
0
  6
Continuous
370
     5
100
AcDbLine
 10
229828.1218362757
 20
137217.1521566904
 30
0.0
 11
229512.9800952017
 21
137217.1521566904
 31
0.0
  0
LINE
  5
D9
330
2
100
AcDbEntity
  8
0
  6
Continuous
370
     5
100
AcDbLine
 10
229512.9800952017
 20
137187.1521566904
 30
0.0
 11
229842.0015554174
 21
137187.1521566904
 31
0.0
  0
ARC
  5
DA
330
2
100
AcDbEntity
  8
0
  6
Continuous
370
     5
100
AcDbCircle
 10
-230074.9800952017
 20
136998.1521566904
 30
0.0
 40
300.0000000000008
210
0.0
220
0.0
230
-1.0
100
AcDbArc
 50
39.0501225368968
 51
240.8782743068843
  0
ARC
  5
DB
330
2
100
AcDbEntity
  8
0
  6
Continuous
370
     5
100
AcDbCircle
 10
230074.9800952017
 20
136998.1521566904
 30
0.0
 40
330.0000000000004
100
AcDbArc
 50
296.2586599335694
 51
64.12790403639228
  0
LINE
  5
DC
330
2
100
AcDbEntity
  8
0
  6
Continuous
370
     5
390
DD
100
AcDbLine
 10
229581.9800952017
 20
136102.1521566904
 30
0.0
 11
229581.9800952017
 21
136205.1521566904
 31
0.0
  0
LINE
  5
DE
330
2
100
AcDbEntity
  8
0
  6
Continuous
370
     5
390
DD
100
AcDbLine
 10
229569.9800952017
 20
136217.1521566904
 30
0.0
 11
229569.9800952017
 21
136090.1521566904
 31
0.0
  0
LINE
  5
DF
330
2
100
AcDbEntity
  8
0
  6
Continuous
370
     5
390
DD
100
AcDbLine
 10
229626.9800952017
 20
136205.1521566904
 30
0.0
 11
229626.9800952017
 21
136102.1521566904
 31
0.0
  0
LINE
  5
E0
330
2
100
AcDbEntity
  8
0
  6
Continuous
370
     5
390
DD
100
AcDbLine
 10
229638.9800952017
 20
136090.1521566904
 30
0.0
 11
229638.9800952017
 21
136217.1521566904
 31
0.0
  0
LINE
  5
E1
330
2
100
AcDbEntity
  8
0
  6
Continuous
370
     5
390
DD
100
AcDbLine
 10
229900.9800952017
 20
136102.1521566904
 30
0.0
 11
229900.9800952017
 21
136205.1521566904
 31
0.0
  0
LINE
  5
E2
330
2
100
AcDbEntity
  8
0
  6
Continuous
370
     5
390
DD
100
AcDbLine
 10
229888.9800952017
 20
136217.1521566904
 30
0.0
 11
229888.9800952017
 21
136090.1521566904
 31
0.0
  0
LINE
  5
E3
330
2
100
AcDbEntity
  8
0
  6
Continuous
370
     5
390
DD
100
AcDbLine
 10
229945.9800952017
 20
136102.1521566904
 30
0.0
 11
229900.9800952017
 21
136102.1521566904
 31
0.0
  0
LINE
  5
E4
330
2
100
AcDbEntity
  8
0
  6
Continuous
370
     5
390
DD
100
AcDbLine
 10
229888.9800952017
 20
136090.1521566904
 30
0.0
 11
229957.9800952017
 21
136090.1521566904
 31
0.0
  0
LINE
  5
E5
330
2
100
AcDbEntity
  8
0
  6
Continuous
370
     5
390
DD
100
AcDbLine
 10
229945.9800952017
 20
136205.1521566904
 30
0.0
 11
229945.9800952017
 21
136102.1521566904
 31
0.0
  0
LINE
  5
E6
330
2
100
AcDbEntity
  8
0
  6
Continuous
370
     5
390
DD
100
AcDbLine
 10
229957.9800952017
 20
136090.1521566904
 30
0.0
 11
229957.9800952017
 21
136217.1521566904
 31
0.0
  0
LINE
  5
E7
330
2
100
AcDbEntity
  8
0
  6
Continuous
370
     5
390
DD
100
AcDbLine
 10
229581.9800952017
 20
136205.1521566904
 30
0.0
 11
229626.9800952017
 21
136205.1521566904
 31
0.0
  0
LINE
  5
E8
330
2
100
AcDbEntity
  8
0
  6
Continuous
370
     5
390
DD
100
AcDbLine
 10
229900.9800952017
 20
136205.1521566904
 30
0.0
 11
229945.9800952017
 21
136205.1521566904
 31
0.0
  0
LINE
  5
E9
330
2
100
AcDbEntity
  8
0
  6
Continuous
370
     5
390
DD
100
AcDbLine
 10
229626.9800952017
 20
136102.1521566904
 30
0.0
 11
229581.9800952017
 21
136102.1521566904
 31
0.0
  0
LINE
  5
EA
330
2
100
AcDbEntity
  8
0
  6
Continuous
370
     5
390
DD
100
AcDbLine
 10
229569.9800952017
 20
136090.1521566904
 30
0.0
 11
229638.9800952017
 21
136090.1521566904
 31
0.0
  0
LINE
  5
EB
330
2
100
AcDbEntity
  8
0
  6
Continuous
370
     5
390
DD
100
AcDbLine
 10
229457.9800952017
 20
137205.1521566904
 30
0.0
 11
229500.9800952017
 21
137205.1521566904
 31
0.0
  0
LINE
  5
EC
330
2
100
AcDbEntity
  8
0
  6
Continuous
370
     5
390
DD
100
AcDbLine
 10
229512.9800952017
 20
137217.1521566904
 30
0.0
 11
229445.9800952017
 21
137217.1521566904
 31
0.0
  0
LINE
  5
ED
330
2
100
AcDbEntity
  8
0
  6
Continuous
370
     5
390
DD
100
AcDbLine
 10
229500.9800952017
 20
137205.1521566904
 30
0.0
 11
229500.9800952017
 21
137049.1521566904
 31
0.0
  0
LINE
  5
EE
330
2
100
AcDbEntity
  8
0
  6
Continuous
370
     5
390
DD
100
AcDbLine
 10
229512.9800952017
 20
137037.1521566904
 30
0.0
 11
229512.9800952017
 21
137217.1521566904
 31
0.0
  0
LINE
  5
EF
330
2
100
AcDbEntity
  8
0
  6
Continuous
370
     5
390
DD
100
AcDbLine
 10
229457.9800952017
 20
137049.1521566904
 30
0.0
 11
229457.9800952017
 21
137205.1521566904
 31
0.0
  0
LINE
  5
F0
330
2
100
AcDbEntity
  8
0
  6
Continuous
370
     5
390
DD
100
AcDbLine
 10
229445.9800952017
 20
137217.1521566904
 30
0.0
 11
229445.9800952017
 21
137037.1521566904
 31
0.0
  0
LINE
  5
F1
330
2
100
AcDbEntity
  8
0
  6
Continuous
370
     5
390
DD
100
AcDbLine
 10
229500.9800952017
 20
137049.1521566904
 30
0.0
 11
229457.9800952018
 21
137049.1521566904
 31
0.0
  0
LINE
  5
F2
330
2
100
AcDbEntity
  8
0
  6
Continuous
370
     5
390
DD
100
AcDbLine
 10
229445.9800952017
 20
137037.1521566904
 30
0.0
 11
229512.9800952017
 21
137037.1521566904
 31
0.0
  0
LWPOLYLINE
  5
F3
330
2
100
AcDbEntity
  8
0
 48
4.0
370
     5
100
AcDbPolyline
 90
        2
 70
     0
 43
0.0
 10
229372.9800952017
 20
136326.1521566904
 10
229122.9800952018
 20
136326.1521566904
  0
LWPOLYLINE
  5
F4
102
{ACAD_REACTORS
330
B5
102
}
330
2
100
AcDbEntity
  8
0
370
     5
100
AcDbPolyline
 90
        2
 70
     0
 43
0.0
 10
229053.9800952017
 20
136677.1521566904
 10
229053.9800952017
 20
136577.1521566904
  0
LWPOLYLINE
  5
F5
102
{ACAD_REACTORS
330
B5
102
}
330
2
100
AcDbEntity
  8
0
370
     5
100
AcDbPolyline
 90
        2
 70
     0
 43
0.0
 10
229092.9800952017
 20
136677.1521566904
 10
229092.9800952017
 20
136577.1521566904
  0
LINE
  5
F6
102
{ACAD_REACTORS
330
2A9
102
}
330
2
100
AcDbEntity
  8
0
  6
Continuous
370
     5
100
AcDbLine
 10
229197.9828577014
 20
136928.1544774557
 30
0.0
 11
229357.9828577014
 21
136928.1544774557
 31
0.0
  0
LWPOLYLINE
  5
F7
102
{ACAD_REACTORS
330
2B6
102
}
330
2
100
AcDbEntity
  8
0
370
     5
100
AcDbPolyline
 90
        2
 70
     0
 43
0.0
 10
229613.9800952017
 20
137037.1521566904
 10
229913.9800952017
 20
137037.1521566904
  0
LWPOLYLINE
  5
F8
102
{ACAD_REACTORS
330
2B6
102
}
330
2
100
AcDbEntity
  8
0
370
     5
100
AcDbPolyline
 90
        2
 70
     0
 43
0.0
 10
229613.9800952017
 20
136998.1521566904
 10
229913.9800952017
 20
136998.1521566904
  0
LWPOLYLINE
  5
F9
102
{ACAD_REACTORS
330
77
102
}
330
2
100
AcDbEntity
  8
0
370
     5
100
AcDbPolyline
 90
        2
 70
     0
 43
0.0
 10
229512.9800952017
 20
136256.1521566904
 10
229602.9800952017
 20
136256.1521566904
  0
LWPOLYLINE
  5
FA
102
{ACAD_REACTORS
330
77
102
}
330
2
100
AcDbEntity
  8
0
370
     5
100
AcDbPolyline
 90
        2
 70
     0
 43
0.0
 10
229512.9800952017
 20
136217.1521566904
 10
229602.9800952017
 20
136217.1521566904
  0
LWPOLYLINE
  5
FB
330
2
100
AcDbEntity
  8
0
370
     5
100
AcDbPolyline
 90
        2
 70
     0
 43
0.0
 10
229708.9800952017
 20
136256.1521566904
 10
229818.9800952017
 20
136256.1521566904
  0
LWPOLYLINE
  5
FC
330
2
100
AcDbEntity
  8
0
370
     5
100
AcDbPolyline
 90
        2
 70
     0
 43
0.0
 10
229708.9800952017
 20
136217.1521566904
 10
229818.9800952017
 20
136217.1521566904
  0
LWPOLYLINE
  5
FD
102
{ACAD_REACTORS
330
6A
102
}
330
2
100
AcDbEntity
  8
0
370
     5
100
AcDbPolyline
 90
        2
 70
     0
 43
0.0
 10
229924.9800952017
 20
136256.1521566904
 10
230014.9800952017
 20
136256.1521566904
  0
LWPOLYLINE
  5
FE
102
{ACAD_REACTORS
330
6A
102
}
330
2
100
AcDbEntity
  8
0
370
     5
100
AcDbPolyline
 90
        2
 70
     0
 43
0.0
 10
229924.9800952017
 20
136217.1521566904
 10
230014.9800952017
 20
136217.1521566904
  0
LWPOLYLINE
  5
FF
102
{ACAD_REACTORS
330
A0
102
}
330
2
100
AcDbEntity
  8
0
370
     5
100
AcDbPolyline
 90
        2
 70
     0
 43
0.0
 10
230074.9800952017
 20
136502.1521566904
 10
230074.9800952017
 20
136382.1521566904
  0
LWPOLYLINE
  5
100
102
{ACAD_REACTORS
330
A0
102
}
330
2
100
AcDbEntity
  8
0
370
     5
100
AcDbPolyline
 90
        2
 70
     0
 43
0.0
 10
230113.9800952017
 20
136502.1521566904
 10
230113.9800952017
 20
136382.1521566904
  0
LWPOLYLINE
  5
101
102
{ACAD_REACTORS
330
8B
330
8C
330
8D
102
}
330
2
100
AcDbEntity
  8
0
370
     5
100
AcDbPolyline
 90
       15
 70
     0
 43
0.0
 10
230132.6628153653
 20
136903.4694365268
 10
230196.3024256721
 20
136839.82982622
 10
230213.9800952017
 20
136822.1521566904
 10
230213.9800952017
 20
136797.1521566904
 10
230213.9800952017
 20
136707.1521566904
 10
230213.9800952017
 20
136682.1521566904
 10
230132.6628153653
 20
136600.8348768539
 10
230105.085650899
 20
136628.4120413202
 10
230168.7252612058
 20
136692.051651627
 10
230174.9800952018
 20
136698.3064856229
 10
230174.9800952018
 20
136707.1521566904
 10
230174.9800952018
 20
136797.1521566904
 10
230174.9800952018
 20
136805.9978277578
 10
230105.085650899
 20
136875.8922720606
 10
230132.6628153653
 20
136903.4694365268
  0
DIMENSION
  5
102
330
2
100
AcDbEntity
  8
0
370
     5
100
AcDbDimension
  2
*D32
 10
229413.9800952017
 20
137425.9576270162
 30
0.0
 11
229233.9800952017
 21
137505.9576270162
 31
0.0
 70
    32
 71
     5
 42
359.9999999999709
  3
500
100
AcDbAlignedDimension
 13
229053.9800952017
 23
136967.1521566904
 33
0.0
 14
229413.9800952017
 24
137037.1521566904
 34
0.0
100
AcDbRotatedDimension
  0
DIMENSION
  5
10E
330
2
100
AcDbEntity
  8
0
370
     5
100
AcDbDimension
  2
*D31
 10
230113.9800952017
 20
137425.9576270162
 30
0.0
 11
229763.9800952017
 21
137505.9576270162
 31
0.0
 70
    32
 71
     5
 42
700.0
  3
500
100
AcDbAlignedDimension
 13
229413.9800952017
 23
137037.1521566904
 33
0.0
 14
230113.9800952017
 24
137037.1521566904
 34
0.0
100
AcDbRotatedDimension
  0
DIMENSION
  5
119
330
2
100
AcDbEntity
  8
0
370
     5
100
AcDbDimension
  2
*D30
 10
230213.9800952017
 20
137425.9576270162
 30
0.0
 11
230163.9800952017
 21
137505.9576270162
 31
0.0
 70
    32
 71
     5
 42
100.0000000000291
  3
500
100
AcDbAlignedDimension
 13
230113.9800952017
 23
137037.1521566904
 33
0.0
 14
230213.9800952017
 24
136822.1521566904
 34
0.0
100
AcDbRotatedDimension
  0
DIMENSION
  5
126
330
2
100
AcDbEntity
  8
0
370
     5
100
AcDbDimension
  2
*D29
 10
230213.9800952017
 20
137614.3405796827
 30
0.0
 11
229633.9800952017
 21
137694.3405796827
 31
0.0
 70
    32
 71
     5
 42
1160.0
  3
500
100
AcDbAlignedDimension
 13
229053.9800952017
 23
136967.1521566904
 33
0.0
 14
230213.9800952017
 24
136822.1521566904
 34
0.0
100
AcDbRotatedDimension
  0
DIMENSION
  5
131
330
2
100
AcDbEntity
  8
0
370
     5
100
AcDbDimension
  2
*D28
 10
228941.9882083215
 20
136967.1521566904
 30
0.0
 11
228861.9882083214
 21
137002.1521566904
 31
0.0
 70
    32
 71
     5
 42
70.0
  3
500
100
AcDbAlignedDimension
 13
229413.9800952017
 23
137037.1521566904
 33
0.0
 14
229053.9800952017
 24
136967.1521566904
 34
0.0
 50
90.0
100
AcDbRotatedDimension
  0
DIMENSION
  5
13E
330
2
100
AcDbEntity
  8
0
370
     5
100
AcDbDimension
  2
*D27
 10
228941.9882083215
 20
136287.1521566904
 30
0.0
 11
228861.9882083214
 21
136627.1521566904
 31
0.0
 70
    32
 71
     5
 42
680.0
  3
500
100
AcDbAlignedDimension
 13
229053.9800952017
 23
136967.1521566904
 33
0.0
 14
229053.9800952017
 24
136287.1521566904
 34
0.0
 50
90.0
100
AcDbRotatedDimension
  0
DIMENSION
  5
149
330
2
100
AcDbEntity
  8
0
370
     5
100
AcDbDimension
  2
*D26
 10
228941.9882083215
 20
136217.1521566904
 30
0.0
 11
228861.9882083214
 21
136252.1521566904
 31
0.0
 70
    32
 71
     5
 42
70.0
  3
500
100
AcDbAlignedDimension
 13
229053.9800952017
 23
136287.1521566904
 33
0.0
 14
229413.9800952017
 24
136217.1521566904
 34
0.0
 50
90.0
100
AcDbRotatedDimension
  0
DIMENSION
  5
156
330
2
100
AcDbEntity
  8
0
370
     5
100
AcDbDimension
  2
*D25
 10
228753.6052556549
 20
137037.1521566904
 30
0.0
 11
228673.6052556549
 21
136627.1521566904
 31
0.0
 70
    32
 71
     5
 42
820.0
  3
500
100
AcDbAlignedDimension
 13
229413.9800952017
 23
136217.1521566904
 33
0.0
 14
229413.9800952017
 24
137037.1521566904
 34
0.0
 50
90.0
100
AcDbRotatedDimension
  0
LINE
  5
161
330
2
100
AcDbEntity
  8
0
  6
Continuous
370
     5
100
AcDbLine
 10
233822.9116305827
 20
136231.6521566904
 30
0.0
 11
233822.9116305827
 21
136241.6521566904
 31
0.0
  0
LINE
  5
162
330
2
100
AcDbEntity
  8
0
  6
Continuous
370
     5
100
AcDbLine
 10
233712.9116305827
 20
136231.6521566904
 30
0.0
 11
233712.9116305827
 21
136241.6521566904
 31
0.0
  0
LINE
  5
163
330
2
100
AcDbEntity
  8
0
  6
Continuous
370
     5
100
AcDbLine
 10
234158.9116305827
 20
136312.6521566904
 30
0.0
 11
234158.9116305827
 21
136300.6521566904
 31
0.0
  0
LINE
  5
164
330
2
100
AcDbEntity
  8
0
  6
Continuous
370
     5
100
AcDbLine
 10
234408.9116305827
 20
136312.6521566904
 30
0.0
 11
234408.9116305827
 21
136300.6521566904
 31
0.0
  0
LINE
  5
165
330
2
100
AcDbEntity
  8
0
  6
Continuous
370
     5
100
AcDbLine
 10
234233.9088680831
 20
136952.6521566904
 30
0.0
 11
234233.9088680831
 21
136942.6521566904
 31
0.0
  0
LINE
  5
166
330
2
100
AcDbEntity
  8
0
  6
Continuous
370
     5
100
AcDbLine
 10
234333.9088680831
 20
136952.6521566904
 30
0.0
 11
234333.9088680831
 21
136942.6521566904
 31
0.0
  0
HATCH
  5
167
330
2
100
AcDbEntity
  8
0
 48
4.0
370
     5
100
AcDbHatch
 10
0.0
 20
0.0
 30
0.0
210
0.0
220
0.0
230
1.0
  2
SOLID
 70
     1
 71
     0
 91
        1
 92
        1
 93
        8
 72
     1
 10
234233.9088680831
 20
136928.1521566904
 11
234078.9116305827
 21
136928.1521566904
 72
     1
 10
234078.9116305827
 20
136928.1521566904
 11
234078.9116305827
 21
136998.1521566904
 72
     1
 10
234078.9116305827
 20
136998.1521566904
 11
233917.9116305827
 21
136998.1521566904
 72
     1
 10
233917.9116305827
 20
136998.1521566904
 11
233917.9116305827
 21
137037.1521566904
 72
     1
 10
233917.9116305827
 20
137037.1521566904
 11
234117.9116305827
 21
137037.1521566904
 72
     1
 10
234117.9116305827
 20
137037.1521566904
 11
234117.9116305827
 21
136967.1521566904
 72
     1
 10
234117.9116305827
 20
136967.1521566904
 11
234233.9088680831
 21
136967.1521566904
 72
     1
 10
234233.9088680831
 20
136967.1521566904
 11
234233.9088680831
 21
136928.1521566904
 97
        0
 75
     0
 76
     1
 98
        1
 10
234115.9994663815
 20
136948.4881833472
1001
ACAD
1010
0.0
1020
0.0
1030
0.0
  0
HATCH
  5
168
330
2
100
AcDbEntity
  8
0
 48
4.0
370
     5
100
AcDbHatch
 10
0.0
 20
0.0
 30
0.0
210
0.0
220
0.0
230
1.0
  2
SOLID
 70
     1
 71
     0
 91
        1
 92
        7
 72
     0
 73
     1
 93
        6
 10
233417.9116305827
 20
136382.1521566904
 10
233456.9116305827
 20
136382.1521566904
 10
233456.9116305827
 20
136256.1521566904
 10
233516.9116305827
 20
136256.1521566904
 10
233516.9116305827
 20
136217.1521566904
 10
233417.9116305827
 20
136217.1521566904
 97
        0
 75
     0
 76
     1
 47
0.9043756111459192
 98
        1
 10
233446.2978405122
 20
136263.6187219869
1001
ACAD
1010
0.0
1020
0.0
1030
0.0
  0
LINE
  5
169
330
2
100
AcDbEntity
  8
0
  6
Continuous
370
     5
100
AcDbLine
 10
233456.9116305827
 20
136256.1521566904
 30
0.0
 11
233516.9116305827
 21
136256.1521566904
 31
0.0
  0
HATCH
  5
16A
330
2
100
AcDbEntity
  8
0
370
     5
100
AcDbHatch
 10
0.0
 20
0.0
 30
0.0
210
0.0
220
0.0
230
1.0
  2
SOLID
 70
     1
 71
     1
 91
        1
 92
        7
 72
     0
 73
     1
 93
        4
 10
233516.9116305827
 20
136256.1521566904
 10
233516.9116305827
 20
136217.1521566904
 10
233606.9116305827
 20
136217.1521566904
 10
233606.9116305827
 20
136256.1521566904
 97
        4
330
1F9
330
172
330
1FA
330
16B
 75
     0
 76
     1
 47
0.2761535321471447
 98
        1
 10
233580.737766404
 20
136239.5639810922
1001
ACAD
1010
0.0
1020
0.0
1030
0.0
  0
LINE
  5
16B
102
{ACAD_REACTORS
330
16A
102
}
330
2
100
AcDbEntity
  8
0
  6
Continuous
370
     5
100
AcDbLine
 10
233516.9116305827
 20
136256.1521566904
 30
0.0
 11
233516.9116305827
 21
136217.1521566904
 31
0.0
  0
LINE
  5
16C
330
2
100
AcDbEntity
  8
0
  6
Continuous
370
     5
100
AcDbLine
 10
233516.9116305827
 20
136217.1521566904
 30
0.0
 11
233417.9116305827
 21
136217.1521566904
 31
0.0
  0
HATCH
  5
16D
330
2
100
AcDbEntity
  8
0
370
     5
100
AcDbHatch
 10
0.0
 20
0.0
 30
0.0
210
0.0
220
0.0
230
1.0
  2
SOLID
 70
     1
 71
     1
 91
        1
 92
        7
 72
     0
 73
     1
 93
        5
 10
233712.9116305827
 20
136217.1521566904
 10
233712.9116305827
 20
136256.1521566904
 10
233694.9116305827
 20
136256.1521566904
 10
233606.9116305827
 20
136256.1521566904
 10
233606.9116305827
 20
136217.1521566904
 97
        5
330
16E
330
16F
330
170
330
171
330
172
 75
     0
 76
     1
 47
0.4451578992671792
 98
        1
 10
233670.2751168056
 20
136234.8958894312
1001
ACAD
1010
0.0
1020
0.0
1030
0.0
  0
LINE
  5
16E
102
{ACAD_REACTORS
330
16D
102
}
330
2
100
AcDbEntity
  8
0
  6
Continuous
370
     5
100
AcDbLine
 10
233606.9116305827
 20
136256.1521566904
 30
0.0
 11
233694.9116305827
 21
136256.1521566904
 31
0.0
  0
LINE
  5
16F
102
{ACAD_REACTORS
330
16D
102
}
330
2
100
AcDbEntity
  8
0
  6
Continuous
370
     5
100
AcDbLine
 10
233694.9116305827
 20
136256.1521566904
 30
0.0
 11
233712.9116305827
 21
136256.1521566904
 31
0.0
  0
LINE
  5
170
102
{ACAD_REACTORS
330
16D
102
}
330
2
100
AcDbEntity
  8
0
  6
Continuous
370
     5
100
AcDbLine
 10
233712.9116305827
 20
136256.1521566904
 30
0.0
 11
233712.9116305827
 21
136217.1521566904
 31
0.0
  0
LINE
  5
171
102
{ACAD_REACTORS
330
16D
102
}
330
2
100
AcDbEntity
  8
0
  6
Continuous
370
     5
100
AcDbLine
 10
233712.9116305827
 20
136217.1521566904
 30
0.0
 11
233606.9116305827
 21
136217.1521566904
 31
0.0
  0
LINE
  5
172
102
{ACAD_REACTORS
330
16D
330
16A
102
}
330
2
100
AcDbEntity
  8
0
  6
Continuous
370
     5
100
AcDbLine
 10
233606.9116305827
 20
136217.1521566904
 30
0.0
 11
233606.9116305827
 21
136256.1521566904
 31
0.0
  0
LINE
  5
173
330
2
100
AcDbEntity
  8
0
  6
Continuous
370
     5
100
AcDbLine
 10
233822.9116305827
 20
136256.1521566904
 30
0.0
 11
233862.9116305827
 21
136256.1521566904
 31
0.0
  0
HATCH
  5
174
330
2
100
AcDbEntity
  8
0
370
     5
100
AcDbHatch
 10
0.0
 20
0.0
 30
0.0
210
0.0
220
0.0
230
1.0
  2
SOLID
 70
     1
 71
     1
 91
        1
 92
        7
 72
     0
 73
     1
 93
        8
 10
234078.9116305827
 20
136326.1521566904
 10
234078.9116305827
 20
136256.1521566904
 10
234018.9116305827
 20
136256.1521566904
 10
234018.9116305827
 20
136217.1521566904
 10
234117.9116305827
 20
136217.1521566904
 10
234117.9116305827
 20
136287.1521566904
 10
234158.9116305827
 20
136287.1521566904
 10
234158.9116305828
 20
136326.1521566904
 97
        8
330
1A5
330
1A6
330
1A7
330
1C6
330
17C
330
17D
330
17B
330
181
 75
     0
 76
     1
 47
1.468666056090918
 98
        1
 10
234099.4065443795
 20
136309.6338959343
1001
ACAD
1010
0.0
1020
0.0
1030
0.0
  0
HATCH
  5
175
330
2
100
AcDbEntity
  8
0
370
     5
100
AcDbHatch
 10
0.0
 20
0.0
 30
0.0
210
0.0
220
0.0
230
1.0
  2
SOLID
 70
     1
 71
     1
 91
        1
 92
        7
 72
     0
 73
     1
 93
        4
 10
233822.9116305827
 20
136217.1521566904
 10
233928.9116305827
 20
136217.1521566904
 10
233928.9116305828
 20
136256.1521566904
 10
233822.9116305827
 20
136256.1521566904
 97
        4
330
177
330
178
330
179
330
17A
 75
     0
 76
     1
 47
1.468666056090918
 98
        1
 10
233890.7063753734
 20
136242.0752613108
1001
ACAD
1010
0.0
1020
0.0
1030
0.0
  0
HATCH
  5
176
330
2
100
AcDbEntity
  8
0
370
     5
100
AcDbHatch
 10
0.0
 20
0.0
 30
0.0
210
0.0
220
0.0
230
1.0
  2
SOLID
 70
     1
 71
     1
 91
        1
 92
        7
 72
     0
 73
     1
 93
        4
 10
233928.9116305827
 20
136217.1521566904
 10
234018.9116305827
 20
136217.1521566904
 10
234018.9116305827
 20
136256.1521566904
 10
233928.9116305827
 20
136256.1521566904
 97
        4
330
1F5
330
17D
330
1F6
330
178
 75
     0
 76
     1
 47
1.468666056090918
 98
        1
 10
233964.1923180979
 20
136246.4812634788
1001
ACAD
1010
0.0
1020
0.0
1030
0.0
  0
LINE
  5
177
102
{ACAD_REACTORS
330
175
102
}
330
2
100
AcDbEntity
  8
0
  6
Continuous
370
     5
100
AcDbLine
 10
233822.9116305827
 20
136256.1521566904
 30
0.0
 11
233928.9116305827
 21
136256.1521566904
 31
0.0
  0
LINE
  5
178
102
{ACAD_REACTORS
330
175
330
176
102
}
330
2
100
AcDbEntity
  8
0
  6
Continuous
370
     5
100
AcDbLine
 10
233928.9116305827
 20
136256.1521566904
 30
0.0
 11
233928.9116305827
 21
136217.1521566904
 31
0.0
  0
LINE
  5
179
102
{ACAD_REACTORS
330
175
102
}
330
2
100
AcDbEntity
  8
0
  6
Continuous
370
     5
100
AcDbLine
 10
233928.9116305827
 20
136217.1521566904
 30
0.0
 11
233822.9116305827
 21
136217.1521566904
 31
0.0
  0
LINE
  5
17A
102
{ACAD_REACTORS
330
175
102
}
330
2
100
AcDbEntity
  8
0
  6
Continuous
370
     5
100
AcDbLine
 10
233822.9116305827
 20
136217.1521566904
 30
0.0
 11
233822.9116305827
 21
136256.1521566904
 31
0.0
  0
LINE
  5
17B
102
{ACAD_REACTORS
330
174
102
}
330
2
100
AcDbEntity
  8
0
  6
Continuous
370
     5
100
AcDbLine
 10
234018.9116305827
 20
136256.1521566904
 30
0.0
 11
234078.9116305827
 21
136256.1521566904
 31
0.0
  0
LINE
  5
17C
102
{ACAD_REACTORS
330
174
102
}
330
2
100
AcDbEntity
  8
0
  6
Continuous
370
     5
100
AcDbLine
 10
234117.9116305827
 20
136217.1521566904
 30
0.0
 11
234018.9116305827
 21
136217.1521566904
 31
0.0
  0
LINE
  5
17D
102
{ACAD_REACTORS
330
174
330
176
102
}
330
2
100
AcDbEntity
  8
0
  6
Continuous
370
     5
100
AcDbLine
 10
234018.9116305827
 20
136217.1521566904
 30
0.0
 11
234018.9116305827
 21
136256.1521566904
 31
0.0
  0
HATCH
  5
17E
330
2
100
AcDbEntity
  8
0
 48
4.0
370
     5
100
AcDbHatch
 10
0.0
 20
0.0
 30
0.0
210
0.0
220
0.0
230
1.0
  2
SOLID
 70
     1
 71
     0
 91
        4
 92
        7
 72
     0
 73
     1
 93
        6
 10
233399.2289104191
 20
136600.8348768539
 10
233426.8060748854
 20
136628.4120413202
 10
233456.9116305827
 20
136598.3064856229
 10
233456.9116305827
 20
136502.1521566904
 10
233417.9116305827
 20
136502.1521566904
 10
233417.9116305827
 20
136582.1521566904
 97
        0
 92
        7
 72
     0
 73
     1
 93
        6
 10
233317.9116305827
 20
136707.1521566904
 10
233356.9116305827
 20
136707.1521566904
 10
233356.9116305827
 20
136698.3064856229
 10
233363.1664645786
 20
136692.051651627
 10
233335.5893001124
 20
136664.4744871607
 10
233317.9116305827
 20
136682.1521566904
 97
        0
 92
        7
 72
     0
 73
     1
 93
        6
 10
233317.9116305827
 20
136822.1521566904
 10
233335.5893001124
 20
136839.82982622
 10
233363.1664645786
 20
136812.2526617538
 10
233356.9116305827
 20
136805.9978277578
 10
233356.9116305827
 20
136797.1521566904
 10
233317.9116305827
 20
136797.1521566904
 97
        0
 92
        7
 72
     0
 73
     1
 93
        8
 10
233417.9116305827
 20
137037.1521566904
 10
233617.9116305827
 20
137037.1521566904
 10
233617.9116305827
 20
136998.1521566904
 10
233456.9116305827
 20
136998.1521566904
 10
233456.9116305827
 20
136905.9978277578
 10
233426.8060748854
 20
136875.8922720606
 10
233399.2289104191
 20
136903.4694365268
 10
233417.9116305827
 20
136922.1521566904
 97
        0
 75
     0
 76
     1
 47
1.280491492987919
 98
        4
 10
233430.3515902091
 20
136593.1379483825
 10
233341.9384766524
 20
136689.1748133552
 10
233343.2198179322
 20
136815.9434715571
 10
233438.0397320968
 20
136935.0292037152
1001
ACAD
1010
0.0
1020
0.0
1030
0.0
  0
LINE
  5
17F
330
2
100
AcDbEntity
  8
0
  6
Continuous
370
     5
100
AcDbLine
 10
233456.9116305827
 20
136998.1521566904
 30
0.0
 11
233456.9116305827
 21
136905.9978277578
 31
0.0
  0
LINE
  5
180
330
2
100
AcDbEntity
  8
0
  6
Continuous
370
     5
100
AcDbLine
 10
233417.9116305827
 20
136922.1521566904
 30
0.0
 11
233417.9116305827
 21
137037.1521566904
 31
0.0
  0
LINE
  5
181
102
{ACAD_REACTORS
330
174
102
}
330
2
100
AcDbEntity
  8
0
  6
Continuous
370
     5
100
AcDbLine
 10
234078.9116305827
 20
136256.1521566904
 30
0.0
 11
234078.9116305827
 21
136326.1521566904
 31
0.0
  0
LINE
  5
182
330
2
100
AcDbEntity
  8
0
  6
Continuous
370
     5
100
AcDbLine
 10
234117.9116305827
 20
136287.1521566904
 30
0.0
 11
234117.9116305827
 21
136217.1521566904
 31
0.0
  0
LINE
  5
183
330
2
100
AcDbEntity
  8
0
  6
Continuous
370
     5
100
AcDbLine
 10
234078.9116305827
 20
136998.1521566904
 30
0.0
 11
233917.9116305827
 21
136998.1521566904
 31
0.0
  0
LINE
  5
184
102
{ACAD_REACTORS
330
2C3
102
}
330
2
100
AcDbEntity
  8
0
  6
Continuous
370
     5
100
AcDbLine
 10
233917.9116305827
 20
136998.1521566904
 30
0.0
 11
233917.9116305827
 21
137037.1521566904
 31
0.0
  0
LINE
  5
185
330
2
100
AcDbEntity
  8
0
  6
Continuous
370
     5
100
AcDbLine
 10
233917.9116305827
 20
137037.1521566904
 30
0.0
 11
234117.9116305827
 21
137037.1521566904
 31
0.0
  0
LINE
  5
186
330
2
100
AcDbEntity
  8
0
  6
Continuous
370
     5
100
AcDbLine
 10
233617.9116305827
 20
136998.1521566904
 30
0.0
 11
233456.9116305827
 21
136998.1521566904
 31
0.0
  0
LINE
  5
187
330
2
100
AcDbEntity
  8
0
  6
Continuous
370
     5
100
AcDbLine
 10
233417.9116305827
 20
137037.1521566904
 30
0.0
 11
233617.9116305827
 21
137037.1521566904
 31
0.0
  0
LINE
  5
188
102
{ACAD_REACTORS
330
2C3
102
}
330
2
100
AcDbEntity
  8
0
  6
Continuous
370
     5
100
AcDbLine
 10
233617.9116305827
 20
137037.1521566904
 30
0.0
 11
233617.9116305827
 21
136998.1521566904
 31
0.0
  0
LINE
  5
189
330
2
100
AcDbEntity
  8
0
  6
Continuous
370
     5
100
AcDbLine
 10
233356.9116305827
 20
136805.9978277578
 30
0.0
 11
233356.9116305827
 21
136797.1521566904
 31
0.0
  0
HATCH
  5
18A
330
2
100
AcDbEntity
  8
0
370
     5
100
AcDbHatch
 10
0.0
 20
0.0
 30
0.0
210
0.0
220
0.0
230
1.0
  2
SOLID
 70
     1
 71
     0
 91
        1
 92
        7
 72
     0
 73
     1
 93
        4
 10
233335.5893001124
 20
136839.82982622
 10
233363.1664645786
 20
136812.2526617538
 10
233426.8060748855
 20
136875.8922720606
 10
233399.2289104191
 20
136903.4694365268
 97
        0
 75
     0
 76
     1
 47
1.494985917988874
 98
        1
 10
233360.3505517915
 20
136851.0414876827
1001
ACAD
1010
0.0
1020
0.0
1030
0.0
  0
HATCH
  5
18B
330
2
100
AcDbEntity
  8
0
370
     5
100
AcDbHatch
 10
0.0
 20
0.0
 30
0.0
210
0.0
220
0.0
230
1.0
  2
SOLID
 70
     1
 71
     1
 91
        1
 92
        7
 72
     0
 73
     1
 93
        4
 10
233363.1664645786
 20
136692.051651627
 10
233335.5893001123
 20
136664.4744871607
 10
233399.2289104191
 20
136600.8348768539
 10
233426.8060748854
 20
136628.4120413202
 97
        2
330
1FD
330
193
 75
     0
 76
     1
 47
1.494985917988874
 98
        1
 10
233364.8386666338
 20
136667.1582067388
1001
ACAD
1010
0.0
1020
0.0
1030
0.0
  0
HATCH
  5
18C
330
2
100
AcDbEntity
  8
0
370
     5
100
AcDbHatch
 10
0.0
 20
0.0
 30
0.0
210
0.0
220
0.0
230
1.0
  2
SOLID
 70
     1
 71
     1
 91
        1
 92
        7
 72
     0
 73
     1
 93
        4
 10
233317.9116305827
 20
136707.1521566904
 10
233356.9116305827
 20
136707.1521566904
 10
233356.9116305827
 20
136797.1521566904
 10
233317.9116305827
 20
136797.1521566904
 97
        3
330
18D
330
1FD
330
191
 75
     0
 76
     1
 47
1.494985917988874
 98
        1
 10
233334.9174951934
 20
136768.8172338082
1001
ACAD
1010
0.0
1020
0.0
1030
0.0
  0
LINE
  5
18D
102
{ACAD_REACTORS
330
18C
102
}
330
2
100
AcDbEntity
  8
0
  6
Continuous
370
     5
100
AcDbLine
 10
233356.9116305827
 20
136797.1521566904
 30
0.0
 11
233317.9116305827
 21
136797.1521566904
 31
0.0
  0
LINE
  5
18E
330
2
100
AcDbEntity
  8
0
  6
Continuous
370
     5
100
AcDbLine
 10
233317.9116305827
 20
136797.1521566904
 30
0.0
 11
233317.9116305827
 21
136822.1521566904
 31
0.0
  0
LINE
  5
18F
330
2
100
AcDbEntity
  8
0
  6
Continuous
370
     5
100
AcDbLine
 10
233356.9116305827
 20
136707.1521566904
 30
0.0
 11
233356.9116305827
 21
136698.3064856229
 31
0.0
  0
LINE
  5
190
330
2
100
AcDbEntity
  8
0
  6
Continuous
370
     5
100
AcDbLine
 10
233317.9116305827
 20
136682.1521566904
 30
0.0
 11
233317.9116305827
 21
136707.1521566904
 31
0.0
  0
LINE
  5
191
102
{ACAD_REACTORS
330
18C
102
}
330
2
100
AcDbEntity
  8
0
  6
Continuous
370
     5
100
AcDbLine
 10
233317.9116305827
 20
136707.1521566904
 30
0.0
 11
233356.9116305827
 21
136707.1521566904
 31
0.0
  0
LINE
  5
192
330
2
100
AcDbEntity
  8
0
  6
Continuous
370
     5
100
AcDbLine
 10
233356.9116305827
 20
136698.3064856229
 30
0.0
 11
233363.1664645786
 21
136692.051651627
 31
0.0
  0
LINE
  5
193
102
{ACAD_REACTORS
330
18B
102
}
330
2
100
AcDbEntity
  8
0
  6
Continuous
370
     5
100
AcDbLine
 10
233363.1664645786
 20
136692.051651627
 30
0.0
 11
233335.5893001124
 21
136664.4744871607
 31
0.0
  0
LINE
  5
194
330
2
100
AcDbEntity
  8
0
  6
Continuous
370
     5
100
AcDbLine
 10
233335.5893001124
 20
136664.4744871607
 30
0.0
 11
233317.9116305827
 21
136682.1521566904
 31
0.0
  0
LINE
  5
195
330
2
100
AcDbEntity
  8
0
  6
Continuous
370
     5
100
AcDbLine
 10
233426.8060748854
 20
136628.4120413202
 30
0.0
 11
233456.9116305827
 21
136598.3064856229
 31
0.0
  0
LINE
  5
196
330
2
100
AcDbEntity
  8
0
  6
Continuous
370
     5
100
AcDbLine
 10
233417.9116305827
 20
136582.1521566904
 30
0.0
 11
233399.2289104191
 21
136600.8348768539
 31
0.0
  0
LINE
  5
197
330
2
100
AcDbEntity
  8
0
  6
Continuous
370
     5
100
AcDbLine
 10
233399.2289104191
 20
136600.8348768539
 30
0.0
 11
233426.8060748854
 21
136628.4120413202
 31
0.0
  0
LINE
  5
198
330
2
100
AcDbEntity
  8
0
  6
Continuous
370
     5
100
AcDbLine
 10
233456.9116305827
 20
136905.9978277578
 30
0.0
 11
233426.8060748854
 21
136875.8922720606
 31
0.0
  0
LINE
  5
199
330
2
100
AcDbEntity
  8
0
  6
Continuous
370
     5
100
AcDbLine
 10
233426.8060748854
 20
136875.8922720606
 30
0.0
 11
233399.2289104191
 21
136903.4694365268
 31
0.0
  0
LINE
  5
19A
330
2
100
AcDbEntity
  8
0
  6
Continuous
370
     5
100
AcDbLine
 10
233399.2289104191
 20
136903.4694365268
 30
0.0
 11
233417.9116305827
 21
136922.1521566904
 31
0.0
  0
LINE
  5
19B
330
2
100
AcDbEntity
  8
0
  6
Continuous
370
     5
100
AcDbLine
 10
233363.1664645786
 20
136812.2526617538
 30
0.0
 11
233356.9116305827
 21
136805.9978277578
 31
0.0
  0
LINE
  5
19C
330
2
100
AcDbEntity
  8
0
  6
Continuous
370
     5
100
AcDbLine
 10
233317.9116305827
 20
136822.1521566904
 30
0.0
 11
233335.5893001124
 21
136839.82982622
 31
0.0
  0
LINE
  5
19D
330
2
100
AcDbEntity
  8
0
  6
Continuous
370
     5
100
AcDbLine
 10
233335.5893001124
 20
136839.82982622
 30
0.0
 11
233363.1664645786
 21
136812.2526617538
 31
0.0
  0
LINE
  5
19E
330
2
100
AcDbEntity
  8
0
  6
Continuous
370
     5
100
AcDbLine
 10
233456.9116305827
 20
136598.3064856229
 30
0.0
 11
233456.9116305827
 21
136502.1521566904
 31
0.0
  0
HATCH
  5
19F
330
2
100
AcDbEntity
  8
0
370
     5
100
AcDbHatch
 10
0.0
 20
0.0
 30
0.0
210
0.0
220
0.0
230
1.0
  2
SOLID
 70
     1
 71
     1
 91
        1
 92
        7
 72
     0
 73
     1
 93
        4
 10
233417.9116305827
 20
136382.1521566904
 10
233456.9116305827
 20
136382.1521566904
 10
233456.9116305827
 20
136502.1521566904
 10
233417.9116305827
 20
136502.1521566904
 97
        4
330
1A0
330
1FB
330
1A4
330
1FC
 75
     0
 76
     1
 47
1.569704254784129
 98
        1
 10
233446.4470308577
 20
136444.1980319817
1001
ACAD
1010
0.0
1020
0.0
1030
0.0
  0
LINE
  5
1A0
102
{ACAD_REACTORS
330
19F
102
}
330
2
100
AcDbEntity
  8
0
  6
Continuous
370
     5
100
AcDbLine
 10
233456.9116305827
 20
136502.1521566904
 30
0.0
 11
233417.9116305827
 21
136502.1521566904
 31
0.0
  0
LINE
  5
1A1
330
2
100
AcDbEntity
  8
0
  6
Continuous
370
     5
100
AcDbLine
 10
233417.9116305827
 20
136502.1521566904
 30
0.0
 11
233417.9116305827
 21
136582.1521566904
 31
0.0
  0
LINE
  5
1A2
330
2
100
AcDbEntity
  8
0
  6
Continuous
370
     5
100
AcDbLine
 10
233456.9116305827
 20
136382.1521566904
 30
0.0
 11
233456.9116305827
 21
136256.1521566904
 31
0.0
  0
LINE
  5
1A3
330
2
100
AcDbEntity
  8
0
  6
Continuous
370
     5
100
AcDbLine
 10
233417.9116305827
 20
136217.1521566904
 30
0.0
 11
233417.9116305827
 21
136382.1521566904
 31
0.0
  0
LINE
  5
1A4
102
{ACAD_REACTORS
330
19F
102
}
330
2
100
AcDbEntity
  8
0
  6
Continuous
370
     5
100
AcDbLine
 10
233417.9116305827
 20
136382.1521566904
 30
0.0
 11
233456.9116305827
 21
136382.1521566904
 31
0.0
  0
LINE
  5
1A5
102
{ACAD_REACTORS
330
174
102
}
330
2
100
AcDbEntity
  8
0
  6
Continuous
370
     5
100
AcDbLine
 10
234078.9116305827
 20
136326.1521566904
 30
0.0
 11
234158.9116305827
 21
136326.1521566904
 31
0.0
  0
LINE
  5
1A6
102
{ACAD_REACTORS
330
174
102
}
330
2
100
AcDbEntity
  8
0
  6
Continuous
370
     5
100
AcDbLine
 10
234158.9116305827
 20
136326.1521566904
 30
0.0
 11
234158.9116305827
 21
136287.1521566904
 31
0.0
  0
LINE
  5
1A7
102
{ACAD_REACTORS
330
174
102
}
330
2
100
AcDbEntity
  8
0
  6
Continuous
370
     5
100
AcDbLine
 10
234158.9116305827
 20
136287.1521566904
 30
0.0
 11
234117.9116305827
 21
136287.1521566904
 31
0.0
  0
HATCH
  5
1A8
330
2
100
AcDbEntity
  8
0
 48
4.0
370
     5
100
AcDbHatch
 10
0.0
 20
0.0
 30
0.0
210
0.0
220
0.0
230
1.0
  2
SOLID
 70
     1
 71
     0
 91
        2
 92
        7
 72
     0
 73
     1
 93
        6
 10
234333.9088680831
 20
136967.1521566904
 10
234477.9116305827
 20
136967.1521566904
 10
234477.9116305827
 20
136677.1521566904
 10
234438.9116305827
 20
136677.1521566904
 10
234438.9116305827
 20
136928.1521566904
 10
234333.9088680831
 20
136928.1521566904
 97
        0
 92
        7
 72
     0
 73
     1
 93
        6
 10
234438.9116305827
 20
136577.1521566904
 10
234477.9116305827
 20
136577.1521566904
 10
234477.9116305828
 20
136287.1521566904
 10
234408.9116305827
 20
136287.1521566904
 10
234408.9116305827
 20
136326.1521566904
 10
234438.9116305827
 20
136326.1521566904
 97
        0
 75
     0
 76
     1
 47
1.907679091602504
 98
        2
 10
234423.3418105059
 20
136959.9342270051
 10
234455.7941030303
 20
136450.5839038894
1001
ACAD
1010
0.0
1020
0.0
1030
0.0
  0
LINE
  5
1A9
330
2
100
AcDbEntity
  8
0
  6
Continuous
370
     5
100
AcDbLine
 10
234408.9116305827
 20
136326.1521566904
 30
0.0
 11
234438.9116305827
 21
136326.1521566904
 31
0.0
  0
LINE
  5
1AA
330
2
100
AcDbEntity
  8
0
  6
Continuous
370
     5
100
AcDbLine
 10
234477.9116305827
 20
136287.1521566904
 30
0.0
 11
234408.9116305827
 21
136287.1521566904
 31
0.0
  0
LINE
  5
1AB
330
2
100
AcDbEntity
  8
0
  6
Continuous
370
     5
100
AcDbLine
 10
234408.9116305827
 20
136287.1521566904
 30
0.0
 11
234408.9116305827
 21
136326.1521566904
 31
0.0
  0
LINE
  5
1AC
330
2
100
AcDbEntity
  8
0
  6
Continuous
370
     5
100
AcDbLine
 10
234117.9116305827
 20
137037.1521566904
 30
0.0
 11
234117.9116305827
 21
136967.1521566904
 31
0.0
  0
LINE
  5
1AD
330
2
100
AcDbEntity
  8
0
  6
Continuous
370
     5
100
AcDbLine
 10
234438.9116305827
 20
136928.1521566904
 30
0.0
 11
234333.9088680831
 21
136928.1521566904
 31
0.0
  0
LINE
  5
1AE
102
{ACAD_REACTORS
330
2D0
102
}
330
2
100
AcDbEntity
  8
0
  6
Continuous
370
     5
100
AcDbLine
 10
234333.9088680831
 20
136928.1521566904
 30
0.0
 11
234333.9088680831
 21
136967.1521566904
 31
0.0
  0
LINE
  5
1AF
330
2
100
AcDbEntity
  8
0
  6
Continuous
370
     5
100
AcDbLine
 10
234333.9088680831
 20
136967.1521566904
 30
0.0
 11
234477.9116305827
 21
136967.1521566904
 31
0.0
  0
LINE
  5
1B0
330
2
100
AcDbEntity
  8
0
  6
Continuous
370
     5
100
AcDbLine
 10
234233.9088680831
 20
136928.1521566904
 30
0.0
 11
234108.9116305827
 21
136928.1521566904
 31
0.0
  0
LINE
  5
1B1
330
2
100
AcDbEntity
  8
0
  6
Continuous
370
     5
100
AcDbLine
 10
234117.9116305827
 20
136967.1521566904
 30
0.0
 11
234233.9088680831
 21
136967.1521566904
 31
0.0
  0
LINE
  5
1B2
102
{ACAD_REACTORS
330
2D0
102
}
330
2
100
AcDbEntity
  8
0
  6
Continuous
370
     5
100
AcDbLine
 10
234233.9088680831
 20
136967.1521566904
 30
0.0
 11
234233.9088680831
 21
136928.1521566904
 31
0.0
  0
LINE
  5
1B3
330
2
100
AcDbEntity
  8
0
  6
Continuous
370
     5
100
AcDbLine
 10
234438.9116305827
 20
136326.1521566904
 30
0.0
 11
234438.9116305827
 21
136577.1521566904
 31
0.0
  0
HATCH
  5
1B4
330
2
100
AcDbEntity
  8
0
370
     5
100
AcDbHatch
 10
0.0
 20
0.0
 30
0.0
210
0.0
220
0.0
230
1.0
  2
SOLID
 70
     1
 71
     1
 91
        1
 92
        7
 72
     0
 73
     1
 93
        4
 10
234477.9116305827
 20
136677.1521566904
 10
234438.9116305826
 20
136677.1521566904
 10
234438.9116305827
 20
136577.1521566904
 10
234477.9116305827
 20
136577.1521566904
 97
        4
330
1B9
330
1F0
330
1B5
330
1F1
 75
     0
 76
     1
 47
1.14566181072168
 98
        1
 10
234459.0067467082
 20
136637.8461948791
1001
ACAD
1010
0.0
1020
0.0
1030
0.0
  0
LINE
  5
1B5
102
{ACAD_REACTORS
330
1B4
102
}
330
2
100
AcDbEntity
  8
0
  6
Continuous
370
     5
100
AcDbLine
 10
234438.9116305827
 20
136577.1521566904
 30
0.0
 11
234477.9116305827
 21
136577.1521566904
 31
0.0
  0
LINE
  5
1B6
330
2
100
AcDbEntity
  8
0
  6
Continuous
370
     5
100
AcDbLine
 10
234477.9116305827
 20
136577.1521566904
 30
0.0
 11
234477.9116305827
 21
136287.1521566904
 31
0.0
  0
LINE
  5
1B7
330
2
100
AcDbEntity
  8
0
  6
Continuous
370
     5
100
AcDbLine
 10
234438.9116305827
 20
136677.1521566904
 30
0.0
 11
234438.9116305827
 21
136928.1521566904
 31
0.0
  0
LINE
  5
1B8
330
2
100
AcDbEntity
  8
0
  6
Continuous
370
     5
100
AcDbLine
 10
234477.9116305827
 20
136967.1521566904
 30
0.0
 11
234477.9116305827
 21
136677.1521566904
 31
0.0
  0
LINE
  5
1B9
102
{ACAD_REACTORS
330
1B4
102
}
330
2
100
AcDbEntity
  8
0
  6
Continuous
370
     5
100
AcDbLine
 10
234477.9116305827
 20
136677.1521566904
 30
0.0
 11
234438.9116305827
 21
136677.1521566904
 31
0.0
  0
LINE
  5
1BA
330
2
100
AcDbEntity
  8
0
  6
Continuous
370
     5
100
AcDbLine
 10
234078.9116305827
 20
136928.1521566904
 30
0.0
 11
234078.9116305827
 21
136998.1521566904
 31
0.0
  0
LINE
  5
1BB
330
2
100
AcDbEntity
  8
0
  6
Continuous
370
     5
100
AcDbLine
 10
233606.9116305827
 20
136231.1521566904
 30
0.0
 11
233606.9116305827
 21
136238.1521566904
 31
0.0
  0
LINE
  5
1BC
330
2
100
AcDbEntity
  8
0
  6
Continuous
370
     5
100
AcDbLine
 10
233917.9116305827
 20
137022.6521566904
 30
0.0
 11
233917.9116305827
 21
137012.6521566904
 31
0.0
  0
LINE
  5
1BD
330
2
100
AcDbEntity
  8
0
  6
Continuous
370
     5
100
AcDbLine
 10
233617.9116305827
 20
137012.6521566904
 30
0.0
 11
233617.9116305827
 21
137022.6521566904
 31
0.0
  0
LWPOLYLINE
  5
1BE
330
2
100
AcDbEntity
  8
0
 48
4.0
370
     5
100
AcDbPolyline
 90
        2
 70
     0
 43
0.0
 10
234158.9116305827
 20
136287.1521566904
 10
234408.9116305827
 20
136287.1521566904
  0
LINE
  5
1BF
330
2
100
AcDbEntity
  8
0
  6
Continuous
370
     5
100
AcDbLine
 10
234018.9116305827
 20
137037.1521566904
 30
0.0
 11
234018.9116305827
 21
137217.1521566904
 31
0.0
  0
ARC
  5
1C0
330
2
100
AcDbEntity
  8
0
  6
Continuous
370
     5
100
AcDbCircle
 10
233456.9116305827
 20
136998.1521566904
 30
0.0
 40
270.000000000001
100
AcDbArc
 50
36.07819997242529
 51
237.2659214764375
  0
LINE
  5
1C1
330
2
100
AcDbEntity
  8
0
  6
Continuous
370
     5
100
AcDbLine
 10
233675.1294117097
 20
137157.1521566904
 30
0.0
 11
234018.9116305827
 21
137157.1521566904
 31
0.0
  0
LINE
  5
1C2
330
2
100
AcDbEntity
  8
0
  6
Continuous
370
     5
100
AcDbLine
 10
233417.9116305827
 20
137037.1521566904
 30
0.0
 11
233417.9116305827
 21
136922.1521566904
 31
0.0
  0
ARC
  5
1C3
330
2
100
AcDbEntity
  8
0
  6
Continuous
370
     5
100
AcDbCircle
 10
233456.9116305827
 20
136998.1521566904
 30
0.0
 40
300.0000000000002
100
AcDbArc
 50
39.05012253711098
 51
240.8782743055132
  0
ARC
  5
1C4
330
2
100
AcDbEntity
  8
0
  6
Continuous
370
     5
100
AcDbCircle
 10
233767.7029407609
 20
136142.3296561852
 30
0.0
 40
170.6455213431021
100
AcDbArc
 50
197.8042193210205
 51
342.1957806789795
  0
LINE
  5
1C5
330
2
100
AcDbEntity
  8
0
  6
Continuous
370
     5
100
AcDbLine
 10
233642.9116305827
 20
136090.1521566904
 30
0.0
 11
233573.9604988914
 21
136090.1521566904
 31
0.0
  0
LINE
  5
1C6
102
{ACAD_REACTORS
330
174
102
}
330
2
100
AcDbEntity
  8
0
  6
Continuous
370
     5
100
AcDbLine
 10
234117.9116305827
 20
136167.1521566904
 30
0.0
 11
234117.9116305827
 21
136287.1521566904
 31
0.0
  0
LINE
  5
1C7
330
2
100
AcDbEntity
  8
0
  6
Continuous
370
     5
100
AcDbLine
 10
234117.9116305827
 20
136167.1521566904
 30
0.0
 11
234452.9116305827
 21
136167.1521566904
 31
0.0
  0
LINE
  5
1C8
330
2
100
AcDbEntity
  8
0
  6
Continuous
370
     5
100
AcDbLine
 10
234452.9116305827
 20
136167.1521566904
 30
0.0
 11
234452.9116305827
 21
136287.1521566904
 31
0.0
  0
LINE
  5
1C9
330
2
100
AcDbEntity
  8
0
  6
Continuous
370
     5
100
AcDbLine
 10
234452.9116305827
 20
136237.1521566904
 30
0.0
 11
234117.9116305827
 21
136237.1521566904
 31
0.0
  0
LINE
  5
1CA
102
{ACAD_REACTORS
330
2D0
102
}
330
2
100
AcDbEntity
  8
0
  6
Continuous
370
     5
100
AcDbLine
 10
234363.9072219521
 20
136967.1544774557
 30
0.0
 11
234203.907221952
 21
136967.1544774557
 31
0.0
  0
LINE
  5
1CB
330
2
100
AcDbEntity
  8
0
  6
Continuous
370
     5
100
AcDbLine
 10
234203.907221952
 20
136967.1544774557
 30
0.0
 11
234203.907221952
 21
137067.1544774557
 31
0.0
  0
LINE
  5
1CC
330
2
100
AcDbEntity
  8
0
  6
Continuous
370
     5
100
AcDbLine
 10
234203.907221952
 20
137067.1544774557
 30
0.0
 11
234363.9072219521
 21
137067.1544774557
 31
0.0
  0
LINE
  5
1CD
330
2
100
AcDbEntity
  8
0
  6
Continuous
370
     5
100
AcDbLine
 10
234363.9072219521
 20
137067.1544774557
 30
0.0
 11
234363.9072219521
 21
136967.1544774557
 31
0.0
  0
ARC
  5
1CE
330
2
100
AcDbEntity
  8
0
  6
Continuous
370
     5
100
AcDbCircle
 10
-233767.7029407609
 20
136142.3296561852
 30
0.0
 40
170.6455213431023
210
0.0
220
0.0
230
-1.0
100
AcDbArc
 50
197.8042193210205
 51
342.1957806789795
  0
LINE
  5
1CF
330
2
100
AcDbEntity
  8
0
  6
Continuous
370
     5
100
AcDbLine
 10
233961.4453826302
 20
136090.1521566904
 30
0.0
 11
233892.9116305827
 21
136090.1521566904
 31
0.0
  0
ARC
  5
1D0
330
2
100
AcDbEntity
  8
0
  6
Continuous
370
     5
100
AcDbCircle
 10
233767.7029407609
 20
136142.3296561852
 30
0.0
 40
200.645521343102
100
AcDbArc
 50
195.0729200614316
 51
344.9270799385684
  0
LINE
  5
1D1
330
2
100
AcDbEntity
  8
0
  6
Continuous
370
     5
100
AcDbLine
 10
233642.9116305827
 20
136090.1521566904
 30
0.0
 11
233642.9116305827
 21
136217.1521566904
 31
0.0
  0
LINE
  5
1D2
330
2
100
AcDbEntity
  8
0
  6
Continuous
370
     5
100
AcDbLine
 10
233892.9116305827
 20
136217.1521566904
 30
0.0
 11
233892.9116305827
 21
136090.1521566904
 31
0.0
  0
ARC
  5
1D3
330
2
100
AcDbEntity
  8
0
  6
Continuous
370
     5
100
AcDbCircle
 10
233767.7029407609
 20
136142.3296561852
 30
0.0
 40
135.6455213431011
100
AcDbArc
 50
202.6226769466207
 51
337.3773230533793
  0
ARC
  5
1D4
330
2
100
AcDbEntity
  8
0
  6
Continuous
370
     5
100
AcDbCircle
 10
233456.9116305827
 20
136998.1521566904
 30
0.0
 40
330.0000000000027
100
AcDbArc
 50
41.57779578600078
 51
115.8720959649262
  0
LINE
  5
1D5
330
2
100
AcDbEntity
  8
0
  6
Continuous
370
     5
100
AcDbLine
 10
233703.7698895088
 20
137217.1521566904
 30
0.0
 11
234018.9116305827
 21
137217.1521566904
 31
0.0
  0
LINE
  5
1D6
330
2
100
AcDbEntity
  8
0
  6
Continuous
370
     5
100
AcDbLine
 10
234018.9116305827
 20
137187.1521566904
 30
0.0
 11
233689.890170367
 21
137187.1521566904
 31
0.0
  0
ARC
  5
1D7
330
2
100
AcDbEntity
  8
0
  6
Continuous
370
     5
100
AcDbCircle
 10
-233456.9116305827
 20
136998.1521566904
 30
0.0
 40
300.0000000000008
210
0.0
220
0.0
230
-1.0
100
AcDbArc
 50
299.1217256944867
 51
140.949877462889
  0
ARC
  5
1D8
330
2
100
AcDbEntity
  8
0
  6
Continuous
370
     5
100
AcDbCircle
 10
233456.9116305827
 20
136998.1521566904
 30
0.0
 40
330.0000000000004
100
AcDbArc
 50
115.8720959649262
 51
243.7413400651223
  0
LINE
  5
1D9
330
2
100
AcDbEntity
  8
0
  6
Continuous
370
     5
390
DD
100
AcDbLine
 10
233949.9116305827
 20
136102.1521566904
 30
0.0
 11
233949.9116305827
 21
136205.1521566904
 31
0.0
  0
LINE
  5
1DA
330
2
100
AcDbEntity
  8
0
  6
Continuous
370
     5
390
DD
100
AcDbLine
 10
233961.9116305827
 20
136217.1521566904
 30
0.0
 11
233961.9116305827
 21
136090.1521566904
 31
0.0
  0
LINE
  5
1DB
330
2
100
AcDbEntity
  8
0
  6
Continuous
370
     5
390
DD
100
AcDbLine
 10
233904.9116305827
 20
136205.1521566904
 30
0.0
 11
233904.9116305827
 21
136102.1521566904
 31
0.0
  0
LINE
  5
1DC
330
2
100
AcDbEntity
  8
0
  6
Continuous
370
     5
390
DD
100
AcDbLine
 10
233892.9116305827
 20
136090.1521566904
 30
0.0
 11
233892.9116305827
 21
136217.1521566904
 31
0.0
  0
LINE
  5
1DD
330
2
100
AcDbEntity
  8
0
  6
Continuous
370
     5
390
DD
100
AcDbLine
 10
233630.9116305827
 20
136102.1521566904
 30
0.0
 11
233630.9116305827
 21
136205.1521566904
 31
0.0
  0
LINE
  5
1DE
330
2
100
AcDbEntity
  8
0
  6
Continuous
370
     5
390
DD
100
AcDbLine
 10
233642.9116305827
 20
136217.1521566904
 30
0.0
 11
233642.9116305827
 21
136090.1521566904
 31
0.0
  0
LINE
  5
1DF
330
2
100
AcDbEntity
  8
0
  6
Continuous
370
     5
390
DD
100
AcDbLine
 10
233585.9116305827
 20
136102.1521566904
 30
0.0
 11
233630.9116305827
 21
136102.1521566904
 31
0.0
  0
LINE
  5
1E0
330
2
100
AcDbEntity
  8
0
  6
Continuous
370
     5
390
DD
100
AcDbLine
 10
233642.9116305827
 20
136090.1521566904
 30
0.0
 11
233573.9116305827
 21
136090.1521566904
 31
0.0
  0
LINE
  5
1E1
330
2
100
AcDbEntity
  8
0
  6
Continuous
370
     5
390
DD
100
AcDbLine
 10
233585.9116305827
 20
136205.1521566904
 30
0.0
 11
233585.9116305827
 21
136102.1521566904
 31
0.0
  0
LINE
  5
1E2
330
2
100
AcDbEntity
  8
0
  6
Continuous
370
     5
390
DD
100
AcDbLine
 10
233573.9116305827
 20
136090.1521566904
 30
0.0
 11
233573.9116305827
 21
136217.1521566904
 31
0.0
  0
LINE
  5
1E3
330
2
100
AcDbEntity
  8
0
  6
Continuous
370
     5
390
DD
100
AcDbLine
 10
233949.9116305827
 20
136205.1521566904
 30
0.0
 11
233904.9116305827
 21
136205.1521566904
 31
0.0
  0
LINE
  5
1E4
330
2
100
AcDbEntity
  8
0
  6
Continuous
370
     5
390
DD
100
AcDbLine
 10
233630.9116305827
 20
136205.1521566904
 30
0.0
 11
233585.9116305827
 21
136205.1521566904
 31
0.0
  0
LINE
  5
1E5
330
2
100
AcDbEntity
  8
0
  6
Continuous
370
     5
390
DD
100
AcDbLine
 10
233904.9116305827
 20
136102.1521566904
 30
0.0
 11
233949.9116305827
 21
136102.1521566904
 31
0.0
  0
LINE
  5
1E6
330
2
100
AcDbEntity
  8
0
  6
Continuous
370
     5
390
DD
100
AcDbLine
 10
233961.9116305827
 20
136090.1521566904
 30
0.0
 11
233892.9116305827
 21
136090.1521566904
 31
0.0
  0
LINE
  5
1E7
330
2
100
AcDbEntity
  8
0
  6
Continuous
370
     5
390
DD
100
AcDbLine
 10
234073.9116305827
 20
137205.1521566904
 30
0.0
 11
234030.9116305827
 21
137205.1521566904
 31
0.0
  0
LINE
  5
1E8
330
2
100
AcDbEntity
  8
0
  6
Continuous
370
     5
390
DD
100
AcDbLine
 10
234018.9116305827
 20
137217.1521566904
 30
0.0
 11
234085.9116305827
 21
137217.1521566904
 31
0.0
  0
LINE
  5
1E9
330
2
100
AcDbEntity
  8
0
  6
Continuous
370
     5
390
DD
100
AcDbLine
 10
234030.9116305827
 20
137205.1521566904
 30
0.0
 11
234030.9116305827
 21
137049.1521566904
 31
0.0
  0
LINE
  5
1EA
330
2
100
AcDbEntity
  8
0
  6
Continuous
370
     5
390
DD
100
AcDbLine
 10
234018.9116305827
 20
137037.1521566904
 30
0.0
 11
234018.9116305827
 21
137217.1521566904
 31
0.0
  0
LINE
  5
1EB
330
2
100
AcDbEntity
  8
0
  6
Continuous
370
     5
390
DD
100
AcDbLine
 10
234073.9116305827
 20
137049.1521566904
 30
0.0
 11
234073.9116305827
 21
137205.1521566904
 31
0.0
  0
LINE
  5
1EC
330
2
100
AcDbEntity
  8
0
  6
Continuous
370
     5
390
DD
100
AcDbLine
 10
234085.9116305827
 20
137217.1521566904
 30
0.0
 11
234085.9116305827
 21
137037.1521566904
 31
0.0
  0
LINE
  5
1ED
330
2
100
AcDbEntity
  8
0
  6
Continuous
370
     5
390
DD
100
AcDbLine
 10
234030.9116305827
 20
137049.1521566904
 30
0.0
 11
234073.9116305827
 21
137049.1521566904
 31
0.0
  0
LINE
  5
1EE
330
2
100
AcDbEntity
  8
0
  6
Continuous
370
     5
390
DD
100
AcDbLine
 10
234085.9116305827
 20
137037.1521566904
 30
0.0
 11
234018.9116305827
 21
137037.1521566904
 31
0.0
  0
LWPOLYLINE
  5
1EF
330
2
100
AcDbEntity
  8
0
 48
4.0
370
     5
100
AcDbPolyline
 90
        2
 70
     0
 43
0.0
 10
234158.9116305827
 20
136326.1521566904
 10
234408.9116305827
 20
136326.1521566904
  0
LWPOLYLINE
  5
1F0
102
{ACAD_REACTORS
330
1B4
102
}
330
2
100
AcDbEntity
  8
0
370
     5
100
AcDbPolyline
 90
        2
 70
     0
 43
0.0
 10
234477.9116305827
 20
136677.1521566904
 10
234477.9116305827
 20
136577.1521566904
  0
LWPOLYLINE
  5
1F1
102
{ACAD_REACTORS
330
1B4
102
}
330
2
100
AcDbEntity
  8
0
370
     5
100
AcDbPolyline
 90
        2
 70
     0
 43
0.0
 10
234438.9116305827
 20
136677.1521566904
 10
234438.9116305827
 20
136577.1521566904
  0
LINE
  5
1F2
102
{ACAD_REACTORS
330
2D0
102
}
330
2
100
AcDbEntity
  8
0
  6
Continuous
370
     5
100
AcDbLine
 10
234333.9088680831
 20
136928.1544774557
 30
0.0
 11
234173.9088680831
 21
136928.1544774557
 31
0.0
  0
LWPOLYLINE
  5
1F3
102
{ACAD_REACTORS
330
2C3
102
}
330
2
100
AcDbEntity
  8
0
370
     5
100
AcDbPolyline
 90
        2
 70
     0
 43
0.0
 10
233917.9116305827
 20
137037.1521566904
 10
233617.9116305827
 20
137037.1521566904
  0
LWPOLYLINE
  5
1F4
102
{ACAD_REACTORS
330
2C3
102
}
330
2
100
AcDbEntity
  8
0
370
     5
100
AcDbPolyline
 90
        2
 70
     0
 43
0.0
 10
233917.9116305827
 20
136998.1521566904
 10
233617.9116305827
 20
136998.1521566904
  0
LWPOLYLINE
  5
1F5
102
{ACAD_REACTORS
330
176
102
}
330
2
100
AcDbEntity
  8
0
370
     5
100
AcDbPolyline
 90
        2
 70
     0
 43
0.0
 10
234018.9116305827
 20
136256.1521566904
 10
233928.9116305827
 20
136256.1521566904
  0
LWPOLYLINE
  5
1F6
102
{ACAD_REACTORS
330
176
102
}
330
2
100
AcDbEntity
  8
0
370
     5
100
AcDbPolyline
 90
        2
 70
     0
 43
0.0
 10
234018.9116305827
 20
136217.1521566904
 10
233928.9116305827
 20
136217.1521566904
  0
LWPOLYLINE
  5
1F7
330
2
100
AcDbEntity
  8
0
370
     5
100
AcDbPolyline
 90
        2
 70
     0
 43
0.0
 10
233822.9116305827
 20
136256.1521566904
 10
233712.9116305827
 20
136256.1521566904
  0
LWPOLYLINE
  5
1F8
330
2
100
AcDbEntity
  8
0
370
     5
100
AcDbPolyline
 90
        2
 70
     0
 43
0.0
 10
233822.9116305827
 20
136217.1521566904
 10
233712.9116305827
 20
136217.1521566904
  0
LWPOLYLINE
  5
1F9
102
{ACAD_REACTORS
330
16A
102
}
330
2
100
AcDbEntity
  8
0
370
     5
100
AcDbPolyline
 90
        2
 70
     0
 43
0.0
 10
233606.9116305827
 20
136256.1521566904
 10
233516.9116305827
 20
136256.1521566904
  0
LWPOLYLINE
  5
1FA
102
{ACAD_REACTORS
330
16A
102
}
330
2
100
AcDbEntity
  8
0
370
     5
100
AcDbPolyline
 90
        2
 70
     0
 43
0.0
 10
233606.9116305827
 20
136217.1521566904
 10
233516.9116305827
 20
136217.1521566904
  0
LWPOLYLINE
  5
1FB
102
{ACAD_REACTORS
330
19F
102
}
330
2
100
AcDbEntity
  8
0
370
     5
100
AcDbPolyline
 90
        2
 70
     0
 43
0.0
 10
233456.9116305827
 20
136502.1521566904
 10
233456.9116305827
 20
136382.1521566904
  0
LWPOLYLINE
  5
1FC
102
{ACAD_REACTORS
330
19F
102
}
330
2
100
AcDbEntity
  8
0
370
     5
100
AcDbPolyline
 90
        2
 70
     0
 43
0.0
 10
233417.9116305827
 20
136502.1521566904
 10
233417.9116305827
 20
136382.1521566904
  0
LWPOLYLINE
  5
1FD
102
{ACAD_REACTORS
330
18B
330
18C
102
}
330
2
100
AcDbEntity
  8
0
370
     5
100
AcDbPolyline
 90
       15
 70
     0
 43
0.0
 10
233399.2289104191
 20
136903.4694365268
 10
233335.5893001124
 20
136839.82982622
 10
233317.9116305827
 20
136822.1521566904
 10
233317.9116305827
 20
136797.1521566904
 10
233317.9116305827
 20
136707.1521566904
 10
233317.9116305827
 20
136682.1521566904
 10
233399.2289104191
 20
136600.8348768539
 10
233426.8060748854
 20
136628.4120413202
 10
233363.1664645786
 20
136692.051651627
 10
233356.9116305827
 20
136698.3064856229
 10
233356.9116305827
 20
136707.1521566904
 10
233356.9116305827
 20
136797.1521566904
 10
233356.9116305827
 20
136805.9978277578
 10
233426.8060748854
 20
136875.8922720606
 10
233399.2289104191
 20
136903.4694365268
  0
DIMENSION
  5
1FE
330
2
100
AcDbEntity
  8
0
370
     5
100
AcDbDimension
  2
*D24
 10
234117.9116305827
 20
137425.9576270162
 30
0.0
 11
234297.9116305827
 21
137505.9576270162
 31
0.0
 70
    32
 71
     5
 42
359.9999999999709
  3
500
100
AcDbAlignedDimension
 13
234477.9116305827
 23
136967.1521566904
 33
0.0
 14
234117.9116305827
 24
137037.1521566904
 34
0.0
 50
180.0
100
AcDbRotatedDimension
  0
DIMENSION
  5
209
330
2
100
AcDbEntity
  8
0
370
     5
100
AcDbDimension
  2
*D23
 10
233417.9116305827
 20
137425.9576270162
 30
0.0
 11
233767.9116305827
 21
137505.9576270162
 31
0.0
 70
    32
 71
     5
 42
700.0
  3
500
100
AcDbAlignedDimension
 13
234117.9116305827
 23
137037.1521566904
 33
0.0
 14
233417.9116305827
 24
137037.1521566904
 34
0.0
 50
180.0
100
AcDbRotatedDimension
  0
DIMENSION
  5
214
330
2
100
AcDbEntity
  8
0
370
     5
100
AcDbDimension
  2
*D22
 10
233317.9116305827
 20
137425.9576270162
 30
0.0
 11
233367.9116305827
 21
137505.9576270162
 31
0.0
 70
    32
 71
     5
 42
100.0000000000291
  3
500
100
AcDbAlignedDimension
 13
233417.9116305827
 23
137037.1521566904
 33
0.0
 14
233317.9116305827
 24
136822.1521566904
 34
0.0
 50
180.0
100
AcDbRotatedDimension
  0
DIMENSION
  5
221
330
2
100
AcDbEntity
  8
0
370
     5
100
AcDbDimension
  2
*D21
 10
233317.9116305827
 20
137614.3405796827
 30
0.0
 11
233897.9116305827
 21
137694.3405796827
 31
0.0
 70
    32
 71
     5
 42
1160.0
  3
500
100
AcDbAlignedDimension
 13
234477.9116305827
 23
136967.1521566904
 33
0.0
 14
233317.9116305827
 24
136822.1521566904
 34
0.0
 50
180.0
100
AcDbRotatedDimension
  0
DIMENSION
  5
22C
330
2
100
AcDbEntity
  8
0
370
     5
100
AcDbDimension
  2
*D20
 10
234784.5195720177
 20
136967.1521566904
 30
0.0
 11
234704.5195720177
 21
137002.1521566904
 31
0.0
 70
    32
 71
     5
 42
70.0
  3
500
100
AcDbAlignedDimension
 13
234117.9116305827
 23
137037.1521566904
 33
0.0
 14
234477.9116305827
 24
136967.1521566904
 34
0.0
 50
90.0
100
AcDbRotatedDimension
  0
DIMENSION
  5
239
330
2
100
AcDbEntity
  8
0
370
     5
100
AcDbDimension
  2
*D19
 10
234784.5195720177
 20
136287.1521566904
 30
0.0
 11
234704.5195720177
 21
136627.1521566904
 31
0.0
 70
    32
 71
     5
 42
680.0
  3
500
100
AcDbAlignedDimension
 13
234477.9116305827
 23
136967.1521566904
 33
0.0
 14
234477.9116305827
 24
136287.1521566904
 34
0.0
 50
90.0
100
AcDbRotatedDimension
  0
DIMENSION
  5
244
330
2
100
AcDbEntity
  8
0
370
     5
100
AcDbDimension
  2
*D18
 10
234784.5195720177
 20
136217.1521566904
 30
0.0
 11
234704.5195720177
 21
136252.1521566904
 31
0.0
 70
    32
 71
     5
 42
70.0
  3
500
100
AcDbAlignedDimension
 13
234477.9116305827
 23
136287.1521566904
 33
0.0
 14
234117.9116305827
 24
136217.1521566904
 34
0.0
 50
90.0
100
AcDbRotatedDimension
  0
DIMENSION
  5
251
330
2
100
AcDbEntity
  8
0
370
     5
100
AcDbDimension
  2
*D17
 10
234972.9025246843
 20
137037.1521566904
 30
0.0
 11
234892.9025246842
 21
136627.1521566904
 31
0.0
 70
    32
 71
     5
 42
820.0
  3
500
100
AcDbAlignedDimension
 13
234117.9116305827
 23
136217.1521566904
 33
0.0
 14
234117.9116305827
 24
137037.1521566904
 34
0.0
 50
90.0
100
AcDbRotatedDimension
  0
HATCH
  5
2A9
330
2
100
AcDbEntity
  8
0
370
     5
100
AcDbHatch
 10
0.0
 20
0.0
 30
0.0
210
0.0
220
0.0
230
1.0
  2
SOLID
 70
     1
 71
     1
 91
        1
 92
        7
 72
     0
 73
     1
 93
        4
 10
229297.9828577013
 20
136967.1544774557
 10
229197.9828577014
 20
136967.1544774557
 10
229197.9828577013
 20
136928.1544774557
 10
229297.9828577013
 20
136928.1544774557
 97
        4
330
CD
330
AF
330
F6
330
B3
 75
     0
 76
     1
 47
2.312860269329626
 98
        1
 10
229256.1728381413
 20
136954.8334790935
1001
ACAD
1010
0.0
1020
0.0
1030
0.0
  0
HATCH
  5
2B6
330
2
100
AcDbEntity
  8
0
370
     5
100
AcDbHatch
 10
0.0
 20
0.0
 30
0.0
210
0.0
220
0.0
230
1.0
  2
SOLID
 70
     1
 71
     1
 91
        1
 92
        7
 72
     0
 73
     1
 93
        4
 10
229913.9800952017
 20
137037.1521566904
 10
229613.9800952017
 20
137037.1521566904
 10
229613.9800952017
 20
136998.1521566904
 10
229913.9800952017
 20
136998.1521566904
 97
        4
330
F7
330
85
330
F8
330
89
 75
     0
 76
     1
 47
2.312860269329626
 98
        1
 10
229767.6990733565
 20
137021.9065245251
1001
ACAD
1010
0.0
1020
0.0
1030
0.0
  0
HATCH
  5
2C3
330
2
100
AcDbEntity
  8
0
370
     5
100
AcDbHatch
 10
0.0
 20
0.0
 30
0.0
210
0.0
220
0.0
230
1.0
  2
SOLID
 70
     1
 71
     1
 91
        1
 92
        7
 72
     0
 73
     1
 93
        4
 10
233917.9116305827
 20
137037.1521566904
 10
233617.9116305827
 20
137037.1521566904
 10
233617.9116305827
 20
136998.1521566904
 10
233917.9116305827
 20
136998.1521566904
 97
        4
330
1F3
330
188
330
1F4
330
184
 75
     0
 76
     1
 47
1.612439387830567
 98
        1
 10
233834.7046221448
 20
137011.3005427392
1001
ACAD
1010
0.0
1020
0.0
1030
0.0
  0
HATCH
  5
2D0
330
2
100
AcDbEntity
  8
0
370
     5
100
AcDbHatch
 10
0.0
 20
0.0
 30
0.0
210
0.0
220
0.0
230
1.0
  2
SOLID
 70
     1
 71
     1
 91
        1
 92
        7
 72
     0
 73
     1
 93
        4
 10
234333.9088680831
 20
136967.1544774557
 10
234233.9088680831
 20
136967.1544774557
 10
234233.9088680831
 20
136928.1544774556
 10
234333.9088680831
 20
136928.1544774557
 97
        4
330
1CA
330
1B2
330
1F2
330
1AE
 75
     0
 76
     1
 47
1.612439387830567
 98
        1
 10
234294.5949328805
 20
136946.8030391837
1001
ACAD
1010
0.0
1020
0.0
1030
0.0
  0
ENDSEC
  0
SECTION
  2
OBJECTS
  0
DICTIONARY
  5
9
330
0
100
AcDbDictionary
281
     1
  3
ACAD_COLOR
350
3C
  3
ACAD_GROUP
350
37
  3
ACAD_LAYOUT
350
10
  3
ACAD_MATERIAL
350
B
  3
ACAD_MLEADERSTYLE
350
290
  3
ACAD_MLINESTYLE
350
38
  3
ACAD_PLOTSETTINGS
350
39
  3
ACAD_PLOTSTYLENAME
350
8
  3
ACAD_SCALELIST
350
3D
  3
ACAD_TABLESTYLE
350
3E
  3
ACAD_VISUALSTYLE
350
13
  3
ACDB_RECOMPOSE_DATA
350
27A
  3
AcDbVariableDictionary
350
27B
  3
ASE_INDEX_DICTIONARY
350
275
  3
DWGPROPS
350
48C
  0
DICTIONARY
  5
1A
330
19
100
AcDbDictionary
280
     1
281
     1
  3
ACAD_LAYERFILTERS
360
1B
  3
ACAD_LAYERSTATES
360
1C
  3
ACLYDICTIONARY
360
1D
  0
DICTIONARY
  5
475
330
6
100
AcDbDictionary
280
     1
281
     1
  3
ADSK_XREC_LAYER_RECONCILED
360
476
  0
DICTIONARY
  5
477
330
5D
100
AcDbDictionary
280
     1
281
     1
  3
ADSK_XREC_LAYER_RECONCILED
360
478
  0
DICTIONARY
  5
479
330
54
100
AcDbDictionary
280
     1
281
     1
  3
ADSK_XREC_LAYER_RECONCILED
360
47A
  0
DICTIONARY
  5
47B
330
3F
100
AcDbDictionary
280
     1
281
     1
  3
ADSK_XREC_LAYER_RECONCILED
360
47C
  0
DICTIONARY
  5
3
330
2
100
AcDbDictionary
280
     1
281
     1
  3
ACAD_SORTENTS
360
270
  0
DICTIONARY
  5
2E
330
2D
100
AcDbDictionary
280
     1
281
     1
  3
ACAD_SORTENTS
360
26F
  0
DICTIONARY
  5
3C
102
{ACAD_REACTORS
330
9
102
}
330
9
100
AcDbDictionary
281
     1
  0
DICTIONARY
  5
37
102
{ACAD_REACTORS
330
9
102
}
330
9
100
AcDbDictionary
281
     1
  0
DICTIONARY
  5
10
102
{ACAD_REACTORS
330
9
102
}
330
9
100
AcDbDictionary
281
     1
  3
Layout1
350
18
  3
Model
350
F
  0
DICTIONARY
  5
B
102
{ACAD_REACTORS
330
9
102
}
330
9
100
AcDbDictionary
281
     1
  3
ByBlock
350
3B
  3
ByLayer
350
3A
  3
Global
350
A
  0
DICTIONARY
  5
290
102
{ACAD_REACTORS
330
9
102
}
330
9
100
AcDbDictionary
281
     1
  3
Standard
350
291
  0
DICTIONARY
  5
38
102
{ACAD_REACTORS
330
9
102
}
330
9
100
AcDbDictionary
281
     1
  3
Standard
350
40
  0
DICTIONARY
  5
39
102
{ACAD_REACTORS
330
9
102
}
330
9
100
AcDbDictionary
281
     1
  0
ACDBDICTIONARYWDFLT
  5
8
102
{ACAD_REACTORS
330
9
102
}
330
9
100
AcDbDictionary
281
     1
  3
Medium
350
DD
  3
Normal
350
7
100
AcDbDictionaryWithDefault
340
7
  0
DICTIONARY
  5
3D
102
{ACAD_REACTORS
330
9
102
}
330
9
100
AcDbDictionary
281
     1
  3
A0
350
44
  3
A1
350
45
  3
A2
350
46
  3
A3
350
47
  3
A4
350
48
  3
A5
350
49
  3
A6
350
4A
  3
A7
350
4B
  3
A8
350
4C
  3
A9
350
4D
  3
B0
350
4E
  3
B1
350
4F
  3
B2
350
50
  3
B3
350
51
  3
B4
350
52
  0
DICTIONARY
  5
3E
102
{ACAD_REACTORS
330
9
102
}
330
9
100
AcDbDictionary
281
     1
  3
Standard
350
41
  0
DICTIONARY
  5
13
102
{ACAD_REACTORS
330
9
102
}
330
9
100
AcDbDictionary
281
     1
  3
2dWireframe
350
12
  3
3D Hidden
350
288
  3
3dWireframe
350
43
  3
Basic
350
287
  3
Brighten
350
28B
  3
ColorChange
350
28F
  3
Conceptual
350
289
  3
Dim
350
28A
  3
Facepattern
350
28E
  3
Flat
350
283
  3
FlatWithEdges
350
284
  3
Gouraud
350
285
  3
GouraudWithEdges
350
286
  3
Linepattern
350
28D
  3
Realistic
350
42
  3
Thicken
350
28C
  0
XRECORD
  5
27A
102
{ACAD_REACTORS
330
9
102
}
330
9
100
AcDbXrecord
280
     1
 90
        1
330
41
  0
DICTIONARY
  5
27B
102
{ACAD_REACTORS
330
9
102
}
330
9
100
AcDbDictionary
281
     1
  3
CANNOSCALE
350
27E
  3
CMLEADERSTYLE
350
27D
  3
CTABLESTYLE
350
27C
  3
DIMASSOC
350
48A
  3
HIDETEXT
350
489
  3
INDEXCTL
350
488
  3
LAYEREVAL
350
280
  3
LAYERNOTIFY
350
281
  3
LIGHTINGUNITS
350
27F
  3
MSLTSCALE
350
486
  3
SORTENTS
350
487
  0
DICTIONARY
  5
275
102
{ACAD_REACTORS
330
9
102
}
330
9
100
AcDbDictionary
281
     1
  3
ASEBlockHierarchyIndexRecord
350
277
1001
DCO15
1040
1660985307.812
  0
XRECORD
  5
48C
102
{ACAD_REACTORS
330
9
102
}
330
9
100
AcDbXrecord
280
     1
  1
DWGPROPS COOKIE
  2

  3

  4

  6

  7

  8
magdalena.jozwik
  9

300
=
301
=
302
=
303
=
304
=
305
=
306
=
307
=
308
=
309
=
 40
8.945105046296296
 41
2452027.670547454
 42
2455027.578840417
  1

 90
        0
  0
DICTIONARY
  5
1B
102
{ACAD_REACTORS
330
1A
102
}
330
1A
100
AcDbDictionary
281
     1
  0
DICTIONARY
  5
1C
102
{ACAD_REACTORS
330
1A
102
}
330
1A
100
AcDbDictionary
281
     1
  0
DICTIONARY
  5
1D
102
{ACAD_REACTORS
330
1A
102
}
330
1A
100
AcDbDictionary
281
     1
1001
ACAD
1000
<All
  0
XRECORD
  5
476
102
{ACAD_REACTORS
330
475
102
}
330
475
100
AcDbXrecord
280
     1
290
     1
  0
XRECORD
  5
478
102
{ACAD_REACTORS
330
477
102
}
330
477
100
AcDbXrecord
280
     1
290
     1
  0
XRECORD
  5
47A
102
{ACAD_REACTORS
330
479
102
}
330
479
100
AcDbXrecord
280
     1
290
     1
  0
XRECORD
  5
47C
102
{ACAD_REACTORS
330
47B
102
}
330
47B
100
AcDbXrecord
280
     1
290
     1
  0
SORTENTSTABLE
  5
270
102
{ACAD_REACTORS
330
3
102
}
330
3
100
AcDbSortentsTable
330
2
331
1E1
  5
1E5
331
D8
  5
DA
331
172
  5
174
331
F2
  5
F4
331
194
  5
197
331
1B6
  5
1BA
331
A5
  5
A6
331
1D8
  5
1DC
331
214
  5
244
331
1F2
  5
1F6
331
E9
  5
EB
331
C7
  5
C9
331
83
  5
83
331
183
  5
185
331
1A5
  5
1A8
331
94
  5
95
331
1C7
  5
1CB
331
B6
  5
B8
331
5A
  5
5A
331
170
  5
172
331
156
  5
162
331
F0
  5
F2
331
192
  5
195
331
1B4
  5
1B8
331
A3
  5
A4
331
1D6
  5
1DA
331
1F0
  5
1F4
331
E7
  5
E9
331
167
  5
169
331
101
  5
10E
331
C5
  5
C7
331
81
  5
81
331
69
  5
69
331
181
  5
183
331
1A3
  5
1A6
331
92
  5
93
331
1C5
  5
1C9
331
D6
  5
D8
331
B4
  5
B6
331
58
  5
58
331
221
  5
251
331
16E
  5
170
331
190
  5
193
331
1B2
  5
1B6
331
A1
  5
A2
331
1D4
  5
1D8
331
1EE
  5
1F2
331
E5
  5
E7
331
165
  5
167
331
FF
  5
101
331
C3
  5
C5
331
7F
  5
7F
331
17F
  5
181
331
1A1
  5
1A4
331
90
  5
91
331
1C3
  5
1C7
331
D4
  5
D6
331
B2
  5
B4
331
56
  5
56
331
16C
  5
16E
331
18E
  5
191
331
1B0
  5
1B4
331
9F
  5
A0
331
1D2
  5
1D6
331
1EC
  5
1F0
331
E3
  5
E5
331
17D
  5
17F
331
163
  5
165
331
FD
  5
FF
331
C1
  5
C3
331
7D
  5
7D
331
19F
  5
1A2
331
8E
  5
8F
331
1C1
  5
1C5
331
B0
  5
B2
331
1FD
  5
221
331
D2
  5
D4
331
10E
  5
126
331
76
  5
76
331
65
  5
65
331
16A
  5
16C
331
18C
  5
18F
331
1D0
  5
1D4
331
1AE
  5
1B2
331
9D
  5
9E
331
1EA
  5
1EE
331
17B
  5
17D
331
161
  5
163
331
FB
  5
FD
331
E1
  5
E3
331
7B
  5
7B
331
19D
  5
1A0
331
8C
  5
8D
331
1BF
  5
1C3
331
AE
  5
AF
331
1FB
  5
209
331
D0
  5
D2
331
74
  5
74
331
63
  5
63
331
168
  5
16A
331
18A
  5
18D
331
1CE
  5
1D2
331
1AC
  5
1AF
331
9B
  5
9C
331
1E8
  5
1EC
331
22C
  5
29B
331
F9
  5
FB
331
179
  5
17B
331
DF
  5
E1
331
79
  5
79
331
19B
  5
19E
331
8A
  5
8B
331
1BD
  5
1C1
331
AC
  5
AD
331
1F9
  5
1FD
331
1DF
  5
1E3
331
CE
  5
D0
331
72
  5
72
331
61
  5
61
331
188
  5
18B
331
1AA
  5
1AD
331
99
  5
9A
331
1E6
  5
1EA
331
1CC
  5
1D0
331
177
  5
179
331
119
  5
131
331
F7
  5
F9
331
BB
  5
BE
331
199
  5
19C
331
88
  5
89
331
1BB
  5
1BF
331
AA
  5
AB
331
1DD
  5
1E1
331
1F7
  5
1FB
331
EE
  5
F0
331
CC
  5
CE
331
70
  5
70
331
1A8
  5
1AB
331
1CA
  5
1CE
331
B9
  5
BB
331
1E4
  5
1E8
331
DB
  5
DE
331
175
  5
177
331
F5
  5
F7
331
197
  5
19A
331
86
  5
87
331
1B9
  5
1BD
331
A8
  5
A9
331
1DB
  5
1DF
331
239
  5
2AA
331
1F5
  5
1F9
331
186
  5
189
331
EC
  5
EE
331
97
  5
98
331
CA
  5
CC
331
6E
  5
6E
331
1C8
  5
1CC
331
1E2
  5
1E6
331
D9
  5
DB
331
173
  5
175
331
F3
  5
F5
331
195
  5
198
331
1B7
  5
1BB
331
A6
  5
A7
331
1D9
  5
1DD
331
1F3
  5
1F7
331
EA
  5
EC
331
126
  5
13E
331
C8
  5
CA
331
84
  5
84
331
6C
  5
6C
331
184
  5
187
331
1A6
  5
1A9
331
95
  5
96
331
B7
  5
B9
331
5B
  5
5B
331
1E0
  5
1E4
331
171
  5
173
331
F1
  5
F3
331
193
  5
196
331
1B5
  5
1B9
331
A4
  5
A5
331
1D7
  5
1DB
331
1F1
  5
1F5
331
E8
  5
EA
331
102
  5
119
331
C6
  5
C8
331
82
  5
82
331
6A
  5
6A
331
182
  5
184
331
1A4
  5
1A7
331
93
  5
94
331
1C6
  5
1CA
331
D7
  5
D9
331
B5
  5
B7
331
244
  5
2B7
331
16F
  5
171
331
191
  5
194
331
1B3
  5
1B7
331
A2
  5
A3
331
1D5
  5
1D9
331
1EF
  5
1F3
331
E6
  5
E8
331
180
  5
182
331
166
  5
168
331
1A2
  5
1A5
331
91
  5
92
331
100
  5
102
331
C4
  5
C6
331
1C4
  5
1C8
331
D5
  5
D7
331
B3
  5
B5
331
80
  5
80
331
68
  5
68
331
16D
  5
16F
331
131
  5
149
331
18F
  5
192
331
1B1
  5
1B5
331
A0
  5
A1
331
1D3
  5
1D7
331
1ED
  5
1F1
331
E4
  5
E6
331
17E
  5
180
331
164
  5
166
331
FE
  5
100
331
C2
  5
C4
331
7E
  5
7E
331
1A0
  5
1A3
331
8F
  5
90
331
1C2
  5
1C6
331
B1
  5
B3
331
1FE
  5
22C
331
D3
  5
D5
331
77
  5
77
331
66
  5
66
331
16B
  5
16D
331
18D
  5
190
331
1AF
  5
1B3
331
9E
  5
9F
331
1D1
  5
1D5
331
1EB
  5
1EF
331
E2
  5
E4
331
251
  5
2C4
331
2A9
  5
B0
331
162
  5
164
331
FC
  5
FE
331
C0
  5
C2
331
7C
  5
7C
331
64
  5
64
331
17C
  5
17E
331
19E
  5
1A1
331
8D
  5
8E
331
1C0
  5
1C4
331
AF
  5
B1
331
1FC
  5
214
331
D1
  5
D3
331
75
  5
75
331
53
  5
53
331
169
  5
16B
331
18B
  5
18E
331
1AD
  5
1B0
331
9C
  5
9D
331
1CF
  5
1D3
331
1E9
  5
1ED
331
E0
  5
E2
331
17A
  5
17C
331
13E
  5
156
331
FA
  5
FC
331
BE
  5
C1
331
7A
  5
7A
331
19C
  5
19F
331
8B
  5
8C
331
1BE
  5
1C2
331
AD
  5
AE
331
1FA
  5
1FE
331
CF
  5
D1
331
73
  5
73
331
62
  5
62
331
2D0
  5
1B1
331
189
  5
18C
331
1AB
  5
1AE
331
9A
  5
9B
331
1CD
  5
1D1
331
1E7
  5
1EB
331
DE
  5
E0
331
209
  5
239
331
178
  5
17A
331
F8
  5
FA
331
BC
  5
C0
331
78
  5
78
331
19A
  5
19D
331
89
  5
8A
331
1BC
  5
1C0
331
AB
  5
AC
331
1DE
  5
1E2
331
1F8
  5
1FC
331
EF
  5
F1
331
2B6
  5
85
331
CD
  5
CF
331
71
  5
71
331
1A9
  5
1AC
331
98
  5
99
331
1CB
  5
1CF
331
BA
  5
BC
331
1E5
  5
1E9
331
DC
  5
DF
331
176
  5
178
331
F6
  5
F8
331
198
  5
19B
331
87
  5
88
331
1BA
  5
1BE
331
A9
  5
AA
331
1DC
  5
1E0
331
1F6
  5
1FA
331
ED
  5
EF
331
CB
  5
CD
331
6F
  5
6F
331
187
  5
18A
331
5E
  5
5E
331
1C9
  5
1CD
331
B8
  5
BA
331
1E3
  5
1E7
331
DA
  5
DC
331
2C3
  5
186
331
174
  5
176
331
F4
  5
F6
331
196
  5
199
331
85
  5
86
331
1B8
  5
1BC
331
A7
  5
A8
331
1DA
  5
1DE
331
1F4
  5
1F8
331
EB
  5
ED
331
149
  5
161
331
C9
  5
CB
331
6D
  5
6D
331
185
  5
188
331
1A7
  5
1AA
331
96
  5
97
331
5C
  5
5C
  0
SORTENTSTABLE
  5
26F
102
{ACAD_REACTORS
330
2E
102
}
330
2E
100
AcDbSortentsTable
330
2D
  0
LAYOUT
  5
18
102
{ACAD_XDICTIONARY
360
491
102
}
102
{ACAD_REACTORS
330
10
102
}
330
10
100
AcDbPlotSettings
  1

  2
C:\PROGRAM FILES\AUTOCAD LT 2000\plotters\DWF ePlot.pc3
  4

  6

 40
0.0
 41
0.0
 42
0.0
 43
0.0
 44
0.0
 45
0.0
 46
0.0
 47
0.0
 48
0.0
 49
0.0
140
0.0
141
0.0
142
1.0
143
1.0
 70
   688
 72
     0
 73
     0
 74
     5
  7
monochrome_140.ctb
 75
    16
147
1.0
148
0.0
149
0.0
100
AcDbLayout
  1
Layout1
 70
     1
 71
     1
 10
0.0
 20
0.0
 11
420.0
 21
297.0
 12
0.0
 22
0.0
 32
0.0
 14
1.000000000000000E+20
 24
1.000000000000000E+20
 34
1.000000000000000E+20
 15
-1.000000000000000E+20
 25
-1.000000000000000E+20
 35
-1.000000000000000E+20
146
0.0
 13
0.0
 23
0.0
 33
0.0
 16
1.0
 26
0.0
 36
0.0
 17
0.0
 27
1.0
 37
0.0
 76
     0
330
15
  0
LAYOUT
  5
F
102
{ACAD_XDICTIONARY
360
48F
102
}
102
{ACAD_REACTORS
330
10
102
}
330
10
100
AcDbPlotSettings
  1

  2
PDFCreator
  4
A4
  6
RODODENDRON 5
 40
3.174999952316284
 41
3.174999952316284
 42
3.175003051757812
 43
3.17498779296875
 44
209.8886566162109
 45
297.0530090332031
 46
-0.230673193931878
 47
5.151510643959028
 48
226553.2566726145
 49
127657.5157057546
140
236753.2566726145
141
141677.5157057546
142
1.0
143
50.0
 70
 11956
 72
     1
 73
     0
 74
     4
  7
monochrome_140.ctb
 75
    25
147
0.02
148
-226553.2566726145
149
-127657.5157057546
100
AcDbLayout
  1
Model
 70
     1
 71
     0
 10
0.0
 20
0.0
 11
12.0
 21
9.0
 12
0.0
 22
0.0
 32
0.0
 14
0.0
 24
0.0
 34
0.0
 15
0.0
 25
0.0
 35
0.0
146
0.0
 13
0.0
 23
0.0
 33
0.0
 16
1.0
 26
0.0
 36
0.0
 17
0.0
 27
1.0
 37
0.0
 76
     0
330
2
331
28
1001
ACAD_PSEXT
1000
PDFCreator
1000
PDFCreator
1000
PDFCreator:
1000
eDoc Printer
1070
     0
  0
MATERIAL
  5
3B
102
{ACAD_XDICTIONARY
360
495
102
}
102
{ACAD_REACTORS
330
B
102
}
330
B
100
AcDbMaterial
  1
ByBlock
 73
     1
 78
     1
172
     1
176
     1
270
     1
274
     1
  0
MATERIAL
  5
3A
102
{ACAD_XDICTIONARY
360
493
102
}
102
{ACAD_REACTORS
330
B
102
}
330
B
100
AcDbMaterial
  1
ByLayer
 73
     1
 78
     1
172
     1
176
     1
270
     1
274
     1
  0
MATERIAL
  5
A
102
{ACAD_XDICTIONARY
360
48D
102
}
102
{ACAD_REACTORS
330
B
102
}
330
B
100
AcDbMaterial
  1
Global
 73
     1
 78
     1
172
     1
176
     1
270
     1
274
     1
  0
MLEADERSTYLE
  5
291
102
{ACAD_REACTORS
330
290
102
}
330
290
100
AcDbMLeaderStyle
170
     2
171
     1
172
     0
 90
        2
 40
0.0
 41
0.0
173
     1
 91
-1056964608
340
23
 92
       -2
290
     1
 42
0.09
291
     1
 43
0.36
  3
Standard
 44
0.18
300

342
20
174
     1
178
     6
175
     1
176
     0
 93
-1056964608
 45
0.18
292
     0
297
     0
 46
0.18
 94
-1056964608
 47
1.0
 49
1.0
140
1.0
293
     1
141
0.0
294
     1
177
     0
142
1.0
295
     0
296
     0
143
0.125
1001
ACAD_MLEADERVER
1070
     2
  0
MLINESTYLE
  5
40
102
{ACAD_REACTORS
330
38
102
}
330
38
100
AcDbMlineStyle
  2
STANDARD
 70
     0
  3

 62
   256
 51
90.0
 52
90.0
 71
     2
 49
0.5
 62
   256
  6
BYLAYER
 49
-0.5
 62
   256
  6
BYLAYER
  0
ACDBPLACEHOLDER
  5
DD
102
{ACAD_REACTORS
330
8
102
}
330
8
  0
ACDBPLACEHOLDER
  5
7
102
{ACAD_REACTORS
330
8
102
}
330
8
  0
SCALE
  5
44
102
{ACAD_REACTORS
330
3D
102
}
330
3D
100
AcDbScale
 70
     0
300
1/64" = 1'-0"
140
0.015625
141
12.0
290
     0
  0
SCALE
  5
45
102
{ACAD_REACTORS
330
3D
102
}
330
3D
100
AcDbScale
 70
     0
300
1/32" = 1'-0"
140
0.03125
141
12.0
290
     0
  0
SCALE
  5
46
102
{ACAD_REACTORS
330
3D
102
}
330
3D
100
AcDbScale
 70
     0
300
1/16" = 1'-0"
140
0.0625
141
12.0
290
     0
  0
SCALE
  5
47
102
{ACAD_REACTORS
330
3D
102
}
330
3D
100
AcDbScale
 70
     0
300
3/32" = 1'-0"
140
0.09375
141
12.0
290
     0
  0
SCALE
  5
48
102
{ACAD_REACTORS
330
3D
102
}
330
3D
100
AcDbScale
 70
     0
300
1/8" = 1'-0"
140
0.125
141
12.0
290
     0
  0
SCALE
  5
49
102
{ACAD_REACTORS
330
3D
102
}
330
3D
100
AcDbScale
 70
     0
300
3/16" = 1'-0"
140
0.1875
141
12.0
290
     0
  0
SCALE
  5
4A
102
{ACAD_REACTORS
330
3D
102
}
330
3D
100
AcDbScale
 70
     0
300
1/4" = 1'-0"
140
0.25
141
12.0
290
     0
  0
SCALE
  5
4B
102
{ACAD_REACTORS
330
3D
102
}
330
3D
100
AcDbScale
 70
     0
300
3/8" = 1'-0"
140
0.375
141
12.0
290
     0
  0
SCALE
  5
4C
102
{ACAD_REACTORS
330
3D
102
}
330
3D
100
AcDbScale
 70
     0
300
1/2" = 1'-0"
140
0.5
141
12.0
290
     0
  0
SCALE
  5
4D
102
{ACAD_REACTORS
330
3D
102
}
330
3D
100
AcDbScale
 70
     0
300
3/4" = 1'-0"
140
0.75
141
12.0
290
     0
  0
SCALE
  5
4E
102
{ACAD_REACTORS
330
3D
102
}
330
3D
100
AcDbScale
 70
     0
300
1" = 1'-0"
140
1.0
141
12.0
290
     0
  0
SCALE
  5
4F
102
{ACAD_REACTORS
330
3D
102
}
330
3D
100
AcDbScale
 70
     0
300
1 1/2" = 1'-0"
140
1.5
141
12.0
290
     0
  0
SCALE
  5
50
102
{ACAD_REACTORS
330
3D
102
}
330
3D
100
AcDbScale
 70
     0
300
3" = 1'-0"
140
3.0
141
12.0
290
     0
  0
SCALE
  5
51
102
{ACAD_REACTORS
330
3D
102
}
330
3D
100
AcDbScale
 70
     0
300
6" = 1'-0"
140
6.0
141
12.0
290
     0
  0
SCALE
  5
52
102
{ACAD_REACTORS
330
3D
102
}
330
3D
100
AcDbScale
 70
     0
300
1'-0" = 1'-0"
140
12.0
141
12.0
290
     1
  0
TABLESTYLE
  5
41
102
{ACAD_XDICTIONARY
360
278
102
}
102
{ACAD_REACTORS
330
3E
102
}
330
3E
100
AcDbTableStyle
  3
Standard
 70
     0
 71
     0
 40
0.06
 41
0.06
280
     0
281
     0
  7
Standard
140
0.18
170
     2
 62
     0
 63
     7
283
     0
274
    -2
284
     1
 64
     0
275
    -2
285
     1
 65
     0
276
    -2
286
     1
 66
     0
277
    -2
287
     1
 67
     0
278
    -2
288
     1
 68
     0
279
    -2
289
     1
 69
     0
  7
Standard
140
0.25
170
     5
 62
     0
 63
     7
283
     0
274
    -2
284
     1
 64
     0
275
    -2
285
     1
 65
     0
276
    -2
286
     1
 66
     0
277
    -2
287
     1
 67
     0
278
    -2
288
     1
 68
     0
279
    -2
289
     1
 69
     0
  7
Standard
140
0.18
170
     5
 62
     0
 63
     7
283
     0
274
    -2
284
     1
 64
     0
275
    -2
285
     1
 65
     0
276
    -2
286
     1
 66
     0
277
    -2
287
     1
 67
     0
278
    -2
288
     1
 68
     0
279
    -2
289
     1
 69
     0
  0
VISUALSTYLE
  5
12
102
{ACAD_REACTORS
330
13
102
}
330
13
100
AcDbVisualStyle
  2
2dWireframe
 70
     4
 71
     0
 72
     2
 73
     0
 90
        0
 40
-0.6
 41
-30.0
 62
     5
 63
     7
 74
     1
 91
        4
 64
     7
 65
   257
 75
     1
175
     1
 42
1.0
 92
        0
 66
   257
 43
1.0
 76
     1
 77
     6
 78
     2
 67
     7
 79
     5
170
     0
171
     0
290
     0
174
     0
 93
        1
 44
0.0
173
     0
291
     0
 45
0.0
1001
ACAD
1000
AcDbSavedByObjectVersion
1070
     0
  0
VISUALSTYLE
  5
288
102
{ACAD_REACTORS
330
13
102
}
330
13
100
AcDbVisualStyle
  2
3D Hidden
 70
     6
 71
     1
 72
     2
 73
     2
 90
        0
 40
-0.6
 41
-30.0
 62
     5
 63
     7
 74
     2
 91
        2
 64
     7
 65
   257
 75
     2
175
     1
 42
40.0
 92
        0
 66
   257
 43
1.0
 76
     1
 77
     6
 78
     2
 67
     7
 79
     3
170
     0
171
     0
290
     0
174
     0
 93
        1
 44
0.0
173
     0
291
     0
 45
0.0
1001
ACAD
1000
AcDbSavedByObjectVersion
1070
     0
  0
VISUALSTYLE
  5
43
102
{ACAD_REACTORS
330
13
102
}
330
13
100
AcDbVisualStyle
  2
3dWireframe
 70
     5
 71
     0
 72
     2
 73
     0
 90
        0
 40
-0.6
 41
-30.0
 62
     5
 63
     7
 74
     1
 91
        4
 64
     7
 65
   257
 75
     1
175
     1
 42
1.0
 92
        0
 66
   257
 43
1.0
 76
     1
 77
     6
 78
     2
 67
     7
 79
     5
170
     0
171
     0
290
     0
174
     0
 93
        1
 44
0.0
173
     0
291
     0
 45
0.0
1001
ACAD
1000
AcDbSavedByObjectVersion
1070
     0
  0
VISUALSTYLE
  5
287
102
{ACAD_REACTORS
330
13
102
}
330
13
100
AcDbVisualStyle
  2
Basic
 70
     7
 71
     1
 72
     0
 73
     1
 90
        0
 40
-0.6
 41
-30.0
 62
     5
 63
     7
 74
     0
 91
        4
 64
     7
 65
   257
 75
     1
175
     1
 42
1.0
 92
        8
 66
     7
 43
1.0
 76
     1
 77
     6
 78
     2
 67
     7
 79
     5
170
     0
171
     0
290
     0
174
     0
 93
        1
 44
0.0
173
     0
291
     1
 45
0.0
1001
ACAD
1000
AcDbSavedByObjectVersion
1070
     0
  0
VISUALSTYLE
  5
28B
102
{ACAD_REACTORS
330
13
102
}
330
13
100
AcDbVisualStyle
  2
Brighten
 70
    12
 71
     2
 72
     2
 73
     0
 90
        0
 40
-0.6
 41
-30.0
 62
     5
 63
     7
 74
     1
 91
        4
 64
     7
 65
   257
 75
     1
175
     1
 42
1.0
 92
        8
 66
     7
 43
1.0
 76
     1
 77
     6
 78
     2
 67
     7
 79
     5
170
     0
171
     0
290
     0
174
     0
 93
        1
 44
50.0
173
     0
291
     1
 45
0.0
1001
ACAD
1000
AcDbSavedByObjectVersion
1070
     0
  0
VISUALSTYLE
  5
28F
102
{ACAD_REACTORS
330
13
102
}
330
13
100
AcDbVisualStyle
  2
ColorChange
 70
    16
 71
     2
 72
     2
 73
     3
 90
        0
 40
-0.6
 41
-30.0
 62
     5
 63
     8
 74
     1
 91
        4
 64
     7
 65
   257
 75
     1
175
     1
 42
1.0
 92
        8
 66
     8
 43
1.0
 76
     1
 77
     6
 78
     2
 67
     7
 79
     5
170
     0
171
     0
290
     0
174
     0
 93
        1
 44
0.0
173
     0
291
     1
 45
0.0
1001
ACAD
1000
AcDbSavedByObjectVersion
1070
     0
  0
VISUALSTYLE
  5
289
102
{ACAD_REACTORS
330
13
102
}
330
13
100
AcDbVisualStyle
  2
Conceptual
 70
     9
 71
     3
 72
     2
 73
     0
 90
        0
 40
-0.6
 41
-30.0
 62
     5
 63
     7
 74
     2
 91
        2
 64
     7
 65
   257
 75
     1
175
     1
 42
40.0
 92
        8
 66
     7
 43
1.0
 76
     1
 77
     6
 78
     2
 67
     7
 79
     3
170
     0
171
     0
290
     0
174
     0
 93
        1
 44
0.0
173
     0
291
     0
 45
0.0
1001
ACAD
1000
AcDbSavedByObjectVersion
1070
     0
  0
VISUALSTYLE
  5
28A
102
{ACAD_REACTORS
330
13
102
}
330
13
100
AcDbVisualStyle
  2
Dim
 70
    11
 71
     2
 72
     2
 73
     0
 90
        0
 40
-0.6
 41
-30.0
 62
     5
 63
     7
 74
     1
 91
        4
 64
     7
 65
   257
 75
     1
175
     1
 42
1.0
 92
        8
 66
     7
 43
1.0
 76
     1
 77
     6
 78
     2
 67
     7
 79
     5
170
     0
171
     0
290
     0
174
     0
 93
        1
 44
-50.0
173
     0
291
     1
 45
0.0
1001
ACAD
1000
AcDbSavedByObjectVersion
1070
     0
  0
VISUALSTYLE
  5
28E
102
{ACAD_REACTORS
330
13
102
}
330
13
100
AcDbVisualStyle
  2
Facepattern
 70
    15
 71
     2
 72
     2
 73
     0
 90
        0
 40
-0.6
 41
-30.0
 62
     5
 63
     7
 74
     1
 91
        4
 64
     7
 65
   257
 75
     1
175
     1
 42
1.0
 92
        8
 66
     7
 43
1.0
 76
     1
 77
     6
 78
     2
 67
     7
 79
     5
170
     0
171
     0
290
     0
174
     0
 93
        1
 44
0.0
173
     0
291
     1
 45
0.0
1001
ACAD
1000
AcDbSavedByObjectVersion
1070
     0
  0
VISUALSTYLE
  5
283
102
{ACAD_REACTORS
330
13
102
}
330
13
100
AcDbVisualStyle
  2
Flat
 70
     0
 71
     2
 72
     1
 73
     1
 90
        2
 40
-0.6
 41
30.0
 62
     5
 63
     7
 74
     0
 91
        4
 64
     7
 65
   257
 75
     1
175
     1
 42
1.0
 92
        8
 66
     7
 43
1.0
 76
     1
 77
     6
 78
     2
 67
     7
 79
     5
170
     0
171
     0
290
     0
174
     0
 93
       13
 44
0.0
173
     0
291
     1
 45
0.0
1001
ACAD
1000
AcDbSavedByObjectVersion
1070
     0
  0
VISUALSTYLE
  5
284
102
{ACAD_REACTORS
330
13
102
}
330
13
100
AcDbVisualStyle
  2
FlatWithEdges
 70
     1
 71
     2
 72
     1
 73
     1
 90
        2
 40
-0.6
 41
30.0
 62
     5
 63
     7
 74
     1
 91
        4
 64
     7
 65
   257
 75
     1
175
     1
 42
1.0
 92
        0
 66
   257
 43
1.0
 76
     1
 77
     6
 78
     2
 67
     7
 79
     5
170
     0
171
     0
290
     0
174
     0
 93
       13
 44
0.0
173
     0
291
     1
 45
0.0
1001
ACAD
1000
AcDbSavedByObjectVersion
1070
     0
  0
VISUALSTYLE
  5
285
102
{ACAD_REACTORS
330
13
102
}
330
13
100
AcDbVisualStyle
  2
Gouraud
 70
     2
 71
     2
 72
     2
 73
     1
 90
        2
 40
-0.6
 41
30.0
 62
     5
 63
     7
 74
     0
 91
        4
 64
     7
 65
   257
 75
     1
175
     1
 42
1.0
 92
        0
 66
     7
 43
1.0
 76
     1
 77
     6
 78
     2
 67
     7
 79
     5
170
     0
171
     0
290
     0
174
     0
 93
       13
 44
0.0
173
     0
291
     1
 45
0.0
1001
ACAD
1000
AcDbSavedByObjectVersion
1070
     0
  0
VISUALSTYLE
  5
286
102
{ACAD_REACTORS
330
13
102
}
330
13
100
AcDbVisualStyle
  2
GouraudWithEdges
 70
     3
 71
     2
 72
     2
 73
     1
 90
        2
 40
-0.6
 41
30.0
 62
     5
 63
     7
 74
     1
 91
        4
 64
     7
 65
   257
 75
     1
175
     1
 42
1.0
 92
        0
 66
   257
 43
1.0
 76
     1
 77
     6
 78
     2
 67
     7
 79
     5
170
     0
171
     0
290
     0
174
     0
 93
       13
 44
0.0
173
     0
291
     1
 45
0.0
1001
ACAD
1000
AcDbSavedByObjectVersion
1070
     0
  0
VISUALSTYLE
  5
28D
102
{ACAD_REACTORS
330
13
102
}
330
13
100
AcDbVisualStyle
  2
Linepattern
 70
    14
 71
     2
 72
     2
 73
     0
 90
        0
 40
-0.6
 41
-30.0
 62
     5
 63
     7
 74
     1
 91
        4
 64
     7
 65
   257
 75
     7
175
     7
 42
1.0
 92
        8
 66
     7
 43
1.0
 76
     1
 77
     6
 78
     2
 67
     7
 79
     5
170
     0
171
     0
290
     0
174
     0
 93
        1
 44
0.0
173
     0
291
     1
 45
0.0
1001
ACAD
1000
AcDbSavedByObjectVersion
1070
     0
  0
VISUALSTYLE
  5
42
102
{ACAD_REACTORS
330
13
102
}
330
13
100
AcDbVisualStyle
  2
Realistic
 70
     8
 71
     2
 72
     2
 73
     0
 90
        0
 40
-0.6
 41
-30.0
 62
     5
 63
     7
 74
     1
 91
        0
 64
     7
 65
   257
 75
     1
175
     1
 42
1.0
 92
        8
 66
     8
 43
1.0
 76
     1
 77
     6
 78
     2
 67
     7
 79
     5
170
     0
171
     0
290
     0
174
     0
 93
       13
 44
0.0
173
     0
291
     0
 45
0.0
1001
ACAD
1000
AcDbSavedByObjectVersion
1070
     0
  0
VISUALSTYLE
  5
28C
102
{ACAD_REACTORS
330
13
102
}
330
13
100
AcDbVisualStyle
  2
Thicken
 70
    13
 71
     2
 72
     2
 73
     0
 90
        0
 40
-0.6
 41
-30.0
 62
     5
 63
     7
 74
     1
 91
        4
 64
     7
 65
   257
 75
     1
175
     1
 42
1.0
 92
       12
 66
     7
 43
1.0
 76
     1
 77
     6
 78
     2
 67
     7
 79
     5
170
     0
171
     0
290
     0
174
     0
 93
        1
 44
0.0
173
     0
291
     1
 45
0.0
1001
ACAD
1000
AcDbSavedByObjectVersion
1070
     0
  0
DICTIONARYVAR
  5
27E
102
{ACAD_REACTORS
330
27B
102
}
330
27B
100
DictionaryVariables
280
     0
  1
1/8" = 1'-0"
  0
DICTIONARYVAR
  5
27D
102
{ACAD_REACTORS
330
27B
102
}
330
27B
100
DictionaryVariables
280
     0
  1
STANDARD
  0
DICTIONARYVAR
  5
27C
102
{ACAD_REACTORS
330
27B
102
}
330
27B
100
DictionaryVariables
280
     0
  1
STANDARD
  0
DICTIONARYVAR
  5
48A
102
{ACAD_REACTORS
330
27B
102
}
330
27B
100
DictionaryVariables
280
     0
  1
1
  0
DICTIONARYVAR
  5
489
102
{ACAD_REACTORS
330
27B
102
}
330
27B
100
DictionaryVariables
280
     0
  1
1
  0
DICTIONARYVAR
  5
488
102
{ACAD_REACTORS
330
27B
102
}
330
27B
100
DictionaryVariables
280
     0
  1
0
  0
DICTIONARYVAR
  5
280
102
{ACAD_REACTORS
330
27B
102
}
330
27B
100
DictionaryVariables
280
     0
  1
1
  0
DICTIONARYVAR
  5
281
102
{ACAD_REACTORS
330
27B
102
}
330
27B
100
DictionaryVariables
280
     0
  1
15
  0
DICTIONARYVAR
  5
27F
102
{ACAD_REACTORS
330
27B
102
}
330
27B
100
DictionaryVariables
280
     0
  1
0
  0
DICTIONARYVAR
  5
486
102
{ACAD_REACTORS
330
27B
102
}
330
27B
100
DictionaryVariables
280
     0
  1
1
  0
DICTIONARYVAR
  5
487
102
{ACAD_REACTORS
330
27B
102
}
330
27B
100
DictionaryVariables
280
     0
  1
127
  0
XRECORD
  5
277
102
{ACAD_REACTORS
330
275
102
}
330
275
100
AcDbXrecord
280
     1
330
3FA
330
3FB
330
403
330
404
330
40A
330
40B
330
413
330
414
330
41A
330
41B
330
423
330
424
330
42A
330
42B
330
431
330
432
330
438
330
439
330
441
330
442
330
448
330
449
330
451
330
452
330
458
330
459
330
461
330
462
330
468
330
469
330
46F
330
470
  0
DICTIONARY
  5
491
330
18
100
AcDbDictionary
280
     1
281
     1
  3
ACAD_XREC_ROUNDTRIP
360
492
  0
DICTIONARY
  5
48F
330
F
100
AcDbDictionary
280
     1
281
     1
  3
ACAD_XREC_ROUNDTRIP
360
490
  0
DICTIONARY
  5
495
330
3B
100
AcDbDictionary
280
     1
281
     1
  3
ACAD_XREC_ROUNDTRIP
360
496
  0
DICTIONARY
  5
493
330
3A
100
AcDbDictionary
280
     1
281
     1
  3
ACAD_XREC_ROUNDTRIP
360
494
  0
DICTIONARY
  5
48D
330
A
100
AcDbDictionary
280
     1
281
     1
  3
ACAD_XREC_ROUNDTRIP
360
48E
  0
DICTIONARY
  5
278
330
41
100
AcDbDictionary
280
     1
281
     1
  3
ACAD_ROUNDTRIP_2008_TABLESTYLE_CELLSTYLEMAP
360
48B
  3
ACAD_XREC_ROUNDTRIP
360
497
  0
XRECORD
  5
492
102
{ACAD_REACTORS
330
491
102
}
330
491
100
AcDbXrecord
280
     1
102
SHADEPLOT
 70
     0
102
SHADEPLOTRESLEVEL
 70
     2
102
SHADEPLOTCUSTOMDPI
 70
   300
  0
XRECORD
  5
490
102
{ACAD_REACTORS
330
48F
102
}
330
48F
100
AcDbXrecord
280
     1
102
SHADEPLOT
 70
     1
102
SHADEPLOTRESLEVEL
 70
     2
102
SHADEPLOTCUSTOMDPI
 70
   300
  0
XRECORD
  5
496
102
{ACAD_REACTORS
330
495
102
}
330
495
100
AcDbXrecord
280
     1
102
MATERIAL
148
0.0
149
0.0
149
0.0
 93
        0
 94
       63
282
     0
 72
     1
 77
     1
171
     1
175
     1
179
     1
273
     0
  0
XRECORD
  5
494
102
{ACAD_REACTORS
330
493
102
}
330
493
100
AcDbXrecord
280
     1
102
MATERIAL
148
0.0
149
0.0
149
0.0
 93
        0
 94
       63
282
     0
 72
     1
 77
     1
171
     1
175
     1
179
     1
273
     0
  0
XRECORD
  5
48E
102
{ACAD_REACTORS
330
48D
102
}
330
48D
100
AcDbXrecord
280
     1
102
MATERIAL
148
0.0
149
0.0
149
0.0
 93
        0
 94
       63
282
     0
 72
     1
 77
     1
171
     1
175
     1
179
     1
273
     0
  0
CELLSTYLEMAP
  5
48B
102
{ACAD_REACTORS
330
278
102
}
330
278
100
AcDbCellStyleMap
 90
        3
300
CELLSTYLE
  1
TABLEFORMAT_BEGIN
 90
        5
170
     1
 91
        0
 92
    32768
 62
   257
 93
        1
300
CONTENTFORMAT
  1
CONTENTFORMAT_BEGIN
 90
        0
 91
        0
 92
        4
 93
        0
300

 40
0.0
140
1.0
 94
        5
 62
     0
340
20
144
0.25
309
CONTENTFORMAT_END
171
     0
 94
        6
 95
        1
302
GRIDFORMAT
  1
GRIDFORMAT_BEGIN
 90
        0
 91
        1
 62
     0
 92
       -2
340
0
 93
        0
 40
0.045
309
GRIDFORMAT_END
 95
        2
302
GRIDFORMAT
  1
GRIDFORMAT_BEGIN
 90
        0
 91
        1
 62
     0
 92
       -2
340
0
 93
        0
 40
0.045
309
GRIDFORMAT_END
 95
        4
302
GRIDFORMAT
  1
GRIDFORMAT_BEGIN
 90
        0
 91
        1
 62
     0
 92
       -2
340
0
 93
        0
 40
0.045
309
GRIDFORMAT_END
 95
        8
302
GRIDFORMAT
  1
GRIDFORMAT_BEGIN
 90
        0
 91
        1
 62
     0
 92
       -2
340
0
 93
        0
 40
0.045
309
GRIDFORMAT_END
 95
       16
302
GRIDFORMAT
  1
GRIDFORMAT_BEGIN
 90
        0
 91
        1
 62
     0
 92
       -2
340
0
 93
        0
 40
0.045
309
GRIDFORMAT_END
 95
       32
302
GRIDFORMAT
  1
GRIDFORMAT_BEGIN
 90
        0
 91
        1
 62
     0
 92
       -2
340
0
 93
        0
 40
0.045
309
GRIDFORMAT_END
309
TABLEFORMAT_END
  1
CELLSTYLE_BEGIN
 90
        1
 91
        1
300
_TITLE
309
CELLSTYLE_END
300
CELLSTYLE
  1
TABLEFORMAT_BEGIN
 90
        5
170
     1
 91
        0
 92
        0
 62
   257
 93
        1
300
CONTENTFORMAT
  1
CONTENTFORMAT_BEGIN
 90
        0
 91
        0
 92
        4
 93
        0
300

 40
0.0
140
1.0
 94
        5
 62
     0
340
20
144
0.18
309
CONTENTFORMAT_END
171
     0
 94
        6
 95
        1
302
GRIDFORMAT
  1
GRIDFORMAT_BEGIN
 90
        0
 91
        1
 62
     0
 92
       -2
340
0
 93
        0
 40
0.045
309
GRIDFORMAT_END
 95
        2
302
GRIDFORMAT
  1
GRIDFORMAT_BEGIN
 90
        0
 91
        1
 62
     0
 92
       -2
340
0
 93
        0
 40
0.045
309
GRIDFORMAT_END
 95
        4
302
GRIDFORMAT
  1
GRIDFORMAT_BEGIN
 90
        0
 91
        1
 62
     0
 92
       -2
340
0
 93
        0
 40
0.045
309
GRIDFORMAT_END
 95
        8
302
GRIDFORMAT
  1
GRIDFORMAT_BEGIN
 90
        0
 91
        1
 62
     0
 92
       -2
340
0
 93
        0
 40
0.045
309
GRIDFORMAT_END
 95
       16
302
GRIDFORMAT
  1
GRIDFORMAT_BEGIN
 90
        0
 91
        1
 62
     0
 92
       -2
340
0
 93
        0
 40
0.045
309
GRIDFORMAT_END
 95
       32
302
GRIDFORMAT
  1
GRIDFORMAT_BEGIN
 90
        0
 91
        1
 62
     0
 92
       -2
340
0
 93
        0
 40
0.045
309
GRIDFORMAT_END
309
TABLEFORMAT_END
  1
CELLSTYLE_BEGIN
 90
        2
 91
        1
300
_HEADER
309
CELLSTYLE_END
300
CELLSTYLE
  1
TABLEFORMAT_BEGIN
 90
        5
170
     1
 91
        0
 92
        0
 62
   257
 93
        1
300
CONTENTFORMAT
  1
CONTENTFORMAT_BEGIN
 90
        0
 91
        0
 92
        4
 93
        0
300

 40
0.0
140
1.0
 94
        2
 62
     0
340
20
144
0.18
309
CONTENTFORMAT_END
171
     0
 94
        6
 95
        1
302
GRIDFORMAT
  1
GRIDFORMAT_BEGIN
 90
        0
 91
        1
 62
     0
 92
       -2
340
0
 93
        0
 40
0.045
309
GRIDFORMAT_END
 95
        2
302
GRIDFORMAT
  1
GRIDFORMAT_BEGIN
 90
        0
 91
        1
 62
     0
 92
       -2
340
0
 93
        0
 40
0.045
309
GRIDFORMAT_END
 95
        4
302
GRIDFORMAT
  1
GRIDFORMAT_BEGIN
 90
        0
 91
        1
 62
     0
 92
       -2
340
0
 93
        0
 40
0.045
309
GRIDFORMAT_END
 95
        8
302
GRIDFORMAT
  1
GRIDFORMAT_BEGIN
 90
        0
 91
        1
 62
     0
 92
       -2
340
0
 93
        0
 40
0.045
309
GRIDFORMAT_END
 95
       16
302
GRIDFORMAT
  1
GRIDFORMAT_BEGIN
 90
        0
 91
        1
 62
     0
 92
       -2
340
0
 93
        0
 40
0.045
309
GRIDFORMAT_END
 95
       32
302
GRIDFORMAT
  1
GRIDFORMAT_BEGIN
 90
        0
 91
        1
 62
     0
 92
       -2
340
0
 93
        0
 40
0.045
309
GRIDFORMAT_END
309
TABLEFORMAT_END
  1
CELLSTYLE_BEGIN
 90
        3
 91
        2
300
_DATA
309
CELLSTYLE_END
  0
XRECORD
  5
497
102
{ACAD_REACTORS
330
278
102
}
330
278
100
AcDbXrecord
280
     1
102
ACAD_ROUNDTRIP_PRE2007_TABLESTYLE
 90
        4
 91
        0
  1

 92
        4
 93
        0
  2

 94
        4
 95
        0
  3

  0
ENDSEC
  0
EOF
