  0
SECTION
  2
HEADER
  9
$ACADVER
  1
AC1015
  9
$ACADMAINTVER
 70
    18
  9
$DWGCODEPAGE
  3
ANSI_1250
  9
$INSBASE
 10
215187.233673673
 20
127657.5168525552
 30
0.0
  9
$EXTMIN
 10
1.000000000000000E+20
 20
1.000000000000000E+20
 30
1.000000000000000E+20
  9
$EXTMAX
 10
0.0
 20
0.0
 30
0.0
  9
$LIMMIN
 10
0.0
 20
0.0
  9
$LIMMAX
 10
420.0
 20
297.0
  9
$ORTHOMODE
 70
     0
  9
$REGENMODE
 70
     1
  9
$FILLMODE
 70
     1
  9
$QTEXTMODE
 70
     0
  9
$MIRRTEXT
 70
     0
  9
$LTSCALE
 40
75.0
  9
$ATTMODE
 70
     1
  9
$TEXTSIZE
 40
20.0
  9
$TRACEWID
 40
1.0
  9
$TEXTSTYLE
  7
ROMANS
  9
$CLAYER
  8
0Wymiary-PL
  9
$CELTYPE
  6
ByLayer
  9
$CECOLOR
 62
   256
  9
$CELTSCALE
 40
1.0
  9
$DISPSILH
 70
     0
  9
$DIMSCALE
 40
96.0
  9
$DIMASZ
 40
30.0
  9
$DIMEXO
 40
43.0
  9
$DIMDLI
 40
0.0
  9
$DIMRND
 40
0.5
  9
$DIMDLE
 40
12.0
  9
$DIMEXE
 40
13.0
  9
$DIMTP
 40
0.0
  9
$DIMTM
 40
0.0
  9
$DIMTXT
 40
80.0
  9
$DIMCEN
 40
0.0
  9
$DIMTSZ
 40
0.0
  9
$DIMTOL
 70
     0
  9
$DIMLIM
 70
     0
  9
$DIMTIH
 70
     0
  9
$DIMTOH
 70
     0
  9
$DIMSE1
 70
     1
  9
$DIMSE2
 70
     1
  9
$DIMTAD
 70
     0
  9
$DIMZIN
 70
    12
  9
$DIMBLK
  1
B-DIM
  9
$DIMASO
 70
     1
  9
$DIMSHO
 70
     1
  9
$DIMPOST
  1

  9
$DIMAPOST
  1

  9
$DIMALT
 70
     0
  9
$DIMALTD
 70
     2
  9
$DIMALTF
 40
25.4
  9
$DIMLFAC
 40
1.0
  9
$DIMTOFL
 70
     1
  9
$DIMTVP
 40
1.0
  9
$DIMTIX
 70
     1
  9
$DIMSOXD
 70
     0
  9
$DIMSAH
 70
     0
  9
$DIMBLK1
  1

  9
$DIMBLK2
  1

  9
$DIMSTYLE
  2
500
  9
$DIMCLRD
 70
     1
  9
$DIMCLRE
 70
     1
  9
$DIMCLRT
 70
    10
  9
$DIMTFAC
 40
1.0
  9
$DIMGAP
 40
0.0
  9
$DIMJUST
 70
     0
  9
$DIMSD1
 70
     0
  9
$DIMSD2
 70
     0
  9
$DIMTOLJ
 70
     1
  9
$DIMTZIN
 70
     0
  9
$DIMALTZ
 70
     0
  9
$DIMALTTZ
 70
     0
  9
$DIMUPT
 70
     0
  9
$DIMDEC
 70
     1
  9
$DIMTDEC
 70
     1
  9
$DIMALTU
 70
     2
  9
$DIMALTTD
 70
     2
  9
$DIMTXSTY
  7
ROMANS
  9
$DIMAUNIT
 70
     0
  9
$DIMADEC
 70
     0
  9
$DIMALTRND
 40
0.0
  9
$DIMAZIN
 70
     0
  9
$DIMDSEP
 70
    46
  9
$DIMATFIT
 70
     3
  9
$DIMFRAC
 70
     0
  9
$DIMLDRBLK
  1
B-DIM
  9
$DIMLUNIT
 70
     2
  9
$DIMLWD
 70
    -2
  9
$DIMLWE
 70
    -2
  9
$DIMTMOVE
 70
     2
  9
$LUNITS
 70
     2
  9
$LUPREC
 70
     1
  9
$SKETCHINC
 40
1.0
  9
$FILLETRAD
 40
0.0
  9
$AUNITS
 70
     0
  9
$AUPREC
 70
     0
  9
$MENU
  1
.
  9
$ELEVATION
 40
0.0
  9
$PELEVATION
 40
0.0
  9
$THICKNESS
 40
0.0
  9
$LIMCHECK
 70
     0
  9
$CHAMFERA
 40
0.0
  9
$CHAMFERB
 40
0.0
  9
$CHAMFERC
 40
20.0
  9
$CHAMFERD
 40
0.0
  9
$SKPOLY
 70
     0
  9
$TDCREATE
 40
2452027.670547454
  9
$TDUCREATE
 40
2452027.587214121
  9
$TDUPDATE
 40
2454985.472978334
  9
$TDUUPDATE
 40
2454985.389645000
  9
$TDINDWG
 40
8.8918006366
  9
$TDUSRTIMER
 40
8.8918006366
  9
$USRTIMER
 70
     1
  9
$ANGBASE
 50
0.0
  9
$ANGDIR
 70
     0
  9
$PDMODE
 70
     0
  9
$PDSIZE
 40
0.0
  9
$PLINEWID
 40
0.0
  9
$SPLFRAME
 70
     0
  9
$SPLINETYPE
 70
     6
  9
$SPLINESEGS
 70
     8
  9
$HANDSEED
  5
213
  9
$SURFTAB1
 70
     6
  9
$SURFTAB2
 70
     6
  9
$SURFTYPE
 70
     6
  9
$SURFU
 70
     6
  9
$SURFV
 70
     6
  9
$UCSBASE
  2

  9
$UCSNAME
  2

  9
$UCSORG
 10
0.0
 20
0.0
 30
0.0
  9
$UCSXDIR
 10
1.0
 20
0.0
 30
0.0
  9
$UCSYDIR
 10
0.0
 20
1.0
 30
0.0
  9
$UCSORTHOREF
  2

  9
$UCSORTHOVIEW
 70
     0
  9
$UCSORGTOP
 10
0.0
 20
0.0
 30
0.0
  9
$UCSORGBOTTOM
 10
0.0
 20
0.0
 30
0.0
  9
$UCSORGLEFT
 10
0.0
 20
0.0
 30
0.0
  9
$UCSORGRIGHT
 10
0.0
 20
0.0
 30
0.0
  9
$UCSORGFRONT
 10
0.0
 20
0.0
 30
0.0
  9
$UCSORGBACK
 10
0.0
 20
0.0
 30
0.0
  9
$PUCSBASE
  2

  9
$PUCSNAME
  2

  9
$PUCSORG
 10
0.0
 20
0.0
 30
0.0
  9
$PUCSXDIR
 10
1.0
 20
0.0
 30
0.0
  9
$PUCSYDIR
 10
0.0
 20
1.0
 30
0.0
  9
$PUCSORTHOREF
  2

  9
$PUCSORTHOVIEW
 70
     0
  9
$PUCSORGTOP
 10
0.0
 20
0.0
 30
0.0
  9
$PUCSORGBOTTOM
 10
0.0
 20
0.0
 30
0.0
  9
$PUCSORGLEFT
 10
0.0
 20
0.0
 30
0.0
  9
$PUCSORGRIGHT
 10
0.0
 20
0.0
 30
0.0
  9
$PUCSORGFRONT
 10
0.0
 20
0.0
 30
0.0
  9
$PUCSORGBACK
 10
0.0
 20
0.0
 30
0.0
  9
$USERI1
 70
     0
  9
$USERI2
 70
     0
  9
$USERI3
 70
     0
  9
$USERI4
 70
     0
  9
$USERI5
 70
     0
  9
$USERR1
 40
0.0
  9
$USERR2
 40
0.0
  9
$USERR3
 40
0.0
  9
$USERR4
 40
0.0
  9
$USERR5
 40
0.0
  9
$WORLDVIEW
 70
     1
  9
$SHADEDGE
 70
     3
  9
$SHADEDIF
 70
    70
  9
$TILEMODE
 70
     1
  9
$MAXACTVP
 70
    64
  9
$PINSBASE
 10
0.0
 20
0.0
 30
0.0
  9
$PLIMCHECK
 70
     0
  9
$PEXTMIN
 10
1.000000000000000E+20
 20
1.000000000000000E+20
 30
1.000000000000000E+20
  9
$PEXTMAX
 10
-1.000000000000000E+20
 20
-1.000000000000000E+20
 30
-1.000000000000000E+20
  9
$PLIMMIN
 10
0.0
 20
0.0
  9
$PLIMMAX
 10
420.0
 20
297.0
  9
$UNITMODE
 70
     0
  9
$VISRETAIN
 70
     1
  9
$PLINEGEN
 70
     0
  9
$PSLTSCALE
 70
     1
  9
$TREEDEPTH
 70
  3020
  9
$CMLSTYLE
  2
Standard
  9
$CMLJUST
 70
     0
  9
$CMLSCALE
 40
20.0
  9
$PROXYGRAPHICS
 70
     1
  9
$MEASUREMENT
 70
     0
  9
$CELWEIGHT
370
    -1
  9
$ENDCAPS
280
     0
  9
$JOINSTYLE
280
     0
  9
$LWDISPLAY
290
     0
  9
$INSUNITS
 70
     1
  9
$HYPERLINKBASE
  1

  9
$STYLESHEET
  1

  9
$XEDIT
290
     1
  9
$CEPSNTYPE
380
     0
  9
$PSTYLEMODE
290
     1
  9
$FINGERPRINTGUID
  2
{8D5FEE7F-BEB1-473E-90DC-2E85E53F6088}
  9
$VERSIONGUID
  2
{7A9B330A-3A0E-4B7C-87B1-5AF97348AF77}
  9
$EXTNAMES
290
     1
  9
$PSVPSCALE
 40
0.0
  9
$OLESTARTUP
290
     0
  0
ENDSEC
  0
SECTION
  2
CLASSES
  0
CLASS
  1
ACDBDICTIONARYWDFLT
  2
AcDbDictionaryWithDefault
  3
ObjectDBX Classes
 90
        0
280
     0
281
     0
  0
CLASS
  1
ACDBPLACEHOLDER
  2
AcDbPlaceHolder
  3
ObjectDBX Classes
 90
        0
280
     0
281
     0
  0
CLASS
  1
LAYOUT
  2
AcDbLayout
  3
ObjectDBX Classes
 90
        0
280
     0
281
     0
  0
CLASS
  1
DICTIONARYVAR
  2
AcDbDictionaryVar
  3
ObjectDBX Classes
 90
        0
280
     0
281
     0
  0
CLASS
  1
SORTENTSTABLE
  2
AcDbSortentsTable
  3
ObjectDBX Classes
 90
        0
280
     0
281
     0
  0
CLASS
  1
AEC_VARS_DWG_SETUP
  2
AecDbVarsDwgSetup
  3
AecBase50|Product Desc: Autodesk Architectural Desktop 2007 |Company: Autodesk,Inc. |WEB Address: www.autodesk.com
 90
    32897
280
     0
281
     0
  0
CLASS
  1
AEC_DISP_REP_CONFIG
  2
AecDbDispRepConfig
  3
AecBase50|Product Desc: Autodesk Architectural Desktop 2007 |Company: Autodesk,Inc. |WEB Address: www.autodesk.com
 90
    32897
280
     0
281
     0
  0
CLASS
  1
AEC_DISP_REP_SET
  2
AecDbDispRepSet
  3
AecBase50|Product Desc: Autodesk Architectural Desktop 2007 |Company: Autodesk,Inc. |WEB Address: www.autodesk.com
 90
    32897
280
     0
281
     0
  0
CLASS
  1
AEC_DISP_REP_2D_SECTION
  2
AecDbDispRep2dSection
  3
AecBase50|Product Desc: Autodesk Architectural Desktop 2007 |Company: Autodesk,Inc. |WEB Address: www.autodesk.com
 90
    32897
280
     0
281
     0
  0
CLASS
  1
AEC_DISP_REP_ANCHOR_BUB_TO_GRID
  2
AecDbDispRepAnchorBubToGrid
  3
AecStructureBase50|Product Desc: Autodesk Architectural Desktop 2007 |Company: Autodesk,Inc. |WEB Address: www.autodesk.com
 90
    32897
280
     0
281
     0
  0
CLASS
  1
AEC_DISP_REP_ANCHOR_BUB_TO_GRID_MODEL
  2
AecDbDispRepAnchorBubToGridMdl
  3
AecStructureBase50|Product Desc: Autodesk Architectural Desktop 2007 |Company: Autodesk,Inc. |WEB Address: www.autodesk.com
 90
    32897
280
     0
281
     0
  0
CLASS
  1
AEC_DISP_REP_ANCHOR_ENT_TO_NODE
  2
AecDbDispRepAnchorEntToNode
  3
AecBaseEx50|Product Desc: Autodesk Architectural Desktop 2007 |Company: Autodesk,Inc. |WEB Address: www.autodesk.com
 90
    32897
280
     0
281
     0
  0
CLASS
  1
AEC_DISP_REP_ANCHOR_TAG_TO_ENT
  2
AecDbDispRepAnchorTagToEnt
  3
AecScheduleData50|Product Desc: Autodesk Architectural Desktop 2007 |Company: Autodesk,Inc. |WEB Address: www.autodesk.com
 90
    32897
280
     0
281
     0
  0
CLASS
  1
AEC_DISP_REP_AREA
  2
AecDbDispRepArea
  3
AecAreaCalculationBase50|Product Desc: Autodesk Architectural Desktop 2007 |Company: Autodesk,Inc. |WEB Address: www.autodesk.com
 90
    32897
280
     0
281
     0
  0
CLASS
  1
AEC_DISP_REP_AREA_DECOMPOSED
  2
AecDbDispRepAreaDecomposed
  3
AecAreaCalculationBase50|Product Desc: Autodesk Architectural Desktop 2007 |Company: Autodesk,Inc. |WEB Address: www.autodesk.com
 90
    32897
280
     0
281
     0
  0
CLASS
  1
AEC_DISP_REP_AREAGROUP
  2
AecDbDispRepAreaGroup
  3
AecAreaCalculationBase50|Product Desc: Autodesk Architectural Desktop 2007 |Company: Autodesk,Inc. |WEB Address: www.autodesk.com
 90
    32897
280
     0
281
     0
  0
CLASS
  1
AEC_DISP_REP_BDG_ELEVLINE_MODEL
  2
AecDbDispRepBdgElevLineModel
  3
AecArchBase50|Product Desc: Autodesk Architectural Desktop 2007 |Company: Autodesk,Inc. |WEB Address: www.autodesk.com
 90
    32897
280
     0
281
     0
  0
CLASS
  1
AEC_DISP_REP_BDG_SECTIONLINE_PLAN
  2
AecDbDispRepBdgElevLinePlan
  3
AecArchBase50|Product Desc: Autodesk Architectural Desktop 2007 |Company: Autodesk,Inc. |WEB Address: www.autodesk.com
 90
    32897
280
     0
281
     0
  0
CLASS
  1
AEC_DISP_REP_BDG_SECTIONLINE_MODEL
  2
AecDbDispRepBdgSectionLineModel
  3
AecArchBase50|Product Desc: Autodesk Architectural Desktop 2007 |Company: Autodesk,Inc. |WEB Address: www.autodesk.com
 90
    32897
280
     0
281
     0
  0
CLASS
  1
AEC_DISP_REP_BDG_SECTIONLINE_PLAN
  2
AecDbDispRepBdgSectionLinePlan
  3
AecArchBase50|Product Desc: Autodesk Architectural Desktop 2007 |Company: Autodesk,Inc. |WEB Address: www.autodesk.com
 90
    32897
280
     0
281
     0
  0
CLASS
  1
AEC_DISP_REP_BDG_SECTION_SUBDIV
  2
AecDbDispRepBdgSectionSubDiv
  3
AecArchBase50|Product Desc: Autodesk Architectural Desktop 2007 |Company: Autodesk,Inc. |WEB Address: www.autodesk.com
 90
    32897
280
     0
281
     0
  0
CLASS
  1
AEC_DISP_REP_CAMERA
  2
AecDbDispRepCamera
  3
AecBase50|Product Desc: Autodesk Architectural Desktop 2007 |Company: Autodesk,Inc. |WEB Address: www.autodesk.com
 90
    32897
280
     0
281
     0
  0
CLASS
  1
AEC_DISP_REP_CEILING_GRID
  2
AecDbDispRepCeilingGrid
  3
AecArchBase50|Product Desc: Autodesk Architectural Desktop 2007 |Company: Autodesk,Inc. |WEB Address: www.autodesk.com
 90
    33661
280
     0
281
     0
  0
CLASS
  1
AEC_DISP_REP_CEILING_GRID_MODEL
  2
AecDbDispRepCeilingGridModel
  3
AecArchBase50|Product Desc: Autodesk Architectural Desktop 2007 |Company: Autodesk,Inc. |WEB Address: www.autodesk.com
 90
    32897
280
     0
281
     0
  0
CLASS
  1
AEC_DISP_REP_CEILING_GRID_RCP
  2
AecDbDispRepCeilingGridRcp
  3
AecArchBase50|Product Desc: Autodesk Architectural Desktop 2007 |Company: Autodesk,Inc. |WEB Address: www.autodesk.com
 90
    32897
280
     0
281
     0
  0
CLASS
  1
AEC_DISP_REP_CLIP_VOLUME_MODEL
  2
AecDbDispRepClipVolModel
  3
AecBase50|Product Desc: Autodesk Architectural Desktop 2007 |Company: Autodesk,Inc. |WEB Address: www.autodesk.com
 90
    32897
280
     0
281
     0
  0
CLASS
  1
AEC_DISP_REP_CLIP_VOLUME_PLAN
  2
AecDbDispRepClipVolPlan
  3
AecBase50|Product Desc: Autodesk Architectural Desktop 2007 |Company: Autodesk,Inc. |WEB Address: www.autodesk.com
 90
    32897
280
     0
281
     0
  0
CLASS
  1
AEC_DISP_REP_CLIP_VOLUME_RESULT_SUBDIV
  2
AecDbDispRepClipVolResSubDiv
  3
AecBase50|Product Desc: Autodesk Architectural Desktop 2007 |Company: Autodesk,Inc. |WEB Address: www.autodesk.com
 90
    32897
280
     0
281
     0
  0
CLASS
  1
AEC_DISP_REP_CLIP_VOLUME_RESULT
  2
AecDbDispRepClipVolResult
  3
AecBase50|Product Desc: Autodesk Architectural Desktop 2007 |Company: Autodesk,Inc. |WEB Address: www.autodesk.com
 90
    32897
280
     0
281
     0
  0
CLASS
  1
AEC_DISP_REP_COLUMN_GRID
  2
AecDbDispRepColumnGrid
  3
AecStructureBase50|Product Desc: Autodesk Architectural Desktop 2007 |Company: Autodesk,Inc. |WEB Address: www.autodesk.com
 90
    32897
280
     0
281
     0
  0
CLASS
  1
AEC_DISP_REP_COLUMN_GRID_MODEL
  2
AecDbDispRepColumnGridModel
  3
AecStructureBase50|Product Desc: Autodesk Architectural Desktop 2007 |Company: Autodesk,Inc. |WEB Address: www.autodesk.com
 90
    32897
280
     0
281
     0
  0
CLASS
  1
AEC_DISP_REP_CURTAIN_WALL_LAYOUT_MODEL
  2
AecDbDispRepCurtainWallLayoutModel
  3
AecArchBase50|Product Desc: Autodesk Architectural Desktop 2007 |Company: Autodesk,Inc. |WEB Address: www.autodesk.com
 90
    32897
280
     0
281
     0
  0
CLASS
  1
AEC_DISP_REP_CURTAIN_WALL_LAYOUT_PLAN
  2
AecDbDispRepCurtainWallLayoutPlan
  3
AecArchBase50|Product Desc: Autodesk Architectural Desktop 2007 |Company: Autodesk,Inc. |WEB Address: www.autodesk.com
 90
    32897
280
     0
281
     0
  0
CLASS
  1
AEC_DISP_REP_CURTAIN_WALL_UNIT_MODEL
  2
AecDbDispRepCurtainWallUnitModel
  3
AecArchBase50|Product Desc: Autodesk Architectural Desktop 2007 |Company: Autodesk,Inc. |WEB Address: www.autodesk.com
 90
    32897
280
     0
281
     0
  0
CLASS
  1
AEC_DISP_REP_CURTAIN_WALL_UNIT_PLAN
  2
AecDbDispRepCurtainWallUnitPlan
  3
AecArchBase50|Product Desc: Autodesk Architectural Desktop 2007 |Company: Autodesk,Inc. |WEB Address: www.autodesk.com
 90
    32897
280
     0
281
     0
  0
CLASS
  1
AEC_DB_DISP_REP_DIM_GROUP_PLAN
  2
AecDbDispRepDimGroupPlan
  3
AecArchDACHBase50|Product Desc: Autodesk Architectural Desktop 2007 |Company: Autodesk,Inc. |WEB Address: www.autodesk.com
 90
    32897
280
     0
281
     0
  0
CLASS
  1
AEC_DISP_REP_DOOR_MODEL
  2
AecDbDispRepDoorModel
  3
AecArchBase50|Product Desc: Autodesk Architectural Desktop 2007 |Company: Autodesk,Inc. |WEB Address: www.autodesk.com
 90
    32897
280
     0
281
     0
  0
CLASS
  1
AEC_DISP_REP_DOOR_NOMINAL
  2
AecDbDispRepDoorNominal
  3
AecArchBase50|Product Desc: Autodesk Architectural Desktop 2007 |Company: Autodesk,Inc. |WEB Address: www.autodesk.com
 90
    32897
280
     0
281
     0
  0
CLASS
  1
AEC_DISP_REP_DOOR_PLAN
  2
AecDbDispRepDoorPlan
  3
AecArchBase50|Product Desc: Autodesk Architectural Desktop 2007 |Company: Autodesk,Inc. |WEB Address: www.autodesk.com
 90
    32897
280
     0
281
     0
  0
CLASS
  1
AEC_DISP_REP_EDITINPLACEPROFILE
  2
AecDbDispRepEditInPlaceProfile
  3
AecBase50|Product Desc: Autodesk Architectural Desktop 2007 |Company: Autodesk,Inc. |WEB Address: www.autodesk.com
 90
    32897
280
     0
281
     0
  0
CLASS
  1
AEC_DISP_REP_ENT_REF
  2
AecDbDispRepEntRef
  3
AecBase50|Product Desc: Autodesk Architectural Desktop 2007 |Company: Autodesk,Inc. |WEB Address: www.autodesk.com
 90
    32897
280
     0
281
     0
  0
CLASS
  1
AEC_DISP_REP_LAYOUT_CURVE
  2
AecDbDispRepLayoutCurve
  3
AecBase50|Product Desc: Autodesk Architectural Desktop 2007 |Company: Autodesk,Inc. |WEB Address: www.autodesk.com
 90
    32897
280
     0
281
     0
  0
CLASS
  1
AEC_DISP_REP_LAYOUT_GRID2D
  2
AecDbDispRepLayoutGrid2d
  3
AecBase50|Product Desc: Autodesk Architectural Desktop 2007 |Company: Autodesk,Inc. |WEB Address: www.autodesk.com
 90
    32897
280
     0
281
     0
  0
CLASS
  1
AEC_DISP_REP_LAYOUT_GRID3D
  2
AecDbDispRepLayoutGrid3d
  3
AecBase50|Product Desc: Autodesk Architectural Desktop 2007 |Company: Autodesk,Inc. |WEB Address: www.autodesk.com
 90
    32897
280
     0
281
     0
  0
CLASS
  1
AEC_DISP_REP_MASKBLOCK_REF
  2
AecDbDispRepMaskBlockRef
  3
AecBase50|Product Desc: Autodesk Architectural Desktop 2007 |Company: Autodesk,Inc. |WEB Address: www.autodesk.com
 90
    32897
280
     0
281
     0
  0
CLASS
  1
AEC_DISP_REP_MASKBLOCK_REF_RCP
  2
AecDbDispRepMaskBlockRefRcp
  3
AecArchBase50|Product Desc: Autodesk Architectural Desktop 2007 |Company: Autodesk,Inc. |WEB Address: www.autodesk.com
 90
    32897
280
     0
281
     0
  0
CLASS
  1
AEC_DISP_REP_MASS_ELEM_MODEL
  2
AecDbDispRepMassElemModel
  3
AecBaseEx50|Product Desc: Autodesk Architectural Desktop 2007 |Company: Autodesk,Inc. |WEB Address: www.autodesk.com
 90
    32897
280
     0
281
     0
  0
CLASS
  1
AEC_DISP_REP_MASS_ELEM_SCHEM
  2
AecDbDispRepMassElemSchem
  3
AecBaseEx50|Product Desc: Autodesk Architectural Desktop 2007 |Company: Autodesk,Inc. |WEB Address: www.autodesk.com
 90
    32897
280
     0
281
     0
  0
CLASS
  1
AEC_DISP_REP_MASS_GROUP_MODEL
  2
AecDbDispRepMassGroupModel
  3
AecBaseEx50|Product Desc: Autodesk Architectural Desktop 2007 |Company: Autodesk,Inc. |WEB Address: www.autodesk.com
 90
    32897
280
     0
281
     0
  0
CLASS
  1
AEC_DISP_REP_MASS_GROUP_PLAN
  2
AecDbDispRepMassGroupPlan
  3
AecBaseEx50|Product Desc: Autodesk Architectural Desktop 2007 |Company: Autodesk,Inc. |WEB Address: www.autodesk.com
 90
    32897
280
     0
281
     0
  0
CLASS
  1
AEC_DISP_REP_MATERIAL
  2
AecDbDispRepMaterial
  3
AecBase50|Product Desc: Autodesk Architectural Desktop 2007 |Company: Autodesk,Inc. |WEB Address: www.autodesk.com
 90
    32897
280
     0
281
     0
  0
CLASS
  1
AEC_DISP_REP_MVBLOCK_REF
  2
AecDbDispRepMvBlockRef
  3
AecBase50|Product Desc: Autodesk Architectural Desktop 2007 |Company: Autodesk,Inc. |WEB Address: www.autodesk.com
 90
    32897
280
     0
281
     0
  0
CLASS
  1
AEC_DISP_REP_MVBLOCK_REF_MODEL
  2
AecDbDispRepMvBlockRefModel
  3
AecBase50|Product Desc: Autodesk Architectural Desktop 2007 |Company: Autodesk,Inc. |WEB Address: www.autodesk.com
 90
    32897
280
     0
281
     0
  0
CLASS
  1
AEC_DISP_REP_OPENING
  2
AecDbDispRepOpening
  3
AecArchBase50|Product Desc: Autodesk Architectural Desktop 2007 |Company: Autodesk,Inc. |WEB Address: www.autodesk.com
 90
    32897
280
     0
281
     0
  0
CLASS
  1
AEC_DISP_REP_OPENING_MODEL
  2
AecDbDispRepOpeningModel
  3
AecArchBase50|Product Desc: Autodesk Architectural Desktop 2007 |Company: Autodesk,Inc. |WEB Address: www.autodesk.com
 90
    32897
280
     0
281
     0
  0
CLASS
  1
AEC_DISP_REP_POLYGON_MODEL
  2
AecDbDispRepPolygonModel
  3
AecBaseEx50|Product Desc: Autodesk Architectural Desktop 2007 |Company: Autodesk,Inc. |WEB Address: www.autodesk.com
 90
    32897
280
     0
281
     0
  0
CLASS
  1
AEC_DISP_REP_RAILING_MODEL
  2
AecDbDispRepRailingModel
  3
AecArchBase50|Product Desc: Autodesk Architectural Desktop 2007 |Company: Autodesk,Inc. |WEB Address: www.autodesk.com
 90
    32897
280
     0
281
     0
  0
CLASS
  1
AEC_DISP_REP_RAILING_PLAN
  2
AecDbDispRepRailingPlan
  3
AecArchBase50|Product Desc: Autodesk Architectural Desktop 2007 |Company: Autodesk,Inc. |WEB Address: www.autodesk.com
 90
    32897
280
     0
281
     0
  0
CLASS
  1
AEC_DISP_REP_ROOF_MODEL
  2
AecDbDispRepRoofModel
  3
AecArchBase50|Product Desc: Autodesk Architectural Desktop 2007 |Company: Autodesk,Inc. |WEB Address: www.autodesk.com
 90
    32897
280
     0
281
     0
  0
CLASS
  1
AEC_DISP_REP_ROOF_PLAN
  2
AecDbDispRepRoofPlan
  3
AecArchBase50|Product Desc: Autodesk Architectural Desktop 2007 |Company: Autodesk,Inc. |WEB Address: www.autodesk.com
 90
    32897
280
     0
281
     0
  0
CLASS
  1
AEC_DISP_REP_ROOFSLAB_MODEL
  2
AecDbDispRepRoofSlabModel
  3
AecArchBase50|Product Desc: Autodesk Architectural Desktop 2007 |Company: Autodesk,Inc. |WEB Address: www.autodesk.com
 90
    32897
280
     0
281
     0
  0
CLASS
  1
AEC_DISP_REP_ROOFSLAB_PLAN
  2
AecDbDispRepRoofSlabPlan
  3
AecArchBase50|Product Desc: Autodesk Architectural Desktop 2007 |Company: Autodesk,Inc. |WEB Address: www.autodesk.com
 90
    32897
280
     0
281
     0
  0
CLASS
  1
AEC_DISP_REP_SCHEDULE_TABLE
  2
AecDbDispRepScheduleTable
  3
AecSchedule50|Product Desc: Autodesk Architectural Desktop 2007 |Company: Autodesk,Inc. |WEB Address: www.autodesk.com
 90
    32897
280
     0
281
     0
  0
CLASS
  1
AEC_DISP_REP_SLAB_MODEL
  2
AecDbDispRepSlabModel
  3
AecArchBase50|Product Desc: Autodesk Architectural Desktop 2007 |Company: Autodesk,Inc. |WEB Address: www.autodesk.com
 90
    32897
280
     0
281
     0
  0
CLASS
  1
AEC_DISP_REP_SLAB_PLAN
  2
AecDbDispRepSlabPlan
  3
AecArchBase50|Product Desc: Autodesk Architectural Desktop 2007 |Company: Autodesk,Inc. |WEB Address: www.autodesk.com
 90
    32897
280
     0
281
     0
  0
CLASS
  1
AEC_DISP_REP_SLICE
  2
AecDbDispRepSlice
  3
AecBase50|Product Desc: Autodesk Architectural Desktop 2007 |Company: Autodesk,Inc. |WEB Address: www.autodesk.com
 90
    32897
280
     0
281
     0
  0
CLASS
  1
AEC_DISP_REP_SPACE_BOUNDARY_MODEL
  2
AecDbDispRepSpaceBoundaryModel
  3
AecArchBase50|Product Desc: Autodesk Architectural Desktop 2007 |Company: Autodesk,Inc. |WEB Address: www.autodesk.com
 90
    32897
280
     0
281
     0
  0
CLASS
  1
AEC_DISP_REP_SPACE_BOUNDARY_PLAN
  2
AecDbDispRepSpaceBoundaryPlan
  3
AecArchBase50|Product Desc: Autodesk Architectural Desktop 2007 |Company: Autodesk,Inc. |WEB Address: www.autodesk.com
 90
    32897
280
     0
281
     0
  0
CLASS
  1
AEC_DISP_REP_SPACE_BOUNDARY_SCHEM
  2
AecDbDispRepSpaceBoundarySketch
  3
AecArchBase50|Product Desc: Autodesk Architectural Desktop 2007 |Company: Autodesk,Inc. |WEB Address: www.autodesk.com
 90
    32897
280
     0
281
     0
  0
CLASS
  1
AEC_DISP_REP_SPACE_MODEL
  2
AecDbDispRepSpaceModel
  3
AecArchBase50|Product Desc: Autodesk Architectural Desktop 2007 |Company: Autodesk,Inc. |WEB Address: www.autodesk.com
 90
    32897
280
     0
281
     0
  0
CLASS
  1
AEC_DISP_REP_SPACE_PLAN
  2
AecDbDispRepSpacePlan
  3
AecArchBase50|Product Desc: Autodesk Architectural Desktop 2007 |Company: Autodesk,Inc. |WEB Address: www.autodesk.com
 90
    32897
280
     0
281
     0
  0
CLASS
  1
AEC_DISP_REP_STAIR_MODEL
  2
AecDbDispRepStairModel
  3
AecArchBase50|Product Desc: Autodesk Architectural Desktop 2007 |Company: Autodesk,Inc. |WEB Address: www.autodesk.com
 90
    32897
280
     0
281
     0
  0
CLASS
  1
AEC_DISP_REP_STAIR_PLAN
  2
AecDbDispRepStairPlan
  3
AecArchBase50|Product Desc: Autodesk Architectural Desktop 2007 |Company: Autodesk,Inc. |WEB Address: www.autodesk.com
 90
    32897
280
     0
281
     0
  0
CLASS
  1
AEC_DISP_REP_WALL_GRAPH
  2
AecDbDispRepWallGraph
  3
AecArchBase50|Product Desc: Autodesk Architectural Desktop 2007 |Company: Autodesk,Inc. |WEB Address: www.autodesk.com
 90
    32897
280
     0
281
     0
  0
CLASS
  1
AEC_DISP_REP_WALL_MODEL
  2
AecDbDispRepWallModel
  3
AecArchBase50|Product Desc: Autodesk Architectural Desktop 2007 |Company: Autodesk,Inc. |WEB Address: www.autodesk.com
 90
    32897
280
     0
281
     0
  0
CLASS
  1
AEC_DISP_REP_WALL_PLAN
  2
AecDbDispRepWallPlan
  3
AecArchBase50|Product Desc: Autodesk Architectural Desktop 2007 |Company: Autodesk,Inc. |WEB Address: www.autodesk.com
 90
    32897
280
     0
281
     0
  0
CLASS
  1
AEC_DISP_REP_WALL_SCHEM
  2
AecDbDispRepWallSchem
  3
AecArchBase50|Product Desc: Autodesk Architectural Desktop 2007 |Company: Autodesk,Inc. |WEB Address: www.autodesk.com
 90
    32897
280
     0
281
     0
  0
CLASS
  1
AEC_DISP_REP_WINDOW_ASSEMBLY_MODEL
  2
AecDbDispRepWindowAssemblyModel
  3
AecArchBase50|Product Desc: Autodesk Architectural Desktop 2007 |Company: Autodesk,Inc. |WEB Address: www.autodesk.com
 90
    32897
280
     0
281
     0
  0
CLASS
  1
AEC_DISP_REP_WINDOW_ASSEMBLY_PLAN
  2
AecDbDispRepWindowAssemblyPlan
  3
AecArchBase50|Product Desc: Autodesk Architectural Desktop 2007 |Company: Autodesk,Inc. |WEB Address: www.autodesk.com
 90
    32897
280
     0
281
     0
  0
CLASS
  1
AEC_AECDBDISPREPWINDOWASSEMBLYPLAN100
  2
AecDbDispRepWindowAssemblyPlan100
  3
AecArchDACHBase50|Product Desc: Autodesk Architectural Desktop 2007 |Company: Autodesk,Inc. |WEB Address: www.autodesk.com
 90
    32897
280
     0
281
     0
  0
CLASS
  1
AEC_DISP_REP_WINDOW_MODEL
  2
AecDbDispRepWindowModel
  3
AecArchBase50|Product Desc: Autodesk Architectural Desktop 2007 |Company: Autodesk,Inc. |WEB Address: www.autodesk.com
 90
    32897
280
     0
281
     0
  0
CLASS
  1
AEC_DISP_REP_WINDOW_NOMINAL
  2
AecDbDispRepWindowNominal
  3
AecArchBase50|Product Desc: Autodesk Architectural Desktop 2007 |Company: Autodesk,Inc. |WEB Address: www.autodesk.com
 90
    32897
280
     0
281
     0
  0
CLASS
  1
AEC_DISP_REP_WINDOW_PLAN
  2
AecDbDispRepWindowPlan
  3
AecArchBase50|Product Desc: Autodesk Architectural Desktop 2007 |Company: Autodesk,Inc. |WEB Address: www.autodesk.com
 90
    32897
280
     0
281
     0
  0
CLASS
  1
AECS_DISP_REP_MEMBER_LOGICAL
  2
AecsDbDispRepMemberLogical
  3
AecStructureBase50|Product Desc: Autodesk Architectural Desktop 2007 |Company: Autodesk,Inc. |WEB Address: www.autodesk.com
 90
    32897
280
     0
281
     0
  0
CLASS
  1
AECS_DISP_REP_MEMBER_MODEL_DESIGN
  2
AecsDbDispRepMemberModelDesign
  3
AecStructureBase50|Product Desc: Autodesk Architectural Desktop 2007 |Company: Autodesk,Inc. |WEB Address: www.autodesk.com
 90
    32897
280
     0
281
     0
  0
CLASS
  1
AECS_DISP_REP_MEMBER_PLAN_DESIGN
  2
AecsDbDispRepMemberPlanDesign
  3
AecStructureBase50|Product Desc: Autodesk Architectural Desktop 2007 |Company: Autodesk,Inc. |WEB Address: www.autodesk.com
 90
    32897
280
     0
281
     0
  0
CLASS
  1
AEC_DISP_PROPS_ENT
  2
AecDbDispPropsEnt
  3
AecBase50|Product Desc: Autodesk Architectural Desktop 2007 |Company: Autodesk,Inc. |WEB Address: www.autodesk.com
 90
    32897
280
     0
281
     0
  0
CLASS
  1
AEC_DISP_PROPS_CLIP_VOLUME
  2
AecDbDispPropsClipVol
  3
AecBase50|Product Desc: Autodesk Architectural Desktop 2007 |Company: Autodesk,Inc. |WEB Address: www.autodesk.com
 90
    32897
280
     0
281
     0
  0
CLASS
  1
AEC_DISP_PROPS_SLICE
  2
AecDbDispPropsSlice
  3
AecBase50|Product Desc: Autodesk Architectural Desktop 2007 |Company: Autodesk,Inc. |WEB Address: www.autodesk.com
 90
    32897
280
     0
281
     0
  0
CLASS
  1
AEC_DISP_PROPS_ROOFSLAB_PLAN
  2
AecDbDispPropsRoofSlabPlan
  3
AecArchBase50|Product Desc: Autodesk Architectural Desktop 2007 |Company: Autodesk,Inc. |WEB Address: www.autodesk.com
 90
    32897
280
     0
281
     0
  0
CLASS
  1
AEC_DISP_PROPS_GRID_ASSEMBLY_MODEL
  2
AecDbDispPropsGridAssemblyModel
  3
AecArchBase50|Product Desc: Autodesk Architectural Desktop 2007 |Company: Autodesk,Inc. |WEB Address: www.autodesk.com
 90
    32897
280
     0
281
     0
  0
CLASS
  1
AEC_DISP_PROPS_ROOF
  2
AecDbDispPropsRoof
  3
AecArchBase50|Product Desc: Autodesk Architectural Desktop 2007 |Company: Autodesk,Inc. |WEB Address: www.autodesk.com
 90
    32897
280
     0
281
     0
  0
CLASS
  1
AEC_DISP_PROPS_SPACE_MODEL
  2
AecDbDispPropsSpaceModel
  3
AecArchBase50|Product Desc: Autodesk Architectural Desktop 2007 |Company: Autodesk,Inc. |WEB Address: www.autodesk.com
 90
    32897
280
     0
281
     0
  0
CLASS
  1
AEC_DISP_PROPS_EDITINPLACEPROFILE_MODEL
  2
AecDbDispPropsEditInPlaceProfile
  3
AecBase50|Product Desc: Autodesk Architectural Desktop 2007 |Company: Autodesk,Inc. |WEB Address: www.autodesk.com
 90
    32897
280
     0
281
     0
  0
CLASS
  1
AEC_DISP_PROPS_DOOR
  2
AecDbDispPropsDoor
  3
AecArchBase50|Product Desc: Autodesk Architectural Desktop 2007 |Company: Autodesk,Inc. |WEB Address: www.autodesk.com
 90
    32897
280
     0
281
     0
  0
CLASS
  1
AEC_DISP_PROPS_MASKBLOCK
  2
AecDbDispPropsMaskBlock
  3
AecBase50|Product Desc: Autodesk Architectural Desktop 2007 |Company: Autodesk,Inc. |WEB Address: www.autodesk.com
 90
    32897
280
     0
281
     0
  0
CLASS
  1
AEC_DISP_PROPS_SPACE_PLAN
  2
AecDbDispPropsSpacePlan
  3
AecArchBase50|Product Desc: Autodesk Architectural Desktop 2007 |Company: Autodesk,Inc. |WEB Address: www.autodesk.com
 90
    32897
280
     0
281
     0
  0
CLASS
  1
AEC_DISP_PROPS_RAILING_PLAN
  2
AecDbDispPropsRailingPlan
  3
AecArchBase50|Product Desc: Autodesk Architectural Desktop 2007 |Company: Autodesk,Inc. |WEB Address: www.autodesk.com
 90
    32897
280
     0
281
     0
  0
CLASS
  1
AEC_DISP_PROPS_LAYOUT_GRID2D
  2
AecDbDispPropsLayoutGrid2d
  3
AecBase50|Product Desc: Autodesk Architectural Desktop 2007 |Company: Autodesk,Inc. |WEB Address: www.autodesk.com
 90
    32897
280
     0
281
     0
  0
CLASS
  1
AEC_DISP_PROPS_CLIP_VOLUME_RESULT
  2
AecDbDispPropsClipVolResSubDiv
  3
AecBase50|Product Desc: Autodesk Architectural Desktop 2007 |Company: Autodesk,Inc. |WEB Address: www.autodesk.com
 90
    32897
280
     0
281
     0
  0
CLASS
  1
AEC_DISP_PROPS_STAIR_MODEL
  2
AecDbDispPropsStairModel
  3
AecArchBase50|Product Desc: Autodesk Architectural Desktop 2007 |Company: Autodesk,Inc. |WEB Address: www.autodesk.com
 90
    32897
280
     0
281
     0
  0
CLASS
  1
AEC_DISP_PROPS_LAYOUT_CURVE
  2
AecDbDispPropsLayoutCurve
  3
AecBase50|Product Desc: Autodesk Architectural Desktop 2007 |Company: Autodesk,Inc. |WEB Address: www.autodesk.com
 90
    32897
280
     0
281
     0
  0
CLASS
  1
AEC_DISP_PROPS_POLYGON_MODEL
  2
AecDbDispPropsPolygonModel
  3
AecBaseEx50|Product Desc: Autodesk Architectural Desktop 2007 |Company: Autodesk,Inc. |WEB Address: www.autodesk.com
 90
    32897
280
     0
281
     0
  0
CLASS
  1
AEC_DISP_PROPS_MASS_GROUP
  2
AecDbDispPropsMassGroup
  3
AecBaseEx50|Product Desc: Autodesk Architectural Desktop 2007 |Company: Autodesk,Inc. |WEB Address: www.autodesk.com
 90
    32897
280
     0
281
     0
  0
CLASS
  1
AEC_DISP_PROPS_STAIR_PLAN
  2
AecDbDispPropsStairPlan
  3
AecArchBase50|Product Desc: Autodesk Architectural Desktop 2007 |Company: Autodesk,Inc. |WEB Address: www.autodesk.com
 90
    32897
280
     0
281
     0
  0
CLASS
  1
AEC_DISP_PROPS_OPENING
  2
AecDbDispPropsOpening
  3
AecArchBase50|Product Desc: Autodesk Architectural Desktop 2007 |Company: Autodesk,Inc. |WEB Address: www.autodesk.com
 90
    32897
280
     0
281
     0
  0
CLASS
  1
AEC_DISP_PROPS_WALL_GRAPH
  2
AecDbDispPropsWallGraph
  3
AecArchBase50|Product Desc: Autodesk Architectural Desktop 2007 |Company: Autodesk,Inc. |WEB Address: www.autodesk.com
 90
    32897
280
     0
281
     0
  0
CLASS
  1
AEC_DISP_PROPS_DOOR_NOMINAL
  2
AecDbDispPropsDoorNominal
  3
AecArchBase50|Product Desc: Autodesk Architectural Desktop 2007 |Company: Autodesk,Inc. |WEB Address: www.autodesk.com
 90
    32897
280
     0
281
     0
  0
CLASS
  1
AEC_DISP_PROPS_SLAB
  2
AecDbDispPropsSlab
  3
AecArchBase50|Product Desc: Autodesk Architectural Desktop 2007 |Company: Autodesk,Inc. |WEB Address: www.autodesk.com
 90
    32897
280
     0
281
     0
  0
CLASS
  1
AEC_DISP_PROPS_WALL_MODEL
  2
AecDbDispPropsWallModel
  3
AecArchBase50|Product Desc: Autodesk Architectural Desktop 2007 |Company: Autodesk,Inc. |WEB Address: www.autodesk.com
 90
    32897
280
     0
281
     0
  0
CLASS
  1
AEC_DISP_PROPS_MATERIAL
  2
AecDbDispPropsMaterial
  3
AecBase50|Product Desc: Autodesk Architectural Desktop 2007 |Company: Autodesk,Inc. |WEB Address: www.autodesk.com
 90
    32897
280
     0
281
     0
  0
CLASS
  1
AEC_DISP_PROPS_WINDOW
  2
AecDbDispPropsWindow
  3
AecArchBase50|Product Desc: Autodesk Architectural Desktop 2007 |Company: Autodesk,Inc. |WEB Address: www.autodesk.com
 90
    32897
280
     0
281
     0
  0
CLASS
  1
AEC_DISP_PROPS_LAYOUT_GRID3D
  2
AecDbDispPropsLayoutGrid3d
  3
AecBase50|Product Desc: Autodesk Architectural Desktop 2007 |Company: Autodesk,Inc. |WEB Address: www.autodesk.com
 90
    32897
280
     0
281
     0
  0
CLASS
  1
AEC_DISP_PROPS_GRID_ASSEMBLY_PLAN
  2
AecDbDispPropsGridAssemblyPlan
  3
AecArchBase50|Product Desc: Autodesk Architectural Desktop 2007 |Company: Autodesk,Inc. |WEB Address: www.autodesk.com
 90
    32897
280
     0
281
     0
  0
CLASS
  1
AEC_DISP_PROPS_WALL_SCHEM
  2
AecDbDispPropsWallSchem
  3
AecArchBase50|Product Desc: Autodesk Architectural Desktop 2007 |Company: Autodesk,Inc. |WEB Address: www.autodesk.com
 90
    32897
280
     0
281
     0
  0
CLASS
  1
AEC_DISP_PROPS_WALL_PLAN
  2
AecDbDispPropsWallPlan
  3
AecArchBase50|Product Desc: Autodesk Architectural Desktop 2007 |Company: Autodesk,Inc. |WEB Address: www.autodesk.com
 90
    32897
280
     0
281
     0
  0
CLASS
  1
AEC_DISP_PROPS_SPACE_BOUNDARY
  2
AecDbDispPropsSpaceBoundary
  3
AecArchBase50|Product Desc: Autodesk Architectural Desktop 2007 |Company: Autodesk,Inc. |WEB Address: www.autodesk.com
 90
    32897
280
     0
281
     0
  0
CLASS
  1
AEC_DISP_PROPS_SLAB_PLAN
  2
AecDbDispPropsSlabPlan
  3
AecArchBase50|Product Desc: Autodesk Architectural Desktop 2007 |Company: Autodesk,Inc. |WEB Address: www.autodesk.com
 90
    32897
280
     0
281
     0
  0
CLASS
  1
AEC_DISP_PROPS_RAILING_MODEL
  2
AecDbDispPropsRailingModel
  3
AecArchBase50|Product Desc: Autodesk Architectural Desktop 2007 |Company: Autodesk,Inc. |WEB Address: www.autodesk.com
 90
    32897
280
     0
281
     0
  0
CLASS
  1
AEC_DISP_PROPS_MASS_ELEM_MODEL
  2
AecDbDispPropsMassElem
  3
AecBaseEx50|Product Desc: Autodesk Architectural Desktop 2007 |Company: Autodesk,Inc. |WEB Address: www.autodesk.com
 90
    32897
280
     0
281
     0
  0
CLASS
  1
AEC_DISP_PROPS_DIM
  2
AecDbDispPropsDimGroup
  3
AecArchDACHBase50|Product Desc: Autodesk Architectural Desktop 2007 |Company: Autodesk,Inc. |WEB Address: www.autodesk.com
 90
    32897
280
     0
281
     0
  0
CLASS
  1
AEC_DISP_PROPS_ROOFSLAB
  2
AecDbDispPropsRoofSlab
  3
AecArchBase50|Product Desc: Autodesk Architectural Desktop 2007 |Company: Autodesk,Inc. |WEB Address: www.autodesk.com
 90
    32897
280
     0
281
     0
  0
CLASS
  1
AEC_DISP_PROPS_ENT_REF
  2
AecDbDispPropsEntRef
  3
AecBase50|Product Desc: Autodesk Architectural Desktop 2007 |Company: Autodesk,Inc. |WEB Address: www.autodesk.com
 90
    32897
280
     0
281
     0
  0
CLASS
  1
AEC_DISP_PROPS_2D_SECTION
  2
AecDbDispProps2dSection
  3
AecBase50|Product Desc: Autodesk Architectural Desktop 2007 |Company: Autodesk,Inc. |WEB Address: www.autodesk.com
 90
    32897
280
     0
281
     0
  0
CLASS
  1
AECS_DISP_PROPS_MEMBER_LOGICAL
  2
AecsDbDispPropsMemberLogical
  3
AecStructureBase50|Product Desc: Autodesk Architectural Desktop 2007 |Company: Autodesk,Inc. |WEB Address: www.autodesk.com
 90
    32897
280
     0
281
     0
  0
CLASS
  1
AEC_DISP_PROPS_AREA_DECOMPOSED
  2
AecDbDispPropsAreaDecomposed
  3
AecAreaCalculationBase50|Product Desc: Autodesk Architectural Desktop 2007 |Company: Autodesk,Inc. |WEB Address: www.autodesk.com
 90
    32897
280
     0
281
     0
  0
CLASS
  1
AEC_DISP_PROPS_CAMERA
  2
AecDbDispPropsCamera
  3
AecBase50|Product Desc: Autodesk Architectural Desktop 2007 |Company: Autodesk,Inc. |WEB Address: www.autodesk.com
 90
    32897
280
     0
281
     0
  0
CLASS
  1
AECS_DISP_PROPS_MEMBER
  2
AecsDbDispPropsMember
  3
AecStructureBase50|Product Desc: Autodesk Architectural Desktop 2007 |Company: Autodesk,Inc. |WEB Address: www.autodesk.com
 90
    32897
280
     0
281
     0
  0
CLASS
  1
AECS_DISP_PROPS_MEMBER_PLAN
  2
AecsDbDispPropsMemberPlan
  3
AecStructureBase50|Product Desc: Autodesk Architectural Desktop 2007 |Company: Autodesk,Inc. |WEB Address: www.autodesk.com
 90
    32897
280
     0
281
     0
  0
CLASS
  1
AEC_DISP_PROPS_AREAGROUP
  2
AecDbDispPropsAreaGroup
  3
AecAreaCalculationBase50|Product Desc: Autodesk Architectural Desktop 2007 |Company: Autodesk,Inc. |WEB Address: www.autodesk.com
 90
    32897
280
     0
281
     0
  0
CLASS
  1
AEC_DISP_PROPS_WINDOW_NOMINAL
  2
AecDbDispPropsWindowNominal
  3
AecArchBase50|Product Desc: Autodesk Architectural Desktop 2007 |Company: Autodesk,Inc. |WEB Address: www.autodesk.com
 90
    32897
280
     0
281
     0
  0
CLASS
  1
AEC_DISP_PROPS_AREA
  2
AecDbDispPropsArea
  3
AecAreaCalculationBase50|Product Desc: Autodesk Architectural Desktop 2007 |Company: Autodesk,Inc. |WEB Address: www.autodesk.com
 90
    32897
280
     0
281
     0
  0
CLASS
  1
AEC_DISP_PROPS_SCHEDULE_TABLE
  2
AecDbDispPropsScheduleTable
  3
AecSchedule50|Product Desc: Autodesk Architectural Desktop 2007 |Company: Autodesk,Inc. |WEB Address: www.autodesk.com
 90
    32897
280
     0
281
     0
  0
CLASS
  1
AEC_LAYERKEY_STYLE
  2
AecDbLayerKeyStyle
  3
AecBase50|Product Desc: Autodesk Architectural Desktop 2007 |Company: Autodesk,Inc. |WEB Address: www.autodesk.com
 90
    32897
280
     0
281
     0
  0
CLASS
  1
AEC_VARS_ARCHBASE
  2
AecDbVarsArchBase
  3
AecArchBase50|Product Desc: Autodesk Architectural Desktop 2007 |Company: Autodesk,Inc. |WEB Address: www.autodesk.com
 90
    32897
280
     0
281
     0
  0
CLASS
  1
AEC_VARS_MUNICH
  2
AecDbVarsMunich
  3
AecArchDACHBase50|Product Desc: Autodesk Architectural Desktop 2007 |Company: Autodesk,Inc. |WEB Address: www.autodesk.com
 90
    32897
280
     0
281
     0
  0
CLASS
  1
AEC_NOTIFICATION_TRACKER
  2
AecDbNotificationTracker
  3
AecBase50|Product Desc: Autodesk Architectural Desktop 2007 |Company: Autodesk,Inc. |WEB Address: www.autodesk.com
 90
    32897
280
     0
281
     0
  0
CLASS
  1
AEC_DISP_REP_ANCHOR
  2
AecDbDispRepAnchor
  3
AecBase50|Product Desc: Autodesk Architectural Desktop 2007 |Company: Autodesk,Inc. |WEB Address: www.autodesk.com
 90
    32897
280
     0
281
     0
  0
CLASS
  1
AEC_DISP_REP_POLYGON_TRUECOLOUR
  2
AecDbDispRepPolygonTrueColour
  3
AecBaseEx50|Product Desc: Autodesk Architectural Desktop 2007 |Company: Autodesk,Inc. |WEB Address: www.autodesk.com
 90
    32897
280
     0
281
     0
  0
CLASS
  1
AEC_DISP_PROPS_POLYGON_TRUECOLOUR
  2
AecDbDispPropsPolygonTrueColour
  3
AecBaseEx50|Product Desc: Autodesk Architectural Desktop 2007 |Company: Autodesk,Inc. |WEB Address: www.autodesk.com
 90
    32897
280
     0
281
     0
  0
CLASS
  1
AEC_DISP_REP_BDG_ELEVLINE_RCP
  2
AecDbDispRepBdgElevLineRcp
  3
AecArchBase50|Product Desc: Autodesk Architectural Desktop 2007 |Company: Autodesk,Inc. |WEB Address: www.autodesk.com
 90
    32897
280
     0
281
     0
  0
CLASS
  1
AEC_DISP_REP_BDG_SECTIONLINE_RCP
  2
AecDbDispRepBdgSectionLineRcp
  3
AecArchBase50|Product Desc: Autodesk Architectural Desktop 2007 |Company: Autodesk,Inc. |WEB Address: www.autodesk.com
 90
    32897
280
     0
281
     0
  0
CLASS
  1
AEC_DISP_REP_BDG_SECTION_MODEL
  2
AecDbDispRepBdgSectionModel
  3
AecArchBase50|Product Desc: Autodesk Architectural Desktop 2007 |Company: Autodesk,Inc. |WEB Address: www.autodesk.com
 90
    32897
280
     0
281
     0
  0
CLASS
  1
AEC_DISP_REP_DOOR_ELEV
  2
AecDbDispRepDoorElev
  3
AecArchBase50|Product Desc: Autodesk Architectural Desktop 2007 |Company: Autodesk,Inc. |WEB Address: www.autodesk.com
 90
    32897
280
     0
281
     0
  0
CLASS
  1
AEC_DISP_REP_DOOR_RCP
  2
AecDbDispRepDoorRcp
  3
AecArchBase50|Product Desc: Autodesk Architectural Desktop 2007 |Company: Autodesk,Inc. |WEB Address: www.autodesk.com
 90
    32897
280
     0
281
     0
  0
CLASS
  1
AEC_DISP_REP_DOOR_THRESHOLD_PLAN
  2
AecDbDispRepDoorThresholdPlan
  3
AecArchBase50|Product Desc: Autodesk Architectural Desktop 2007 |Company: Autodesk,Inc. |WEB Address: www.autodesk.com
 90
    32897
280
     0
281
     0
  0
CLASS
  1
AEC_DISP_PROPS_DOOR_THRESHOLD_PLAN
  2
AecDbDispPropsDoorThresholdPlan
  3
AecArchBase50|Product Desc: Autodesk Architectural Desktop 2007 |Company: Autodesk,Inc. |WEB Address: www.autodesk.com
 90
    32897
280
     0
281
     0
  0
CLASS
  1
AEC_DISP_REP_MASS_ELEM_RCP
  2
AecDbDispRepMassElemRcp
  3
AecArchBase50|Product Desc: Autodesk Architectural Desktop 2007 |Company: Autodesk,Inc. |WEB Address: www.autodesk.com
 90
    32897
280
     0
281
     0
  0
CLASS
  1
AEC_DISP_REP_MASS_GROUP_RCP
  2
AecDbDispRepMassGroupRcp
  3
AecArchBase50|Product Desc: Autodesk Architectural Desktop 2007 |Company: Autodesk,Inc. |WEB Address: www.autodesk.com
 90
    32897
280
     0
281
     0
  0
CLASS
  1
AEC_DISP_REP_MVBLOCK_REF_RCP
  2
AecDbDispRepMvBlockRefRcp
  3
AecArchBase50|Product Desc: Autodesk Architectural Desktop 2007 |Company: Autodesk,Inc. |WEB Address: www.autodesk.com
 90
    32897
280
     0
281
     0
  0
CLASS
  1
AEC_DISP_REP_ROOF_RCP
  2
AecDbDispRepRoofRcp
  3
AecArchBase50|Product Desc: Autodesk Architectural Desktop 2007 |Company: Autodesk,Inc. |WEB Address: www.autodesk.com
 90
    32897
280
     0
281
     0
  0
CLASS
  1
AEC_DISP_REP_SPACE_BOUNDARY_DIAGRAM
  2
AecDbDispRepSpaceBoundaryDgrm
  3
AecArchBase50|Product Desc: Autodesk Architectural Desktop 2007 |Company: Autodesk,Inc. |WEB Address: www.autodesk.com
 90
    32897
280
     0
281
     0
  0
CLASS
  1
AEC_DISP_REP_SPACE_RCP
  2
AecDbDispRepSpaceRcp
  3
AecArchBase50|Product Desc: Autodesk Architectural Desktop 2007 |Company: Autodesk,Inc. |WEB Address: www.autodesk.com
 90
    32897
280
     0
281
     0
  0
CLASS
  1
AEC_DISP_REP_SPACE_VOLUME
  2
AecDbDispRepSpaceVolume
  3
AecArchBase50|Product Desc: Autodesk Architectural Desktop 2007 |Company: Autodesk,Inc. |WEB Address: www.autodesk.com
 90
    32897
280
     0
281
     0
  0
CLASS
  1
AEC_DISP_REP_STAIR_PLAN_OVERLAPPING
  2
AecDbDispRepStairPlanOverlapping
  3
AecArchBase50|Product Desc: Autodesk Architectural Desktop 2007 |Company: Autodesk,Inc. |WEB Address: www.autodesk.com
 90
    32897
280
     0
281
     0
  0
CLASS
  1
AEC_DISP_PROPS_STAIR_PLAN_OVERLAPPING
  2
AecDbDispPropsStairPlanOverlapping
  3
AecArchBase50|Product Desc: Autodesk Architectural Desktop 2007 |Company: Autodesk,Inc. |WEB Address: www.autodesk.com
 90
    32897
280
     0
281
     0
  0
CLASS
  1
AEC_DISP_REP_STAIR_RCP
  2
AecDbDispRepStairRcp
  3
AecArchBase50|Product Desc: Autodesk Architectural Desktop 2007 |Company: Autodesk,Inc. |WEB Address: www.autodesk.com
 90
    32897
280
     0
281
     0
  0
CLASS
  1
AEC_DISP_REP_WALL_RCP
  2
AecDbDispRepWallRcp
  3
AecArchBase50|Product Desc: Autodesk Architectural Desktop 2007 |Company: Autodesk,Inc. |WEB Address: www.autodesk.com
 90
    32897
280
     0
281
     0
  0
CLASS
  1
AEC_DISP_REP_WINDOWASSEMBLY_SILL_PLAN
  2
AecDbDispRepWindowAssemblySillPlan
  3
AecArchBase50|Product Desc: Autodesk Architectural Desktop 2007 |Company: Autodesk,Inc. |WEB Address: www.autodesk.com
 90
    32897
280
     0
281
     0
  0
CLASS
  1
AEC_DISP_PROPS_WINDOW_ASSEMBLY_SILL_PLAN
  2
AecDbDispPropsWindowAssemblySillPlan
  3
AecArchBase50|Product Desc: Autodesk Architectural Desktop 2007 |Company: Autodesk,Inc. |WEB Address: www.autodesk.com
 90
    32897
280
     0
281
     0
  0
CLASS
  1
AEC_DISP_REP_WINDOW_ELEV
  2
AecDbDispRepWindowElev
  3
AecArchBase50|Product Desc: Autodesk Architectural Desktop 2007 |Company: Autodesk,Inc. |WEB Address: www.autodesk.com
 90
    32897
280
     0
281
     0
  0
CLASS
  1
AEC_DISP_REP_WINDOW_RCP
  2
AecDbDispRepWindowRcp
  3
AecArchBase50|Product Desc: Autodesk Architectural Desktop 2007 |Company: Autodesk,Inc. |WEB Address: www.autodesk.com
 90
    32897
280
     0
281
     0
  0
CLASS
  1
AEC_DISP_REP_WINDOW_SILL_PLAN
  2
AecDbDispRepWindowSillPlan
  3
AecArchBase50|Product Desc: Autodesk Architectural Desktop 2007 |Company: Autodesk,Inc. |WEB Address: www.autodesk.com
 90
    32897
280
     0
281
     0
  0
CLASS
  1
AEC_DISP_PROPS_WINDOW_SILL_PLAN
  2
AecDbDispPropsWindowSillPlan
  3
AecArchBase50|Product Desc: Autodesk Architectural Desktop 2007 |Company: Autodesk,Inc. |WEB Address: www.autodesk.com
 90
    32897
280
     0
281
     0
  0
CLASS
  1
AEC_DISP_REP_ANCHOR_BUB_TO_GRID_RCP
  2
AecDbDispRepAnchorBubToGridRcp
  3
AecStructureBase50|Product Desc: Autodesk Architectural Desktop 2007 |Company: Autodesk,Inc. |WEB Address: www.autodesk.com
 90
    32897
280
     0
281
     0
  0
CLASS
  1
AEC_DISP_REP_COLUMN_GRID_RCP
  2
AecDbDispRepColumnGridRcp
  3
AecStructureBase50|Product Desc: Autodesk Architectural Desktop 2007 |Company: Autodesk,Inc. |WEB Address: www.autodesk.com
 90
    32897
280
     0
281
     0
  0
CLASS
  1
AECS_DISP_REP_MEMBER_ELEVATION_DESIGN
  2
AecsDbDispRepMemberElevationDesign
  3
AecStructureBase50|Product Desc: Autodesk Architectural Desktop 2007 |Company: Autodesk,Inc. |WEB Address: www.autodesk.com
 90
    32897
280
     0
281
     0
  0
CLASS
  1
AECS_DISP_PROPS_MEMBER_PROJECTED
  2
AecsDbDispPropsMemberProjected
  3
AecStructureBase50|Product Desc: Autodesk Architectural Desktop 2007 |Company: Autodesk,Inc. |WEB Address: www.autodesk.com
 90
    32897
280
     0
281
     0
  0
CLASS
  1
AECS_DISP_REP_MEMBER_ELEVATION_DETAIL
  2
AecsDbDispRepMemberElevationDetail
  3
AecStructureBase50|Product Desc: Autodesk Architectural Desktop 2007 |Company: Autodesk,Inc. |WEB Address: www.autodesk.com
 90
    32897
280
     0
281
     0
  0
CLASS
  1
AECS_DISP_REP_MEMBER_MODEL_DETAIL
  2
AecsDbDispRepMemberModelDetail
  3
AecStructureBase50|Product Desc: Autodesk Architectural Desktop 2007 |Company: Autodesk,Inc. |WEB Address: www.autodesk.com
 90
    32897
280
     0
281
     0
  0
CLASS
  1
AECS_DISP_REP_MEMBER_PLAN_DETAIL
  2
AecsDbDispRepMemberPlanDetail
  3
AecStructureBase50|Product Desc: Autodesk Architectural Desktop 2007 |Company: Autodesk,Inc. |WEB Address: www.autodesk.com
 90
    32897
280
     0
281
     0
  0
CLASS
  1
AECS_DISP_REP_MEMBER_PLAN_SKETCH
  2
AecsDbDispRepMemberPlanSketch
  3
AecStructureBase50|Product Desc: Autodesk Architectural Desktop 2007 |Company: Autodesk,Inc. |WEB Address: www.autodesk.com
 90
    32897
280
     0
281
     0
  0
CLASS
  1
AECS_DISP_PROPS_MEMBER_PLAN_SKETCH
  2
AecsDbDispPropsMemberPlanSketch
  3
AecStructureBase50|Product Desc: Autodesk Architectural Desktop 2007 |Company: Autodesk,Inc. |WEB Address: www.autodesk.com
 90
    32897
280
     0
281
     0
  0
CLASS
  1
AEC_AECDBDISPREPAREA100
  2
AecDbDispRepArea100
  3
AecArchDACHBase50|Product Desc: Autodesk Architectural Desktop 2007 |Company: Autodesk,Inc. |WEB Address: www.autodesk.com
 90
    32897
280
     0
281
     0
  0
CLASS
  1
AEC_AECDBDISPREPAREAGROUP100
  2
AecDbDispRepAreaGroup100
  3
AecArchDACHBase50|Product Desc: Autodesk Architectural Desktop 2007 |Company: Autodesk,Inc. |WEB Address: www.autodesk.com
 90
    32897
280
     0
281
     0
  0
CLASS
  1
AEC_AECDBDISPREPBDGELEVLINEPLAN100
  2
AecDbDispRepBdgElevLinePlan100
  3
AecArchDACHBase50|Product Desc: Autodesk Architectural Desktop 2007 |Company: Autodesk,Inc. |WEB Address: www.autodesk.com
 90
    32897
280
     0
281
     0
  0
CLASS
  1
AEC_AECDBDISPREPBDGSECTIONLINEPLAN100
  2
AecDbDispRepBdgSectionLinePlan100
  3
AecArchDACHBase50|Product Desc: Autodesk Architectural Desktop 2007 |Company: Autodesk,Inc. |WEB Address: www.autodesk.com
 90
    32897
280
     0
281
     0
  0
CLASS
  1
AEC_AECDBDISPREPCEILINGGRIDPLAN100
  2
AecDbDispRepCeilingGridPlan100
  3
AecArchDACHBase50|Product Desc: Autodesk Architectural Desktop 2007 |Company: Autodesk,Inc. |WEB Address: www.autodesk.com
 90
    32897
280
     0
281
     0
  0
CLASS
  1
AEC_AECDBDISPREPCOLUMNGRIDPLAN100
  2
AecDbDispRepColumnGridPlan100
  3
AecArchDACHBase50|Product Desc: Autodesk Architectural Desktop 2007 |Company: Autodesk,Inc. |WEB Address: www.autodesk.com
 90
    32897
280
     0
281
     0
  0
CLASS
  1
AEC_AECDBDISPREPCURTAINWALLLAYOUTPLAN100
  2
AecDbDispRepCurtainWallLayoutPlan100
  3
AecArchDACHBase50|Product Desc: Autodesk Architectural Desktop 2007 |Company: Autodesk,Inc. |WEB Address: www.autodesk.com
 90
    32897
280
     0
281
     0
  0
CLASS
  1
AEC_AECDBDISPREPCURTAINWALLUNITPLAN100
  2
AecDbDispRepCurtainWallUnitPlan100
  3
AecArchDACHBase50|Product Desc: Autodesk Architectural Desktop 2007 |Company: Autodesk,Inc. |WEB Address: www.autodesk.com
 90
    32897
280
     0
281
     0
  0
CLASS
  1
AEC_AECDBDISPREPMVBLOCKREFPLAN100
  2
AecDbDispRepMvBlockRefPlan100
  3
AecArchDACHBase50|Product Desc: Autodesk Architectural Desktop 2007 |Company: Autodesk,Inc. |WEB Address: www.autodesk.com
 90
    32897
280
     0
281
     0
  0
CLASS
  1
AEC_AECDBDISPREPROOFPLAN100
  2
AecDbDispRepRoofPlan100
  3
AecArchDACHBase50|Product Desc: Autodesk Architectural Desktop 2007 |Company: Autodesk,Inc. |WEB Address: www.autodesk.com
 90
    32897
280
     0
281
     0
  0
CLASS
  1
AEC_AECDBDISPREPROOFSLABPLAN100
  2
AecDbDispRepRoofSlabPlan100
  3
AecArchDACHBase50|Product Desc: Autodesk Architectural Desktop 2007 |Company: Autodesk,Inc. |WEB Address: www.autodesk.com
 90
    32897
280
     0
281
     0
  0
CLASS
  1
AEC_AECDBDISPREPSLABPLAN100
  2
AecDbDispRepSlabPlan100
  3
AecArchDACHBase50|Product Desc: Autodesk Architectural Desktop 2007 |Company: Autodesk,Inc. |WEB Address: www.autodesk.com
 90
    32897
280
     0
281
     0
  0
CLASS
  1
AEC_AECDBDISPREPSPACEBOUNDARYPLAN100
  2
AecDbDispRepSpaceBoundaryPlan100
  3
AecArchDACHBase50|Product Desc: Autodesk Architectural Desktop 2007 |Company: Autodesk,Inc. |WEB Address: www.autodesk.com
 90
    32897
280
     0
281
     0
  0
CLASS
  1
AEC_AECDBDISPREPSPACEPLAN100
  2
AecDbDispRepSpacePlan100
  3
AecArchDACHBase50|Product Desc: Autodesk Architectural Desktop 2007 |Company: Autodesk,Inc. |WEB Address: www.autodesk.com
 90
    32897
280
     0
281
     0
  0
CLASS
  1
AEC_AECDBDISPREPWALLPLAN100
  2
AecDbDispRepWallPlan100
  3
AecArchDACHBase50|Product Desc: Autodesk Architectural Desktop 2007 |Company: Autodesk,Inc. |WEB Address: www.autodesk.com
 90
    32897
280
     0
281
     0
  0
CLASS
  1
AEC_AECDBDISPREPAREA50
  2
AecDbDispRepArea50
  3
AecArchDACHBase50|Product Desc: Autodesk Architectural Desktop 2007 |Company: Autodesk,Inc. |WEB Address: www.autodesk.com
 90
    32897
280
     0
281
     0
  0
CLASS
  1
AEC_AECDBDISPREPAREAGROUP50
  2
AecDbDispRepAreaGroup50
  3
AecArchDACHBase50|Product Desc: Autodesk Architectural Desktop 2007 |Company: Autodesk,Inc. |WEB Address: www.autodesk.com
 90
    32897
280
     0
281
     0
  0
CLASS
  1
AEC_AECDBDISPREPBDGELEVLINEPLAN50
  2
AecDbDispRepBdgElevLinePlan50
  3
AecArchDACHBase50|Product Desc: Autodesk Architectural Desktop 2007 |Company: Autodesk,Inc. |WEB Address: www.autodesk.com
 90
    32897
280
     0
281
     0
  0
CLASS
  1
AEC_AECDBDISPREPBDGSECTIONLINEPLAN50
  2
AecDbDispRepBdgSectionLinePlan50
  3
AecArchDACHBase50|Product Desc: Autodesk Architectural Desktop 2007 |Company: Autodesk,Inc. |WEB Address: www.autodesk.com
 90
    32897
280
     0
281
     0
  0
CLASS
  1
AEC_AECDBDISPREPCEILINGGRIDPLAN50
  2
AecDbDispRepCeilingGridPlan50
  3
AecArchDACHBase50|Product Desc: Autodesk Architectural Desktop 2007 |Company: Autodesk,Inc. |WEB Address: www.autodesk.com
 90
    32897
280
     0
281
     0
  0
CLASS
  1
AEC_AECDBDISPREPCOLUMNGRIDPLAN50
  2
AecDbDispRepColumnGridPlan50
  3
AecArchDACHBase50|Product Desc: Autodesk Architectural Desktop 2007 |Company: Autodesk,Inc. |WEB Address: www.autodesk.com
 90
    32897
280
     0
281
     0
  0
CLASS
  1
AEC_AECDBDISPREPCURTAINWALLLAYOUTPLAN50
  2
AecDbDispRepCurtainWallLayoutPlan50
  3
AecArchDACHBase50|Product Desc: Autodesk Architectural Desktop 2007 |Company: Autodesk,Inc. |WEB Address: www.autodesk.com
 90
    32897
280
     0
281
     0
  0
CLASS
  1
AEC_AECDBDISPREPCURTAINWALLUNITPLAN50
  2
AecDbDispRepCurtainWallUnitPlan50
  3
AecArchDACHBase50|Product Desc: Autodesk Architectural Desktop 2007 |Company: Autodesk,Inc. |WEB Address: www.autodesk.com
 90
    32897
280
     0
281
     0
  0
CLASS
  1
AEC_AECDBDISPREPMVBLOCKREFPLAN50
  2
AecDbDispRepMvBlockRefPlan50
  3
AecArchDACHBase50|Product Desc: Autodesk Architectural Desktop 2007 |Company: Autodesk,Inc. |WEB Address: www.autodesk.com
 90
    32897
280
     0
281
     0
  0
CLASS
  1
AEC_AECDBDISPREPROOFPLAN50
  2
AecDbDispRepRoofPlan50
  3
AecArchDACHBase50|Product Desc: Autodesk Architectural Desktop 2007 |Company: Autodesk,Inc. |WEB Address: www.autodesk.com
 90
    32897
280
     0
281
     0
  0
CLASS
  1
AEC_AECDBDISPREPROOFSLABPLAN50
  2
AecDbDispRepRoofSlabPlan50
  3
AecArchDACHBase50|Product Desc: Autodesk Architectural Desktop 2007 |Company: Autodesk,Inc. |WEB Address: www.autodesk.com
 90
    32897
280
     0
281
     0
  0
CLASS
  1
AEC_AECDBDISPREPSLABPLAN50
  2
AecDbDispRepSlabPlan50
  3
AecArchDACHBase50|Product Desc: Autodesk Architectural Desktop 2007 |Company: Autodesk,Inc. |WEB Address: www.autodesk.com
 90
    32897
280
     0
281
     0
  0
CLASS
  1
AEC_AECDBDISPREPSPACEBOUNDARYPLAN50
  2
AecDbDispRepSpaceBoundaryPlan50
  3
AecArchDACHBase50|Product Desc: Autodesk Architectural Desktop 2007 |Company: Autodesk,Inc. |WEB Address: www.autodesk.com
 90
    32897
280
     0
281
     0
  0
CLASS
  1
AEC_AECDBDISPREPSPACEPLAN50
  2
AecDbDispRepSpacePlan50
  3
AecArchDACHBase50|Product Desc: Autodesk Architectural Desktop 2007 |Company: Autodesk,Inc. |WEB Address: www.autodesk.com
 90
    32897
280
     0
281
     0
  0
CLASS
  1
AEC_AECDBDISPREPWALLPLAN50
  2
AecDbDispRepWallPlan50
  3
AecArchDACHBase50|Product Desc: Autodesk Architectural Desktop 2007 |Company: Autodesk,Inc. |WEB Address: www.autodesk.com
 90
    32897
280
     0
281
     0
  0
CLASS
  1
AEC_AECDBDISPREPWINDOWASSEMBLYPLAN50
  2
AecDbDispRepWindowAssemblyPlan50
  3
AecArchDACHBase50|Product Desc: Autodesk Architectural Desktop 2007 |Company: Autodesk,Inc. |WEB Address: www.autodesk.com
 90
    32897
280
     0
281
     0
  0
CLASS
  1
AEC_DB_DISP_REP_DIM_GROUP_PLAN100
  2
AecDbDispRepDimGroupPlan100
  3
AecArchDACHBase50|Product Desc: Autodesk Architectural Desktop 2007 |Company: Autodesk,Inc. |WEB Address: www.autodesk.com
 90
    32897
280
     0
281
     0
  0
CLASS
  1
AEC_DB_DISP_REP_DIM_GROUP_PLAN50
  2
AecDbDispRepDimGroupPlan50
  3
AecArchDACHBase50|Product Desc: Autodesk Architectural Desktop 2007 |Company: Autodesk,Inc. |WEB Address: www.autodesk.com
 90
    32897
280
     0
281
     0
  0
CLASS
  1
AEC_DISP_REP_DOOR_PLAN_50
  2
AecDbDispRepDoorPlan50
  3
AecArchDACHBase50|Product Desc: Autodesk Architectural Desktop 2007 |Company: Autodesk,Inc. |WEB Address: www.autodesk.com
 90
    32897
280
     0
281
     0
  0
CLASS
  1
AEC_DISP_PROPS_DOOR_PLAN_50
  2
AecDbDispPropsDoorPlan50
  3
AecArchDACHBase50|Product Desc: Autodesk Architectural Desktop 2007 |Company: Autodesk,Inc. |WEB Address: www.autodesk.com
 90
    32897
280
     0
281
     0
  0
CLASS
  1
AEC_DISP_REP_DOOR_PLAN_HEKTO
  2
AecDbDispRepDoorPlanHekto
  3
AecArchDACHBase50|Product Desc: Autodesk Architectural Desktop 2007 |Company: Autodesk,Inc. |WEB Address: www.autodesk.com
 90
    32897
280
     0
281
     0
  0
CLASS
  1
AEC_DISP_PROPS_DOOR_PLAN_100
  2
AecDbDispPropsDoorPlan100
  3
AecArchDACHBase50|Product Desc: Autodesk Architectural Desktop 2007 |Company: Autodesk,Inc. |WEB Address: www.autodesk.com
 90
    32897
280
     0
281
     0
  0
CLASS
  1
AEC_DISP_REP_DOOR_THRESHOLD_SYMBOL_PLAN
  2
AecDbDispRepDoorThresholdSymbolPlan
  3
AecArchDACHBase50|Product Desc: Autodesk Architectural Desktop 2007 |Company: Autodesk,Inc. |WEB Address: www.autodesk.com
 90
    32897
280
     0
281
     0
  0
CLASS
  1
AEC_DISP_PROPS_DOOR_THRESHOLD_SYMBOL_PLAN
  2
AecDbDispPropsDoorThresholdSymbolPlan
  3
AecArchDACHBase50|Product Desc: Autodesk Architectural Desktop 2007 |Company: Autodesk,Inc. |WEB Address: www.autodesk.com
 90
    32897
280
     0
281
     0
  0
CLASS
  1
AEC_DISPREPAECDBDISPREPMASSELEMPLAN100
  2
AecDbDispRepMassElemPlan100
  3
AecArchDACHBase50|Product Desc: Autodesk Architectural Desktop 2007 |Company: Autodesk,Inc. |WEB Address: www.autodesk.com
 90
    32897
280
     0
281
     0
  0
CLASS
  1
AEC_DISPROPSMASSELEMPLANCOMMON
  2
AecDbDispPropsMassElemPlanCommon
  3
AecArchDACHBase50|Product Desc: Autodesk Architectural Desktop 2007 |Company: Autodesk,Inc. |WEB Address: www.autodesk.com
 90
    32897
280
     0
281
     0
  0
CLASS
  1
AEC_DISPREPAECDBDISPREPMASSELEMPLAN50
  2
AecDbDispRepMassElemPlan50
  3
AecArchDACHBase50|Product Desc: Autodesk Architectural Desktop 2007 |Company: Autodesk,Inc. |WEB Address: www.autodesk.com
 90
    32897
280
     0
281
     0
  0
CLASS
  1
AEC_DISPREPAECDBDISPREPMASSGROUPPLAN100
  2
AecDbDispRepMassGroupPlan100
  3
AecArchDACHBase50|Product Desc: Autodesk Architectural Desktop 2007 |Company: Autodesk,Inc. |WEB Address: www.autodesk.com
 90
    32897
280
     0
281
     0
  0
CLASS
  1
AEC_DISPROPSMASSGROUPPLANCOMMON
  2
AecDbDispPropsMassGroupPlanCommon
  3
AecArchDACHBase50|Product Desc: Autodesk Architectural Desktop 2007 |Company: Autodesk,Inc. |WEB Address: www.autodesk.com
 90
    32897
280
     0
281
     0
  0
CLASS
  1
AEC_DISPREPAECDBDISPREPMASSGROUPPLAN50
  2
AecDbDispRepMassGroupPlan50
  3
AecArchDACHBase50|Product Desc: Autodesk Architectural Desktop 2007 |Company: Autodesk,Inc. |WEB Address: www.autodesk.com
 90
    32897
280
     0
281
     0
  0
CLASS
  1
AEC_DISPREPAECDBDISPREPOPENINGPLAN100
  2
AecDbDispRepOpeningPlan100
  3
AecArchDACHBase50|Product Desc: Autodesk Architectural Desktop 2007 |Company: Autodesk,Inc. |WEB Address: www.autodesk.com
 90
    32897
280
     0
281
     0
  0
CLASS
  1
AEC_DISPROPSOPENINGPLANCOMMONHATCHED
  2
AecDbDispPropsOpeningPlanCommonHatched
  3
AecArchDACHBase50|Product Desc: Autodesk Architectural Desktop 2007 |Company: Autodesk,Inc. |WEB Address: www.autodesk.com
 90
    32897
280
     0
281
     0
  0
CLASS
  1
AEC_DISPREPAECDBDISPREPOPENINGPLAN50
  2
AecDbDispRepOpeningPlan50
  3
AecArchDACHBase50|Product Desc: Autodesk Architectural Desktop 2007 |Company: Autodesk,Inc. |WEB Address: www.autodesk.com
 90
    32897
280
     0
281
     0
  0
CLASS
  1
AEC_DISPREPAECDBDISPREPOPENINGPLANREFLECTED
  2
AecDbDispRepOpeningPlanReflected
  3
AecArchDACHBase50|Product Desc: Autodesk Architectural Desktop 2007 |Company: Autodesk,Inc. |WEB Address: www.autodesk.com
 90
    32897
280
     0
281
     0
  0
CLASS
  1
AEC_DISPROPSOPENINGPLANCOMMON
  2
AecDbDispPropsOpeningPlanCommon
  3
AecArchDACHBase50|Product Desc: Autodesk Architectural Desktop 2007 |Company: Autodesk,Inc. |WEB Address: www.autodesk.com
 90
    32897
280
     0
281
     0
  0
CLASS
  1
AEC_DISPREPAECDBDISPREPOPENINGSILLPLAN
  2
AecDbDispRepOpeningSillPlan
  3
AecArchDACHBase50|Product Desc: Autodesk Architectural Desktop 2007 |Company: Autodesk,Inc. |WEB Address: www.autodesk.com
 90
    32897
280
     0
281
     0
  0
CLASS
  1
AEC_DISPROPSOPENINGSILLPLAN
  2
AecDbDispPropsOpeningSillPlan
  3
AecArchDACHBase50|Product Desc: Autodesk Architectural Desktop 2007 |Company: Autodesk,Inc. |WEB Address: www.autodesk.com
 90
    32897
280
     0
281
     0
  0
CLASS
  1
AEC_DISP_REP_RAILING_PLAN_100
  2
AecDbDispRepRailingPlan100
  3
AecArchDACHBase50|Product Desc: Autodesk Architectural Desktop 2007 |Company: Autodesk,Inc. |WEB Address: www.autodesk.com
 90
    32897
280
     0
281
     0
  0
CLASS
  1
AEC_DISP_ROPS_RAILING_PLAN_100
  2
AecDbDispPropsRailingPlan100
  3
AecArchDACHBase50|Product Desc: Autodesk Architectural Desktop 2007 |Company: Autodesk,Inc. |WEB Address: www.autodesk.com
 90
    32897
280
     0
281
     0
  0
CLASS
  1
AEC_DISP_REP_RAILING_PLAN_50
  2
AecDbDispRepRailingPlan50
  3
AecArchDACHBase50|Product Desc: Autodesk Architectural Desktop 2007 |Company: Autodesk,Inc. |WEB Address: www.autodesk.com
 90
    32897
280
     0
281
     0
  0
CLASS
  1
AEC_DISP_ROPS_RAILING_PLAN_50
  2
AecDbDispPropsRailingPlan50
  3
AecArchDACHBase50|Product Desc: Autodesk Architectural Desktop 2007 |Company: Autodesk,Inc. |WEB Address: www.autodesk.com
 90
    32897
280
     0
281
     0
  0
CLASS
  1
AEC_DISP_REP_STAIR_PLAN_100
  2
AecDbDispRepStairPlan100
  3
AecArchDACHBase50|Product Desc: Autodesk Architectural Desktop 2007 |Company: Autodesk,Inc. |WEB Address: www.autodesk.com
 90
    32897
280
     0
281
     0
  0
CLASS
  1
AEC_DISP_ROPS_STAIR_PLAN_100
  2
AecDbDispPropsStairPlan100
  3
AecArchDACHBase50|Product Desc: Autodesk Architectural Desktop 2007 |Company: Autodesk,Inc. |WEB Address: www.autodesk.com
 90
    32897
280
     0
281
     0
  0
CLASS
  1
AEC_DISP_REP_STAIR_PLAN_50
  2
AecDbDispRepStairPlan50
  3
AecArchDACHBase50|Product Desc: Autodesk Architectural Desktop 2007 |Company: Autodesk,Inc. |WEB Address: www.autodesk.com
 90
    32897
280
     0
281
     0
  0
CLASS
  1
AEC_DISP_ROPS_STAIR_PLAN_50
  2
AecDbDispPropsStairPlan50
  3
AecArchDACHBase50|Product Desc: Autodesk Architectural Desktop 2007 |Company: Autodesk,Inc. |WEB Address: www.autodesk.com
 90
    32897
280
     0
281
     0
  0
CLASS
  1
AEC_DISP_REP_WINDOW_PLAN_100
  2
AecDbDispRepWindowPlan100
  3
AecArchDACHBase50|Product Desc: Autodesk Architectural Desktop 2007 |Company: Autodesk,Inc. |WEB Address: www.autodesk.com
 90
    32897
280
     0
281
     0
  0
CLASS
  1
AEC_DISP_PROPS_WINDOW_PLAN_100
  2
AecDbDispPropsWindowPlan100
  3
AecArchDACHBase50|Product Desc: Autodesk Architectural Desktop 2007 |Company: Autodesk,Inc. |WEB Address: www.autodesk.com
 90
    32897
280
     0
281
     0
  0
CLASS
  1
AEC_DISP_REP_WINDOW_PLAN_50
  2
AecDbDispRepWindowPlan50
  3
AecArchDACHBase50|Product Desc: Autodesk Architectural Desktop 2007 |Company: Autodesk,Inc. |WEB Address: www.autodesk.com
 90
    32897
280
     0
281
     0
  0
CLASS
  1
AEC_DISP_PROPS_WINDOW_PLAN_50
  2
AecDbDispPropsWindowPlan50
  3
AecArchDACHBase50|Product Desc: Autodesk Architectural Desktop 2007 |Company: Autodesk,Inc. |WEB Address: www.autodesk.com
 90
    32897
280
     0
281
     0
  0
CLASS
  1
BINRECORD
  2
AcAecBinRecord
  3
AecBase50|Product Desc: Autodesk Architectural Desktop 2007 |Company: Autodesk,Inc. |WEB Address: www.autodesk.com
 90
    32897
280
     0
281
     0
  0
CLASS
  1
SPATIAL_FILTER
  2
AcDbSpatialFilter
  3
ObjectDBX Classes
 90
    32768
280
     0
281
     0
  0
CLASS
  1
AEC_VARS_STRUCTUREBASE
  2
AecsDbVarsStructureBase
  3
AecStructureBase50|Product Desc: Autodesk Architectural Desktop 2007 |Company: Autodesk,Inc. |WEB Address: www.autodesk.com
 90
    32897
280
     0
281
     0
  0
CLASS
  1
DIMASSOC
  2
AcDbDimAssoc
  3
"AcDbDimAssoc|Product Desc:     AcDim ARX App For Dimension|Company:          Autodesk, Inc.|WEB Address:      www.autodesk.com"
 90
    32768
280
     0
281
     0
  0
CLASS
  1
TABLESTYLE
  2
AcDbTableStyle
  3
ObjectDBX Classes
 90
     4095
280
     0
281
     0
  0
CLASS
  1
MATERIAL
  2
AcDbMaterial
  3
ObjectDBX Classes
 90
     1153
280
     0
281
     0
  0
CLASS
  1
VISUALSTYLE
  2
AcDbVisualStyle
  3
ObjectDBX Classes
 90
     4095
280
     0
281
     0
  0
CLASS
  1
EXACXREFPANELOBJECT
  2
ExAcXREFPanelObject
  3
EXAC_ESW
 90
    33793
280
     1
281
     0
  0
CLASS
  1
NPOCOLLECTION
  2
AcDbImpNonPersistentObjectsCollection
  3
ObjectDBX Classes
 90
    33921
280
     0
281
     0
  0
CLASS
  1
AEC_AECDBDISPREPZONE100
  2
AecDbDispRepZonePlan100
  3
AecArchDACHBase50|Product Desc: Autodesk Architectural Desktop 2007 |Company: Autodesk,Inc. |WEB Address: www.autodesk.com
 90
    32897
280
     0
281
     0
  0
CLASS
  1
AEC_DISP_PROPS_ZONE
  2
AecDbDispPropsZone
  3
AecArchBase50|Product Desc: Autodesk Architectural Desktop 2007 |Company: Autodesk,Inc. |WEB Address: www.autodesk.com
 90
    32897
280
     0
281
     0
  0
CLASS
  1
AEC_AECDBDISPREPZONE50
  2
AecDbDispRepZonePlan50
  3
AecArchDACHBase50|Product Desc: Autodesk Architectural Desktop 2007 |Company: Autodesk,Inc. |WEB Address: www.autodesk.com
 90
    32897
280
     0
281
     0
  0
CLASS
  1
AEC_DISP_REP_DISPLAYTHEME
  2
AecDbDispRepDisplayTheme
  3
AecBase50|Product Desc: Autodesk Architectural Desktop 2007 |Company: Autodesk,Inc. |WEB Address: www.autodesk.com
 90
    32897
280
     0
281
     0
  0
CLASS
  1
AEC_DISP_PROPS_DISPLAYTHEME
  2
AecDbDispPropsDisplayTheme
  3
AecBase50|Product Desc: Autodesk Architectural Desktop 2007 |Company: Autodesk,Inc. |WEB Address: www.autodesk.com
 90
    32897
280
     0
281
     0
  0
CLASS
  1
AEC_DISP_REP_ANCHOR_EXT_TAG_TO_ENT
  2
AecDbDispRepAnchorExtendedTagToEnt
  3
AecScheduleData50|Product Desc: Autodesk Architectural Desktop 2007 |Company: Autodesk,Inc. |WEB Address: www.autodesk.com
 90
    32897
280
     0
281
     0
  0
CLASS
  1
AEC_DISP_REP_SPACE_DECOMPOSED
  2
AecDbDispRepSpaceDecomposed
  3
AecArchBase50|Product Desc: Autodesk Architectural Desktop 2007 |Company: Autodesk,Inc. |WEB Address: www.autodesk.com
 90
    32897
280
     0
281
     0
  0
CLASS
  1
AEC_DISP_PROPS_SPACE_DECOMPOSED
  2
AecDbDispPropsSpaceDecomposed
  3
AecArchBase50|Product Desc: Autodesk Architectural Desktop 2007 |Company: Autodesk,Inc. |WEB Address: www.autodesk.com
 90
    32897
280
     0
281
     0
  0
CLASS
  1
AEC_DISP_REP_ZONE
  2
AecDbDispRepZone
  3
AecArchBase50|Product Desc: Autodesk Architectural Desktop 2007 |Company: Autodesk,Inc. |WEB Address: www.autodesk.com
 90
    32897
280
     0
281
     0
  0
CLASS
  1
ACAD_EVALUATION_GRAPH
  2
AcDbEvalGraph
  3
ObjectDBX Classes
 90
    33921
280
     0
281
     0
  0
CLASS
  1
BLOCKFLIPPARAMETER
  2
AcDbBlockFlipParameter
  3
ObjectDBX Classes
 90
    33921
280
     0
281
     0
  0
CLASS
  1
BLOCKFLIPGRIP
  2
AcDbBlockFlipGrip
  3
ObjectDBX Classes
 90
    33921
280
     0
281
     0
  0
CLASS
  1
BLOCKGRIPLOCATIONCOMPONENT
  2
AcDbBlockGripExpr
  3
ObjectDBX Classes
 90
    33921
280
     0
281
     0
  0
CLASS
  1
BLOCKFLIPACTION
  2
AcDbBlockFlipAction
  3
ObjectDBX Classes
 90
    33921
280
     0
281
     0
  0
CLASS
  1
BLOCKROTATIONPARAMETER
  2
AcDbBlockRotationParameter
  3
ObjectDBX Classes
 90
    33921
280
     0
281
     0
  0
CLASS
  1
BLOCKROTATIONGRIP
  2
AcDbBlockRotationGrip
  3
ObjectDBX Classes
 90
    33921
280
     0
281
     0
  0
CLASS
  1
BLOCKROTATEACTION
  2
AcDbBlockRotateAction
  3
ObjectDBX Classes
 90
    33921
280
     0
281
     0
  0
CLASS
  1
BLOCKBASEPOINTPARAMETER
  2
AcDbBlockBasepointParameter
  3
ObjectDBX Classes
 90
    33921
280
     0
281
     0
  0
CLASS
  1
ACDB_DYNAMICBLOCKPURGEPREVENTER_VERSION
  2
AcDbDynamicBlockPurgePreventer
  3
ObjectDBX Classes
 90
    33921
280
     0
281
     0
  0
CLASS
  1
ACDB_BLOCKREPRESENTATION_DATA
  2
AcDbBlockRepresentationData
  3
ObjectDBX Classes
 90
    33921
280
     0
281
     0
  0
CLASS
  1
SCALE
  2
AcDbScale
  3
ObjectDBX Classes
 90
     1153
280
     0
281
     0
  0
CLASS
  1
MLEADERSTYLE
  2
AcDbMLeaderStyle
  3
ACDB_MLEADERSTYLE_CLASS
 90
    36863
280
     0
281
     0
  0
CLASS
  1
AEC_REFEDIT_STATUS_TRACKER
  2
AecDbRefEditStatusTracker
  3
AecArchBase50|Product Desc: Autodesk Architectural Desktop 2007 |Company: Autodesk,Inc. |WEB Address: www.autodesk.com
 90
    32897
280
     0
281
     0
  0
CLASS
  1
CELLSTYLEMAP
  2
AcDbCellStyleMap
  3
ObjectDBX Classes
 90
     1152
280
     0
281
     0
  0
ENDSEC
  0
SECTION
  2
TABLES
  0
TABLE
  2
VPORT
  5
1D4
330
0
100
AcDbSymbolTable
 70
     1
  0
VPORT
  5
1D5
330
1D4
100
AcDbSymbolTableRecord
100
AcDbViewportTableRecord
  2
*Active
 70
     0
 10
0.0
 20
0.0
 11
1.0
 21
1.0
 12
223073.9336313747
 22
134528.0257567501
 13
0.0
 23
0.0
 14
10.0
 24
10.0
 15
10.0
 25
10.0
 16
0.0
 26
0.0
 36
1.0
 17
0.0
 27
0.0
 37
0.0
 40
18108.71006355025
 41
2.297668038408779
 42
50.0
 43
0.0
 44
0.0
 50
0.0
 51
0.0
 71
     0
 72
  1000
 73
     1
 74
     1
 75
     0
 76
     0
 77
     0
 78
     0
281
     0
 65
     1
110
0.0
120
0.0
130
0.0
111
1.0
121
0.0
131
0.0
112
0.0
122
1.0
132
0.0
 79
     0
146
0.0
  0
ENDTAB
  0
TABLE
  2
LTYPE
  5
1CF
330
0
100
AcDbSymbolTable
 70
     2
  0
LTYPE
  5
1D0
330
1CF
100
AcDbSymbolTableRecord
100
AcDbLinetypeTableRecord
  2
ByBlock
 70
     0
  3

 72
    65
 73
     0
 40
0.0
  0
LTYPE
  5
1D1
330
1CF
100
AcDbSymbolTableRecord
100
AcDbLinetypeTableRecord
  2
ByLayer
 70
     0
  3

 72
    65
 73
     0
 40
0.0
  0
LTYPE
  5
E
330
1CF
100
AcDbSymbolTableRecord
100
AcDbLinetypeTableRecord
  2
Continuous
 70
     0
  3
Solid line
 72
    65
 73
     0
 40
0.0
  0
LTYPE
  5
17
330
1CF
100
AcDbSymbolTableRecord
100
AcDbLinetypeTableRecord
  2
HIDDEN
 70
     0
  3
Hidden __ __ __ __ __ __ __ __ __ __ __ __ __ _
 72
    65
 73
     2
 40
0.375
 49
0.25
 74
     0
 49
-0.125
 74
     0
  0
ENDTAB
  0
TABLE
  2
LAYER
  5
1C7
102
{ACAD_XDICTIONARY
360
1C8
102
}
330
0
100
AcDbSymbolTable
 70
     5
  0
LAYER
  5
6
102
{ACAD_XDICTIONARY
360
7
102
}
330
1C7
100
AcDbSymbolTableRecord
100
AcDbLayerTableRecord
  2
0
 70
     0
 62
     7
  6
Continuous
370
    -3
390
9
1001
RAK
1000
{ACET-LAYISO
1070
     0
1070
     7
1000
Continuous
1071
       -3
1071
        1
1005
9
1000
ACET-LAYISO}
  0
LAYER
  5
98
330
1C7
100
AcDbSymbolTableRecord
100
AcDbLayerTableRecord
  2
DEFPOINTS
 70
     0
 62
     7
  6
Continuous
290
     0
370
    -3
390
9
1001
RAK
1000
{ACET-LAYISO
1070
     0
1070
     7
1000
Continuous
1071
       -3
1071
        0
1005
9
1000
ACET-LAYISO}
  0
LAYER
  5
1C
102
{ACAD_XDICTIONARY
360
1D
102
}
330
1C7
100
AcDbSymbolTableRecord
100
AcDbLayerTableRecord
  2
RAMKI-A4
 70
     0
 62
     2
  6
Continuous
290
     0
370
    -3
390
9
1001
RAK
1000
{ACET-LAYISO
1070
     0
1070
     2
1000
Continuous
1071
       -3
1071
        0
1005
9
1000
ACET-LAYISO}
  0
LAYER
  5
11
102
{ACAD_XDICTIONARY
360
12
102
}
330
1C7
100
AcDbSymbolTableRecord
100
AcDbLayerTableRecord
  2
NAPISY
 70
     0
 62
   140
  6
Continuous
370
    -3
390
9
1001
RAK
1000
{ACET-LAYISO
1070
     0
1070
   140
1000
Continuous
1071
       -3
1071
        1
1005
9
1000
ACET-LAYISO}
  0
LAYER
  5
1E2
102
{ACAD_XDICTIONARY
360
1E3
102
}
330
1C7
100
AcDbSymbolTableRecord
100
AcDbLayerTableRecord
  2
0Wymiary-PL
 70
     0
 62
     1
  6
Continuous
370
     5
390
9
  0
ENDTAB
  0
TABLE
  2
STYLE
  5
1CC
330
0
100
AcDbSymbolTable
 70
     3
  0
STYLE
  5
1CD
330
1CC
100
AcDbSymbolTableRecord
100
AcDbTextStyleTableRecord
  2
Standard
 70
     0
 40
0.0
 41
1.0
 50
0.0
 71
     0
 42
2.5
  3
txt
  4

  0
STYLE
  5
96
330
1CC
100
AcDbSymbolTableRecord
100
AcDbTextStyleTableRecord
  2
ROMANS
 70
     0
 40
0.0
 41
0.9
 50
0.0
 71
     0
 42
20.0
  3
romans.shx
  4

  0
STYLE
  5
14
330
1CC
100
AcDbSymbolTableRecord
100
AcDbTextStyleTableRecord
  2
AVA
 70
     0
 40
0.0
 41
1.0
 50
0.0
 71
     0
 42
158.5644099714409
  3
ARIAL.TTF
  4

1001
ACAD
1000
Arial CE
1071
    60962
  0
ENDTAB
  0
TABLE
  2
VIEW
  5
1D2
330
0
100
AcDbSymbolTable
 70
     1
  0
VIEW
  5
1BF
330
1D2
100
AcDbSymbolTableRecord
100
AcDbViewTableRecord
  2
RODODENDRON 5
 70
     0
 40
14020.0
 10
220287.1664355166
 20
148687.514558954
 41
10200.00000000003
 11
0.0
 21
0.0
 31
1.0
 12
0.0
 22
0.0
 32
0.0
 42
50.0
 43
0.0
 44
0.0
 50
0.0
 71
     0
281
     0
 72
     1
110
0.0
120
0.0
130
0.0
111
1.0
121
0.0
131
0.0
112
0.0
122
1.0
132
0.0
 79
     0
146
0.0
  0
ENDTAB
  0
TABLE
  2
UCS
  5
1D3
330
0
100
AcDbSymbolTable
 70
     0
  0
ENDTAB
  0
TABLE
  2
APPID
  5
1D6
330
0
100
AcDbSymbolTable
 70
     3
  0
APPID
  5
15
330
1D6
100
AcDbSymbolTableRecord
100
AcDbRegAppTableRecord
  2
ACAD
 70
     0
  0
APPID
  5
F
330
1D6
100
AcDbSymbolTableRecord
100
AcDbRegAppTableRecord
  2
RAK
 70
     0
  0
APPID
  5
1C2
330
1D6
100
AcDbSymbolTableRecord
100
AcDbRegAppTableRecord
  2
ACAD_PSEXT
 70
     0
  0
ENDTAB
  0
TABLE
  2
DIMSTYLE
  5
1D7
330
0
100
AcDbSymbolTable
 70
     2
100
AcDbDimStyleTable
 71
     2
340
9C
340
1D8
  0
DIMSTYLE
105
9C
102
{ACAD_REACTORS
330
87
330
9D
330
A8
330
B3
330
126
330
131
330
13C
330
147
330
152
330
15F
330
16A
330
177
330
182
330
18F
330
19A
330
1A7
102
}
330
1D7
100
AcDbSymbolTableRecord
100
AcDbDimStyleTableRecord
  2
500
 70
     0
 41
30.0
 42
43.0
 43
0.0
 44
13.0
 45
0.5
 46
12.0
 73
     0
 74
     0
 75
     1
 76
     1
 78
    12
140
80.0
141
0.0
145
1.0
147
0.0
172
     1
174
     1
176
     1
177
     1
178
    10
271
     1
272
     1
279
     2
340
96
341
8C
342
8C
  0
DIMSTYLE
105
1D8
330
1D7
100
AcDbSymbolTableRecord
100
AcDbDimStyleTableRecord
  2
Standard
 70
     0
340
1CD
  0
ENDTAB
  0
TABLE
  2
BLOCK_RECORD
  5
1
330
0
100
AcDbSymbolTable
 70
    17
  0
BLOCK_RECORD
  5
2
102
{ACAD_XDICTIONARY
360
3
102
}
330
1
100
AcDbSymbolTableRecord
100
AcDbBlockTableRecord
  2
*Model_Space
340
1BD
  0
BLOCK_RECORD
  5
1C3
330
1
100
AcDbSymbolTableRecord
100
AcDbBlockTableRecord
  2
*Paper_Space
340
1C6
  0
BLOCK_RECORD
  5
8C
102
{ACAD_XDICTIONARY
360
8D
102
}
330
1
100
AcDbSymbolTableRecord
100
AcDbBlockTableRecord
  2
B-DIM
340
0
102
{BLKREFS
331
1AB
331
1AC
331
1A0
331
1A1
331
193
331
194
331
188
331
189
331
17B
331
17C
331
170
331
171
331
163
331
164
331
158
331
159
331
14B
331
14C
331
140
331
141
331
135
331
136
331
12A
331
12B
331
B7
331
B8
331
AC
331
AD
331
A1
331
A2
331
8B
331
94
102
}
  0
BLOCK_RECORD
  5
88
330
1
100
AcDbSymbolTableRecord
100
AcDbBlockTableRecord
  2
*D1
340
0
  0
BLOCK_RECORD
  5
9E
330
1
100
AcDbSymbolTableRecord
100
AcDbBlockTableRecord
  2
*D2
340
0
  0
BLOCK_RECORD
  5
A9
330
1
100
AcDbSymbolTableRecord
100
AcDbBlockTableRecord
  2
*D3
340
0
  0
BLOCK_RECORD
  5
B4
330
1
100
AcDbSymbolTableRecord
100
AcDbBlockTableRecord
  2
*D4
340
0
  0
BLOCK_RECORD
  5
127
330
1
100
AcDbSymbolTableRecord
100
AcDbBlockTableRecord
  2
*D5
340
0
  0
BLOCK_RECORD
  5
132
330
1
100
AcDbSymbolTableRecord
100
AcDbBlockTableRecord
  2
*D6
340
0
  0
BLOCK_RECORD
  5
13D
330
1
100
AcDbSymbolTableRecord
100
AcDbBlockTableRecord
  2
*D7
340
0
  0
BLOCK_RECORD
  5
148
330
1
100
AcDbSymbolTableRecord
100
AcDbBlockTableRecord
  2
*D8
340
0
  0
BLOCK_RECORD
  5
153
330
1
100
AcDbSymbolTableRecord
100
AcDbBlockTableRecord
  2
*D9
340
0
  0
BLOCK_RECORD
  5
160
330
1
100
AcDbSymbolTableRecord
100
AcDbBlockTableRecord
  2
*D10
340
0
  0
BLOCK_RECORD
  5
16B
330
1
100
AcDbSymbolTableRecord
100
AcDbBlockTableRecord
  2
*D11
340
0
  0
BLOCK_RECORD
  5
178
330
1
100
AcDbSymbolTableRecord
100
AcDbBlockTableRecord
  2
*D12
340
0
  0
BLOCK_RECORD
  5
183
330
1
100
AcDbSymbolTableRecord
100
AcDbBlockTableRecord
  2
*D13
340
0
  0
BLOCK_RECORD
  5
190
330
1
100
AcDbSymbolTableRecord
100
AcDbBlockTableRecord
  2
*D14
340
0
  0
BLOCK_RECORD
  5
19B
330
1
100
AcDbSymbolTableRecord
100
AcDbBlockTableRecord
  2
*D15
340
0
  0
BLOCK_RECORD
  5
1A8
330
1
100
AcDbSymbolTableRecord
100
AcDbBlockTableRecord
  2
*D16
340
0
  0
ENDTAB
  0
ENDSEC
  0
SECTION
  2
BLOCKS
  0
BLOCK
  5
5
330
2
100
AcDbEntity
  8
0
100
AcDbBlockBegin
  2
*Model_Space
 70
     0
 10
0.0
 20
0.0
 30
0.0
  3
*Model_Space
  1

  0
ENDBLK
  5
1BC
330
2
100
AcDbEntity
  8
0
100
AcDbBlockEnd
  0
BLOCK
  5
1C4
330
1C3
100
AcDbEntity
 67
     1
  8
0
100
AcDbBlockBegin
  2
*Paper_Space
 70
     0
 10
0.0
 20
0.0
 30
0.0
  3
*Paper_Space
  1

  0
ENDBLK
  5
1C5
330
1C3
100
AcDbEntity
 67
     1
  8
0
100
AcDbBlockEnd
  0
BLOCK
  5
8F
330
8C
100
AcDbEntity
  8
0
100
AcDbBlockBegin
  2
B-DIM
 70
     0
 10
0.0
 20
0.0
 30
0.0
  3
B-DIM
  1

  0
LINE
  5
90
330
8C
100
AcDbEntity
  8
0
 62
     1
100
AcDbLine
 10
0.000000000000091
 20
-1.1
 30
0.0
 11
0.000000000000091
 21
1.1
 31
0.0
  0
LWPOLYLINE
  5
91
330
8C
100
AcDbEntity
  8
0
 62
     1
100
AcDbPolyline
 90
        2
 70
     0
 43
0.3
 10
-0.7071067811864851
 20
-0.7071067811864851
 10
0.707106781186576
 20
0.707106781186576
  0
LINE
  5
92
330
8C
100
AcDbEntity
  8
0
 62
     1
100
AcDbLine
 10
1.20000000000009
 20
0.0
 30
0.0
 11
-1.199999999999909
 21
0.0
 31
0.0
  0
ENDBLK
  5
93
330
8C
100
AcDbEntity
  8
0
100
AcDbBlockEnd
  0
BLOCK
  5
89
330
88
100
AcDbEntity
  8
0
100
AcDbBlockBegin
  2
*D1
 70
     1
 10
0.0
 20
0.0
 30
0.0
  3
*D1
  1

  0
LINE
  5
8A
330
88
100
AcDbEntity
  8
0
 62
     1
370
    -2
100
AcDbLine
 10
217374.0563030705
 20
137134.3792665298
 30
0.0
 11
217664.0563030705
 21
137134.3792665298
 31
0.0
  0
INSERT
  5
8B
330
88
100
AcDbEntity
  8
0
 62
     1
370
    -2
100
AcDbBlockReference
  2
B-DIM
 10
217344.0563030704
 20
137134.3792665298
 30
0.0
 41
30.0
 42
30.0
 43
30.0
 50
180.0
  0
INSERT
  5
94
330
88
100
AcDbEntity
  8
0
 62
     1
370
    -2
100
AcDbBlockReference
  2
B-DIM
 10
217694.0563030704
 20
137134.3792665298
 30
0.0
 41
30.0
 42
30.0
 43
30.0
  0
MTEXT
  5
95
330
88
100
AcDbEntity
  8
0
 62
    10
370
     5
100
AcDbMText
 10
217519.0563030704
 20
137214.3792665298
 30
0.0
 40
80.0
 41
0.0
 71
     5
 72
     1
  1
\A1;350
  7
ROMANS
 73
     1
 44
1.0
1001
ACAD
1000
MTEXTBEGIN
1070
    73
1070
     1
1070
    44
1040
1.0
1070
    74
1070
     0
1000
MTEXTEND
  0
POINT
  5
97
330
88
100
AcDbEntity
  8
DEFPOINTS
 62
     0
100
AcDbPoint
 10
217344.0563030704
 20
136641.3747891151
 30
0.0
  0
POINT
  5
99
330
88
100
AcDbEntity
  8
DEFPOINTS
 62
     0
100
AcDbPoint
 10
217694.0563030704
 20
136641.3747891151
 30
0.0
  0
POINT
  5
9A
330
88
100
AcDbEntity
  8
DEFPOINTS
 62
     0
100
AcDbPoint
 10
217694.0563030704
 20
137134.3792665298
 30
0.0
  0
ENDBLK
  5
9B
330
88
100
AcDbEntity
  8
0
100
AcDbBlockEnd
  0
BLOCK
  5
9F
330
9E
100
AcDbEntity
  8
0
100
AcDbBlockBegin
  2
*D2
 70
     1
 10
0.0
 20
0.0
 30
0.0
  3
*D2
  1

  0
LINE
  5
A0
330
9E
100
AcDbEntity
  8
0
 62
     1
370
    -2
100
AcDbLine
 10
217724.0563030705
 20
137134.3792665298
 30
0.0
 11
218452.0563030704
 21
137134.3792665298
 31
0.0
  0
INSERT
  5
A1
330
9E
100
AcDbEntity
  8
0
 62
     1
370
    -2
100
AcDbBlockReference
  2
B-DIM
 10
217694.0563030704
 20
137134.3792665298
 30
0.0
 41
30.0
 42
30.0
 43
30.0
 50
180.0
  0
INSERT
  5
A2
330
9E
100
AcDbEntity
  8
0
 62
     1
370
    -2
100
AcDbBlockReference
  2
B-DIM
 10
218482.0563030704
 20
137134.3792665298
 30
0.0
 41
30.0
 42
30.0
 43
30.0
  0
MTEXT
  5
A3
330
9E
100
AcDbEntity
  8
0
 62
    10
370
     5
100
AcDbMText
 10
218088.0563030704
 20
137214.3792665298
 30
0.0
 40
80.0
 41
0.0
 71
     5
 72
     1
  1
\A1;788
  7
ROMANS
 73
     1
 44
1.0
1001
ACAD
1000
MTEXTBEGIN
1070
    73
1070
     1
1070
    44
1040
1.0
1070
    74
1070
     0
1000
MTEXTEND
  0
POINT
  5
A4
330
9E
100
AcDbEntity
  8
DEFPOINTS
 62
     0
100
AcDbPoint
 10
217694.0563030704
 20
136641.3747891151
 30
0.0
  0
POINT
  5
A5
330
9E
100
AcDbEntity
  8
DEFPOINTS
 62
     0
100
AcDbPoint
 10
218482.0563030704
 20
136760.3747891151
 30
0.0
  0
POINT
  5
A6
330
9E
100
AcDbEntity
  8
DEFPOINTS
 62
     0
100
AcDbPoint
 10
218482.0563030704
 20
137134.3792665298
 30
0.0
  0
ENDBLK
  5
A7
330
9E
100
AcDbEntity
  8
0
100
AcDbBlockEnd
  0
BLOCK
  5
AA
330
A9
100
AcDbEntity
  8
0
100
AcDbBlockBegin
  2
*D3
 70
     1
 10
0.0
 20
0.0
 30
0.0
  3
*D3
  1

  0
LINE
  5
AB
330
A9
100
AcDbEntity
  8
0
 62
     1
370
    -2
100
AcDbLine
 10
218512.0563030704
 20
137134.3792665298
 30
0.0
 11
219012.0563030705
 21
137134.3792665298
 31
0.0
  0
INSERT
  5
AC
330
A9
100
AcDbEntity
  8
0
 62
     1
370
    -2
100
AcDbBlockReference
  2
B-DIM
 10
218482.0563030704
 20
137134.3792665298
 30
0.0
 41
30.0
 42
30.0
 43
30.0
 50
180.0
  0
INSERT
  5
AD
330
A9
100
AcDbEntity
  8
0
 62
     1
370
    -2
100
AcDbBlockReference
  2
B-DIM
 10
219042.0563030704
 20
137134.3792665298
 30
0.0
 41
30.0
 42
30.0
 43
30.0
  0
MTEXT
  5
AE
330
A9
100
AcDbEntity
  8
0
 62
    10
370
     5
100
AcDbMText
 10
218762.0563030705
 20
137214.3792665298
 30
0.0
 40
80.0
 41
0.0
 71
     5
 72
     1
  1
\A1;560
  7
ROMANS
 73
     1
 44
1.0
1001
ACAD
1000
MTEXTBEGIN
1070
    73
1070
     1
1070
    44
1040
1.0
1070
    74
1070
     0
1000
MTEXTEND
  0
POINT
  5
AF
330
A9
100
AcDbEntity
  8
DEFPOINTS
 62
     0
100
AcDbPoint
 10
218482.0563030704
 20
136760.3747891151
 30
0.0
  0
POINT
  5
B0
330
A9
100
AcDbEntity
  8
DEFPOINTS
 62
     0
100
AcDbPoint
 10
219042.0563030704
 20
136641.3747891151
 30
0.0
  0
POINT
  5
B1
330
A9
100
AcDbEntity
  8
DEFPOINTS
 62
     0
100
AcDbPoint
 10
219042.0563030704
 20
137134.3792665298
 30
0.0
  0
ENDBLK
  5
B2
330
A9
100
AcDbEntity
  8
0
100
AcDbBlockEnd
  0
BLOCK
  5
B5
330
B4
100
AcDbEntity
  8
0
100
AcDbBlockBegin
  2
*D4
 70
     1
 10
0.0
 20
0.0
 30
0.0
  3
*D4
  1

  0
LINE
  5
B6
330
B4
100
AcDbEntity
  8
0
 62
     1
370
    -2
100
AcDbLine
 10
219012.0563030705
 20
137349.0484745968
 30
0.0
 11
217374.0563030705
 21
137349.0484745968
 31
0.0
  0
INSERT
  5
B7
330
B4
100
AcDbEntity
  8
0
 62
     1
370
    -2
100
AcDbBlockReference
  2
B-DIM
 10
219042.0563030704
 20
137349.0484745968
 30
0.0
 41
30.0
 42
30.0
 43
30.0
  0
INSERT
  5
B8
330
B4
100
AcDbEntity
  8
0
 62
     1
370
    -2
100
AcDbBlockReference
  2
B-DIM
 10
217344.0563030704
 20
137349.0484745968
 30
0.0
 41
30.0
 42
30.0
 43
30.0
 50
180.0
  0
MTEXT
  5
B9
330
B4
100
AcDbEntity
  8
0
 62
    10
370
     5
100
AcDbMText
 10
218193.0563030704
 20
137429.0484745968
 30
0.0
 40
80.0
 41
0.0
 71
     5
 72
     1
  1
\A1;1698
  7
ROMANS
 73
     1
 44
1.0
1001
ACAD
1000
MTEXTBEGIN
1070
    73
1070
     1
1070
    44
1040
1.0
1070
    74
1070
     0
1000
MTEXTEND
  0
POINT
  5
BA
330
B4
100
AcDbEntity
  8
DEFPOINTS
 62
     0
100
AcDbPoint
 10
219042.0563030704
 20
136641.3747891151
 30
0.0
  0
POINT
  5
BB
330
B4
100
AcDbEntity
  8
DEFPOINTS
 62
     0
100
AcDbPoint
 10
217344.0563030704
 20
136641.3747891151
 30
0.0
  0
POINT
  5
BC
330
B4
100
AcDbEntity
  8
DEFPOINTS
 62
     0
100
AcDbPoint
 10
217344.0563030704
 20
137349.0484745968
 30
0.0
  0
ENDBLK
  5
BD
330
B4
100
AcDbEntity
  8
0
100
AcDbBlockEnd
  0
BLOCK
  5
128
330
127
100
AcDbEntity
  8
0
100
AcDbBlockBegin
  2
*D5
 70
     1
 10
0.0
 20
0.0
 30
0.0
  3
*D5
  1

  0
LINE
  5
129
330
127
100
AcDbEntity
  8
0
 62
     1
370
    -2
100
AcDbLine
 10
223425.7221866746
 20
137134.3792665298
 30
0.0
 11
223135.7221866746
 21
137134.3792665298
 31
0.0
  0
INSERT
  5
12A
330
127
100
AcDbEntity
  8
0
 62
     1
370
    -2
100
AcDbBlockReference
  2
B-DIM
 10
223455.7221866746
 20
137134.3792665298
 30
0.0
 41
30.0
 42
30.0
 43
30.0
  0
INSERT
  5
12B
330
127
100
AcDbEntity
  8
0
 62
     1
370
    -2
100
AcDbBlockReference
  2
B-DIM
 10
223105.7221866747
 20
137134.3792665298
 30
0.0
 41
30.0
 42
30.0
 43
30.0
 50
180.0
  0
MTEXT
  5
12C
330
127
100
AcDbEntity
  8
0
 62
    10
370
     5
100
AcDbMText
 10
223280.7221866746
 20
137214.3792665298
 30
0.0
 40
80.0
 41
0.0
 71
     5
 72
     1
  1
\A1;350
  7
ROMANS
 73
     1
 44
1.0
1001
ACAD
1000
MTEXTBEGIN
1070
    73
1070
     1
1070
    44
1040
1.0
1070
    74
1070
     0
1000
MTEXTEND
  0
POINT
  5
12D
330
127
100
AcDbEntity
  8
DEFPOINTS
 62
     0
100
AcDbPoint
 10
223455.7221866746
 20
136641.3747891151
 30
0.0
  0
POINT
  5
12E
330
127
100
AcDbEntity
  8
DEFPOINTS
 62
     0
100
AcDbPoint
 10
223105.7221866747
 20
136641.3747891151
 30
0.0
  0
POINT
  5
12F
330
127
100
AcDbEntity
  8
DEFPOINTS
 62
     0
100
AcDbPoint
 10
223105.7221866747
 20
137134.3792665298
 30
0.0
  0
ENDBLK
  5
130
330
127
100
AcDbEntity
  8
0
100
AcDbBlockEnd
  0
BLOCK
  5
133
330
132
100
AcDbEntity
  8
0
100
AcDbBlockBegin
  2
*D6
 70
     1
 10
0.0
 20
0.0
 30
0.0
  3
*D6
  1

  0
LINE
  5
134
330
132
100
AcDbEntity
  8
0
 62
     1
370
    -2
100
AcDbLine
 10
223075.7221866746
 20
137134.3792665298
 30
0.0
 11
222347.7221866746
 21
137134.3792665298
 31
0.0
  0
INSERT
  5
135
330
132
100
AcDbEntity
  8
0
 62
     1
370
    -2
100
AcDbBlockReference
  2
B-DIM
 10
223105.7221866747
 20
137134.3792665298
 30
0.0
 41
30.0
 42
30.0
 43
30.0
  0
INSERT
  5
136
330
132
100
AcDbEntity
  8
0
 62
     1
370
    -2
100
AcDbBlockReference
  2
B-DIM
 10
222317.7221866746
 20
137134.3792665298
 30
0.0
 41
30.0
 42
30.0
 43
30.0
 50
180.0
  0
MTEXT
  5
137
330
132
100
AcDbEntity
  8
0
 62
    10
370
     5
100
AcDbMText
 10
222711.7221866746
 20
137214.3792665298
 30
0.0
 40
80.0
 41
0.0
 71
     5
 72
     1
  1
\A1;788
  7
ROMANS
 73
     1
 44
1.0
1001
ACAD
1000
MTEXTBEGIN
1070
    73
1070
     1
1070
    44
1040
1.0
1070
    74
1070
     0
1000
MTEXTEND
  0
POINT
  5
138
330
132
100
AcDbEntity
  8
DEFPOINTS
 62
     0
100
AcDbPoint
 10
223105.7221866747
 20
136641.3747891151
 30
0.0
  0
POINT
  5
139
330
132
100
AcDbEntity
  8
DEFPOINTS
 62
     0
100
AcDbPoint
 10
222317.7221866746
 20
136760.3747891151
 30
0.0
  0
POINT
  5
13A
330
132
100
AcDbEntity
  8
DEFPOINTS
 62
     0
100
AcDbPoint
 10
222317.7221866746
 20
137134.3792665298
 30
0.0
  0
ENDBLK
  5
13B
330
132
100
AcDbEntity
  8
0
100
AcDbBlockEnd
  0
BLOCK
  5
13E
330
13D
100
AcDbEntity
  8
0
100
AcDbBlockBegin
  2
*D7
 70
     1
 10
0.0
 20
0.0
 30
0.0
  3
*D7
  1

  0
LINE
  5
13F
330
13D
100
AcDbEntity
  8
0
 62
     1
370
    -2
100
AcDbLine
 10
222287.7221866746
 20
137134.3792665298
 30
0.0
 11
221787.7221866746
 21
137134.3792665298
 31
0.0
  0
INSERT
  5
140
330
13D
100
AcDbEntity
  8
0
 62
     1
370
    -2
100
AcDbBlockReference
  2
B-DIM
 10
222317.7221866746
 20
137134.3792665298
 30
0.0
 41
30.0
 42
30.0
 43
30.0
  0
INSERT
  5
141
330
13D
100
AcDbEntity
  8
0
 62
     1
370
    -2
100
AcDbBlockReference
  2
B-DIM
 10
221757.7221866747
 20
137134.3792665298
 30
0.0
 41
30.0
 42
30.0
 43
30.0
 50
180.0
  0
MTEXT
  5
142
330
13D
100
AcDbEntity
  8
0
 62
    10
370
     5
100
AcDbMText
 10
222037.7221866746
 20
137214.3792665298
 30
0.0
 40
80.0
 41
0.0
 71
     5
 72
     1
  1
\A1;560
  7
ROMANS
 73
     1
 44
1.0
1001
ACAD
1000
MTEXTBEGIN
1070
    73
1070
     1
1070
    44
1040
1.0
1070
    74
1070
     0
1000
MTEXTEND
  0
POINT
  5
143
330
13D
100
AcDbEntity
  8
DEFPOINTS
 62
     0
100
AcDbPoint
 10
222317.7221866746
 20
136760.3747891151
 30
0.0
  0
POINT
  5
144
330
13D
100
AcDbEntity
  8
DEFPOINTS
 62
     0
100
AcDbPoint
 10
221757.7221866747
 20
136641.3747891151
 30
0.0
  0
POINT
  5
145
330
13D
100
AcDbEntity
  8
DEFPOINTS
 62
     0
100
AcDbPoint
 10
221757.7221866747
 20
137134.3792665298
 30
0.0
  0
ENDBLK
  5
146
330
13D
100
AcDbEntity
  8
0
100
AcDbBlockEnd
  0
BLOCK
  5
149
330
148
100
AcDbEntity
  8
0
100
AcDbBlockBegin
  2
*D8
 70
     1
 10
0.0
 20
0.0
 30
0.0
  3
*D8
  1

  0
LINE
  5
14A
330
148
100
AcDbEntity
  8
0
 62
     1
370
    -2
100
AcDbLine
 10
221787.7221866746
 20
137349.0484745968
 30
0.0
 11
223425.7221866746
 21
137349.0484745968
 31
0.0
  0
INSERT
  5
14B
330
148
100
AcDbEntity
  8
0
 62
     1
370
    -2
100
AcDbBlockReference
  2
B-DIM
 10
221757.7221866747
 20
137349.0484745968
 30
0.0
 41
30.0
 42
30.0
 43
30.0
 50
180.0
  0
INSERT
  5
14C
330
148
100
AcDbEntity
  8
0
 62
     1
370
    -2
100
AcDbBlockReference
  2
B-DIM
 10
223455.7221866746
 20
137349.0484745968
 30
0.0
 41
30.0
 42
30.0
 43
30.0
  0
MTEXT
  5
14D
330
148
100
AcDbEntity
  8
0
 62
    10
370
     5
100
AcDbMText
 10
222606.7221866746
 20
137429.0484745968
 30
0.0
 40
80.0
 41
0.0
 71
     5
 72
     1
  1
\A1;1698
  7
ROMANS
 73
     1
 44
1.0
1001
ACAD
1000
MTEXTBEGIN
1070
    73
1070
     1
1070
    44
1040
1.0
1070
    74
1070
     0
1000
MTEXTEND
  0
POINT
  5
14E
330
148
100
AcDbEntity
  8
DEFPOINTS
 62
     0
100
AcDbPoint
 10
221757.7221866747
 20
136641.3747891151
 30
0.0
  0
POINT
  5
14F
330
148
100
AcDbEntity
  8
DEFPOINTS
 62
     0
100
AcDbPoint
 10
223455.7221866746
 20
136641.3747891151
 30
0.0
  0
POINT
  5
150
330
148
100
AcDbEntity
  8
DEFPOINTS
 62
     0
100
AcDbPoint
 10
223455.7221866746
 20
137349.0484745968
 30
0.0
  0
ENDBLK
  5
151
330
148
100
AcDbEntity
  8
0
100
AcDbBlockEnd
  0
BLOCK
  5
154
330
153
100
AcDbEntity
  8
0
100
AcDbBlockBegin
  2
*D9
 70
     1
 10
0.0
 20
0.0
 30
0.0
  3
*D9
  1

  0
LINE
  5
155
330
153
100
AcDbEntity
  8
0
 62
     1
370
    -2
100
AcDbLine
 10
219421.5330531099
 20
136790.3747891151
 30
0.0
 11
219421.5330531099
 21
136820.3747891151
 31
0.0
  0
LINE
  5
156
330
153
100
AcDbEntity
  8
0
 62
     1
370
    -2
100
AcDbLine
 10
219421.5330531099
 20
136611.3747891151
 30
0.0
 11
219421.5330531099
 21
136581.3747891151
 31
0.0
  0
LINE
  5
157
330
153
100
AcDbEntity
  8
0
 62
     1
370
    -2
100
AcDbLine
 10
219421.5330531099
 20
136760.3747891151
 30
0.0
 11
219421.5330531099
 21
136641.3747891151
 31
0.0
  0
INSERT
  5
158
330
153
100
AcDbEntity
  8
0
 62
     1
370
    -2
100
AcDbBlockReference
  2
B-DIM
 10
219421.5330531099
 20
136760.3747891151
 30
0.0
 41
30.0
 42
30.0
 43
30.0
 50
270.0
  0
INSERT
  5
159
330
153
100
AcDbEntity
  8
0
 62
     1
370
    -2
100
AcDbBlockReference
  2
B-DIM
 10
219421.5330531099
 20
136641.3747891151
 30
0.0
 41
30.0
 42
30.0
 43
30.0
 50
90.0
  0
MTEXT
  5
15A
330
153
100
AcDbEntity
  8
0
 62
    10
370
     5
100
AcDbMText
 10
219341.5330531099
 20
136700.8747891152
 30
0.0
 40
80.0
 41
0.0
 71
     5
 72
     1
  1
\A1;119
  7
ROMANS
 11
0.0000000000000001
 21
1.0
 31
0.0
 73
     1
 44
1.0
1001
ACAD
1000
MTEXTBEGIN
1070
    73
1070
     1
1070
    44
1040
1.0
1070
    74
1070
     0
1000
MTEXTEND
  0
POINT
  5
15B
330
153
100
AcDbEntity
  8
DEFPOINTS
 62
     0
100
AcDbPoint
 10
218540.6421281335
 20
136760.3747891151
 30
0.0
  0
POINT
  5
15C
330
153
100
AcDbEntity
  8
DEFPOINTS
 62
     0
100
AcDbPoint
 10
218540.6421281335
 20
136641.3747891151
 30
0.0
  0
POINT
  5
15D
330
153
100
AcDbEntity
  8
DEFPOINTS
 62
     0
100
AcDbPoint
 10
219421.5330531099
 20
136641.3747891151
 30
0.0
  0
ENDBLK
  5
15E
330
153
100
AcDbEntity
  8
0
100
AcDbBlockEnd
  0
BLOCK
  5
161
330
160
100
AcDbEntity
  8
0
100
AcDbBlockBegin
  2
*D10
 70
     1
 10
0.0
 20
0.0
 30
0.0
  3
*D10
  1

  0
LINE
  5
162
330
160
100
AcDbEntity
  8
0
 62
     1
370
    -2
100
AcDbLine
 10
219421.5330531099
 20
136611.3747891151
 30
0.0
 11
219421.5330531099
 21
135997.3747891151
 31
0.0
  0
INSERT
  5
163
330
160
100
AcDbEntity
  8
0
 62
     1
370
    -2
100
AcDbBlockReference
  2
B-DIM
 10
219421.5330531099
 20
136641.3747891151
 30
0.0
 41
30.0
 42
30.0
 43
30.0
 50
90.0
  0
INSERT
  5
164
330
160
100
AcDbEntity
  8
0
 62
     1
370
    -2
100
AcDbBlockReference
  2
B-DIM
 10
219421.5330531099
 20
135967.3747891151
 30
0.0
 41
30.0
 42
30.0
 43
30.0
 50
270.0
  0
MTEXT
  5
165
330
160
100
AcDbEntity
  8
0
 62
    10
370
     5
100
AcDbMText
 10
219341.5330531099
 20
136304.3747891152
 30
0.0
 40
80.0
 41
0.0
 71
     5
 72
     1
  1
\A1;674
  7
ROMANS
 11
0.0000000000000001
 21
1.0
 31
0.0
 73
     1
 44
1.0
1001
ACAD
1000
MTEXTBEGIN
1070
    73
1070
     1
1070
    44
1040
1.0
1070
    74
1070
     0
1000
MTEXTEND
  0
POINT
  5
166
330
160
100
AcDbEntity
  8
DEFPOINTS
 62
     0
100
AcDbPoint
 10
218540.6421281335
 20
136641.3747891151
 30
0.0
  0
POINT
  5
167
330
160
100
AcDbEntity
  8
DEFPOINTS
 62
     0
100
AcDbPoint
 10
219100.6421281335
 20
135967.3747891151
 30
0.0
  0
POINT
  5
168
330
160
100
AcDbEntity
  8
DEFPOINTS
 62
     0
100
AcDbPoint
 10
219421.5330531099
 20
135967.3747891151
 30
0.0
  0
ENDBLK
  5
169
330
160
100
AcDbEntity
  8
0
100
AcDbBlockEnd
  0
BLOCK
  5
16C
330
16B
100
AcDbEntity
  8
0
100
AcDbBlockBegin
  2
*D11
 70
     1
 10
0.0
 20
0.0
 30
0.0
  3
*D11
  1

  0
LINE
  5
16D
330
16B
100
AcDbEntity
  8
0
 62
     1
370
    -2
100
AcDbLine
 10
219421.5330531099
 20
135997.3747891151
 30
0.0
 11
219421.5330531099
 21
136027.3747891151
 31
0.0
  0
LINE
  5
16E
330
16B
100
AcDbEntity
  8
0
 62
     1
370
    -2
100
AcDbLine
 10
219421.5330531099
 20
135885.3747891151
 30
0.0
 11
219421.5330531099
 21
135855.3747891152
 31
0.0
  0
LINE
  5
16F
330
16B
100
AcDbEntity
  8
0
 62
     1
370
    -2
100
AcDbLine
 10
219421.5330531099
 20
135967.3747891151
 30
0.0
 11
219421.5330531099
 21
135915.3747891151
 31
0.0
  0
INSERT
  5
170
330
16B
100
AcDbEntity
  8
0
 62
     1
370
    -2
100
AcDbBlockReference
  2
B-DIM
 10
219421.5330531099
 20
135967.3747891151
 30
0.0
 41
30.0
 42
30.0
 43
30.0
 50
270.0
  0
INSERT
  5
171
330
16B
100
AcDbEntity
  8
0
 62
     1
370
    -2
100
AcDbBlockReference
  2
B-DIM
 10
219421.5330531099
 20
135915.3747891151
 30
0.0
 41
30.0
 42
30.0
 43
30.0
 50
90.0
  0
MTEXT
  5
172
330
16B
100
AcDbEntity
  8
0
 62
    10
370
     5
100
AcDbMText
 10
219341.5330531099
 20
135941.3747891152
 30
0.0
 40
80.0
 41
0.0
 71
     5
 72
     1
  1
\A1;52
  7
ROMANS
 11
0.0000000000000001
 21
1.0
 31
0.0
 73
     1
 44
1.0
1001
ACAD
1000
MTEXTBEGIN
1070
    73
1070
     1
1070
    44
1040
1.0
1070
    74
1070
     0
1000
MTEXTEND
  0
POINT
  5
173
330
16B
100
AcDbEntity
  8
DEFPOINTS
 62
     0
100
AcDbPoint
 10
219100.6421281335
 20
135967.3747891151
 30
0.0
  0
POINT
  5
174
330
16B
100
AcDbEntity
  8
DEFPOINTS
 62
     0
100
AcDbPoint
 10
218540.6421281335
 20
135915.3747891151
 30
0.0
  0
POINT
  5
175
330
16B
100
AcDbEntity
  8
DEFPOINTS
 62
     0
100
AcDbPoint
 10
219421.5330531099
 20
135915.3747891151
 30
0.0
  0
ENDBLK
  5
176
330
16B
100
AcDbEntity
  8
0
100
AcDbBlockEnd
  0
BLOCK
  5
179
330
178
100
AcDbEntity
  8
0
100
AcDbBlockBegin
  2
*D12
 70
     1
 10
0.0
 20
0.0
 30
0.0
  3
*D12
  1

  0
LINE
  5
17A
330
178
100
AcDbEntity
  8
0
 62
     1
370
    -2
100
AcDbLine
 10
219636.7031650918
 20
135945.3747891151
 30
0.0
 11
219636.7031650918
 21
136730.3747891151
 31
0.0
  0
INSERT
  5
17B
330
178
100
AcDbEntity
  8
0
 62
     1
370
    -2
100
AcDbBlockReference
  2
B-DIM
 10
219636.7031650918
 20
135915.3747891151
 30
0.0
 41
30.0
 42
30.0
 43
30.0
 50
270.0
  0
INSERT
  5
17C
330
178
100
AcDbEntity
  8
0
 62
     1
370
    -2
100
AcDbBlockReference
  2
B-DIM
 10
219636.7031650918
 20
136760.3747891151
 30
0.0
 41
30.0
 42
30.0
 43
30.0
 50
90.0
  0
MTEXT
  5
17D
330
178
100
AcDbEntity
  8
0
 62
    10
370
     5
100
AcDbMText
 10
219556.7031650917
 20
136337.8747891152
 30
0.0
 40
80.0
 41
0.0
 71
     5
 72
     1
  1
\A1;845
  7
ROMANS
 11
0.0000000000000001
 21
1.0
 31
0.0
 73
     1
 44
1.0
1001
ACAD
1000
MTEXTBEGIN
1070
    73
1070
     1
1070
    44
1040
1.0
1070
    74
1070
     0
1000
MTEXTEND
  0
POINT
  5
17E
330
178
100
AcDbEntity
  8
DEFPOINTS
 62
     0
100
AcDbPoint
 10
218540.6421281335
 20
135915.3747891151
 30
0.0
  0
POINT
  5
17F
330
178
100
AcDbEntity
  8
DEFPOINTS
 62
     0
100
AcDbPoint
 10
218540.6421281335
 20
136760.3747891151
 30
0.0
  0
POINT
  5
180
330
178
100
AcDbEntity
  8
DEFPOINTS
 62
     0
100
AcDbPoint
 10
219636.7031650918
 20
136760.3747891151
 30
0.0
  0
ENDBLK
  5
181
330
178
100
AcDbEntity
  8
0
100
AcDbBlockEnd
  0
BLOCK
  5
184
330
183
100
AcDbEntity
  8
0
100
AcDbBlockBegin
  2
*D13
 70
     1
 10
0.0
 20
0.0
 30
0.0
  3
*D13
  1

  0
LINE
  5
185
330
183
100
AcDbEntity
  8
0
 62
     1
370
    -2
100
AcDbLine
 10
221378.2454366352
 20
136790.3747891151
 30
0.0
 11
221378.2454366352
 21
136820.3747891151
 31
0.0
  0
LINE
  5
186
330
183
100
AcDbEntity
  8
0
 62
     1
370
    -2
100
AcDbLine
 10
221378.2454366352
 20
136611.3747891151
 30
0.0
 11
221378.2454366352
 21
136581.3747891151
 31
0.0
  0
LINE
  5
187
330
183
100
AcDbEntity
  8
0
 62
     1
370
    -2
100
AcDbLine
 10
221378.2454366352
 20
136760.3747891151
 30
0.0
 11
221378.2454366352
 21
136641.3747891151
 31
0.0
  0
INSERT
  5
188
330
183
100
AcDbEntity
  8
0
 62
     1
370
    -2
100
AcDbBlockReference
  2
B-DIM
 10
221378.2454366352
 20
136760.3747891151
 30
0.0
 41
30.0
 42
30.0
 43
30.0
 50
270.0
  0
INSERT
  5
189
330
183
100
AcDbEntity
  8
0
 62
     1
370
    -2
100
AcDbBlockReference
  2
B-DIM
 10
221378.2454366352
 20
136641.3747891151
 30
0.0
 41
30.0
 42
30.0
 43
30.0
 50
90.0
  0
MTEXT
  5
18A
330
183
100
AcDbEntity
  8
0
 62
    10
370
     5
100
AcDbMText
 10
221298.2454366351
 20
136700.8747891152
 30
0.0
 40
80.0
 41
0.0
 71
     5
 72
     1
  1
\A1;119
  7
ROMANS
 11
0.0000000000000001
 21
1.0
 31
0.0
 73
     1
 44
1.0
1001
ACAD
1000
MTEXTBEGIN
1070
    73
1070
     1
1070
    44
1040
1.0
1070
    74
1070
     0
1000
MTEXTEND
  0
POINT
  5
18B
330
183
100
AcDbEntity
  8
DEFPOINTS
 62
     0
100
AcDbPoint
 10
222259.1363616116
 20
136760.3747891151
 30
0.0
  0
POINT
  5
18C
330
183
100
AcDbEntity
  8
DEFPOINTS
 62
     0
100
AcDbPoint
 10
222259.1363616116
 20
136641.3747891151
 30
0.0
  0
POINT
  5
18D
330
183
100
AcDbEntity
  8
DEFPOINTS
 62
     0
100
AcDbPoint
 10
221378.2454366352
 20
136641.3747891151
 30
0.0
  0
ENDBLK
  5
18E
330
183
100
AcDbEntity
  8
0
100
AcDbBlockEnd
  0
BLOCK
  5
191
330
190
100
AcDbEntity
  8
0
100
AcDbBlockBegin
  2
*D14
 70
     1
 10
0.0
 20
0.0
 30
0.0
  3
*D14
  1

  0
LINE
  5
192
330
190
100
AcDbEntity
  8
0
 62
     1
370
    -2
100
AcDbLine
 10
221378.2454366352
 20
136611.3747891151
 30
0.0
 11
221378.2454366352
 21
135997.3747891151
 31
0.0
  0
INSERT
  5
193
330
190
100
AcDbEntity
  8
0
 62
     1
370
    -2
100
AcDbBlockReference
  2
B-DIM
 10
221378.2454366352
 20
136641.3747891151
 30
0.0
 41
30.0
 42
30.0
 43
30.0
 50
90.0
  0
INSERT
  5
194
330
190
100
AcDbEntity
  8
0
 62
     1
370
    -2
100
AcDbBlockReference
  2
B-DIM
 10
221378.2454366352
 20
135967.3747891151
 30
0.0
 41
30.0
 42
30.0
 43
30.0
 50
270.0
  0
MTEXT
  5
195
330
190
100
AcDbEntity
  8
0
 62
    10
370
     5
100
AcDbMText
 10
221298.2454366351
 20
136304.3747891152
 30
0.0
 40
80.0
 41
0.0
 71
     5
 72
     1
  1
\A1;674
  7
ROMANS
 11
0.0000000000000001
 21
1.0
 31
0.0
 73
     1
 44
1.0
1001
ACAD
1000
MTEXTBEGIN
1070
    73
1070
     1
1070
    44
1040
1.0
1070
    74
1070
     0
1000
MTEXTEND
  0
POINT
  5
196
330
190
100
AcDbEntity
  8
DEFPOINTS
 62
     0
100
AcDbPoint
 10
222259.1363616116
 20
136641.3747891151
 30
0.0
  0
POINT
  5
197
330
190
100
AcDbEntity
  8
DEFPOINTS
 62
     0
100
AcDbPoint
 10
221699.1363616116
 20
135967.3747891151
 30
0.0
  0
POINT
  5
198
330
190
100
AcDbEntity
  8
DEFPOINTS
 62
     0
100
AcDbPoint
 10
221378.2454366352
 20
135967.3747891151
 30
0.0
  0
ENDBLK
  5
199
330
190
100
AcDbEntity
  8
0
100
AcDbBlockEnd
  0
BLOCK
  5
19C
330
19B
100
AcDbEntity
  8
0
100
AcDbBlockBegin
  2
*D15
 70
     1
 10
0.0
 20
0.0
 30
0.0
  3
*D15
  1

  0
LINE
  5
19D
330
19B
100
AcDbEntity
  8
0
 62
     1
370
    -2
100
AcDbLine
 10
221378.2454366352
 20
135997.3747891151
 30
0.0
 11
221378.2454366352
 21
136027.3747891151
 31
0.0
  0
LINE
  5
19E
330
19B
100
AcDbEntity
  8
0
 62
     1
370
    -2
100
AcDbLine
 10
221378.2454366352
 20
135885.3747891151
 30
0.0
 11
221378.2454366352
 21
135855.3747891152
 31
0.0
  0
LINE
  5
19F
330
19B
100
AcDbEntity
  8
0
 62
     1
370
    -2
100
AcDbLine
 10
221378.2454366352
 20
135967.3747891151
 30
0.0
 11
221378.2454366352
 21
135915.3747891151
 31
0.0
  0
INSERT
  5
1A0
330
19B
100
AcDbEntity
  8
0
 62
     1
370
    -2
100
AcDbBlockReference
  2
B-DIM
 10
221378.2454366352
 20
135967.3747891151
 30
0.0
 41
30.0
 42
30.0
 43
30.0
 50
270.0
  0
INSERT
  5
1A1
330
19B
100
AcDbEntity
  8
0
 62
     1
370
    -2
100
AcDbBlockReference
  2
B-DIM
 10
221378.2454366352
 20
135915.3747891151
 30
0.0
 41
30.0
 42
30.0
 43
30.0
 50
90.0
  0
MTEXT
  5
1A2
330
19B
100
AcDbEntity
  8
0
 62
    10
370
     5
100
AcDbMText
 10
221298.2454366351
 20
135941.3747891152
 30
0.0
 40
80.0
 41
0.0
 71
     5
 72
     1
  1
\A1;52
  7
ROMANS
 11
0.0000000000000001
 21
1.0
 31
0.0
 73
     1
 44
1.0
1001
ACAD
1000
MTEXTBEGIN
1070
    73
1070
     1
1070
    44
1040
1.0
1070
    74
1070
     0
1000
MTEXTEND
  0
POINT
  5
1A3
330
19B
100
AcDbEntity
  8
DEFPOINTS
 62
     0
100
AcDbPoint
 10
221699.1363616116
 20
135967.3747891151
 30
0.0
  0
POINT
  5
1A4
330
19B
100
AcDbEntity
  8
DEFPOINTS
 62
     0
100
AcDbPoint
 10
222259.1363616116
 20
135915.3747891151
 30
0.0
  0
POINT
  5
1A5
330
19B
100
AcDbEntity
  8
DEFPOINTS
 62
     0
100
AcDbPoint
 10
221378.2454366352
 20
135915.3747891151
 30
0.0
  0
ENDBLK
  5
1A6
330
19B
100
AcDbEntity
  8
0
100
AcDbBlockEnd
  0
BLOCK
  5
1A9
330
1A8
100
AcDbEntity
  8
0
100
AcDbBlockBegin
  2
*D16
 70
     1
 10
0.0
 20
0.0
 30
0.0
  3
*D16
  1

  0
LINE
  5
1AA
330
1A8
100
AcDbEntity
  8
0
 62
     1
370
    -2
100
AcDbLine
 10
221163.0753246533
 20
135945.3747891151
 30
0.0
 11
221163.0753246533
 21
136730.3747891151
 31
0.0
  0
INSERT
  5
1AB
330
1A8
100
AcDbEntity
  8
0
 62
     1
370
    -2
100
AcDbBlockReference
  2
B-DIM
 10
221163.0753246533
 20
135915.3747891151
 30
0.0
 41
30.0
 42
30.0
 43
30.0
 50
270.0
  0
INSERT
  5
1AC
330
1A8
100
AcDbEntity
  8
0
 62
     1
370
    -2
100
AcDbBlockReference
  2
B-DIM
 10
221163.0753246533
 20
136760.3747891151
 30
0.0
 41
30.0
 42
30.0
 43
30.0
 50
90.0
  0
MTEXT
  5
1AD
330
1A8
100
AcDbEntity
  8
0
 62
    10
370
     5
100
AcDbMText
 10
221083.0753246533
 20
136337.8747891152
 30
0.0
 40
80.0
 41
0.0
 71
     5
 72
     1
  1
\A1;845
  7
ROMANS
 11
0.0000000000000001
 21
1.0
 31
0.0
 73
     1
 44
1.0
1001
ACAD
1000
MTEXTBEGIN
1070
    73
1070
     1
1070
    44
1040
1.0
1070
    74
1070
     0
1000
MTEXTEND
  0
POINT
  5
1AE
330
1A8
100
AcDbEntity
  8
DEFPOINTS
 62
     0
100
AcDbPoint
 10
222259.1363616116
 20
135915.3747891151
 30
0.0
  0
POINT
  5
1AF
330
1A8
100
AcDbEntity
  8
DEFPOINTS
 62
     0
100
AcDbPoint
 10
222259.1363616116
 20
136760.3747891151
 30
0.0
  0
POINT
  5
1B0
330
1A8
100
AcDbEntity
  8
DEFPOINTS
 62
     0
100
AcDbPoint
 10
221163.0753246533
 20
136760.3747891151
 30
0.0
  0
ENDBLK
  5
1B1
330
1A8
100
AcDbEntity
  8
0
100
AcDbBlockEnd
  0
ENDSEC
  0
SECTION
  2
ENTITIES
  0
TEXT
  5
10
330
2
100
AcDbEntity
  8
NAPISY
370
     5
100
AcDbText
 10
216646.5520012698
 20
128323.0717886572
 30
0.0
 40
100.0
  1
   O B R Y S   B U D Y N K U           S K A L A   1 : 5 0 0 
  7
AVA
100
AcDbText
  0
LINE
  5
16
330
2
100
AcDbEntity
  8
NAPISY
  6
HIDDEN
 62
     1
 48
8.0
370
     5
100
AcDbLine
 10
220399.8892448725
 20
132297.6012553763
 30
0.0
 11
220399.8892448725
 21
138473.1198157809
 31
0.0
  0
TEXT
  5
18
330
2
100
AcDbEntity
  8
NAPISY
370
     5
100
AcDbText
 10
220340.3680678792
 20
132512.3704586351
 30
0.0
 40
100.0
  1
OŚ ODBICIA LUSTRZANEGO
 50
90.0
  7
AVA
100
AcDbText
  0
TEXT
  5
19
330
2
100
AcDbEntity
  8
NAPISY
370
     5
100
AcDbText
 10
216742.7650523877
 20
140786.437049539
 30
0.0
 40
150.0
  1
MOŻNA WKLEIĆ DO PROJEKTU ZAGOSPODAROWANIA TERENU
  7
AVA
100
AcDbText
  0
TEXT
  5
1A
330
2
100
AcDbEntity
  8
NAPISY
370
     5
100
AcDbText
 10
216666.4297817526
 20
141116.3055269018
 30
0.0
 40
150.0
  1
"DOM  NA WZGÓRZU 2 (G)"
  7
AVA
100
AcDbText
  0
LWPOLYLINE
  5
1B
330
2
100
AcDbEntity
  8
RAMKI-A4
370
     5
100
AcDbPolyline
 90
        4
 70
     1
 43
0.0
 10
215187.2000545948
 20
127657.5157057546
 10
215187.2000545948
 20
141677.5157057546
 10
225387.2000545948
 20
141677.5157057546
 10
225387.2000545948
 20
127657.5157057546
  0
LINE
  5
1F
330
2
100
AcDbEntity
  8
0
370
     5
100
AcDbLine
 10
218338.0563030704
 20
135767.3747891152
 30
0.0
 11
218028.0563030704
 21
135767.3747891152
 31
0.0
  0
LINE
  5
20
330
2
100
AcDbEntity
  8
0
370
     5
100
AcDbLine
 10
218308.0563030705
 20
135797.3747891151
 30
0.0
 11
218058.0563030704
 21
135797.3747891151
 31
0.0
1001
ACAD
1000
ASC_BOUNDS
1002
{
1070
    19
1002
}
  0
LINE
  5
21
330
2
100
AcDbEntity
  8
0
370
     5
100
AcDbLine
 10
218438.0563030704
 20
136998.3747891151
 30
0.0
 11
217738.0563030704
 21
136998.3747891151
 31
0.0
1001
ACAD
1000
ASC_BOUNDS
1002
{
1070
    19
1002
}
  0
LINE
  5
22
102
{ACAD_REACTORS
330
76
102
}
330
2
100
AcDbEntity
  8
0
  6
Continuous
 62
     7
370
     5
100
AcDbLine
 10
219042.0563030704
 20
136641.3747891151
 30
0.0
 11
219042.0563030704
 21
136484.3747891151
 31
0.0
  0
LINE
  5
23
330
2
100
AcDbEntity
  8
0
370
     5
100
AcDbLine
 10
218468.0563030704
 20
137028.3747891151
 30
0.0
 11
218468.0563030704
 21
136760.3747891151
 31
0.0
1001
ACAD
1000
ASC_BOUNDS
1002
{
1070
    19
1002
}
  0
LINE
  5
24
102
{ACAD_REACTORS
330
76
330
77
102
}
330
2
100
AcDbEntity
  8
0
  6
Continuous
 62
     7
370
     5
100
AcDbLine
 10
218422.0563030704
 20
136641.3747891151
 30
0.0
 11
219042.0563030704
 21
136641.3747891151
 31
0.0
  0
LINE
  5
25
102
{ACAD_REACTORS
330
76
330
77
102
}
330
2
100
AcDbEntity
  8
0
  6
Continuous
 62
     7
370
     5
100
AcDbLine
 10
218482.0563030704
 20
136760.3747891151
 30
0.0
 11
218482.0563030704
 21
136581.3747891152
 31
0.0
  0
LINE
  5
26
330
2
100
AcDbEntity
  8
0
  6
Continuous
 62
     7
370
     5
100
AcDbLine
 10
218233.0563030705
 20
135915.3747891151
 30
0.0
 11
218233.0563030705
 21
135975.3747891151
 31
0.0
  0
LINE
  5
27
330
2
100
AcDbEntity
  8
0
  6
Continuous
 62
     7
370
     5
100
AcDbLine
 10
218482.0563030704
 20
135967.3747891151
 30
0.0
 11
218482.0563030704
 21
135915.3747891151
 31
0.0
  0
LINE
  5
28
102
{ACAD_REACTORS
330
74
102
}
330
2
100
AcDbEntity
  8
0
  6
Continuous
 62
     7
370
     5
100
AcDbLine
 10
218595.0563030704
 20
135967.3747891151
 30
0.0
 11
218595.0563030704
 21
136027.3747891151
 31
0.0
  0
LINE
  5
29
330
2
100
AcDbEntity
  8
0
  6
Continuous
 62
     7
370
     5
100
AcDbLine
 10
218495.0563030704
 20
135967.3747891151
 30
0.0
 11
218482.0563030704
 21
135967.3747891151
 31
0.0
  0
LINE
  5
2A
330
2
100
AcDbEntity
  8
0
  6
Continuous
 62
     7
370
     5
100
AcDbLine
 10
218495.0563030704
 20
135967.3747891151
 30
0.0
 11
218495.0563030704
 21
136027.3747891151
 31
0.0
  0
LINE
  5
2B
330
2
100
AcDbEntity
  8
0
370
     5
100
AcDbLine
 10
218338.0563030704
 20
135915.3747891151
 30
0.0
 11
218338.0563030704
 21
135767.3747891152
 31
0.0
  0
LINE
  5
2C
330
2
100
AcDbEntity
  8
0
370
     5
100
AcDbLine
 10
218308.0563030705
 20
135915.3747891151
 30
0.0
 11
218308.0563030705
 21
135797.3747891151
 31
0.0
1001
ACAD
1000
ASC_BOUNDS
1002
{
1070
    19
1002
}
  0
LINE
  5
2D
330
2
100
AcDbEntity
  8
0
  6
Continuous
 62
     7
370
     5
100
AcDbLine
 10
218233.0563030705
 20
135915.3747891151
 30
0.0
 11
218482.0563030704
 21
135915.3747891151
 31
0.0
  0
LINE
  5
2E
330
2
100
AcDbEntity
  8
0
370
     5
100
AcDbLine
 10
218293.0563030704
 20
135915.3747891151
 30
0.0
 11
218383.0563030705
 21
135915.3747891151
 31
0.0
1001
ACAD
1000
ASC_BOUNDS
1002
{
1070
    19
1002
}
  0
LINE
  5
2F
330
2
100
AcDbEntity
  8
0
  6
Continuous
 62
     7
370
     5
100
AcDbLine
 10
217694.0563030704
 20
135915.3747891151
 30
0.0
 11
217694.0563030704
 21
135967.3747891151
 31
0.0
  0
LINE
  5
30
330
2
100
AcDbEntity
  8
0
370
     5
100
AcDbLine
 10
217708.0563030704
 20
137028.3747891152
 30
0.0
 11
217708.0563030704
 21
136760.3747891151
 31
0.0
1001
ACAD
1000
ASC_BOUNDS
1002
{
1070
    19
1002
}
  0
LINE
  5
31
330
2
100
AcDbEntity
  8
0
370
     5
100
AcDbLine
 10
218468.0563030704
 20
137028.3747891151
 30
0.0
 11
217708.0563030704
 21
137028.3747891152
 31
0.0
1001
ACAD
1000
ASC_BOUNDS
1002
{
1070
    19
1002
}
  0
LINE
  5
32
102
{ACAD_REACTORS
330
79
102
}
330
2
100
AcDbEntity
  8
0
  6
Continuous
 62
     7
370
     5
100
AcDbLine
 10
217694.0563030704
 20
136760.3747891151
 30
0.0
 11
217840.5563030704
 21
136760.3747891151
 31
0.0
1001
ACAD
1000
ASC_BOUNDS
1002
{
1070
    19
1002
}
  0
LINE
  5
33
330
2
100
AcDbEntity
  8
0
  6
Continuous
 62
     7
370
     5
100
AcDbLine
 10
218133.0563030704
 20
135915.3747891151
 30
0.0
 11
218133.0563030704
 21
135975.3747891151
 31
0.0
  0
LINE
  5
34
330
2
100
AcDbEntity
  8
0
  6
Continuous
 62
     7
370
     5
100
AcDbLine
 10
217694.0563030704
 20
135915.3747891151
 30
0.0
 11
218133.0563030704
 21
135915.3747891151
 31
0.0
  0
LINE
  5
35
330
2
100
AcDbEntity
  8
0
370
     5
100
AcDbLine
 10
218028.0563030704
 20
135915.3747891151
 30
0.0
 11
218028.0563030704
 21
135767.3747891152
 31
0.0
  0
LINE
  5
36
330
2
100
AcDbEntity
  8
0
370
     5
100
AcDbLine
 10
218058.0563030704
 20
135915.3747891151
 30
0.0
 11
218058.0563030704
 21
135797.3747891151
 31
0.0
1001
ACAD
1000
ASC_BOUNDS
1002
{
1070
    19
1002
}
  0
LINE
  5
37
330
2
100
AcDbEntity
  8
0
370
     5
100
AcDbLine
 10
218468.0563030704
 20
135915.3747891151
 30
0.0
 11
218468.0563030704
 21
135847.3747891151
 31
0.0
  0
LINE
  5
38
330
2
100
AcDbEntity
  8
0
370
     5
100
AcDbLine
 10
218468.0563030704
 20
135877.3747891152
 30
0.0
 11
218640.0563030705
 21
135877.3747891152
 31
0.0
  0
LINE
  5
39
330
2
100
AcDbEntity
  8
0
370
     5
100
AcDbLine
 10
218640.0563030705
 20
135877.3747891152
 30
0.0
 11
218640.0563030705
 21
135967.3747891151
 31
0.0
  0
LINE
  5
3A
330
2
100
AcDbEntity
  8
0
370
     5
100
AcDbLine
 10
218448.0563030704
 20
135847.3747891151
 30
0.0
 11
218670.0563030704
 21
135847.3747891151
 31
0.0
  0
LINE
  5
3B
330
2
100
AcDbEntity
  8
0
370
     5
100
AcDbLine
 10
218670.0563030704
 20
135847.3747891151
 30
0.0
 11
218670.0563030704
 21
135967.3747891151
 31
0.0
  0
LINE
  5
3C
330
2
100
AcDbEntity
  8
0
370
     5
100
AcDbLine
 10
218448.0563030704
 20
135915.3747891151
 30
0.0
 11
218448.0563030704
 21
135847.3747891151
 31
0.0
  0
LINE
  5
3D
102
{ACAD_REACTORS
330
74
330
75
102
}
330
2
100
AcDbEntity
  8
0
  6
Continuous
 62
     7
370
     5
100
AcDbLine
 10
219042.0563030704
 20
135967.3747891151
 30
0.0
 11
218595.0563030704
 21
135967.3747891151
 31
0.0
  0
LINE
  5
3E
102
{ACAD_REACTORS
330
79
102
}
330
2
100
AcDbEntity
  8
0
  6
Continuous
 62
     7
370
     5
100
AcDbLine
 10
217694.0563030704
 20
136641.3747891151
 30
0.0
 11
217694.0563030704
 21
136760.3747891151
 31
0.0
  0
LINE
  5
3F
330
2
100
AcDbEntity
  8
0
370
     5
100
AcDbLine
 10
218438.0563030704
 20
136998.3747891151
 30
0.0
 11
218438.0563030704
 21
136760.3747891151
 31
0.0
1001
ACAD
1000
ASC_BOUNDS
1002
{
1070
    19
1002
}
  0
LINE
  5
40
330
2
100
AcDbEntity
  8
0
370
     5
100
AcDbLine
 10
217738.0563030704
 20
136998.3747891151
 30
0.0
 11
217738.0563030704
 21
136760.3747891151
 31
0.0
1001
ACAD
1000
ASC_BOUNDS
1002
{
1070
    19
1002
}
  0
LINE
  5
41
330
2
100
AcDbEntity
  8
0
370
     5
100
AcDbLine
 10
219042.0563030704
 20
136575.3747891151
 30
0.0
 11
219178.0563030704
 21
136575.3747891151
 31
0.0
  0
LINE
  5
42
330
2
100
AcDbEntity
  8
0
370
     5
100
AcDbLine
 10
219178.0563030704
 20
136575.3747891151
 30
0.0
 11
219278.0563030704
 21
136475.3747891152
 31
0.0
  0
LINE
  5
43
102
{ACAD_REACTORS
330
75
102
}
330
2
100
AcDbEntity
  8
0
  6
Continuous
 62
     7
370
     5
100
AcDbLine
 10
219042.0563030705
 20
136334.3747891151
 30
0.0
 11
219042.0563030704
 21
135967.3747891151
 31
0.0
  0
LINE
  5
44
330
2
100
AcDbEntity
  8
0
370
     5
100
AcDbLine
 10
219248.0563030704
 20
136145.8011959863
 30
0.0
 11
219248.0563030704
 21
136462.4483822439
 31
0.0
  0
LINE
  5
45
330
2
100
AcDbEntity
  8
0
370
     5
100
AcDbLine
 10
219165.6298961992
 20
136545.3747891151
 30
0.0
 11
219248.0563030704
 21
136462.9483822439
 31
0.0
  0
LINE
  5
46
330
2
100
AcDbEntity
  8
0
370
     5
100
AcDbLine
 10
219042.0563030704
 20
136545.3747891151
 30
0.0
 11
219165.6298961992
 21
136545.3747891151
 31
0.0
  0
LINE
  5
47
330
2
100
AcDbEntity
  8
0
370
     5
100
AcDbLine
 10
219042.0563030704
 20
136484.3747891151
 30
0.0
 11
219042.0563030704
 21
136484.3747891151
 31
0.0
  0
LINE
  5
48
330
2
100
AcDbEntity
  8
0
370
     5
100
AcDbLine
 10
219042.0563030704
 20
136063.3747891151
 30
0.0
 11
219165.6298961992
 21
136063.3747891151
 31
0.0
  0
LINE
  5
49
330
2
100
AcDbEntity
  8
0
370
     5
100
AcDbLine
 10
219042.0563030704
 20
136033.3747891151
 30
0.0
 11
219178.0563030704
 21
136033.3747891151
 31
0.0
  0
LINE
  5
4A
330
2
100
AcDbEntity
  8
0
370
     5
100
AcDbLine
 10
219165.6298961992
 20
136063.3747891151
 30
0.0
 11
219248.0563030704
 21
136145.8011959863
 31
0.0
  0
LINE
  5
4B
330
2
100
AcDbEntity
  8
0
370
     5
100
AcDbLine
 10
219178.0563030704
 20
136033.3747891151
 30
0.0
 11
219278.0563030704
 21
136133.3747891152
 31
0.0
  0
LINE
  5
4C
330
2
100
AcDbEntity
  8
0
370
     5
100
AcDbLine
 10
219278.0563030704
 20
136133.3747891152
 30
0.0
 11
219278.0563030704
 21
136474.8747891151
 31
0.0
  0
LINE
  5
4D
102
{ACAD_REACTORS
330
7A
102
}
330
2
100
AcDbEntity
  8
0
  6
Continuous
 62
     7
370
     5
100
AcDbLine
 10
217344.0563030704
 20
135967.3747891151
 30
0.0
 11
217404.0563030704
 21
135967.3747891151
 31
0.0
  0
LINE
  5
4E
330
2
100
AcDbEntity
  8
0
  6
Continuous
 62
     7
370
     5
100
AcDbLine
 10
217639.0563030704
 20
135967.3747891151
 30
0.0
 11
217694.0563030704
 21
135967.3747891151
 31
0.0
  0
LINE
  5
4F
102
{ACAD_REACTORS
330
7A
102
}
330
2
100
AcDbEntity
  8
0
  6
Continuous
 62
     7
370
     5
100
AcDbLine
 10
217344.0563030704
 20
136641.3747891151
 30
0.0
 11
217474.0563030704
 21
136641.3747891151
 31
0.0
  0
LINE
  5
50
102
{ACAD_REACTORS
330
79
102
}
330
2
100
AcDbEntity
  8
0
  6
Continuous
 62
     7
370
     5
100
AcDbLine
 10
217564.0563030704
 20
136641.3747891151
 30
0.0
 11
217694.0563030704
 21
136641.3747891151
 31
0.0
  0
LINE
  5
51
330
2
100
AcDbEntity
  8
0
370
     5
100
AcDbLine
 10
217434.0563030705
 20
136751.3747891151
 30
0.0
 11
217604.0563030705
 21
136751.3747891151
 31
0.0
  0
LINE
  5
52
102
{ACAD_REACTORS
330
7A
330
1B6
102
}
330
2
100
AcDbEntity
  8
0
  6
Continuous
 62
     7
370
     5
100
AcDbLine
 10
217474.0563030704
 20
136581.3747891151
 30
0.0
 11
217474.0563030704
 21
136641.3747891151
 31
0.0
  0
LINE
  5
53
330
2
100
AcDbEntity
  8
0
370
     5
100
AcDbLine
 10
217434.0563030705
 20
136641.3747891151
 30
0.0
 11
217434.0563030705
 21
136751.3747891151
 31
0.0
  0
LINE
  5
54
102
{ACAD_REACTORS
330
79
330
1B6
102
}
330
2
100
AcDbEntity
  8
0
  6
Continuous
 62
     7
370
     5
100
AcDbLine
 10
217564.0563030704
 20
136581.3747891151
 30
0.0
 11
217564.0563030704
 21
136641.3747891151
 31
0.0
  0
LINE
  5
55
330
2
100
AcDbEntity
  8
0
370
     5
100
AcDbLine
 10
217604.0563030705
 20
136641.3747891151
 30
0.0
 11
217604.0563030705
 21
136751.3747891151
 31
0.0
  0
LINE
  5
56
330
2
100
AcDbEntity
  8
0
370
     5
100
AcDbLine
 10
217639.0563030704
 20
136027.3747891151
 30
0.0
 11
217639.0563030704
 21
135967.3747891151
 31
0.0
  0
LINE
  5
57
330
2
100
AcDbEntity
  8
0
370
     5
100
AcDbLine
 10
217694.0563030704
 20
135780.3747891151
 30
0.0
 11
217344.0563030704
 21
135780.3747891151
 31
0.0
  0
LINE
  5
58
330
2
100
AcDbEntity
  8
0
370
     5
100
AcDbLine
 10
217344.0563030704
 20
135780.3747891151
 30
0.0
 11
217344.0563030704
 21
135967.3747891151
 31
0.0
  0
LINE
  5
59
330
2
100
AcDbEntity
  8
0
370
     5
100
AcDbLine
 10
217694.0563030704
 20
135780.3747891151
 30
0.0
 11
217694.0563030704
 21
135915.3747891151
 31
0.0
  0
LINE
  5
5A
330
2
100
AcDbEntity
  8
0
370
     5
100
AcDbLine
 10
217694.0563030704
 20
135915.3747891151
 30
0.0
 11
217344.0563030704
 21
135915.3747891151
 31
0.0
  0
LINE
  5
5B
330
2
100
AcDbEntity
  8
0
370
     5
100
AcDbLine
 10
217519.0563030704
 20
135915.3747891151
 30
0.0
 11
217344.0563030704
 21
135780.3747891151
 31
0.0
  0
LINE
  5
5C
330
2
100
AcDbEntity
  8
0
370
     5
100
AcDbLine
 10
217519.0563030704
 20
135915.3747891151
 30
0.0
 11
217694.0563030704
 21
135780.3747891151
 31
0.0
  0
LINE
  5
5D
102
{ACAD_REACTORS
330
79
330
1B7
102
}
330
2
100
AcDbEntity
  8
0
  6
Continuous
 62
     7
370
     5
100
AcDbLine
 10
217840.5563030704
 20
136760.3747891151
 30
0.0
 11
217840.5563030704
 21
136700.3747891151
 31
0.0
  0
LINE
  5
5E
102
{ACAD_REACTORS
330
1B7
102
}
330
2
100
AcDbEntity
  8
0
  6
Continuous
 62
     7
370
     5
100
AcDbLine
 10
218050.5563030704
 20
136760.3747891151
 30
0.0
 11
218050.5563030704
 21
136700.3747891151
 31
0.0
  0
LINE
  5
5F
102
{ACAD_REACTORS
330
75
330
1B8
102
}
330
2
100
AcDbEntity
  8
0
370
     5
100
AcDbLine
 10
219042.0563030704
 20
136334.3747891151
 30
0.0
 11
218982.0563030705
 21
136334.3747891151
 31
0.0
  0
LINE
  5
60
102
{ACAD_REACTORS
330
76
330
1B8
102
}
330
2
100
AcDbEntity
  8
0
370
     5
100
AcDbLine
 10
219042.0563030704
 20
136484.3747891151
 30
0.0
 11
218982.0563030705
 21
136484.3747891151
 31
0.0
  0
LINE
  5
61
102
{ACAD_REACTORS
330
7A
102
}
330
2
100
AcDbEntity
  8
0
370
     5
100
AcDbLine
 10
217344.0563030704
 20
135967.3747891151
 30
0.0
 11
217344.0563030704
 21
136641.3747891151
 31
0.0
  0
LINE
  5
62
102
{ACAD_REACTORS
330
7A
102
}
330
2
100
AcDbEntity
  8
0
  6
Continuous
 62
     7
370
     5
100
AcDbLine
 10
217404.0563030704
 20
136581.3747891151
 30
0.0
 11
217474.0563030704
 21
136581.3747891151
 31
0.0
  0
LINE
  5
63
102
{ACAD_REACTORS
330
7A
102
}
330
2
100
AcDbEntity
  8
0
370
     5
100
AcDbLine
 10
217404.0563030704
 20
135967.3747891151
 30
0.0
 11
217404.0563030704
 21
136581.3747891151
 31
0.0
  0
LINE
  5
64
102
{ACAD_REACTORS
330
79
102
}
330
2
100
AcDbEntity
  8
0
  6
Continuous
 62
     7
370
     5
100
AcDbLine
 10
217564.0563030704
 20
136581.3747891151
 30
0.0
 11
217754.0563030705
 21
136581.3747891151
 31
0.0
  0
LINE
  5
65
102
{ACAD_REACTORS
330
79
102
}
330
2
100
AcDbEntity
  8
0
  6
Continuous
 62
     7
370
     5
100
AcDbLine
 10
217754.0563030705
 20
136581.3747891152
 30
0.0
 11
217754.0563030704
 21
136700.3747891151
 31
0.0
  0
LINE
  5
66
102
{ACAD_REACTORS
330
79
102
}
330
2
100
AcDbEntity
  8
0
  6
Continuous
 62
     7
370
     5
100
AcDbLine
 10
217754.0563030704
 20
136700.3747891151
 30
0.0
 11
217840.5563030704
 21
136700.3747891151
 31
0.0
1001
ACAD
1000
ASC_BOUNDS
1002
{
1070
    19
1002
}
  0
LINE
  5
67
102
{ACAD_REACTORS
330
77
102
}
330
2
100
AcDbEntity
  8
0
  6
Continuous
 62
     7
370
     5
100
AcDbLine
 10
218422.0563030704
 20
136700.3747891151
 30
0.0
 11
218422.0563030704
 21
136581.3747891152
 31
0.0
  0
LINE
  5
68
102
{ACAD_REACTORS
330
76
330
77
102
}
330
2
100
AcDbEntity
  8
0
  6
Continuous
 62
     7
370
     5
100
AcDbLine
 10
218422.0563030704
 20
136581.3747891152
 30
0.0
 11
218982.0563030704
 21
136581.3747891152
 31
0.0
  0
LINE
  5
69
102
{ACAD_REACTORS
330
76
102
}
330
2
100
AcDbEntity
  8
0
  6
Continuous
 62
     7
370
     5
100
AcDbLine
 10
218982.0563030704
 20
136581.3747891152
 30
0.0
 11
218982.0563030704
 21
136484.3747891151
 31
0.0
  0
LINE
  5
6A
102
{ACAD_REACTORS
330
74
330
75
102
}
330
2
100
AcDbEntity
  8
0
  6
Continuous
 62
     7
370
     5
100
AcDbLine
 10
218982.0563030705
 20
136334.3747891151
 30
0.0
 11
218982.0563030704
 21
135967.3747891151
 31
0.0
  0
LINE
  5
6B
102
{ACAD_REACTORS
330
74
102
}
330
2
100
AcDbEntity
  8
0
  6
Continuous
 62
     7
370
     5
100
AcDbLine
 10
218982.0563030705
 20
136027.3747891151
 30
0.0
 11
218595.0563030704
 21
136027.3747891151
 31
0.0
  0
LINE
  5
6C
330
2
100
AcDbEntity
  8
0
  6
Continuous
 62
     7
370
     5
100
AcDbLine
 10
218435.0563030704
 20
135975.3747891151
 30
0.0
 11
218233.0563030705
 21
135975.3747891151
 31
0.0
  0
LINE
  5
6D
330
2
100
AcDbEntity
  8
0
  6
Continuous
 62
     7
370
     5
100
AcDbLine
 10
218133.0563030704
 20
135975.3747891151
 30
0.0
 11
217754.0563030705
 21
135975.3747891151
 31
0.0
1001
ACAD
1000
ASC_BOUNDS
1002
{
1070
    19
1002
}
  0
LINE
  5
6E
330
2
100
AcDbEntity
  8
0
  6
Continuous
 62
     7
370
     5
100
AcDbLine
 10
217639.0563030704
 20
136027.3747891151
 30
0.0
 11
217754.0563030705
 21
136027.3747891151
 31
0.0
  0
LINE
  5
6F
330
2
100
AcDbEntity
  8
0
  6
Continuous
 62
     7
370
     5
100
AcDbLine
 10
217754.0563030705
 20
135975.3747891151
 30
0.0
 11
217754.0563030705
 21
136027.3747891151
 31
0.0
  0
LINE
  5
70
330
2
100
AcDbEntity
  8
0
  6
Continuous
 62
     7
370
     5
100
AcDbLine
 10
218495.0563030704
 20
136027.3747891151
 30
0.0
 11
218435.0563030704
 21
136027.3747891151
 31
0.0
  0
LINE
  5
71
330
2
100
AcDbEntity
  8
0
  6
Continuous
 62
     7
370
     5
100
AcDbLine
 10
218435.0563030704
 20
135975.3747891151
 30
0.0
 11
218435.0563030704
 21
136027.3747891151
 31
0.0
  0
HATCH
  5
72
330
2
100
AcDbEntity
  8
0
370
     5
100
AcDbHatch
 10
0.0
 20
0.0
 30
0.0
210
0.0
220
0.0
230
1.0
  2
SOLID
 70
     1
 71
     0
 91
        1
 92
        7
 72
     0
 73
     1
 93
        9
 10
217754.0563030705
 20
135975.3747891151
 10
217754.0563030705
 20
136027.3747891151
 10
217639.0563030704
 20
136027.3747891151
 10
217639.0563030705
 20
135967.3747891151
 10
217694.0563030704
 20
135967.3747891151
 10
217694.0563030704
 20
135915.3747891151
 10
217833.0563030705
 20
135915.3747891151
 10
218133.0563030704
 20
135915.3747891151
 10
218133.0563030704
 20
135975.3747891151
 97
        0
 75
     0
 76
     1
 47
1.930844595383226
 98
        1
 10
218008.7494266279
 20
135946.4441829461
1001
ACAD
1010
0.0
1020
0.0
1030
0.0
  0
HATCH
  5
73
330
2
100
AcDbEntity
  8
0
370
     5
100
AcDbHatch
 10
0.0
 20
0.0
 30
0.0
210
0.0
220
0.0
230
1.0
  2
SOLID
 70
     1
 71
     0
 91
        1
 92
        7
 72
     0
 73
     1
 93
       10
 10
218495.0563030704
 20
136027.3747891151
 10
218435.0563030704
 20
136027.3747891151
 10
218435.0563030704
 20
135975.3747891151
 10
218233.0563030705
 20
135975.3747891151
 10
218233.0563030705
 20
135915.3747891151
 10
218293.0563030704
 20
135915.3747891151
 10
218383.0563030705
 20
135915.3747891151
 10
218482.0563030704
 20
135915.3747891151
 10
218482.0563030704
 20
135967.3747891151
 10
218495.0563030704
 20
135967.3747891151
 97
        0
 75
     0
 76
     1
 47
1.930844595383226
 98
        1
 10
218368.1007747566
 20
135973.4760032265
1001
ACAD
1010
0.0
1020
0.0
1030
0.0
  0
HATCH
  5
74
330
2
100
AcDbEntity
  8
0
370
     5
100
AcDbHatch
 10
0.0
 20
0.0
 30
0.0
210
0.0
220
0.0
230
1.0
  2
SOLID
 70
     1
 71
     1
 91
        1
 92
        7
 72
     0
 73
     1
 93
        4
 10
218595.0563030704
 20
136027.3747891151
 10
218595.0563030704
 20
135967.3747891151
 10
218982.0563030705
 20
135967.3747891151
 10
218982.0563030705
 20
136027.3747891151
 97
        4
330
6B
330
28
330
3D
330
6A
 75
     0
 76
     1
 47
1.930844595383226
 98
        1
 10
218708.132201031
 20
136015.9546185962
1001
ACAD
1010
0.0
1020
0.0
1030
0.0
  0
HATCH
  5
75
330
2
100
AcDbEntity
  8
0
370
     5
100
AcDbHatch
 10
0.0
 20
0.0
 30
0.0
210
0.0
220
0.0
230
1.0
  2
SOLID
 70
     1
 71
     1
 91
        1
 92
        7
 72
     0
 73
     1
 93
        4
 10
219042.0563030705
 20
136334.3747891151
 10
218982.0563030705
 20
136334.3747891151
 10
218982.0563030705
 20
135967.3747891151
 10
219042.0563030704
 20
135967.3747891151
 97
        4
330
5F
330
6A
330
3D
330
43
 75
     0
 76
     1
 47
3.088284571744132
 98
        1
 10
219023.1380138986
 20
136109.0352128575
1001
ACAD
1010
0.0
1020
0.0
1030
0.0
  0
HATCH
  5
76
330
2
100
AcDbEntity
  8
0
370
     5
100
AcDbHatch
 10
0.0
 20
0.0
 30
0.0
210
0.0
220
0.0
230
1.0
  2
SOLID
 70
     1
 71
     1
 91
        1
 92
        7
 72
     0
 73
     1
 93
        6
 10
218982.0563030704
 20
136581.3747891151
 10
218982.0563030704
 20
136484.3747891151
 10
219042.0563030704
 20
136484.3747891152
 10
219042.0563030704
 20
136641.3747891151
 10
218482.0563030704
 20
136641.3747891151
 10
218482.0563030704
 20
136581.3747891151
 97
        6
330
24
330
25
330
68
330
69
330
60
330
22
 75
     0
 76
     1
 47
3.088284571744132
 98
        1
 10
218992.2366938937
 20
136603.1607201373
1001
ACAD
1010
0.0
1020
0.0
1030
0.0
  0
HATCH
  5
77
330
2
100
AcDbEntity
  8
0
370
     5
100
AcDbHatch
 10
0.0
 20
0.0
 30
0.0
210
0.0
220
0.0
230
1.0
  2
SOLID
 70
     1
 71
     1
 91
        1
 92
        7
 72
     0
 73
     1
 93
        4
 10
218482.0563030704
 20
136641.3747891151
 10
218422.0563030704
 20
136641.3747891151
 10
218422.0563030704
 20
136581.3747891151
 10
218482.0563030704
 20
136581.3747891151
 97
        4
330
24
330
67
330
68
330
25
 75
     0
 76
     1
 47
3.088284571744132
 98
        1
 10
218473.0954196577
 20
136606.2490170048
1001
ACAD
1010
0.0
1020
0.0
1030
0.0
  0
HATCH
  5
78
330
2
100
AcDbEntity
  8
0
370
     5
100
AcDbHatch
 10
0.0
 20
0.0
 30
0.0
210
0.0
220
0.0
230
1.0
  2
SOLID
 70
     1
 71
     0
 91
        1
 92
        7
 72
     0
 73
     1
 93
        6
 10
218422.0563030704
 20
136641.3747891151
 10
218482.0563030704
 20
136641.3747891151
 10
218482.0563030704
 20
136760.3747891151
 10
218050.5563030704
 20
136760.3747891151
 10
218050.5563030704
 20
136700.3747891151
 10
218422.0563030704
 20
136700.3747891151
 97
        0
 75
     0
 76
     1
 47
3.088284571744132
 98
        1
 10
218448.3744304573
 20
136686.5444510572
1001
ACAD
1010
0.0
1020
0.0
1030
0.0
  0
HATCH
  5
79
330
2
100
AcDbEntity
  8
0
370
     5
100
AcDbHatch
 10
0.0
 20
0.0
 30
0.0
210
0.0
220
0.0
230
1.0
  2
SOLID
 70
     1
 71
     1
 91
        1
 92
        7
 72
     0
 73
     1
 93
        8
 10
217754.0563030704
 20
136700.3747891151
 10
217840.5563030705
 20
136700.3747891151
 10
217840.5563030704
 20
136760.3747891151
 10
217694.0563030704
 20
136760.3747891151
 10
217694.0563030704
 20
136641.3747891151
 10
217564.0563030704
 20
136641.3747891151
 10
217564.0563030704
 20
136581.3747891151
 10
217754.0563030705
 20
136581.3747891152
 97
        8
330
66
330
5D
330
32
330
3E
330
50
330
54
330
64
330
65
 75
     0
 76
     1
 47
3.088284571744132
 98
        1
 10
217737.6452394046
 20
136661.8381709514
1001
ACAD
1010
0.0
1020
0.0
1030
0.0
  0
HATCH
  5
7A
330
2
100
AcDbEntity
  8
0
370
     5
100
AcDbHatch
 10
0.0
 20
0.0
 30
0.0
210
0.0
220
0.0
230
1.0
  2
SOLID
 70
     1
 71
     1
 91
        1
 92
        7
 72
     0
 73
     1
 93
        6
 10
217404.0563030705
 20
136581.3747891151
 10
217474.0563030704
 20
136581.3747891152
 10
217474.0563030704
 20
136641.3747891151
 10
217344.0563030704
 20
136641.3747891151
 10
217344.0563030704
 20
135967.3747891151
 10
217404.0563030704
 20
135967.3747891151
 97
        6
330
4F
330
61
330
4D
330
63
330
62
330
52
 75
     0
 76
     1
 47
3.088284571744132
 98
        1
 10
217388.4610581873
 20
136600.0725181045
1001
ACAD
1010
0.0
1020
0.0
1030
0.0
  0
LINE
  5
7B
330
2
100
AcDbEntity
  8
0
370
     5
100
AcDbLine
 10
217639.0563030704
 20
135967.3747891151
 30
0.0
 11
217374.0563030705
 21
135967.3747891151
 31
0.0
  0
LINE
  5
7C
330
2
100
AcDbEntity
  8
0
370
     5
100
AcDbLine
 10
217639.0563030704
 20
136027.3747891151
 30
0.0
 11
217404.0563030704
 21
136027.3747891151
 31
0.0
  0
LINE
  5
7D
330
2
100
AcDbEntity
  8
0
370
     5
100
AcDbLine
 10
218233.0563030705
 20
135975.3747891151
 30
0.0
 11
218133.0563030704
 21
135975.3747891151
 31
0.0
  0
LINE
  5
7E
330
2
100
AcDbEntity
  8
0
370
     5
100
AcDbLine
 10
218233.0563030705
 20
135915.3747891151
 30
0.0
 11
218133.0563030704
 21
135915.3747891151
 31
0.0
  0
LINE
  5
7F
330
2
100
AcDbEntity
  8
0
370
     5
100
AcDbLine
 10
218495.0563030704
 20
135967.3747891151
 30
0.0
 11
218595.0563030704
 21
135967.3747891152
 31
0.0
  0
LINE
  5
80
330
2
100
AcDbEntity
  8
0
370
     5
100
AcDbLine
 10
218595.0563030704
 20
136027.3747891151
 30
0.0
 11
218465.0563030704
 21
136027.3747891151
 31
0.0
  0
LINE
  5
81
102
{ACAD_REACTORS
330
1B8
102
}
330
2
100
AcDbEntity
  8
0
370
     5
100
AcDbLine
 10
218982.0563030705
 20
136334.3747891151
 30
0.0
 11
218982.0563030705
 21
136484.3747891151
 31
0.0
  0
LINE
  5
82
102
{ACAD_REACTORS
330
1B8
102
}
330
2
100
AcDbEntity
  8
0
370
     5
100
AcDbLine
 10
219042.0563030704
 20
136484.3747891151
 30
0.0
 11
219042.0563030705
 21
136334.3747891151
 31
0.0
  0
LINE
  5
83
102
{ACAD_REACTORS
330
1B7
102
}
330
2
100
AcDbEntity
  8
0
370
     5
100
AcDbLine
 10
218050.5563030704
 20
136700.3747891151
 30
0.0
 11
217840.5563030704
 21
136700.3747891151
 31
0.0
  0
LINE
  5
84
102
{ACAD_REACTORS
330
1B7
102
}
330
2
100
AcDbEntity
  8
0
370
     5
100
AcDbLine
 10
218050.5563030704
 20
136760.3747891151
 30
0.0
 11
217840.5563030704
 21
136760.3747891151
 31
0.0
  0
LINE
  5
85
102
{ACAD_REACTORS
330
1B6
102
}
330
2
100
AcDbEntity
  8
0
370
     5
100
AcDbLine
 10
217564.0563030704
 20
136581.3747891151
 30
0.0
 11
217474.0563030704
 21
136581.3747891151
 31
0.0
  0
LINE
  5
86
102
{ACAD_REACTORS
330
1B6
102
}
330
2
100
AcDbEntity
  8
0
370
     5
100
AcDbLine
 10
217564.0563030704
 20
136641.3747891151
 30
0.0
 11
217474.0563030704
 21
136641.3747891151
 31
0.0
  0
DIMENSION
  5
87
330
2
100
AcDbEntity
  8
0
370
     5
100
AcDbDimension
  2
*D1
 10
217694.0563030704
 20
137134.3792665298
 30
0.0
 11
217519.0563030704
 21
137214.3792665298
 31
0.0
 71
     5
 42
350.0
  3
500
100
AcDbAlignedDimension
 13
217344.0563030704
 23
136641.3747891151
 33
0.0
 14
217694.0563030704
 24
136641.3747891151
 34
0.0
100
AcDbRotatedDimension
  0
DIMENSION
  5
9D
330
2
100
AcDbEntity
  8
0
370
     5
100
AcDbDimension
  2
*D2
 10
218482.0563030704
 20
137134.3792665298
 30
0.0
 11
218088.0563030704
 21
137214.3792665298
 31
0.0
 71
     5
 42
788.0
  3
500
100
AcDbAlignedDimension
 13
217694.0563030704
 23
136641.3747891151
 33
0.0
 14
218482.0563030704
 24
136760.3747891151
 34
0.0
100
AcDbRotatedDimension
  0
DIMENSION
  5
A8
330
2
100
AcDbEntity
  8
0
370
     5
100
AcDbDimension
  2
*D3
 10
219042.0563030704
 20
137134.3792665298
 30
0.0
 11
218762.0563030705
 21
137214.3792665298
 31
0.0
 71
     5
 42
560.0
  3
500
100
AcDbAlignedDimension
 13
218482.0563030704
 23
136760.3747891151
 33
0.0
 14
219042.0563030704
 24
136641.3747891151
 34
0.0
100
AcDbRotatedDimension
  0
DIMENSION
  5
B3
330
2
100
AcDbEntity
  8
0
370
     5
100
AcDbDimension
  2
*D4
 10
217344.0563030704
 20
137349.0484745968
 30
0.0
 11
218193.0563030704
 21
137429.0484745968
 31
0.0
 71
     5
 42
1698.0
  3
500
100
AcDbAlignedDimension
 13
219042.0563030704
 23
136641.3747891151
 33
0.0
 14
217344.0563030704
 24
136641.3747891151
 34
0.0
100
AcDbRotatedDimension
  0
LINE
  5
BE
330
2
100
AcDbEntity
  8
0
370
     5
100
AcDbLine
 10
222461.7221866747
 20
135767.3747891152
 30
0.0
 11
222771.7221866746
 21
135767.3747891152
 31
0.0
  0
LINE
  5
BF
330
2
100
AcDbEntity
  8
0
370
     5
100
AcDbLine
 10
222491.7221866746
 20
135797.3747891151
 30
0.0
 11
222741.7221866746
 21
135797.3747891151
 31
0.0
1001
ACAD
1000
ASC_BOUNDS
1002
{
1070
    19
1002
}
  0
LINE
  5
C0
330
2
100
AcDbEntity
  8
0
370
     5
100
AcDbLine
 10
222361.7221866746
 20
136998.3747891151
 30
0.0
 11
223061.7221866746
 21
136998.3747891151
 31
0.0
1001
ACAD
1000
ASC_BOUNDS
1002
{
1070
    19
1002
}
  0
HATCH
  5
C1
330
2
100
AcDbEntity
  8
0
370
     5
100
AcDbHatch
 10
0.0
 20
0.0
 30
0.0
210
0.0
220
0.0
230
1.0
  2
SOLID
 70
     1
 71
     1
 91
        1
 92
        7
 72
     0
 73
     1
 93
        6
 10
221817.7221866746
 20
136581.3747891151
 10
222317.7221866746
 20
136581.3747891152
 10
222317.7221866746
 20
136641.3747891151
 10
221757.7221866747
 20
136641.3747891151
 10
221757.7221866747
 20
136484.3747891151
 10
221817.7221866747
 20
136484.3747891151
 97
        6
330
C7
330
C9
330
C8
330
C3
330
117
330
C2
 75
     0
 76
     1
 47
3.088284571744132
 98
        1
 10
221807.5417958514
 20
136603.1607201373
1001
ACAD
1010
0.0
1020
0.0
1030
0.0
  0
LINE
  5
C2
102
{ACAD_REACTORS
330
C1
102
}
330
2
100
AcDbEntity
  8
0
  6
Continuous
 62
     7
370
     5
100
AcDbLine
 10
221757.7221866747
 20
136641.3747891151
 30
0.0
 11
221757.7221866747
 21
136484.3747891151
 31
0.0
  0
LINE
  5
C3
102
{ACAD_REACTORS
330
C1
102
}
330
2
100
AcDbEntity
  8
0
  6
Continuous
 62
     7
370
     5
100
AcDbLine
 10
221817.7221866747
 20
136581.3747891152
 30
0.0
 11
221817.7221866747
 21
136484.3747891151
 31
0.0
  0
LINE
  5
C4
330
2
100
AcDbEntity
  8
0
370
     5
100
AcDbLine
 10
222331.7221866746
 20
137028.3747891151
 30
0.0
 11
222331.7221866746
 21
136760.3747891151
 31
0.0
1001
ACAD
1000
ASC_BOUNDS
1002
{
1070
    19
1002
}
  0
HATCH
  5
C5
330
2
100
AcDbEntity
  8
0
370
     5
100
AcDbHatch
 10
0.0
 20
0.0
 30
0.0
210
0.0
220
0.0
230
1.0
  2
SOLID
 70
     1
 71
     0
 91
        1
 92
        7
 72
     0
 73
     1
 93
        4
 10
222317.7221866746
 20
136641.3747891151
 10
222377.7221866747
 20
136641.3747891151
 10
222377.7221866746
 20
136581.3747891151
 10
222317.7221866746
 20
136581.3747891151
 97
        0
 75
     0
 76
     1
 47
3.088284571744132
 98
        1
 10
222326.6830700874
 20
136606.2490170048
1001
ACAD
1010
0.0
1020
0.0
1030
0.0
  0
HATCH
  5
C6
330
2
100
AcDbEntity
  8
0
370
     5
100
AcDbHatch
 10
0.0
 20
0.0
 30
0.0
210
0.0
220
0.0
230
1.0
  2
SOLID
 70
     1
 71
     0
 91
        1
 92
        7
 72
     0
 73
     1
 93
        6
 10
222377.7221866746
 20
136700.3747891152
 10
222749.2221866746
 20
136700.3747891151
 10
222749.2221866747
 20
136760.3747891151
 10
222317.7221866746
 20
136760.3747891151
 10
222317.7221866746
 20
136641.3747891151
 10
222377.7221866746
 20
136641.3747891151
 97
        0
 75
     0
 76
     1
 47
3.088284571744132
 98
        1
 10
222351.4040592878
 20
136686.5444510572
1001
ACAD
1010
0.0
1020
0.0
1030
0.0
  0
LINE
  5
C7
102
{ACAD_REACTORS
330
C1
102
}
330
2
100
AcDbEntity
  8
0
  6
Continuous
 62
     7
370
     5
100
AcDbLine
 10
222377.7221866747
 20
136641.3747891151
 30
0.0
 11
221757.7221866747
 21
136641.3747891151
 31
0.0
  0
LINE
  5
C8
102
{ACAD_REACTORS
330
C1
102
}
330
2
100
AcDbEntity
  8
0
  6
Continuous
 62
     7
370
     5
100
AcDbLine
 10
222377.7221866746
 20
136581.3747891152
 30
0.0
 11
221817.7221866747
 21
136581.3747891152
 31
0.0
  0
LINE
  5
C9
102
{ACAD_REACTORS
330
C1
102
}
330
2
100
AcDbEntity
  8
0
  6
Continuous
 62
     7
370
     5
100
AcDbLine
 10
222317.7221866746
 20
136760.3747891151
 30
0.0
 11
222317.7221866746
 21
136581.3747891152
 31
0.0
  0
LINE
  5
CA
330
2
100
AcDbEntity
  8
0
  6
Continuous
 62
     7
370
     5
100
AcDbLine
 10
222377.7221866746
 20
136700.3747891151
 30
0.0
 11
222377.7221866746
 21
136581.3747891152
 31
0.0
  0
HATCH
  5
CB
330
2
100
AcDbEntity
  8
0
370
     5
100
AcDbHatch
 10
0.0
 20
0.0
 30
0.0
210
0.0
220
0.0
230
1.0
  2
SOLID
 70
     1
 71
     0
 91
        1
 92
        7
 72
     0
 73
     1
 93
       10
 10
222304.7221866746
 20
136027.3747891151
 10
222364.7221866746
 20
136027.3747891151
 10
222364.7221866746
 20
135975.3747891151
 10
222566.7221866746
 20
135975.3747891151
 10
222566.7221866746
 20
135915.3747891151
 10
222506.7221866746
 20
135915.3747891151
 10
222416.7221866746
 20
135915.3747891151
 10
222317.7221866746
 20
135915.3747891151
 10
222317.7221866746
 20
135967.3747891151
 10
222304.7221866746
 20
135967.3747891151
 97
        0
 75
     0
 76
     1
 47
1.930844595383226
 98
        1
 10
222431.6777149885
 20
135973.4760032265
1001
ACAD
1010
0.0
1020
0.0
1030
0.0
  0
LINE
  5
CC
330
2
100
AcDbEntity
  8
0
  6
Continuous
 62
     7
370
     5
100
AcDbLine
 10
222566.7221866746
 20
135915.3747891151
 30
0.0
 11
222566.7221866746
 21
135975.3747891151
 31
0.0
  0
LINE
  5
CD
330
2
100
AcDbEntity
  8
0
  6
Continuous
 62
     7
370
     5
100
AcDbLine
 10
222317.7221866746
 20
135967.3747891151
 30
0.0
 11
222317.7221866746
 21
135915.3747891151
 31
0.0
  0
HATCH
  5
CE
330
2
100
AcDbEntity
  8
0
370
     5
100
AcDbHatch
 10
0.0
 20
0.0
 30
0.0
210
0.0
220
0.0
230
1.0
  2
SOLID
 70
     1
 71
     0
 91
        1
 92
        7
 72
     0
 73
     1
 93
        4
 10
222204.7221866747
 20
136027.3747891151
 10
222204.7221866747
 20
135967.3747891151
 10
221817.7221866746
 20
135967.3747891151
 10
221817.7221866746
 20
136027.3747891151
 97
        0
 75
     0
 76
     1
 47
1.930844595383226
 98
        1
 10
222091.646288714
 20
136015.9546185962
1001
ACAD
1010
0.0
1020
0.0
1030
0.0
  0
LINE
  5
CF
330
2
100
AcDbEntity
  8
0
  6
Continuous
 62
     7
370
     5
100
AcDbLine
 10
222204.7221866747
 20
135967.3747891151
 30
0.0
 11
222204.7221866747
 21
136027.3747891151
 31
0.0
  0
LINE
  5
D0
330
2
100
AcDbEntity
  8
0
  6
Continuous
 62
     7
370
     5
100
AcDbLine
 10
222304.7221866746
 20
135967.3747891151
 30
0.0
 11
222317.7221866746
 21
135967.3747891151
 31
0.0
  0
LINE
  5
D1
330
2
100
AcDbEntity
  8
0
  6
Continuous
 62
     7
370
     5
100
AcDbLine
 10
222304.7221866746
 20
136027.3747891151
 30
0.0
 11
222364.7221866746
 21
136027.3747891151
 31
0.0
  0
LINE
  5
D2
330
2
100
AcDbEntity
  8
0
  6
Continuous
 62
     7
370
     5
100
AcDbLine
 10
222304.7221866746
 20
135967.3747891151
 30
0.0
 11
222304.7221866746
 21
136027.3747891151
 31
0.0
  0
LINE
  5
D3
330
2
100
AcDbEntity
  8
0
  6
Continuous
 62
     7
370
     5
100
AcDbLine
 10
222364.7221866746
 20
135975.3747891151
 30
0.0
 11
222364.7221866746
 21
136027.3747891151
 31
0.0
  0
LINE
  5
D4
330
2
100
AcDbEntity
  8
0
370
     5
100
AcDbLine
 10
222461.7221866747
 20
135915.3747891151
 30
0.0
 11
222461.7221866747
 21
135767.3747891152
 31
0.0
  0
LINE
  5
D5
330
2
100
AcDbEntity
  8
0
  6
Continuous
 62
     7
370
     5
100
AcDbLine
 10
222317.7221866746
 20
135915.3747891151
 30
0.0
 11
222566.7221866746
 21
135915.3747891151
 31
0.0
  0
LINE
  5
D6
330
2
100
AcDbEntity
  8
0
  6
Continuous
 62
     7
370
     5
100
AcDbLine
 10
222364.7221866746
 20
135975.3747891151
 30
0.0
 11
222566.7221866746
 21
135975.3747891151
 31
0.0
  0
LINE
  5
D7
330
2
100
AcDbEntity
  8
0
370
     5
100
AcDbLine
 10
222491.7221866746
 20
135915.3747891151
 30
0.0
 11
222491.7221866746
 21
135797.3747891151
 31
0.0
1001
ACAD
1000
ASC_BOUNDS
1002
{
1070
    19
1002
}
  0
LINE
  5
D8
330
2
100
AcDbEntity
  8
0
370
     5
100
AcDbLine
 10
222506.7221866746
 20
135915.3747891151
 30
0.0
 11
222416.7221866746
 21
135915.3747891151
 31
0.0
1001
ACAD
1000
ASC_BOUNDS
1002
{
1070
    19
1002
}
  0
HATCH
  5
D9
330
2
100
AcDbEntity
  8
0
370
     5
100
AcDbHatch
 10
0.0
 20
0.0
 30
0.0
210
0.0
220
0.0
230
1.0
  2
SOLID
 70
     1
 71
     0
 91
        1
 92
        7
 72
     0
 73
     1
 93
        9
 10
222666.7221866746
 20
135975.3747891151
 10
222666.7221866747
 20
135915.3747891151
 10
222966.7221866746
 20
135915.3747891151
 10
223105.7221866747
 20
135915.3747891151
 10
223105.7221866746
 20
135967.3747891151
 10
223160.7221866747
 20
135967.3747891151
 10
223160.7221866747
 20
136027.3747891151
 10
223045.7221866746
 20
136027.3747891151
 10
223045.7221866746
 20
135975.3747891151
 97
        0
 75
     0
 76
     1
 47
1.930844595383226
 98
        1
 10
222791.0290631172
 20
135946.4441829461
1001
ACAD
1010
0.0
1020
0.0
1030
0.0
  0
LINE
  5
DA
330
2
100
AcDbEntity
  8
0
  6
Continuous
 62
     7
370
     5
100
AcDbLine
 10
223105.7221866747
 20
135915.3747891151
 30
0.0
 11
223105.7221866747
 21
135967.3747891151
 31
0.0
  0
LINE
  5
DB
330
2
100
AcDbEntity
  8
0
  6
Continuous
 62
     7
370
     5
100
AcDbLine
 10
223045.7221866746
 20
135975.3747891151
 30
0.0
 11
223045.7221866746
 21
136027.3747891151
 31
0.0
  0
LINE
  5
DC
330
2
100
AcDbEntity
  8
0
370
     5
100
AcDbLine
 10
223091.7221866747
 20
137028.3747891152
 30
0.0
 11
223091.7221866747
 21
136760.3747891151
 31
0.0
1001
ACAD
1000
ASC_BOUNDS
1002
{
1070
    19
1002
}
  0
LINE
  5
DD
330
2
100
AcDbEntity
  8
0
370
     5
100
AcDbLine
 10
222331.7221866746
 20
137028.3747891151
 30
0.0
 11
223091.7221866747
 21
137028.3747891152
 31
0.0
1001
ACAD
1000
ASC_BOUNDS
1002
{
1070
    19
1002
}
  0
HATCH
  5
DE
330
2
100
AcDbEntity
  8
0
370
     5
100
AcDbHatch
 10
0.0
 20
0.0
 30
0.0
210
0.0
220
0.0
230
1.0
  2
SOLID
 70
     1
 71
     1
 91
        1
 92
        7
 72
     0
 73
     1
 93
        8
 10
223045.7221866746
 20
136581.3747891151
 10
223235.7221866747
 20
136581.3747891151
 10
223235.7221866747
 20
136641.3747891151
 10
223105.7221866747
 20
136641.3747891151
 10
223105.7221866747
 20
136760.3747891151
 10
222959.2221866746
 20
136760.3747891151
 10
222959.2221866747
 20
136700.3747891151
 10
223045.7221866746
 20
136700.3747891151
 97
        8
330
E0
330
114
330
DF
330
EF
330
106
330
10B
330
107
330
F0
 75
     0
 76
     1
 47
3.088284571744132
 98
        1
 10
223062.1332503404
 20
136661.8381709514
1001
ACAD
1010
0.0
1020
0.0
1030
0.0
  0
LINE
  5
DF
102
{ACAD_REACTORS
330
DE
102
}
330
2
100
AcDbEntity
  8
0
  6
Continuous
 62
     7
370
     5
100
AcDbLine
 10
223105.7221866747
 20
136760.3747891151
 30
0.0
 11
222959.2221866746
 21
136760.3747891151
 31
0.0
1001
ACAD
1000
ASC_BOUNDS
1002
{
1070
    19
1002
}
  0
LINE
  5
E0
102
{ACAD_REACTORS
330
DE
102
}
330
2
100
AcDbEntity
  8
0
  6
Continuous
 62
     7
370
     5
100
AcDbLine
 10
223045.7221866747
 20
136700.3747891151
 30
0.0
 11
222959.2221866746
 21
136700.3747891151
 31
0.0
1001
ACAD
1000
ASC_BOUNDS
1002
{
1070
    19
1002
}
  0
LINE
  5
E1
330
2
100
AcDbEntity
  8
0
  6
Continuous
 62
     7
370
     5
100
AcDbLine
 10
222666.7221866746
 20
135915.3747891151
 30
0.0
 11
222666.7221866746
 21
135975.3747891151
 31
0.0
  0
LINE
  5
E2
330
2
100
AcDbEntity
  8
0
370
     5
100
AcDbLine
 10
222771.7221866746
 20
135915.3747891151
 30
0.0
 11
222771.7221866746
 21
135767.3747891152
 31
0.0
  0
LINE
  5
E3
330
2
100
AcDbEntity
  8
0
370
     5
100
AcDbLine
 10
222741.7221866746
 20
135915.3747891151
 30
0.0
 11
222741.7221866746
 21
135797.3747891151
 31
0.0
1001
ACAD
1000
ASC_BOUNDS
1002
{
1070
    19
1002
}
  0
LINE
  5
E4
330
2
100
AcDbEntity
  8
0
  6
Continuous
 62
     7
370
     5
100
AcDbLine
 10
222666.7221866746
 20
135915.3747891151
 30
0.0
 11
223105.7221866747
 21
135915.3747891151
 31
0.0
1001
ACAD
1000
ASC_BOUNDS
1002
{
1070
    19
1002
}
  0
LINE
  5
E5
330
2
100
AcDbEntity
  8
0
  6
Continuous
 62
     7
370
     5
100
AcDbLine
 10
222666.7221866746
 20
135975.3747891151
 30
0.0
 11
223045.7221866746
 21
135975.3747891151
 31
0.0
1001
ACAD
1000
ASC_BOUNDS
1002
{
1070
    19
1002
}
  0
LINE
  5
E6
330
2
100
AcDbEntity
  8
0
370
     5
100
AcDbLine
 10
222331.7221866746
 20
135915.3747891151
 30
0.0
 11
222331.7221866746
 21
135847.3747891151
 31
0.0
  0
LINE
  5
E7
330
2
100
AcDbEntity
  8
0
370
     5
100
AcDbLine
 10
222331.7221866746
 20
135877.3747891152
 30
0.0
 11
222159.7221866746
 21
135877.3747891152
 31
0.0
  0
LINE
  5
E8
330
2
100
AcDbEntity
  8
0
370
     5
100
AcDbLine
 10
222159.7221866746
 20
135877.3747891152
 30
0.0
 11
222159.7221866746
 21
135967.3747891151
 31
0.0
  0
LINE
  5
E9
330
2
100
AcDbEntity
  8
0
370
     5
100
AcDbLine
 10
222351.7221866746
 20
135847.3747891151
 30
0.0
 11
222129.7221866747
 21
135847.3747891151
 31
0.0
  0
LINE
  5
EA
330
2
100
AcDbEntity
  8
0
370
     5
100
AcDbLine
 10
222129.7221866747
 20
135847.3747891151
 30
0.0
 11
222129.7221866747
 21
135967.3747891151
 31
0.0
  0
LINE
  5
EB
330
2
100
AcDbEntity
  8
0
370
     5
100
AcDbLine
 10
222351.7221866746
 20
135915.3747891151
 30
0.0
 11
222351.7221866746
 21
135847.3747891151
 31
0.0
  0
HATCH
  5
EC
330
2
100
AcDbEntity
  8
0
370
     5
100
AcDbHatch
 10
0.0
 20
0.0
 30
0.0
210
0.0
220
0.0
230
1.0
  2
SOLID
 70
     1
 71
     1
 91
        1
 92
        7
 72
     0
 73
     1
 93
        4
 10
221757.7221866747
 20
135967.3747891151
 10
221817.7221866746
 20
135967.3747891151
 10
221817.7221866746
 20
136334.3747891151
 10
221757.7221866746
 20
136334.3747891151
 97
        4
330
116
330
F6
330
ED
330
F5
 75
     0
 76
     1
 47
3.088284571744132
 98
        1
 10
221776.6404758465
 20
136109.0352128575
1001
ACAD
1010
0.0
1020
0.0
1030
0.0
  0
LINE
  5
ED
102
{ACAD_REACTORS
330
EC
102
}
330
2
100
AcDbEntity
  8
0
  6
Continuous
 62
     7
370
     5
100
AcDbLine
 10
221757.7221866747
 20
135967.3747891151
 30
0.0
 11
222204.7221866747
 21
135967.3747891151
 31
0.0
  0
LINE
  5
EE
330
2
100
AcDbEntity
  8
0
  6
Continuous
 62
     7
370
     5
100
AcDbLine
 10
221817.7221866746
 20
136027.3747891151
 30
0.0
 11
222204.7221866747
 21
136027.3747891151
 31
0.0
  0
LINE
  5
EF
102
{ACAD_REACTORS
330
DE
102
}
330
2
100
AcDbEntity
  8
0
  6
Continuous
 62
     7
370
     5
100
AcDbLine
 10
223105.7221866747
 20
136641.3747891151
 30
0.0
 11
223105.7221866747
 21
136760.3747891151
 31
0.0
  0
LINE
  5
F0
102
{ACAD_REACTORS
330
DE
102
}
330
2
100
AcDbEntity
  8
0
  6
Continuous
 62
     7
370
     5
100
AcDbLine
 10
223045.7221866746
 20
136581.3747891152
 30
0.0
 11
223045.7221866747
 21
136700.3747891151
 31
0.0
  0
LINE
  5
F1
330
2
100
AcDbEntity
  8
0
370
     5
100
AcDbLine
 10
222361.7221866746
 20
136998.3747891151
 30
0.0
 11
222361.7221866746
 21
136760.3747891151
 31
0.0
1001
ACAD
1000
ASC_BOUNDS
1002
{
1070
    19
1002
}
  0
LINE
  5
F2
330
2
100
AcDbEntity
  8
0
370
     5
100
AcDbLine
 10
223061.7221866746
 20
136998.3747891151
 30
0.0
 11
223061.7221866746
 21
136760.3747891151
 31
0.0
1001
ACAD
1000
ASC_BOUNDS
1002
{
1070
    19
1002
}
  0
LINE
  5
F3
330
2
100
AcDbEntity
  8
0
370
     5
100
AcDbLine
 10
221757.7221866747
 20
136575.3747891151
 30
0.0
 11
221621.7221866747
 21
136575.3747891151
 31
0.0
  0
LINE
  5
F4
330
2
100
AcDbEntity
  8
0
370
     5
100
AcDbLine
 10
221621.7221866747
 20
136575.3747891151
 30
0.0
 11
221521.7221866746
 21
136475.3747891152
 31
0.0
  0
LINE
  5
F5
102
{ACAD_REACTORS
330
EC
102
}
330
2
100
AcDbEntity
  8
0
  6
Continuous
 62
     7
370
     5
100
AcDbLine
 10
221757.7221866746
 20
136334.3747891151
 30
0.0
 11
221757.7221866747
 21
135967.3747891151
 31
0.0
  0
LINE
  5
F6
102
{ACAD_REACTORS
330
EC
102
}
330
2
100
AcDbEntity
  8
0
  6
Continuous
 62
     7
370
     5
100
AcDbLine
 10
221817.7221866746
 20
136334.3747891151
 30
0.0
 11
221817.7221866747
 21
135967.3747891151
 31
0.0
  0
LINE
  5
F7
330
2
100
AcDbEntity
  8
0
370
     5
100
AcDbLine
 10
221551.7221866746
 20
136145.8011959863
 30
0.0
 11
221551.7221866746
 21
136462.4483822439
 31
0.0
  0
LINE
  5
F8
330
2
100
AcDbEntity
  8
0
370
     5
100
AcDbLine
 10
221634.1485935458
 20
136545.3747891151
 30
0.0
 11
221551.7221866746
 21
136462.9483822439
 31
0.0
  0
LINE
  5
F9
330
2
100
AcDbEntity
  8
0
370
     5
100
AcDbLine
 10
221757.7221866747
 20
136545.3747891151
 30
0.0
 11
221634.1485935458
 21
136545.3747891151
 31
0.0
  0
LINE
  5
FA
330
2
100
AcDbEntity
  8
0
370
     5
100
AcDbLine
 10
221757.7221866747
 20
136484.3747891151
 30
0.0
 11
221757.7221866747
 21
136484.3747891151
 31
0.0
  0
LINE
  5
FB
330
2
100
AcDbEntity
  8
0
370
     5
100
AcDbLine
 10
221757.7221866747
 20
136063.3747891151
 30
0.0
 11
221634.1485935458
 21
136063.3747891151
 31
0.0
  0
LINE
  5
FC
330
2
100
AcDbEntity
  8
0
370
     5
100
AcDbLine
 10
221757.7221866747
 20
136033.3747891151
 30
0.0
 11
221621.7221866747
 21
136033.3747891151
 31
0.0
  0
LINE
  5
FD
330
2
100
AcDbEntity
  8
0
370
     5
100
AcDbLine
 10
221634.1485935458
 20
136063.3747891151
 30
0.0
 11
221551.7221866746
 21
136145.8011959863
 31
0.0
  0
LINE
  5
FE
330
2
100
AcDbEntity
  8
0
370
     5
100
AcDbLine
 10
221621.7221866747
 20
136033.3747891151
 30
0.0
 11
221521.7221866746
 21
136133.3747891152
 31
0.0
  0
LINE
  5
FF
330
2
100
AcDbEntity
  8
0
370
     5
100
AcDbLine
 10
221521.7221866746
 20
136133.3747891152
 30
0.0
 11
221521.7221866746
 21
136474.8747891151
 31
0.0
  0
HATCH
  5
100
330
2
100
AcDbEntity
  8
0
370
     5
100
AcDbHatch
 10
0.0
 20
0.0
 30
0.0
210
0.0
220
0.0
230
1.0
  2
SOLID
 70
     1
 71
     1
 91
        1
 92
        7
 72
     0
 73
     1
 93
        6
 10
223395.7221866746
 20
136581.3747891152
 10
223395.7221866746
 20
135967.3747891151
 10
223455.7221866745
 20
135967.3747891151
 10
223455.7221866746
 20
136641.3747891151
 10
223325.7221866747
 20
136641.3747891151
 10
223325.7221866746
 20
136581.3747891151
 97
        6
330
104
330
118
330
101
330
119
330
105
330
109
 75
     0
 76
     1
 47
3.088284571744132
 98
        1
 10
223411.3174315578
 20
136600.0725181045
1001
ACAD
1010
0.0
1020
0.0
1030
0.0
  0
LINE
  5
101
102
{ACAD_REACTORS
330
100
102
}
330
2
100
AcDbEntity
  8
0
  6
Continuous
 62
     7
370
     5
100
AcDbLine
 10
223455.7221866746
 20
135967.3747891151
 30
0.0
 11
223395.7221866746
 21
135967.3747891151
 31
0.0
  0
LINE
  5
102
330
2
100
AcDbEntity
  8
0
  6
Continuous
 62
     7
370
     5
100
AcDbLine
 10
223160.7221866747
 20
135967.3747891151
 30
0.0
 11
223105.7221866747
 21
135967.3747891151
 31
0.0
  0
LINE
  5
103
330
2
100
AcDbEntity
  8
0
  6
Continuous
 62
     7
370
     5
100
AcDbLine
 10
223160.7221866747
 20
136027.3747891151
 30
0.0
 11
223045.7221866746
 21
136027.3747891151
 31
0.0
  0
LINE
  5
104
102
{ACAD_REACTORS
330
100
102
}
330
2
100
AcDbEntity
  8
0
  6
Continuous
 62
     7
370
     5
100
AcDbLine
 10
223455.7221866746
 20
136641.3747891151
 30
0.0
 11
223325.7221866747
 21
136641.3747891151
 31
0.0
  0
LINE
  5
105
102
{ACAD_REACTORS
330
100
102
}
330
2
100
AcDbEntity
  8
0
  6
Continuous
 62
     7
370
     5
100
AcDbLine
 10
223395.7221866746
 20
136581.3747891151
 30
0.0
 11
223325.7221866747
 21
136581.3747891151
 31
0.0
  0
LINE
  5
106
102
{ACAD_REACTORS
330
DE
102
}
330
2
100
AcDbEntity
  8
0
  6
Continuous
 62
     7
370
     5
100
AcDbLine
 10
223235.7221866747
 20
136641.3747891151
 30
0.0
 11
223105.7221866747
 21
136641.3747891151
 31
0.0
  0
LINE
  5
107
102
{ACAD_REACTORS
330
DE
102
}
330
2
100
AcDbEntity
  8
0
  6
Continuous
 62
     7
370
     5
100
AcDbLine
 10
223235.7221866747
 20
136581.3747891151
 30
0.0
 11
223045.7221866746
 21
136581.3747891151
 31
0.0
  0
LINE
  5
108
330
2
100
AcDbEntity
  8
0
370
     5
100
AcDbLine
 10
223365.7221866746
 20
136751.3747891151
 30
0.0
 11
223195.7221866746
 21
136751.3747891151
 31
0.0
  0
LINE
  5
109
102
{ACAD_REACTORS
330
100
330
1BB
102
}
330
2
100
AcDbEntity
  8
0
  6
Continuous
 62
     7
370
     5
100
AcDbLine
 10
223325.7221866747
 20
136581.3747891151
 30
0.0
 11
223325.7221866747
 21
136641.3747891151
 31
0.0
  0
LINE
  5
10A
330
2
100
AcDbEntity
  8
0
370
     5
100
AcDbLine
 10
223365.7221866746
 20
136641.3747891151
 30
0.0
 11
223365.7221866746
 21
136751.3747891151
 31
0.0
  0
LINE
  5
10B
102
{ACAD_REACTORS
330
DE
330
1BB
102
}
330
2
100
AcDbEntity
  8
0
  6
Continuous
 62
     7
370
     5
100
AcDbLine
 10
223235.7221866747
 20
136581.3747891151
 30
0.0
 11
223235.7221866747
 21
136641.3747891151
 31
0.0
  0
LINE
  5
10C
330
2
100
AcDbEntity
  8
0
370
     5
100
AcDbLine
 10
223195.7221866746
 20
136641.3747891151
 30
0.0
 11
223195.7221866746
 21
136751.3747891151
 31
0.0
  0
LINE
  5
10D
330
2
100
AcDbEntity
  8
0
370
     5
100
AcDbLine
 10
223160.7221866747
 20
136027.3747891151
 30
0.0
 11
223160.7221866747
 21
135967.3747891151
 31
0.0
  0
LINE
  5
10E
330
2
100
AcDbEntity
  8
0
370
     5
100
AcDbLine
 10
223105.7221866747
 20
135780.3747891151
 30
0.0
 11
223455.7221866746
 21
135780.3747891151
 31
0.0
  0
LINE
  5
10F
330
2
100
AcDbEntity
  8
0
370
     5
100
AcDbLine
 10
223455.7221866746
 20
135780.3747891151
 30
0.0
 11
223455.7221866746
 21
135967.3747891151
 31
0.0
  0
LINE
  5
110
330
2
100
AcDbEntity
  8
0
370
     5
100
AcDbLine
 10
223105.7221866747
 20
135780.3747891151
 30
0.0
 11
223105.7221866747
 21
135915.3747891151
 31
0.0
  0
LINE
  5
111
330
2
100
AcDbEntity
  8
0
370
     5
100
AcDbLine
 10
223105.7221866747
 20
135915.3747891151
 30
0.0
 11
223455.7221866746
 21
135915.3747891151
 31
0.0
  0
LINE
  5
112
330
2
100
AcDbEntity
  8
0
370
     5
100
AcDbLine
 10
223280.7221866746
 20
135915.3747891151
 30
0.0
 11
223455.7221866746
 21
135780.3747891151
 31
0.0
  0
LINE
  5
113
330
2
100
AcDbEntity
  8
0
370
     5
100
AcDbLine
 10
223280.7221866746
 20
135915.3747891151
 30
0.0
 11
223105.7221866747
 21
135780.3747891151
 31
0.0
  0
LINE
  5
114
102
{ACAD_REACTORS
330
DE
330
1BA
102
}
330
2
100
AcDbEntity
  8
0
  6
Continuous
 62
     7
370
     5
100
AcDbLine
 10
222959.2221866746
 20
136760.3747891151
 30
0.0
 11
222959.2221866746
 21
136700.3747891151
 31
0.0
  0
LINE
  5
115
102
{ACAD_REACTORS
330
1BA
102
}
330
2
100
AcDbEntity
  8
0
  6
Continuous
 62
     7
370
     5
100
AcDbLine
 10
222749.2221866747
 20
136760.3747891151
 30
0.0
 11
222749.2221866747
 21
136700.3747891151
 31
0.0
  0
LINE
  5
116
102
{ACAD_REACTORS
330
EC
330
1B9
102
}
330
2
100
AcDbEntity
  8
0
370
     5
100
AcDbLine
 10
221757.7221866747
 20
136334.3747891151
 30
0.0
 11
221817.7221866746
 21
136334.3747891151
 31
0.0
  0
LINE
  5
117
102
{ACAD_REACTORS
330
C1
330
1B9
102
}
330
2
100
AcDbEntity
  8
0
370
     5
100
AcDbLine
 10
221757.7221866747
 20
136484.3747891151
 30
0.0
 11
221817.7221866746
 21
136484.3747891151
 31
0.0
  0
LINE
  5
118
102
{ACAD_REACTORS
330
100
102
}
330
2
100
AcDbEntity
  8
0
370
     5
100
AcDbLine
 10
223455.7221866746
 20
135967.3747891151
 30
0.0
 11
223455.7221866746
 21
136641.3747891151
 31
0.0
  0
LINE
  5
119
102
{ACAD_REACTORS
330
100
102
}
330
2
100
AcDbEntity
  8
0
370
     5
100
AcDbLine
 10
223395.7221866746
 20
135967.3747891151
 30
0.0
 11
223395.7221866746
 21
136581.3747891151
 31
0.0
  0
LINE
  5
11A
330
2
100
AcDbEntity
  8
0
370
     5
100
AcDbLine
 10
223160.7221866747
 20
135967.3747891151
 30
0.0
 11
223425.7221866746
 21
135967.3747891151
 31
0.0
  0
LINE
  5
11B
330
2
100
AcDbEntity
  8
0
370
     5
100
AcDbLine
 10
223160.7221866747
 20
136027.3747891151
 30
0.0
 11
223395.7221866746
 21
136027.3747891151
 31
0.0
  0
LINE
  5
11C
330
2
100
AcDbEntity
  8
0
370
     5
100
AcDbLine
 10
222566.7221866746
 20
135975.3747891151
 30
0.0
 11
222666.7221866746
 21
135975.3747891151
 31
0.0
  0
LINE
  5
11D
330
2
100
AcDbEntity
  8
0
370
     5
100
AcDbLine
 10
222566.7221866746
 20
135915.3747891151
 30
0.0
 11
222666.7221866746
 21
135915.3747891151
 31
0.0
  0
LINE
  5
11E
330
2
100
AcDbEntity
  8
0
370
     5
100
AcDbLine
 10
222304.7221866746
 20
135967.3747891151
 30
0.0
 11
222204.7221866747
 21
135967.3747891152
 31
0.0
  0
LINE
  5
11F
330
2
100
AcDbEntity
  8
0
370
     5
100
AcDbLine
 10
222204.7221866747
 20
136027.3747891151
 30
0.0
 11
222334.7221866747
 21
136027.3747891151
 31
0.0
  0
LINE
  5
120
102
{ACAD_REACTORS
330
1B9
102
}
330
2
100
AcDbEntity
  8
0
370
     5
100
AcDbLine
 10
221817.7221866746
 20
136334.3747891151
 30
0.0
 11
221817.7221866746
 21
136484.3747891151
 31
0.0
  0
LINE
  5
121
102
{ACAD_REACTORS
330
1B9
102
}
330
2
100
AcDbEntity
  8
0
370
     5
100
AcDbLine
 10
221757.7221866747
 20
136484.3747891151
 30
0.0
 11
221757.7221866746
 21
136334.3747891151
 31
0.0
  0
LINE
  5
122
102
{ACAD_REACTORS
330
1BA
102
}
330
2
100
AcDbEntity
  8
0
370
     5
100
AcDbLine
 10
222749.2221866747
 20
136700.3747891151
 30
0.0
 11
222959.2221866746
 21
136700.3747891151
 31
0.0
  0
LINE
  5
123
102
{ACAD_REACTORS
330
1BA
102
}
330
2
100
AcDbEntity
  8
0
370
     5
100
AcDbLine
 10
222749.2221866747
 20
136760.3747891151
 30
0.0
 11
222959.2221866746
 21
136760.3747891151
 31
0.0
  0
LINE
  5
124
102
{ACAD_REACTORS
330
1BB
102
}
330
2
100
AcDbEntity
  8
0
370
     5
100
AcDbLine
 10
223235.7221866747
 20
136581.3747891151
 30
0.0
 11
223325.7221866747
 21
136581.3747891151
 31
0.0
  0
LINE
  5
125
102
{ACAD_REACTORS
330
1BB
102
}
330
2
100
AcDbEntity
  8
0
370
     5
100
AcDbLine
 10
223235.7221866747
 20
136641.3747891151
 30
0.0
 11
223325.7221866747
 21
136641.3747891151
 31
0.0
  0
DIMENSION
  5
126
330
2
100
AcDbEntity
  8
0
370
     5
100
AcDbDimension
  2
*D5
 10
223105.7221866747
 20
137134.3792665298
 30
0.0
 11
223280.7221866746
 21
137214.3792665298
 31
0.0
 71
     5
 42
350.0
  3
500
100
AcDbAlignedDimension
 13
223455.7221866746
 23
136641.3747891151
 33
0.0
 14
223105.7221866747
 24
136641.3747891151
 34
0.0
 50
180.0
100
AcDbRotatedDimension
  0
DIMENSION
  5
131
330
2
100
AcDbEntity
  8
0
370
     5
100
AcDbDimension
  2
*D6
 10
222317.7221866746
 20
137134.3792665298
 30
0.0
 11
222711.7221866746
 21
137214.3792665298
 31
0.0
 71
     5
 42
788.0
  3
500
100
AcDbAlignedDimension
 13
223105.7221866747
 23
136641.3747891151
 33
0.0
 14
222317.7221866746
 24
136760.3747891151
 34
0.0
 50
180.0
100
AcDbRotatedDimension
  0
DIMENSION
  5
13C
330
2
100
AcDbEntity
  8
0
370
     5
100
AcDbDimension
  2
*D7
 10
221757.7221866747
 20
137134.3792665298
 30
0.0
 11
222037.7221866746
 21
137214.3792665298
 31
0.0
 71
     5
 42
560.0
  3
500
100
AcDbAlignedDimension
 13
222317.7221866746
 23
136760.3747891151
 33
0.0
 14
221757.7221866747
 24
136641.3747891151
 34
0.0
 50
180.0
100
AcDbRotatedDimension
  0
DIMENSION
  5
147
330
2
100
AcDbEntity
  8
0
370
     5
100
AcDbDimension
  2
*D8
 10
223455.7221866746
 20
137349.0484745968
 30
0.0
 11
222606.7221866746
 21
137429.0484745968
 31
0.0
 71
     5
 42
1698.0
  3
500
100
AcDbAlignedDimension
 13
221757.7221866747
 23
136641.3747891151
 33
0.0
 14
223455.7221866746
 24
136641.3747891151
 34
0.0
 50
180.0
100
AcDbRotatedDimension
  0
DIMENSION
  5
152
330
2
100
AcDbEntity
  8
0
370
     5
100
AcDbDimension
  2
*D9
 10
219421.5330531099
 20
136641.3747891151
 30
0.0
 11
219341.5330531099
 21
136700.8747891152
 31
0.0
 71
     5
 42
119.0
  3
500
100
AcDbAlignedDimension
 13
218540.6421281335
 23
136760.3747891151
 33
0.0
 14
218540.6421281335
 24
136641.3747891151
 34
0.0
 50
90.0
100
AcDbRotatedDimension
  0
DIMENSION
  5
15F
330
2
100
AcDbEntity
  8
0
370
     5
100
AcDbDimension
  2
*D10
 10
219421.5330531099
 20
135967.3747891151
 30
0.0
 11
219341.5330531099
 21
136304.3747891152
 31
0.0
 71
     5
 42
674.0
  3
500
100
AcDbAlignedDimension
 13
218540.6421281335
 23
136641.3747891151
 33
0.0
 14
219100.6421281335
 24
135967.3747891151
 34
0.0
 50
90.0
100
AcDbRotatedDimension
  0
DIMENSION
  5
16A
330
2
100
AcDbEntity
  8
0
370
     5
100
AcDbDimension
  2
*D11
 10
219421.5330531099
 20
135915.3747891151
 30
0.0
 11
219341.5330531099
 21
135941.3747891152
 31
0.0
 71
     5
 42
51.99999999997089
  3
500
100
AcDbAlignedDimension
 13
219100.6421281335
 23
135967.3747891151
 33
0.0
 14
218540.6421281335
 24
135915.3747891151
 34
0.0
 50
90.0
100
AcDbRotatedDimension
  0
DIMENSION
  5
177
330
2
100
AcDbEntity
  8
0
370
     5
100
AcDbDimension
  2
*D12
 10
219636.7031650918
 20
136760.3747891151
 30
0.0
 11
219556.7031650917
 21
136337.8747891152
 31
0.0
 71
     5
 42
844.9999999999709
  3
500
100
AcDbAlignedDimension
 13
218540.6421281335
 23
135915.3747891151
 33
0.0
 14
218540.6421281335
 24
136760.3747891151
 34
0.0
 50
90.0
100
AcDbRotatedDimension
  0
DIMENSION
  5
182
330
2
100
AcDbEntity
  8
0
370
     5
100
AcDbDimension
  2
*D13
 10
221378.2454366352
 20
136641.3747891151
 30
0.0
 11
221298.2454366351
 21
136700.8747891152
 31
0.0
 71
     5
 42
119.0
  3
500
100
AcDbAlignedDimension
 13
222259.1363616116
 23
136760.3747891151
 33
0.0
 14
222259.1363616116
 24
136641.3747891151
 34
0.0
 50
90.0
100
AcDbRotatedDimension
  0
DIMENSION
  5
18F
330
2
100
AcDbEntity
  8
0
370
     5
100
AcDbDimension
  2
*D14
 10
221378.2454366352
 20
135967.3747891151
 30
0.0
 11
221298.2454366351
 21
136304.3747891152
 31
0.0
 71
     5
 42
674.0
  3
500
100
AcDbAlignedDimension
 13
222259.1363616116
 23
136641.3747891151
 33
0.0
 14
221699.1363616116
 24
135967.3747891151
 34
0.0
 50
90.0
100
AcDbRotatedDimension
  0
DIMENSION
  5
19A
330
2
100
AcDbEntity
  8
0
370
     5
100
AcDbDimension
  2
*D15
 10
221378.2454366352
 20
135915.3747891151
 30
0.0
 11
221298.2454366351
 21
135941.3747891152
 31
0.0
 71
     5
 42
51.99999999997089
  3
500
100
AcDbAlignedDimension
 13
221699.1363616116
 23
135967.3747891151
 33
0.0
 14
222259.1363616116
 24
135915.3747891151
 34
0.0
 50
90.0
100
AcDbRotatedDimension
  0
DIMENSION
  5
1A7
330
2
100
AcDbEntity
  8
0
370
     5
100
AcDbDimension
  2
*D16
 10
221163.0753246533
 20
136760.3747891151
 30
0.0
 11
221083.0753246533
 21
136337.8747891152
 31
0.0
 71
     5
 42
844.9999999999709
  3
500
100
AcDbAlignedDimension
 13
222259.1363616116
 23
135915.3747891151
 33
0.0
 14
222259.1363616116
 24
136760.3747891151
 34
0.0
 50
90.0
100
AcDbRotatedDimension
  0
LWPOLYLINE
  5
1B2
330
2
100
AcDbEntity
  8
0
  6
Continuous
 62
     7
370
     5
100
AcDbPolyline
 90
        2
 70
     0
 43
0.0
 10
218050.5563030704
 20
136760.3747891151
 10
218482.0563030704
 20
136760.3747891151
1001
ACAD
1000
ASC_BOUNDS
1002
{
1070
    19
1002
}
  0
LWPOLYLINE
  5
1B3
330
2
100
AcDbEntity
  8
0
  6
Continuous
 62
     7
370
     5
100
AcDbPolyline
 90
        2
 70
     0
 43
0.0
 10
218050.5563030704
 20
136700.3747891151
 10
218422.0563030704
 20
136700.3747891151
  0
LWPOLYLINE
  5
1B4
330
2
100
AcDbEntity
  8
0
  6
Continuous
 62
     7
370
     5
100
AcDbPolyline
 90
        2
 70
     0
 43
0.0
 10
222749.2221866747
 20
136760.3747891151
 10
222317.7221866746
 20
136760.3747891151
1001
ACAD
1000
ASC_BOUNDS
1002
{
1070
    19
1002
}
  0
LWPOLYLINE
  5
1B5
330
2
100
AcDbEntity
  8
0
  6
Continuous
 62
     7
370
     5
100
AcDbPolyline
 90
        2
 70
     0
 43
0.0
 10
222749.2221866747
 20
136700.3747891151
 10
222377.7221866746
 20
136700.3747891151
  0
HATCH
  5
1B6
330
2
100
AcDbEntity
  8
0
370
     5
100
AcDbHatch
 10
0.0
 20
0.0
 30
0.0
210
0.0
220
0.0
230
1.0
  2
SOLID
 70
     1
 71
     1
 91
        1
 92
        7
 72
     0
 73
     1
 93
        4
 10
217564.0563030705
 20
136641.3747891151
 10
217474.0563030705
 20
136641.3747891151
 10
217474.0563030704
 20
136581.3747891151
 10
217564.0563030704
 20
136581.3747891151
 97
        4
330
86
330
52
330
85
330
54
 75
     0
 76
     1
 47
2.5520669327511
 98
        1
 10
217514.9984679778
 20
136603.6675425306
1001
ACAD
1010
0.0
1020
0.0
1030
0.0
  0
HATCH
  5
1B7
330
2
100
AcDbEntity
  8
0
370
     5
100
AcDbHatch
 10
0.0
 20
0.0
 30
0.0
210
0.0
220
0.0
230
1.0
  2
SOLID
 70
     1
 71
     1
 91
        1
 92
        7
 72
     0
 73
     1
 93
        4
 10
218050.5563030704
 20
136760.3747891151
 10
217840.5563030704
 20
136760.3747891151
 10
217840.5563030704
 20
136700.3747891151
 10
218050.5563030704
 20
136700.3747891151
 97
        4
330
84
330
5D
330
83
330
5E
 75
     0
 76
     1
 47
2.5520669327511
 98
        1
 10
217900.6589247655
 20
136728.7188241681
1001
ACAD
1010
0.0
1020
0.0
1030
0.0
  0
HATCH
  5
1B8
330
2
100
AcDbEntity
  8
0
370
     5
100
AcDbHatch
 10
0.0
 20
0.0
 30
0.0
210
0.0
220
0.0
230
1.0
  2
SOLID
 70
     1
 71
     1
 91
        1
 92
        7
 72
     0
 73
     1
 93
        4
 10
219042.0563030704
 20
136484.3747891151
 10
218982.0563030705
 20
136484.3747891151
 10
218982.0563030705
 20
136334.3747891151
 10
219042.0563030704
 20
136334.3747891151
 97
        4
330
60
330
81
330
5F
330
82
 75
     0
 76
     1
 47
2.5520669327511
 98
        1
 10
219016.7757484775
 20
136394.398043807
1001
ACAD
1010
0.0
1020
0.0
1030
0.0
  0
HATCH
  5
1B9
330
2
100
AcDbEntity
  8
0
370
     5
100
AcDbHatch
 10
0.0
 20
0.0
 30
0.0
210
0.0
220
0.0
230
1.0
  2
SOLID
 70
     1
 71
     1
 91
        1
 92
        7
 72
     0
 73
     1
 93
        4
 10
221817.7221866746
 20
136484.3747891151
 10
221757.7221866747
 20
136484.3747891151
 10
221757.7221866747
 20
136334.3747891151
 10
221817.7221866746
 20
136334.3747891151
 97
        4
330
117
330
121
330
116
330
120
 75
     0
 76
     1
 47
2.520804930074747
 98
        1
 10
221768.6948874316
 20
136408.3270928529
1001
ACAD
1010
0.0
1020
0.0
1030
0.0
  0
HATCH
  5
1BA
330
2
100
AcDbEntity
  8
0
370
     5
100
AcDbHatch
 10
0.0
 20
0.0
 30
0.0
210
0.0
220
0.0
230
1.0
  2
SOLID
 70
     1
 71
     1
 91
        1
 92
        7
 72
     0
 73
     1
 93
        4
 10
222959.2221866746
 20
136760.3747891151
 10
222749.2221866747
 20
136760.3747891151
 10
222749.2221866747
 20
136700.3747891151
 10
222959.2221866746
 20
136700.3747891151
 97
        4
330
123
330
115
330
122
330
114
 75
     0
 76
     1
 47
2.520804930074747
 98
        1
 10
222873.6623426263
 20
136748.635779568
1001
ACAD
1010
0.0
1020
0.0
1030
0.0
  0
HATCH
  5
1BB
330
2
100
AcDbEntity
  8
0
370
     5
100
AcDbHatch
 10
0.0
 20
0.0
 30
0.0
210
0.0
220
0.0
230
1.0
  2
SOLID
 70
     1
 71
     1
 91
        1
 92
        7
 72
     0
 73
     1
 93
        4
 10
223325.7221866747
 20
136641.3747891151
 10
223235.7221866747
 20
136641.3747891151
 10
223235.7221866747
 20
136581.3747891151
 10
223325.7221866747
 20
136581.3747891151
 97
        4
330
125
330
10B
330
124
330
109
 75
     0
 76
     1
 47
2.520804930074747
 98
        1
 10
223287.394445137
 20
136602.4290769086
1001
ACAD
1010
0.0
1020
0.0
1030
0.0
  0
ENDSEC
  0
SECTION
  2
OBJECTS
  0
DICTIONARY
  5
B
330
0
100
AcDbDictionary
281
     1
  3
ACAD_COLOR
350
1DF
  3
ACAD_GROUP
350
1DA
  3
ACAD_LAYOUT
350
1BE
  3
ACAD_MATERIAL
350
D
  3
ACAD_MLINESTYLE
350
1DB
  3
ACAD_PLOTSETTINGS
350
1DC
  3
ACAD_PLOTSTYLENAME
350
A
  3
ACAD_SCALELIST
350
1E0
  3
ACAD_TABLESTYLE
350
1E1
  3
ACAD_VISUALSTYLE
350
1C1
  3
ACDB_RECOMPOSE_DATA
350
206
  3
AcDbVariableDictionary
350
1FB
  3
DWGPROPS
350
207
  0
DICTIONARY
  5
1C8
330
1C7
100
AcDbDictionary
280
     1
281
     1
  3
ACAD_LAYERFILTERS
360
1C9
  3
ACAD_LAYERSTATES
360
1CA
  3
ACLYDICTIONARY
360
1CB
  0
DICTIONARY
  5
7
330
6
100
AcDbDictionary
280
     1
281
     1
  3
ADSK_XREC_LAYER_RECONCILED
360
8
  0
DICTIONARY
  5
1D
330
1C
100
AcDbDictionary
280
     1
281
     1
  3
ADSK_XREC_LAYER_RECONCILED
360
1E
  0
DICTIONARY
  5
12
330
11
100
AcDbDictionary
280
     1
281
     1
  3
ADSK_XREC_LAYER_RECONCILED
360
13
  0
DICTIONARY
  5
1E3
330
1E2
100
AcDbDictionary
280
     1
281
     1
  3
ADSK_XREC_LAYER_RECONCILED
360
1E4
  0
DICTIONARY
  5
3
330
2
100
AcDbDictionary
280
     1
281
     1
  3
ACAD_SORTENTS
360
1FA
  0
DICTIONARY
  5
8D
330
8C
100
AcDbDictionary
280
     1
281
     1
  3
ACAD_SORTENTS
360
1F9
  0
DICTIONARY
  5
1DF
102
{ACAD_REACTORS
330
B
102
}
330
B
100
AcDbDictionary
281
     1
  0
DICTIONARY
  5
1DA
102
{ACAD_REACTORS
330
B
102
}
330
B
100
AcDbDictionary
281
     1
  0
DICTIONARY
  5
1BE
102
{ACAD_REACTORS
330
B
102
}
330
B
100
AcDbDictionary
281
     1
  3
Layout1
350
1C6
  3
Model
350
1BD
  0
DICTIONARY
  5
D
102
{ACAD_REACTORS
330
B
102
}
330
B
100
AcDbDictionary
281
     1
  3
ByBlock
350
1DE
  3
ByLayer
350
1DD
  3
Global
350
C
  0
DICTIONARY
  5
1DB
102
{ACAD_REACTORS
330
B
102
}
330
B
100
AcDbDictionary
281
     1
  3
Standard
350
1E5
  0
DICTIONARY
  5
1DC
102
{ACAD_REACTORS
330
B
102
}
330
B
100
AcDbDictionary
281
     1
  0
ACDBDICTIONARYWDFLT
  5
A
102
{ACAD_REACTORS
330
B
102
}
330
B
100
AcDbDictionary
281
     1
  3
Normal
350
9
100
AcDbDictionaryWithDefault
340
9
  0
DICTIONARY
  5
1E0
102
{ACAD_REACTORS
330
B
102
}
330
B
100
AcDbDictionary
281
     1
  3
A0
350
1EA
  3
A1
350
1EB
  3
A2
350
1EC
  3
A3
350
1ED
  3
A4
350
1EE
  3
A5
350
1EF
  3
A6
350
1F0
  3
A7
350
1F1
  3
A8
350
1F2
  3
A9
350
1F3
  3
B0
350
1F4
  3
B1
350
1F5
  3
B2
350
1F6
  3
B3
350
1F7
  3
B4
350
1F8
  0
DICTIONARY
  5
1E1
102
{ACAD_REACTORS
330
B
102
}
330
B
100
AcDbDictionary
281
     1
  3
Standard
350
1E6
  0
DICTIONARY
  5
1C1
102
{ACAD_REACTORS
330
B
102
}
330
B
100
AcDbDictionary
281
     1
  3
2dWireframe
350
1C0
  3
3dWireframe
350
1E9
  3
Realistic
350
1E8
  0
XRECORD
  5
206
102
{ACAD_REACTORS
330
B
102
}
330
B
100
AcDbXrecord
280
     1
 90
        1
330
1E6
  0
DICTIONARY
  5
1FB
102
{ACAD_REACTORS
330
B
102
}
330
B
100
AcDbDictionary
281
     1
  3
CANNOSCALE
350
1FF
  3
CMLEADERSTYLE
350
1FD
  3
CTABLESTYLE
350
1FC
  3
DIMASSOC
350
203
  3
HIDETEXT
350
202
  3
INDEXCTL
350
201
  3
MSLTSCALE
350
1FE
  3
SORTENTS
350
200
  0
XRECORD
  5
207
102
{ACAD_REACTORS
330
B
102
}
330
B
100
AcDbXrecord
280
     1
  1
DWGPROPS COOKIE
  2

  3

  4

  6

  7

  8
magdalena.jozwik
  9

300
=
301
=
302
=
303
=
304
=
305
=
306
=
307
=
308
=
309
=
 40
8.891800636574073
 41
2452027.670547454
 42
2454985.472978334
  1

 90
        0
  0
DICTIONARY
  5
1C9
102
{ACAD_REACTORS
330
1C8
102
}
330
1C8
100
AcDbDictionary
281
     1
  0
DICTIONARY
  5
1CA
102
{ACAD_REACTORS
330
1C8
102
}
330
1C8
100
AcDbDictionary
281
     1
  0
DICTIONARY
  5
1CB
102
{ACAD_REACTORS
330
1C8
102
}
330
1C8
100
AcDbDictionary
281
     1
1001
ACAD
1000
<All
  0
XRECORD
  5
8
102
{ACAD_REACTORS
330
7
102
}
330
7
100
AcDbXrecord
280
     1
290
     1
  0
XRECORD
  5
1E
102
{ACAD_REACTORS
330
1D
102
}
330
1D
100
AcDbXrecord
280
     1
290
     1
  0
XRECORD
  5
13
102
{ACAD_REACTORS
330
12
102
}
330
12
100
AcDbXrecord
280
     1
290
     1
  0
XRECORD
  5
1E4
102
{ACAD_REACTORS
330
1E3
102
}
330
1E3
100
AcDbXrecord
280
     1
290
     1
  0
SORTENTSTABLE
  5
1FA
102
{ACAD_REACTORS
330
3
102
}
330
3
100
AcDbSortentsTable
330
2
331
40
  5
54
331
48
  5
5D
331
50
  5
68
331
58
  5
72
331
79
  5
40
331
F7
  5
FC
331
81
  5
85
331
C0
  5
C4
331
FF
  5
104
331
1B4
  5
CD
331
C8
  5
CC
331
D0
  5
D5
331
107
  5
10C
331
10F
  5
115
331
60
  5
7C
331
29
  5
32
331
68
  5
29
331
31
  5
3F
331
70
  5
33
331
39
  5
4A
331
D8
  5
DD
331
117
  5
11F
331
E0
  5
E5
331
11F
  5
131
331
E8
  5
ED
331
41
  5
55
331
49
  5
5E
331
51
  5
6A
331
59
  5
73
331
F0
  5
F5
331
7A
  5
62
331
C1
  5
C5
331
F8
  5
FD
331
82
  5
86
331
C9
  5
CE
331
100
  5
105
331
1B5
  5
1BB
331
108
  5
10D
331
147
  5
1A7
331
D1
  5
D6
331
22
  5
23
331
61
  5
7D
331
69
  5
24
331
2A
  5
34
331
32
  5
41
331
71
  5
35
331
3A
  5
4B
331
110
  5
116
331
D9
  5
DE
331
E1
  5
E6
331
118
  5
120
331
15F
  5
1B3
331
E9
  5
EE
331
120
  5
13C
331
42
  5
56
331
4A
  5
5F
331
52
  5
6C
331
5A
  5
74
331
7B
  5
7F
331
F1
  5
F6
331
F9
  5
FE
331
83
  5
87
331
C2
  5
C6
331
177
  5
1B5
331
CA
  5
CF
331
101
  5
106
331
1B6
  5
6B
331
D2
  5
D7
331
109
  5
10F
331
23
  5
25
331
62
  5
67
331
2B
  5
36
331
6A
  5
58
331
33
  5
43
331
72
  5
3B
331
3B
  5
4C
331
DA
  5
DF
331
111
  5
117
331
119
  5
121
331
E2
  5
E7
331
18F
  5
1B7
331
121
  5
147
331
EA
  5
EF
331
B3
  5
C1
331
1A7
  5
1B9
331
43
  5
57
331
4B
  5
60
331
53
  5
6D
331
5B
  5
75
331
F2
  5
F7
331
7C
  5
80
331
131
  5
18F
331
C3
  5
C7
331
FA
  5
FF
331
84
  5
9D
331
CB
  5
D0
331
102
  5
107
331
1B7
  5
77
331
10A
  5
110
331
D3
  5
D8
331
24
  5
28
331
63
  5
7E
331
6B
  5
50
331
2C
  5
38
331
34
  5
44
331
73
  5
2D
331
3C
  5
4D
331
DB
  5
E0
331
112
  5
118
331
E3
  5
E8
331
11A
  5
122
331
EB
  5
F0
331
122
  5
152
331
44
  5
59
331
4C
  5
61
331
54
  5
6E
331
5C
  5
76
331
7D
  5
81
331
F3
  5
F8
331
FB
  5
100
331
85
  5
A8
331
C4
  5
C8
331
CC
  5
D1
331
103
  5
108
331
1B8
  5
7A
331
D4
  5
D9
331
10B
  5
111
331
25
  5
2B
331
64
  5
69
331
2D
  5
39
331
6C
  5
37
331
35
  5
45
331
74
  5
30
331
3D
  5
4F
331
152
  5
1B2
331
9D
  5
BF
331
DC
  5
E1
331
113
  5
119
331
11B
  5
123
331
E4
  5
E9
331
EC
  5
F1
331
123
  5
15F
331
45
  5
5A
331
4D
  5
63
331
55
  5
6F
331
5D
  5
78
331
16A
  5
1B4
331
F4
  5
F9
331
7E
  5
82
331
86
  5
B3
331
C5
  5
C9
331
FC
  5
101
331
1B9
  5
11D
331
CD
  5
D2
331
104
  5
109
331
10C
  5
112
331
D5
  5
DA
331
182
  5
1B6
331
65
  5
52
331
26
  5
2E
331
6D
  5
47
331
2E
  5
3A
331
36
  5
46
331
75
  5
4E
331
3E
  5
51
331
DD
  5
E2
331
114
  5
11B
331
E5
  5
EA
331
11C
  5
124
331
19A
  5
1B8
331
ED
  5
F2
331
124
  5
16A
331
46
  5
5B
331
4E
  5
64
331
56
  5
70
331
5E
  5
79
331
F5
  5
FA
331
7F
  5
83
331
BE
  5
C2
331
1B2
  5
2A
331
FD
  5
102
331
13C
  5
19A
331
87
  5
BE
331
C6
  5
CA
331
CE
  5
D3
331
105
  5
10A
331
1BA
  5
11A
331
D6
  5
DB
331
10D
  5
113
331
27
  5
2F
331
66
  5
42
331
2F
  5
3C
331
6E
  5
65
331
76
  5
22
331
37
  5
48
331
3F
  5
53
331
DE
  5
E3
331
115
  5
11C
331
11D
  5
125
331
E6
  5
EB
331
EE
  5
F3
331
125
  5
177
331
47
  5
5C
331
4F
  5
66
331
57
  5
71
331
78
  5
27
331
5F
  5
7B
331
BF
  5
C3
331
F6
  5
FB
331
80
  5
84
331
C7
  5
CB
331
FE
  5
103
331
1B3
  5
1BA
331
106
  5
10B
331
1BB
  5
10E
331
CF
  5
D4
331
10E
  5
114
331
D7
  5
DC
331
67
  5
2C
331
28
  5
31
331
6F
  5
3D
331
30
  5
3E
331
38
  5
49
331
77
  5
26
331
DF
  5
E4
331
116
  5
11E
331
A8
  5
C0
331
E7
  5
EC
331
11E
  5
126
331
EF
  5
F4
331
126
  5
182
  0
SORTENTSTABLE
  5
1F9
102
{ACAD_REACTORS
330
8D
102
}
330
8D
100
AcDbSortentsTable
330
8C
  0
LAYOUT
  5
1C6
102
{ACAD_XDICTIONARY
360
20C
102
}
102
{ACAD_REACTORS
330
1BE
102
}
330
1BE
100
AcDbPlotSettings
  1

  2
C:\PROGRAM FILES\AUTOCAD LT 2000\plotters\DWF ePlot.pc3
  4

  6

 40
0.0
 41
0.0
 42
0.0
 43
0.0
 44
0.0
 45
0.0
 46
0.0
 47
0.0
 48
0.0
 49
0.0
140
0.0
141
0.0
142
1.0
143
1.0
 70
   688
 72
     0
 73
     0
 74
     5
  7
monochrome_140.ctb
 75
    16
147
1.0
148
0.0
149
0.0
100
AcDbLayout
  1
Layout1
 70
     1
 71
     1
 10
0.0
 20
0.0
 11
420.0
 21
297.0
 12
0.0
 22
0.0
 32
0.0
 14
1.000000000000000E+20
 24
1.000000000000000E+20
 34
1.000000000000000E+20
 15
-1.000000000000000E+20
 25
-1.000000000000000E+20
 35
-1.000000000000000E+20
146
0.0
 13
0.0
 23
0.0
 33
0.0
 16
1.0
 26
0.0
 36
0.0
 17
0.0
 27
1.0
 37
0.0
 76
     0
330
1C3
  0
LAYOUT
  5
1BD
102
{ACAD_XDICTIONARY
360
20A
102
}
102
{ACAD_REACTORS
330
1BE
102
}
330
1BE
100
AcDbPlotSettings
  1

  2
CutePDF Writer
  4
A4
  6
RODODENDRON 5
 40
3.174999952316284
 41
3.174999952316284
 42
3.175003051757812
 43
3.17498779296875
 44
209.8886566162109
 45
297.0530090332031
 46
-0.230673193931878
 47
5.151510643959028
 48
215187.2000545948
 49
127657.5157057546
140
225387.2000545948
141
141677.5157057546
142
1.0
143
50.0
 70
 11956
 72
     1
 73
     0
 74
     4
  7
monochrome_140.ctb
 75
    25
147
0.02
148
-215187.2000545948
149
-127657.5157057546
100
AcDbLayout
  1
Model
 70
     1
 71
     0
 10
0.0
 20
0.0
 11
12.0
 21
9.0
 12
0.0
 22
0.0
 32
0.0
 14
0.0
 24
0.0
 34
0.0
 15
0.0
 25
0.0
 35
0.0
146
0.0
 13
0.0
 23
0.0
 33
0.0
 16
1.0
 26
0.0
 36
0.0
 17
0.0
 27
1.0
 37
0.0
 76
     0
330
2
331
1D5
1001
ACAD_PSEXT
1000
CutePDF Writer
1000
CutePDF Writer
1000
CPW2:
1000

1070
     0
  0
MATERIAL
  5
1DE
102
{ACAD_XDICTIONARY
360
210
102
}
102
{ACAD_REACTORS
330
D
102
}
330
D
100
AcDbMaterial
  1
ByBlock
 73
     1
 78
     1
172
     1
176
     1
270
     1
274
     1
  0
MATERIAL
  5
1DD
102
{ACAD_XDICTIONARY
360
20E
102
}
102
{ACAD_REACTORS
330
D
102
}
330
D
100
AcDbMaterial
  1
ByLayer
 73
     1
 78
     1
172
     1
176
     1
270
     1
274
     1
  0
MATERIAL
  5
C
102
{ACAD_XDICTIONARY
360
208
102
}
102
{ACAD_REACTORS
330
D
102
}
330
D
100
AcDbMaterial
  1
Global
 73
     1
 78
     1
172
     1
176
     1
270
     1
274
     1
  0
MLINESTYLE
  5
1E5
102
{ACAD_REACTORS
330
1DB
102
}
330
1DB
100
AcDbMlineStyle
  2
STANDARD
 70
     0
  3

 62
   256
 51
90.0
 52
90.0
 71
     2
 49
0.5
 62
   256
  6
BYLAYER
 49
-0.5
 62
   256
  6
BYLAYER
  0
ACDBPLACEHOLDER
  5
9
102
{ACAD_REACTORS
330
A
102
}
330
A
  0
SCALE
  5
1EA
102
{ACAD_REACTORS
330
1E0
102
}
330
1E0
100
AcDbScale
 70
     0
300
1/64" = 1'-0"
140
0.015625
141
12.0
290
     0
  0
SCALE
  5
1EB
102
{ACAD_REACTORS
330
1E0
102
}
330
1E0
100
AcDbScale
 70
     0
300
1/32" = 1'-0"
140
0.03125
141
12.0
290
     0
  0
SCALE
  5
1EC
102
{ACAD_REACTORS
330
1E0
102
}
330
1E0
100
AcDbScale
 70
     0
300
1/16" = 1'-0"
140
0.0625
141
12.0
290
     0
  0
SCALE
  5
1ED
102
{ACAD_REACTORS
330
1E0
102
}
330
1E0
100
AcDbScale
 70
     0
300
3/32" = 1'-0"
140
0.09375
141
12.0
290
     0
  0
SCALE
  5
1EE
102
{ACAD_REACTORS
330
1E0
102
}
330
1E0
100
AcDbScale
 70
     0
300
1/8" = 1'-0"
140
0.125
141
12.0
290
     0
  0
SCALE
  5
1EF
102
{ACAD_REACTORS
330
1E0
102
}
330
1E0
100
AcDbScale
 70
     0
300
3/16" = 1'-0"
140
0.1875
141
12.0
290
     0
  0
SCALE
  5
1F0
102
{ACAD_REACTORS
330
1E0
102
}
330
1E0
100
AcDbScale
 70
     0
300
1/4" = 1'-0"
140
0.25
141
12.0
290
     0
  0
SCALE
  5
1F1
102
{ACAD_REACTORS
330
1E0
102
}
330
1E0
100
AcDbScale
 70
     0
300
3/8" = 1'-0"
140
0.375
141
12.0
290
     0
  0
SCALE
  5
1F2
102
{ACAD_REACTORS
330
1E0
102
}
330
1E0
100
AcDbScale
 70
     0
300
1/2" = 1'-0"
140
0.5
141
12.0
290
     0
  0
SCALE
  5
1F3
102
{ACAD_REACTORS
330
1E0
102
}
330
1E0
100
AcDbScale
 70
     0
300
3/4" = 1'-0"
140
0.75
141
12.0
290
     0
  0
SCALE
  5
1F4
102
{ACAD_REACTORS
330
1E0
102
}
330
1E0
100
AcDbScale
 70
     0
300
1" = 1'-0"
140
1.0
141
12.0
290
     0
  0
SCALE
  5
1F5
102
{ACAD_REACTORS
330
1E0
102
}
330
1E0
100
AcDbScale
 70
     0
300
1 1/2" = 1'-0"
140
1.5
141
12.0
290
     0
  0
SCALE
  5
1F6
102
{ACAD_REACTORS
330
1E0
102
}
330
1E0
100
AcDbScale
 70
     0
300
3" = 1'-0"
140
3.0
141
12.0
290
     0
  0
SCALE
  5
1F7
102
{ACAD_REACTORS
330
1E0
102
}
330
1E0
100
AcDbScale
 70
     0
300
6" = 1'-0"
140
6.0
141
12.0
290
     0
  0
SCALE
  5
1F8
102
{ACAD_REACTORS
330
1E0
102
}
330
1E0
100
AcDbScale
 70
     0
300
1'-0" = 1'-0"
140
12.0
141
12.0
290
     1
  0
TABLESTYLE
  5
1E6
102
{ACAD_XDICTIONARY
360
1E7
102
}
102
{ACAD_REACTORS
330
1E1
102
}
330
1E1
100
AcDbTableStyle
  3
Standard
 70
     0
 71
     0
 40
0.06
 41
0.06
280
     0
281
     0
  7
Standard
140
0.18
170
     2
 62
     0
 63
     7
283
     0
274
    -2
284
     1
 64
     0
275
    -2
285
     1
 65
     0
276
    -2
286
     1
 66
     0
277
    -2
287
     1
 67
     0
278
    -2
288
     1
 68
     0
279
    -2
289
     1
 69
     0
  7
Standard
140
0.25
170
     5
 62
     0
 63
     7
283
     0
274
    -2
284
     1
 64
     0
275
    -2
285
     1
 65
     0
276
    -2
286
     1
 66
     0
277
    -2
287
     1
 67
     0
278
    -2
288
     1
 68
     0
279
    -2
289
     1
 69
     0
  7
Standard
140
0.18
170
     5
 62
     0
 63
     7
283
     0
274
    -2
284
     1
 64
     0
275
    -2
285
     1
 65
     0
276
    -2
286
     1
 66
     0
277
    -2
287
     1
 67
     0
278
    -2
288
     1
 68
     0
279
    -2
289
     1
 69
     0
  0
VISUALSTYLE
  5
1C0
102
{ACAD_REACTORS
330
1C1
102
}
330
1C1
100
AcDbVisualStyle
  2
2dWireframe
 70
     4
 71
     0
 72
     2
 73
     0
 90
        0
 40
-0.6
 41
-30.0
 62
     5
 63
     7
 74
     1
 91
        4
 64
     7
 65
   257
 75
     1
175
     1
 42
1.0
 92
        0
 66
   257
 43
1.0
 76
     1
 77
     6
 78
     2
 67
     7
 79
     5
170
     0
171
     0
290
     0
174
     0
 93
        1
 44
0.0
173
     0
291
     0
 45
0.0
1001
ACAD
1000
AcDbSavedByObjectVersion
1070
     0
  0
VISUALSTYLE
  5
1E9
102
{ACAD_REACTORS
330
1C1
102
}
330
1C1
100
AcDbVisualStyle
  2
3dWireframe
 70
     5
 71
     0
 72
     2
 73
     0
 90
        0
 40
-0.6
 41
-30.0
 62
     5
 63
     7
 74
     1
 91
        4
 64
     7
 65
   257
 75
     1
175
     1
 42
1.0
 92
        0
 66
   257
 43
1.0
 76
     1
 77
     6
 78
     2
 67
     7
 79
     5
170
     0
171
     0
290
     0
174
     0
 93
        1
 44
0.0
173
     0
291
     0
 45
0.0
1001
ACAD
1000
AcDbSavedByObjectVersion
1070
     0
  0
VISUALSTYLE
  5
1E8
102
{ACAD_REACTORS
330
1C1
102
}
330
1C1
100
AcDbVisualStyle
  2
Realistic
 70
     8
 71
     2
 72
     2
 73
     0
 90
        0
 40
-0.6
 41
-30.0
 62
     5
 63
     7
 74
     1
 91
        0
 64
     7
 65
   257
 75
     1
175
     1
 42
1.0
 92
        8
 66
     8
 43
1.0
 76
     1
 77
     6
 78
     2
 67
     7
 79
     5
170
     0
171
     0
290
     0
174
     0
 93
       13
 44
0.0
173
     0
291
     0
 45
0.0
1001
ACAD
1000
AcDbSavedByObjectVersion
1070
     0
  0
DICTIONARYVAR
  5
1FF
102
{ACAD_REACTORS
330
1FB
102
}
330
1FB
100
DictionaryVariables
280
     0
  1
1/8" = 1'-0"
  0
DICTIONARYVAR
  5
1FD
102
{ACAD_REACTORS
330
1FB
102
}
330
1FB
100
DictionaryVariables
280
     0
  1
STANDARD
  0
DICTIONARYVAR
  5
1FC
102
{ACAD_REACTORS
330
1FB
102
}
330
1FB
100
DictionaryVariables
280
     0
  1
STANDARD
  0
DICTIONARYVAR
  5
203
102
{ACAD_REACTORS
330
1FB
102
}
330
1FB
100
DictionaryVariables
280
     0
  1
1
  0
DICTIONARYVAR
  5
202
102
{ACAD_REACTORS
330
1FB
102
}
330
1FB
100
DictionaryVariables
280
     0
  1
1
  0
DICTIONARYVAR
  5
201
102
{ACAD_REACTORS
330
1FB
102
}
330
1FB
100
DictionaryVariables
280
     0
  1
0
  0
DICTIONARYVAR
  5
1FE
102
{ACAD_REACTORS
330
1FB
102
}
330
1FB
100
DictionaryVariables
280
     0
  1
1
  0
DICTIONARYVAR
  5
200
102
{ACAD_REACTORS
330
1FB
102
}
330
1FB
100
DictionaryVariables
280
     0
  1
127
  0
DICTIONARY
  5
20C
330
1C6
100
AcDbDictionary
280
     1
281
     1
  3
ACAD_XREC_ROUNDTRIP
360
20D
  0
DICTIONARY
  5
20A
330
1BD
100
AcDbDictionary
280
     1
281
     1
  3
ACAD_XREC_ROUNDTRIP
360
20B
  0
DICTIONARY
  5
210
330
1DE
100
AcDbDictionary
280
     1
281
     1
  3
ACAD_XREC_ROUNDTRIP
360
211
  0
DICTIONARY
  5
20E
330
1DD
100
AcDbDictionary
280
     1
281
     1
  3
ACAD_XREC_ROUNDTRIP
360
20F
  0
DICTIONARY
  5
208
330
C
100
AcDbDictionary
280
     1
281
     1
  3
ACAD_XREC_ROUNDTRIP
360
209
  0
DICTIONARY
  5
1E7
330
1E6
100
AcDbDictionary
280
     1
281
     1
  3
ACAD_ROUNDTRIP_2008_TABLESTYLE_CELLSTYLEMAP
360
205
  3
ACAD_XREC_ROUNDTRIP
360
212
  0
XRECORD
  5
20D
102
{ACAD_REACTORS
330
20C
102
}
330
20C
100
AcDbXrecord
280
     1
102
SHADEPLOT
 70
     0
102
SHADEPLOTRESLEVEL
 70
     2
102
SHADEPLOTCUSTOMDPI
 70
   300
  0
XRECORD
  5
20B
102
{ACAD_REACTORS
330
20A
102
}
330
20A
100
AcDbXrecord
280
     1
102
SHADEPLOT
 70
     1
102
SHADEPLOTRESLEVEL
 70
     2
102
SHADEPLOTCUSTOMDPI
 70
   300
  0
XRECORD
  5
211
102
{ACAD_REACTORS
330
210
102
}
330
210
100
AcDbXrecord
280
     1
102
MATERIAL
148
0.0
149
0.0
149
0.0
 93
        0
 94
       63
282
     0
 72
     1
 77
     1
171
     1
175
     1
179
     1
273
     0
  0
XRECORD
  5
20F
102
{ACAD_REACTORS
330
20E
102
}
330
20E
100
AcDbXrecord
280
     1
102
MATERIAL
148
0.0
149
0.0
149
0.0
 93
        0
 94
       63
282
     0
 72
     1
 77
     1
171
     1
175
     1
179
     1
273
     0
  0
XRECORD
  5
209
102
{ACAD_REACTORS
330
208
102
}
330
208
100
AcDbXrecord
280
     1
102
MATERIAL
148
0.0
149
0.0
149
0.0
 93
        0
 94
       63
282
     0
 72
     1
 77
     1
171
     1
175
     1
179
     1
273
     0
  0
CELLSTYLEMAP
  5
205
102
{ACAD_REACTORS
330
1E7
102
}
330
1E7
100
AcDbCellStyleMap
 90
        3
300
CELLSTYLE
  1
TABLEFORMAT_BEGIN
 90
        5
170
     1
 91
        0
 92
    32768
 62
   257
 93
        1
300
CONTENTFORMAT
  1
CONTENTFORMAT_BEGIN
 90
        0
 91
        0
 92
        4
 93
        0
300

 40
0.0
140
1.0
 94
        5
 62
     0
340
1CD
144
0.25
309
CONTENTFORMAT_END
171
     0
 94
        6
 95
        1
302
GRIDFORMAT
  1
GRIDFORMAT_BEGIN
 90
        0
 91
        1
 62
     0
 92
       -2
340
0
 93
        0
 40
0.045
309
GRIDFORMAT_END
 95
        2
302
GRIDFORMAT
  1
GRIDFORMAT_BEGIN
 90
        0
 91
        1
 62
     0
 92
       -2
340
0
 93
        0
 40
0.045
309
GRIDFORMAT_END
 95
        4
302
GRIDFORMAT
  1
GRIDFORMAT_BEGIN
 90
        0
 91
        1
 62
     0
 92
       -2
340
0
 93
        0
 40
0.045
309
GRIDFORMAT_END
 95
        8
302
GRIDFORMAT
  1
GRIDFORMAT_BEGIN
 90
        0
 91
        1
 62
     0
 92
       -2
340
0
 93
        0
 40
0.045
309
GRIDFORMAT_END
 95
       16
302
GRIDFORMAT
  1
GRIDFORMAT_BEGIN
 90
        0
 91
        1
 62
     0
 92
       -2
340
0
 93
        0
 40
0.045
309
GRIDFORMAT_END
 95
       32
302
GRIDFORMAT
  1
GRIDFORMAT_BEGIN
 90
        0
 91
        1
 62
     0
 92
       -2
340
0
 93
        0
 40
0.045
309
GRIDFORMAT_END
309
TABLEFORMAT_END
  1
CELLSTYLE_BEGIN
 90
        1
 91
        1
300
_TITLE
309
CELLSTYLE_END
300
CELLSTYLE
  1
TABLEFORMAT_BEGIN
 90
        5
170
     1
 91
        0
 92
        0
 62
   257
 93
        1
300
CONTENTFORMAT
  1
CONTENTFORMAT_BEGIN
 90
        0
 91
        0
 92
        4
 93
        0
300

 40
0.0
140
1.0
 94
        5
 62
     0
340
1CD
144
0.18
309
CONTENTFORMAT_END
171
     0
 94
        6
 95
        1
302
GRIDFORMAT
  1
GRIDFORMAT_BEGIN
 90
        0
 91
        1
 62
     0
 92
       -2
340
0
 93
        0
 40
0.045
309
GRIDFORMAT_END
 95
        2
302
GRIDFORMAT
  1
GRIDFORMAT_BEGIN
 90
        0
 91
        1
 62
     0
 92
       -2
340
0
 93
        0
 40
0.045
309
GRIDFORMAT_END
 95
        4
302
GRIDFORMAT
  1
GRIDFORMAT_BEGIN
 90
        0
 91
        1
 62
     0
 92
       -2
340
0
 93
        0
 40
0.045
309
GRIDFORMAT_END
 95
        8
302
GRIDFORMAT
  1
GRIDFORMAT_BEGIN
 90
        0
 91
        1
 62
     0
 92
       -2
340
0
 93
        0
 40
0.045
309
GRIDFORMAT_END
 95
       16
302
GRIDFORMAT
  1
GRIDFORMAT_BEGIN
 90
        0
 91
        1
 62
     0
 92
       -2
340
0
 93
        0
 40
0.045
309
GRIDFORMAT_END
 95
       32
302
GRIDFORMAT
  1
GRIDFORMAT_BEGIN
 90
        0
 91
        1
 62
     0
 92
       -2
340
0
 93
        0
 40
0.045
309
GRIDFORMAT_END
309
TABLEFORMAT_END
  1
CELLSTYLE_BEGIN
 90
        2
 91
        1
300
_HEADER
309
CELLSTYLE_END
300
CELLSTYLE
  1
TABLEFORMAT_BEGIN
 90
        5
170
     1
 91
        0
 92
        0
 62
   257
 93
        1
300
CONTENTFORMAT
  1
CONTENTFORMAT_BEGIN
 90
        0
 91
        0
 92
        4
 93
        0
300

 40
0.0
140
1.0
 94
        2
 62
     0
340
1CD
144
0.18
309
CONTENTFORMAT_END
171
     0
 94
        6
 95
        1
302
GRIDFORMAT
  1
GRIDFORMAT_BEGIN
 90
        0
 91
        1
 62
     0
 92
       -2
340
0
 93
        0
 40
0.045
309
GRIDFORMAT_END
 95
        2
302
GRIDFORMAT
  1
GRIDFORMAT_BEGIN
 90
        0
 91
        1
 62
     0
 92
       -2
340
0
 93
        0
 40
0.045
309
GRIDFORMAT_END
 95
        4
302
GRIDFORMAT
  1
GRIDFORMAT_BEGIN
 90
        0
 91
        1
 62
     0
 92
       -2
340
0
 93
        0
 40
0.045
309
GRIDFORMAT_END
 95
        8
302
GRIDFORMAT
  1
GRIDFORMAT_BEGIN
 90
        0
 91
        1
 62
     0
 92
       -2
340
0
 93
        0
 40
0.045
309
GRIDFORMAT_END
 95
       16
302
GRIDFORMAT
  1
GRIDFORMAT_BEGIN
 90
        0
 91
        1
 62
     0
 92
       -2
340
0
 93
        0
 40
0.045
309
GRIDFORMAT_END
 95
       32
302
GRIDFORMAT
  1
GRIDFORMAT_BEGIN
 90
        0
 91
        1
 62
     0
 92
       -2
340
0
 93
        0
 40
0.045
309
GRIDFORMAT_END
309
TABLEFORMAT_END
  1
CELLSTYLE_BEGIN
 90
        3
 91
        2
300
_DATA
309
CELLSTYLE_END
  0
XRECORD
  5
212
102
{ACAD_REACTORS
330
1E7
102
}
330
1E7
100
AcDbXrecord
280
     1
102
ACAD_ROUNDTRIP_PRE2007_TABLESTYLE
 90
        4
 91
        0
  1

 92
        4
 93
        0
  2

 94
        4
 95
        0
  3

  0
ENDSEC
  0
EOF
