  0
SECTION
  2
HEADER
  9
$ACADVER
  1
AC1015
  9
$ACADMAINTVER
 70
    18
  9
$DWGCODEPAGE
  3
ANSI_1250
  9
$INSBASE
 10
0.0
 20
0.0
 30
0.0
  9
$EXTMIN
 10
1.000000000000000E+20
 20
1.000000000000000E+20
 30
1.000000000000000E+20
  9
$EXTMAX
 10
0.0
 20
0.0
 30
0.0
  9
$LIMMIN
 10
0.0
 20
0.0
  9
$LIMMAX
 10
12.0
 20
9.0
  9
$ORTHOMODE
 70
     1
  9
$REGENMODE
 70
     1
  9
$FILLMODE
 70
     1
  9
$QTEXTMODE
 70
     0
  9
$MIRRTEXT
 70
     0
  9
$LTSCALE
 40
75.0
  9
$ATTMODE
 70
     1
  9
$TEXTSIZE
 40
5.0
  9
$TRACEWID
 40
40.0
  9
$TEXTSTYLE
  7
ROMANS
  9
$CLAYER
  8
0Wymiary-PL
  9
$CELTYPE
  6
BYLAYER
  9
$CECOLOR
 62
   256
  9
$CELTSCALE
 40
4.0
  9
$DISPSILH
 70
     0
  9
$DIMSCALE
 40
1.0
  9
$DIMASZ
 40
8.0
  9
$DIMEXO
 40
43.0
  9
$DIMDLI
 40
42.42640687119285
  9
$DIMRND
 40
0.5
  9
$DIMDLE
 40
12.0
  9
$DIMEXE
 40
13.0
  9
$DIMTP
 40
0.0
  9
$DIMTM
 40
0.0
  9
$DIMTXT
 40
16.0
  9
$DIMCEN
 40
0.0
  9
$DIMTSZ
 40
0.0
  9
$DIMTOL
 70
     0
  9
$DIMLIM
 70
     0
  9
$DIMTIH
 70
     0
  9
$DIMTOH
 70
     0
  9
$DIMSE1
 70
     1
  9
$DIMSE2
 70
     1
  9
$DIMTAD
 70
     0
  9
$DIMZIN
 70
     8
  9
$DIMBLK
  1
B-DIM
  9
$DIMASO
 70
     1
  9
$DIMSHO
 70
     1
  9
$DIMPOST
  1

  9
$DIMAPOST
  1

  9
$DIMALT
 70
     0
  9
$DIMALTD
 70
     2
  9
$DIMALTF
 40
25.4
  9
$DIMLFAC
 40
1.0
  9
$DIMTOFL
 70
     1
  9
$DIMTVP
 40
1.0
  9
$DIMTIX
 70
     1
  9
$DIMSOXD
 70
     0
  9
$DIMSAH
 70
     0
  9
$DIMBLK1
  1

  9
$DIMBLK2
  1

  9
$DIMSTYLE
  2
100-archon
  9
$DIMCLRD
 70
     1
  9
$DIMCLRE
 70
     1
  9
$DIMCLRT
 70
   140
  9
$DIMTFAC
 40
1.0
  9
$DIMGAP
 40
4.0
  9
$DIMJUST
 70
     0
  9
$DIMSD1
 70
     0
  9
$DIMSD2
 70
     0
  9
$DIMTOLJ
 70
     1
  9
$DIMTZIN
 70
     0
  9
$DIMALTZ
 70
     0
  9
$DIMALTTZ
 70
     0
  9
$DIMUPT
 70
     0
  9
$DIMDEC
 70
     1
  9
$DIMTDEC
 70
     1
  9
$DIMALTU
 70
     2
  9
$DIMALTTD
 70
     2
  9
$DIMTXSTY
  7
ROMANS
  9
$DIMAUNIT
 70
     0
  9
$DIMADEC
 70
     0
  9
$DIMALTRND
 40
0.0
  9
$DIMAZIN
 70
     0
  9
$DIMDSEP
 70
    46
  9
$DIMATFIT
 70
     3
  9
$DIMFRAC
 70
     0
  9
$DIMLDRBLK
  1
Dot
  9
$DIMLUNIT
 70
     2
  9
$DIMLWD
 70
     5
  9
$DIMLWE
 70
    -2
  9
$DIMTMOVE
 70
     2
  9
$LUNITS
 70
     4
  9
$LUPREC
 70
     4
  9
$SKETCHINC
 40
0.1
  9
$FILLETRAD
 40
0.0
  9
$AUNITS
 70
     0
  9
$AUPREC
 70
     2
  9
$MENU
  1
acad
  9
$ELEVATION
 40
0.0
  9
$PELEVATION
 40
0.0
  9
$THICKNESS
 40
0.0
  9
$LIMCHECK
 70
     0
  9
$CHAMFERA
 40
30.0
  9
$CHAMFERB
 40
30.0
  9
$CHAMFERC
 40
0.0
  9
$CHAMFERD
 40
0.0
  9
$SKPOLY
 70
     0
  9
$TDCREATE
 40
2450817.525937848
  9
$TDUCREATE
 40
2450817.442604514
  9
$TDUPDATE
 40
2454977.642431088
  9
$TDUUPDATE
 40
2454977.559097755
  9
$TDINDWG
 40
19.7777818171
  9
$TDUSRTIMER
 40
19.7777818171
  9
$USRTIMER
 70
     1
  9
$ANGBASE
 50
0.0
  9
$ANGDIR
 70
     0
  9
$PDMODE
 70
     3
  9
$PDSIZE
 40
10.0
  9
$PLINEWID
 40
0.0
  9
$SPLFRAME
 70
     0
  9
$SPLINETYPE
 70
     6
  9
$SPLINESEGS
 70
     8
  9
$HANDSEED
  5
1F3
  9
$SURFTAB1
 70
     6
  9
$SURFTAB2
 70
     6
  9
$SURFTYPE
 70
     6
  9
$SURFU
 70
     6
  9
$SURFV
 70
     6
  9
$UCSBASE
  2

  9
$UCSNAME
  2

  9
$UCSORG
 10
0.0
 20
0.0
 30
0.0
  9
$UCSXDIR
 10
1.0
 20
0.0
 30
0.0
  9
$UCSYDIR
 10
0.0
 20
1.0
 30
0.0
  9
$UCSORTHOREF
  2

  9
$UCSORTHOVIEW
 70
     0
  9
$UCSORGTOP
 10
0.0
 20
0.0
 30
0.0
  9
$UCSORGBOTTOM
 10
0.0
 20
0.0
 30
0.0
  9
$UCSORGLEFT
 10
0.0
 20
0.0
 30
0.0
  9
$UCSORGRIGHT
 10
0.0
 20
0.0
 30
0.0
  9
$UCSORGFRONT
 10
0.0
 20
0.0
 30
0.0
  9
$UCSORGBACK
 10
0.0
 20
0.0
 30
0.0
  9
$PUCSBASE
  2

  9
$PUCSNAME
  2

  9
$PUCSORG
 10
0.0
 20
0.0
 30
0.0
  9
$PUCSXDIR
 10
1.0
 20
0.0
 30
0.0
  9
$PUCSYDIR
 10
0.0
 20
1.0
 30
0.0
  9
$PUCSORTHOREF
  2

  9
$PUCSORTHOVIEW
 70
     0
  9
$PUCSORGTOP
 10
0.0
 20
0.0
 30
0.0
  9
$PUCSORGBOTTOM
 10
0.0
 20
0.0
 30
0.0
  9
$PUCSORGLEFT
 10
0.0
 20
0.0
 30
0.0
  9
$PUCSORGRIGHT
 10
0.0
 20
0.0
 30
0.0
  9
$PUCSORGFRONT
 10
0.0
 20
0.0
 30
0.0
  9
$PUCSORGBACK
 10
0.0
 20
0.0
 30
0.0
  9
$USERI1
 70
     0
  9
$USERI2
 70
     0
  9
$USERI3
 70
     0
  9
$USERI4
 70
     0
  9
$USERI5
 70
     0
  9
$USERR1
 40
0.0
  9
$USERR2
 40
0.0
  9
$USERR3
 40
0.0
  9
$USERR4
 40
0.0
  9
$USERR5
 40
0.0
  9
$WORLDVIEW
 70
     1
  9
$SHADEDGE
 70
     3
  9
$SHADEDIF
 70
    70
  9
$TILEMODE
 70
     1
  9
$MAXACTVP
 70
    16
  9
$PINSBASE
 10
5931.669543547489
 20
-50.0
 30
10705.17123084718
  9
$PLIMCHECK
 70
     0
  9
$PEXTMIN
 10
-0.8001545588720091
 20
-0.8028074662216795
 30
-0.0000000000000053
  9
$PEXTMAX
 10
209.2126611125234
 20
296.2153175547517
 30
0.0000000000000099
  9
$PLIMMIN
 10
-0.7804205056966112
 20
-0.7779186537518399
  9
$PLIMMAX
 10
209.1929071310221
 20
296.1904041001544
  9
$UNITMODE
 70
     0
  9
$VISRETAIN
 70
     0
  9
$PLINEGEN
 70
     0
  9
$PSLTSCALE
 70
     0
  9
$TREEDEPTH
 70
  3020
  9
$CMLSTYLE
  2
STANDARD
  9
$CMLJUST
 70
     0
  9
$CMLSCALE
 40
1.0
  9
$PROXYGRAPHICS
 70
     1
  9
$MEASUREMENT
 70
     0
  9
$CELWEIGHT
370
    -1
  9
$ENDCAPS
280
     0
  9
$JOINSTYLE
280
     0
  9
$LWDISPLAY
290
     0
  9
$INSUNITS
 70
     1
  9
$HYPERLINKBASE
  1

  9
$STYLESHEET
  1

  9
$XEDIT
290
     1
  9
$CEPSNTYPE
380
     0
  9
$PSTYLEMODE
290
     1
  9
$FINGERPRINTGUID
  2
{CB145D0B-6F23-4FBD-8E8E-0B861C7103D5}
  9
$VERSIONGUID
  2
{E8C9ED1E-1529-42C0-A27F-D10A8BDC1318}
  9
$EXTNAMES
290
     1
  9
$PSVPSCALE
 40
0.0
  9
$OLESTARTUP
290
     0
  0
ENDSEC
  0
SECTION
  2
CLASSES
  0
CLASS
  1
DICTIONARYVAR
  2
AcDbDictionaryVar
  3
ObjectDBX Classes
 90
        0
280
     0
281
     0
  0
CLASS
  1
ACDBDICTIONARYWDFLT
  2
AcDbDictionaryWithDefault
  3
ObjectDBX Classes
 90
        0
280
     0
281
     0
  0
CLASS
  1
ACDBPLACEHOLDER
  2
AcDbPlaceHolder
  3
ObjectDBX Classes
 90
        0
280
     0
281
     0
  0
CLASS
  1
LAYOUT
  2
AcDbLayout
  3
ObjectDBX Classes
 90
        0
280
     0
281
     0
  0
CLASS
  1
AEC_VARS_DWG_SETUP
  2
AecDbVarsDwgSetup
  3
AecBase50|Product Desc: Autodesk Architectural Desktop 2007 |Company: Autodesk,Inc. |WEB Address: www.autodesk.com
 90
    32897
280
     0
281
     0
  0
CLASS
  1
AEC_DISP_REP_CONFIG
  2
AecDbDispRepConfig
  3
AecBase50|Product Desc: Autodesk Architectural Desktop 2007 |Company: Autodesk,Inc. |WEB Address: www.autodesk.com
 90
    32897
280
     0
281
     0
  0
CLASS
  1
AEC_DISP_REP_SET
  2
AecDbDispRepSet
  3
AecBase50|Product Desc: Autodesk Architectural Desktop 2007 |Company: Autodesk,Inc. |WEB Address: www.autodesk.com
 90
    32897
280
     0
281
     0
  0
CLASS
  1
AEC_DISP_REP_2D_SECTION
  2
AecDbDispRep2dSection
  3
AecBase50|Product Desc: Autodesk Architectural Desktop 2007 |Company: Autodesk,Inc. |WEB Address: www.autodesk.com
 90
    32897
280
     0
281
     0
  0
CLASS
  1
AEC_DISP_REP_ANCHOR_BUB_TO_GRID
  2
AecDbDispRepAnchorBubToGrid
  3
AecStructureBase50|Product Desc: Autodesk Architectural Desktop 2007 |Company: Autodesk,Inc. |WEB Address: www.autodesk.com
 90
    32897
280
     0
281
     0
  0
CLASS
  1
AEC_DISP_REP_ANCHOR_BUB_TO_GRID_MODEL
  2
AecDbDispRepAnchorBubToGridMdl
  3
AecStructureBase50|Product Desc: Autodesk Architectural Desktop 2007 |Company: Autodesk,Inc. |WEB Address: www.autodesk.com
 90
    32897
280
     0
281
     0
  0
CLASS
  1
AEC_DISP_REP_ANCHOR_ENT_TO_NODE
  2
AecDbDispRepAnchorEntToNode
  3
AecBaseEx50|Product Desc: Autodesk Architectural Desktop 2007 |Company: Autodesk,Inc. |WEB Address: www.autodesk.com
 90
    32897
280
     0
281
     0
  0
CLASS
  1
AEC_DISP_REP_ANCHOR_TAG_TO_ENT
  2
AecDbDispRepAnchorTagToEnt
  3
AecScheduleData50|Product Desc: Autodesk Architectural Desktop 2007 |Company: Autodesk,Inc. |WEB Address: www.autodesk.com
 90
    32897
280
     0
281
     0
  0
CLASS
  1
AEC_DISP_REP_AREA
  2
AecDbDispRepArea
  3
AecAreaCalculationBase50|Product Desc: Autodesk Architectural Desktop 2007 |Company: Autodesk,Inc. |WEB Address: www.autodesk.com
 90
    32897
280
     0
281
     0
  0
CLASS
  1
AEC_DISP_REP_AREA_DECOMPOSED
  2
AecDbDispRepAreaDecomposed
  3
AecAreaCalculationBase50|Product Desc: Autodesk Architectural Desktop 2007 |Company: Autodesk,Inc. |WEB Address: www.autodesk.com
 90
    32897
280
     0
281
     0
  0
CLASS
  1
AEC_DISP_REP_AREAGROUP
  2
AecDbDispRepAreaGroup
  3
AecAreaCalculationBase50|Product Desc: Autodesk Architectural Desktop 2007 |Company: Autodesk,Inc. |WEB Address: www.autodesk.com
 90
    32897
280
     0
281
     0
  0
CLASS
  1
AEC_DISP_REP_BDG_ELEVLINE_MODEL
  2
AecDbDispRepBdgElevLineModel
  3
AecArchBase50|Product Desc: Autodesk Architectural Desktop 2007 |Company: Autodesk,Inc. |WEB Address: www.autodesk.com
 90
    32897
280
     0
281
     0
  0
CLASS
  1
AEC_DISP_REP_BDG_SECTIONLINE_PLAN
  2
AecDbDispRepBdgElevLinePlan
  3
AecArchBase50|Product Desc: Autodesk Architectural Desktop 2007 |Company: Autodesk,Inc. |WEB Address: www.autodesk.com
 90
    32897
280
     0
281
     0
  0
CLASS
  1
AEC_DISP_REP_BDG_SECTIONLINE_MODEL
  2
AecDbDispRepBdgSectionLineModel
  3
AecArchBase50|Product Desc: Autodesk Architectural Desktop 2007 |Company: Autodesk,Inc. |WEB Address: www.autodesk.com
 90
    32897
280
     0
281
     0
  0
CLASS
  1
AEC_DISP_REP_BDG_SECTIONLINE_PLAN
  2
AecDbDispRepBdgSectionLinePlan
  3
AecArchBase50|Product Desc: Autodesk Architectural Desktop 2007 |Company: Autodesk,Inc. |WEB Address: www.autodesk.com
 90
    32897
280
     0
281
     0
  0
CLASS
  1
AEC_DISP_REP_BDG_SECTION_SUBDIV
  2
AecDbDispRepBdgSectionSubDiv
  3
AecArchBase50|Product Desc: Autodesk Architectural Desktop 2007 |Company: Autodesk,Inc. |WEB Address: www.autodesk.com
 90
    32897
280
     0
281
     0
  0
CLASS
  1
AEC_DISP_REP_CAMERA
  2
AecDbDispRepCamera
  3
AecBase50|Product Desc: Autodesk Architectural Desktop 2007 |Company: Autodesk,Inc. |WEB Address: www.autodesk.com
 90
    32897
280
     0
281
     0
  0
CLASS
  1
AEC_DISP_REP_CEILING_GRID
  2
AecDbDispRepCeilingGrid
  3
AecArchBase50|Product Desc: Autodesk Architectural Desktop 2007 |Company: Autodesk,Inc. |WEB Address: www.autodesk.com
 90
    33661
280
     0
281
     0
  0
CLASS
  1
AEC_DISP_REP_CEILING_GRID_MODEL
  2
AecDbDispRepCeilingGridModel
  3
AecArchBase50|Product Desc: Autodesk Architectural Desktop 2007 |Company: Autodesk,Inc. |WEB Address: www.autodesk.com
 90
    32897
280
     0
281
     0
  0
CLASS
  1
AEC_DISP_REP_CEILING_GRID_RCP
  2
AecDbDispRepCeilingGridRcp
  3
AecArchBase50|Product Desc: Autodesk Architectural Desktop 2007 |Company: Autodesk,Inc. |WEB Address: www.autodesk.com
 90
    32897
280
     0
281
     0
  0
CLASS
  1
AEC_DISP_REP_CLIP_VOLUME_MODEL
  2
AecDbDispRepClipVolModel
  3
AecBase50|Product Desc: Autodesk Architectural Desktop 2007 |Company: Autodesk,Inc. |WEB Address: www.autodesk.com
 90
    32897
280
     0
281
     0
  0
CLASS
  1
AEC_DISP_REP_CLIP_VOLUME_PLAN
  2
AecDbDispRepClipVolPlan
  3
AecBase50|Product Desc: Autodesk Architectural Desktop 2007 |Company: Autodesk,Inc. |WEB Address: www.autodesk.com
 90
    32897
280
     0
281
     0
  0
CLASS
  1
AEC_DISP_REP_CLIP_VOLUME_RESULT_SUBDIV
  2
AecDbDispRepClipVolResSubDiv
  3
AecBase50|Product Desc: Autodesk Architectural Desktop 2007 |Company: Autodesk,Inc. |WEB Address: www.autodesk.com
 90
    32897
280
     0
281
     0
  0
CLASS
  1
AEC_DISP_REP_CLIP_VOLUME_RESULT
  2
AecDbDispRepClipVolResult
  3
AecBase50|Product Desc: Autodesk Architectural Desktop 2007 |Company: Autodesk,Inc. |WEB Address: www.autodesk.com
 90
    32897
280
     0
281
     0
  0
CLASS
  1
AEC_DISP_REP_COLUMN_GRID
  2
AecDbDispRepColumnGrid
  3
AecStructureBase50|Product Desc: Autodesk Architectural Desktop 2007 |Company: Autodesk,Inc. |WEB Address: www.autodesk.com
 90
    32897
280
     0
281
     0
  0
CLASS
  1
AEC_DISP_REP_COLUMN_GRID_MODEL
  2
AecDbDispRepColumnGridModel
  3
AecStructureBase50|Product Desc: Autodesk Architectural Desktop 2007 |Company: Autodesk,Inc. |WEB Address: www.autodesk.com
 90
    32897
280
     0
281
     0
  0
CLASS
  1
AEC_DISP_REP_CURTAIN_WALL_LAYOUT_MODEL
  2
AecDbDispRepCurtainWallLayoutModel
  3
AecArchBase50|Product Desc: Autodesk Architectural Desktop 2007 |Company: Autodesk,Inc. |WEB Address: www.autodesk.com
 90
    32897
280
     0
281
     0
  0
CLASS
  1
AEC_DISP_REP_CURTAIN_WALL_LAYOUT_PLAN
  2
AecDbDispRepCurtainWallLayoutPlan
  3
AecArchBase50|Product Desc: Autodesk Architectural Desktop 2007 |Company: Autodesk,Inc. |WEB Address: www.autodesk.com
 90
    32897
280
     0
281
     0
  0
CLASS
  1
AEC_DISP_REP_CURTAIN_WALL_UNIT_MODEL
  2
AecDbDispRepCurtainWallUnitModel
  3
AecArchBase50|Product Desc: Autodesk Architectural Desktop 2007 |Company: Autodesk,Inc. |WEB Address: www.autodesk.com
 90
    32897
280
     0
281
     0
  0
CLASS
  1
AEC_DISP_REP_CURTAIN_WALL_UNIT_PLAN
  2
AecDbDispRepCurtainWallUnitPlan
  3
AecArchBase50|Product Desc: Autodesk Architectural Desktop 2007 |Company: Autodesk,Inc. |WEB Address: www.autodesk.com
 90
    32897
280
     0
281
     0
  0
CLASS
  1
AEC_DB_DISP_REP_DIM_GROUP_PLAN
  2
AecDbDispRepDimGroupPlan
  3
AecArchDACHBase50|Product Desc: Autodesk Architectural Desktop 2007 |Company: Autodesk,Inc. |WEB Address: www.autodesk.com
 90
    32897
280
     0
281
     0
  0
CLASS
  1
AEC_DISP_REP_DOOR_MODEL
  2
AecDbDispRepDoorModel
  3
AecArchBase50|Product Desc: Autodesk Architectural Desktop 2007 |Company: Autodesk,Inc. |WEB Address: www.autodesk.com
 90
    32897
280
     0
281
     0
  0
CLASS
  1
AEC_DISP_REP_DOOR_NOMINAL
  2
AecDbDispRepDoorNominal
  3
AecArchBase50|Product Desc: Autodesk Architectural Desktop 2007 |Company: Autodesk,Inc. |WEB Address: www.autodesk.com
 90
    32897
280
     0
281
     0
  0
CLASS
  1
AEC_DISP_REP_DOOR_PLAN
  2
AecDbDispRepDoorPlan
  3
AecArchBase50|Product Desc: Autodesk Architectural Desktop 2007 |Company: Autodesk,Inc. |WEB Address: www.autodesk.com
 90
    32897
280
     0
281
     0
  0
CLASS
  1
AEC_DISP_REP_EDITINPLACEPROFILE
  2
AecDbDispRepEditInPlaceProfile
  3
AecBase50|Product Desc: Autodesk Architectural Desktop 2007 |Company: Autodesk,Inc. |WEB Address: www.autodesk.com
 90
    32897
280
     0
281
     0
  0
CLASS
  1
AEC_DISP_REP_ENT_REF
  2
AecDbDispRepEntRef
  3
AecBase50|Product Desc: Autodesk Architectural Desktop 2007 |Company: Autodesk,Inc. |WEB Address: www.autodesk.com
 90
    32897
280
     0
281
     0
  0
CLASS
  1
AEC_DISP_REP_LAYOUT_CURVE
  2
AecDbDispRepLayoutCurve
  3
AecBase50|Product Desc: Autodesk Architectural Desktop 2007 |Company: Autodesk,Inc. |WEB Address: www.autodesk.com
 90
    32897
280
     0
281
     0
  0
CLASS
  1
AEC_DISP_REP_LAYOUT_GRID2D
  2
AecDbDispRepLayoutGrid2d
  3
AecBase50|Product Desc: Autodesk Architectural Desktop 2007 |Company: Autodesk,Inc. |WEB Address: www.autodesk.com
 90
    32897
280
     0
281
     0
  0
CLASS
  1
AEC_DISP_REP_LAYOUT_GRID3D
  2
AecDbDispRepLayoutGrid3d
  3
AecBase50|Product Desc: Autodesk Architectural Desktop 2007 |Company: Autodesk,Inc. |WEB Address: www.autodesk.com
 90
    32897
280
     0
281
     0
  0
CLASS
  1
AEC_DISP_REP_MASKBLOCK_REF
  2
AecDbDispRepMaskBlockRef
  3
AecBase50|Product Desc: Autodesk Architectural Desktop 2007 |Company: Autodesk,Inc. |WEB Address: www.autodesk.com
 90
    32897
280
     0
281
     0
  0
CLASS
  1
AEC_DISP_REP_MASKBLOCK_REF_RCP
  2
AecDbDispRepMaskBlockRefRcp
  3
AecArchBase50|Product Desc: Autodesk Architectural Desktop 2007 |Company: Autodesk,Inc. |WEB Address: www.autodesk.com
 90
    32897
280
     0
281
     0
  0
CLASS
  1
AEC_DISP_REP_MASS_ELEM_MODEL
  2
AecDbDispRepMassElemModel
  3
AecBaseEx50|Product Desc: Autodesk Architectural Desktop 2007 |Company: Autodesk,Inc. |WEB Address: www.autodesk.com
 90
    32897
280
     0
281
     0
  0
CLASS
  1
AEC_DISP_REP_MASS_ELEM_SCHEM
  2
AecDbDispRepMassElemSchem
  3
AecBaseEx50|Product Desc: Autodesk Architectural Desktop 2007 |Company: Autodesk,Inc. |WEB Address: www.autodesk.com
 90
    32897
280
     0
281
     0
  0
CLASS
  1
AEC_DISP_REP_MASS_GROUP_MODEL
  2
AecDbDispRepMassGroupModel
  3
AecBaseEx50|Product Desc: Autodesk Architectural Desktop 2007 |Company: Autodesk,Inc. |WEB Address: www.autodesk.com
 90
    32897
280
     0
281
     0
  0
CLASS
  1
AEC_DISP_REP_MASS_GROUP_PLAN
  2
AecDbDispRepMassGroupPlan
  3
AecBaseEx50|Product Desc: Autodesk Architectural Desktop 2007 |Company: Autodesk,Inc. |WEB Address: www.autodesk.com
 90
    32897
280
     0
281
     0
  0
CLASS
  1
AEC_DISP_REP_MATERIAL
  2
AecDbDispRepMaterial
  3
AecBase50|Product Desc: Autodesk Architectural Desktop 2007 |Company: Autodesk,Inc. |WEB Address: www.autodesk.com
 90
    32897
280
     0
281
     0
  0
CLASS
  1
AEC_DISP_REP_MVBLOCK_REF
  2
AecDbDispRepMvBlockRef
  3
AecBase50|Product Desc: Autodesk Architectural Desktop 2007 |Company: Autodesk,Inc. |WEB Address: www.autodesk.com
 90
    32897
280
     0
281
     0
  0
CLASS
  1
AEC_DISP_REP_MVBLOCK_REF_MODEL
  2
AecDbDispRepMvBlockRefModel
  3
AecBase50|Product Desc: Autodesk Architectural Desktop 2007 |Company: Autodesk,Inc. |WEB Address: www.autodesk.com
 90
    32897
280
     0
281
     0
  0
CLASS
  1
AEC_DISP_REP_OPENING
  2
AecDbDispRepOpening
  3
AecArchBase50|Product Desc: Autodesk Architectural Desktop 2007 |Company: Autodesk,Inc. |WEB Address: www.autodesk.com
 90
    32897
280
     0
281
     0
  0
CLASS
  1
AEC_DISP_REP_OPENING_MODEL
  2
AecDbDispRepOpeningModel
  3
AecArchBase50|Product Desc: Autodesk Architectural Desktop 2007 |Company: Autodesk,Inc. |WEB Address: www.autodesk.com
 90
    32897
280
     0
281
     0
  0
CLASS
  1
AEC_DISP_REP_POLYGON_MODEL
  2
AecDbDispRepPolygonModel
  3
AecBaseEx50|Product Desc: Autodesk Architectural Desktop 2007 |Company: Autodesk,Inc. |WEB Address: www.autodesk.com
 90
    32897
280
     0
281
     0
  0
CLASS
  1
AEC_DISP_REP_RAILING_MODEL
  2
AecDbDispRepRailingModel
  3
AecArchBase50|Product Desc: Autodesk Architectural Desktop 2007 |Company: Autodesk,Inc. |WEB Address: www.autodesk.com
 90
    32897
280
     0
281
     0
  0
CLASS
  1
AEC_DISP_REP_RAILING_PLAN
  2
AecDbDispRepRailingPlan
  3
AecArchBase50|Product Desc: Autodesk Architectural Desktop 2007 |Company: Autodesk,Inc. |WEB Address: www.autodesk.com
 90
    32897
280
     0
281
     0
  0
CLASS
  1
AEC_DISP_REP_ROOF_MODEL
  2
AecDbDispRepRoofModel
  3
AecArchBase50|Product Desc: Autodesk Architectural Desktop 2007 |Company: Autodesk,Inc. |WEB Address: www.autodesk.com
 90
    32897
280
     0
281
     0
  0
CLASS
  1
AEC_DISP_REP_ROOF_PLAN
  2
AecDbDispRepRoofPlan
  3
AecArchBase50|Product Desc: Autodesk Architectural Desktop 2007 |Company: Autodesk,Inc. |WEB Address: www.autodesk.com
 90
    32897
280
     0
281
     0
  0
CLASS
  1
AEC_DISP_REP_ROOFSLAB_MODEL
  2
AecDbDispRepRoofSlabModel
  3
AecArchBase50|Product Desc: Autodesk Architectural Desktop 2007 |Company: Autodesk,Inc. |WEB Address: www.autodesk.com
 90
    32897
280
     0
281
     0
  0
CLASS
  1
AEC_DISP_REP_ROOFSLAB_PLAN
  2
AecDbDispRepRoofSlabPlan
  3
AecArchBase50|Product Desc: Autodesk Architectural Desktop 2007 |Company: Autodesk,Inc. |WEB Address: www.autodesk.com
 90
    32897
280
     0
281
     0
  0
CLASS
  1
AEC_DISP_REP_SCHEDULE_TABLE
  2
AecDbDispRepScheduleTable
  3
AecSchedule50|Product Desc: Autodesk Architectural Desktop 2007 |Company: Autodesk,Inc. |WEB Address: www.autodesk.com
 90
    32897
280
     0
281
     0
  0
CLASS
  1
AEC_DISP_REP_SLAB_MODEL
  2
AecDbDispRepSlabModel
  3
AecArchBase50|Product Desc: Autodesk Architectural Desktop 2007 |Company: Autodesk,Inc. |WEB Address: www.autodesk.com
 90
    32897
280
     0
281
     0
  0
CLASS
  1
AEC_DISP_REP_SLAB_PLAN
  2
AecDbDispRepSlabPlan
  3
AecArchBase50|Product Desc: Autodesk Architectural Desktop 2007 |Company: Autodesk,Inc. |WEB Address: www.autodesk.com
 90
    32897
280
     0
281
     0
  0
CLASS
  1
AEC_DISP_REP_SLICE
  2
AecDbDispRepSlice
  3
AecBase50|Product Desc: Autodesk Architectural Desktop 2007 |Company: Autodesk,Inc. |WEB Address: www.autodesk.com
 90
    32897
280
     0
281
     0
  0
CLASS
  1
AEC_DISP_REP_SPACE_BOUNDARY_MODEL
  2
AecDbDispRepSpaceBoundaryModel
  3
AecArchBase50|Product Desc: Autodesk Architectural Desktop 2007 |Company: Autodesk,Inc. |WEB Address: www.autodesk.com
 90
    32897
280
     0
281
     0
  0
CLASS
  1
AEC_DISP_REP_SPACE_BOUNDARY_PLAN
  2
AecDbDispRepSpaceBoundaryPlan
  3
AecArchBase50|Product Desc: Autodesk Architectural Desktop 2007 |Company: Autodesk,Inc. |WEB Address: www.autodesk.com
 90
    32897
280
     0
281
     0
  0
CLASS
  1
AEC_DISP_REP_SPACE_BOUNDARY_SCHEM
  2
AecDbDispRepSpaceBoundarySketch
  3
AecArchBase50|Product Desc: Autodesk Architectural Desktop 2007 |Company: Autodesk,Inc. |WEB Address: www.autodesk.com
 90
    32897
280
     0
281
     0
  0
CLASS
  1
AEC_DISP_REP_SPACE_MODEL
  2
AecDbDispRepSpaceModel
  3
AecArchBase50|Product Desc: Autodesk Architectural Desktop 2007 |Company: Autodesk,Inc. |WEB Address: www.autodesk.com
 90
    32897
280
     0
281
     0
  0
CLASS
  1
AEC_DISP_REP_SPACE_PLAN
  2
AecDbDispRepSpacePlan
  3
AecArchBase50|Product Desc: Autodesk Architectural Desktop 2007 |Company: Autodesk,Inc. |WEB Address: www.autodesk.com
 90
    32897
280
     0
281
     0
  0
CLASS
  1
AEC_DISP_REP_STAIR_MODEL
  2
AecDbDispRepStairModel
  3
AecArchBase50|Product Desc: Autodesk Architectural Desktop 2007 |Company: Autodesk,Inc. |WEB Address: www.autodesk.com
 90
    32897
280
     0
281
     0
  0
CLASS
  1
AEC_DISP_REP_STAIR_PLAN
  2
AecDbDispRepStairPlan
  3
AecArchBase50|Product Desc: Autodesk Architectural Desktop 2007 |Company: Autodesk,Inc. |WEB Address: www.autodesk.com
 90
    32897
280
     0
281
     0
  0
CLASS
  1
AEC_DISP_REP_WALL_GRAPH
  2
AecDbDispRepWallGraph
  3
AecArchBase50|Product Desc: Autodesk Architectural Desktop 2007 |Company: Autodesk,Inc. |WEB Address: www.autodesk.com
 90
    32897
280
     0
281
     0
  0
CLASS
  1
AEC_DISP_REP_WALL_MODEL
  2
AecDbDispRepWallModel
  3
AecArchBase50|Product Desc: Autodesk Architectural Desktop 2007 |Company: Autodesk,Inc. |WEB Address: www.autodesk.com
 90
    32897
280
     0
281
     0
  0
CLASS
  1
AEC_DISP_REP_WALL_PLAN
  2
AecDbDispRepWallPlan
  3
AecArchBase50|Product Desc: Autodesk Architectural Desktop 2007 |Company: Autodesk,Inc. |WEB Address: www.autodesk.com
 90
    32897
280
     0
281
     0
  0
CLASS
  1
AEC_DISP_REP_WALL_SCHEM
  2
AecDbDispRepWallSchem
  3
AecArchBase50|Product Desc: Autodesk Architectural Desktop 2007 |Company: Autodesk,Inc. |WEB Address: www.autodesk.com
 90
    32897
280
     0
281
     0
  0
CLASS
  1
AEC_DISP_REP_WINDOW_ASSEMBLY_MODEL
  2
AecDbDispRepWindowAssemblyModel
  3
AecArchBase50|Product Desc: Autodesk Architectural Desktop 2007 |Company: Autodesk,Inc. |WEB Address: www.autodesk.com
 90
    32897
280
     0
281
     0
  0
CLASS
  1
AEC_DISP_REP_WINDOW_ASSEMBLY_PLAN
  2
AecDbDispRepWindowAssemblyPlan
  3
AecArchBase50|Product Desc: Autodesk Architectural Desktop 2007 |Company: Autodesk,Inc. |WEB Address: www.autodesk.com
 90
    32897
280
     0
281
     0
  0
CLASS
  1
AEC_AECDBDISPREPWINDOWASSEMBLYPLAN100
  2
AecDbDispRepWindowAssemblyPlan100
  3
AecArchDACHBase50|Product Desc: Autodesk Architectural Desktop 2007 |Company: Autodesk,Inc. |WEB Address: www.autodesk.com
 90
    32897
280
     0
281
     0
  0
CLASS
  1
AEC_DISP_REP_WINDOW_MODEL
  2
AecDbDispRepWindowModel
  3
AecArchBase50|Product Desc: Autodesk Architectural Desktop 2007 |Company: Autodesk,Inc. |WEB Address: www.autodesk.com
 90
    32897
280
     0
281
     0
  0
CLASS
  1
AEC_DISP_REP_WINDOW_NOMINAL
  2
AecDbDispRepWindowNominal
  3
AecArchBase50|Product Desc: Autodesk Architectural Desktop 2007 |Company: Autodesk,Inc. |WEB Address: www.autodesk.com
 90
    32897
280
     0
281
     0
  0
CLASS
  1
AEC_DISP_REP_WINDOW_PLAN
  2
AecDbDispRepWindowPlan
  3
AecArchBase50|Product Desc: Autodesk Architectural Desktop 2007 |Company: Autodesk,Inc. |WEB Address: www.autodesk.com
 90
    32897
280
     0
281
     0
  0
CLASS
  1
AECS_DISP_REP_MEMBER_LOGICAL
  2
AecsDbDispRepMemberLogical
  3
AecStructureBase50|Product Desc: Autodesk Architectural Desktop 2007 |Company: Autodesk,Inc. |WEB Address: www.autodesk.com
 90
    32897
280
     0
281
     0
  0
CLASS
  1
AECS_DISP_REP_MEMBER_MODEL_DESIGN
  2
AecsDbDispRepMemberModelDesign
  3
AecStructureBase50|Product Desc: Autodesk Architectural Desktop 2007 |Company: Autodesk,Inc. |WEB Address: www.autodesk.com
 90
    32897
280
     0
281
     0
  0
CLASS
  1
AECS_DISP_REP_MEMBER_PLAN_DESIGN
  2
AecsDbDispRepMemberPlanDesign
  3
AecStructureBase50|Product Desc: Autodesk Architectural Desktop 2007 |Company: Autodesk,Inc. |WEB Address: www.autodesk.com
 90
    32897
280
     0
281
     0
  0
CLASS
  1
AEC_DISP_PROPS_ENT
  2
AecDbDispPropsEnt
  3
AecBase50|Product Desc: Autodesk Architectural Desktop 2007 |Company: Autodesk,Inc. |WEB Address: www.autodesk.com
 90
    32897
280
     0
281
     0
  0
CLASS
  1
AEC_DISP_PROPS_CLIP_VOLUME
  2
AecDbDispPropsClipVol
  3
AecBase50|Product Desc: Autodesk Architectural Desktop 2007 |Company: Autodesk,Inc. |WEB Address: www.autodesk.com
 90
    32897
280
     0
281
     0
  0
CLASS
  1
AEC_DISP_PROPS_SLICE
  2
AecDbDispPropsSlice
  3
AecBase50|Product Desc: Autodesk Architectural Desktop 2007 |Company: Autodesk,Inc. |WEB Address: www.autodesk.com
 90
    32897
280
     0
281
     0
  0
CLASS
  1
AEC_DISP_PROPS_ROOFSLAB_PLAN
  2
AecDbDispPropsRoofSlabPlan
  3
AecArchBase50|Product Desc: Autodesk Architectural Desktop 2007 |Company: Autodesk,Inc. |WEB Address: www.autodesk.com
 90
    32897
280
     0
281
     0
  0
CLASS
  1
AEC_DISP_PROPS_GRID_ASSEMBLY_MODEL
  2
AecDbDispPropsGridAssemblyModel
  3
AecArchBase50|Product Desc: Autodesk Architectural Desktop 2007 |Company: Autodesk,Inc. |WEB Address: www.autodesk.com
 90
    32897
280
     0
281
     0
  0
CLASS
  1
AEC_DISP_PROPS_ROOF
  2
AecDbDispPropsRoof
  3
AecArchBase50|Product Desc: Autodesk Architectural Desktop 2007 |Company: Autodesk,Inc. |WEB Address: www.autodesk.com
 90
    32897
280
     0
281
     0
  0
CLASS
  1
AEC_DISP_PROPS_SPACE_MODEL
  2
AecDbDispPropsSpaceModel
  3
AecArchBase50|Product Desc: Autodesk Architectural Desktop 2007 |Company: Autodesk,Inc. |WEB Address: www.autodesk.com
 90
    32897
280
     0
281
     0
  0
CLASS
  1
AEC_DISP_PROPS_EDITINPLACEPROFILE_MODEL
  2
AecDbDispPropsEditInPlaceProfile
  3
AecBase50|Product Desc: Autodesk Architectural Desktop 2007 |Company: Autodesk,Inc. |WEB Address: www.autodesk.com
 90
    32897
280
     0
281
     0
  0
CLASS
  1
AEC_DISP_PROPS_DOOR
  2
AecDbDispPropsDoor
  3
AecArchBase50|Product Desc: Autodesk Architectural Desktop 2007 |Company: Autodesk,Inc. |WEB Address: www.autodesk.com
 90
    32897
280
     0
281
     0
  0
CLASS
  1
AEC_DISP_PROPS_MASKBLOCK
  2
AecDbDispPropsMaskBlock
  3
AecBase50|Product Desc: Autodesk Architectural Desktop 2007 |Company: Autodesk,Inc. |WEB Address: www.autodesk.com
 90
    32897
280
     0
281
     0
  0
CLASS
  1
AEC_DISP_PROPS_SPACE_PLAN
  2
AecDbDispPropsSpacePlan
  3
AecArchBase50|Product Desc: Autodesk Architectural Desktop 2007 |Company: Autodesk,Inc. |WEB Address: www.autodesk.com
 90
    32897
280
     0
281
     0
  0
CLASS
  1
AEC_DISP_PROPS_RAILING_PLAN
  2
AecDbDispPropsRailingPlan
  3
AecArchBase50|Product Desc: Autodesk Architectural Desktop 2007 |Company: Autodesk,Inc. |WEB Address: www.autodesk.com
 90
    32897
280
     0
281
     0
  0
CLASS
  1
AEC_DISP_PROPS_LAYOUT_GRID2D
  2
AecDbDispPropsLayoutGrid2d
  3
AecBase50|Product Desc: Autodesk Architectural Desktop 2007 |Company: Autodesk,Inc. |WEB Address: www.autodesk.com
 90
    32897
280
     0
281
     0
  0
CLASS
  1
AEC_DISP_PROPS_CLIP_VOLUME_RESULT
  2
AecDbDispPropsClipVolResSubDiv
  3
AecBase50|Product Desc: Autodesk Architectural Desktop 2007 |Company: Autodesk,Inc. |WEB Address: www.autodesk.com
 90
    32897
280
     0
281
     0
  0
CLASS
  1
AEC_DISP_PROPS_STAIR_MODEL
  2
AecDbDispPropsStairModel
  3
AecArchBase50|Product Desc: Autodesk Architectural Desktop 2007 |Company: Autodesk,Inc. |WEB Address: www.autodesk.com
 90
    32897
280
     0
281
     0
  0
CLASS
  1
AEC_DISP_PROPS_LAYOUT_CURVE
  2
AecDbDispPropsLayoutCurve
  3
AecBase50|Product Desc: Autodesk Architectural Desktop 2007 |Company: Autodesk,Inc. |WEB Address: www.autodesk.com
 90
    32897
280
     0
281
     0
  0
CLASS
  1
AEC_DISP_PROPS_POLYGON_MODEL
  2
AecDbDispPropsPolygonModel
  3
AecBaseEx50|Product Desc: Autodesk Architectural Desktop 2007 |Company: Autodesk,Inc. |WEB Address: www.autodesk.com
 90
    32897
280
     0
281
     0
  0
CLASS
  1
AEC_DISP_PROPS_MASS_GROUP
  2
AecDbDispPropsMassGroup
  3
AecBaseEx50|Product Desc: Autodesk Architectural Desktop 2007 |Company: Autodesk,Inc. |WEB Address: www.autodesk.com
 90
    32897
280
     0
281
     0
  0
CLASS
  1
AEC_DISP_PROPS_STAIR_PLAN
  2
AecDbDispPropsStairPlan
  3
AecArchBase50|Product Desc: Autodesk Architectural Desktop 2007 |Company: Autodesk,Inc. |WEB Address: www.autodesk.com
 90
    32897
280
     0
281
     0
  0
CLASS
  1
AEC_DISP_PROPS_OPENING
  2
AecDbDispPropsOpening
  3
AecArchBase50|Product Desc: Autodesk Architectural Desktop 2007 |Company: Autodesk,Inc. |WEB Address: www.autodesk.com
 90
    32897
280
     0
281
     0
  0
CLASS
  1
AEC_DISP_PROPS_WALL_GRAPH
  2
AecDbDispPropsWallGraph
  3
AecArchBase50|Product Desc: Autodesk Architectural Desktop 2007 |Company: Autodesk,Inc. |WEB Address: www.autodesk.com
 90
    32897
280
     0
281
     0
  0
CLASS
  1
AEC_DISP_PROPS_DOOR_NOMINAL
  2
AecDbDispPropsDoorNominal
  3
AecArchBase50|Product Desc: Autodesk Architectural Desktop 2007 |Company: Autodesk,Inc. |WEB Address: www.autodesk.com
 90
    32897
280
     0
281
     0
  0
CLASS
  1
AEC_DISP_PROPS_SLAB
  2
AecDbDispPropsSlab
  3
AecArchBase50|Product Desc: Autodesk Architectural Desktop 2007 |Company: Autodesk,Inc. |WEB Address: www.autodesk.com
 90
    32897
280
     0
281
     0
  0
CLASS
  1
AEC_DISP_PROPS_WALL_MODEL
  2
AecDbDispPropsWallModel
  3
AecArchBase50|Product Desc: Autodesk Architectural Desktop 2007 |Company: Autodesk,Inc. |WEB Address: www.autodesk.com
 90
    32897
280
     0
281
     0
  0
CLASS
  1
AEC_DISP_PROPS_MATERIAL
  2
AecDbDispPropsMaterial
  3
AecBase50|Product Desc: Autodesk Architectural Desktop 2007 |Company: Autodesk,Inc. |WEB Address: www.autodesk.com
 90
    32897
280
     0
281
     0
  0
CLASS
  1
AEC_DISP_PROPS_WINDOW
  2
AecDbDispPropsWindow
  3
AecArchBase50|Product Desc: Autodesk Architectural Desktop 2007 |Company: Autodesk,Inc. |WEB Address: www.autodesk.com
 90
    32897
280
     0
281
     0
  0
CLASS
  1
AEC_DISP_PROPS_LAYOUT_GRID3D
  2
AecDbDispPropsLayoutGrid3d
  3
AecBase50|Product Desc: Autodesk Architectural Desktop 2007 |Company: Autodesk,Inc. |WEB Address: www.autodesk.com
 90
    32897
280
     0
281
     0
  0
CLASS
  1
AEC_DISP_PROPS_GRID_ASSEMBLY_PLAN
  2
AecDbDispPropsGridAssemblyPlan
  3
AecArchBase50|Product Desc: Autodesk Architectural Desktop 2007 |Company: Autodesk,Inc. |WEB Address: www.autodesk.com
 90
    32897
280
     0
281
     0
  0
CLASS
  1
AEC_DISP_PROPS_WALL_SCHEM
  2
AecDbDispPropsWallSchem
  3
AecArchBase50|Product Desc: Autodesk Architectural Desktop 2007 |Company: Autodesk,Inc. |WEB Address: www.autodesk.com
 90
    32897
280
     0
281
     0
  0
CLASS
  1
AEC_DISP_PROPS_WALL_PLAN
  2
AecDbDispPropsWallPlan
  3
AecArchBase50|Product Desc: Autodesk Architectural Desktop 2007 |Company: Autodesk,Inc. |WEB Address: www.autodesk.com
 90
    32897
280
     0
281
     0
  0
CLASS
  1
AEC_DISP_PROPS_SPACE_BOUNDARY
  2
AecDbDispPropsSpaceBoundary
  3
AecArchBase50|Product Desc: Autodesk Architectural Desktop 2007 |Company: Autodesk,Inc. |WEB Address: www.autodesk.com
 90
    32897
280
     0
281
     0
  0
CLASS
  1
AEC_DISP_PROPS_SLAB_PLAN
  2
AecDbDispPropsSlabPlan
  3
AecArchBase50|Product Desc: Autodesk Architectural Desktop 2007 |Company: Autodesk,Inc. |WEB Address: www.autodesk.com
 90
    32897
280
     0
281
     0
  0
CLASS
  1
AEC_DISP_PROPS_RAILING_MODEL
  2
AecDbDispPropsRailingModel
  3
AecArchBase50|Product Desc: Autodesk Architectural Desktop 2007 |Company: Autodesk,Inc. |WEB Address: www.autodesk.com
 90
    32897
280
     0
281
     0
  0
CLASS
  1
AEC_DISP_PROPS_MASS_ELEM_MODEL
  2
AecDbDispPropsMassElem
  3
AecBaseEx50|Product Desc: Autodesk Architectural Desktop 2007 |Company: Autodesk,Inc. |WEB Address: www.autodesk.com
 90
    32897
280
     0
281
     0
  0
CLASS
  1
AEC_DISP_PROPS_DIM
  2
AecDbDispPropsDimGroup
  3
AecArchDACHBase50|Product Desc: Autodesk Architectural Desktop 2007 |Company: Autodesk,Inc. |WEB Address: www.autodesk.com
 90
    32897
280
     0
281
     0
  0
CLASS
  1
AEC_DISP_PROPS_ROOFSLAB
  2
AecDbDispPropsRoofSlab
  3
AecArchBase50|Product Desc: Autodesk Architectural Desktop 2007 |Company: Autodesk,Inc. |WEB Address: www.autodesk.com
 90
    32897
280
     0
281
     0
  0
CLASS
  1
AEC_DISP_PROPS_ENT_REF
  2
AecDbDispPropsEntRef
  3
AecBase50|Product Desc: Autodesk Architectural Desktop 2007 |Company: Autodesk,Inc. |WEB Address: www.autodesk.com
 90
    32897
280
     0
281
     0
  0
CLASS
  1
AEC_DISP_PROPS_2D_SECTION
  2
AecDbDispProps2dSection
  3
AecBase50|Product Desc: Autodesk Architectural Desktop 2007 |Company: Autodesk,Inc. |WEB Address: www.autodesk.com
 90
    32897
280
     0
281
     0
  0
CLASS
  1
AECS_DISP_PROPS_MEMBER_LOGICAL
  2
AecsDbDispPropsMemberLogical
  3
AecStructureBase50|Product Desc: Autodesk Architectural Desktop 2007 |Company: Autodesk,Inc. |WEB Address: www.autodesk.com
 90
    32897
280
     0
281
     0
  0
CLASS
  1
AEC_DISP_PROPS_AREA_DECOMPOSED
  2
AecDbDispPropsAreaDecomposed
  3
AecAreaCalculationBase50|Product Desc: Autodesk Architectural Desktop 2007 |Company: Autodesk,Inc. |WEB Address: www.autodesk.com
 90
    32897
280
     0
281
     0
  0
CLASS
  1
AEC_DISP_PROPS_CAMERA
  2
AecDbDispPropsCamera
  3
AecBase50|Product Desc: Autodesk Architectural Desktop 2007 |Company: Autodesk,Inc. |WEB Address: www.autodesk.com
 90
    32897
280
     0
281
     0
  0
CLASS
  1
AECS_DISP_PROPS_MEMBER
  2
AecsDbDispPropsMember
  3
AecStructureBase50|Product Desc: Autodesk Architectural Desktop 2007 |Company: Autodesk,Inc. |WEB Address: www.autodesk.com
 90
    32897
280
     0
281
     0
  0
CLASS
  1
AECS_DISP_PROPS_MEMBER_PLAN
  2
AecsDbDispPropsMemberPlan
  3
AecStructureBase50|Product Desc: Autodesk Architectural Desktop 2007 |Company: Autodesk,Inc. |WEB Address: www.autodesk.com
 90
    32897
280
     0
281
     0
  0
CLASS
  1
AEC_DISP_PROPS_AREAGROUP
  2
AecDbDispPropsAreaGroup
  3
AecAreaCalculationBase50|Product Desc: Autodesk Architectural Desktop 2007 |Company: Autodesk,Inc. |WEB Address: www.autodesk.com
 90
    32897
280
     0
281
     0
  0
CLASS
  1
AEC_DISP_PROPS_WINDOW_NOMINAL
  2
AecDbDispPropsWindowNominal
  3
AecArchBase50|Product Desc: Autodesk Architectural Desktop 2007 |Company: Autodesk,Inc. |WEB Address: www.autodesk.com
 90
    32897
280
     0
281
     0
  0
CLASS
  1
AEC_DISP_PROPS_AREA
  2
AecDbDispPropsArea
  3
AecAreaCalculationBase50|Product Desc: Autodesk Architectural Desktop 2007 |Company: Autodesk,Inc. |WEB Address: www.autodesk.com
 90
    32897
280
     0
281
     0
  0
CLASS
  1
AEC_DISP_PROPS_SCHEDULE_TABLE
  2
AecDbDispPropsScheduleTable
  3
AecSchedule50|Product Desc: Autodesk Architectural Desktop 2007 |Company: Autodesk,Inc. |WEB Address: www.autodesk.com
 90
    32897
280
     0
281
     0
  0
CLASS
  1
AEC_LAYERKEY_STYLE
  2
AecDbLayerKeyStyle
  3
AecBase50|Product Desc: Autodesk Architectural Desktop 2007 |Company: Autodesk,Inc. |WEB Address: www.autodesk.com
 90
    32897
280
     0
281
     0
  0
CLASS
  1
AEC_VARS_ARCHBASE
  2
AecDbVarsArchBase
  3
AecArchBase50|Product Desc: Autodesk Architectural Desktop 2007 |Company: Autodesk,Inc. |WEB Address: www.autodesk.com
 90
    32897
280
     0
281
     0
  0
CLASS
  1
AEC_VARS_MUNICH
  2
AecDbVarsMunich
  3
AecArchDACHBase50|Product Desc: Autodesk Architectural Desktop 2007 |Company: Autodesk,Inc. |WEB Address: www.autodesk.com
 90
    32897
280
     0
281
     0
  0
CLASS
  1
AEC_NOTIFICATION_TRACKER
  2
AecDbNotificationTracker
  3
AecBase50|Product Desc: Autodesk Architectural Desktop 2007 |Company: Autodesk,Inc. |WEB Address: www.autodesk.com
 90
    32897
280
     0
281
     0
  0
CLASS
  1
AEC_DISP_REP_ANCHOR
  2
AecDbDispRepAnchor
  3
AecBase50|Product Desc: Autodesk Architectural Desktop 2007 |Company: Autodesk,Inc. |WEB Address: www.autodesk.com
 90
    32897
280
     0
281
     0
  0
CLASS
  1
AEC_DISP_REP_POLYGON_TRUECOLOUR
  2
AecDbDispRepPolygonTrueColour
  3
AecBaseEx50|Product Desc: Autodesk Architectural Desktop 2007 |Company: Autodesk,Inc. |WEB Address: www.autodesk.com
 90
    32897
280
     0
281
     0
  0
CLASS
  1
AEC_DISP_PROPS_POLYGON_TRUECOLOUR
  2
AecDbDispPropsPolygonTrueColour
  3
AecBaseEx50|Product Desc: Autodesk Architectural Desktop 2007 |Company: Autodesk,Inc. |WEB Address: www.autodesk.com
 90
    32897
280
     0
281
     0
  0
CLASS
  1
AEC_DISP_REP_BDG_ELEVLINE_RCP
  2
AecDbDispRepBdgElevLineRcp
  3
AecArchBase50|Product Desc: Autodesk Architectural Desktop 2007 |Company: Autodesk,Inc. |WEB Address: www.autodesk.com
 90
    32897
280
     0
281
     0
  0
CLASS
  1
AEC_DISP_REP_BDG_SECTIONLINE_RCP
  2
AecDbDispRepBdgSectionLineRcp
  3
AecArchBase50|Product Desc: Autodesk Architectural Desktop 2007 |Company: Autodesk,Inc. |WEB Address: www.autodesk.com
 90
    32897
280
     0
281
     0
  0
CLASS
  1
AEC_DISP_REP_BDG_SECTION_MODEL
  2
AecDbDispRepBdgSectionModel
  3
AecArchBase50|Product Desc: Autodesk Architectural Desktop 2007 |Company: Autodesk,Inc. |WEB Address: www.autodesk.com
 90
    32897
280
     0
281
     0
  0
CLASS
  1
AEC_DISP_REP_DOOR_ELEV
  2
AecDbDispRepDoorElev
  3
AecArchBase50|Product Desc: Autodesk Architectural Desktop 2007 |Company: Autodesk,Inc. |WEB Address: www.autodesk.com
 90
    32897
280
     0
281
     0
  0
CLASS
  1
AEC_DISP_REP_DOOR_RCP
  2
AecDbDispRepDoorRcp
  3
AecArchBase50|Product Desc: Autodesk Architectural Desktop 2007 |Company: Autodesk,Inc. |WEB Address: www.autodesk.com
 90
    32897
280
     0
281
     0
  0
CLASS
  1
AEC_DISP_REP_DOOR_THRESHOLD_PLAN
  2
AecDbDispRepDoorThresholdPlan
  3
AecArchBase50|Product Desc: Autodesk Architectural Desktop 2007 |Company: Autodesk,Inc. |WEB Address: www.autodesk.com
 90
    32897
280
     0
281
     0
  0
CLASS
  1
AEC_DISP_PROPS_DOOR_THRESHOLD_PLAN
  2
AecDbDispPropsDoorThresholdPlan
  3
AecArchBase50|Product Desc: Autodesk Architectural Desktop 2007 |Company: Autodesk,Inc. |WEB Address: www.autodesk.com
 90
    32897
280
     0
281
     0
  0
CLASS
  1
AEC_DISP_REP_MASS_ELEM_RCP
  2
AecDbDispRepMassElemRcp
  3
AecArchBase50|Product Desc: Autodesk Architectural Desktop 2007 |Company: Autodesk,Inc. |WEB Address: www.autodesk.com
 90
    32897
280
     0
281
     0
  0
CLASS
  1
AEC_DISP_REP_MASS_GROUP_RCP
  2
AecDbDispRepMassGroupRcp
  3
AecArchBase50|Product Desc: Autodesk Architectural Desktop 2007 |Company: Autodesk,Inc. |WEB Address: www.autodesk.com
 90
    32897
280
     0
281
     0
  0
CLASS
  1
AEC_DISP_REP_MVBLOCK_REF_RCP
  2
AecDbDispRepMvBlockRefRcp
  3
AecArchBase50|Product Desc: Autodesk Architectural Desktop 2007 |Company: Autodesk,Inc. |WEB Address: www.autodesk.com
 90
    32897
280
     0
281
     0
  0
CLASS
  1
AEC_DISP_REP_ROOF_RCP
  2
AecDbDispRepRoofRcp
  3
AecArchBase50|Product Desc: Autodesk Architectural Desktop 2007 |Company: Autodesk,Inc. |WEB Address: www.autodesk.com
 90
    32897
280
     0
281
     0
  0
CLASS
  1
AEC_DISP_REP_SPACE_BOUNDARY_DIAGRAM
  2
AecDbDispRepSpaceBoundaryDgrm
  3
AecArchBase50|Product Desc: Autodesk Architectural Desktop 2007 |Company: Autodesk,Inc. |WEB Address: www.autodesk.com
 90
    32897
280
     0
281
     0
  0
CLASS
  1
AEC_DISP_REP_SPACE_RCP
  2
AecDbDispRepSpaceRcp
  3
AecArchBase50|Product Desc: Autodesk Architectural Desktop 2007 |Company: Autodesk,Inc. |WEB Address: www.autodesk.com
 90
    32897
280
     0
281
     0
  0
CLASS
  1
AEC_DISP_REP_SPACE_VOLUME
  2
AecDbDispRepSpaceVolume
  3
AecArchBase50|Product Desc: Autodesk Architectural Desktop 2007 |Company: Autodesk,Inc. |WEB Address: www.autodesk.com
 90
    32897
280
     0
281
     0
  0
CLASS
  1
AEC_DISP_REP_STAIR_PLAN_OVERLAPPING
  2
AecDbDispRepStairPlanOverlapping
  3
AecArchBase50|Product Desc: Autodesk Architectural Desktop 2007 |Company: Autodesk,Inc. |WEB Address: www.autodesk.com
 90
    32897
280
     0
281
     0
  0
CLASS
  1
AEC_DISP_PROPS_STAIR_PLAN_OVERLAPPING
  2
AecDbDispPropsStairPlanOverlapping
  3
AecArchBase50|Product Desc: Autodesk Architectural Desktop 2007 |Company: Autodesk,Inc. |WEB Address: www.autodesk.com
 90
    32897
280
     0
281
     0
  0
CLASS
  1
AEC_DISP_REP_STAIR_RCP
  2
AecDbDispRepStairRcp
  3
AecArchBase50|Product Desc: Autodesk Architectural Desktop 2007 |Company: Autodesk,Inc. |WEB Address: www.autodesk.com
 90
    32897
280
     0
281
     0
  0
CLASS
  1
AEC_DISP_REP_WALL_RCP
  2
AecDbDispRepWallRcp
  3
AecArchBase50|Product Desc: Autodesk Architectural Desktop 2007 |Company: Autodesk,Inc. |WEB Address: www.autodesk.com
 90
    32897
280
     0
281
     0
  0
CLASS
  1
AEC_DISP_REP_WINDOWASSEMBLY_SILL_PLAN
  2
AecDbDispRepWindowAssemblySillPlan
  3
AecArchBase50|Product Desc: Autodesk Architectural Desktop 2007 |Company: Autodesk,Inc. |WEB Address: www.autodesk.com
 90
    32897
280
     0
281
     0
  0
CLASS
  1
AEC_DISP_PROPS_WINDOW_ASSEMBLY_SILL_PLAN
  2
AecDbDispPropsWindowAssemblySillPlan
  3
AecArchBase50|Product Desc: Autodesk Architectural Desktop 2007 |Company: Autodesk,Inc. |WEB Address: www.autodesk.com
 90
    32897
280
     0
281
     0
  0
CLASS
  1
AEC_DISP_REP_WINDOW_ELEV
  2
AecDbDispRepWindowElev
  3
AecArchBase50|Product Desc: Autodesk Architectural Desktop 2007 |Company: Autodesk,Inc. |WEB Address: www.autodesk.com
 90
    32897
280
     0
281
     0
  0
CLASS
  1
AEC_DISP_REP_WINDOW_RCP
  2
AecDbDispRepWindowRcp
  3
AecArchBase50|Product Desc: Autodesk Architectural Desktop 2007 |Company: Autodesk,Inc. |WEB Address: www.autodesk.com
 90
    32897
280
     0
281
     0
  0
CLASS
  1
AEC_DISP_REP_WINDOW_SILL_PLAN
  2
AecDbDispRepWindowSillPlan
  3
AecArchBase50|Product Desc: Autodesk Architectural Desktop 2007 |Company: Autodesk,Inc. |WEB Address: www.autodesk.com
 90
    32897
280
     0
281
     0
  0
CLASS
  1
AEC_DISP_PROPS_WINDOW_SILL_PLAN
  2
AecDbDispPropsWindowSillPlan
  3
AecArchBase50|Product Desc: Autodesk Architectural Desktop 2007 |Company: Autodesk,Inc. |WEB Address: www.autodesk.com
 90
    32897
280
     0
281
     0
  0
CLASS
  1
AEC_DISP_REP_ANCHOR_BUB_TO_GRID_RCP
  2
AecDbDispRepAnchorBubToGridRcp
  3
AecStructureBase50|Product Desc: Autodesk Architectural Desktop 2007 |Company: Autodesk,Inc. |WEB Address: www.autodesk.com
 90
    32897
280
     0
281
     0
  0
CLASS
  1
AEC_DISP_REP_COLUMN_GRID_RCP
  2
AecDbDispRepColumnGridRcp
  3
AecStructureBase50|Product Desc: Autodesk Architectural Desktop 2007 |Company: Autodesk,Inc. |WEB Address: www.autodesk.com
 90
    32897
280
     0
281
     0
  0
CLASS
  1
AECS_DISP_REP_MEMBER_ELEVATION_DESIGN
  2
AecsDbDispRepMemberElevationDesign
  3
AecStructureBase50|Product Desc: Autodesk Architectural Desktop 2007 |Company: Autodesk,Inc. |WEB Address: www.autodesk.com
 90
    32897
280
     0
281
     0
  0
CLASS
  1
AECS_DISP_PROPS_MEMBER_PROJECTED
  2
AecsDbDispPropsMemberProjected
  3
AecStructureBase50|Product Desc: Autodesk Architectural Desktop 2007 |Company: Autodesk,Inc. |WEB Address: www.autodesk.com
 90
    32897
280
     0
281
     0
  0
CLASS
  1
AECS_DISP_REP_MEMBER_ELEVATION_DETAIL
  2
AecsDbDispRepMemberElevationDetail
  3
AecStructureBase50|Product Desc: Autodesk Architectural Desktop 2007 |Company: Autodesk,Inc. |WEB Address: www.autodesk.com
 90
    32897
280
     0
281
     0
  0
CLASS
  1
AECS_DISP_REP_MEMBER_MODEL_DETAIL
  2
AecsDbDispRepMemberModelDetail
  3
AecStructureBase50|Product Desc: Autodesk Architectural Desktop 2007 |Company: Autodesk,Inc. |WEB Address: www.autodesk.com
 90
    32897
280
     0
281
     0
  0
CLASS
  1
AECS_DISP_REP_MEMBER_PLAN_DETAIL
  2
AecsDbDispRepMemberPlanDetail
  3
AecStructureBase50|Product Desc: Autodesk Architectural Desktop 2007 |Company: Autodesk,Inc. |WEB Address: www.autodesk.com
 90
    32897
280
     0
281
     0
  0
CLASS
  1
AECS_DISP_REP_MEMBER_PLAN_SKETCH
  2
AecsDbDispRepMemberPlanSketch
  3
AecStructureBase50|Product Desc: Autodesk Architectural Desktop 2007 |Company: Autodesk,Inc. |WEB Address: www.autodesk.com
 90
    32897
280
     0
281
     0
  0
CLASS
  1
AECS_DISP_PROPS_MEMBER_PLAN_SKETCH
  2
AecsDbDispPropsMemberPlanSketch
  3
AecStructureBase50|Product Desc: Autodesk Architectural Desktop 2007 |Company: Autodesk,Inc. |WEB Address: www.autodesk.com
 90
    32897
280
     0
281
     0
  0
CLASS
  1
AEC_AECDBDISPREPAREA100
  2
AecDbDispRepArea100
  3
AecArchDACHBase50|Product Desc: Autodesk Architectural Desktop 2007 |Company: Autodesk,Inc. |WEB Address: www.autodesk.com
 90
    32897
280
     0
281
     0
  0
CLASS
  1
AEC_AECDBDISPREPAREAGROUP100
  2
AecDbDispRepAreaGroup100
  3
AecArchDACHBase50|Product Desc: Autodesk Architectural Desktop 2007 |Company: Autodesk,Inc. |WEB Address: www.autodesk.com
 90
    32897
280
     0
281
     0
  0
CLASS
  1
AEC_AECDBDISPREPBDGELEVLINEPLAN100
  2
AecDbDispRepBdgElevLinePlan100
  3
AecArchDACHBase50|Product Desc: Autodesk Architectural Desktop 2007 |Company: Autodesk,Inc. |WEB Address: www.autodesk.com
 90
    32897
280
     0
281
     0
  0
CLASS
  1
AEC_AECDBDISPREPBDGSECTIONLINEPLAN100
  2
AecDbDispRepBdgSectionLinePlan100
  3
AecArchDACHBase50|Product Desc: Autodesk Architectural Desktop 2007 |Company: Autodesk,Inc. |WEB Address: www.autodesk.com
 90
    32897
280
     0
281
     0
  0
CLASS
  1
AEC_AECDBDISPREPCEILINGGRIDPLAN100
  2
AecDbDispRepCeilingGridPlan100
  3
AecArchDACHBase50|Product Desc: Autodesk Architectural Desktop 2007 |Company: Autodesk,Inc. |WEB Address: www.autodesk.com
 90
    32897
280
     0
281
     0
  0
CLASS
  1
AEC_AECDBDISPREPCOLUMNGRIDPLAN100
  2
AecDbDispRepColumnGridPlan100
  3
AecArchDACHBase50|Product Desc: Autodesk Architectural Desktop 2007 |Company: Autodesk,Inc. |WEB Address: www.autodesk.com
 90
    32897
280
     0
281
     0
  0
CLASS
  1
AEC_AECDBDISPREPCURTAINWALLLAYOUTPLAN100
  2
AecDbDispRepCurtainWallLayoutPlan100
  3
AecArchDACHBase50|Product Desc: Autodesk Architectural Desktop 2007 |Company: Autodesk,Inc. |WEB Address: www.autodesk.com
 90
    32897
280
     0
281
     0
  0
CLASS
  1
AEC_AECDBDISPREPCURTAINWALLUNITPLAN100
  2
AecDbDispRepCurtainWallUnitPlan100
  3
AecArchDACHBase50|Product Desc: Autodesk Architectural Desktop 2007 |Company: Autodesk,Inc. |WEB Address: www.autodesk.com
 90
    32897
280
     0
281
     0
  0
CLASS
  1
AEC_AECDBDISPREPMVBLOCKREFPLAN100
  2
AecDbDispRepMvBlockRefPlan100
  3
AecArchDACHBase50|Product Desc: Autodesk Architectural Desktop 2007 |Company: Autodesk,Inc. |WEB Address: www.autodesk.com
 90
    32897
280
     0
281
     0
  0
CLASS
  1
AEC_AECDBDISPREPROOFPLAN100
  2
AecDbDispRepRoofPlan100
  3
AecArchDACHBase50|Product Desc: Autodesk Architectural Desktop 2007 |Company: Autodesk,Inc. |WEB Address: www.autodesk.com
 90
    32897
280
     0
281
     0
  0
CLASS
  1
AEC_AECDBDISPREPROOFSLABPLAN100
  2
AecDbDispRepRoofSlabPlan100
  3
AecArchDACHBase50|Product Desc: Autodesk Architectural Desktop 2007 |Company: Autodesk,Inc. |WEB Address: www.autodesk.com
 90
    32897
280
     0
281
     0
  0
CLASS
  1
AEC_AECDBDISPREPSLABPLAN100
  2
AecDbDispRepSlabPlan100
  3
AecArchDACHBase50|Product Desc: Autodesk Architectural Desktop 2007 |Company: Autodesk,Inc. |WEB Address: www.autodesk.com
 90
    32897
280
     0
281
     0
  0
CLASS
  1
AEC_AECDBDISPREPSPACEBOUNDARYPLAN100
  2
AecDbDispRepSpaceBoundaryPlan100
  3
AecArchDACHBase50|Product Desc: Autodesk Architectural Desktop 2007 |Company: Autodesk,Inc. |WEB Address: www.autodesk.com
 90
    32897
280
     0
281
     0
  0
CLASS
  1
AEC_AECDBDISPREPSPACEPLAN100
  2
AecDbDispRepSpacePlan100
  3
AecArchDACHBase50|Product Desc: Autodesk Architectural Desktop 2007 |Company: Autodesk,Inc. |WEB Address: www.autodesk.com
 90
    32897
280
     0
281
     0
  0
CLASS
  1
AEC_AECDBDISPREPWALLPLAN100
  2
AecDbDispRepWallPlan100
  3
AecArchDACHBase50|Product Desc: Autodesk Architectural Desktop 2007 |Company: Autodesk,Inc. |WEB Address: www.autodesk.com
 90
    32897
280
     0
281
     0
  0
CLASS
  1
AEC_AECDBDISPREPAREA50
  2
AecDbDispRepArea50
  3
AecArchDACHBase50|Product Desc: Autodesk Architectural Desktop 2007 |Company: Autodesk,Inc. |WEB Address: www.autodesk.com
 90
    32897
280
     0
281
     0
  0
CLASS
  1
AEC_AECDBDISPREPAREAGROUP50
  2
AecDbDispRepAreaGroup50
  3
AecArchDACHBase50|Product Desc: Autodesk Architectural Desktop 2007 |Company: Autodesk,Inc. |WEB Address: www.autodesk.com
 90
    32897
280
     0
281
     0
  0
CLASS
  1
AEC_AECDBDISPREPBDGELEVLINEPLAN50
  2
AecDbDispRepBdgElevLinePlan50
  3
AecArchDACHBase50|Product Desc: Autodesk Architectural Desktop 2007 |Company: Autodesk,Inc. |WEB Address: www.autodesk.com
 90
    32897
280
     0
281
     0
  0
CLASS
  1
AEC_AECDBDISPREPBDGSECTIONLINEPLAN50
  2
AecDbDispRepBdgSectionLinePlan50
  3
AecArchDACHBase50|Product Desc: Autodesk Architectural Desktop 2007 |Company: Autodesk,Inc. |WEB Address: www.autodesk.com
 90
    32897
280
     0
281
     0
  0
CLASS
  1
AEC_AECDBDISPREPCEILINGGRIDPLAN50
  2
AecDbDispRepCeilingGridPlan50
  3
AecArchDACHBase50|Product Desc: Autodesk Architectural Desktop 2007 |Company: Autodesk,Inc. |WEB Address: www.autodesk.com
 90
    32897
280
     0
281
     0
  0
CLASS
  1
AEC_AECDBDISPREPCOLUMNGRIDPLAN50
  2
AecDbDispRepColumnGridPlan50
  3
AecArchDACHBase50|Product Desc: Autodesk Architectural Desktop 2007 |Company: Autodesk,Inc. |WEB Address: www.autodesk.com
 90
    32897
280
     0
281
     0
  0
CLASS
  1
AEC_AECDBDISPREPCURTAINWALLLAYOUTPLAN50
  2
AecDbDispRepCurtainWallLayoutPlan50
  3
AecArchDACHBase50|Product Desc: Autodesk Architectural Desktop 2007 |Company: Autodesk,Inc. |WEB Address: www.autodesk.com
 90
    32897
280
     0
281
     0
  0
CLASS
  1
AEC_AECDBDISPREPCURTAINWALLUNITPLAN50
  2
AecDbDispRepCurtainWallUnitPlan50
  3
AecArchDACHBase50|Product Desc: Autodesk Architectural Desktop 2007 |Company: Autodesk,Inc. |WEB Address: www.autodesk.com
 90
    32897
280
     0
281
     0
  0
CLASS
  1
AEC_AECDBDISPREPMVBLOCKREFPLAN50
  2
AecDbDispRepMvBlockRefPlan50
  3
AecArchDACHBase50|Product Desc: Autodesk Architectural Desktop 2007 |Company: Autodesk,Inc. |WEB Address: www.autodesk.com
 90
    32897
280
     0
281
     0
  0
CLASS
  1
AEC_AECDBDISPREPROOFPLAN50
  2
AecDbDispRepRoofPlan50
  3
AecArchDACHBase50|Product Desc: Autodesk Architectural Desktop 2007 |Company: Autodesk,Inc. |WEB Address: www.autodesk.com
 90
    32897
280
     0
281
     0
  0
CLASS
  1
AEC_AECDBDISPREPROOFSLABPLAN50
  2
AecDbDispRepRoofSlabPlan50
  3
AecArchDACHBase50|Product Desc: Autodesk Architectural Desktop 2007 |Company: Autodesk,Inc. |WEB Address: www.autodesk.com
 90
    32897
280
     0
281
     0
  0
CLASS
  1
AEC_AECDBDISPREPSLABPLAN50
  2
AecDbDispRepSlabPlan50
  3
AecArchDACHBase50|Product Desc: Autodesk Architectural Desktop 2007 |Company: Autodesk,Inc. |WEB Address: www.autodesk.com
 90
    32897
280
     0
281
     0
  0
CLASS
  1
AEC_AECDBDISPREPSPACEBOUNDARYPLAN50
  2
AecDbDispRepSpaceBoundaryPlan50
  3
AecArchDACHBase50|Product Desc: Autodesk Architectural Desktop 2007 |Company: Autodesk,Inc. |WEB Address: www.autodesk.com
 90
    32897
280
     0
281
     0
  0
CLASS
  1
AEC_AECDBDISPREPSPACEPLAN50
  2
AecDbDispRepSpacePlan50
  3
AecArchDACHBase50|Product Desc: Autodesk Architectural Desktop 2007 |Company: Autodesk,Inc. |WEB Address: www.autodesk.com
 90
    32897
280
     0
281
     0
  0
CLASS
  1
AEC_AECDBDISPREPWALLPLAN50
  2
AecDbDispRepWallPlan50
  3
AecArchDACHBase50|Product Desc: Autodesk Architectural Desktop 2007 |Company: Autodesk,Inc. |WEB Address: www.autodesk.com
 90
    32897
280
     0
281
     0
  0
CLASS
  1
AEC_AECDBDISPREPWINDOWASSEMBLYPLAN50
  2
AecDbDispRepWindowAssemblyPlan50
  3
AecArchDACHBase50|Product Desc: Autodesk Architectural Desktop 2007 |Company: Autodesk,Inc. |WEB Address: www.autodesk.com
 90
    32897
280
     0
281
     0
  0
CLASS
  1
AEC_DB_DISP_REP_DIM_GROUP_PLAN100
  2
AecDbDispRepDimGroupPlan100
  3
AecArchDACHBase50|Product Desc: Autodesk Architectural Desktop 2007 |Company: Autodesk,Inc. |WEB Address: www.autodesk.com
 90
    32897
280
     0
281
     0
  0
CLASS
  1
AEC_DB_DISP_REP_DIM_GROUP_PLAN50
  2
AecDbDispRepDimGroupPlan50
  3
AecArchDACHBase50|Product Desc: Autodesk Architectural Desktop 2007 |Company: Autodesk,Inc. |WEB Address: www.autodesk.com
 90
    32897
280
     0
281
     0
  0
CLASS
  1
AEC_DISP_REP_DOOR_PLAN_50
  2
AecDbDispRepDoorPlan50
  3
AecArchDACHBase50|Product Desc: Autodesk Architectural Desktop 2007 |Company: Autodesk,Inc. |WEB Address: www.autodesk.com
 90
    32897
280
     0
281
     0
  0
CLASS
  1
AEC_DISP_PROPS_DOOR_PLAN_50
  2
AecDbDispPropsDoorPlan50
  3
AecArchDACHBase50|Product Desc: Autodesk Architectural Desktop 2007 |Company: Autodesk,Inc. |WEB Address: www.autodesk.com
 90
    32897
280
     0
281
     0
  0
CLASS
  1
AEC_DISP_REP_DOOR_PLAN_HEKTO
  2
AecDbDispRepDoorPlanHekto
  3
AecArchDACHBase50|Product Desc: Autodesk Architectural Desktop 2007 |Company: Autodesk,Inc. |WEB Address: www.autodesk.com
 90
    32897
280
     0
281
     0
  0
CLASS
  1
AEC_DISP_PROPS_DOOR_PLAN_100
  2
AecDbDispPropsDoorPlan100
  3
AecArchDACHBase50|Product Desc: Autodesk Architectural Desktop 2007 |Company: Autodesk,Inc. |WEB Address: www.autodesk.com
 90
    32897
280
     0
281
     0
  0
CLASS
  1
AEC_DISP_REP_DOOR_THRESHOLD_SYMBOL_PLAN
  2
AecDbDispRepDoorThresholdSymbolPlan
  3
AecArchDACHBase50|Product Desc: Autodesk Architectural Desktop 2007 |Company: Autodesk,Inc. |WEB Address: www.autodesk.com
 90
    32897
280
     0
281
     0
  0
CLASS
  1
AEC_DISP_PROPS_DOOR_THRESHOLD_SYMBOL_PLAN
  2
AecDbDispPropsDoorThresholdSymbolPlan
  3
AecArchDACHBase50|Product Desc: Autodesk Architectural Desktop 2007 |Company: Autodesk,Inc. |WEB Address: www.autodesk.com
 90
    32897
280
     0
281
     0
  0
CLASS
  1
AEC_DISPREPAECDBDISPREPMASSELEMPLAN100
  2
AecDbDispRepMassElemPlan100
  3
AecArchDACHBase50|Product Desc: Autodesk Architectural Desktop 2007 |Company: Autodesk,Inc. |WEB Address: www.autodesk.com
 90
    32897
280
     0
281
     0
  0
CLASS
  1
AEC_DISPROPSMASSELEMPLANCOMMON
  2
AecDbDispPropsMassElemPlanCommon
  3
AecArchDACHBase50|Product Desc: Autodesk Architectural Desktop 2007 |Company: Autodesk,Inc. |WEB Address: www.autodesk.com
 90
    32897
280
     0
281
     0
  0
CLASS
  1
AEC_DISPREPAECDBDISPREPMASSELEMPLAN50
  2
AecDbDispRepMassElemPlan50
  3
AecArchDACHBase50|Product Desc: Autodesk Architectural Desktop 2007 |Company: Autodesk,Inc. |WEB Address: www.autodesk.com
 90
    32897
280
     0
281
     0
  0
CLASS
  1
AEC_DISPREPAECDBDISPREPMASSGROUPPLAN100
  2
AecDbDispRepMassGroupPlan100
  3
AecArchDACHBase50|Product Desc: Autodesk Architectural Desktop 2007 |Company: Autodesk,Inc. |WEB Address: www.autodesk.com
 90
    32897
280
     0
281
     0
  0
CLASS
  1
AEC_DISPROPSMASSGROUPPLANCOMMON
  2
AecDbDispPropsMassGroupPlanCommon
  3
AecArchDACHBase50|Product Desc: Autodesk Architectural Desktop 2007 |Company: Autodesk,Inc. |WEB Address: www.autodesk.com
 90
    32897
280
     0
281
     0
  0
CLASS
  1
AEC_DISPREPAECDBDISPREPMASSGROUPPLAN50
  2
AecDbDispRepMassGroupPlan50
  3
AecArchDACHBase50|Product Desc: Autodesk Architectural Desktop 2007 |Company: Autodesk,Inc. |WEB Address: www.autodesk.com
 90
    32897
280
     0
281
     0
  0
CLASS
  1
AEC_DISPREPAECDBDISPREPOPENINGPLAN100
  2
AecDbDispRepOpeningPlan100
  3
AecArchDACHBase50|Product Desc: Autodesk Architectural Desktop 2007 |Company: Autodesk,Inc. |WEB Address: www.autodesk.com
 90
    32897
280
     0
281
     0
  0
CLASS
  1
AEC_DISPROPSOPENINGPLANCOMMONHATCHED
  2
AecDbDispPropsOpeningPlanCommonHatched
  3
AecArchDACHBase50|Product Desc: Autodesk Architectural Desktop 2007 |Company: Autodesk,Inc. |WEB Address: www.autodesk.com
 90
    32897
280
     0
281
     0
  0
CLASS
  1
AEC_DISPREPAECDBDISPREPOPENINGPLAN50
  2
AecDbDispRepOpeningPlan50
  3
AecArchDACHBase50|Product Desc: Autodesk Architectural Desktop 2007 |Company: Autodesk,Inc. |WEB Address: www.autodesk.com
 90
    32897
280
     0
281
     0
  0
CLASS
  1
AEC_DISPREPAECDBDISPREPOPENINGPLANREFLECTED
  2
AecDbDispRepOpeningPlanReflected
  3
AecArchDACHBase50|Product Desc: Autodesk Architectural Desktop 2007 |Company: Autodesk,Inc. |WEB Address: www.autodesk.com
 90
    32897
280
     0
281
     0
  0
CLASS
  1
AEC_DISPROPSOPENINGPLANCOMMON
  2
AecDbDispPropsOpeningPlanCommon
  3
AecArchDACHBase50|Product Desc: Autodesk Architectural Desktop 2007 |Company: Autodesk,Inc. |WEB Address: www.autodesk.com
 90
    32897
280
     0
281
     0
  0
CLASS
  1
AEC_DISPREPAECDBDISPREPOPENINGSILLPLAN
  2
AecDbDispRepOpeningSillPlan
  3
AecArchDACHBase50|Product Desc: Autodesk Architectural Desktop 2007 |Company: Autodesk,Inc. |WEB Address: www.autodesk.com
 90
    32897
280
     0
281
     0
  0
CLASS
  1
AEC_DISPROPSOPENINGSILLPLAN
  2
AecDbDispPropsOpeningSillPlan
  3
AecArchDACHBase50|Product Desc: Autodesk Architectural Desktop 2007 |Company: Autodesk,Inc. |WEB Address: www.autodesk.com
 90
    32897
280
     0
281
     0
  0
CLASS
  1
AEC_DISP_REP_RAILING_PLAN_100
  2
AecDbDispRepRailingPlan100
  3
AecArchDACHBase50|Product Desc: Autodesk Architectural Desktop 2007 |Company: Autodesk,Inc. |WEB Address: www.autodesk.com
 90
    32897
280
     0
281
     0
  0
CLASS
  1
AEC_DISP_ROPS_RAILING_PLAN_100
  2
AecDbDispPropsRailingPlan100
  3
AecArchDACHBase50|Product Desc: Autodesk Architectural Desktop 2007 |Company: Autodesk,Inc. |WEB Address: www.autodesk.com
 90
    32897
280
     0
281
     0
  0
CLASS
  1
AEC_DISP_REP_RAILING_PLAN_50
  2
AecDbDispRepRailingPlan50
  3
AecArchDACHBase50|Product Desc: Autodesk Architectural Desktop 2007 |Company: Autodesk,Inc. |WEB Address: www.autodesk.com
 90
    32897
280
     0
281
     0
  0
CLASS
  1
AEC_DISP_ROPS_RAILING_PLAN_50
  2
AecDbDispPropsRailingPlan50
  3
AecArchDACHBase50|Product Desc: Autodesk Architectural Desktop 2007 |Company: Autodesk,Inc. |WEB Address: www.autodesk.com
 90
    32897
280
     0
281
     0
  0
CLASS
  1
AEC_DISP_REP_STAIR_PLAN_100
  2
AecDbDispRepStairPlan100
  3
AecArchDACHBase50|Product Desc: Autodesk Architectural Desktop 2007 |Company: Autodesk,Inc. |WEB Address: www.autodesk.com
 90
    32897
280
     0
281
     0
  0
CLASS
  1
AEC_DISP_ROPS_STAIR_PLAN_100
  2
AecDbDispPropsStairPlan100
  3
AecArchDACHBase50|Product Desc: Autodesk Architectural Desktop 2007 |Company: Autodesk,Inc. |WEB Address: www.autodesk.com
 90
    32897
280
     0
281
     0
  0
CLASS
  1
AEC_DISP_REP_STAIR_PLAN_50
  2
AecDbDispRepStairPlan50
  3
AecArchDACHBase50|Product Desc: Autodesk Architectural Desktop 2007 |Company: Autodesk,Inc. |WEB Address: www.autodesk.com
 90
    32897
280
     0
281
     0
  0
CLASS
  1
AEC_DISP_ROPS_STAIR_PLAN_50
  2
AecDbDispPropsStairPlan50
  3
AecArchDACHBase50|Product Desc: Autodesk Architectural Desktop 2007 |Company: Autodesk,Inc. |WEB Address: www.autodesk.com
 90
    32897
280
     0
281
     0
  0
CLASS
  1
AEC_DISP_REP_WINDOW_PLAN_100
  2
AecDbDispRepWindowPlan100
  3
AecArchDACHBase50|Product Desc: Autodesk Architectural Desktop 2007 |Company: Autodesk,Inc. |WEB Address: www.autodesk.com
 90
    32897
280
     0
281
     0
  0
CLASS
  1
AEC_DISP_PROPS_WINDOW_PLAN_100
  2
AecDbDispPropsWindowPlan100
  3
AecArchDACHBase50|Product Desc: Autodesk Architectural Desktop 2007 |Company: Autodesk,Inc. |WEB Address: www.autodesk.com
 90
    32897
280
     0
281
     0
  0
CLASS
  1
AEC_DISP_REP_WINDOW_PLAN_50
  2
AecDbDispRepWindowPlan50
  3
AecArchDACHBase50|Product Desc: Autodesk Architectural Desktop 2007 |Company: Autodesk,Inc. |WEB Address: www.autodesk.com
 90
    32897
280
     0
281
     0
  0
CLASS
  1
AEC_DISP_PROPS_WINDOW_PLAN_50
  2
AecDbDispPropsWindowPlan50
  3
AecArchDACHBase50|Product Desc: Autodesk Architectural Desktop 2007 |Company: Autodesk,Inc. |WEB Address: www.autodesk.com
 90
    32897
280
     0
281
     0
  0
CLASS
  1
BINRECORD
  2
AcAecBinRecord
  3
AecBase50|Product Desc: Autodesk Architectural Desktop 2007 |Company: Autodesk,Inc. |WEB Address: www.autodesk.com
 90
    32897
280
     0
281
     0
  0
CLASS
  1
SORTENTSTABLE
  2
AcDbSortentsTable
  3
ObjectDBX Classes
 90
        0
280
     0
281
     0
  0
CLASS
  1
AEC_MASS_ELEM
  2
AecDbMassElem
  3
AecBaseEx50|Product Desc: Autodesk Architectural Desktop 2007 |Company: Autodesk,Inc. |WEB Address: www.autodesk.com
 90
    33661
280
     0
281
     1
  0
CLASS
  1
MATERIAL
  2
AcDbMaterial
  3
ObjectDBX Classes
 90
     1153
280
     0
281
     0
  0
CLASS
  1
AECS_MEMBER
  2
AecsDbMember
  3
AecStructureBase50|Product Desc: Autodesk Architectural Desktop 2007 |Company: Autodesk,Inc. |WEB Address: www.autodesk.com
 90
    33661
280
     0
281
     1
  0
CLASS
  1
AEC_WALL
  2
AecDbWall
  3
AecArchBase50|Product Desc: Autodesk Architectural Desktop 2007 |Company: Autodesk,Inc. |WEB Address: www.autodesk.com
 90
    33661
280
     0
281
     1
  0
CLASS
  1
AEC_DOOR
  2
AecDbDoor
  3
AecArchBase50|Product Desc: Autodesk Architectural Desktop 2007 |Company: Autodesk,Inc. |WEB Address: www.autodesk.com
 90
    33661
280
     0
281
     1
  0
CLASS
  1
AEC_ANCHOR_OPENINGBASE_TO_WALL
  2
AecDbAnchorOpeningBaseToWall
  3
AecArchBase50|Product Desc: Autodesk Architectural Desktop 2007 |Company: Autodesk,Inc. |WEB Address: www.autodesk.com
 90
    32897
280
     0
281
     0
  0
CLASS
  1
AEC_SPACE_BOUNDARY
  2
AecDbSpaceBoundary
  3
AecArchBase50|Product Desc: Autodesk Architectural Desktop 2007 |Company: Autodesk,Inc. |WEB Address: www.autodesk.com
 90
    33661
280
     0
281
     1
  0
CLASS
  1
AEC_SPACE
  2
AecDbSpace
  3
AecArchBase50|Product Desc: Autodesk Architectural Desktop 2007 |Company: Autodesk,Inc. |WEB Address: www.autodesk.com
 90
    33661
280
     0
281
     1
  0
CLASS
  1
AecDbPropertySet
  2
AecDbPropertySet
  3
AecScheduleData50|Product Desc: Autodesk Architectural Desktop 2007 |Company: Autodesk,Inc. |WEB Address: www.autodesk.com
 90
    32897
280
     0
281
     0
  0
CLASS
  1
AEC_MVBLOCK_REF
  2
AecDbMvBlockRef
  3
AecBase50|Product Desc: Autodesk Architectural Desktop 2007 |Company: Autodesk,Inc. |WEB Address: www.autodesk.com
 90
    33661
280
     0
281
     1
  0
CLASS
  1
AEC_ANCHOR_TAG_TO_ENT
  2
AecDbAnchorTagToEnt
  3
AecScheduleData50|Product Desc: Autodesk Architectural Desktop 2007 |Company: Autodesk,Inc. |WEB Address: www.autodesk.com
 90
    32897
280
     0
281
     0
  0
CLASS
  1
AEC_WINDOW
  2
AecDbWindow
  3
AecArchBase50|Product Desc: Autodesk Architectural Desktop 2007 |Company: Autodesk,Inc. |WEB Address: www.autodesk.com
 90
    33661
280
     0
281
     1
  0
CLASS
  1
AEC_OPENING
  2
AecDbOpening
  3
AecArchBase50|Product Desc: Autodesk Architectural Desktop 2007 |Company: Autodesk,Inc. |WEB Address: www.autodesk.com
 90
    33661
280
     0
281
     1
  0
CLASS
  1
AEC_CLASSIFICATION_SYSTEM_DEF
  2
AecDbClassificationSystemDef
  3
AecBase50|Product Desc: Autodesk Architectural Desktop 2007 |Company: Autodesk,Inc. |WEB Address: www.autodesk.com
 90
    32897
280
     0
281
     0
  0
CLASS
  1
AEC_CLASSIFICATION_DEF
  2
AecDbClassificationDef
  3
AecBase50|Product Desc: Autodesk Architectural Desktop 2007 |Company: Autodesk,Inc. |WEB Address: www.autodesk.com
 90
    32897
280
     0
281
     0
  0
CLASS
  1
AEC_CLEANUP_GROUP_DEF
  2
AecDbCleanupGroupDef
  3
AecArchBase50|Product Desc: Autodesk Architectural Desktop 2007 |Company: Autodesk,Inc. |WEB Address: www.autodesk.com
 90
    32897
280
     0
281
     0
  0
CLASS
  1
AEC_DOOR_STYLE
  2
AecDbDoorStyle
  3
AecArchBase50|Product Desc: Autodesk Architectural Desktop 2007 |Company: Autodesk,Inc. |WEB Address: www.autodesk.com
 90
    32897
280
     0
281
     0
  0
CLASS
  1
AEC_STDSIZE_OPENINGS
  2
AecDbStdSizeOpeningList
  3
AecArchBase50|Product Desc: Autodesk Architectural Desktop 2007 |Company: Autodesk,Inc. |WEB Address: www.autodesk.com
 90
    32897
280
     0
281
     0
  0
CLASS
  1
AEC_ENDCAP_STYLE
  2
AecDbEndcapStyle
  3
AecArchBase50|Product Desc: Autodesk Architectural Desktop 2007 |Company: Autodesk,Inc. |WEB Address: www.autodesk.com
 90
    32897
280
     0
281
     0
  0
CLASS
  1
AEC_MASS_ELEM_STYLE
  2
AecDbMassElemStyle
  3
AecBaseEx50|Product Desc: Autodesk Architectural Desktop 2007 |Company: Autodesk,Inc. |WEB Address: www.autodesk.com
 90
    32897
280
     0
281
     0
  0
CLASS
  1
AEC_MATERIAL_DEF
  2
AecDbMaterialDef
  3
AecBase50|Product Desc: Autodesk Architectural Desktop 2007 |Company: Autodesk,Inc. |WEB Address: www.autodesk.com
 90
    32897
280
     0
281
     0
  0
CLASS
  1
AEC_MVBLOCK_DEF
  2
AecDbMvBlockDef
  3
AecBase50|Product Desc: Autodesk Architectural Desktop 2007 |Company: Autodesk,Inc. |WEB Address: www.autodesk.com
 90
    32897
280
     0
281
     0
  0
CLASS
  1
AEC_FRAME_DEF
  2
AecDbOpeningEndcapStyle
  3
AecArchBase50|Product Desc: Autodesk Architectural Desktop 2007 |Company: Autodesk,Inc. |WEB Address: www.autodesk.com
 90
    32897
280
     0
281
     0
  0
CLASS
  1
AEC_PROFILE_DEF
  2
AecDbProfileDef
  3
AecBase50|Product Desc: Autodesk Architectural Desktop 2007 |Company: Autodesk,Inc. |WEB Address: www.autodesk.com
 90
    32897
280
     0
281
     0
  0
CLASS
  1
AEC_SCHEDULE_DATA_FORMAT
  2
AecDbScheduleDataFormat
  3
AecScheduleData50|Product Desc: Autodesk Architectural Desktop 2007 |Company: Autodesk,Inc. |WEB Address: www.autodesk.com
 90
    32897
280
     0
281
     0
  0
CLASS
  1
AEC_PROPERTY_SET_DEF
  2
AecDbPropertySetDef
  3
AecScheduleData50|Product Desc: Autodesk Architectural Desktop 2007 |Company: Autodesk,Inc. |WEB Address: www.autodesk.com
 90
    32897
280
     0
281
     0
  0
CLASS
  1
AEC_SPACE_STYLES
  2
AecDbSpaceStyle
  3
AecArchBase50|Product Desc: Autodesk Architectural Desktop 2007 |Company: Autodesk,Inc. |WEB Address: www.autodesk.com
 90
    32897
280
     0
281
     0
  0
CLASS
  1
AEC_TEXT_NOTE
  2
AecDbTextNote
  3
AecBase50|Product Desc: Autodesk Architectural Desktop 2007 |Company: Autodesk,Inc. |WEB Address: www.autodesk.com
 90
    32897
280
     0
281
     0
  0
CLASS
  1
AECS_MEMBER_STYLE
  2
AecsDbMemberStyle
  3
AecStructureBase50|Product Desc: Autodesk Architectural Desktop 2007 |Company: Autodesk,Inc. |WEB Address: www.autodesk.com
 90
    32897
280
     0
281
     0
  0
CLASS
  1
AEC_VARS_STRUCTUREBASE
  2
AecsDbVarsStructureBase
  3
AecStructureBase50|Product Desc: Autodesk Architectural Desktop 2007 |Company: Autodesk,Inc. |WEB Address: www.autodesk.com
 90
    32897
280
     0
281
     0
  0
CLASS
  1
AEC_WALL_STYLE
  2
AecDbWallStyle
  3
AecArchBase50|Product Desc: Autodesk Architectural Desktop 2007 |Company: Autodesk,Inc. |WEB Address: www.autodesk.com
 90
    32897
280
     0
281
     0
  0
CLASS
  1
AEC_WINDOW_STYLE
  2
AecDbWindowStyle
  3
AecArchBase50|Product Desc: Autodesk Architectural Desktop 2007 |Company: Autodesk,Inc. |WEB Address: www.autodesk.com
 90
    32897
280
     0
281
     0
  0
CLASS
  1
AECS_MEMBER_NODE_SHAPE
  2
AecsDbMemberNodeShape
  3
AecStructureBase50|Product Desc: Autodesk Architectural Desktop 2007 |Company: Autodesk,Inc. |WEB Address: www.autodesk.com
 90
    32897
280
     0
281
     0
  0
CLASS
  1
AEC_SCHEDULE_TABLE
  2
AecDbScheduleTable
  3
AecSchedule50|Product Desc: Autodesk Architectural Desktop 2007 |Company: Autodesk,Inc. |WEB Address: www.autodesk.com
 90
    33661
280
     0
281
     1
  0
CLASS
  1
AEC_SCHEDULE_TABLE_STYLE
  2
AecDbScheduleTableStyle
  3
AecSchedule50|Product Desc: Autodesk Architectural Desktop 2007 |Company: Autodesk,Inc. |WEB Address: www.autodesk.com
 90
    32897
280
     0
281
     0
  0
CLASS
  1
AEC_ANCHOR_MVB_TO_UCS
  2
AecDbAnchorMVBToUCS
  3
AecBase50|Product Desc: Autodesk Architectural Desktop 2007 |Company: Autodesk,Inc. |WEB Address: www.autodesk.com
 90
    32897
280
     0
281
     0
  0
CLASS
  1
IMAGEDEF
  2
AcDbRasterImageDef
  3
ISM
 90
    32768
280
     0
281
     0
  0
CLASS
  1
AEC_ANCHOR_ENT_TO_GRID_ASSEMBLY
  2
AecDbAnchorEntToGridAssembly
  3
AecBaseEx50|Product Desc: Autodesk Architectural Desktop 2007 |Company: Autodesk,Inc. |WEB Address: www.autodesk.com
 90
    32897
280
     0
281
     0
  0
CLASS
  1
AEC_WINDOW_ASSEMBLY
  2
AecDbWindowAssembly
  3
AecArchBase50|Product Desc: Autodesk Architectural Desktop 2007 |Company: Autodesk,Inc. |WEB Address: www.autodesk.com
 90
    33661
280
     0
281
     1
  0
CLASS
  1
AEC_ANCHOR_WINASSEMBLY_TO_WALL
  2
AecDbAnchorWinAssemblyToWall
  3
AecArchBase50|Product Desc: Autodesk Architectural Desktop 2007 |Company: Autodesk,Inc. |WEB Address: www.autodesk.com
 90
    32897
280
     0
281
     0
  0
CLASS
  1
AEC_STAIR
  2
AecDbStair
  3
AecArchBase50|Product Desc: Autodesk Architectural Desktop 2007 |Company: Autodesk,Inc. |WEB Address: www.autodesk.com
 90
    33661
280
     0
281
     1
  0
CLASS
  1
AEC_RAILING
  2
AecDbRailing
  3
AecArchBase50|Product Desc: Autodesk Architectural Desktop 2007 |Company: Autodesk,Inc. |WEB Address: www.autodesk.com
 90
    33661
280
     0
281
     1
  0
CLASS
  1
AEC_ANCHOR_RAILING_TO_STAIR
  2
AecDbAnchorRailingToStair
  3
AecArchBase50|Product Desc: Autodesk Architectural Desktop 2007 |Company: Autodesk,Inc. |WEB Address: www.autodesk.com
 90
    32897
280
     0
281
     0
  0
CLASS
  1
AEC_RAILING_STYLE
  2
AecDbRailingStyle
  3
AecArchBase50|Product Desc: Autodesk Architectural Desktop 2007 |Company: Autodesk,Inc. |WEB Address: www.autodesk.com
 90
    32897
280
     0
281
     0
  0
CLASS
  1
AEC_STAIR_STYLE
  2
AecDbStairStyle
  3
AecArchBase50|Product Desc: Autodesk Architectural Desktop 2007 |Company: Autodesk,Inc. |WEB Address: www.autodesk.com
 90
    32897
280
     0
281
     0
  0
CLASS
  1
AEC_STAIR_WINDER_STYLE
  2
AecDbStairWinderStyle
  3
AecArchBase50|Product Desc: Autodesk Architectural Desktop 2007 |Company: Autodesk,Inc. |WEB Address: www.autodesk.com
 90
    32897
280
     0
281
     0
  0
CLASS
  1
AEC_STAIR_WINDER_TYPE_SINGLE_POINT
  2
AecDbStairWinderTypeSinglePoint
  3
AecArchBase50|Product Desc: Autodesk Architectural Desktop 2007 |Company: Autodesk,Inc. |WEB Address: www.autodesk.com
 90
    32897
280
     0
281
     0
  0
CLASS
  1
AEC_WINDOW_ASSEMBLY_STYLE
  2
AecDbWindowAssemblyStyle
  3
AecArchBase50|Product Desc: Autodesk Architectural Desktop 2007 |Company: Autodesk,Inc. |WEB Address: www.autodesk.com
 90
    32897
280
     0
281
     0
  0
CLASS
  1
AEC_AECDBAREASTYLE
  2
AecDbAreaStyle
  3
AecAreaCalculationBase50|Product Desc: Autodesk Architectural Desktop 2007 |Company: Autodesk,Inc. |WEB Address: www.autodesk.com
 90
    32897
280
     0
281
     0
  0
CLASS
  1
AEC_AECDBAREAPROPOSALNAMES
  2
AecDbAreaProposalNames
  3
AecAreaCalculationBase50|Product Desc: Autodesk Architectural Desktop 2007 |Company: Autodesk,Inc. |WEB Address: www.autodesk.com
 90
    32897
280
     0
281
     0
  0
CLASS
  1
AEC_AREA
  2
AecDbArea
  3
AecAreaCalculationBase50|Product Desc: Autodesk Architectural Desktop 2007 |Company: Autodesk,Inc. |WEB Address: www.autodesk.com
 90
    33661
280
     0
281
     1
  0
CLASS
  1
OBJECT_PTR
  2
CAseDLPNTableRecord
  3
ASE-LPNTableRecord
 90
    32769
280
     0
281
     0
  0
CLASS
  1
TABLESTYLE
  2
AcDbTableStyle
  3
ObjectDBX Classes
 90
     4095
280
     0
281
     0
  0
CLASS
  1
AEC_DISP_REP_DISPLAYTHEME
  2
AecDbDispRepDisplayTheme
  3
AecBase50|Product Desc: Autodesk Architectural Desktop 2007 |Company: Autodesk,Inc. |WEB Address: www.autodesk.com
 90
    32897
280
     0
281
     0
  0
CLASS
  1
AEC_DISP_PROPS_DISPLAYTHEME
  2
AecDbDispPropsDisplayTheme
  3
AecBase50|Product Desc: Autodesk Architectural Desktop 2007 |Company: Autodesk,Inc. |WEB Address: www.autodesk.com
 90
    32897
280
     0
281
     0
  0
CLASS
  1
AEC_DISP_REP_ANCHOR_EXT_TAG_TO_ENT
  2
AecDbDispRepAnchorExtendedTagToEnt
  3
AecScheduleData50|Product Desc: Autodesk Architectural Desktop 2007 |Company: Autodesk,Inc. |WEB Address: www.autodesk.com
 90
    32897
280
     0
281
     0
  0
CLASS
  1
VISUALSTYLE
  2
AcDbVisualStyle
  3
ObjectDBX Classes
 90
     4095
280
     0
281
     0
  0
CLASS
  1
AEC_AECDBDISPREPZONE100
  2
AecDbDispRepZonePlan100
  3
AecArchDACHBase50|Product Desc: Autodesk Architectural Desktop 2007 |Company: Autodesk,Inc. |WEB Address: www.autodesk.com
 90
    32897
280
     0
281
     0
  0
CLASS
  1
AEC_DISP_PROPS_ZONE
  2
AecDbDispPropsZone
  3
AecArchBase50|Product Desc: Autodesk Architectural Desktop 2007 |Company: Autodesk,Inc. |WEB Address: www.autodesk.com
 90
    32897
280
     0
281
     0
  0
CLASS
  1
AEC_AECDBDISPREPZONE50
  2
AecDbDispRepZonePlan50
  3
AecArchDACHBase50|Product Desc: Autodesk Architectural Desktop 2007 |Company: Autodesk,Inc. |WEB Address: www.autodesk.com
 90
    32897
280
     0
281
     0
  0
CLASS
  1
AEC_DISP_REP_SPACE_DECOMPOSED
  2
AecDbDispRepSpaceDecomposed
  3
AecArchBase50|Product Desc: Autodesk Architectural Desktop 2007 |Company: Autodesk,Inc. |WEB Address: www.autodesk.com
 90
    32897
280
     0
281
     0
  0
CLASS
  1
AEC_DISP_PROPS_SPACE_DECOMPOSED
  2
AecDbDispPropsSpaceDecomposed
  3
AecArchBase50|Product Desc: Autodesk Architectural Desktop 2007 |Company: Autodesk,Inc. |WEB Address: www.autodesk.com
 90
    32897
280
     0
281
     0
  0
CLASS
  1
AEC_DISP_REP_ZONE
  2
AecDbDispRepZone
  3
AecArchBase50|Product Desc: Autodesk Architectural Desktop 2007 |Company: Autodesk,Inc. |WEB Address: www.autodesk.com
 90
    32897
280
     0
281
     0
  0
CLASS
  1
AEC_LIST_DEF
  2
AecDbListDefinition
  3
AecBase50|Product Desc: Autodesk Architectural Desktop 2007 |Company: Autodesk,Inc. |WEB Address: www.autodesk.com
 90
    32897
280
     0
281
     0
  0
CLASS
  1
EXACXREFPANELOBJECT
  2
ExAcXREFPanelObject
  3
EXAC_ESW
 90
    33793
280
     1
281
     0
  0
CLASS
  1
NPOCOLLECTION
  2
AcDbImpNonPersistentObjectsCollection
  3
ObjectDBX Classes
 90
    33921
280
     0
281
     0
  0
CLASS
  1
ACAD_EVALUATION_GRAPH
  2
AcDbEvalGraph
  3
ObjectDBX Classes
 90
    33921
280
     0
281
     0
  0
CLASS
  1
BLOCKLINEARPARAMETER
  2
AcDbBlockLinearParameter
  3
ObjectDBX Classes
 90
    33921
280
     0
281
     0
  0
CLASS
  1
BLOCKLINEARGRIP
  2
AcDbBlockLinearGrip
  3
ObjectDBX Classes
 90
    33921
280
     0
281
     0
  0
CLASS
  1
BLOCKGRIPLOCATIONCOMPONENT
  2
AcDbBlockGripExpr
  3
ObjectDBX Classes
 90
    33921
280
     0
281
     0
  0
CLASS
  1
BLOCKSTRETCHACTION
  2
AcDbBlockStretchAction
  3
ObjectDBX Classes
 90
    33921
280
     0
281
     0
  0
CLASS
  1
BLOCKFLIPPARAMETER
  2
AcDbBlockFlipParameter
  3
ObjectDBX Classes
 90
    33921
280
     0
281
     0
  0
CLASS
  1
BLOCKFLIPGRIP
  2
AcDbBlockFlipGrip
  3
ObjectDBX Classes
 90
    33921
280
     0
281
     0
  0
CLASS
  1
BLOCKFLIPACTION
  2
AcDbBlockFlipAction
  3
ObjectDBX Classes
 90
    33921
280
     0
281
     0
  0
CLASS
  1
ACDB_DYNAMICBLOCKPURGEPREVENTER_VERSION
  2
AcDbDynamicBlockPurgePreventer
  3
ObjectDBX Classes
 90
    33921
280
     0
281
     0
  0
CLASS
  1
ACDB_BLOCKREPRESENTATION_DATA
  2
AcDbBlockRepresentationData
  3
ObjectDBX Classes
 90
    33921
280
     0
281
     0
  0
CLASS
  1
EXACTERMXREFMAP
  2
ExAcTermXrefMap
  3
EXAC_SERVICE
 90
    33793
280
     1
281
     0
  0
CLASS
  1
ACSH_HISTORY_CLASS
  2
AcDbShHistory
  3
ObjectDBX Classes
 90
    33921
280
     0
281
     0
  0
CLASS
  1
ACSH_REVOLVE_CLASS
  2
AcDbShRevolve
  3
ObjectDBX Classes
 90
    33921
280
     0
281
     0
  0
CLASS
  1
REVOLVEDSURFACE
  2
AcDbRevolvedSurface
  3
ObjectDBX Classes
 90
    36861
280
     0
281
     1
  0
CLASS
  1
ACSH_SPHERE_CLASS
  2
AcDbShSphere
  3
ObjectDBX Classes
 90
    33921
280
     0
281
     0
  0
CLASS
  1
AEC_LIST_DEF
  2
AecDbListItem
  3
AecBase50|Product Desc: Autodesk Architectural Desktop 2007 |Company: Autodesk,Inc. |WEB Address: www.autodesk.com
 90
    32897
280
     0
281
     0
  0
CLASS
  1
AEC_ROOFSLAB_STYLE
  2
AecDbRoofSlabStyle
  3
AecArchBase50|Product Desc: Autodesk Architectural Desktop 2007 |Company: Autodesk,Inc. |WEB Address: www.autodesk.com
 90
    32897
280
     0
281
     0
  0
CLASS
  1
AEC_ROOFSLABEDGE_STYLE
  2
AecDbRoofSlabEdgeStyle
  3
AecArchBase50|Product Desc: Autodesk Architectural Desktop 2007 |Company: Autodesk,Inc. |WEB Address: www.autodesk.com
 90
    32897
280
     0
281
     0
  0
CLASS
  1
AEC_SLAB_STYLE
  2
AecDbSlabStyle
  3
AecArchBase50|Product Desc: Autodesk Architectural Desktop 2007 |Company: Autodesk,Inc. |WEB Address: www.autodesk.com
 90
    32897
280
     0
281
     0
  0
CLASS
  1
AEC_SLABEDGE_STYLE
  2
AecDbSlabEdgeStyle
  3
AecArchBase50|Product Desc: Autodesk Architectural Desktop 2007 |Company: Autodesk,Inc. |WEB Address: www.autodesk.com
 90
    32897
280
     0
281
     0
  0
CLASS
  1
AEC_WALLMOD_STYLE
  2
AecDbWallModStyle
  3
AecArchBase50|Product Desc: Autodesk Architectural Desktop 2007 |Company: Autodesk,Inc. |WEB Address: www.autodesk.com
 90
    32897
280
     0
281
     0
  0
CLASS
  1
AEC_DISPLAYTHEME_STYLE
  2
AecDbDisplayThemeStyle
  3
AecBase50|Product Desc: Autodesk Architectural Desktop 2007 |Company: Autodesk,Inc. |WEB Address: www.autodesk.com
 90
    32897
280
     0
281
     0
  0
CLASS
  1
DIMASSOC
  2
AcDbDimAssoc
  3
"AcDbDimAssoc|Product Desc:     AcDim ARX App For Dimension|Company:          Autodesk, Inc.|WEB Address:      www.autodesk.com"
 90
    32768
280
     0
281
     0
  0
CLASS
  1
AEC_SLAB
  2
AecDbSlab
  3
AecArchBase50|Product Desc: Autodesk Architectural Desktop 2007 |Company: Autodesk,Inc. |WEB Address: www.autodesk.com
 90
    33661
280
     0
281
     1
  0
CLASS
  1
AEC_AECDBZONESTYLE
  2
AecDbZoneStyle
  3
AecArchBase50|Product Desc: Autodesk Architectural Desktop 2007 |Company: Autodesk,Inc. |WEB Address: www.autodesk.com
 90
    32897
280
     0
281
     0
  0
CLASS
  1
AEC_AECDBZONEDEF
  2
AecDbZoneDef
  3
AecArchBase50|Product Desc: Autodesk Architectural Desktop 2007 |Company: Autodesk,Inc. |WEB Address: www.autodesk.com
 90
    32897
280
     0
281
     0
  0
CLASS
  1
AEC_CURTAIN_WALL_LAYOUT_STYLE
  2
AecDbCurtainWallLayoutStyle
  3
AecArchBase50|Product Desc: Autodesk Architectural Desktop 2007 |Company: Autodesk,Inc. |WEB Address: www.autodesk.com
 90
    32897
280
     0
281
     0
  0
CLASS
  1
AEC_STAIR_WINDER_TYPE_BALANCED
  2
AecDbStairWinderTypeBalanced
  3
AecArchBase50|Product Desc: Autodesk Architectural Desktop 2007 |Company: Autodesk,Inc. |WEB Address: www.autodesk.com
 90
    32897
280
     0
281
     0
  0
CLASS
  1
AEC_STAIR_WINDER_TYPE_MANUAL
  2
AecDbStairWinderTypeManual
  3
AecArchBase50|Product Desc: Autodesk Architectural Desktop 2007 |Company: Autodesk,Inc. |WEB Address: www.autodesk.com
 90
    32897
280
     0
281
     0
  0
CLASS
  1
AEC_DIM_STYLE
  2
AecDbDimensionStyle
  3
AecArchDACHBase50|Product Desc: Autodesk Architectural Desktop 2007 |Company: Autodesk,Inc. |WEB Address: www.autodesk.com
 90
    32897
280
     0
281
     0
  0
CLASS
  1
RTEXT
  2
RText
  3
RText|AutoCAD Express Tool|expresstools@autodesk.com
 90
    35839
280
     0
281
     1
  0
CLASS
  1
SCALE
  2
AcDbScale
  3
ObjectDBX Classes
 90
     1153
280
     0
281
     0
  0
CLASS
  1
MLEADERSTYLE
  2
AcDbMLeaderStyle
  3
ACDB_MLEADERSTYLE_CLASS
 90
    36863
280
     0
281
     0
  0
CLASS
  1
CELLSTYLEMAP
  2
AcDbCellStyleMap
  3
ObjectDBX Classes
 90
     1152
280
     0
281
     0
  0
CLASS
  1
AEC_REFEDIT_STATUS_TRACKER
  2
AecDbRefEditStatusTracker
  3
AecArchBase50|Product Desc: Autodesk Architectural Desktop 2007 |Company: Autodesk,Inc. |WEB Address: www.autodesk.com
 90
    32897
280
     0
281
     0
  0
ENDSEC
  0
SECTION
  2
TABLES
  0
TABLE
  2
VPORT
  5
1B2
330
0
100
AcDbSymbolTable
 70
     1
  0
VPORT
  5
1B3
330
1B2
100
AcDbSymbolTableRecord
100
AcDbViewportTableRecord
  2
*Active
 70
     0
 10
0.0
 20
0.0
 11
1.0
 21
1.0
 12
8267.779560963175
 22
13738.03213973128
 13
-3534.953416816247
 23
4038.000000000049
 14
1.0
 24
1.0
 15
1.0
 25
1.0
 16
0.0
 26
0.0
 36
1.0
 17
0.0
 27
0.0
 37
0.0
 40
13394.58483224129
 41
2.297668038408779
 42
50.0
 43
0.0
 44
0.0
 50
0.0
 51
0.0
 71
     0
 72
  2000
 73
     1
 74
     1
 75
     0
 76
     0
 77
     0
 78
     0
281
     0
 65
     1
110
0.0
120
0.0
130
0.0
111
1.0
121
0.0
131
0.0
112
0.0
122
1.0
132
0.0
 79
     0
146
0.0
  0
ENDTAB
  0
TABLE
  2
LTYPE
  5
1AD
330
0
100
AcDbSymbolTable
 70
     2
  0
LTYPE
  5
1AE
330
1AD
100
AcDbSymbolTableRecord
100
AcDbLinetypeTableRecord
  2
BYBLOCK
 70
     0
  3

 72
    65
 73
     0
 40
0.0
  0
LTYPE
  5
1AF
330
1AD
100
AcDbSymbolTableRecord
100
AcDbLinetypeTableRecord
  2
BYLAYER
 70
     0
  3

 72
    65
 73
     0
 40
0.0
  0
LTYPE
  5
E
330
1AD
100
AcDbSymbolTableRecord
100
AcDbLinetypeTableRecord
  2
CONTINUOUS
 70
     0
  3
Solid line
 72
    65
 73
     0
 40
0.0
  0
LTYPE
  5
1C
330
1AD
100
AcDbSymbolTableRecord
100
AcDbLinetypeTableRecord
  2
DASHED
 70
     0
  3
Dashed __ __ __ __ __ __ __ __ __ __ __ __ __ _
 72
    65
 73
     2
 40
0.75
 49
0.5
 74
     0
 49
-0.25
 74
     0
  0
ENDTAB
  0
TABLE
  2
LAYER
  5
1A6
102
{ACAD_XDICTIONARY
360
1A7
102
}
330
0
100
AcDbSymbolTable
 70
     8
  0
LAYER
  5
6
102
{ACAD_XDICTIONARY
360
7
102
}
330
1A6
100
AcDbSymbolTableRecord
100
AcDbLayerTableRecord
  2
0
 70
     0
 62
     7
  6
CONTINUOUS
370
    -3
390
9
1001
RAK
1000
{ACET-LAYISO
1070
     0
1070
     7
1000
CONTINUOUS
1070
     1
1071
       -3
1071
        1
1005
9
1000
ACET-LAYISO}
  0
LAYER
  5
5E
102
{ACAD_XDICTIONARY
360
5F
102
}
330
1A6
100
AcDbSymbolTableRecord
100
AcDbLayerTableRecord
  2
WYMIARY
 70
     0
 62
     1
  6
CONTINUOUS
370
    -3
390
9
1001
RAK
1000
{ACET-LAYISO
1070
     0
1070
     1
1000
CONTINUOUS
1071
       -3
1071
        1
1005
9
1000
ACET-LAYISO}
  0
LAYER
  5
71
330
1A6
100
AcDbSymbolTableRecord
100
AcDbLayerTableRecord
  2
Defpoints
 70
     0
 62
     7
  6
CONTINUOUS
290
     0
370
    -3
390
9
1001
RAK
1000
{ACET-LAYISO
1070
     0
1070
     7
1000
CONTINUOUS
1071
       -3
1071
        0
1005
9
1000
ACET-LAYISO}
  0
LAYER
  5
149
102
{ACAD_XDICTIONARY
360
14A
102
}
330
1A6
100
AcDbSymbolTableRecord
100
AcDbLayerTableRecord
  2
0Wymiary-PL
 70
     0
 62
     1
  6
CONTINUOUS
370
     5
390
9
  0
LAYER
  5
11
102
{ACAD_XDICTIONARY
360
12
102
}
330
1A6
100
AcDbSymbolTableRecord
100
AcDbLayerTableRecord
  2
0Napisy
 70
     0
 62
   150
  6
CONTINUOUS
370
    15
390
9
1001
RAK
1000
{ACET-LAYISO
1070
     0
1070
   150
1000
Continuous
1071
       15
1071
        1
1005
9
1000
ACET-LAYISO}
  0
LAYER
  5
1F
102
{ACAD_XDICTIONARY
360
20
102
}
330
1A6
100
AcDbSymbolTableRecord
100
AcDbLayerTableRecord
  2
NIEPLOT
 70
     0
 62
     2
  6
CONTINUOUS
290
     0
370
     5
390
9
1001
RAK
1000
{ACET-LAYISO
1070
     0
1070
     2
1000
Continuous
1071
        5
1071
        0
1005
9
1000
ACET-LAYISO}
  0
LAYER
  5
19
102
{ACAD_XDICTIONARY
360
1A
102
}
330
1A6
100
AcDbSymbolTableRecord
100
AcDbLayerTableRecord
  2
-przerywana
 70
     0
 62
   144
  6
DASHED
370
     5
390
9
1001
RAK
1000
{ACET-LAYISO
1070
     0
1070
   144
1000
DASHED
1071
        5
1071
        1
1005
9
1000
ACET-LAYISO}
  0
LAYER
  5
52
102
{ACAD_XDICTIONARY
360
53
102
}
330
1A6
100
AcDbSymbolTableRecord
100
AcDbLayerTableRecord
  2
0Hatch
 70
     0
 62
   122
  6
CONTINUOUS
370
     5
390
9
  0
ENDTAB
  0
TABLE
  2
STYLE
  5
1AA
330
0
100
AcDbSymbolTable
 70
     3
  0
STYLE
  5
1AB
330
1AA
100
AcDbSymbolTableRecord
100
AcDbTextStyleTableRecord
  2
STANDARD
 70
     0
 40
0.0
 41
1.0
 50
0.0
 71
     0
 42
0.2
  3
txt
  4

  0
STYLE
  5
6F
330
1AA
100
AcDbSymbolTableRecord
100
AcDbTextStyleTableRecord
  2
ROMANS
 70
     0
 40
0.0
 41
0.9
 50
0.0
 71
     0
 42
5.0
  3
romans.shx
  4

  0
STYLE
  5
14
330
1AA
100
AcDbSymbolTableRecord
100
AcDbTextStyleTableRecord
  2
AVA
 70
     0
 40
0.0
 41
1.0
 50
0.0
 71
     0
 42
158.5644099714409
  3
ARIAL.TTF
  4

1001
ACAD
1000
Arial CE
1071
    60962
  0
ENDTAB
  0
TABLE
  2
VIEW
  5
1B0
330
0
100
AcDbSymbolTable
 70
     1
  0
VIEW
  5
19C
330
1B0
100
AcDbSymbolTableRecord
100
AcDbViewTableRecord
  2
10-ele
 70
     0
 40
2040.000000000001
 10
597.6361962217097
 20
4133.999999999996
 41
2803.999999999998
 11
0.0
 21
0.0
 31
1.0
 12
0.0
 22
0.0
 32
0.0
 42
50.0
 43
0.0
 44
0.0
 50
0.0
 71
     0
281
     0
 72
     1
110
0.0
120
0.0
130
0.0
111
1.0
121
0.0
131
0.0
112
0.0
122
1.0
132
0.0
 79
     0
146
0.0
  0
ENDTAB
  0
TABLE
  2
UCS
  5
1B1
330
0
100
AcDbSymbolTable
 70
     0
  0
ENDTAB
  0
TABLE
  2
APPID
  5
1B4
330
0
100
AcDbSymbolTable
 70
     4
  0
APPID
  5
15
330
1B4
100
AcDbSymbolTableRecord
100
AcDbRegAppTableRecord
  2
ACAD
 70
     0
  0
APPID
  5
F
330
1B4
100
AcDbSymbolTableRecord
100
AcDbRegAppTableRecord
  2
RAK
 70
     0
  0
APPID
  5
1A5
330
1B4
100
AcDbSymbolTableRecord
100
AcDbRegAppTableRecord
  2
ACAD_PSEXT
 70
     0
  0
APPID
  5
1A9
330
1B4
100
AcDbSymbolTableRecord
100
AcDbRegAppTableRecord
  2
AcLayerTools
 70
     0
  0
ENDTAB
  0
TABLE
  2
DIMSTYLE
  5
1B5
330
0
100
AcDbSymbolTable
 70
     3
100
AcDbDimStyleTable
 71
     3
340
1B6
340
75
340
1BC
  0
DIMSTYLE
105
1BC
330
1B5
100
AcDbSymbolTableRecord
100
AcDbDimStyleTableRecord
  2
Standard
 70
     0
340
1AB
  0
DIMSTYLE
105
75
102
{ACAD_REACTORS
330
8E
330
5D
330
81
330
76
330
99
330
B1
330
A4
330
11F
330
12A
330
137
330
F1
330
FC
330
107
330
114
102
}
330
1B5
100
AcDbSymbolTableRecord
100
AcDbDimStyleTableRecord
  2
500
 70
     0
 41
30.0
 42
43.0
 43
0.0
 44
13.0
 45
0.5
 46
12.0
 73
     0
 74
     0
 75
     1
 76
     1
 78
    12
140
80.0
141
0.0
145
1.0
147
0.0
172
     1
174
     1
176
     1
177
     1
178
    10
271
     1
272
     1
279
     2
340
6F
341
65
342
65
  0
DIMSTYLE
105
1B6
330
1B5
100
AcDbSymbolTableRecord
100
AcDbDimStyleTableRecord
  2
100-archon
 70
     0
 41
8.0
 42
43.0
 43
24.0
 44
13.0
 45
0.5
 46
12.0
 73
     0
 74
     0
 75
     1
 76
     1
 78
     8
140
16.0
141
0.0
145
1.0
147
4.0
172
     1
174
     1
176
     1
177
     1
178
   140
271
     1
272
     1
279
     2
340
6F
341
1B7
342
65
371
     5
  0
ENDTAB
  0
TABLE
  2
BLOCK_RECORD
  5
1
330
0
100
AcDbSymbolTable
 70
    16
  0
BLOCK_RECORD
  5
2
102
{ACAD_XDICTIONARY
360
3
102
}
330
1
100
AcDbSymbolTableRecord
100
AcDbBlockTableRecord
  2
*MODEL_SPACE
340
19A
  0
BLOCK_RECORD
  5
19F
330
1
100
AcDbSymbolTableRecord
100
AcDbBlockTableRecord
  2
*Paper_Space
340
1A2
  0
BLOCK_RECORD
  5
65
102
{ACAD_XDICTIONARY
360
66
102
}
330
1
100
AcDbSymbolTableRecord
100
AcDbBlockTableRecord
  2
B-DIM
340
0
102
{BLKREFS
331
92
331
93
331
64
331
6D
331
7A
331
7B
331
87
331
88
331
9D
331
9E
331
B5
331
B6
331
AA
331
AB
331
123
331
124
331
130
331
131
331
13B
331
13C
331
F5
331
F6
331
100
331
101
331
10D
331
10E
331
118
331
119
102
}
  0
BLOCK_RECORD
  5
1B7
330
1
100
AcDbSymbolTableRecord
100
AcDbBlockTableRecord
  2
_Dot
340
0
  0
BLOCK_RECORD
  5
61
330
1
100
AcDbSymbolTableRecord
100
AcDbBlockTableRecord
  2
*D2
340
0
  0
BLOCK_RECORD
  5
77
330
1
100
AcDbSymbolTableRecord
100
AcDbBlockTableRecord
  2
*D3
340
0
  0
BLOCK_RECORD
  5
82
330
1
100
AcDbSymbolTableRecord
100
AcDbBlockTableRecord
  2
*D4
340
0
  0
BLOCK_RECORD
  5
8F
330
1
100
AcDbSymbolTableRecord
100
AcDbBlockTableRecord
  2
*D5
340
0
  0
BLOCK_RECORD
  5
9A
330
1
100
AcDbSymbolTableRecord
100
AcDbBlockTableRecord
  2
*D6
340
0
  0
BLOCK_RECORD
  5
A5
330
1
100
AcDbSymbolTableRecord
100
AcDbBlockTableRecord
  2
*D7
340
0
  0
BLOCK_RECORD
  5
B2
330
1
100
AcDbSymbolTableRecord
100
AcDbBlockTableRecord
  2
*D8
340
0
  0
BLOCK_RECORD
  5
120
330
1
100
AcDbSymbolTableRecord
100
AcDbBlockTableRecord
  2
*D9
340
0
  0
BLOCK_RECORD
  5
12B
330
1
100
AcDbSymbolTableRecord
100
AcDbBlockTableRecord
  2
*D10
340
0
  0
BLOCK_RECORD
  5
138
330
1
100
AcDbSymbolTableRecord
100
AcDbBlockTableRecord
  2
*D11
340
0
  0
BLOCK_RECORD
  5
F2
330
1
100
AcDbSymbolTableRecord
100
AcDbBlockTableRecord
  2
*D12
340
0
  0
BLOCK_RECORD
  5
FD
330
1
100
AcDbSymbolTableRecord
100
AcDbBlockTableRecord
  2
*D13
340
0
  0
BLOCK_RECORD
  5
108
330
1
100
AcDbSymbolTableRecord
100
AcDbBlockTableRecord
  2
*D14
340
0
  0
BLOCK_RECORD
  5
115
330
1
100
AcDbSymbolTableRecord
100
AcDbBlockTableRecord
  2
*D15
340
0
  0
ENDTAB
  0
ENDSEC
  0
SECTION
  2
BLOCKS
  0
BLOCK
  5
5
330
2
100
AcDbEntity
  8
0
100
AcDbBlockBegin
  2
*MODEL_SPACE
 70
     0
 10
0.0
 20
0.0
 30
0.0
  3
*MODEL_SPACE
  1

  0
ENDBLK
  5
199
330
2
100
AcDbEntity
  8
0
100
AcDbBlockEnd
  0
BLOCK
  5
1A0
330
19F
100
AcDbEntity
 67
     1
  8
0
 48
4.0
100
AcDbBlockBegin
  2
*Paper_Space
 70
     0
 10
0.0
 20
0.0
 30
0.0
  3
*Paper_Space
  1

  0
ENDBLK
  5
1A1
330
19F
100
AcDbEntity
 67
     1
  8
0
 48
4.0
100
AcDbBlockEnd
  0
BLOCK
  5
68
330
65
100
AcDbEntity
  8
0
100
AcDbBlockBegin
  2
B-DIM
 70
     0
 10
0.0
 20
0.0
 30
0.0
  3
B-DIM
  1

  0
LINE
  5
69
330
65
100
AcDbEntity
  8
0
 62
     1
100
AcDbLine
 10
0.000000000000091
 20
-1.1
 30
0.0
 11
0.000000000000091
 21
1.1
 31
0.0
  0
LWPOLYLINE
  5
6A
330
65
100
AcDbEntity
  8
0
 62
     1
100
AcDbPolyline
 90
        2
 70
     0
 43
0.3
 10
-0.7071067811864851
 20
-0.7071067811864851
 10
0.707106781186576
 20
0.707106781186576
  0
LINE
  5
6B
330
65
100
AcDbEntity
  8
0
 62
     1
100
AcDbLine
 10
1.20000000000009
 20
0.0
 30
0.0
 11
-1.199999999999909
 21
0.0
 31
0.0
  0
ENDBLK
  5
6C
330
65
100
AcDbEntity
  8
0
100
AcDbBlockEnd
  0
BLOCK
  5
1B8
330
1B7
100
AcDbEntity
  8
0
100
AcDbBlockBegin
  2
_Dot
 70
     0
 10
0.0
 20
0.0
 30
0.0
  3
_Dot
  1

  0
LWPOLYLINE
  5
1B9
330
1B7
100
AcDbEntity
  8
0
  6
ByBlock
 62
     0
100
AcDbPolyline
 90
        2
 70
     1
 43
0.5
 10
-0.25
 20
0.0
 42
1.0
 10
0.25
 20
0.0
 42
1.0
  0
LINE
  5
1BA
330
1B7
100
AcDbEntity
  8
0
  6
ByBlock
 62
     0
370
    -2
100
AcDbLine
 10
-0.5
 20
0.0
 30
0.0
 11
-1.0
 21
0.0
 31
0.0
  0
ENDBLK
  5
1BB
330
1B7
100
AcDbEntity
  8
0
100
AcDbBlockEnd
  0
BLOCK
  5
62
330
61
100
AcDbEntity
  8
0
 48
4.0
100
AcDbBlockBegin
  2
*D2
 70
     1
 10
0.0
 20
0.0
 30
0.0
  3
*D2
  1

  0
LINE
  5
63
330
61
100
AcDbEntity
  8
WYMIARY
 62
     1
370
    -2
100
AcDbLine
 10
6096.593140027471
 20
18389.00516934247
 30
0.0
 11
6386.593140027472
 21
18389.00516934247
 31
0.0
  0
INSERT
  5
64
330
61
100
AcDbEntity
  8
WYMIARY
 62
     1
370
    -2
100
AcDbBlockReference
  2
B-DIM
 10
6066.593140027471
 20
18389.00516934247
 30
0.0
 41
30.0
 42
30.0
 43
30.0
 50
180.0
  0
INSERT
  5
6D
330
61
100
AcDbEntity
  8
WYMIARY
 62
     1
370
    -2
100
AcDbBlockReference
  2
B-DIM
 10
6416.593140027472
 20
18389.00516934247
 30
0.0
 41
30.0
 42
30.0
 43
30.0
  0
MTEXT
  5
6E
330
61
100
AcDbEntity
  8
WYMIARY
 62
    10
100
AcDbMText
 10
6241.593140027472
 20
18469.00516934247
 30
0.0
 40
80.0
 41
0.0
 71
     5
 72
     1
  1
\A1;350
  7
ROMANS
 73
     1
 44
1.0
1001
ACAD
1000
MTEXTBEGIN
1070
    73
1070
     1
1070
    44
1040
1.0
1070
    74
1070
     0
1000
MTEXTEND
  0
POINT
  5
70
330
61
100
AcDbEntity
  8
Defpoints
 62
     0
100
AcDbPoint
 10
6066.593140027471
 20
18232.89773814853
 30
0.0
  0
POINT
  5
72
330
61
100
AcDbEntity
  8
Defpoints
 62
     0
100
AcDbPoint
 10
6416.593140027472
 20
18272.89773814853
 30
0.0
  0
POINT
  5
73
330
61
100
AcDbEntity
  8
Defpoints
 62
     0
100
AcDbPoint
 10
6416.593140027472
 20
18389.00516934247
 30
0.0
  0
ENDBLK
  5
74
330
61
100
AcDbEntity
  8
0
 48
4.0
100
AcDbBlockEnd
  0
BLOCK
  5
78
330
77
100
AcDbEntity
  8
0
 48
4.0
100
AcDbBlockBegin
  2
*D3
 70
     1
 10
0.0
 20
0.0
 30
0.0
  3
*D3
  1

  0
LINE
  5
79
330
77
100
AcDbEntity
  8
WYMIARY
 62
     1
370
    -2
100
AcDbLine
 10
6446.593140027473
 20
18389.00516934247
 30
0.0
 11
7436.59314002747
 21
18389.00516934247
 31
0.0
  0
INSERT
  5
7A
330
77
100
AcDbEntity
  8
WYMIARY
 62
     1
370
    -2
100
AcDbBlockReference
  2
B-DIM
 10
6416.593140027472
 20
18389.00516934247
 30
0.0
 41
30.0
 42
30.0
 43
30.0
 50
180.0
  0
INSERT
  5
7B
330
77
100
AcDbEntity
  8
WYMIARY
 62
     1
370
    -2
100
AcDbBlockReference
  2
B-DIM
 10
7466.59314002747
 20
18389.00516934247
 30
0.0
 41
30.0
 42
30.0
 43
30.0
  0
MTEXT
  5
7C
330
77
100
AcDbEntity
  8
WYMIARY
 62
    10
100
AcDbMText
 10
6941.593140027471
 20
18469.00516934247
 30
0.0
 40
80.0
 41
0.0
 71
     5
 72
     1
  1
\A1;1050
  7
ROMANS
 73
     1
 44
1.0
1001
ACAD
1000
MTEXTBEGIN
1070
    73
1070
     1
1070
    44
1040
1.0
1070
    74
1070
     0
1000
MTEXTEND
  0
POINT
  5
7D
330
77
100
AcDbEntity
  8
Defpoints
 62
     0
100
AcDbPoint
 10
6416.593140027472
 20
18272.89773814853
 30
0.0
  0
POINT
  5
7E
330
77
100
AcDbEntity
  8
Defpoints
 62
     0
100
AcDbPoint
 10
7466.59314002747
 20
18272.89773814853
 30
0.0
  0
POINT
  5
7F
330
77
100
AcDbEntity
  8
Defpoints
 62
     0
100
AcDbPoint
 10
7466.59314002747
 20
18389.00516934247
 30
0.0
  0
ENDBLK
  5
80
330
77
100
AcDbEntity
  8
0
 48
4.0
100
AcDbBlockEnd
  0
BLOCK
  5
83
330
82
100
AcDbEntity
  8
0
 48
4.0
100
AcDbBlockBegin
  2
*D4
 70
     1
 10
0.0
 20
0.0
 30
0.0
  3
*D4
  1

  0
LINE
  5
84
330
82
100
AcDbEntity
  8
WYMIARY
 62
     1
370
    -2
100
AcDbLine
 10
7436.59314002747
 20
18389.00516934247
 30
0.0
 11
7406.593140027471
 21
18389.00516934247
 31
0.0
  0
LINE
  5
85
330
82
100
AcDbEntity
  8
WYMIARY
 62
     1
370
    -2
100
AcDbLine
 10
7616.593140027472
 20
18389.00516934247
 30
0.0
 11
7646.593140027471
 21
18389.00516934247
 31
0.0
  0
LINE
  5
86
330
82
100
AcDbEntity
  8
WYMIARY
 62
     1
370
    -2
100
AcDbLine
 10
7466.59314002747
 20
18389.00516934247
 30
0.0
 11
7586.593140027471
 21
18389.00516934247
 31
0.0
  0
INSERT
  5
87
330
82
100
AcDbEntity
  8
WYMIARY
 62
     1
370
    -2
100
AcDbBlockReference
  2
B-DIM
 10
7466.59314002747
 20
18389.00516934247
 30
0.0
 41
30.0
 42
30.0
 43
30.0
  0
INSERT
  5
88
330
82
100
AcDbEntity
  8
WYMIARY
 62
     1
370
    -2
100
AcDbBlockReference
  2
B-DIM
 10
7586.593140027471
 20
18389.00516934247
 30
0.0
 41
30.0
 42
30.0
 43
30.0
 50
180.0
  0
MTEXT
  5
89
330
82
100
AcDbEntity
  8
WYMIARY
 62
    10
100
AcDbMText
 10
7526.593140027471
 20
18469.00516934247
 30
0.0
 40
80.0
 41
0.0
 71
     5
 72
     1
  1
\A1;120
  7
ROMANS
 73
     1
 44
1.0
1001
ACAD
1000
MTEXTBEGIN
1070
    73
1070
     1
1070
    44
1040
1.0
1070
    74
1070
     0
1000
MTEXTEND
  0
POINT
  5
8A
330
82
100
AcDbEntity
  8
Defpoints
 62
     0
100
AcDbPoint
 10
7466.59314002747
 20
18272.89773814853
 30
0.0
  0
POINT
  5
8B
330
82
100
AcDbEntity
  8
Defpoints
 62
     0
100
AcDbPoint
 10
7586.593140027471
 20
17981.55206364757
 30
0.0
  0
POINT
  5
8C
330
82
100
AcDbEntity
  8
Defpoints
 62
     0
100
AcDbPoint
 10
7586.593140027471
 20
18389.00516934247
 30
0.0
  0
ENDBLK
  5
8D
330
82
100
AcDbEntity
  8
0
 48
4.0
100
AcDbBlockEnd
  0
BLOCK
  5
90
330
8F
100
AcDbEntity
  8
0
 48
4.0
100
AcDbBlockBegin
  2
*D5
 70
     1
 10
0.0
 20
0.0
 30
0.0
  3
*D5
  1

  0
LINE
  5
91
330
8F
100
AcDbEntity
  8
WYMIARY
 62
     1
370
    -2
100
AcDbLine
 10
7556.593140027472
 20
18572.48318988081
 30
0.0
 11
6096.593140027471
 21
18572.48318988081
 31
0.0
  0
INSERT
  5
92
330
8F
100
AcDbEntity
  8
WYMIARY
 62
     1
370
    -2
100
AcDbBlockReference
  2
B-DIM
 10
7586.593140027471
 20
18572.48318988081
 30
0.0
 41
30.0
 42
30.0
 43
30.0
  0
INSERT
  5
93
330
8F
100
AcDbEntity
  8
WYMIARY
 62
     1
370
    -2
100
AcDbBlockReference
  2
B-DIM
 10
6066.593140027471
 20
18572.48318988081
 30
0.0
 41
30.0
 42
30.0
 43
30.0
 50
180.0
  0
MTEXT
  5
94
330
8F
100
AcDbEntity
  8
WYMIARY
 62
    10
100
AcDbMText
 10
6826.593140027471
 20
18652.48318988081
 30
0.0
 40
80.0
 41
0.0
 71
     5
 72
     1
  1
\A1;1520
  7
ROMANS
 73
     1
 44
1.0
1001
ACAD
1000
MTEXTBEGIN
1070
    73
1070
     1
1070
    44
1040
1.0
1070
    74
1070
     0
1000
MTEXTEND
  0
POINT
  5
95
330
8F
100
AcDbEntity
  8
Defpoints
 62
     0
100
AcDbPoint
 10
7586.593140027471
 20
18057.83520386352
 30
0.0
  0
POINT
  5
96
330
8F
100
AcDbEntity
  8
Defpoints
 62
     0
100
AcDbPoint
 10
6066.593140027471
 20
18309.18087836448
 30
0.0
  0
POINT
  5
97
330
8F
100
AcDbEntity
  8
Defpoints
 62
     0
100
AcDbPoint
 10
6066.593140027471
 20
18572.48318988081
 30
0.0
  0
ENDBLK
  5
98
330
8F
100
AcDbEntity
  8
0
 48
4.0
100
AcDbBlockEnd
  0
BLOCK
  5
9B
330
9A
100
AcDbEntity
  8
0
 48
4.0
100
AcDbBlockBegin
  2
*D6
 70
     1
 10
0.0
 20
0.0
 30
0.0
  3
*D6
  1

  0
LINE
  5
9C
330
9A
100
AcDbEntity
  8
WYMIARY
 62
     1
370
    -2
100
AcDbLine
 10
7887.714009876567
 20
18029.96375625223
 30
0.0
 11
7887.714009876567
 21
17339.96375625223
 31
0.0
  0
INSERT
  5
9D
330
9A
100
AcDbEntity
  8
WYMIARY
 62
     1
370
    -2
100
AcDbBlockReference
  2
B-DIM
 10
7887.714009876567
 20
18059.96375625223
 30
0.0
 41
30.0
 42
30.0
 43
30.0
 50
90.0
  0
INSERT
  5
9E
330
9A
100
AcDbEntity
  8
WYMIARY
 62
     1
370
    -2
100
AcDbBlockReference
  2
B-DIM
 10
7887.714009876567
 20
17309.96375625223
 30
0.0
 41
30.0
 42
30.0
 43
30.0
 50
270.0
  0
MTEXT
  5
9F
330
9A
100
AcDbEntity
  8
WYMIARY
 62
    10
100
AcDbMText
 10
7807.714009876564
 20
17684.96375625223
 30
0.0
 40
80.0
 41
0.0
 71
     5
 72
     1
  1
\A1;750
  7
ROMANS
 11
0.0000000000000001
 21
1.0
 31
0.0
 73
     1
 44
1.0
1001
ACAD
1000
MTEXTBEGIN
1070
    73
1070
     1
1070
    44
1040
1.0
1070
    74
1070
     0
1000
MTEXTEND
  0
POINT
  5
A0
330
9A
100
AcDbEntity
  8
Defpoints
 62
     0
100
AcDbPoint
 10
7466.59314002747
 20
18059.96375625223
 30
0.0
  0
POINT
  5
A1
330
9A
100
AcDbEntity
  8
Defpoints
 62
     0
100
AcDbPoint
 10
7466.593140027473
 20
17309.96375625223
 30
0.0
  0
POINT
  5
A2
330
9A
100
AcDbEntity
  8
Defpoints
 62
     0
100
AcDbPoint
 10
7887.714009876567
 20
17309.96375625223
 30
0.0
  0
ENDBLK
  5
A3
330
9A
100
AcDbEntity
  8
0
 48
4.0
100
AcDbBlockEnd
  0
BLOCK
  5
A6
330
A5
100
AcDbEntity
  8
0
 48
4.0
100
AcDbBlockBegin
  2
*D7
 70
     1
 10
0.0
 20
0.0
 30
0.0
  3
*D7
  1

  0
LINE
  5
A7
330
A5
100
AcDbEntity
  8
WYMIARY
 62
     1
370
    -2
100
AcDbLine
 10
7887.714009876567
 20
17339.96375625223
 30
0.0
 11
7887.714009876567
 21
17369.96375625223
 31
0.0
  0
LINE
  5
A8
330
A5
100
AcDbEntity
  8
WYMIARY
 62
     1
370
    -2
100
AcDbLine
 10
7887.714009876567
 20
17229.96375625223
 30
0.0
 11
7887.714009876567
 21
17199.96375625223
 31
0.0
  0
LINE
  5
A9
330
A5
100
AcDbEntity
  8
WYMIARY
 62
     1
370
    -2
100
AcDbLine
 10
7887.714009876567
 20
17309.96375625223
 30
0.0
 11
7887.714009876567
 21
17259.96375625223
 31
0.0
  0
INSERT
  5
AA
330
A5
100
AcDbEntity
  8
WYMIARY
 62
     1
370
    -2
100
AcDbBlockReference
  2
B-DIM
 10
7887.714009876567
 20
17309.96375625223
 30
0.0
 41
30.0
 42
30.0
 43
30.0
 50
270.0
  0
INSERT
  5
AB
330
A5
100
AcDbEntity
  8
WYMIARY
 62
     1
370
    -2
100
AcDbBlockReference
  2
B-DIM
 10
7887.714009876567
 20
17259.96375625223
 30
0.0
 41
30.0
 42
30.0
 43
30.0
 50
90.0
  0
MTEXT
  5
AC
330
A5
100
AcDbEntity
  8
WYMIARY
 62
    10
100
AcDbMText
 10
7807.714009876564
 20
17284.96375625223
 30
0.0
 40
80.0
 41
0.0
 71
     5
 72
     1
  1
\A1;50
  7
ROMANS
 11
0.0000000000000001
 21
1.0
 31
0.0
 73
     1
 44
1.0
1001
ACAD
1000
MTEXTBEGIN
1070
    73
1070
     1
1070
    44
1040
1.0
1070
    74
1070
     0
1000
MTEXTEND
  0
POINT
  5
AD
330
A5
100
AcDbEntity
  8
Defpoints
 62
     0
100
AcDbPoint
 10
7466.593140027473
 20
17309.96375625223
 30
0.0
  0
POINT
  5
AE
330
A5
100
AcDbEntity
  8
Defpoints
 62
     0
100
AcDbPoint
 10
7100.093140027471
 20
17259.96375625223
 30
-230.0
  0
POINT
  5
AF
330
A5
100
AcDbEntity
  8
Defpoints
 62
     0
100
AcDbPoint
 10
7887.714009876567
 20
17259.96375625223
 30
0.0
  0
ENDBLK
  5
B0
330
A5
100
AcDbEntity
  8
0
 48
4.0
100
AcDbBlockEnd
  0
BLOCK
  5
B3
330
B2
100
AcDbEntity
  8
0
 48
4.0
100
AcDbBlockBegin
  2
*D8
 70
     1
 10
0.0
 20
0.0
 30
0.0
  3
*D8
  1

  0
LINE
  5
B4
330
B2
100
AcDbEntity
  8
WYMIARY
 62
     1
370
    -2
100
AcDbLine
 10
8068.062389082305
 20
18029.96375625223
 30
0.0
 11
8068.062389082305
 21
17289.96375625223
 31
0.0
  0
INSERT
  5
B5
330
B2
100
AcDbEntity
  8
WYMIARY
 62
     1
370
    -2
100
AcDbBlockReference
  2
B-DIM
 10
8068.062389082305
 20
18059.96375625223
 30
0.0
 41
30.0
 42
30.0
 43
30.0
 50
90.0
  0
INSERT
  5
B6
330
B2
100
AcDbEntity
  8
WYMIARY
 62
     1
370
    -2
100
AcDbBlockReference
  2
B-DIM
 10
8068.062389082305
 20
17259.96375625223
 30
0.0
 41
30.0
 42
30.0
 43
30.0
 50
270.0
  0
MTEXT
  5
B7
330
B2
100
AcDbEntity
  8
WYMIARY
 62
    10
100
AcDbMText
 10
7988.062389082301
 20
17659.96375625223
 30
0.0
 40
80.0
 41
0.0
 71
     5
 72
     1
  1
\A1;800
  7
ROMANS
 11
0.0000000000000001
 21
1.0
 31
0.0
 73
     1
 44
1.0
1001
ACAD
1000
MTEXTBEGIN
1070
    73
1070
     1
1070
    44
1040
1.0
1070
    74
1070
     0
1000
MTEXTEND
  0
POINT
  5
B8
330
B2
100
AcDbEntity
  8
Defpoints
 62
     0
100
AcDbPoint
 10
7466.59314002747
 20
18059.96375625223
 30
0.0
  0
POINT
  5
B9
330
B2
100
AcDbEntity
  8
Defpoints
 62
     0
100
AcDbPoint
 10
7100.093140027471
 20
17259.96375625223
 30
-230.0
  0
POINT
  5
BA
330
B2
100
AcDbEntity
  8
Defpoints
 62
     0
100
AcDbPoint
 10
8068.062389082305
 20
17259.96375625223
 30
0.0
  0
ENDBLK
  5
BB
330
B2
100
AcDbEntity
  8
0
 48
4.0
100
AcDbBlockEnd
  0
BLOCK
  5
121
330
120
100
AcDbEntity
  8
0
 48
4.0
100
AcDbBlockBegin
  2
*D9
 70
     1
 10
0.0
 20
0.0
 30
0.0
  3
*D9
  1

  0
LINE
  5
122
330
120
100
AcDbEntity
  8
WYMIARY
 62
     1
370
    -2
100
AcDbLine
 10
10131.94691441936
 20
18029.96375625223
 30
0.0
 11
10131.94691441936
 21
17339.96375625223
 31
0.0
  0
INSERT
  5
123
330
120
100
AcDbEntity
  8
WYMIARY
 62
     1
370
    -2
100
AcDbBlockReference
  2
B-DIM
 10
10131.94691441936
 20
18059.96375625223
 30
0.0
 41
30.0
 42
30.0
 43
30.0
 50
90.0
  0
INSERT
  5
124
330
120
100
AcDbEntity
  8
WYMIARY
 62
     1
370
    -2
100
AcDbBlockReference
  2
B-DIM
 10
10131.94691441936
 20
17309.96375625223
 30
0.0
 41
30.0
 42
30.0
 43
30.0
 50
270.0
  0
MTEXT
  5
125
330
120
100
AcDbEntity
  8
WYMIARY
 62
    10
100
AcDbMText
 10
10051.94691441935
 20
17684.96375625223
 30
0.0
 40
80.0
 41
0.0
 71
     5
 72
     1
  1
\A1;750
  7
ROMANS
 11
0.0000000000000001
 21
1.0
 31
0.0
 73
     1
 44
1.0
1001
ACAD
1000
MTEXTBEGIN
1070
    73
1070
     1
1070
    44
1040
1.0
1070
    74
1070
     0
1000
MTEXTEND
  0
POINT
  5
126
330
120
100
AcDbEntity
  8
Defpoints
 62
     0
100
AcDbPoint
 10
10553.06778426845
 20
18059.96375625223
 30
0.0
  0
POINT
  5
127
330
120
100
AcDbEntity
  8
Defpoints
 62
     0
100
AcDbPoint
 10
10553.06778426845
 20
17309.96375625223
 30
0.0
  0
POINT
  5
128
330
120
100
AcDbEntity
  8
Defpoints
 62
     0
100
AcDbPoint
 10
10131.94691441936
 20
17309.96375625223
 30
0.0
  0
ENDBLK
  5
129
330
120
100
AcDbEntity
  8
0
 48
4.0
100
AcDbBlockEnd
  0
BLOCK
  5
12C
330
12B
100
AcDbEntity
  8
0
 48
4.0
100
AcDbBlockBegin
  2
*D10
 70
     1
 10
0.0
 20
0.0
 30
0.0
  3
*D10
  1

  0
LINE
  5
12D
330
12B
100
AcDbEntity
  8
WYMIARY
 62
     1
370
    -2
100
AcDbLine
 10
10131.94691441936
 20
17339.96375625223
 30
0.0
 11
10131.94691441936
 21
17369.96375625223
 31
0.0
  0
LINE
  5
12E
330
12B
100
AcDbEntity
  8
WYMIARY
 62
     1
370
    -2
100
AcDbLine
 10
10131.94691441936
 20
17229.96375625223
 30
0.0
 11
10131.94691441936
 21
17199.96375625223
 31
0.0
  0
LINE
  5
12F
330
12B
100
AcDbEntity
  8
WYMIARY
 62
     1
370
    -2
100
AcDbLine
 10
10131.94691441936
 20
17309.96375625223
 30
0.0
 11
10131.94691441936
 21
17259.96375625223
 31
0.0
  0
INSERT
  5
130
330
12B
100
AcDbEntity
  8
WYMIARY
 62
     1
370
    -2
100
AcDbBlockReference
  2
B-DIM
 10
10131.94691441936
 20
17309.96375625223
 30
0.0
 41
30.0
 42
30.0
 43
30.0
 50
270.0
  0
INSERT
  5
131
330
12B
100
AcDbEntity
  8
WYMIARY
 62
     1
370
    -2
100
AcDbBlockReference
  2
B-DIM
 10
10131.94691441936
 20
17259.96375625223
 30
0.0
 41
30.0
 42
30.0
 43
30.0
 50
90.0
  0
MTEXT
  5
132
330
12B
100
AcDbEntity
  8
WYMIARY
 62
    10
100
AcDbMText
 10
10051.94691441935
 20
17284.96375625224
 30
0.0
 40
80.0
 41
0.0
 71
     5
 72
     1
  1
\A1;50
  7
ROMANS
 11
0.0000000000000001
 21
1.0
 31
0.0
 73
     1
 44
1.0
1001
ACAD
1000
MTEXTBEGIN
1070
    73
1070
     1
1070
    44
1040
1.0
1070
    74
1070
     0
1000
MTEXTEND
  0
POINT
  5
133
330
12B
100
AcDbEntity
  8
Defpoints
 62
     0
100
AcDbPoint
 10
10553.06778426845
 20
17309.96375625223
 30
0.0
  0
POINT
  5
134
330
12B
100
AcDbEntity
  8
Defpoints
 62
     0
100
AcDbPoint
 10
10919.56778426845
 20
17259.96375625223
 30
-230.0
  0
POINT
  5
135
330
12B
100
AcDbEntity
  8
Defpoints
 62
     0
100
AcDbPoint
 10
10131.94691441936
 20
17259.96375625223
 30
0.0
  0
ENDBLK
  5
136
330
12B
100
AcDbEntity
  8
0
 48
4.0
100
AcDbBlockEnd
  0
BLOCK
  5
139
330
138
100
AcDbEntity
  8
0
 48
4.0
100
AcDbBlockBegin
  2
*D11
 70
     1
 10
0.0
 20
0.0
 30
0.0
  3
*D11
  1

  0
LINE
  5
13A
330
138
100
AcDbEntity
  8
WYMIARY
 62
     1
370
    -2
100
AcDbLine
 10
9951.598535213619
 20
18029.96375625223
 30
0.0
 11
9951.598535213619
 21
17289.96375625223
 31
0.0
  0
INSERT
  5
13B
330
138
100
AcDbEntity
  8
WYMIARY
 62
     1
370
    -2
100
AcDbBlockReference
  2
B-DIM
 10
9951.598535213619
 20
18059.96375625223
 30
0.0
 41
30.0
 42
30.0
 43
30.0
 50
90.0
  0
INSERT
  5
13C
330
138
100
AcDbEntity
  8
WYMIARY
 62
     1
370
    -2
100
AcDbBlockReference
  2
B-DIM
 10
9951.598535213619
 20
17259.96375625223
 30
0.0
 41
30.0
 42
30.0
 43
30.0
 50
270.0
  0
MTEXT
  5
13D
330
138
100
AcDbEntity
  8
WYMIARY
 62
    10
100
AcDbMText
 10
9871.598535213617
 20
17659.96375625223
 30
0.0
 40
80.0
 41
0.0
 71
     5
 72
     1
  1
\A1;800
  7
ROMANS
 11
0.0000000000000001
 21
1.0
 31
0.0
 73
     1
 44
1.0
1001
ACAD
1000
MTEXTBEGIN
1070
    73
1070
     1
1070
    44
1040
1.0
1070
    74
1070
     0
1000
MTEXTEND
  0
POINT
  5
13E
330
138
100
AcDbEntity
  8
Defpoints
 62
     0
100
AcDbPoint
 10
10553.06778426845
 20
18059.96375625223
 30
0.0
  0
POINT
  5
13F
330
138
100
AcDbEntity
  8
Defpoints
 62
     0
100
AcDbPoint
 10
10919.56778426845
 20
17259.96375625223
 30
-230.0
  0
POINT
  5
140
330
138
100
AcDbEntity
  8
Defpoints
 62
     0
100
AcDbPoint
 10
9951.598535213619
 20
17259.96375625223
 30
0.0
  0
ENDBLK
  5
141
330
138
100
AcDbEntity
  8
0
 48
4.0
100
AcDbBlockEnd
  0
BLOCK
  5
F3
330
F2
100
AcDbEntity
  8
0
 48
4.0
100
AcDbBlockBegin
  2
*D12
 70
     1
 10
0.0
 20
0.0
 30
0.0
  3
*D12
  1

  0
LINE
  5
F4
330
F2
100
AcDbEntity
  8
WYMIARY
 62
     1
370
    -2
100
AcDbLine
 10
11923.06778426845
 20
18389.00516934247
 30
0.0
 11
11633.06778426845
 21
18389.00516934247
 31
0.0
  0
INSERT
  5
F5
330
F2
100
AcDbEntity
  8
WYMIARY
 62
     1
370
    -2
100
AcDbBlockReference
  2
B-DIM
 10
11953.06778426845
 20
18389.00516934247
 30
0.0
 41
30.0
 42
30.0
 43
30.0
  0
INSERT
  5
F6
330
F2
100
AcDbEntity
  8
WYMIARY
 62
     1
370
    -2
100
AcDbBlockReference
  2
B-DIM
 10
11603.06778426845
 20
18389.00516934247
 30
0.0
 41
30.0
 42
30.0
 43
30.0
 50
180.0
  0
MTEXT
  5
F7
330
F2
100
AcDbEntity
  8
WYMIARY
 62
    10
100
AcDbMText
 10
11778.06778426845
 20
18469.00516934247
 30
0.0
 40
80.0
 41
0.0
 71
     5
 72
     1
  1
\A1;350
  7
ROMANS
 73
     1
 44
1.0
1001
ACAD
1000
MTEXTBEGIN
1070
    73
1070
     1
1070
    44
1040
1.0
1070
    74
1070
     0
1000
MTEXTEND
  0
POINT
  5
F8
330
F2
100
AcDbEntity
  8
Defpoints
 62
     0
100
AcDbPoint
 10
11953.06778426845
 20
18232.89773814853
 30
0.0
  0
POINT
  5
F9
330
F2
100
AcDbEntity
  8
Defpoints
 62
     0
100
AcDbPoint
 10
11603.06778426845
 20
18272.89773814853
 30
0.0
  0
POINT
  5
FA
330
F2
100
AcDbEntity
  8
Defpoints
 62
     0
100
AcDbPoint
 10
11603.06778426845
 20
18389.00516934247
 30
0.0
  0
ENDBLK
  5
FB
330
F2
100
AcDbEntity
  8
0
 48
4.0
100
AcDbBlockEnd
  0
BLOCK
  5
FE
330
FD
100
AcDbEntity
  8
0
 48
4.0
100
AcDbBlockBegin
  2
*D13
 70
     1
 10
0.0
 20
0.0
 30
0.0
  3
*D13
  1

  0
LINE
  5
FF
330
FD
100
AcDbEntity
  8
WYMIARY
 62
     1
370
    -2
100
AcDbLine
 10
11573.06778426845
 20
18389.00516934247
 30
0.0
 11
10583.06778426845
 21
18389.00516934247
 31
0.0
  0
INSERT
  5
100
330
FD
100
AcDbEntity
  8
WYMIARY
 62
     1
370
    -2
100
AcDbBlockReference
  2
B-DIM
 10
11603.06778426845
 20
18389.00516934247
 30
0.0
 41
30.0
 42
30.0
 43
30.0
  0
INSERT
  5
101
330
FD
100
AcDbEntity
  8
WYMIARY
 62
     1
370
    -2
100
AcDbBlockReference
  2
B-DIM
 10
10553.06778426845
 20
18389.00516934247
 30
0.0
 41
30.0
 42
30.0
 43
30.0
 50
180.0
  0
MTEXT
  5
102
330
FD
100
AcDbEntity
  8
WYMIARY
 62
    10
100
AcDbMText
 10
11078.06778426845
 20
18469.00516934247
 30
0.0
 40
80.0
 41
0.0
 71
     5
 72
     1
  1
\A1;1050
  7
ROMANS
 73
     1
 44
1.0
1001
ACAD
1000
MTEXTBEGIN
1070
    73
1070
     1
1070
    44
1040
1.0
1070
    74
1070
     0
1000
MTEXTEND
  0
POINT
  5
103
330
FD
100
AcDbEntity
  8
Defpoints
 62
     0
100
AcDbPoint
 10
11603.06778426845
 20
18272.89773814853
 30
0.0
  0
POINT
  5
104
330
FD
100
AcDbEntity
  8
Defpoints
 62
     0
100
AcDbPoint
 10
10553.06778426845
 20
18272.89773814853
 30
0.0
  0
POINT
  5
105
330
FD
100
AcDbEntity
  8
Defpoints
 62
     0
100
AcDbPoint
 10
10553.06778426845
 20
18389.00516934247
 30
0.0
  0
ENDBLK
  5
106
330
FD
100
AcDbEntity
  8
0
 48
4.0
100
AcDbBlockEnd
  0
BLOCK
  5
109
330
108
100
AcDbEntity
  8
0
 48
4.0
100
AcDbBlockBegin
  2
*D14
 70
     1
 10
0.0
 20
0.0
 30
0.0
  3
*D14
  1

  0
LINE
  5
10A
330
108
100
AcDbEntity
  8
WYMIARY
 62
     1
370
    -2
100
AcDbLine
 10
10583.06778426845
 20
18389.00516934247
 30
0.0
 11
10613.06778426845
 21
18389.00516934247
 31
0.0
  0
LINE
  5
10B
330
108
100
AcDbEntity
  8
WYMIARY
 62
     1
370
    -2
100
AcDbLine
 10
10403.06778426845
 20
18389.00516934247
 30
0.0
 11
10373.06778426845
 21
18389.00516934247
 31
0.0
  0
LINE
  5
10C
330
108
100
AcDbEntity
  8
WYMIARY
 62
     1
370
    -2
100
AcDbLine
 10
10553.06778426845
 20
18389.00516934247
 30
0.0
 11
10433.06778426845
 21
18389.00516934247
 31
0.0
  0
INSERT
  5
10D
330
108
100
AcDbEntity
  8
WYMIARY
 62
     1
370
    -2
100
AcDbBlockReference
  2
B-DIM
 10
10553.06778426845
 20
18389.00516934247
 30
0.0
 41
30.0
 42
30.0
 43
30.0
 50
180.0
  0
INSERT
  5
10E
330
108
100
AcDbEntity
  8
WYMIARY
 62
     1
370
    -2
100
AcDbBlockReference
  2
B-DIM
 10
10433.06778426845
 20
18389.00516934247
 30
0.0
 41
30.0
 42
30.0
 43
30.0
  0
MTEXT
  5
10F
330
108
100
AcDbEntity
  8
WYMIARY
 62
    10
100
AcDbMText
 10
10493.06778426845
 20
18469.00516934247
 30
0.0
 40
80.0
 41
0.0
 71
     5
 72
     1
  1
\A1;120
  7
ROMANS
 73
     1
 44
1.0
1001
ACAD
1000
MTEXTBEGIN
1070
    73
1070
     1
1070
    44
1040
1.0
1070
    74
1070
     0
1000
MTEXTEND
  0
POINT
  5
110
330
108
100
AcDbEntity
  8
Defpoints
 62
     0
100
AcDbPoint
 10
10553.06778426845
 20
18272.89773814853
 30
0.0
  0
POINT
  5
111
330
108
100
AcDbEntity
  8
Defpoints
 62
     0
100
AcDbPoint
 10
10433.06778426845
 20
17981.55206364757
 30
0.0
  0
POINT
  5
112
330
108
100
AcDbEntity
  8
Defpoints
 62
     0
100
AcDbPoint
 10
10433.06778426845
 20
18389.00516934247
 30
0.0
  0
ENDBLK
  5
113
330
108
100
AcDbEntity
  8
0
 48
4.0
100
AcDbBlockEnd
  0
BLOCK
  5
116
330
115
100
AcDbEntity
  8
0
 48
4.0
100
AcDbBlockBegin
  2
*D15
 70
     1
 10
0.0
 20
0.0
 30
0.0
  3
*D15
  1

  0
LINE
  5
117
330
115
100
AcDbEntity
  8
WYMIARY
 62
     1
370
    -2
100
AcDbLine
 10
10463.06778426845
 20
18572.48318988081
 30
0.0
 11
11923.06778426845
 21
18572.48318988081
 31
0.0
  0
INSERT
  5
118
330
115
100
AcDbEntity
  8
WYMIARY
 62
     1
370
    -2
100
AcDbBlockReference
  2
B-DIM
 10
10433.06778426845
 20
18572.48318988081
 30
0.0
 41
30.0
 42
30.0
 43
30.0
 50
180.0
  0
INSERT
  5
119
330
115
100
AcDbEntity
  8
WYMIARY
 62
     1
370
    -2
100
AcDbBlockReference
  2
B-DIM
 10
11953.06778426845
 20
18572.48318988081
 30
0.0
 41
30.0
 42
30.0
 43
30.0
  0
MTEXT
  5
11A
330
115
100
AcDbEntity
  8
WYMIARY
 62
    10
100
AcDbMText
 10
11193.06778426845
 20
18652.48318988081
 30
0.0
 40
80.0
 41
0.0
 71
     5
 72
     1
  1
\A1;1520
  7
ROMANS
 73
     1
 44
1.0
1001
ACAD
1000
MTEXTBEGIN
1070
    73
1070
     1
1070
    44
1040
1.0
1070
    74
1070
     0
1000
MTEXTEND
  0
POINT
  5
11B
330
115
100
AcDbEntity
  8
Defpoints
 62
     0
100
AcDbPoint
 10
10433.06778426845
 20
18057.83520386352
 30
0.0
  0
POINT
  5
11C
330
115
100
AcDbEntity
  8
Defpoints
 62
     0
100
AcDbPoint
 10
11953.06778426845
 20
18309.18087836448
 30
0.0
  0
POINT
  5
11D
330
115
100
AcDbEntity
  8
Defpoints
 62
     0
100
AcDbPoint
 10
11953.06778426845
 20
18572.48318988081
 30
0.0
  0
ENDBLK
  5
11E
330
115
100
AcDbEntity
  8
0
 48
4.0
100
AcDbBlockEnd
  0
ENDSEC
  0
SECTION
  2
ENTITIES
  0
TEXT
  5
10
330
2
100
AcDbEntity
  8
0Napisy
100
AcDbText
 10
5332.736201109641
 20
21681.44893744269
 30
0.0
 40
150.0
  1
"DOM POD ZŁOTOKAPEM"
  7
AVA
100
AcDbText
  0
TEXT
  5
16
330
2
100
AcDbEntity
  8
0Napisy
100
AcDbText
 10
5352.706269663134
 20
21351.58046007993
 30
0.0
 40
150.0
  1
MOŻNA WKLEIĆ DO PROJEKTU ZAGOSPODAROWANIA TERENU
  7
AVA
100
AcDbText
  0
TEXT
  5
17
330
2
100
AcDbEntity
  8
0Napisy
100
AcDbText
 10
8950.309285154638
 20
15317.45333166497
 30
0.0
 40
100.0
  1
OŚ ODBICIA LUSTRZANEGO
 50
90.0
  7
AVA
100
AcDbText
  0
LINE
  5
18
330
2
100
AcDbEntity
  8
-przerywana
 62
     1
 48
0.1
100
AcDbLine
 10
9009.830462147963
 20
14235.80616884444
 30
0.0
 11
9009.830462147963
 21
19038.26322632182
 31
0.0
  0
TEXT
  5
1D
330
2
100
AcDbEntity
  8
0Napisy
100
AcDbText
 10
5256.493218545234
 20
8888.215199198064
 30
0.0
 40
100.0
  1
   O B R Y S   B U D Y N K U           S K A L A   1 : 5 0 0 
  7
AVA
100
AcDbText
  0
LINE
  5
1E
330
2
100
AcDbEntity
  8
NIEPLOT
100
AcDbLine
 10
3797.141271870249
 20
8222.659116295529
 30
0.0
 11
3797.141271870249
 21
22242.65911629553
 31
0.0
  0
LINE
  5
22
330
2
100
AcDbEntity
  8
NIEPLOT
100
AcDbLine
 10
3797.141271870249
 20
22242.65911629553
 30
0.0
 11
13997.14127187028
 21
22242.65911629553
 31
0.0
  0
LINE
  5
23
330
2
100
AcDbEntity
  8
NIEPLOT
100
AcDbLine
 10
13997.14127187028
 20
22242.65911629553
 30
0.0
 11
13997.14127187028
 21
8222.659116295529
 31
0.0
  0
LINE
  5
24
330
2
100
AcDbEntity
  8
NIEPLOT
100
AcDbLine
 10
13997.14127187028
 20
8222.659116295529
 30
0.0
 11
3797.141271870249
 21
8222.659116295529
 31
0.0
  0
LINE
  5
25
330
2
100
AcDbEntity
  8
0
  6
ByBlock
 62
     5
370
    -2
380
     1
100
AcDbLine
 10
6751.093140027471
 20
17309.96375625223
 30
0.0
 11
6751.093140027471
 21
17200.2043558125
 31
0.0
  0
ARC
  5
26
330
2
100
AcDbEntity
  8
0
  6
ByBlock
 62
     5
370
    -2
380
     1
100
AcDbCircle
 10
6941.093140027472
 20
17781.96375625222
 30
0.0
 40
611.9999999999926
100
AcDbArc
 50
251.9131952951312
 51
288.0868047046694
  0
LINE
  5
27
330
2
100
AcDbEntity
  8
0
  6
ByBlock
 62
     5
370
    -2
380
     1
100
AcDbLine
 10
7131.093140027471
 20
17200.2043558125
 30
0.0
 11
7131.093140027471
 21
17309.96375625223
 31
0.0
  0
LINE
  5
28
330
2
100
AcDbEntity
  8
0
  6
ByBlock
 62
     5
370
    -2
380
     1
100
AcDbLine
 10
6721.093140027472
 20
17309.96375625223
 30
0.0
 11
6721.093140027472
 21
17178.83524589975
 31
0.0
  0
ARC
  5
29
330
2
100
AcDbEntity
  8
0
  6
ByBlock
 62
     5
370
    -2
380
     1
100
AcDbCircle
 10
6941.093140027472
 20
17781.96375625223
 30
0.0
 40
641.9999999999967
100
AcDbArc
 50
249.9598146808126
 51
290.0401853191874
  0
LINE
  5
2A
330
2
100
AcDbEntity
  8
0
  6
ByBlock
 62
     5
370
    -2
380
     1
100
AcDbLine
 10
7161.093140027471
 20
17178.83524589975
 30
0.0
 11
7161.093140027471
 21
17309.96375625223
 31
0.0
  0
LINE
  5
2B
330
2
100
AcDbEntity
  8
0
  6
ByBlock
 62
     5
370
    -2
380
     1
100
AcDbLine
 10
6691.093140027472
 20
17309.96375625223
 30
0.0
 11
6691.093140027472
 21
17158.19777449305
 31
0.0
  0
ARC
  5
2C
330
2
100
AcDbEntity
  8
0
  6
ByBlock
 62
     5
370
    -2
380
     1
100
AcDbCircle
 10
6941.093140027472
 20
17781.96375625223
 30
0.0
 40
671.9999999999981
100
AcDbArc
 50
248.1595148854708
 51
291.8404851145293
  0
LINE
  5
2D
330
2
100
AcDbEntity
  8
0
  6
ByBlock
 62
     5
370
    -2
380
     1
100
AcDbLine
 10
7191.093140027472
 20
17158.19777449305
 30
0.0
 11
7191.093140027472
 21
17309.96375625223
 31
0.0
  0
LINE
  5
2E
330
2
100
AcDbEntity
  8
0
  6
ByBlock
 62
     5
370
    -2
380
     1
100
AcDbLine
 10
7586.593140027471
 20
17768.61808175127
 30
0.0
 11
7746.593140027471
 21
17928.61808175127
 31
0.0
  0
LINE
  5
2F
330
2
100
AcDbEntity
  8
0
  6
ByBlock
 62
     5
370
    -2
380
     1
100
AcDbLine
 10
7746.593140027471
 20
17928.61808175127
 30
0.0
 11
7746.593140027471
 21
18167.33991059173
 31
0.0
  0
LINE
  5
30
330
2
100
AcDbEntity
  8
0
  6
ByBlock
 62
     5
370
    -2
380
     1
100
AcDbLine
 10
7746.593140027471
 20
18167.33991059173
 30
0.0
 11
7573.969294366972
 21
18339.96375625223
 31
0.0
  0
LINE
  5
31
330
2
100
AcDbEntity
  8
0
  6
ByBlock
 62
     5
370
    -2
380
     1
100
AcDbLine
 10
7573.969294366972
 20
18339.96375625223
 30
0.0
 11
7491.593140027472
 21
18339.96375625223
 31
0.0
  0
LINE
  5
32
330
2
100
AcDbEntity
  8
0
  6
ByBlock
 62
     5
370
    -2
380
     1
100
AcDbLine
 10
7491.593140027472
 20
18339.96375625223
 30
0.0
 11
7491.593140027472
 21
18364.96375625223
 31
0.0
  0
LINE
  5
33
330
2
100
AcDbEntity
  8
0
  6
ByBlock
 62
     5
370
    -2
380
     1
100
AcDbLine
 10
7491.593140027472
 20
18364.96375625223
 30
0.0
 11
7133.093140027471
 21
18364.96375625223
 31
0.0
  0
LINE
  5
34
330
2
100
AcDbEntity
  8
0
  6
ByBlock
 62
     5
370
    -2
380
     1
100
AcDbLine
 10
7133.093140027471
 20
18364.96375625223
 30
0.0
 11
7133.093140027471
 21
18339.96375625223
 31
0.0
  0
LINE
  5
35
330
2
100
AcDbEntity
  8
0
  6
ByBlock
 62
     5
370
    -2
380
     1
100
AcDbLine
 10
7133.093140027471
 20
18339.96375625223
 30
0.0
 11
6936.574960690439
 21
18339.96375625223
 31
0.0
  0
LINE
  5
36
330
2
100
AcDbEntity
  8
0
  6
ByBlock
 62
     5
370
    -2
380
     1
100
AcDbLine
 10
6936.574960690439
 20
18339.96375625223
 30
0.0
 11
6936.574960690439
 21
18059.96375625223
 31
0.0
  0
LINE
  5
37
330
2
100
AcDbEntity
  8
0
  6
ByBlock
 62
     5
370
    -2
380
     1
100
AcDbLine
 10
7570.32968406018
 20
17794.78103265518
 30
0.0
 11
7716.593140027471
 21
17941.04448862246
 31
0.0
  0
LINE
  5
38
330
2
100
AcDbEntity
  8
0
  6
ByBlock
 62
     5
370
    -2
380
     1
100
AcDbLine
 10
7716.593140027471
 20
17941.04448862246
 30
0.0
 11
7716.593140027471
 21
18154.91350372053
 31
0.0
  0
LINE
  5
39
330
2
100
AcDbEntity
  8
0
  6
ByBlock
 62
     5
370
    -2
380
     1
100
AcDbLine
 10
7716.593140027471
 20
18154.91350372053
 30
0.0
 11
7561.54288749578
 21
18309.96375625223
 31
0.0
  0
LINE
  5
3A
330
2
100
AcDbEntity
  8
0
  6
ByBlock
 62
     5
370
    -2
380
     1
100
AcDbLine
 10
7561.54288749578
 20
18309.96375625223
 30
0.0
 11
7491.593140027472
 21
18309.96375625223
 31
0.0
  0
LINE
  5
3B
330
2
100
AcDbEntity
  8
0
  6
ByBlock
 62
     5
370
    -2
380
     1
100
AcDbLine
 10
7491.593140027472
 20
18309.96375625223
 30
0.0
 11
7491.593140027472
 21
18364.96375625223
 31
0.0
  0
LINE
  5
3C
330
2
100
AcDbEntity
  8
0
  6
ByBlock
 62
     5
370
    -2
380
     1
100
AcDbLine
 10
7491.593140027472
 20
18364.96375625223
 30
0.0
 11
7133.093140027471
 21
18364.96375625223
 31
0.0
  0
LINE
  5
3D
330
2
100
AcDbEntity
  8
0
  6
ByBlock
 62
     5
370
    -2
380
     1
100
AcDbLine
 10
7133.093140027471
 20
18364.96375625223
 30
0.0
 11
7133.093140027471
 21
18309.96375625223
 31
0.0
  0
LINE
  5
3E
330
2
100
AcDbEntity
  8
0
  6
ByBlock
 62
     5
370
    -2
380
     1
100
AcDbLine
 10
7133.093140027471
 20
18309.96375625223
 30
0.0
 11
6966.57496069044
 21
18309.96375625223
 31
0.0
  0
LINE
  5
3F
330
2
100
AcDbEntity
  8
0
  6
ByBlock
 62
     5
370
    -2
380
     1
100
AcDbLine
 10
6966.57496069044
 20
18309.96375625223
 30
0.0
 11
6966.57496069044
 21
18059.96375625223
 31
0.0
  0
LINE
  5
40
330
2
100
AcDbEntity
  8
0
  6
ByBlock
 62
     5
370
    -2
380
     1
100
AcDbLine
 10
7549.116480624587
 20
17815.99423609077
 30
0.0
 11
7686.593140027472
 21
17953.47089549366
 31
0.0
  0
LINE
  5
41
330
2
100
AcDbEntity
  8
0
  6
ByBlock
 62
     5
370
    -2
380
     1
100
AcDbLine
 10
7686.593140027472
 20
17953.47089549366
 30
0.0
 11
7686.593140027472
 21
18142.48709684934
 31
0.0
  0
LINE
  5
42
330
2
100
AcDbEntity
  8
0
  6
ByBlock
 62
     5
370
    -2
380
     1
100
AcDbLine
 10
7686.593140027472
 20
18142.48709684934
 30
0.0
 11
7549.116480624587
 21
18279.96375625223
 31
0.0
  0
LINE
  5
43
330
2
100
AcDbEntity
  8
0
  6
ByBlock
 62
     5
370
    -2
380
     1
100
AcDbLine
 10
7549.116480624587
 20
18279.96375625223
 30
0.0
 11
7466.593140027471
 21
18279.96375625223
 31
0.0
  0
LINE
  5
44
330
2
100
AcDbEntity
  8
0
  6
ByBlock
 62
     5
370
    -2
380
     1
100
AcDbLine
 10
7466.593140027471
 20
18279.96375625223
 30
0.0
 11
7466.593140027471
 21
18339.96375625223
 31
0.0
  0
LINE
  5
45
330
2
100
AcDbEntity
  8
0
  6
ByBlock
 62
     5
370
    -2
380
     1
100
AcDbLine
 10
7466.593140027471
 20
18339.96375625223
 30
0.0
 11
7158.093140027471
 21
18339.96375625223
 31
0.0
  0
LINE
  5
46
330
2
100
AcDbEntity
  8
0
  6
ByBlock
 62
     5
370
    -2
380
     1
100
AcDbLine
 10
7158.093140027471
 20
18339.96375625223
 30
0.0
 11
7158.093140027471
 21
18279.96375625223
 31
0.0
  0
LINE
  5
47
330
2
100
AcDbEntity
  8
0
  6
ByBlock
 62
     5
370
    -2
380
     1
100
AcDbLine
 10
7158.093140027471
 20
18279.96375625223
 30
0.0
 11
6996.574960690439
 21
18279.96375625223
 31
0.0
  0
LINE
  5
48
330
2
100
AcDbEntity
  8
0
  6
ByBlock
 62
     5
370
    -2
380
     1
100
AcDbLine
 10
6996.574960690439
 20
18279.96375625223
 30
0.0
 11
6996.574960690439
 21
18059.96375625223
 31
0.0
  0
LINE
  5
49
330
2
100
AcDbEntity
  8
0
  6
ByBlock
 62
     5
370
    -2
380
     1
100
AcDbLine
 10
7491.593140027472
 20
18279.96375625223
 30
0.0
 11
7491.593140027472
 21
18364.96375625223
 31
0.0
  0
LINE
  5
4A
330
2
100
AcDbEntity
  8
0
  6
ByBlock
 62
     5
370
    -2
380
     1
100
AcDbLine
 10
7491.593140027472
 20
18364.96375625223
 30
0.0
 11
7133.093140027471
 21
18364.96375625223
 31
0.0
  0
LINE
  5
4B
330
2
100
AcDbEntity
  8
0
  6
ByBlock
 62
     5
370
    -2
380
     1
100
AcDbLine
 10
7133.093140027471
 20
18364.96375625223
 30
0.0
 11
7133.093140027471
 21
18279.96375625223
 31
0.0
  0
LINE
  5
4C
330
2
100
AcDbEntity
  8
0
  6
ByBlock
 62
     5
370
    -2
380
     1
100
AcDbLine
 10
7133.093140027471
 20
18279.96375625223
 30
0.0
 11
7158.093140027471
 21
18279.96375625223
 31
0.0
  0
LINE
  5
4D
330
2
100
AcDbEntity
  8
0
  6
ByBlock
 62
     5
370
    -2
380
     1
100
AcDbLine
 10
7158.093140027471
 20
18279.96375625223
 30
0.0
 11
7158.093140027471
 21
18339.96375625223
 31
0.0
  0
LINE
  5
4E
330
2
100
AcDbEntity
  8
0
  6
ByBlock
 62
     5
370
    -2
380
     1
100
AcDbLine
 10
7158.093140027471
 20
18339.96375625223
 30
0.0
 11
7466.593140027471
 21
18339.96375625223
 31
0.0
  0
LINE
  5
4F
330
2
100
AcDbEntity
  8
0
  6
ByBlock
 62
     5
370
    -2
380
     1
100
AcDbLine
 10
7466.593140027471
 20
18339.96375625223
 30
0.0
 11
7466.593140027471
 21
18279.96375625223
 31
0.0
  0
LINE
  5
50
330
2
100
AcDbEntity
  8
0
  6
ByBlock
 62
     5
370
    -2
380
     1
100
AcDbLine
 10
7466.593140027471
 20
18279.96375625223
 30
0.0
 11
7491.593140027472
 21
18279.96375625223
 31
0.0
  0
HATCH
  5
51
330
2
100
AcDbEntity
  8
0Hatch
 48
4.0
100
AcDbHatch
 10
0.0
 20
0.0
 30
0.0
210
0.0
220
0.0
230
1.0
  2
SOLID
 70
     1
 71
     0
 91
        1
 92
        7
 72
     0
 73
     1
 93
        4
 10
6836.093140027472
 20
17259.96375625223
 10
6836.093140027472
 20
17309.96375625223
 10
6782.093140027471
 20
17309.96375625223
 10
6782.093140027471
 20
17259.96375625223
 97
        0
 75
     0
 76
     1
 47
1.218370454121169
 98
        1
 10
6816.885671290889
 20
17277.92204759921
1001
ACAD
1010
0.0
1020
0.0
1030
0.0
  0
LINE
  5
55
330
2
100
AcDbEntity
  8
0
  6
ByBlock
 62
     5
370
    -2
380
     1
100
AcDbLine
 10
6782.093140027471
 20
17259.96375625223
 30
-230.0
 11
6836.093140027471
 21
17259.96375625223
 31
-230.0
  0
LINE
  5
56
330
2
100
AcDbEntity
  8
0
  6
ByBlock
 62
     5
370
    -2
380
     1
100
AcDbLine
 10
6836.093140027471
 20
17259.96375625223
 30
-230.0
 11
6836.093140027471
 21
17309.96375625223
 31
-230.0
  0
LINE
  5
57
330
2
100
AcDbEntity
  8
0
  6
ByBlock
 62
     5
370
    -2
380
     1
100
AcDbLine
 10
6782.093140027471
 20
17309.96375625223
 30
-230.0
 11
6782.093140027471
 21
17259.96375625223
 31
-230.0
  0
HATCH
  5
58
330
2
100
AcDbEntity
  8
0Hatch
 48
4.0
100
AcDbHatch
 10
0.0
 20
0.0
 30
0.0
210
0.0
220
0.0
230
1.0
  2
SOLID
 70
     1
 71
     0
 91
        1
 92
        7
 72
     0
 73
     1
 93
        4
 10
7100.093140027471
 20
17259.96375625223
 10
7100.093140027472
 20
17309.96375625223
 10
7046.093140027472
 20
17309.96375625224
 10
7046.093140027472
 20
17259.96375625223
 97
        0
 75
     0
 76
     1
 47
1.218370454121169
 98
        1
 10
7070.448478996507
 20
17276.70366825578
1001
ACAD
1010
0.0
1020
0.0
1030
0.0
  0
LINE
  5
59
330
2
100
AcDbEntity
  8
0
  6
ByBlock
 62
     5
370
    -2
380
     1
100
AcDbLine
 10
7100.093140027471
 20
17259.96375625223
 30
-230.0
 11
7046.093140027472
 21
17259.96375625223
 31
-230.0
  0
LINE
  5
5A
330
2
100
AcDbEntity
  8
0
  6
ByBlock
 62
     5
370
    -2
380
     1
100
AcDbLine
 10
7046.093140027472
 20
17259.96375625223
 30
-230.0
 11
7046.093140027472
 21
17309.96375625223
 31
-230.0
  0
LINE
  5
5B
330
2
100
AcDbEntity
  8
0
  6
ByBlock
 62
     5
370
    -2
380
     1
100
AcDbLine
 10
7100.093140027471
 20
17309.96375625223
 30
-230.0
 11
7100.093140027471
 21
17259.96375625223
 31
-230.0
  0
HATCH
  5
5C
330
2
100
AcDbEntity
  8
0Hatch
 48
4.0
100
AcDbHatch
 10
0.0
 20
0.0
 30
0.0
210
0.0
220
0.0
230
1.0
  2
SOLID
 70
     1
 71
     0
 91
        3
 92
        5
 93
       24
 72
     1
 10
6991.593140027472
 20
17369.96375625223
 11
6991.593140027472
 21
17309.96375625223
 72
     1
 10
6991.593140027472
 20
17309.96375625223
 11
7466.593140027473
 21
17309.96375625223
 72
     1
 10
7466.593140027473
 20
17309.96375625223
 11
7466.593140027473
 21
17504.96375625223
 72
     1
 10
7466.593140027473
 20
17504.96375625223
 11
7490.247465526507
 21
17504.96375625223
 72
     1
 10
7490.247465526507
 20
17504.96375625223
 11
7586.593140027471
 21
17601.30943075319
 72
     1
 10
7586.593140027471
 20
17601.30943075319
 11
7586.593140027471
 21
17768.61808175127
 72
     1
 10
7586.593140027471
 20
17768.61808175127
 11
7490.247465526509
 21
17864.96375625223
 72
     1
 10
7490.247465526509
 20
17864.96375625223
 11
7466.593140027471
 21
17864.96375625223
 72
     1
 10
7466.593140027471
 20
17864.96375625223
 11
7466.59314002747
 21
18059.96375625223
 72
     1
 10
7466.59314002747
 20
18059.96375625223
 11
6416.593140027472
 21
18059.96375625223
 72
     1
 10
6416.593140027472
 20
18059.96375625223
 11
6416.593140027472
 21
18019.96375625223
 72
     1
 10
6416.593140027472
 20
18019.96375625223
 11
6305.59314002747
 21
18019.96375625223
 72
     1
 10
6305.59314002747
 20
18019.96375625223
 11
6305.59314002747
 21
17959.96375625223
 72
     1
 10
6305.59314002747
 20
17959.96375625223
 11
6476.593140027472
 21
17959.96375625223
 72
     1
 10
6476.593140027472
 20
17959.96375625223
 11
6476.593140027471
 21
17999.96375625223
 72
     1
 10
6476.593140027471
 20
17999.96375625223
 11
7406.593140027471
 21
17999.96375625223
 72
     1
 10
7406.593140027471
 20
17999.96375625223
 11
7406.593140027471
 21
17804.96375625223
 72
     1
 10
7406.593140027471
 20
17804.96375625223
 11
7465.394651784122
 21
17804.96375625223
 72
     1
 10
7465.394651784122
 20
17804.96375625223
 11
7526.593140027471
 21
17743.76526800889
 72
     1
 10
7526.593140027471
 20
17743.76526800889
 11
7526.593140027472
 21
17626.16224449558
 72
     1
 10
7526.593140027472
 20
17626.16224449558
 11
7465.394651784126
 21
17564.96375625223
 72
     1
 10
7465.394651784126
 20
17564.96375625223
 11
7406.593140027474
 21
17564.96375625223
 72
     1
 10
7406.593140027474
 20
17564.96375625223
 11
7406.593140027472
 21
17369.96375625223
 72
     1
 10
7406.593140027472
 20
17369.96375625223
 11
6991.593140027472
 21
17369.96375625223
 97
        0
 92
        5
 93
        8
 72
     1
 10
6367.863965931101
 20
17409.96375625223
 11
6367.863965931101
 21
17349.96375625223
 72
     1
 10
6367.863965931101
 20
17349.96375625223
 11
6416.593140027472
 21
17349.96375625223
 72
     1
 10
6416.593140027472
 20
17349.96375625223
 11
6416.593140027472
 21
17309.96375625223
 72
     1
 10
6416.593140027472
 20
17309.96375625223
 11
6891.593140027471
 21
17309.96375625223
 72
     1
 10
6891.593140027471
 20
17309.96375625223
 11
6891.593140027471
 21
17369.96375625223
 72
     1
 10
6891.593140027471
 20
17369.96375625223
 11
6476.593140027472
 21
17369.96375625223
 72
     1
 10
6476.593140027472
 20
17369.96375625223
 11
6476.593140027474
 21
17409.96375625223
 72
     1
 10
6476.593140027474
 20
17409.96375625223
 11
6367.863965931101
 21
17409.96375625223
 97
        0
 92
        5
 93
        8
 72
     1
 10
6135.322314123841
 20
17349.96375625223
 11
6135.322314123841
 21
17409.96375625223
 72
     1
 10
6135.322314123841
 20
17409.96375625223
 11
6126.593140027472
 21
17409.96375625223
 72
     1
 10
6126.593140027472
 20
17409.96375625223
 11
6126.593140027472
 21
17959.96375625223
 72
     1
 10
6126.593140027472
 20
17959.96375625223
 11
6205.593140027471
 21
17959.96375625223
 72
     1
 10
6205.593140027471
 20
17959.96375625223
 11
6205.593140027472
 21
18019.96375625223
 72
     1
 10
6205.593140027472
 20
18019.96375625223
 11
6066.593140027471
 21
18019.96375625223
 72
     1
 10
6066.593140027471
 20
18019.96375625223
 11
6066.593140027471
 21
17349.96375625223
 72
     1
 10
6066.593140027471
 20
17349.96375625223
 11
6135.322314123841
 21
17349.96375625223
 97
        0
 75
     0
 76
     1
 47
0.8502564796083088
 98
        3
 10
6183.335992755282
 20
17989.78880929817
 10
6183.335992755282
 20
17989.78880929817
 10
6183.335992755282
 20
17989.78880929817
1001
ACAD
1010
0.0
1020
0.0
1030
0.0
  0
DIMENSION
  5
5D
330
2
100
AcDbEntity
  8
WYMIARY
100
AcDbDimension
  2
*D2
 10
6416.593140027472
 20
18389.00516934247
 30
0.0
 11
6241.593140027472
 21
18469.00516934247
 31
0.0
 71
     5
 42
350.0000000000009
  3
500
100
AcDbAlignedDimension
 13
6066.593140027471
 23
18232.89773814853
 33
0.0
 14
6416.593140027472
 24
18272.89773814853
 34
0.0
100
AcDbRotatedDimension
  0
DIMENSION
  5
76
330
2
100
AcDbEntity
  8
WYMIARY
100
AcDbDimension
  2
*D3
 10
7466.59314002747
 20
18389.00516934247
 30
0.0
 11
6941.593140027471
 21
18469.00516934247
 31
0.0
 71
     5
 42
1049.999999999998
  3
500
100
AcDbAlignedDimension
 13
6416.593140027472
 23
18272.89773814853
 33
0.0
 14
7466.59314002747
 24
18272.89773814853
 34
0.0
100
AcDbRotatedDimension
  0
DIMENSION
  5
81
330
2
100
AcDbEntity
  8
WYMIARY
100
AcDbDimension
  2
*D4
 10
7586.593140027471
 20
18389.00516934247
 30
0.0
 11
7526.593140027471
 21
18469.00516934247
 31
0.0
 71
     5
 42
120.0000000000009
  3
500
100
AcDbAlignedDimension
 13
7466.59314002747
 23
18272.89773814853
 33
0.0
 14
7586.593140027471
 24
17981.55206364757
 34
0.0
100
AcDbRotatedDimension
  0
DIMENSION
  5
8E
330
2
100
AcDbEntity
  8
WYMIARY
100
AcDbDimension
  2
*D5
 10
6066.593140027471
 20
18572.48318988081
 30
0.0
 11
6826.593140027471
 21
18652.48318988081
 31
0.0
 71
     5
 42
1520.0
  3
500
100
AcDbAlignedDimension
 13
7586.593140027471
 23
18057.83520386352
 33
0.0
 14
6066.593140027471
 24
18309.18087836448
 34
0.0
100
AcDbRotatedDimension
  0
DIMENSION
  5
99
330
2
100
AcDbEntity
  8
WYMIARY
100
AcDbDimension
  2
*D6
 10
7887.714009876567
 20
17309.96375625223
 30
0.0
 11
7807.714009876564
 21
17684.96375625223
 31
0.0
 71
     5
 42
750.0
  3
500
100
AcDbAlignedDimension
 13
7466.59314002747
 23
18059.96375625223
 33
0.0
 14
7466.593140027473
 24
17309.96375625223
 34
0.0
 50
90.0
100
AcDbRotatedDimension
  0
DIMENSION
  5
A4
330
2
100
AcDbEntity
  8
WYMIARY
100
AcDbDimension
  2
*D7
 10
7887.714009876567
 20
17259.96375625223
 30
0.0
 11
7807.714009876564
 21
17284.96375625223
 31
0.0
 71
     5
 42
50.0
  3
500
100
AcDbAlignedDimension
 13
7466.593140027473
 23
17309.96375625223
 33
0.0
 14
7100.093140027471
 24
17259.96375625223
 34
-230.0
 50
90.0
100
AcDbRotatedDimension
  0
DIMENSION
  5
B1
330
2
100
AcDbEntity
  8
WYMIARY
100
AcDbDimension
  2
*D8
 10
8068.062389082305
 20
17259.96375625223
 30
0.0
 11
7988.062389082301
 21
17659.96375625223
 31
0.0
 71
     5
 42
800.0
  3
500
100
AcDbAlignedDimension
 13
7466.59314002747
 23
18059.96375625223
 33
0.0
 14
7100.093140027471
 24
17259.96375625223
 34
-230.0
 50
90.0
100
AcDbRotatedDimension
  0
LINE
  5
BC
330
2
100
AcDbEntity
  8
0
  6
ByBlock
 62
     5
370
    -2
380
     1
100
AcDbLine
 10
11268.56778426845
 20
17309.96375625223
 30
0.0
 11
11268.56778426845
 21
17200.2043558125
 31
0.0
  0
ARC
  5
BD
330
2
100
AcDbEntity
  8
0
  6
ByBlock
 62
     5
370
    -2
380
     1
100
AcDbCircle
 10
11078.56778426845
 20
17781.96375625222
 30
0.0
 40
611.9999999999926
100
AcDbArc
 50
251.9131952953465
 51
288.0868047048709
  0
LINE
  5
BE
330
2
100
AcDbEntity
  8
0
  6
ByBlock
 62
     5
370
    -2
380
     1
100
AcDbLine
 10
10888.56778426845
 20
17200.2043558125
 30
0.0
 11
10888.56778426845
 21
17309.96375625223
 31
0.0
  0
LINE
  5
BF
330
2
100
AcDbEntity
  8
0
  6
ByBlock
 62
     5
370
    -2
380
     1
100
AcDbLine
 10
11298.56778426845
 20
17309.96375625223
 30
0.0
 11
11298.56778426845
 21
17178.83524589975
 31
0.0
  0
ARC
  5
C0
330
2
100
AcDbEntity
  8
0
  6
ByBlock
 62
     5
370
    -2
380
     1
100
AcDbCircle
 10
11078.56778426845
 20
17781.96375625223
 30
0.0
 40
641.9999999999967
100
AcDbArc
 50
249.9598146808049
 51
290.0401853191951
  0
LINE
  5
C1
330
2
100
AcDbEntity
  8
0
  6
ByBlock
 62
     5
370
    -2
380
     1
100
AcDbLine
 10
10858.56778426845
 20
17178.83524589975
 30
0.0
 11
10858.56778426845
 21
17309.96375625223
 31
0.0
  0
LINE
  5
C2
330
2
100
AcDbEntity
  8
0
  6
ByBlock
 62
     5
370
    -2
380
     1
100
AcDbLine
 10
11328.56778426845
 20
17309.96375625223
 30
0.0
 11
11328.56778426845
 21
17158.19777449305
 31
0.0
  0
ARC
  5
C3
330
2
100
AcDbEntity
  8
0
  6
ByBlock
 62
     5
370
    -2
380
     1
100
AcDbCircle
 10
11078.56778426845
 20
17781.96375625223
 30
0.0
 40
671.9999999999981
100
AcDbArc
 50
248.1595148854682
 51
291.8404851145318
  0
LINE
  5
C4
330
2
100
AcDbEntity
  8
0
  6
ByBlock
 62
     5
370
    -2
380
     1
100
AcDbLine
 10
10828.56778426845
 20
17158.19777449305
 30
0.0
 11
10828.56778426845
 21
17309.96375625223
 31
0.0
  0
LINE
  5
C5
330
2
100
AcDbEntity
  8
0
  6
ByBlock
 62
     5
370
    -2
380
     1
100
AcDbLine
 10
10433.06778426845
 20
17768.61808175127
 30
0.0
 11
10273.06778426845
 21
17928.61808175127
 31
0.0
  0
LINE
  5
C6
330
2
100
AcDbEntity
  8
0
  6
ByBlock
 62
     5
370
    -2
380
     1
100
AcDbLine
 10
10273.06778426845
 20
17928.61808175127
 30
0.0
 11
10273.06778426845
 21
18167.33991059173
 31
0.0
  0
LINE
  5
C7
330
2
100
AcDbEntity
  8
0
  6
ByBlock
 62
     5
370
    -2
380
     1
100
AcDbLine
 10
10273.06778426845
 20
18167.33991059173
 30
0.0
 11
10445.69162992895
 21
18339.96375625223
 31
0.0
  0
LINE
  5
C8
330
2
100
AcDbEntity
  8
0
  6
ByBlock
 62
     5
370
    -2
380
     1
100
AcDbLine
 10
10445.69162992895
 20
18339.96375625223
 30
0.0
 11
10528.06778426845
 21
18339.96375625223
 31
0.0
  0
LINE
  5
C9
330
2
100
AcDbEntity
  8
0
  6
ByBlock
 62
     5
370
    -2
380
     1
100
AcDbLine
 10
10528.06778426845
 20
18339.96375625223
 30
0.0
 11
10528.06778426845
 21
18364.96375625223
 31
0.0
  0
LINE
  5
CA
330
2
100
AcDbEntity
  8
0
  6
ByBlock
 62
     5
370
    -2
380
     1
100
AcDbLine
 10
10528.06778426845
 20
18364.96375625223
 30
0.0
 11
10886.56778426845
 21
18364.96375625223
 31
0.0
  0
LINE
  5
CB
330
2
100
AcDbEntity
  8
0
  6
ByBlock
 62
     5
370
    -2
380
     1
100
AcDbLine
 10
10886.56778426845
 20
18364.96375625223
 30
0.0
 11
10886.56778426845
 21
18339.96375625223
 31
0.0
  0
LINE
  5
CC
330
2
100
AcDbEntity
  8
0
  6
ByBlock
 62
     5
370
    -2
380
     1
100
AcDbLine
 10
10886.56778426845
 20
18339.96375625223
 30
0.0
 11
11083.08596360548
 21
18339.96375625223
 31
0.0
  0
LINE
  5
CD
330
2
100
AcDbEntity
  8
0
  6
ByBlock
 62
     5
370
    -2
380
     1
100
AcDbLine
 10
11083.08596360548
 20
18339.96375625223
 30
0.0
 11
11083.08596360548
 21
18059.96375625223
 31
0.0
  0
LINE
  5
CE
330
2
100
AcDbEntity
  8
0
  6
ByBlock
 62
     5
370
    -2
380
     1
100
AcDbLine
 10
10449.33124023574
 20
17794.78103265518
 30
0.0
 11
10303.06778426845
 21
17941.04448862246
 31
0.0
  0
LINE
  5
CF
330
2
100
AcDbEntity
  8
0
  6
ByBlock
 62
     5
370
    -2
380
     1
100
AcDbLine
 10
10303.06778426845
 20
17941.04448862246
 30
0.0
 11
10303.06778426845
 21
18154.91350372053
 31
0.0
  0
LINE
  5
D0
330
2
100
AcDbEntity
  8
0
  6
ByBlock
 62
     5
370
    -2
380
     1
100
AcDbLine
 10
10303.06778426845
 20
18154.91350372053
 30
0.0
 11
10458.11803680014
 21
18309.96375625223
 31
0.0
  0
LINE
  5
D1
330
2
100
AcDbEntity
  8
0
  6
ByBlock
 62
     5
370
    -2
380
     1
100
AcDbLine
 10
10458.11803680014
 20
18309.96375625223
 30
0.0
 11
10528.06778426845
 21
18309.96375625223
 31
0.0
  0
LINE
  5
D2
330
2
100
AcDbEntity
  8
0
  6
ByBlock
 62
     5
370
    -2
380
     1
100
AcDbLine
 10
10528.06778426845
 20
18309.96375625223
 30
0.0
 11
10528.06778426845
 21
18364.96375625223
 31
0.0
  0
LINE
  5
D3
330
2
100
AcDbEntity
  8
0
  6
ByBlock
 62
     5
370
    -2
380
     1
100
AcDbLine
 10
10528.06778426845
 20
18364.96375625223
 30
0.0
 11
10886.56778426845
 21
18364.96375625223
 31
0.0
  0
LINE
  5
D4
330
2
100
AcDbEntity
  8
0
  6
ByBlock
 62
     5
370
    -2
380
     1
100
AcDbLine
 10
10886.56778426845
 20
18364.96375625223
 30
0.0
 11
10886.56778426845
 21
18309.96375625223
 31
0.0
  0
LINE
  5
D5
330
2
100
AcDbEntity
  8
0
  6
ByBlock
 62
     5
370
    -2
380
     1
100
AcDbLine
 10
10886.56778426845
 20
18309.96375625223
 30
0.0
 11
11053.08596360548
 21
18309.96375625223
 31
0.0
  0
LINE
  5
D6
330
2
100
AcDbEntity
  8
0
  6
ByBlock
 62
     5
370
    -2
380
     1
100
AcDbLine
 10
11053.08596360548
 20
18309.96375625223
 30
0.0
 11
11053.08596360548
 21
18059.96375625223
 31
0.0
  0
LINE
  5
D7
330
2
100
AcDbEntity
  8
0
  6
ByBlock
 62
     5
370
    -2
380
     1
100
AcDbLine
 10
10470.54444367133
 20
17815.99423609077
 30
0.0
 11
10333.06778426845
 21
17953.47089549366
 31
0.0
  0
LINE
  5
D8
330
2
100
AcDbEntity
  8
0
  6
ByBlock
 62
     5
370
    -2
380
     1
100
AcDbLine
 10
10333.06778426845
 20
17953.47089549366
 30
0.0
 11
10333.06778426845
 21
18142.48709684934
 31
0.0
  0
LINE
  5
D9
330
2
100
AcDbEntity
  8
0
  6
ByBlock
 62
     5
370
    -2
380
     1
100
AcDbLine
 10
10333.06778426845
 20
18142.48709684934
 30
0.0
 11
10470.54444367133
 21
18279.96375625223
 31
0.0
  0
LINE
  5
DA
330
2
100
AcDbEntity
  8
0
  6
ByBlock
 62
     5
370
    -2
380
     1
100
AcDbLine
 10
10470.54444367133
 20
18279.96375625223
 30
0.0
 11
10553.06778426845
 21
18279.96375625223
 31
0.0
  0
LINE
  5
DB
330
2
100
AcDbEntity
  8
0
  6
ByBlock
 62
     5
370
    -2
380
     1
100
AcDbLine
 10
10553.06778426845
 20
18279.96375625223
 30
0.0
 11
10553.06778426845
 21
18339.96375625223
 31
0.0
  0
LINE
  5
DC
330
2
100
AcDbEntity
  8
0
  6
ByBlock
 62
     5
370
    -2
380
     1
100
AcDbLine
 10
10553.06778426845
 20
18339.96375625223
 30
0.0
 11
10861.56778426845
 21
18339.96375625223
 31
0.0
  0
LINE
  5
DD
330
2
100
AcDbEntity
  8
0
  6
ByBlock
 62
     5
370
    -2
380
     1
100
AcDbLine
 10
10861.56778426845
 20
18339.96375625223
 30
0.0
 11
10861.56778426845
 21
18279.96375625223
 31
0.0
  0
LINE
  5
DE
330
2
100
AcDbEntity
  8
0
  6
ByBlock
 62
     5
370
    -2
380
     1
100
AcDbLine
 10
10861.56778426845
 20
18279.96375625223
 30
0.0
 11
11023.08596360548
 21
18279.96375625223
 31
0.0
  0
LINE
  5
DF
330
2
100
AcDbEntity
  8
0
  6
ByBlock
 62
     5
370
    -2
380
     1
100
AcDbLine
 10
11023.08596360548
 20
18279.96375625223
 30
0.0
 11
11023.08596360548
 21
18059.96375625223
 31
0.0
  0
LINE
  5
E0
330
2
100
AcDbEntity
  8
0
  6
ByBlock
 62
     5
370
    -2
380
     1
100
AcDbLine
 10
10528.06778426845
 20
18279.96375625223
 30
0.0
 11
10528.06778426845
 21
18364.96375625223
 31
0.0
  0
LINE
  5
E1
330
2
100
AcDbEntity
  8
0
  6
ByBlock
 62
     5
370
    -2
380
     1
100
AcDbLine
 10
10528.06778426845
 20
18364.96375625223
 30
0.0
 11
10886.56778426845
 21
18364.96375625223
 31
0.0
  0
LINE
  5
E2
330
2
100
AcDbEntity
  8
0
  6
ByBlock
 62
     5
370
    -2
380
     1
100
AcDbLine
 10
10886.56778426845
 20
18364.96375625223
 30
0.0
 11
10886.56778426845
 21
18279.96375625223
 31
0.0
  0
LINE
  5
E3
330
2
100
AcDbEntity
  8
0
  6
ByBlock
 62
     5
370
    -2
380
     1
100
AcDbLine
 10
10886.56778426845
 20
18279.96375625223
 30
0.0
 11
10861.56778426845
 21
18279.96375625223
 31
0.0
  0
LINE
  5
E4
330
2
100
AcDbEntity
  8
0
  6
ByBlock
 62
     5
370
    -2
380
     1
100
AcDbLine
 10
10861.56778426845
 20
18279.96375625223
 30
0.0
 11
10861.56778426845
 21
18339.96375625223
 31
0.0
  0
LINE
  5
E5
330
2
100
AcDbEntity
  8
0
  6
ByBlock
 62
     5
370
    -2
380
     1
100
AcDbLine
 10
10861.56778426845
 20
18339.96375625223
 30
0.0
 11
10553.06778426845
 21
18339.96375625223
 31
0.0
  0
LINE
  5
E6
330
2
100
AcDbEntity
  8
0
  6
ByBlock
 62
     5
370
    -2
380
     1
100
AcDbLine
 10
10553.06778426845
 20
18339.96375625223
 30
0.0
 11
10553.06778426845
 21
18279.96375625223
 31
0.0
  0
LINE
  5
E7
330
2
100
AcDbEntity
  8
0
  6
ByBlock
 62
     5
370
    -2
380
     1
100
AcDbLine
 10
10553.06778426845
 20
18279.96375625223
 30
0.0
 11
10528.06778426845
 21
18279.96375625223
 31
0.0
  0
HATCH
  5
E8
330
2
100
AcDbEntity
  8
0Hatch
 48
4.0
100
AcDbHatch
 10
0.0
 20
0.0
 30
0.0
210
0.0
220
0.0
230
1.0
  2
SOLID
 70
     1
 71
     0
 91
        1
 92
        7
 72
     0
 73
     1
 93
        4
 10
11237.56778426845
 20
17259.96375625223
 10
11237.56778426845
 20
17309.96375625223
 10
11183.56778426845
 20
17309.96375625224
 10
11183.56778426845
 20
17259.96375625223
 97
        0
 75
     0
 76
     1
 47
1.218370454121169
 98
        1
 10
11202.77525300503
 20
17277.92204759921
1001
ACAD
1010
0.0
1020
0.0
1030
0.0
  0
LINE
  5
E9
330
2
100
AcDbEntity
  8
0
  6
ByBlock
 62
     5
370
    -2
380
     1
100
AcDbLine
 10
11237.56778426845
 20
17259.96375625223
 30
-230.0
 11
11183.56778426845
 21
17259.96375625223
 31
-230.0
  0
LINE
  5
EA
330
2
100
AcDbEntity
  8
0
  6
ByBlock
 62
     5
370
    -2
380
     1
100
AcDbLine
 10
11183.56778426845
 20
17259.96375625223
 30
-230.0
 11
11183.56778426845
 21
17309.96375625223
 31
-230.0
  0
LINE
  5
EB
330
2
100
AcDbEntity
  8
0
  6
ByBlock
 62
     5
370
    -2
380
     1
100
AcDbLine
 10
11237.56778426845
 20
17309.96375625223
 30
-230.0
 11
11237.56778426845
 21
17259.96375625223
 31
-230.0
  0
HATCH
  5
EC
330
2
100
AcDbEntity
  8
0Hatch
 48
4.0
100
AcDbHatch
 10
0.0
 20
0.0
 30
0.0
210
0.0
220
0.0
230
1.0
  2
SOLID
 70
     1
 71
     0
 91
        1
 92
        7
 72
     0
 73
     1
 93
        4
 10
10973.56778426845
 20
17259.96375625223
 10
10973.56778426845
 20
17309.96375625223
 10
10919.56778426845
 20
17309.96375625223
 10
10919.56778426845
 20
17259.96375625223
 97
        0
 75
     0
 76
     1
 47
1.218370454121169
 98
        1
 10
10949.21244529942
 20
17276.70366825578
1001
ACAD
1010
0.0
1020
0.0
1030
0.0
  0
LINE
  5
ED
330
2
100
AcDbEntity
  8
0
  6
ByBlock
 62
     5
370
    -2
380
     1
100
AcDbLine
 10
10919.56778426845
 20
17259.96375625223
 30
-230.0
 11
10973.56778426845
 21
17259.96375625223
 31
-230.0
  0
LINE
  5
EE
330
2
100
AcDbEntity
  8
0
  6
ByBlock
 62
     5
370
    -2
380
     1
100
AcDbLine
 10
10973.56778426845
 20
17259.96375625223
 30
-230.0
 11
10973.56778426845
 21
17309.96375625223
 31
-230.0
  0
LINE
  5
EF
330
2
100
AcDbEntity
  8
0
  6
ByBlock
 62
     5
370
    -2
380
     1
100
AcDbLine
 10
10919.56778426845
 20
17309.96375625223
 30
-230.0
 11
10919.56778426845
 21
17259.96375625223
 31
-230.0
  0
HATCH
  5
F0
330
2
100
AcDbEntity
  8
0Hatch
 48
4.0
100
AcDbHatch
 10
0.0
 20
0.0
 30
0.0
210
0.0
220
0.0
230
1.0
  2
SOLID
 70
     1
 71
     0
 91
        3
 92
        5
 93
       24
 72
     1
 10
11028.06778426845
 20
17369.96375625223
 11
11028.06778426845
 21
17309.96375625223
 72
     1
 10
11028.06778426845
 20
17309.96375625223
 11
10553.06778426845
 21
17309.96375625223
 72
     1
 10
10553.06778426845
 20
17309.96375625223
 11
10553.06778426845
 21
17504.96375625223
 72
     1
 10
10553.06778426845
 20
17504.96375625223
 11
10529.41345876941
 21
17504.96375625223
 72
     1
 10
10529.41345876941
 20
17504.96375625223
 11
10433.06778426845
 21
17601.30943075319
 72
     1
 10
10433.06778426845
 20
17601.30943075319
 11
10433.06778426845
 21
17768.61808175127
 72
     1
 10
10433.06778426845
 20
17768.61808175127
 11
10529.41345876941
 21
17864.96375625223
 72
     1
 10
10529.41345876941
 20
17864.96375625223
 11
10553.06778426845
 21
17864.96375625223
 72
     1
 10
10553.06778426845
 20
17864.96375625223
 11
10553.06778426845
 21
18059.96375625223
 72
     1
 10
10553.06778426845
 20
18059.96375625223
 11
11603.06778426845
 21
18059.96375625223
 72
     1
 10
11603.06778426845
 20
18059.96375625223
 11
11603.06778426845
 21
18019.96375625223
 72
     1
 10
11603.06778426845
 20
18019.96375625223
 11
11714.06778426845
 21
18019.96375625223
 72
     1
 10
11714.06778426845
 20
18019.96375625223
 11
11714.06778426845
 21
17959.96375625223
 72
     1
 10
11714.06778426845
 20
17959.96375625223
 11
11543.06778426845
 21
17959.96375625223
 72
     1
 10
11543.06778426845
 20
17959.96375625223
 11
11543.06778426845
 21
17999.96375625223
 72
     1
 10
11543.06778426845
 20
17999.96375625223
 11
10613.06778426845
 21
17999.96375625223
 72
     1
 10
10613.06778426845
 20
17999.96375625223
 11
10613.06778426845
 21
17804.96375625223
 72
     1
 10
10613.06778426845
 20
17804.96375625223
 11
10554.2662725118
 21
17804.96375625223
 72
     1
 10
10554.2662725118
 20
17804.96375625223
 11
10493.06778426845
 21
17743.76526800889
 72
     1
 10
10493.06778426845
 20
17743.76526800889
 11
10493.06778426845
 21
17626.16224449558
 72
     1
 10
10493.06778426845
 20
17626.16224449558
 11
10554.2662725118
 21
17564.96375625223
 72
     1
 10
10554.2662725118
 20
17564.96375625223
 11
10613.06778426845
 21
17564.96375625223
 72
     1
 10
10613.06778426845
 20
17564.96375625223
 11
10613.06778426845
 21
17369.96375625223
 72
     1
 10
10613.06778426845
 20
17369.96375625223
 11
11028.06778426845
 21
17369.96375625223
 97
        0
 92
        5
 93
        8
 72
     1
 10
11651.79695836482
 20
17409.96375625223
 11
11651.79695836482
 21
17349.96375625223
 72
     1
 10
11651.79695836482
 20
17349.96375625223
 11
11603.06778426845
 21
17349.96375625223
 72
     1
 10
11603.06778426845
 20
17349.96375625223
 11
11603.06778426845
 21
17309.96375625223
 72
     1
 10
11603.06778426845
 20
17309.96375625223
 11
11128.06778426845
 21
17309.96375625223
 72
     1
 10
11128.06778426845
 20
17309.96375625223
 11
11128.06778426845
 21
17369.96375625223
 72
     1
 10
11128.06778426845
 20
17369.96375625223
 11
11543.06778426845
 21
17369.96375625223
 72
     1
 10
11543.06778426845
 20
17369.96375625223
 11
11543.06778426845
 21
17409.96375625223
 72
     1
 10
11543.06778426845
 20
17409.96375625223
 11
11651.79695836482
 21
17409.96375625223
 97
        0
 92
        5
 93
        8
 72
     1
 10
11884.33861017208
 20
17349.96375625223
 11
11884.33861017208
 21
17409.96375625223
 72
     1
 10
11884.33861017208
 20
17409.96375625223
 11
11893.06778426845
 21
17409.96375625223
 72
     1
 10
11893.06778426845
 20
17409.96375625223
 11
11893.06778426845
 21
17959.96375625223
 72
     1
 10
11893.06778426845
 20
17959.96375625223
 11
11814.06778426845
 21
17959.96375625223
 72
     1
 10
11814.06778426845
 20
17959.96375625223
 11
11814.06778426845
 21
18019.96375625223
 72
     1
 10
11814.06778426845
 20
18019.96375625223
 11
11953.06778426845
 21
18019.96375625223
 72
     1
 10
11953.06778426845
 20
18019.96375625223
 11
11953.06778426845
 21
17349.96375625223
 72
     1
 10
11953.06778426845
 20
17349.96375625223
 11
11884.33861017208
 21
17349.96375625223
 97
        0
 75
     0
 76
     1
 47
0.8502564796083088
 98
        3
 10
11836.32493154064
 20
17989.78880929817
 10
11836.32493154064
 20
17989.78880929817
 10
11836.32493154064
 20
17989.78880929817
1001
ACAD
1010
0.0
1020
0.0
1030
0.0
  0
DIMENSION
  5
F1
330
2
100
AcDbEntity
  8
WYMIARY
100
AcDbDimension
  2
*D12
 10
11603.06778426845
 20
18389.00516934247
 30
0.0
 11
11778.06778426845
 21
18469.00516934247
 31
0.0
 71
     5
 42
350.0
  3
500
100
AcDbAlignedDimension
 13
11953.06778426845
 23
18232.89773814853
 33
0.0
 14
11603.06778426845
 24
18272.89773814853
 34
0.0
 50
180.0
100
AcDbRotatedDimension
  0
DIMENSION
  5
FC
330
2
100
AcDbEntity
  8
WYMIARY
100
AcDbDimension
  2
*D13
 10
10553.06778426845
 20
18389.00516934247
 30
0.0
 11
11078.06778426845
 21
18469.00516934247
 31
0.0
 71
     5
 42
1050.0
  3
500
100
AcDbAlignedDimension
 13
11603.06778426845
 23
18272.89773814853
 33
0.0
 14
10553.06778426845
 24
18272.89773814853
 34
0.0
 50
180.0
100
AcDbRotatedDimension
  0
DIMENSION
  5
107
330
2
100
AcDbEntity
  8
WYMIARY
100
AcDbDimension
  2
*D14
 10
10433.06778426845
 20
18389.00516934247
 30
0.0
 11
10493.06778426845
 21
18469.00516934247
 31
0.0
 71
     5
 42
120.0
  3
500
100
AcDbAlignedDimension
 13
10553.06778426845
 23
18272.89773814853
 33
0.0
 14
10433.06778426845
 24
17981.55206364757
 34
0.0
 50
180.0
100
AcDbRotatedDimension
  0
DIMENSION
  5
114
330
2
100
AcDbEntity
  8
WYMIARY
100
AcDbDimension
  2
*D15
 10
11953.06778426845
 20
18572.48318988081
 30
0.0
 11
11193.06778426845
 21
18652.48318988081
 31
0.0
 71
     5
 42
1520.0
  3
500
100
AcDbAlignedDimension
 13
10433.06778426845
 23
18057.83520386352
 33
0.0
 14
11953.06778426845
 24
18309.18087836448
 34
0.0
 50
180.0
100
AcDbRotatedDimension
  0
DIMENSION
  5
11F
330
2
100
AcDbEntity
  8
WYMIARY
100
AcDbDimension
  2
*D9
 10
10131.94691441936
 20
17309.96375625223
 30
0.0
 11
10051.94691441935
 21
17684.96375625223
 31
0.0
 71
     5
 42
750.0
  3
500
100
AcDbAlignedDimension
 13
10553.06778426845
 23
18059.96375625223
 33
0.0
 14
10553.06778426845
 24
17309.96375625223
 34
0.0
 50
90.0
100
AcDbRotatedDimension
  0
DIMENSION
  5
12A
330
2
100
AcDbEntity
  8
WYMIARY
100
AcDbDimension
  2
*D10
 10
10131.94691441936
 20
17259.96375625223
 30
0.0
 11
10051.94691441935
 21
17284.96375625224
 31
0.0
 71
     5
 42
50.0
  3
500
100
AcDbAlignedDimension
 13
10553.06778426845
 23
17309.96375625223
 33
0.0
 14
10919.56778426845
 24
17259.96375625223
 34
-230.0
 50
90.0
100
AcDbRotatedDimension
  0
DIMENSION
  5
137
330
2
100
AcDbEntity
  8
WYMIARY
100
AcDbDimension
  2
*D11
 10
9951.598535213619
 20
17259.96375625223
 30
0.0
 11
9871.598535213617
 21
17659.96375625223
 31
0.0
 71
     5
 42
800.0
  3
500
100
AcDbAlignedDimension
 13
10553.06778426845
 23
18059.96375625223
 33
0.0
 14
10919.56778426845
 24
17259.96375625223
 34
-230.0
 50
90.0
100
AcDbRotatedDimension
  0
LINE
  5
142
330
2
100
AcDbEntity
  8
0Hatch
 48
4.0
100
AcDbLine
 10
6305.59314002747
 20
17959.96375625223
 30
0.0
 11
6305.59314002747
 21
18019.96375625223
 31
0.0
  0
LINE
  5
143
330
2
100
AcDbEntity
  8
0Hatch
 48
4.0
100
AcDbLine
 10
6205.593140027471
 20
17959.96375625223
 30
0.0
 11
6205.593140027471
 21
18019.96375625223
 31
0.0
  0
LINE
  5
144
330
2
100
AcDbEntity
  8
0Hatch
 48
4.0
100
AcDbLine
 10
6135.322314123841
 20
17409.96375625223
 30
0.0
 11
6135.322314123841
 21
17349.96375625223
 31
0.0
  0
LINE
  5
145
330
2
100
AcDbEntity
  8
0Hatch
 48
4.0
100
AcDbLine
 10
6367.863965931101
 20
17409.96375625223
 30
0.0
 11
6367.863965931101
 21
17349.96375625223
 31
0.0
  0
LINE
  5
146
330
2
100
AcDbEntity
  8
0Hatch
 48
4.0
100
AcDbLine
 10
6991.593140027472
 20
17369.96375625223
 30
0.0
 11
6991.593140027472
 21
17309.96375625223
 31
0.0
  0
LINE
  5
147
330
2
100
AcDbEntity
  8
0Hatch
 48
4.0
100
AcDbLine
 10
6891.593140027471
 20
17369.96375625223
 30
0.0
 11
6891.593140027471
 21
17309.96375625223
 31
0.0
  0
LINE
  5
148
330
2
100
AcDbEntity
  8
0Wymiary-PL
 48
4.0
100
AcDbLine
 10
6126.593140027472
 20
17409.96375625223
 30
0.0
 11
6476.593140027474
 21
17409.96375625223
 31
0.0
  0
LINE
  5
14C
330
2
100
AcDbEntity
  8
0Wymiary-PL
 48
4.0
100
AcDbLine
 10
6476.593140027474
 20
17409.96375625223
 30
0.0
 11
6476.593140027474
 21
17369.96375625223
 31
0.0
  0
LINE
  5
14D
330
2
100
AcDbEntity
  8
0Wymiary-PL
 48
4.0
100
AcDbLine
 10
6476.593140027474
 20
17369.96375625223
 30
0.0
 11
7406.593140027472
 21
17369.96375625223
 31
0.0
  0
LINE
  5
14E
330
2
100
AcDbEntity
  8
0Wymiary-PL
 48
4.0
100
AcDbLine
 10
7406.593140027472
 20
17369.96375625223
 30
0.0
 11
7406.593140027472
 21
17564.96375625223
 31
0.0
  0
LINE
  5
14F
330
2
100
AcDbEntity
  8
0Wymiary-PL
 48
4.0
100
AcDbLine
 10
7406.593140027472
 20
17564.96375625223
 30
0.0
 11
7465.394651784125
 21
17564.96375625223
 31
0.0
  0
LINE
  5
150
330
2
100
AcDbEntity
  8
0Wymiary-PL
 48
4.0
100
AcDbLine
 10
7465.394651784125
 20
17564.96375625223
 30
0.0
 11
7526.593140027471
 21
17626.16224449557
 31
0.0
  0
LINE
  5
151
330
2
100
AcDbEntity
  8
0Wymiary-PL
 48
4.0
100
AcDbLine
 10
7526.593140027471
 20
17626.16224449557
 30
0.0
 11
7526.593140027471
 21
17743.76526800889
 31
0.0
  0
LINE
  5
152
330
2
100
AcDbEntity
  8
0Wymiary-PL
 48
4.0
100
AcDbLine
 10
7526.593140027471
 20
17743.76526800889
 30
0.0
 11
7465.394651784125
 21
17804.96375625223
 31
0.0
  0
LINE
  5
153
330
2
100
AcDbEntity
  8
0Wymiary-PL
 48
4.0
100
AcDbLine
 10
7465.394651784125
 20
17804.96375625223
 30
0.0
 11
7406.593140027472
 21
17804.96375625223
 31
0.0
  0
LINE
  5
154
330
2
100
AcDbEntity
  8
0Wymiary-PL
 48
4.0
100
AcDbLine
 10
7406.593140027472
 20
17804.96375625223
 30
0.0
 11
7406.593140027471
 21
17999.96375625223
 31
0.0
  0
LINE
  5
155
330
2
100
AcDbEntity
  8
0Wymiary-PL
 48
4.0
100
AcDbLine
 10
7406.593140027471
 20
17999.96375625223
 30
0.0
 11
6476.593140027472
 21
17999.96375625223
 31
0.0
  0
LINE
  5
156
330
2
100
AcDbEntity
  8
0Wymiary-PL
 48
4.0
100
AcDbLine
 10
6476.593140027472
 20
17999.96375625223
 30
0.0
 11
6476.593140027472
 21
17959.96375625223
 31
0.0
  0
LINE
  5
157
330
2
100
AcDbEntity
  8
0Wymiary-PL
 48
4.0
100
AcDbLine
 10
6476.593140027472
 20
17959.96375625223
 30
0.0
 11
6126.593140027472
 21
17959.96375625223
 31
0.0
  0
LINE
  5
158
330
2
100
AcDbEntity
  8
0Wymiary-PL
 48
4.0
100
AcDbLine
 10
6126.593140027472
 20
17959.96375625223
 30
0.0
 11
6126.593140027472
 21
17409.96375625223
 31
0.0
  0
LINE
  5
159
330
2
100
AcDbEntity
  8
0Wymiary-PL
 48
4.0
100
AcDbLine
 10
6066.593140027471
 20
17349.96375625223
 30
0.0
 11
6416.593140027472
 21
17349.96375625223
 31
0.0
  0
LINE
  5
15A
330
2
100
AcDbEntity
  8
0Wymiary-PL
 48
4.0
100
AcDbLine
 10
6416.593140027472
 20
17349.96375625223
 30
0.0
 11
6416.593140027472
 21
17309.96375625223
 31
0.0
  0
LINE
  5
15B
330
2
100
AcDbEntity
  8
0Wymiary-PL
 48
4.0
100
AcDbLine
 10
6416.593140027472
 20
17309.96375625223
 30
0.0
 11
7466.593140027473
 21
17309.96375625223
 31
0.0
  0
LINE
  5
15C
330
2
100
AcDbEntity
  8
0Wymiary-PL
 48
4.0
100
AcDbLine
 10
7466.593140027473
 20
17309.96375625223
 30
0.0
 11
7466.593140027473
 21
17504.96375625223
 31
0.0
  0
LINE
  5
15D
330
2
100
AcDbEntity
  8
0Wymiary-PL
 48
4.0
100
AcDbLine
 10
7466.593140027473
 20
17504.96375625223
 30
0.0
 11
7490.247465526509
 21
17504.96375625223
 31
0.0
  0
LINE
  5
15E
330
2
100
AcDbEntity
  8
0Wymiary-PL
 48
4.0
100
AcDbLine
 10
7490.247465526509
 20
17504.96375625223
 30
0.0
 11
7586.593140027471
 21
17601.30943075319
 31
0.0
  0
LINE
  5
15F
330
2
100
AcDbEntity
  8
0Wymiary-PL
 48
4.0
100
AcDbLine
 10
7586.593140027471
 20
17601.30943075319
 30
0.0
 11
7586.593140027471
 21
17768.61808175127
 31
0.0
  0
LINE
  5
160
330
2
100
AcDbEntity
  8
0Wymiary-PL
 48
4.0
100
AcDbLine
 10
7586.593140027471
 20
17768.61808175127
 30
0.0
 11
7490.247465526511
 21
17864.96375625223
 31
0.0
  0
LINE
  5
161
330
2
100
AcDbEntity
  8
0Wymiary-PL
 48
4.0
100
AcDbLine
 10
7490.247465526511
 20
17864.96375625223
 30
0.0
 11
7466.593140027471
 21
17864.96375625223
 31
0.0
  0
LINE
  5
162
330
2
100
AcDbEntity
  8
0Wymiary-PL
 48
4.0
100
AcDbLine
 10
7466.593140027471
 20
17864.96375625223
 30
0.0
 11
7466.59314002747
 21
18059.96375625223
 31
0.0
  0
LINE
  5
163
330
2
100
AcDbEntity
  8
0Wymiary-PL
 48
4.0
100
AcDbLine
 10
7466.59314002747
 20
18059.96375625223
 30
0.0
 11
6416.593140027472
 21
18059.96375625223
 31
0.0
  0
LINE
  5
164
330
2
100
AcDbEntity
  8
0Wymiary-PL
 48
4.0
100
AcDbLine
 10
6416.593140027472
 20
18059.96375625223
 30
0.0
 11
6416.593140027472
 21
18019.96375625223
 31
0.0
  0
LINE
  5
165
330
2
100
AcDbEntity
  8
0Wymiary-PL
 48
4.0
100
AcDbLine
 10
6416.593140027472
 20
18019.96375625223
 30
0.0
 11
6066.593140027471
 21
18019.96375625223
 31
0.0
  0
LINE
  5
166
330
2
100
AcDbEntity
  8
0Wymiary-PL
 48
4.0
100
AcDbLine
 10
6066.593140027471
 20
18019.96375625223
 30
0.0
 11
6066.593140027471
 21
17349.96375625223
 31
0.0
  0
ARC
  5
167
330
2
100
AcDbEntity
  8
0
  6
ByBlock
 62
     0
370
    -2
380
     1
100
AcDbCircle
 10
6305.593140027472
 20
18019.96375625223
 30
0.0
 40
30.00000000000024
100
AcDbArc
 50
0.0
 51
90.0
  0
LINE
  5
168
330
2
100
AcDbEntity
  8
0
  6
ByBlock
 62
     0
370
    -2
380
     1
100
AcDbLine
 10
6305.593140027472
 20
18049.96375625223
 30
0.0
 11
6205.593140027471
 21
18049.96375625223
 31
0.0
  0
ARC
  5
169
330
2
100
AcDbEntity
  8
0
  6
ByBlock
 62
     0
370
    -2
380
     1
100
AcDbCircle
 10
6205.593140027471
 20
18019.96375625223
 30
0.0
 40
30.00000000000024
100
AcDbArc
 50
90.0
 51
180.0
  0
LINE
  5
16A
330
2
100
AcDbEntity
  8
0
  6
ByBlock
 62
     0
370
    -2
380
     1
100
AcDbLine
 10
6175.593140027471
 20
18019.96375625223
 30
0.0
 11
6335.593140027471
 21
18019.96375625223
 31
0.0
  0
LINE
  5
16B
330
2
100
AcDbEntity
  8
0
  6
ByBlock
 62
     0
370
    -2
380
     1
100
AcDbLine
 10
6416.593140027472
 20
17349.96375625223
 30
0.0
 11
6416.593140027472
 21
17309.96375625223
 31
0.0
  0
LINE
  5
16C
330
2
100
AcDbEntity
  8
0
  6
ByBlock
 62
     0
370
    -2
380
     1
100
AcDbLine
 10
6416.593140027472
 20
17309.96375625223
 30
0.0
 11
6066.593140027471
 21
17309.96375625223
 31
0.0
  0
LINE
  5
16D
330
2
100
AcDbEntity
  8
0
  6
ByBlock
 62
     0
370
    -2
380
     1
100
AcDbLine
 10
6066.593140027471
 20
17309.96375625223
 30
0.0
 11
6066.593140027471
 21
17349.96375625223
 31
0.0
  0
LINE
  5
16E
330
2
100
AcDbEntity
  8
0
  6
ByBlock
 62
     0
370
    -2
380
     1
100
AcDbLine
 10
6066.593140027471
 20
17349.96375625223
 30
0.0
 11
6416.593140027472
 21
17349.96375625223
 31
0.0
  0
LINE
  5
16F
330
2
100
AcDbEntity
  8
0Hatch
 48
4.0
100
AcDbLine
 10
11714.06778426845
 20
17959.96375625223
 30
0.0
 11
11714.06778426845
 21
18019.96375625223
 31
0.0
  0
LINE
  5
170
330
2
100
AcDbEntity
  8
0Hatch
 48
4.0
100
AcDbLine
 10
11814.06778426845
 20
17959.96375625223
 30
0.0
 11
11814.06778426845
 21
18019.96375625223
 31
0.0
  0
LINE
  5
171
330
2
100
AcDbEntity
  8
0Hatch
 48
4.0
100
AcDbLine
 10
11884.33861017208
 20
17409.96375625223
 30
0.0
 11
11884.33861017208
 21
17349.96375625223
 31
0.0
  0
LINE
  5
172
330
2
100
AcDbEntity
  8
0Hatch
 48
4.0
100
AcDbLine
 10
11651.79695836482
 20
17409.96375625223
 30
0.0
 11
11651.79695836482
 21
17349.96375625223
 31
0.0
  0
LINE
  5
173
330
2
100
AcDbEntity
  8
0Hatch
 48
4.0
100
AcDbLine
 10
11028.06778426845
 20
17369.96375625223
 30
0.0
 11
11028.06778426845
 21
17309.96375625223
 31
0.0
  0
LINE
  5
174
330
2
100
AcDbEntity
  8
0Hatch
 48
4.0
100
AcDbLine
 10
11128.06778426845
 20
17369.96375625223
 30
0.0
 11
11128.06778426845
 21
17309.96375625223
 31
0.0
  0
LINE
  5
175
330
2
100
AcDbEntity
  8
0Wymiary-PL
 48
4.0
100
AcDbLine
 10
11893.06778426845
 20
17409.96375625223
 30
0.0
 11
11543.06778426845
 21
17409.96375625223
 31
0.0
  0
LINE
  5
176
330
2
100
AcDbEntity
  8
0Wymiary-PL
 48
4.0
100
AcDbLine
 10
11543.06778426845
 20
17409.96375625223
 30
0.0
 11
11543.06778426845
 21
17369.96375625223
 31
0.0
  0
LINE
  5
177
330
2
100
AcDbEntity
  8
0Wymiary-PL
 48
4.0
100
AcDbLine
 10
11543.06778426845
 20
17369.96375625223
 30
0.0
 11
10613.06778426845
 21
17369.96375625223
 31
0.0
  0
LINE
  5
178
330
2
100
AcDbEntity
  8
0Wymiary-PL
 48
4.0
100
AcDbLine
 10
10613.06778426845
 20
17369.96375625223
 30
0.0
 11
10613.06778426845
 21
17564.96375625223
 31
0.0
  0
LINE
  5
179
330
2
100
AcDbEntity
  8
0Wymiary-PL
 48
4.0
100
AcDbLine
 10
10613.06778426845
 20
17564.96375625223
 30
0.0
 11
10554.2662725118
 21
17564.96375625223
 31
0.0
  0
LINE
  5
17A
330
2
100
AcDbEntity
  8
0Wymiary-PL
 48
4.0
100
AcDbLine
 10
10554.2662725118
 20
17564.96375625223
 30
0.0
 11
10493.06778426845
 21
17626.16224449557
 31
0.0
  0
LINE
  5
17B
330
2
100
AcDbEntity
  8
0Wymiary-PL
 48
4.0
100
AcDbLine
 10
10493.06778426845
 20
17626.16224449557
 30
0.0
 11
10493.06778426845
 21
17743.76526800889
 31
0.0
  0
LINE
  5
17C
330
2
100
AcDbEntity
  8
0Wymiary-PL
 48
4.0
100
AcDbLine
 10
10493.06778426845
 20
17743.76526800889
 30
0.0
 11
10554.2662725118
 21
17804.96375625223
 31
0.0
  0
LINE
  5
17D
330
2
100
AcDbEntity
  8
0Wymiary-PL
 48
4.0
100
AcDbLine
 10
10554.2662725118
 20
17804.96375625223
 30
0.0
 11
10613.06778426845
 21
17804.96375625223
 31
0.0
  0
LINE
  5
17E
330
2
100
AcDbEntity
  8
0Wymiary-PL
 48
4.0
100
AcDbLine
 10
10613.06778426845
 20
17804.96375625223
 30
0.0
 11
10613.06778426845
 21
17999.96375625223
 31
0.0
  0
LINE
  5
17F
330
2
100
AcDbEntity
  8
0Wymiary-PL
 48
4.0
100
AcDbLine
 10
10613.06778426845
 20
17999.96375625223
 30
0.0
 11
11543.06778426845
 21
17999.96375625223
 31
0.0
  0
LINE
  5
180
330
2
100
AcDbEntity
  8
0Wymiary-PL
 48
4.0
100
AcDbLine
 10
11543.06778426845
 20
17999.96375625223
 30
0.0
 11
11543.06778426845
 21
17959.96375625223
 31
0.0
  0
LINE
  5
181
330
2
100
AcDbEntity
  8
0Wymiary-PL
 48
4.0
100
AcDbLine
 10
11543.06778426845
 20
17959.96375625223
 30
0.0
 11
11893.06778426845
 21
17959.96375625223
 31
0.0
  0
LINE
  5
182
330
2
100
AcDbEntity
  8
0Wymiary-PL
 48
4.0
100
AcDbLine
 10
11893.06778426845
 20
17959.96375625223
 30
0.0
 11
11893.06778426845
 21
17409.96375625223
 31
0.0
  0
LINE
  5
183
330
2
100
AcDbEntity
  8
0Wymiary-PL
 48
4.0
100
AcDbLine
 10
11953.06778426845
 20
17349.96375625223
 30
0.0
 11
11603.06778426845
 21
17349.96375625223
 31
0.0
  0
LINE
  5
184
330
2
100
AcDbEntity
  8
0Wymiary-PL
 48
4.0
100
AcDbLine
 10
11603.06778426845
 20
17349.96375625223
 30
0.0
 11
11603.06778426845
 21
17309.96375625223
 31
0.0
  0
LINE
  5
185
330
2
100
AcDbEntity
  8
0Wymiary-PL
 48
4.0
100
AcDbLine
 10
11603.06778426845
 20
17309.96375625223
 30
0.0
 11
10553.06778426845
 21
17309.96375625223
 31
0.0
  0
LINE
  5
186
330
2
100
AcDbEntity
  8
0Wymiary-PL
 48
4.0
100
AcDbLine
 10
10553.06778426845
 20
17309.96375625223
 30
0.0
 11
10553.06778426845
 21
17504.96375625223
 31
0.0
  0
LINE
  5
187
330
2
100
AcDbEntity
  8
0Wymiary-PL
 48
4.0
100
AcDbLine
 10
10553.06778426845
 20
17504.96375625223
 30
0.0
 11
10529.41345876941
 21
17504.96375625223
 31
0.0
  0
LINE
  5
188
330
2
100
AcDbEntity
  8
0Wymiary-PL
 48
4.0
100
AcDbLine
 10
10529.41345876941
 20
17504.96375625223
 30
0.0
 11
10433.06778426845
 21
17601.30943075319
 31
0.0
  0
LINE
  5
189
330
2
100
AcDbEntity
  8
0Wymiary-PL
 48
4.0
100
AcDbLine
 10
10433.06778426845
 20
17601.30943075319
 30
0.0
 11
10433.06778426845
 21
17768.61808175127
 31
0.0
  0
LINE
  5
18A
330
2
100
AcDbEntity
  8
0Wymiary-PL
 48
4.0
100
AcDbLine
 10
10433.06778426845
 20
17768.61808175127
 30
0.0
 11
10529.41345876941
 21
17864.96375625223
 31
0.0
  0
LINE
  5
18B
330
2
100
AcDbEntity
  8
0Wymiary-PL
 48
4.0
100
AcDbLine
 10
10529.41345876941
 20
17864.96375625223
 30
0.0
 11
10553.06778426845
 21
17864.96375625223
 31
0.0
  0
LINE
  5
18C
330
2
100
AcDbEntity
  8
0Wymiary-PL
 48
4.0
100
AcDbLine
 10
10553.06778426845
 20
17864.96375625223
 30
0.0
 11
10553.06778426845
 21
18059.96375625223
 31
0.0
  0
LINE
  5
18D
330
2
100
AcDbEntity
  8
0Wymiary-PL
 48
4.0
100
AcDbLine
 10
10553.06778426845
 20
18059.96375625223
 30
0.0
 11
11603.06778426845
 21
18059.96375625223
 31
0.0
  0
LINE
  5
18E
330
2
100
AcDbEntity
  8
0Wymiary-PL
 48
4.0
100
AcDbLine
 10
11603.06778426845
 20
18059.96375625223
 30
0.0
 11
11603.06778426845
 21
18019.96375625223
 31
0.0
  0
LINE
  5
18F
330
2
100
AcDbEntity
  8
0Wymiary-PL
 48
4.0
100
AcDbLine
 10
11603.06778426845
 20
18019.96375625223
 30
0.0
 11
11953.06778426845
 21
18019.96375625223
 31
0.0
  0
LINE
  5
190
330
2
100
AcDbEntity
  8
0Wymiary-PL
 48
4.0
100
AcDbLine
 10
11953.06778426845
 20
18019.96375625223
 30
0.0
 11
11953.06778426845
 21
17349.96375625223
 31
0.0
  0
ARC
  5
191
330
2
100
AcDbEntity
  8
0
  6
ByBlock
 62
     0
370
    -2
380
     1
100
AcDbCircle
 10
11714.06778426845
 20
18019.96375625223
 30
0.0
 40
30.00000000000024
100
AcDbArc
 50
90.0
 51
180.0
  0
LINE
  5
192
330
2
100
AcDbEntity
  8
0
  6
ByBlock
 62
     0
370
    -2
380
     1
100
AcDbLine
 10
11714.06778426845
 20
18049.96375625223
 30
0.0
 11
11814.06778426845
 21
18049.96375625223
 31
0.0
  0
ARC
  5
193
330
2
100
AcDbEntity
  8
0
  6
ByBlock
 62
     0
370
    -2
380
     1
100
AcDbCircle
 10
11814.06778426845
 20
18019.96375625223
 30
0.0
 40
30.00000000000024
100
AcDbArc
 50
0.0
 51
90.0
  0
LINE
  5
194
330
2
100
AcDbEntity
  8
0
  6
ByBlock
 62
     0
370
    -2
380
     1
100
AcDbLine
 10
11844.06778426845
 20
18019.96375625223
 30
0.0
 11
11684.06778426845
 21
18019.96375625223
 31
0.0
  0
LINE
  5
195
330
2
100
AcDbEntity
  8
0
  6
ByBlock
 62
     0
370
    -2
380
     1
100
AcDbLine
 10
11603.06778426845
 20
17349.96375625223
 30
0.0
 11
11603.06778426845
 21
17309.96375625223
 31
0.0
  0
LINE
  5
196
330
2
100
AcDbEntity
  8
0
  6
ByBlock
 62
     0
370
    -2
380
     1
100
AcDbLine
 10
11603.06778426845
 20
17309.96375625223
 30
0.0
 11
11953.06778426845
 21
17309.96375625223
 31
0.0
  0
LINE
  5
197
330
2
100
AcDbEntity
  8
0
  6
ByBlock
 62
     0
370
    -2
380
     1
100
AcDbLine
 10
11953.06778426845
 20
17309.96375625223
 30
0.0
 11
11953.06778426845
 21
17349.96375625223
 31
0.0
  0
LINE
  5
198
330
2
100
AcDbEntity
  8
0
  6
ByBlock
 62
     0
370
    -2
380
     1
100
AcDbLine
 10
11953.06778426845
 20
17349.96375625223
 30
0.0
 11
11603.06778426845
 21
17349.96375625223
 31
0.0
  0
ENDSEC
  0
SECTION
  2
OBJECTS
  0
DICTIONARY
  5
B
330
0
100
AcDbDictionary
281
     1
  3
ACAD_COLOR
350
1C3
  3
ACAD_GROUP
350
1BE
  3
ACAD_LAYOUT
350
19B
  3
ACAD_MATERIAL
350
D
  3
ACAD_MLINESTYLE
350
1BF
  3
ACAD_PLOTSETTINGS
350
1C0
  3
ACAD_PLOTSTYLENAME
350
A
  3
ACAD_SCALELIST
350
1C4
  3
ACAD_TABLESTYLE
350
1C5
  3
ACAD_VISUALSTYLE
350
19E
  3
ACDB_RECOMPOSE_DATA
350
1E7
  3
AcDbVariableDictionary
350
1DC
  3
DWGPROPS
350
1E8
  0
DICTIONARY
  5
1A7
330
1A6
100
AcDbDictionary
280
     1
281
     1
  3
ACAD_LAYERSTATES
360
1A8
  0
DICTIONARY
  5
7
330
6
100
AcDbDictionary
280
     1
281
     1
  3
ADSK_XREC_LAYER_RECONCILED
360
8
  0
DICTIONARY
  5
5F
330
5E
100
AcDbDictionary
280
     1
281
     1
  3
ADSK_XREC_LAYER_RECONCILED
360
60
  0
DICTIONARY
  5
14A
330
149
100
AcDbDictionary
280
     1
281
     1
  3
ADSK_XREC_LAYER_RECONCILED
360
14B
  0
DICTIONARY
  5
12
330
11
100
AcDbDictionary
280
     1
281
     1
  3
ADSK_XREC_LAYER_RECONCILED
360
13
  0
DICTIONARY
  5
20
330
1F
100
AcDbDictionary
280
     1
281
     1
  3
ADSK_XREC_LAYER_RECONCILED
360
21
  0
DICTIONARY
  5
1A
330
19
100
AcDbDictionary
280
     1
281
     1
  3
ADSK_XREC_LAYER_RECONCILED
360
1B
  0
DICTIONARY
  5
53
330
52
100
AcDbDictionary
280
     1
281
     1
  3
ADSK_XREC_LAYER_RECONCILED
360
54
  0
DICTIONARY
  5
3
330
2
100
AcDbDictionary
280
     1
281
     1
  3
ACAD_SORTENTS
360
1DB
  0
DICTIONARY
  5
66
330
65
100
AcDbDictionary
280
     1
281
     1
  3
ACAD_SORTENTS
360
1DA
  0
DICTIONARY
  5
1C3
102
{ACAD_REACTORS
330
B
102
}
330
B
100
AcDbDictionary
281
     1
  0
DICTIONARY
  5
1BE
102
{ACAD_REACTORS
330
B
102
}
330
B
100
AcDbDictionary
281
     1
  0
DICTIONARY
  5
19B
102
{ACAD_REACTORS
330
B
102
}
330
B
100
AcDbDictionary
281
     1
  3
Model
350
19A
  3
Poddasze
350
1A2
  0
DICTIONARY
  5
D
102
{ACAD_REACTORS
330
B
102
}
330
B
100
AcDbDictionary
281
     1
  3
ByBlock
350
1C2
  3
ByLayer
350
1C1
  3
Global
350
C
  0
DICTIONARY
  5
1BF
102
{ACAD_REACTORS
330
B
102
}
330
B
100
AcDbDictionary
281
     1
  3
STANDARD
350
1C6
  0
DICTIONARY
  5
1C0
102
{ACAD_REACTORS
330
B
102
}
330
B
100
AcDbDictionary
281
     1
  0
ACDBDICTIONARYWDFLT
  5
A
102
{ACAD_REACTORS
330
B
102
}
330
B
100
AcDbDictionary
281
     1
  3
Normal
350
9
100
AcDbDictionaryWithDefault
340
9
  0
DICTIONARY
  5
1C4
102
{ACAD_REACTORS
330
B
102
}
330
B
100
AcDbDictionary
281
     1
  3
A0
350
1CB
  3
A1
350
1CC
  3
A2
350
1CD
  3
A3
350
1CE
  3
A4
350
1CF
  3
A5
350
1D0
  3
A6
350
1D1
  3
A7
350
1D2
  3
A8
350
1D3
  3
A9
350
1D4
  3
B0
350
1D5
  3
B1
350
1D6
  3
B2
350
1D7
  3
B3
350
1D8
  3
B4
350
1D9
  0
DICTIONARY
  5
1C5
102
{ACAD_REACTORS
330
B
102
}
330
B
100
AcDbDictionary
281
     1
  3
Standard
350
1C7
  0
DICTIONARY
  5
19E
102
{ACAD_REACTORS
330
B
102
}
330
B
100
AcDbDictionary
281
     1
  3
2dWireframe
350
19D
  3
3dWireframe
350
1CA
  3
Realistic
350
1C9
  0
XRECORD
  5
1E7
102
{ACAD_REACTORS
330
B
102
}
330
B
100
AcDbXrecord
280
     1
 90
        1
330
1C7
  0
DICTIONARY
  5
1DC
102
{ACAD_REACTORS
330
B
102
}
330
B
100
AcDbDictionary
281
     1
  3
CANNOSCALE
350
1E0
  3
CMLEADERSTYLE
350
1DE
  3
CTABLESTYLE
350
1DD
  3
DIMASSOC
350
1E4
  3
HIDETEXT
350
1E3
  3
INDEXCTL
350
1E2
  3
MSLTSCALE
350
1DF
  3
SORTENTS
350
1E1
  0
XRECORD
  5
1E8
102
{ACAD_REACTORS
330
B
102
}
330
B
100
AcDbXrecord
280
     1
  1
DWGPROPS COOKIE
  2

  3

  4

  6

  7

  8
magdalena.jozwik
  9

300
=
301
=
302
=
303
=
304
=
305
=
306
=
307
=
308
=
309
=
 40
19.77778181712963
 41
2450817.525937848
 42
2454977.642431088
  1

 90
        0
  0
DICTIONARY
  5
1A8
102
{ACAD_REACTORS
330
1A7
102
}
330
1A7
100
AcDbDictionary
281
     1
1001
AcLayerTools
1000
39884
1000
0
  0
XRECORD
  5
8
102
{ACAD_REACTORS
330
7
102
}
330
7
100
AcDbXrecord
280
     1
290
     1
  0
XRECORD
  5
60
102
{ACAD_REACTORS
330
5F
102
}
330
5F
100
AcDbXrecord
280
     1
290
     1
  0
XRECORD
  5
14B
102
{ACAD_REACTORS
330
14A
102
}
330
14A
100
AcDbXrecord
280
     1
290
     1
  0
XRECORD
  5
13
102
{ACAD_REACTORS
330
12
102
}
330
12
100
AcDbXrecord
280
     1
290
     1
  0
XRECORD
  5
21
102
{ACAD_REACTORS
330
20
102
}
330
20
100
AcDbXrecord
280
     1
290
     1
  0
XRECORD
  5
1B
102
{ACAD_REACTORS
330
1A
102
}
330
1A
100
AcDbXrecord
280
     1
290
     1
  0
XRECORD
  5
54
102
{ACAD_REACTORS
330
53
102
}
330
53
100
AcDbXrecord
280
     1
290
     1
  0
SORTENTSTABLE
  5
1DB
102
{ACAD_REACTORS
330
3
102
}
330
3
100
AcDbSortentsTable
330
2
331
153
  5
D3
331
18A
  5
177
331
DD
  5
154
331
114
  5
195
331
15B
  5
BF
331
E5
  5
15C
331
192
  5
165
331
163
  5
C7
331
ED
  5
16C
331
58
  5
8E
331
BE
  5
E8
331
16B
  5
51
331
C6
  5
F0
331
173
  5
18D
331
144
  5
DC
331
CE
  5
142
331
17B
  5
184
331
14C
  5
CC
331
D6
  5
14D
331
183
  5
170
331
154
  5
D4
331
DE
  5
155
331
18B
  5
178
331
193
  5
164
331
E6
  5
15D
331
15C
  5
C0
331
164
  5
C8
331
EE
  5
16D
331
51
  5
5C
331
59
  5
99
331
BF
  5
E9
331
16C
  5
55
331
C7
  5
F1
331
174
  5
18C
331
145
  5
DB
331
CF
  5
143
331
17C
  5
185
331
184
  5
171
331
D7
  5
14E
331
14D
  5
CD
331
155
  5
D5
331
DF
  5
156
331
18C
  5
179
331
15D
  5
C1
331
E7
  5
15E
331
194
  5
163
331
165
  5
C9
331
EF
  5
16E
331
5A
  5
A4
331
16D
  5
56
331
81
  5
E1
331
C0
  5
EA
331
C8
  5
FC
331
175
  5
17E
331
146
  5
DA
331
17D
  5
186
331
D0
  5
144
331
107
  5
194
331
14E
  5
CE
331
185
  5
172
331
99
  5
E3
331
D8
  5
14F
331
156
  5
D6
331
E0
  5
157
331
18D
  5
17A
331
195
  5
162
331
E8
  5
167
331
11F
  5
196
331
15E
  5
C2
331
B1
  5
E5
331
166
  5
CA
331
5B
  5
B1
331
F0
  5
16F
331
137
  5
198
331
C1
  5
EB
331
16E
  5
57
331
C9
  5
107
331
176
  5
17F
331
17E
  5
187
331
147
  5
D9
331
D1
  5
145
331
186
  5
173
331
14F
  5
CF
331
D9
  5
150
331
157
  5
D7
331
E1
  5
158
331
18E
  5
17B
331
15F
  5
C3
331
E9
  5
168
331
196
  5
161
331
167
  5
58
331
5C
  5
BC
331
F1
  5
192
331
C2
  5
EC
331
16F
  5
191
331
CA
  5
114
331
177
  5
180
331
148
  5
CB
331
D2
  5
146
331
17F
  5
188
331
187
  5
174
331
150
  5
D0
331
DA
  5
151
331
18F
  5
17C
331
158
  5
D8
331
E2
  5
159
331
197
  5
160
331
EA
  5
169
331
160
  5
C4
331
55
  5
5D
331
5D
  5
DF
331
168
  5
59
331
C3
  5
ED
331
170
  5
190
331
CB
  5
11F
331
178
  5
181
331
D3
  5
147
331
180
  5
189
331
188
  5
175
331
DB
  5
152
331
151
  5
D1
331
159
  5
BD
331
A4
  5
E4
331
E3
  5
15A
331
190
  5
17D
331
161
  5
C5
331
EB
  5
16A
331
198
  5
15F
331
12A
  5
197
331
56
  5
76
331
BC
  5
E6
331
169
  5
5A
331
C4
  5
EE
331
171
  5
18F
331
142
  5
DE
331
CC
  5
12A
331
179
  5
182
331
D4
  5
148
331
181
  5
18A
331
76
  5
E0
331
152
  5
D2
331
DC
  5
153
331
189
  5
176
331
191
  5
166
331
E4
  5
15B
331
15A
  5
BE
331
EC
  5
16B
331
162
  5
C6
331
57
  5
81
331
BD
  5
E7
331
16A
  5
5B
331
172
  5
18E
331
C5
  5
EF
331
FC
  5
193
331
143
  5
DD
331
8E
  5
E2
331
CD
  5
137
331
17A
  5
183
331
D5
  5
14C
331
182
  5
18B
  0
SORTENTSTABLE
  5
1DA
102
{ACAD_REACTORS
330
66
102
}
330
66
100
AcDbSortentsTable
330
65
  0
LAYOUT
  5
19A
102
{ACAD_XDICTIONARY
360
1EB
102
}
102
{ACAD_REACTORS
330
19B
102
}
330
19B
100
AcDbPlotSettings
  1

  2
\\NIKODEM\HP LaserJet 1200 Series PCL 6
  4
A4
  6
10-ele
 40
6.805083274841308
 41
5.027085304260253
 42
6.805084228515625
 43
5.027069091796875
 44
209.9733276367187
 45
296.9683227539062
 46
0.0
 47
0.0
 48
-4167.813012843697
 49
6081.51460876959
140
-2188.313012843697
141
8966.114608769588
142
1.0
143
10.0
 70
 11952
 72
     1
 73
     0
 74
     4
  7
monochrome_140.ctb
 75
    20
147
0.1
148
4167.813012843697
149
-6081.51460876959
100
AcDbLayout
  1
Model
 70
     1
 71
     0
 10
0.0
 20
0.0
 11
12.0
 21
9.0
 12
0.0
 22
0.0
 32
0.0
 14
0.0
 24
0.0
 34
0.0
 15
0.0
 25
0.0
 35
0.0
146
0.0
 13
0.0
 23
0.0
 33
0.0
 16
1.0
 26
0.0
 36
0.0
 17
0.0
 27
1.0
 37
0.0
 76
     0
330
2
331
1B3
  0
LAYOUT
  5
1A2
102
{ACAD_XDICTIONARY
360
1A3
102
}
102
{ACAD_REACTORS
330
19B
102
}
330
19B
100
AcDbPlotSettings
  1

  2
HP LaserJet P2015 Series PCL 5e
  4
A4
  6

 40
6.805083274841308
 41
5.027085781097412
 42
6.805068969726562
 43
5.027069091796875
 44
209.9733276367187
 45
296.9683227539062
 46
-6.81841230392456
 47
-5.042916059494018
 48
-0.7937495347798631
 49
-0.7937489321484464
140
209.2062504652201
141
296.2062510678515
142
1.0
143
1.0
 70
   692
 72
     1
 73
     0
 74
     4
  7
monochrome_140.ctb
 75
    16
147
1.0
148
0.7937495347798631
149
0.7937489321484464
100
AcDbLayout
  1
Poddasze
 70
     0
 71
     1
 10
-0.7804205056966112
 20
-0.7779186537518399
 11
209.1929071310221
 21
296.1904041001544
 12
5931.669543547489
 22
-50.0
 32
10705.17123084718
 14
-0.8001545588720091
 24
-0.8028074662216795
 34
-0.0000000000000053
 15
209.2126611125234
 25
296.2153175547517
 35
0.0000000000000099
146
0.0
 13
0.0
 23
0.0
 33
0.0
 16
1.0
 26
0.0
 36
0.0
 17
0.0
 27
1.0
 37
0.0
 76
     0
330
19F
1001
ACAD_PSEXT
1000
HP LaserJet P2015 Series PCL 5e
1000
HP LaserJet P2015 Series PCL 5e
1000
IP_192.168.0.251
1000

1070
     0
  0
MATERIAL
  5
1C2
102
{ACAD_XDICTIONARY
360
1F0
102
}
102
{ACAD_REACTORS
330
D
102
}
330
D
100
AcDbMaterial
  1
ByBlock
 73
     1
 78
     1
172
     1
176
     1
270
     1
274
     1
  0
MATERIAL
  5
1C1
102
{ACAD_XDICTIONARY
360
1EE
102
}
102
{ACAD_REACTORS
330
D
102
}
330
D
100
AcDbMaterial
  1
ByLayer
 73
     1
 78
     1
172
     1
176
     1
270
     1
274
     1
  0
MATERIAL
  5
C
102
{ACAD_XDICTIONARY
360
1E9
102
}
102
{ACAD_REACTORS
330
D
102
}
330
D
100
AcDbMaterial
  1
Global
 73
     1
 78
     1
172
     1
176
     1
270
     1
274
     1
  0
MLINESTYLE
  5
1C6
102
{ACAD_REACTORS
330
1BF
102
}
330
1BF
100
AcDbMlineStyle
  2
STANDARD
 70
     0
  3

 62
     0
 51
90.0
 52
90.0
 71
     2
 49
0.5
 62
   256
  6
BYLAYER
 49
-0.5
 62
   256
  6
BYLAYER
  0
ACDBPLACEHOLDER
  5
9
102
{ACAD_REACTORS
330
A
102
}
330
A
  0
SCALE
  5
1CB
102
{ACAD_REACTORS
330
1C4
102
}
330
1C4
100
AcDbScale
 70
     0
300
1/64" = 1'-0"
140
0.015625
141
12.0
290
     0
  0
SCALE
  5
1CC
102
{ACAD_REACTORS
330
1C4
102
}
330
1C4
100
AcDbScale
 70
     0
300
1/32" = 1'-0"
140
0.03125
141
12.0
290
     0
  0
SCALE
  5
1CD
102
{ACAD_REACTORS
330
1C4
102
}
330
1C4
100
AcDbScale
 70
     0
300
1/16" = 1'-0"
140
0.0625
141
12.0
290
     0
  0
SCALE
  5
1CE
102
{ACAD_REACTORS
330
1C4
102
}
330
1C4
100
AcDbScale
 70
     0
300
3/32" = 1'-0"
140
0.09375
141
12.0
290
     0
  0
SCALE
  5
1CF
102
{ACAD_REACTORS
330
1C4
102
}
330
1C4
100
AcDbScale
 70
     0
300
1/8" = 1'-0"
140
0.125
141
12.0
290
     0
  0
SCALE
  5
1D0
102
{ACAD_REACTORS
330
1C4
102
}
330
1C4
100
AcDbScale
 70
     0
300
3/16" = 1'-0"
140
0.1875
141
12.0
290
     0
  0
SCALE
  5
1D1
102
{ACAD_REACTORS
330
1C4
102
}
330
1C4
100
AcDbScale
 70
     0
300
1/4" = 1'-0"
140
0.25
141
12.0
290
     0
  0
SCALE
  5
1D2
102
{ACAD_REACTORS
330
1C4
102
}
330
1C4
100
AcDbScale
 70
     0
300
3/8" = 1'-0"
140
0.375
141
12.0
290
     0
  0
SCALE
  5
1D3
102
{ACAD_REACTORS
330
1C4
102
}
330
1C4
100
AcDbScale
 70
     0
300
1/2" = 1'-0"
140
0.5
141
12.0
290
     0
  0
SCALE
  5
1D4
102
{ACAD_REACTORS
330
1C4
102
}
330
1C4
100
AcDbScale
 70
     0
300
3/4" = 1'-0"
140
0.75
141
12.0
290
     0
  0
SCALE
  5
1D5
102
{ACAD_REACTORS
330
1C4
102
}
330
1C4
100
AcDbScale
 70
     0
300
1" = 1'-0"
140
1.0
141
12.0
290
     0
  0
SCALE
  5
1D6
102
{ACAD_REACTORS
330
1C4
102
}
330
1C4
100
AcDbScale
 70
     0
300
1 1/2" = 1'-0"
140
1.5
141
12.0
290
     0
  0
SCALE
  5
1D7
102
{ACAD_REACTORS
330
1C4
102
}
330
1C4
100
AcDbScale
 70
     0
300
3" = 1'-0"
140
3.0
141
12.0
290
     0
  0
SCALE
  5
1D8
102
{ACAD_REACTORS
330
1C4
102
}
330
1C4
100
AcDbScale
 70
     0
300
6" = 1'-0"
140
6.0
141
12.0
290
     0
  0
SCALE
  5
1D9
102
{ACAD_REACTORS
330
1C4
102
}
330
1C4
100
AcDbScale
 70
     0
300
1'-0" = 1'-0"
140
12.0
141
12.0
290
     1
  0
TABLESTYLE
  5
1C7
102
{ACAD_XDICTIONARY
360
1C8
102
}
102
{ACAD_REACTORS
330
1C5
102
}
330
1C5
100
AcDbTableStyle
  3
Standard
 70
     0
 71
     0
 40
0.06
 41
0.06
280
     0
281
     0
  7
STANDARD
140
0.18
170
     2
 62
     0
 63
     7
283
     0
274
    -2
284
     1
 64
     0
275
    -2
285
     1
 65
     0
276
    -2
286
     1
 66
     0
277
    -2
287
     1
 67
     0
278
    -2
288
     1
 68
     0
279
    -2
289
     1
 69
     0
  7
STANDARD
140
0.25
170
     5
 62
     0
 63
     7
283
     0
274
    -2
284
     1
 64
     0
275
    -2
285
     1
 65
     0
276
    -2
286
     1
 66
     0
277
    -2
287
     1
 67
     0
278
    -2
288
     1
 68
     0
279
    -2
289
     1
 69
     0
  7
STANDARD
140
0.18
170
     5
 62
     0
 63
     7
283
     0
274
    -2
284
     1
 64
     0
275
    -2
285
     1
 65
     0
276
    -2
286
     1
 66
     0
277
    -2
287
     1
 67
     0
278
    -2
288
     1
 68
     0
279
    -2
289
     1
 69
     0
  0
VISUALSTYLE
  5
19D
102
{ACAD_REACTORS
330
19E
102
}
330
19E
100
AcDbVisualStyle
  2
2dWireframe
 70
     4
 71
     0
 72
     2
 73
     0
 90
        0
 40
-0.6
 41
-30.0
 62
     5
 63
     7
 74
     1
 91
        4
 64
     7
 65
   257
 75
     1
175
     1
 42
1.0
 92
        0
 66
   257
 43
1.0
 76
     1
 77
     6
 78
     2
 67
     7
 79
     5
170
     0
171
     0
290
     0
174
     0
 93
        1
 44
0.0
173
     0
291
     0
 45
0.0
1001
ACAD
1000
AcDbSavedByObjectVersion
1070
     0
  0
VISUALSTYLE
  5
1CA
102
{ACAD_REACTORS
330
19E
102
}
330
19E
100
AcDbVisualStyle
  2
3dWireframe
 70
     5
 71
     0
 72
     2
 73
     0
 90
        0
 40
-0.6
 41
-30.0
 62
     5
 63
     7
 74
     1
 91
        4
 64
     7
 65
   257
 75
     1
175
     1
 42
1.0
 92
        0
 66
   257
 43
1.0
 76
     1
 77
     6
 78
     2
 67
     7
 79
     5
170
     0
171
     0
290
     0
174
     0
 93
        1
 44
0.0
173
     0
291
     0
 45
0.0
1001
ACAD
1000
AcDbSavedByObjectVersion
1070
     0
  0
VISUALSTYLE
  5
1C9
102
{ACAD_REACTORS
330
19E
102
}
330
19E
100
AcDbVisualStyle
  2
Realistic
 70
     8
 71
     2
 72
     2
 73
     0
 90
        0
 40
-0.6
 41
-30.0
 62
     5
 63
     7
 74
     1
 91
        0
 64
     7
 65
   257
 75
     1
175
     1
 42
1.0
 92
        8
 66
     8
 43
1.0
 76
     1
 77
     6
 78
     2
 67
     7
 79
     5
170
     0
171
     0
290
     0
174
     0
 93
       13
 44
0.0
173
     0
291
     0
 45
0.0
1001
ACAD
1000
AcDbSavedByObjectVersion
1070
     0
  0
DICTIONARYVAR
  5
1E0
102
{ACAD_REACTORS
330
1DC
102
}
330
1DC
100
DictionaryVariables
280
     0
  1
1/8" = 1'-0"
  0
DICTIONARYVAR
  5
1DE
102
{ACAD_REACTORS
330
1DC
102
}
330
1DC
100
DictionaryVariables
280
     0
  1
STANDARD
  0
DICTIONARYVAR
  5
1DD
102
{ACAD_REACTORS
330
1DC
102
}
330
1DC
100
DictionaryVariables
280
     0
  1
STANDARD
  0
DICTIONARYVAR
  5
1E4
102
{ACAD_REACTORS
330
1DC
102
}
330
1DC
100
DictionaryVariables
280
     0
  1
1
  0
DICTIONARYVAR
  5
1E3
102
{ACAD_REACTORS
330
1DC
102
}
330
1DC
100
DictionaryVariables
280
     0
  1
1
  0
DICTIONARYVAR
  5
1E2
102
{ACAD_REACTORS
330
1DC
102
}
330
1DC
100
DictionaryVariables
280
     0
  1
0
  0
DICTIONARYVAR
  5
1DF
102
{ACAD_REACTORS
330
1DC
102
}
330
1DC
100
DictionaryVariables
280
     0
  1
1
  0
DICTIONARYVAR
  5
1E1
102
{ACAD_REACTORS
330
1DC
102
}
330
1DC
100
DictionaryVariables
280
     0
  1
127
  0
DICTIONARY
  5
1EB
330
19A
100
AcDbDictionary
280
     1
281
     1
  3
ACAD_XREC_ROUNDTRIP
360
1EC
  0
DICTIONARY
  5
1A3
330
1A2
100
AcDbDictionary
280
     1
281
     1
  3
ACAD_XREC_ROUNDTRIP
360
1ED
  3
ADSK_XREC_LAYOUTTHUMBNAIL
360
1A4
  0
DICTIONARY
  5
1F0
330
1C2
100
AcDbDictionary
280
     1
281
     1
  3
ACAD_XREC_ROUNDTRIP
360
1F1
  0
DICTIONARY
  5
1EE
330
1C1
100
AcDbDictionary
280
     1
281
     1
  3
ACAD_XREC_ROUNDTRIP
360
1EF
  0
DICTIONARY
  5
1E9
330
C
100
AcDbDictionary
280
     1
281
     1
  3
ACAD_XREC_ROUNDTRIP
360
1EA
  0
DICTIONARY
  5
1C8
330
1C7
100
AcDbDictionary
280
     1
281
     1
  3
ACAD_ROUNDTRIP_2008_TABLESTYLE_CELLSTYLEMAP
360
1E6
  3
ACAD_XREC_ROUNDTRIP
360
1F2
  0
XRECORD
  5
1EC
102
{ACAD_REACTORS
330
1EB
102
}
330
1EB
100
AcDbXrecord
280
     1
102
SHADEPLOT
 70
     1
102
SHADEPLOTRESLEVEL
 70
     2
102
SHADEPLOTCUSTOMDPI
 70
   300
  0
XRECORD
  5
1ED
102
{ACAD_REACTORS
330
1A3
102
}
330
1A3
100
AcDbXrecord
280
     1
102
SHADEPLOT
 70
     1
102
SHADEPLOTRESLEVEL
 70
     4
102
SHADEPLOTCUSTOMDPI
 70
   600
  0
XRECORD
  5
1A4
102
{ACAD_REACTORS
330
1A3
102
}
330
1A3
100
AcDbXrecord
280
     1
310
28000000620000008C0000000100080000000000B036000000000000000000000001000000000000FFFFFF0000000000FFFFFF000000000000000000000000000000000000000000000000000000000000000000330000006600000099000000CC000000FF00000000330000333300006633000099330000CC330000FF3300
310
0000660000336600006666000099660000CC660000FF66000000990000339900006699000099990000CC990000FF99000000CC000033CC000066CC000099CC0000CCCC0000FFCC000000FF000033FF000066FF000099FF0000CCFF0000FFFF000000003300330033006600330099003300CC003300FF003300003333003333
310
33006633330099333300CC333300FF33330000663300336633006666330099663300CC663300FF66330000993300339933006699330099993300CC993300FF99330000CC330033CC330066CC330099CC3300CCCC3300FFCC330000FF330033FF330066FF330099FF3300CCFF3300FFFF330000006600330066006600660099
310
006600CC006600FF00660000336600333366006633660099336600CC336600FF33660000666600336666006666660099666600CC666600FF66660000996600339966006699660099996600CC996600FF99660000CC660033CC660066CC660099CC6600CCCC6600FFCC660000FF660033FF660066FF660099FF6600CCFF6600
310
FFFF660000009900330099006600990099009900CC009900FF00990000339900333399006633990099339900CC339900FF33990000669900336699006666990099669900CC669900FF66990000999900339999006699990099999900CC999900FF99990000CC990033CC990066CC990099CC9900CCCC9900FFCC990000FF99
310
0033FF990066FF990099FF9900CCFF9900FFFF99000000CC003300CC006600CC009900CC00CC00CC00FF00CC000033CC003333CC006633CC009933CC00CC33CC00FF33CC000066CC003366CC006666CC009966CC00CC66CC00FF66CC000099CC003399CC006699CC009999CC00CC99CC00FF99CC0000CCCC0033CCCC0066CC
310
CC0099CCCC00CCCCCC00FFCCCC0000FFCC0033FFCC0066FFCC0099FFCC00CCFFCC00FFFFCC000000FF003300FF006600FF009900FF00CC00FF00FF00FF000033FF003333FF006633FF009933FF00CC33FF00FF33FF000066FF003366FF006666FF009966FF00CC66FF00FF66FF000099FF003399FF006699FF009999FF00CC
310
99FF00FF99FF0000CCFF0033CCFF0066CCFF0099CCFF00CCCCFF00FFCCFF0000FFFF0033FFFF0066FFFF0099FFFF00CCFFFF00FFFFFF00000000000D0D0D001A1A1A00282828003535350043434300505050005D5D5D006B6B6B00787878008686860093939300A1A1A100AEAEAE00BBBBBB00C9C9C900D6D6D600E4E4E400
310
F1F1F100FFFFFF0000000000000000000000000000000000000000000000000000000000000000000000000000000000E9E9E9E9E9E9E9E9E9E9E9E9E9E9E9E9E9E9E9E9E9E9E9E9E9E9E9E9E9E9E9E9E9E9E9E9E9E9E9E9E9E9E9E9E9E9E9E9E9E9E9E9E9E9E9E9E9E9E9E9E9E9E9E9E9E9E9E9E9E9E9E9E9E9E9E9E9E9E9
310
E9E9E9E9E9E9E9E9E9E9E9E9E9E9E9E9E9E9E9FFFFE9F5F5F5F5F5F5F5F5F5F5F5F5F5F5F5F5F5F5F5F5F5F5F5F5F5F5F5F5F5F5F5F5F5F5F5F5F5F5F5F5F5F5F5F5F5F5F5F5F5F5F5F5F5F5F5F5F5F5F5F5F5F5F5F5F5F5F5F5F5F5F5F5F5F5F5F5F5F5F5F5F5F5F5F5F5F5F5F5F5F5F5F5F5F5F5F5E9FFFFE9F5F5F5F5F5
310
F5F5F5F5F5F5F5F5F5F5F5F5F5F5F5F5F5F5F5F5F5F5F5F5F5F5F5F5F5F5F5F5F5F5F5F5F5F5F5F5F5F5F5F5F5F5F5F5F5F5F5F5F5F5F5F5F5F5F5F5F5F5F5F5F5F5F5F5F5F5F5F5F5F5F5F5F5F5F5F5F5F5F5F5F5F5F5F5F5F5F5E9FFFFE9F5F5E2E2E2E2E2E2E2E2F5F5F5F5F5F5F5F5E2E2E2E2E2E2E2E2E2E2E2E2E2E2
310
E2F5F5F5F5F5F5F5F5E2E2E2E2E2E2E2E2E2E2E2E2E2E2F5F5F5F5F5F5F5F5E2E2E2E2E2E2E2E2E2E2E2E2E2E2E2F5F5F5F5F5F5F5F5E2E2E2E2E2E2E2E2F5F5E9FFFFE9F5F5E2F5F5F5F5F5F5F5F5F5F5F5F5F5F5F5F5F5F5F5F5F5F5F5F5F5F5F5F5F5F5F5F5F5F5F5F5F5F5F5F5F5F5F5F5F5F5F5F5F5F5F5F5F5F5F5F5
310
F5F5F5F5F5F5F5F5F5F5F5F5F5F5F5F5F5F5F5F5F5F5F5F5F5F5F5F5F5F5F5F5F5F5E2F5F5E9FFFFE9F5F5E2F5E9E9E9E9E9E9E9E9E9E9E9E9E9E9E9E9E9E9E9E9E9E9E9E9E9E9E9E9E9E9E9E9E9E9E9E9E9E9E9E9E9E9E9E9E9E9E9E9E9E9E9E9E9E9E9E9E9E9E9E9E9E9E9E9E9E9E9E9E9E9E9E9E9E9E9E9E9E9E9E9E9E9
310
E9E9E9E9E9E9F5E2F5F5E9FFFFE9F5F5E2F5E9F5F5F5F5F5F5F5F5F5F5F5F5F5F5F5F5F5F5F5F5F5F5F5F5F5F5F5F5F5F5F5F5F5F5F5F5F5F5F5F5F5F5F5F5F5F5F5F5F5F5F5F5F5F5F5F5F5F5F5F5F5F5F5F5F5F5F5F5F5F5F5F5F5F5F5F5F5F5F5F5F5F5F5F5F5F5E9F5E2F5F5E9FFFFE9F5F5E2F5E9F5F5F5F5F5F5F5F5
310
F5F5F5F5F5F5F5F5F5F5F5F5F5F5F5F5F5F5F5F5F5F5F5F5F5F5F5F5F5F5F5F5F5F5F5F5F5F5F5F5F5F5F5F5F5F5F5F5F5F5F5F5F5F5F5F5F5F5F5F5F5F5F5F5F5F5F5F5F5F5F5F5F5F5F5F5F5F5E9F5E2F5F5E9FFFFE9F5F5E2F5E9F5F5F5F5F5F5F5F5F5F5F5F5F5F5F5F5F5F5F5F5F5F5F5F5F5F5F5F5F5F5F5F5F5F5F5
310
F5F5F5F5F5F5F5F5F5F5F5F5F5F5F5F5F5F5F5F5F5F5F5F5F5F5F5F5F5F5F5F5F5F5F5F5F5F5F5F5F5F5F5F5F5F5F5F5F5F5F5E9F5E2F5F5E9FFFFE9F5F5E2F5E9F5F5F5F5F5F5F5F5F5F5F5F5F5F5F5F5F5F5F5F5F5F5F5F5F5F5F5F5F5F5F5F5F5F5F5F5F5F5F5F5F5F5F5F5F5F5F5F5F5F5F5F5F5F5F5F5F5F5F5F5F5F5
310
F5F5F5F5F5F5F5F5F5F5F5F5F5F5F5F5F5F5F5F5F5F5F5F5E9F5E2F5F5E9FFFFE9F5F5E2F5E9F5F5F5F5F5F5F5F5F5F5F5F5F5F5F5F5F5F5F5F5F5F5F5F5F5F5F5F5F5F5F5F5F5F5F5F5F5F5F5F5F5F5F5F5F5F5F5F5F5F5F5F5F5F5F5F5F5F5F5F5F5F5F5F5F5F5F5F5F5F5F5F5F5F5F5F5F5F5F5F5F5F5F5F5F5F5E9F5E2
310
F5F5E9FFFFE9F5F5E2F5E9F5F5F5F5F5F5F5F5F5F5F5F5F5F5F5F5F5F5F5F5F5F5F5F5F5F5F5F5F5F5F5F5F5F5F5F5F5F5F5F5F5F5F5F5F5F5F5F5F5F5F5F5F5F5F5F5F5F5F5F5F5F5F5F5F5F5F5F5F5F5F5F5F5F5F5F5F5F5F5F5F5F5F5F5F5F5E9F5E2F5F5E9FFFFE9F5F5F5F5E9F5F5F5F5F5F5F5F5F5F5F5F5F5F5F5F5
310
F5F5F5F5F5F5F5F5F5F5F5F5F5F5F5F5F5F5F5F5F5F5F5F5F5F5F5F5F5F5F5F5F5F5F5F5F5F5F5F5F5F5F5F5F5F5F5F5F5F5F5F5F5F5F5F5F5F5F5F5F5F5F5F5F5F5F5F5F5F5E9F5F5F5F5E9FFFFE9F5F5F5F5E9F5F5F5F5F5F5F5F5F5F5F5F5F5F5F5F5F5F5F5F5F5F5F5F5F5F5F5F5F5F5F5F5F5F5F5F5F5F5F5F5F5F5F5
310
F5F5F5F5F5F5F5F5F5F5F5F5F5F5F5F5F5F5F5F5F5F5F5F5F5F5F5F5F5F5F5F5F5F5F5F5F5F5F5F5F5F5F5E9F5F5F5F5E9FFFFE9F5F5F5F5E9F5F5F5F5F5F5F5F5F5F5F5F5F5F5F5F5F5F5F5F5F5F5F5F5F5F5F5F5F5F5F5F5F5F5F5F5F5F5F5F5F5F5F5F5F5F5F5F5F5F5F5F5F5F5F5F5F5F5F5F5F5F5F5F5F5F5F5F5F5F5
310
F5F5F5F5F5F5F5F5F5F5F5F5F5F5F5F5E9F5F5F5F5E9FFFFE9F5F5F5F5E9F5F5F5F5F5F5F5F5F5F5F5F5F5F5F5F5F5F5F5F5F5F5F5F5F5F5F5F5F5F5F5F5F5F5F5F5F5F5F5F5F5F5F5F5F5F5F5F5F5F5F5F5F5F5F5F5F5F5F5F5F5F5F5F5F5F5F5F5F5F5F5F5F5F5F5F5F5F5F5F5F5F5F5F5F5F5E9F5F5F5F5E9FFFFE9F5F5
310
F5F5E9F5F5F5F5F5F5F5F5F5F5F5F5F5F5F5F5F5F5F5F5F5F5F5F5F5F5F5F5F5F5F5F5F5F5F5F5F5F5F5F5F5F5F5F5F5F5F5F5F5F5F5F5F5F5F5F5F5F5F5F5F5F5F5F5F5F5F5F5F5F5F5F5F5F5F5F5F5F5F5F5F5F5F5F5F5F5E9F5F5F5F5E9FFFFE9F5F5F5F5E9F5F5F5F5F5F5F5F5F5F5F5F5F5F5F5F5F5F5F5F5F5F5F5F5
310
F5F5F5F5F5F5F5F5F5F5F5F5F5F5F5F5F5F5F5F5F5F5F5F5F5F5F5F5F5F5F5F5F5F5F5F5F5F5F5F5F5F5F5F5F5F5F5F5F5F5F5F5F5F5F5F5F5F5F5F5F5F5E9F5F5F5F5E9FFFFE9F5F5F5F5E9F5F5F5F5F5F5F5F5F5F5F5F5F5F5F5F5F5F5F5F5F5F5F5F5F5F5F5F5F5F5F5F5F5F5F5F5F5F5F5F5F5F5F5F5F5F5F5F5F5F5F5
310
F5F5F5F5F5F5F5F5F5F5F5F5F5F5F5F5F5F5F5F5F5F5F5F5F5F5F5F5F5F5F5F5F5F5F5E9F5F5F5F5E9FFFFE9F5F5F5F5E9F5F5F5F5F5F5F5F5F5F5F5F5F5F5F5F5F5F5F5F5F5F5F5F5F5F5F5F5F5F5F5F5F5F5F5F5F5F5F5F5F5F5F5F5F5F5F5F5F5F5F5F5F5F5F5F5F5F5F5F5F5F5F5F5F5F5F5F5F5F5F5F5F5F5F5F5F5F5
310
F5F5F5F5F5F5F5F5E9F5F5F5F5E9FFFFE9F5F5F5F5E9F5F5F5F5F5F5F5F5F5F5F5F5F5F5F5F5F5F5F5F5F5F5F5F5F5F5F5F5F5F5F5F5F5F5F5F5F5F5F5F5F5F5F5F5F5F5F5F5F5F5F5F5F5F5F5F5F5F5F5F5F5F5F5F5F5F5F5F5F5F5F5F5F5F5F5F5F5F5F5F5F5F5F5F5F5F5E9F5F5F5F5E9FFFFE9F5F5E2F5E9F5F5F5F5F5
310
F5F5F5F5F5F5F5F5F5F5F5F5F5F5F5F5F5F5F5F5F5F5F5F5F5F5F5F5F5F5F5F5F5F5F5F5F5F5F5F5F5F5F5F5F5F5F5F5F5F5F5F5F5F5F5F5F5F5F5F5F5F5F5F5F5F5F5F5F5F5F5F5F5F5F5F5F5F5F5F5F5E9F5E2F5F5E9FFFFE9F5F5E2F5E9F5F5F5F5F5F5F5F5F5F5F5F5F5F5F5F5F5F5F5F5F5F5F5F5F5F5F5F5F5F5F5F5
310
F5F5F5F5F5F5F5F5F5F5F5F5F5F5F5F5F5F5F5F5F5F5F5F5F5F5F5F5F5F5F5F5F5F5F5F5F5F5F5F5F5F5F5F5F5F5F5F5F5F5F5F5F5F5E9F5E2F5F5E9FFFFE9F5F5E2F5E9F5F5F5F5F5F5F5F5F5F5F5F5F5F5F5F5F5F5F5F5F5F5F5F5F5F5F5F5F5F5F5F5F5F5F5F5F5F5F5F5F5F5F5F5F5F5F5F5F5F5F5F5F5F5F5F5F5F5F5
310
F5F5F5F5F5F5F5F5F5F5F5F5F5F5F5F5F5F5F5F5F5F5F5F5F5F5F5E9F5E2F5F5E9FFFFE9F5F5E2F5E9F5F5F5F5F5F5F5F5F5F5F5F5F5F5F5F5F5F5F5F5F5F5F5F5F5F5F5F5F5F5F5F5F5F5F5F5F5F5F5F5F5F5F5F5F5F5F5F5F5F5F5F5F5F5F5F5F5F5F5F5F5F5F5F5F5F5F5F5F5F5F5F5F5F5F5F5F5F5F5F5F5F5F5F5F5F5
310
E9F5E2F5F5E9FFFFE9F5F5E2F5E9F5F5F5F5F5F5F5F5F5F5F5F5F5F5F5F5F5F5F5F5F5F5F5F5F5F5F5F5F5F5F5F5F5F5F5F5F5F5F5F5F5F5F5F5F5F5F5F5F5F5F5F5F5F5F5F5F5F5F5F5F5F5F5F5F5F5F5F5F5F5F5F5F5F5F5F5F5F5F5F5F5F5F5F5F5F5E9F5E2F5F5E9FFFFE9F5F5E2F5E9F5F5F5F5F5F5F5F5F5F5F5F5F5
310
F5F5F5F5F5F5F5E9E9E9E9E9E9E9E9E9E9E9E9E9E9E9E9E9E9E9E9E9E9E9E9E9E9E9E9E9E9E9E9E9E9E9E9E9E9E9E9E9E9E9E9E9E9E9E9E9E9E9F5F5F5F5F5F5F5F5F5F5F5F5F5F5F5E9F5E2F5F5E9FFFFE9F5F5E2F5E9F5F5F5F5F5F5F5F5F5F5F5F5F5F5F5F5F5F5F5F5E9F5F5F5F5F5F5F5F5F5F5F5F5F5F5F5F5F5F5F5
310
F5F5F5F5F5F5F5F5F5F5F5F5F5F5F5F5F5F5F5F5F5F5F5F5F5F5F5F5F5F5E9F5F5F5F5F5F5F5F5F5F5F5F5F5F5F5E9F5E2F5F5E9FFFFE9F5F5E2F5E9F5F5F5F5F5F5F5F5F5F5F5F5F5F5F5F5F5F5F5F5E9F5F5F5F5F5F5F5F5F5F5F5F5F5F5F5F5F5F5F5F5F5F5F5F5F5F5F5F5F5F5F5F5F5F5F5F5F5F5F5F5F5F5F5F5F5F5
310
F5F5F5E9F5F5F5F5F5F5F5F5F5F5F5F5F5F5F5E9F5E2F5F5E9FFFFE9F5F5E2F5E9F5F5F5F5F5F5F5F5F5F5F5F5F5F5F5F5F5F5F5F5E9F5F5F5F5F5F553535353535353535353535353535353535353535353535353535353535353535353F5F5F5F5F5F5F5F5F5E9F5F5F5F5F5F5F5F5F5F5F5F5F5F5F5E9F5E2F5F5E9FFFF
310
E9F5F5E2F5E9F5F5F5F5F5F5F5F5F5F5F5F5F5F5F5F5F5F5F5F5E9F5F5F5F5F5F553F5F5F5F5F5F5F5F5F5F5F5F5F5F5F5F5F5F5F5F5F5F5F563636363F5F563636363F5F5F5F5F5F5F5F5F5E9F5F5F5F5F5F5F5F5F5F5F5F5F5F5F5E9F5E2F5F5E9FFFFE9F5F5E2F5E9F5F5F5F5F5F5F5F5F5F5F5F5F5F5F5F5F5F5F5F5E9
310
F5F5F5F5F5F578787878787878787878787878787878787878787878787878787878787878787878F5F5F5F5F5F5F5F5F5E9F5F5F5F5F5F5F5F5F5F5F5F5F5F5F5E9F5E2F5F5E9FFFFE9F5F5E2F5E9F5F5F5F5F5F5F5F5F5F5F5F5F5F5F5F5F5F5F5F5E9F5F5F5F5F5F55363636363636363F5F5F563636363636363F5F578
310
F5F5F563636363F5F563636363F5F5F5F5F5F5F5F5F5E9F5F5F5F5F5F5F5F5F5F5F5F5F5F5F5E9F5E2F5F5E9FFFFE9F5F5E2F5E9F5F5F5F5F5F5F5F5F5F5F5F5F5F5F5F5F5F5F5F5E9F5F5F5F5F5F55363636363636363F5F5F563636363636363F5F578F5F5F563636363F5F5F5636363F5F5F5F5F5F5F5F5F5E9F5F5F5F5
310
F5F5F5F5F5F5F5F5F5F5F5E9F5E2F5F5E9FFFFE9F5F5E2F5E9F5F5F5F5F5F5F5F5F5F5F5F5F5F5F5F5F5F5F5F5E9F5F5F5F5F5F553636363636363636363F56363636363F5F5F5F578F5F5F563636378F5F5F5636363F5F5F5F5F5F5F5F5F5E9F5F5F5F5F5F5F5F5F5F5F5F5F5F5F5E9F5E2F5F5E9FFFFE9F5F5E2F5E9F5F5
310
F5F5F5F5F5F5F5F5F5F5F5F5F5F5F5F5F5F5E9F5F5F5F5F5F5536363636363636363F5F56363636363F5F5F5F578F5F5F5F5636363F5F5F5636363F5F5F5F5F5F5F5F5F5E9F5F5F5F5F5F5F5F5F5F5F5F5F5F5F5E9F5E2F5F5E9FFFFE9F5F5E2F5E9F5F5F5F5F5F5F5F5F5F5F5F5F5F5F5F5F5F5F5F5E9F5F5F5F5F5F55363
310
636363636363F5F5F563636363636363F5F578F5F5F563636363F5F563636363F5F5F5F5F5F5F5F5F5E9F5F5F5F5F5F5F5F5F5F5F5F5F5F5F5E9F5E2F5F5E9FFFFE9F5F5E2F5E9F5F5F5F5F5F5F5F5F5F5F5F5F5F5F5F5F5F5F5F5E9F5F5F5F5F5F5536363636363636363636363636363636363F5F578F5F5F563636378F5
310
F5F5636363F5F5F5F5F5F5F5F5F5E9F5F5F5F5F5F5F5F5F5F5F5F5F5F5F5E9F5E2F5F5E9FFFFE9F5F5F5F5E9F5F5F5F5F5F5F5F5F5F5F5F5F5F5F5F5F5F5F5F5E9F5F5F5F5F5F5536363636363636363636363636363636363F5F578F5F5F563636363F5F5F5636363F5F5F5F5F5F5F5F5F5E9F5F5F5F5F5F5F5F5F5F5F5F5
310
F5F5F5E9F5F5F5F5E9FFFFE9F5F5F5F5E9F5F5F5F5F5F5F5F5F5F5F5F5F5F5F5F5F5F5F5F5E9F5F5F5F5F5F55363636363636363F5F5F563636363636363F5F578F5F5F563636363F5F563636363F5F5F5F5F5F5F5F5F5E9F5F5F5F5F5F5F5F5F5F5F5F5F5F5F5E9F5F5F5F5E9FFFFE9F5F5F5F5E9F5F5F5F5F5F5F5F5F5F5
310
F5F5F5F5F5F5F5F5F5F5E9F5F5F5F5F5F55363636363636363F5F5F563636363636363F5F578F5F5F563636378F5F5F5636363F5F5F5F5F5F5F5F5F5E9F5F5F5F5F5F5F5F5F5F5F5F5F5F5F5E9F5F5F5F5E9FFFFE9F5F5F5F5E9F5F5F5F5F5F5F5F5F5F5F5F5F5F5F5F5F5F5F5F5E9F5F5F5F5F5F553636363636363F5F5F5
310
F563636363636363F5F578F5F5F563636363F5F5F5636363F5F5F5F5F5F5F5F5F5E9F5F5F5F5F5F5F5F5F5F5F5F5F5F5F5E9F5F5F5F5E9FFFFE9F5F5F5F5E9F5F5F5F5F5F5F5F5F5F5F5F5F5F5F5F5F5F5F5F5E9F5F5F5F5F5F5536363636363636363F5F5636363636363F5F5F57863F5F563636363F5F563636363F5F5F5
310
F5F5F5F5F5F5E9F5F5F5F5F5F5F5F5F5F5F5F5F5F5F5E9F5F5F5F5E9FFFFE9F5F5F5F5E9F5F5F5F5F5F5F5F5F5F5F5F5F5F5F5F5F5F5F5F5E9F5F5F5F5F5F578786378787878787878786363636363787878787878787878787878787878787878F5F5F5F5F5F5F5F5F5E9F5F5F5F5F5F5F5F5F5F5F5F5F5F5F5E9F5F5F5F5
310
E9FFFFE9F5F5F5F5E9F5F5F5F5F5F5F5F5F5F5F5F5F5F5F5F5F5F5F5F5E9F5F5F5F5F5F578787878636363636363636363636363787878786363637878787863636378787878F5F5F5F5F5F5F5F5F5E9F5F5F5F5F5F5F5F5F5F5F5F5F5F5F5E9F5F5F5F5E9FFFFE9F5F5F5F5E9F5F5F5F5F5F5F5F5F5F5F5F5F5F5F5F5F5F5
310
F5F5E9F5F5F5F5F5F553636363636363636363636363636363636363636363F5F5F5F5F5F5F5F5F5F5F553F5F5F5F5F5F5F5F5F5E9F5F5F5F5F5F5F5F5F5F5F5F5F5F5F5E9F5F5F5F5E9FFFFE9F5F5F5F5E9F5F5F5F5F5F5F5F5F5F5F5F5F5F5F5F5F5F5F5F5E9F5F5F5F5F5F5535353535353535353535353535353535353
310
53535353535353535353535353535353F5F5F5F5F5F5F5F5F5E9F5F5F5F5F5F5F5F5F5F5F5F5F5F5F5E9F5F5F5F5E9FFFFE9F5F5F5F5E9F5F5F5F5F5F5F5F5F5F5F5F5F5F5F5F5F5F5F5F5E9F5F5F5F5F5F5F5F5F5F5F5F5F5F5F5F5F5F5F5F5F5F5F5F5F5F5F5F5F5F5F5F5F5F5F5F5F5F5F5F5F5F5F5F5F5F5F5F5F5E9F5
310
F5F5F5F5F5F5F5F5F5F5F5F5F5F5E9F5F5F5F5E9FFFFE9F5F5E2F5E9F5F5F5F5F5F5F5F5F5F5F5F5F5F5F5F5F5F5F5F5E9F5F5F5F5F5F5F5F5F5F5F5F5F5F5F5F5F5F5F5F5F5F5F5F5F5F5F5F5F5F5F5F5F5F5F5F5F5F5F5F5F5F5F5F5F5F5F5F5F5E9F5F5F5F5F5F5F5F5F5F5F5F5F5F5F5E9F5E2F5F5E9FFFFE9F5F5E2F5
310
E9F5F5F5F5F5F5F5F5F5F5F5F5F5F5F5F5F5F5F5F5E9E9E9E9E9E9E9E9E9E9E9E9E9E9E9E9E9E9E9E9E9E9E9E9E9E9E9E9E9E9E9E9E9E9E9E9E9E9E9E9E9E9E9E9E9E9E9E9E9E9E9F5F5F5F5F5F5F5F5F5F5F5F5F5F5F5E9F5E2F5F5E9FFFFE9F5F5E2F5E9F5F5F5F5F5F5F5F5F5F5F5F5F5F5F5F5F5F5F5F5F5F5F5F5F5F5
310
F5F5F5F5F5F5F5F5F5F5F5F5F5F5F5F5F5F5F5F5F5F5F5F5F5F5F5F5F5F5F5F5F5F5F5F5F5F5F5F5F5F5F5F5F5F5F5F5F5F5F5F5F5F5F5F5F5F5F5F5E9F5E2F5F5E9FFFFE9F5F5E2F5E9F5F5F5F5F5F5F5F5F5F5F5F5F5F5F5F5F5F5F5F5F5F5F5F5F5F5F5F5F5F5F5F5F5F5F5F5F5F5F5F5F5F5F5F5F5F5F5F5F5F5F5F5F5
310
F5F5F5F5F5F5F5F5F5F5F5F5F5F5F5F5F5F5F5F5F5F5F5F5F5F5F5F5F5F5F5F5F5E9F5E2F5F5E9FFFFE9F5F5E2F5E9F5F5F5F5F5F5F5F5F5F5F5F5F5F5F5F5F5F5F5F5F5F5F5F5F5F5F5F5F5F5F5F5F5F5F5F5F5F5F5F5F5F5F5F5F5F5F5F5F5F5F5F5F5F5F5F5F5F5F5F5F5F5F5F5F5F5F5F5F5F5F5F5F5F5F5F5F5F5F5F5
310
F5F5F5F5F5F5E9F5E2F5F5E9FFFFE9F5F5E2F5E9F5F5F5F5F5F5F5F5F5F5F5F5F5F5F5F5F5F5F5F5F5F5F5F5F5F5F5F5F5F5F5F5F5F5F5F5F5F5F5F5F5F5F5F5F5F5F5F5F5F5F5F5F5F5F5F5F5F5F5F5F5F5F5F5F5F5F5F5F5F5F5F5F5F5F5F5F5F5F5F5F5F5F5F5F5F5E9F5E2F5F5E9FFFFE9F5F5E2F5E9F5F5F5F5F5F5F5
310
F5F5F5F5F5F5F5F5F5F5F5F5F5F5F5F5F5F5F5F5F5F5F5F5F5F5F5F5F5F5F5F5F5F5F5F5F5F5F5F5F5F5F5F5F5F5F5F5F5F5F5F5F5F5F5F5F5F5F5F5F5F5F5F5F5F5F5F5F5F5F5F5F5F5F5F5F5F5F5E9F5E2F5F5E9FFFFE9F5F5E2F5E9F5F5F5F5F5F5F5F5F5F5F5F5F5F5F5F5F5F5F5F5F5F5F5F5F5F5F5F5F5F5F5F5F5F5
310
F5F5F5F5F5F5F5F5F5F5F5F5F5F5F5F5F5F5F5F5F5F5F5F5F5F5F5F5F5F5F5F5F5F5F5F5F5F5F5F5F5F5F5F5F5F5F5F5F5F5F5F5E9F5E2F5F5E9FFFFE9F5F5E2F5E9F5F5F5F5F5F5F5F5F5F5F5F5F5F5F5F5F5F5F5F5F5F5F5F5F5F5F5F5F5F5F5F5F5F5F5F5F5F5F5F5F5F5F5F5F5F5F5F5F5F5F5F5F5F5F5F5F5F5F5F5F5
310
F5F5F5F5F5F5F5F5F5F5F5F5F5F5F5F5F5F5F5F5F5F5F5F5F5E9F5E2F5F5E9FFFFE9F5F5E2F5E9F5F5F5F5F5F5F5F5F5F5F5F5F5F5F5F5F5F5F5F5F5F5F5F5F5F5F5F5F5F5F5F5F5F5F5F5F5F5F5F5F5F5F5F5F5F5F5F5F5F5F5F5F5F5F5F5F5F5F5F5F5F5F5F5F5F5F5F5F5F5F5F5F5F5F5F5F5F5F5F5F5F5F5F5F5F5E9F5
310
E2F5F5E9FFFFE9F5F5E2E9E9E9E9E9E9E9E9E9E9E9E9E9E9E9E9E9E9E9E9E9E9E9E9E9E9E9E9E9E9E9E9E9E9E9E9E9E9E9E9E9E9E9E9E9E9E9E9E9E9E9E9E9E9E9E9E9E9E9E9E9E9E9E9E9E9E9E9E9E9E9E9E9E9E9E9E9E9E9E9E9E9E9E9E9E9E9F5E9F5E2F5F5E9FFFFE9F5F5E2E9E9F5F5F5E2F5F5F5F5F5F5F5F5F5F5F5
310
F5F5F5F5F5F5F5F5F5F5F5F5F5F5F5F5F5F5F5F5F5F5F5F5F5F5F5F5F5F5F5F5F5F5F5F5F5F5F5F5F5F5F5F5F5F5F5F5F5F5F5F5F5F5F5F5F5F5F5F5F5F5F5F5F5F5F5E2F5E9F5E9F5E2F5F5E9FFFFE9F5F5E2E9E9F5F5F5E2F5F5F5F5F5F5F5F5F5F5F5F5F5F5F5F5F5F5F5F5F5F5F5F5F5F5F5F5F5F5F5F5F5F5F5F5F5F5
310
F5F5F5F5F5F5F5F5F5F5F5F5F5F5F5F5F5F5F5F5F5F5F5F5F5F5F5F5F5F5F5F5F5F5F5F5F5F5F5F5E2F5E9F5E9F5E2F5F5E9FFFFE9F5F5E2E9E9F5F5F5E2F5F5F5F5F5F5F5F5F5F5F5F5F5F5F5F5F5F5F5F5F5F5F5F5F5F5F5F5F5F5F5F5F5F5F5F5F5F5F5F5F5F5F5F5F5F5F5F5F5F5F5F5F5F5F5F5F5F5F5F5F5F5F5F5F5
310
F5F5F5F5F5F5F5F5F5F5F5F5F5E2F5E9F5E9F5E2F5F5E9FFFFE9F5F5E2E9E9F5F5F5E2F5F5F5F5F5F5F5F5F5F5F5F5F5F5F5F5F5F5F5F5F5F5F5F5F5F5F5F5F5F5F5F5F5F5F5F5F5F5F5F5F5F5F5F5F5F5F5F5F5F5F5F5F5F5F5F5F5F5F5F5F5F5F5F5F5F5F5F5F5F5F5F5F5F5F5F5F5F5E2F5E9F5E9F5E2F5F5E9FFFFE9F5
310
F5E2E9E9F5F5F5E2F5F5F5F5F5F5F5F5F5F5F5F5F5F5F5F5F5F5F5F5F5F5F5F5F5F5F5F5F5F5F5F5F5F5F5F5F5F5F5F5F5F5F5F5F5F5F5F5F5F5F5F5F5F5F5F5F5F5F5F5F5F5F5F5F5F5F5F5F5F5F5F5F5F5F5F5F5F5E2F5E9F5E9F5E2F5F5E9FFFFE9F5F5F5E9E9F5F5F5E2F5F5F5F5F5F5F5F5F5F5F5F5F5F5F5F5F5F5F5
310
F5F5F5F5F5F5F5F5F5F5F5F5F5F5F5F5F5F5F5F5F5F5F5F5F5F5F5F5F5F5F5F5F5F5F5F5F5F5F5F5F5F5F5F5F5F5F5F5F5F5F5F5F5F5F5F5F5F5F5E2F5E9F5E9F5F5F5F5E9FFFFE9F5F5F5E9E9F5F5F5E2F5F5F5F5F5F5F5F5F5F5F5F5F5F5F5F5F5F5F5F5F5F5F5F5F5F5F5F5F5F5F5F5F5F5F5F5F5F5F5F5F5F5F5F5F5F5
310
F5F5F5F5F5F5F5F5F5F5F5F5F5F5F5F5F5F5F5F5F5F5F5F5F5F5F5F5F5F5F5F5E2F5E9F5E9F5F5F5F5E9FFFFE9F5F5F5E9E9F5F5F5E2F5F5F5F5F5F5F5F5F5F5F5F5F5F5F5F5F5F5F5F5F5F5F5F5F5F5F5F5F5F5F5F5F5F5F5F5F5F5F5F5F5F5F5F5F5F5F5F5F5F5F5F5F5F5F5F5F5F5F5F5F5F5F5F5F5F5F5F5F5F5F5F5F5
310
F5F5F5F5F5E2F5E9F5E9F5F5F5F5E9FFFFE9F5F5F5E9E9F5F5F5E2F5F5F5F5F5F5F5F5F5F5F5F5F5F5F5F5F5F5F5F5F5F5F5F5F5F5F5F5F5F5F5F5F5F5F5F5F5F5F5F5F5F5F5F5F5F5F5F5F5F5F5F5F5F5F5F5F5F5F5F5F5F5F5F5F5F5F5F5F5F5F5F5F5F5F5F5F5F5E2F5E9F5E9F5F5F5F5E9FFFFE9F5F5F5E9E9F5F5F5E2
310
F5F5F5F5F5F5F5F5F5F5F5F5F5F5F5F5F5F5F5F5F5F5F5F5F5F5F5F5F5F5F5F5F5F5F5F5F5F5F5F5F5F5F5F5F5F5F5F5F5F5F5F5F5F5F5F5F5F5F5F5F5F5F5F5F5F5F5F5F5F5F5F5F5F5F5F5F5F5E2F5E9F5E9F5F5F5F5E9FFFFE9E9E9E9E9E9F5F5F5E2F5F5F5F5F5F5F5F5F5F5F5F5F5F5F5F5F5F5F5F5F5F5F5F5F5F5F5
310
F5F5F5F5F5F5F5F5F5F5F5F5F5F5F5F5F5F5F5F5F5F5F5F5F5F5F5F5F5F5F5F5F5F5F5F5F5F5F5F5F5F5F5F5F5F5F5F5F5F5F5E2F5E9F5E9E9E9E9E9E9FFFFE9F5F5F5E9E9F5F5F5E2F5F5F5F5F5F5F5F5F5F5F5F5F5F5F5F5F5F5F5F5F5F5F5F5F5F5F5F5F5F5F5F5F5F5F5F5F5F5F5F5F5F5F5F5F5F5F5F5F5F5F5F5F5F5
310
F5F5F5F5F5F5F5F5F5F5F5F5F5F5F5F5F5F5F5F5F5F5F5F5E2F5E9F5E9F5F5F5F5E9FFFFE9F5F5F5E9E9F5F5F5E2F5F5F5F5F5F5F5F5F5F5F5F5F5F5F5F5F5F5F5F5F5F5F5F5F5F5F5F5F5F5F5F5F5F5F5F5F5F5F5F5F5F5F5F5F5F5F5F5F5F5F5F5F5F5F5F5F5F5F5F5F5F5F5F5F5F5F5F5F5F5F5F5F5F5F5F5F5F5E2F5E9
310
F5E9F5F5F5F5E9FFFFE9F5F5F5E9E9F5F5F5E2F5F5F5F5F5F5F5F5F5F5F5F5F5F5F5F5F5F5F5F5F5F5F5F5F5F5F5F5F5F5F5F5F5F5F5F5F5F5F5F5F5F5F5F5F5F5F5F5F5F5F5F5F5F5F5F5F5F5F5F5F5F5F5F5F5F5F5F5F5F5F5F5F5F5F5F5F5F5E2F5E9F5E9F5F5F5F5E9FFFFE9F5F5F5E9E9F5F5F5E2F5F5F5F5F5F5F5F5
310
F5F5F5F5F5F5F5F5F5F5F5F5F5F5F5F5F5F5F5F5F5F5F5F5F5F5F5F5F5F5F5F5F5F5F5F5F5F5F5F5F5F5F5F5F5F5F5F5F5F5F5F5F5F5F5E2F5F5E2F5F5F5F5F5F5F5F5F5F5F5E2F5E9F5E9F5F5F5F5E9FFFFE9F5F5E2E9E9F5F5F5E2F5F5F5F5F5F5F5F5F5E2F5E2F5F5F5F5F5F5F5F5F5F5F5F5F5F5F5F5F5F5F5F5F5F5F5
310
F5F5F5F5F5F5F5F5F5F5F5F5F5F5F5F5F5F5F5F5F5F5F5F5F5F5F5F5E22727E2E2F5F5F5F5F5F5F5F5F5F5E2F5E9F5E9F5E2F5F5E9FFFFE9F5F5E2E9E9F5F5F5E2F5F5F5F5F5F5F5F5E22727E2E2F5F5F5F5F5F5F5F5F5F5F5F5F5F5F5F5F5F5F5F5F5F5F5F5F5F5F5F5F5F5F5F5F5F5F5F5F5F5F5F5F5F5F5F5F5F5F5F5F5
310
F5F52727F5F5F5E2F5F5F5F5F5F5F5F5E2F5E9F5E9F5E2F5F5E9FFFFE9F5F5E2E9E9F5F5F5E2F5F5F5F5F5F5F5F5F5272727F5F5F5F5F5F5F5F5F5F57C7C7C7C7C7C7C7C7C7C7C7C7C7C7C7C7CD2D2D2D2D2D2D2D2D2D2D27C7C7C7C7C7C7C7C7C7C7C7C7CE27C7C7CF5E2E2E2F5F5F5F5F5F5F5E2F5E9F5E9F5E2F5F5E9FF
310
FFE9F5F5E2E9E9F5F5F5E2F5F5F5F5F5F5F5E2E27C7CE27C7C7C7C7C7C7C7C7C7C7CD2D2F5F5F5F5F5F5F5F5F5F5F5D2F5E2E2E217171717171717BEBEBEF5D2F5F5F5F5F5F5F5F5F5F5F5F5F57CF52727F5F5F5F5F5F5F5F5E2F5E9F5E9F5E2F5F5E9FFFFE9F5F5E2E9E9F5F5F5E2F5F5F5F5F5F52727F57CF5F5F5F5F5F5
310
F5F5F5F5F5F5BEBE1EBE1EBEBE1E1EBEBE1EBE1EBEBE1E1EE21C1C1C1C1C1C1CE21E1EBE1E1EBE1EBEBE1EBEBEBE1EBE1E1EBEF52727F5F5F5F5F5F5F5F5E2F5E9F5E9F5E2F5F5E9FFFFE9F5F5E2E9E9F5F5F5E2F5F5F5F5F5F52727F57CF5F5F5F5F5F5F5F5F5F5F5F5BE7C1E7C1E7C7C1E1E7C7C1E7C1E7C7C1EE2E21717
310
1717171717E21E1E7C1E1E7C1E7C7C1E7C7C7C1EE21E1EBEF5E2E2E2F5F5F5F5F5F5F5E2F5E9F5E9F5E2F5F5E9FFFFE9F5F5E2E9E9F5F5F5E2F5F5F5F5F5F52727E27CF5F5F5F5F5F5F5F5F5F5F5F5BEF5E2E2E21E1E1E1C1C1C1C1E1E171E1EE2F529F5F5BEF5F5F5E21E1E1ED21E171C1C1C1C1E1E1E1EE2F5F5E2F5F5E2
310
F5F5F5F5F5F5F5F5E2F5E9F5E9F5E2F5F5E9FFFFE9F5F5E2E9E9F5F5F5E2F5F5F5F5F5F5F5E2E27CF518E2181818181818181818BE18E21EE2E2E2E21CE2E21CE2E2E2E21EE22929F5F5BEF5F5F5E2E2BEE2E2E2E21CE2E21CE2E2E2E2E2F5F5BEF5F5F5F5F5F5F5F5F5F5F5E2F5E9F5E9F5E2F5F5E9FFFFE9F5F5E2E9E9F5
310
F5F5E2F5F5F5F5F5F5F5F5F57CE2E2E2E2E2E2171717E2E2E2E2E2E2E2E25757571C57571C5757BEBEF5F52929F5F5BEF5F5F5F5F5BEBE2929291CF5F51CF5F5F5E2E2F5F5BEF5F5F5F5F5F5F5F5F5F5F5E2F5E9F5E9F5E2F5F5E9FFFFE9F5F5E2E9E9F5F5F5E2F5F5F5F5F5F5F5F5F57CE21EE2E2E2E2171717E2E2E2E2E2
310
E2E2E25729291C1C1C1CF5571EBE29292929F5F5BEF5F5F5F5F5BE292929291C1C1C1CF5F5F5E2E2F5F5BEF5F5F5F5F5F5F5F5F5F5F5E2F5E9F5E9F5E2F5F5E9FFFFE9F5F5E2E9E9F5F5F5E2F5F5F5F5F5F5F5F5F57C7C1E7CBE7C7C17F517E2E2E2E2E2BEE2BE57292929F5F55757BEBEBE29BE2929F5F5BEF5F5F5F5BEBE
310
2929F5BEBEF529292929BEE2E2F5F5BEF5F5F5F5F5F5F5F5F5F5F5E2F5E9F5E9F5E2F5F5E9FFFFE9F5F5E2E9E9F5F5F5E2F5F5F5F5F5F5F5F5F5BEF5E21EBEBEBEBEBEBE272727BEBEBEBEBEBEBEBE27272727BEBEBEBEBEBEBEBEBEBEBE272727BE2727BEBEBEBEBEBE272727BEBEBEE2F5F5BEF5F5F5F5F5F5F5F5F5F5F5
310
E2F5E9F5E9F5E2F5F5E9FFFFE9F5F5E2E9E9F5F5F5E2F5F5F5F5F5F5F5F5F5BEF5E21EE2F5F51C1CBE272727BE29291E1E57F5F52727272757571EF529F5F5BEF5F5BE272727F5272729F5F5291EF527272729F5E2E272F5BEF5F5F5F5F5F5F5F5F5F5F5E2F5E9F5E9F5E2F5F5E9FFFFE9F5F5E2E9E9F5F5F5E2F5F5F5F5F5
310
F5F5F5F5BEF5E21EE2F5F5F5F5BEF5F5F5BE29291E1E57F5F5F5F5F55757F5E2E229F5D6D6BEF52929292929272729F5F529BEF529F5F529F5BEE2F572BEF5F5F5F5F5F5F5F5F5F5F5E2F5E9F5E9F5E2F5F5E9FFFFE9F5F5E2E9E9F5F5F5E2F5F5F5F5F5F5F5F5F5BEF5E21EE2F5F5F5F5BEF5F5F5BE29291EE2E2E2E2F5F5
310
F557F5F5E2E229F5D6D6F5BE29BE29292929BE29292966E2E229F5F529F5E2E2F55772F5F5F5F5F5F5F5F5F5F5F5E2F5E9F5E9F5E2F5F5E9FFFFE9F5F5E2E9E9F5F5F5E2F5F5F5F5F5F5F5F5F5BEF5E21E292929F5F5BEF5F5F5BE29291E1E1E1EE2F5F5F55757571EF529F5D6D6F5D6292929292929BEF5F5F566E2E229D6
310
D629F5E2E2F5F5BE72F5F5F5F5F5F5F5F5F5F5E2F5E9F5E9F5E2F5F5E9FFFFE9F5F5F5E9E9F5F5F5E2F5F5F5F5F5F5F5F5F5BEF5171C17292929F5BEF5F5F5BE29291E1E66E2E2D6F5D6D61E1E2929291ED6D6F5D6292929292929BE1E1E29292929BED6D61E1EBEE2F5F5BEF572F5F5F5F5F5F5F5F5F5E2F5E9F5E9F5F5F5
310
F5E9FFFFE9F5F5F5E9E9F5F5F5E2F5F5F5F5F5F5F5F5F5BEF5171C17F5292929BEF5F5F5BEF5D629D6D6D6D6D6F5D6F5F5F5F5F5F5F5F5F5F5F5F52929292929BE2929292929F5F5F5F5D6D6BE72F5F5BEF572F5F5F5F5F5F5F5F5F5E2F5E9F5E9F5F5F5F5E9FFFFE9F5F5F5E9E9F5F5F5E2F5F5F5F5F5F5F5F5F5BEF5171C
310
1729292727BEF5F5F5BEF5D6D6D6F5F5D6D6F5D6F5F5F5F5F5F5F5F5F5F5F5F5D6D6D6D6F5BEF5F5F5F5F5F5F5F5F5F5D6BE72F5F5BEF572F5F5F5F5F5F5F5F5F5E2F5E9F5E9F5F5F5F5E9FFFFE9F5F5F5E9E9F5F5F5E2F5F5F5F5F5F5F5F5F5BEBE171C1729292727BEBEBEBEBEBE2929BEBEBEBEBEBEBEBEBEBEBEBEBEBE
310
BEBEBEBEBEBEBEBEBEBEBEBEBEBEBEBEBEBEBEBEBEBEBE72BEBEBEF572F5F5F5F5F5F5F5F5F5E2F5E9F5E9F5F5F5F5E9FFFFE9F5F5F5E9E9F5F5F5E2F5F5F5F5F5F5F5F5F5BEF5171C1729292727BEF5F5F5BE2929291EBEBEE22929291EE2E2F5F5F5F5F5F5F5F5F5D6D6F5F5F5BEF5F5F5F5F5F5F5F5F5D6D6BEE2E2E2E2
310
E2E2F5F5F5F5F5F5F5F5F5E2F5E9F5E9F5F5F5F5E9FFFFE9F5F5F5E9E9F5F5F5E2F5F5F5F5F5F5F5F5F5BEF51E1E17F5292929BEF5F5F5BE2929291E29BE2929F52929F5D6F5F5F5F5F5C4C4C4C4E2E2E2F5F5BEF5F5F5F5F5F5F5F5F5D6D6BEE2E2272727E2F5F5F5F5F5F5F5F5F5E2F5E9F5E9F5F5F5F5E9FFFFE9F5F5F5
310
E9E9F5F5F5E2F5F5F5F5F5F5F5F5F5BEF51E1E1E292929F5BEF5F5F5BE2929291E29BE29292929F5D6F5F5D6F5F5F5C4C4C4C4C466E2F5F5BEF5F5F5F5F5F5F5F5F5F5F5BEE22727272772F5F5F5F5F5F5F5F5F5E2F5E9F5E9F5F5F5F5E9FFFFE9F5F5F5E9E9F5F5F5E2F5F5F5F5F5F5F5F5F5BEF51E1E1E2929F5F5BEF5F5
310
F5BE292929BEBEBEBEBEBEBEBEBEBEBEBEF5F5F5C4C4C4C4BEBEBEBEBEBEBEBEBEBEBEBEBEBEBEBEBEBEE2F5F55772F5F5F5F5F5F5F5F5F5F5E2F5E9F5E9F5F5F5F5E9FFFFE9F5F5F5E9E9F5F5F5E2F5F5F5E2E2C3C3C3C3BEC31E1EBEF5F5F5F5BEF5F5F5BE2929BE2727BE2927272727F5F5BEE2F5F5F5C4C4C4C4E2BE29
310
F527272927272727F529F5F5F5BEE2E2F57272F5F5F5F5F5F5F5F5F5F5F5E2F5E9F5E9F5F5F5F5E9FFFFE9F5F5F5E9E9F5F5F5E2F5F5F5F5F5F5F5F5F5BEF51E1E1E29291C1C1C2929F5BE29F51E2727BE2927272727F5F529E2C4D6C4C4C4C4C4BEF529F5272729F5272727F529F5F5F5F5BEE27272BEF5F5F5F5F5F5F5F5
310
F5F5F5E2F5E9F5E9F5F5F5F5E9FFFFE9F5F5E2E9E9F5F5F5E2F5F5F5F5F5F5F5F5F5BEF51E1E1E29291CF51CF529F5BE29F51E2727BE29F5F5F5F5F529F5C4C4D6D6C4C4C4C4C4F529F5272729F5F5F5F5F529F5F5F5F5E2E272F5BEF5F5F5F5F5F5F5F5F5F5F5E2F5E9F5E9F5E2F5F5E9FFFFE9F5F5E2E9E9F5F5F5E2F5F5
310
F5E2E2C3C3C3C3BEC31E1E1E29291CF51CF529F5BE29F51E2727BE1C1C1C1C1CF529F5C4C4C4C4C4C4C4C4C4F529F5F5BE29F5F5F51C1C1C1CF5F5F5E2E2C3C3BEC3E2E2C3C3F5F5F5F5F5F5E2F5E9F5E9F5E2F5F5E9FFFFE9F5F5E2E9E9F5F5F5E2F5F5F5F5F5F5F5F5F57C7C1E7C7C7C7C7CF5E2E2E2E2E2E2E2E21E1CBE
310
1C1CF5291C2929F51EF5C4C4C4C4C4F51EF529F5F5BE292929291C29291CF5F5F5E2E2F5F5BEF5F5F5F5F5F5F5F5F5F5F5E2F5E9F5E9F5E2F5F5E9FFFFE9F5F5E2E9E9F5F5F5E2F5F5F5F5F5F5F5F5F57CE21EE2E2E2E2E217E2E2E2E2E2E2E2E2E21CBE1C1C29291C2929F5C4C4F5C4C4C4C4C4C4F5292929BE29F529291C
310
29291C292929E2E2F5F5BEF5F5F5F5F5F5F5F5F5F5F5E2F5E9F5E9F5E2F5F5E9FFFFE9F5F5E2E9E9F5F5F5E2F5F5F5F5F5F5F5F5F57CF518F51818181717171818BEBE29BEBE1E1CBE1C1C29291C2929F5BEF5F5C4C4F5C4F5BEBEF5F5F5BE292929291C29291CF5F5F5E2E2C3C3BEC3E2E2C3C3F5F5F5F5F5F5E2F5E9F5E9
310
F5E2F5F5E9FFFFE9F5F5E2E9E9F5F5F5E2F5F5F5F5F5F5F5F5F57CF51818181818181818181818BE18E21EE21CBE1C1C29291C2929ECECE2C417171717E2E2E2E2E2E2BEE2E2E2E21CE2E21CE2E2BEE2E2F5F5BEF5F5F5F5F5F5F5F5F5F5F5E2F5E9F5E9F5E2F5F5E9FFFFE9F5F5E2E9E9F5F5F5E2F5F5F5F5F5F5F5F5F57C
310
F5F5F5F5F5F5F5F5F5F5F5F5BEF5ECE2E21C1C1C1C1C1C1C1ED2EC171E1C1C1C1C1C1E1EECBED21E1E1E1E1E1E1C1C1C1C1E1E1E1EE2F5F5BEF5E2E2F5F5F5F5F5F5F5F5E2F5E9F5E9F5E2F5F5E9FFFFE9F5F5E2E9E9F5F5F5E2F5F5F5F5F5F5F5F5F57CF5F5F5F5F5F5F5F5F5F5F5F5BEBE1EBE1EBEBEBE1EBEBE1EBEBE1E
310
E2E2BEBEBEBEBEE2E21EBE1EBEBE1EBEBEBE1EBEBE1EBEBEBE1E1E1E1EBEF5E2E2F5F5F5F5F5F5F5F5E2F5E9F5E9F5E2F5F5E9FFFFE9F5F5E2E9E9F5F5F5E2F5F5F5F5F5F5F5F5F57C7C7C7C7C7C7C7C7C7C7C7C7CBEBEBEBEBEBEBEBEBEBEBEBEBEBEBED2D2D2D2D2D2D2D2D2BEBEBEBEBEBEBEBEBEBEBEBEBEBEBEBEBEBE
310
BEBEBE2727F5F5F5F5F5F5F5F5F5E2F5E9F5E9F5E2F5F5E9FFFFE9F5F5E2E9E9F5F5F5E2F5F5F5F5F5F5F5F5F5F5F5F5F5F5F5F5F5F5F5F5F5F57CF5F5F5F5F5F5F5F5F5F5F5F5F57CF5F5F5F5F5F5F5F5F5BEF5F5F5F5F5F5F5F5F5F5F5F5F5F5F5F5F5F5F57C2727F5F5F5F5F5F5F5F5F5E2F5E9F5E9F5E2F5F5E9FFFFE9
310
F5F5E2E9E9F5F5F5E2F5F5F5F5F5F5F5F5F5F5F5F5F5F5F5F5F5F5F5F5F5F57C7C7C7C7C7C7C7C7C7C7C7C7C7C7CF5F5F5F5F5F5F5F5F57CF5F5F5F5F5F5F5F5F5F5F5F5F5F5F5F5F5F5F57C2727F5F5F5F5F5F5F5F5F5E2F5E9F5E9F5E2F5F5E9FFFFE9F5F5E2E9E9F5F5F5E2F5F5F5F5F5F5F5F5F5F5F5F5F5F5F5F5F5F5
310
F5F5F5F5F5F5F5F5F5F5F5F5F5F5F5F5F5F5F5F5F5F5F5F5F5F5F5F57C7C7C7C7C7C7C7C7C7C7C7C7C7C7C7C7CE27C7C7CF5E2E2F5F5F5F5F5F5F5F5E2F5E9F5E9F5E2F5F5E9FFFFE9F5F5E2E9E9F5F5F5E2F5F5F5F5F5F5F5F5F5F5F5F5F5F5F5F5F5F5F5F5F5F5F5F5F5F5F5F5F5F5F5F5F5F5F5F5F5F5F5F5F5F5F5F5F5
310
F5F5F5F5F5F5F5F5F5F5F5F5F5F5F5F5F5F5F5F5F5F5F5E2F5F5F5F5F5F5F5F5F5E2F5E9F5E9F5E2F5F5E9FFFFE9F5F5E2E9E9F5F5F5E2F5F5F5F5F5F5F5F5F5F5F5F5F5F5F5F5F5F5F5F5F5F5F5F5F5F5F5F5F5F5F5F5F5F5F5F5F5F5F5F5F5F5F5F5F5F5F5F5F5F5F5F5F5F5F5F5F5F5F5F5F5F5F5F5F5F5F5F5F5F5F5F5
310
F5F5F5F5F5F5E2F5E9F5E9F5E2F5F5E9FFFFE9F5F5E2E9E9F5F5F5E2F5F5F5F5F5F5F5F5F5F5F5F5F5F5F5F5F5F5F5F5F5F5F5F5F5F5F5F5F5F5F5F5F5F5F5F5F5F5F5F5F5F5F5F5F5F5F5F5F5F5F5F5F5F5F5F5F5F5F5F5F5F5F5F5F5F5F5F5F5F5F5F5F5F5F5F5F5F5E2F5E9F5E9F5E2F5F5E9FFFFE9F5F5E2E9E9F5F5F5
310
E2F5F5F5F5F5F5F5F5F5F5F5F5F5F5F5F5F5F5F5F5F5F5F5F5F5F5F5F5F5F5F5F5F5F5F5F5F5F5F5F5F5F5F5F5F5F5F5F5F5F5F5F5F5F5F5F5F5F5F5F5F5F5F5F5F5F5F5F5F5F5F5F5F5F5F5F5F5F5E2F5E9F5E9F5E2F5F5E9FFFFE9F5F5E2E9E9F5F5F5E2F5F5F5F5F5F5F5F5F5F5F5F5F5F5F5F5F5F5F5F5F5F5F5F5F5F5
310
F5F5F5F5F5F5F5F5F5F5F5F5F5F5F5F5F5F5F5F5F5F5F5F5F5F5F5F5F5F5F5F5F5F5F5F5F5F5F5F5F5F5F5F5F5F5F5F5F5F5F5F5E2F5E9F5E9F5E2F5F5E9FFFFE9F5F5F5E9E9F5F5F5E2F5F5F5F5F5F5F5F5F5F5F5F5F5F5F5F5F5F5F5F5F5F5F5F5F5F5F5F5F5F5F5F5F5F5F5F5F5F5F5F5F5F5F5F5F5F5F5F5F5F5F5F5F5
310
F5F5F5F5F5F5F5F5F5F5F5F5F5F5F5F5F5F5F5F5F5F5F5F5F5E2F5E9F5E9F5F5F5F5E9FFFFE9F5F5F5E9E9F5F5F5E2F5F5F5F5F5F5F5F5F5F5F5F5F5F5F5F5F5F5F5F5F5F5F5F5F5F5F5F5F5F5F5F5F5F5F5F5F5F5F5F5F5F5F5F5F5F5F5F5F5F5F5F5F5F5F5F5F5F5F5F5F5F5F5F5F5F5F5F5F5F5F5F5F5F5F5F5F5F5E2F5
310
E9F5E9F5F5F5F5E9FFFFE9F5F5F5E9E9F5F5F5E2F5F5F5F5F5F5F5F5F5F5F5F5F5F5F5F5F5F5F5F5F5F5F5F5F5F5F5F5F5F5F5F5F5F5F5F5F5F5F5F5F5F5F5F5F5F5F5F5F5F5F5F5F5F5F5F5F5F5F5F5F5F5F5F5F5F5F5F5F5F5F5F5F5F5F5F5F5F5E2F5E9F5E9F5F5F5F5E9FFFFE9F5F5F5E9E9F5F5F5E2F5F5F5F5F5F5F5
310
F5F5F5F5F5F5F5F5F5F5F5F5F5F5F5F5F5F5F5F5F5F5F5F5F5F5F5F5F5F5F5F5F5F5F5F5F5F5F5F5F5F5F5F5F5F5F5F5F5F5F5F5F5F5F5F5F5F5F5F5F5F5F5F5F5F5F5F5F5F5F5E2F5E9F5E9F5F5F5F5E9FFFFE9F5F5F5E9E9F5F5F5E2F5F5F5F5F5F5F5F5F5F5F5F5F5F5F5F5F5F5F5F5F5F5F5F5F5F5F5F5F5F5F5F5F5F5
310
F5F5F5F5F5F5F5F5F5F5F5F5F5F5F5F5F5F5F5F5F5F5F5F5F5F5F5F5F5F5F5F5F5F5F5F5F5F5F5F5F5F5F5F5E2F5E9F5E9F5F5F5F5E9FFFFE9F5F5F5E9E9F5F5F5E2F5F5F5F5F5F5F5F5F5F5F5F5F5F5F5F5F5F5F5F5F5F5F5F5F5F5F5F5F5F5F5F5F5F5F5F5F5F5F5F5F5F5F5F5F5F5F5F5F5F5F5F5F5F5F5F5F5F5F5F5F5
310
F5F5F5F5F5F5F5F5F5F5F5F5F5F5F5F5F5E2F5E9F5E9F5F5F5F5E9FFFFE9F5F5F5E9E9E9E9E9E9E9E9E9E9E9E9E9E9E9E9E9E9E9E9E9E9E9E9E9E9E9E9E9E9E9E9E9E9E9E9E9E9E9E9E9E9E9E9E9E9E9E9E9E9E9E9E9E9E9E9E9E9E9E9E9E9E9E9E9E9E9E9E9E9E9E9E9E9E9E9E9E9E9E9E9E9E9E9E9E9E9F5E9F5F5F5F5E9
310
FFFFE9F5F5F5F5E9F5F5F5F5F5F5F5F5F5F5F5F5F5F5F5F5F5F5F5F5F5F5F5F5F5F5F5F5F5F5F5F5F5F5F5F5F5F5F5F5F5F5F5F5F5F5F5F5F5F5F5F5F5F5F5F5F5F5F5F5F5F5F5F5F5F5F5F5F5F5F5F5F5F5F5F5F5F5F5F5F5F5F5F5F5F5E9F5F5F5F5E9FFFFE9F5F5F5F5E9F5F5F5F5F5F5F5F5F5F5F5F5F5F5F5F5F5F5F5
310
F5F5F5F5F5F5F5F5F5F5F5F5F5F5F5F5F5F5F5F5F5F5F5F5F5F5F5F5F5F5F5F5F5F5F5F5F5F5F5F5F5F5F5F5F5F5F5F5F5F5F5F5F5F5F5F5F5F5F5F5F5F5F5F5F5F5F5E9F5F5F5F5E9FFFFE9F5F5E2F5E9F5F5F5F5F5F5F5F5F5F5F5F5F5F5F5F5F5F5F5F5F5F5F5F5F5F5F5F5F5F5F5F5F5F5F5F5F5F5F5F5F5F5F5F5F5F5
310
F5F5F5F5F5F5F5F5F5F5F5F5F5F5F5F5F5F5F5F5F5F5F5F5F5F5F5F5F5F5F5F5F5F5F5F5F5F5F5F5E9F5E2F5F5E9FFFFE9F5F5E2F5E9F5F5F5F5F5F5F5F5F5F5F5F5F5F5F5F5F5F5F5F5F5F5F5F5F5F5F5F5F5F5F5F5F5F5F5F5F5F5F5F5F5F5F5F5F5F5F5F5F5F5F5F5F5F5F5F5F5F5F5F5F5F5F5F5F5F5F5F5F5F5F5F5F5
310
F5F5F5F5F5F5F5F5F5F5F5F5F5E9F5E2F5F5E9FFFFE9F5F5E2F5E9F5F5F5F5F5F5F5F5F5F5F5F5F5F5F5F5F5F5F5F5F5F5F5F5F5F5F5F5F5F5F5F5F5BEBEBEBEBEBEBEBEBEBEBEBEBEBEBEBEBEBEBEF5F5F5F5F5F5F5F5F5F5F5F5F5F5F5F5F5F5F5F5F5F5F5F5F5F5F5F5F5F5F5F5F5F5E9F5E2F5F5E9FFFFE9F5F5E2F5E9
310
F5F5F5F5F5F5F5F5F5F5F5F5F5F5F5F5F5F5F5F5F5F5F5F5F5F5F5F5F5F5F5F5F5BEBEBEBEBEBEBEBEBEBEBEBEBEBEBEBEBEBEBEF5F5F5F5F5F5F5F5F5F5F5F5F5F5F5F5F5F5F5F5F5F5F5F5F5F5F5F5F5F5F5F5F5F5E9F5E2F5F5E9FFFFE9F5F5E2F5E9F5F5F5F5F5F5F5F5F5F5F5F5F5F5F5F5F5F5F5F5F5F5F5F5F5F5F5
310
F5F5F5F5F5F5F5F5F5F5F5F5F5F5F5F5F5F5F5F5F5F5F5F5F5F5F5F5F5F5F5F5F5F5F5F5F5F5F5F5F5F5F5F5F5F5F5F5F5F5F5F5F5F5F5F5F5F5F5E9F5E2F5F5E9FFFFE9F5F5E2F5E9F5F5F5F5F5F5F5F5F5F5F5F5F5F5F5F5F5F5F5F5F5F5F5F5F5F5F5F5F5F5F5F5F5F5F5F5F5F5F5F5F5F5F5F5F5F5F5F5F5F5F5F5F5F5
310
F5F5F5F5F5F5F5F5F5F5F5F5F5F5F5F5F5F5F5F5F5F5F5F5F5F5F5F5F5F5F5F5E9F5E2F5F5E9FFFFE9F5F5E2F5E9E9E9E9E9E9E9E9E9E9E9E9E9E9E9E9E9E9E9E9E9E9E9E9E9E9E9E9E9E9E9E9E9E9E9E9E9E9E9E9E9E9E9E9E9E9E9E9E9E9E9E9E9E9E9E9E9E9E9E9E9E9E9E9E9E9E9E9E9E9E9E9E9E9E9E9E9E9E9E9E9E9
310
E9E9E9E9E9E9F5E2F5F5E9FFFFE9F5F5E2F5F5F5F5F5F5F5F5F5F5F5F5F5F5F5F5F5F5F5F5F5F5F5F5F5F5F5F5F5F5F5F5F5F5F5F5F5F5F5F5F5F5F5F5F5F5F5F5F5F5F5F5F5F5F5F5F5F5F5F5F5F5F5F5F5F5F5F5F5F5F5F5F5F5F5F5F5F5F5F5F5F5F5F5F5F5F5F5F5F5E2F5F5E9FFFFE9F5F5E2E2E2E2E2E2E2E2F5F5F5
310
F5F5F5F5F5E2E2E2E2E2E2E2E2E2E2E2E2E2E2E2F5F5F5F5F5F5F5F5E2E2E2E2E2E2E2E2E2E2E2E2E2E2F5F5F5F5F5F5F5F5E2E2E2E2E2E2E2E2E2E2E2E2E2E2E2F5F5F5F5F5F5F5F5E2E2E2E2E2E2E2E2F5F5E9FFFFE9F5F5F5F5F5F5F5F5F5F5F5F5F5F5F5F5F5F5F5F5F5F5F5F5F5F5F5F5F5F5F5F5F5F5F5F5F5F5F5F5
310
F5F5F5F5F5F5F5F5F5F5F5F5F5F5F5F5F5F5F5F5F5F5F5F5F5F5F5F5F5F5F5F5F5F5F5F5F5F5F5F5F5F5F5F5F5F5F5F5F5F5F5F5F5F5F5F5E9FFFFE9F5F5F5F5F5F5F5F5F5F5F5F5F5F5F5F5F5F5F5F5F5F5F5F5F5F5F5F5F5F5F5F5F5F5F5F5F5F5F5F5F5F5F5F5F5F5F5F5F5F5F5F5F5F5F5F5F5F5F5F5F5F5F5F5F5F5F5
310
F5F5F5F5F5F5F5F5F5F5F5F5F5F5F5F5F5F5F5F5F5F5F5F5F5F5F5F5F5E9FFFFE9E9E9E9E9E9E9E9E9E9E9E9E9E9E9E9E9E9E9E9E9E9E9E9E9E9E9E9E9E9E9E9E9E9E9E9E9E9E9E9E9E9E9E9E9E9E9E9E9E9E9E9E9E9E9E9E9E9E9E9E9E9E9E9E9E9E9E9E9E9E9E9E9E9E9E9E9E9E9E9E9E9E9E9E9E9E9E9E9E9E9E9E9E9E9
310
E9E9E9FFFFEFEFEFEFEFEFEFEFEFEFEFEFEFEFEFEFEFEFEFEFEFEFEFEFEFEFEFEFEFEFEFEFEFEFEFEFEFEFEFEFEFEFEFEFEFEFEFEFEFEFEFEFEFEFEFEFEFEFEFEFEFEFEFEFEFEFEFEFEFEFEFEFEFEFEFEFEFEFEFEFEFEFEFEFEFEFEFEFEFEFEFEFEFEFEFEFEFEFFFFFEFEFEFEFEFEFEFEFEFEFEFEFEFEFEFEFEFEFEFEFEFEF
310
EFEFEFEFEFEFEFEFEFEFEFEFEFEFEFEFEFEFEFEFEFEFEFEFEFEFEFEFEFEFEFEFEFEFEFEFEFEFEFEFEFEFEFEFEFEFEFEFEFEFEFEFEFEFEFEFEFEFEFEFEFEFEFEFEFEFEFEFEFEFEFEFEFEFEFEFFFFF
  0
XRECORD
  5
1F1
102
{ACAD_REACTORS
330
1F0
102
}
330
1F0
100
AcDbXrecord
280
     1
102
MATERIAL
148
0.0
149
0.0
149
0.0
 93
        0
 94
       63
282
     0
 72
     1
 77
     1
171
     1
175
     1
179
     1
273
     0
  0
XRECORD
  5
1EF
102
{ACAD_REACTORS
330
1EE
102
}
330
1EE
100
AcDbXrecord
280
     1
102
MATERIAL
148
0.0
149
0.0
149
0.0
 93
        0
 94
       63
282
     0
 72
     1
 77
     1
171
     1
175
     1
179
     1
273
     0
  0
XRECORD
  5
1EA
102
{ACAD_REACTORS
330
1E9
102
}
330
1E9
100
AcDbXrecord
280
     1
102
MATERIAL
148
0.0
149
0.0
149
0.0
 93
        0
 94
       63
282
     0
 72
     1
 77
     1
171
     1
175
     1
179
     1
273
     0
  0
CELLSTYLEMAP
  5
1E6
102
{ACAD_REACTORS
330
1C8
102
}
330
1C8
100
AcDbCellStyleMap
 90
        3
300
CELLSTYLE
  1
TABLEFORMAT_BEGIN
 90
        5
170
     1
 91
        0
 92
    32768
 62
   257
 93
        1
300
CONTENTFORMAT
  1
CONTENTFORMAT_BEGIN
 90
        0
 91
        0
 92
        4
 93
        0
300

 40
0.0
140
1.0
 94
        5
 62
     0
340
1AB
144
0.25
309
CONTENTFORMAT_END
171
     0
 94
        6
 95
        1
302
GRIDFORMAT
  1
GRIDFORMAT_BEGIN
 90
        0
 91
        1
 62
     0
 92
       -2
340
0
 93
        0
 40
0.045
309
GRIDFORMAT_END
 95
        2
302
GRIDFORMAT
  1
GRIDFORMAT_BEGIN
 90
        0
 91
        1
 62
     0
 92
       -2
340
0
 93
        0
 40
0.045
309
GRIDFORMAT_END
 95
        4
302
GRIDFORMAT
  1
GRIDFORMAT_BEGIN
 90
        0
 91
        1
 62
     0
 92
       -2
340
0
 93
        0
 40
0.045
309
GRIDFORMAT_END
 95
        8
302
GRIDFORMAT
  1
GRIDFORMAT_BEGIN
 90
        0
 91
        1
 62
     0
 92
       -2
340
0
 93
        0
 40
0.045
309
GRIDFORMAT_END
 95
       16
302
GRIDFORMAT
  1
GRIDFORMAT_BEGIN
 90
        0
 91
        1
 62
     0
 92
       -2
340
0
 93
        0
 40
0.045
309
GRIDFORMAT_END
 95
       32
302
GRIDFORMAT
  1
GRIDFORMAT_BEGIN
 90
        0
 91
        1
 62
     0
 92
       -2
340
0
 93
        0
 40
0.045
309
GRIDFORMAT_END
309
TABLEFORMAT_END
  1
CELLSTYLE_BEGIN
 90
        1
 91
        1
300
_TITLE
309
CELLSTYLE_END
300
CELLSTYLE
  1
TABLEFORMAT_BEGIN
 90
        5
170
     1
 91
        0
 92
        0
 62
   257
 93
        1
300
CONTENTFORMAT
  1
CONTENTFORMAT_BEGIN
 90
        0
 91
        0
 92
        4
 93
        0
300

 40
0.0
140
1.0
 94
        5
 62
     0
340
1AB
144
0.18
309
CONTENTFORMAT_END
171
     0
 94
        6
 95
        1
302
GRIDFORMAT
  1
GRIDFORMAT_BEGIN
 90
        0
 91
        1
 62
     0
 92
       -2
340
0
 93
        0
 40
0.045
309
GRIDFORMAT_END
 95
        2
302
GRIDFORMAT
  1
GRIDFORMAT_BEGIN
 90
        0
 91
        1
 62
     0
 92
       -2
340
0
 93
        0
 40
0.045
309
GRIDFORMAT_END
 95
        4
302
GRIDFORMAT
  1
GRIDFORMAT_BEGIN
 90
        0
 91
        1
 62
     0
 92
       -2
340
0
 93
        0
 40
0.045
309
GRIDFORMAT_END
 95
        8
302
GRIDFORMAT
  1
GRIDFORMAT_BEGIN
 90
        0
 91
        1
 62
     0
 92
       -2
340
0
 93
        0
 40
0.045
309
GRIDFORMAT_END
 95
       16
302
GRIDFORMAT
  1
GRIDFORMAT_BEGIN
 90
        0
 91
        1
 62
     0
 92
       -2
340
0
 93
        0
 40
0.045
309
GRIDFORMAT_END
 95
       32
302
GRIDFORMAT
  1
GRIDFORMAT_BEGIN
 90
        0
 91
        1
 62
     0
 92
       -2
340
0
 93
        0
 40
0.045
309
GRIDFORMAT_END
309
TABLEFORMAT_END
  1
CELLSTYLE_BEGIN
 90
        2
 91
        1
300
_HEADER
309
CELLSTYLE_END
300
CELLSTYLE
  1
TABLEFORMAT_BEGIN
 90
        5
170
     1
 91
        0
 92
        0
 62
   257
 93
        1
300
CONTENTFORMAT
  1
CONTENTFORMAT_BEGIN
 90
        0
 91
        0
 92
        4
 93
        0
300

 40
0.0
140
1.0
 94
        2
 62
     0
340
1AB
144
0.18
309
CONTENTFORMAT_END
171
     0
 94
        6
 95
        1
302
GRIDFORMAT
  1
GRIDFORMAT_BEGIN
 90
        0
 91
        1
 62
     0
 92
       -2
340
0
 93
        0
 40
0.045
309
GRIDFORMAT_END
 95
        2
302
GRIDFORMAT
  1
GRIDFORMAT_BEGIN
 90
        0
 91
        1
 62
     0
 92
       -2
340
0
 93
        0
 40
0.045
309
GRIDFORMAT_END
 95
        4
302
GRIDFORMAT
  1
GRIDFORMAT_BEGIN
 90
        0
 91
        1
 62
     0
 92
       -2
340
0
 93
        0
 40
0.045
309
GRIDFORMAT_END
 95
        8
302
GRIDFORMAT
  1
GRIDFORMAT_BEGIN
 90
        0
 91
        1
 62
     0
 92
       -2
340
0
 93
        0
 40
0.045
309
GRIDFORMAT_END
 95
       16
302
GRIDFORMAT
  1
GRIDFORMAT_BEGIN
 90
        0
 91
        1
 62
     0
 92
       -2
340
0
 93
        0
 40
0.045
309
GRIDFORMAT_END
 95
       32
302
GRIDFORMAT
  1
GRIDFORMAT_BEGIN
 90
        0
 91
        1
 62
     0
 92
       -2
340
0
 93
        0
 40
0.045
309
GRIDFORMAT_END
309
TABLEFORMAT_END
  1
CELLSTYLE_BEGIN
 90
        3
 91
        2
300
_DATA
309
CELLSTYLE_END
  0
XRECORD
  5
1F2
102
{ACAD_REACTORS
330
1C8
102
}
330
1C8
100
AcDbXrecord
280
     1
102
ACAD_ROUNDTRIP_PRE2007_TABLESTYLE
 90
        4
 91
        0
  1

 92
        4
 93
        0
  2

 94
        4
 95
        0
  3

  0
ENDSEC
  0
EOF
