  0
SECTION
  2
HEADER
  9
$ACADVER
  1
AC1015
  9
$ACADMAINTVER
 70
    20
  9
$DWGCODEPAGE
  3
ANSI_1250
  9
$INSBASE
 10
215187.233673673
 20
127657.5168525552
 30
0.0
  9
$EXTMIN
 10
201600.6746428724
 20
124385.6801231292
 30
-0.0000000001177026
  9
$EXTMAX
 10
211814.3586877649
 20
138409.7730439823
 30
0.0000000000003866
  9
$LIMMIN
 10
0.0
 20
0.0
  9
$LIMMAX
 10
420.0
 20
297.0
  9
$ORTHOMODE
 70
     0
  9
$REGENMODE
 70
     1
  9
$FILLMODE
 70
     1
  9
$QTEXTMODE
 70
     0
  9
$MIRRTEXT
 70
     0
  9
$LTSCALE
 40
75.0
  9
$ATTMODE
 70
     1
  9
$TEXTSIZE
 40
20.0
  9
$TRACEWID
 40
1.0
  9
$TEXTSTYLE
  7
ROMANS
  9
$CLAYER
  8
Rodo-teren$0$S-FloorSlab-G
  9
$CELTYPE
  6
ByLayer
  9
$CECOLOR
 62
   256
  9
$CELTSCALE
 40
1.0
  9
$DISPSILH
 70
     0
  9
$DIMSCALE
 40
96.0
  9
$DIMASZ
 40
30.0
  9
$DIMEXO
 40
43.0
  9
$DIMDLI
 40
0.0
  9
$DIMRND
 40
0.5
  9
$DIMDLE
 40
12.0
  9
$DIMEXE
 40
13.0
  9
$DIMTP
 40
0.0
  9
$DIMTM
 40
0.0
  9
$DIMTXT
 40
80.0
  9
$DIMCEN
 40
0.0
  9
$DIMTSZ
 40
0.0
  9
$DIMTOL
 70
     0
  9
$DIMLIM
 70
     0
  9
$DIMTIH
 70
     0
  9
$DIMTOH
 70
     0
  9
$DIMSE1
 70
     1
  9
$DIMSE2
 70
     1
  9
$DIMTAD
 70
     0
  9
$DIMZIN
 70
    12
  9
$DIMBLK
  1
B-DIM
  9
$DIMASO
 70
     1
  9
$DIMSHO
 70
     1
  9
$DIMPOST
  1

  9
$DIMAPOST
  1

  9
$DIMALT
 70
     0
  9
$DIMALTD
 70
     2
  9
$DIMALTF
 40
25.4
  9
$DIMLFAC
 40
1.0
  9
$DIMTOFL
 70
     1
  9
$DIMTVP
 40
1.0
  9
$DIMTIX
 70
     1
  9
$DIMSOXD
 70
     0
  9
$DIMSAH
 70
     0
  9
$DIMBLK1
  1

  9
$DIMBLK2
  1

  9
$DIMSTYLE
  2
500
  9
$DIMCLRD
 70
     1
  9
$DIMCLRE
 70
     1
  9
$DIMCLRT
 70
    10
  9
$DIMTFAC
 40
1.0
  9
$DIMGAP
 40
0.0
  9
$DIMJUST
 70
     0
  9
$DIMSD1
 70
     0
  9
$DIMSD2
 70
     0
  9
$DIMTOLJ
 70
     1
  9
$DIMTZIN
 70
     0
  9
$DIMALTZ
 70
     0
  9
$DIMALTTZ
 70
     0
  9
$DIMUPT
 70
     0
  9
$DIMDEC
 70
     1
  9
$DIMTDEC
 70
     1
  9
$DIMALTU
 70
     2
  9
$DIMALTTD
 70
     2
  9
$DIMTXSTY
  7
ROMANS
  9
$DIMAUNIT
 70
     0
  9
$DIMADEC
 70
     0
  9
$DIMALTRND
 40
0.0
  9
$DIMAZIN
 70
     0
  9
$DIMDSEP
 70
    46
  9
$DIMATFIT
 70
     3
  9
$DIMFRAC
 70
     0
  9
$DIMLDRBLK
  1
B-DIM
  9
$DIMLUNIT
 70
     2
  9
$DIMLWD
 70
    -2
  9
$DIMLWE
 70
    -2
  9
$DIMTMOVE
 70
     2
  9
$LUNITS
 70
     4
  9
$LUPREC
 70
     4
  9
$SKETCHINC
 40
1.0
  9
$FILLETRAD
 40
0.0
  9
$AUNITS
 70
     0
  9
$AUPREC
 70
     2
  9
$MENU
  1
.
  9
$ELEVATION
 40
0.0
  9
$PELEVATION
 40
0.0
  9
$THICKNESS
 40
0.0
  9
$LIMCHECK
 70
     0
  9
$CHAMFERA
 40
0.0
  9
$CHAMFERB
 40
0.0
  9
$CHAMFERC
 40
20.0
  9
$CHAMFERD
 40
0.0
  9
$SKPOLY
 70
     0
  9
$TDCREATE
 40
2452027.670547454
  9
$TDUCREATE
 40
2452027.587214121
  9
$TDUPDATE
 40
2454960.369646261
  9
$TDUUPDATE
 40
2454960.286312929
  9
$TDINDWG
 40
7.6891029745
  9
$TDUSRTIMER
 40
7.6891029745
  9
$USRTIMER
 70
     1
  9
$ANGBASE
 50
0.0
  9
$ANGDIR
 70
     0
  9
$PDMODE
 70
     0
  9
$PDSIZE
 40
0.0
  9
$PLINEWID
 40
0.0
  9
$SPLFRAME
 70
     0
  9
$SPLINETYPE
 70
     6
  9
$SPLINESEGS
 70
     8
  9
$HANDSEED
  5
2E3A
  9
$SURFTAB1
 70
     6
  9
$SURFTAB2
 70
     6
  9
$SURFTYPE
 70
     6
  9
$SURFU
 70
     6
  9
$SURFV
 70
     6
  9
$UCSBASE
  2

  9
$UCSNAME
  2

  9
$UCSORG
 10
0.0
 20
0.0
 30
0.0
  9
$UCSXDIR
 10
1.0
 20
0.0
 30
0.0
  9
$UCSYDIR
 10
0.0
 20
1.0
 30
0.0
  9
$UCSORTHOREF
  2

  9
$UCSORTHOVIEW
 70
     0
  9
$UCSORGTOP
 10
0.0
 20
0.0
 30
0.0
  9
$UCSORGBOTTOM
 10
0.0
 20
0.0
 30
0.0
  9
$UCSORGLEFT
 10
0.0
 20
0.0
 30
0.0
  9
$UCSORGRIGHT
 10
0.0
 20
0.0
 30
0.0
  9
$UCSORGFRONT
 10
0.0
 20
0.0
 30
0.0
  9
$UCSORGBACK
 10
0.0
 20
0.0
 30
0.0
  9
$PUCSBASE
  2

  9
$PUCSNAME
  2

  9
$PUCSORG
 10
0.0
 20
0.0
 30
0.0
  9
$PUCSXDIR
 10
1.0
 20
0.0
 30
0.0
  9
$PUCSYDIR
 10
0.0
 20
1.0
 30
0.0
  9
$PUCSORTHOREF
  2

  9
$PUCSORTHOVIEW
 70
     0
  9
$PUCSORGTOP
 10
0.0
 20
0.0
 30
0.0
  9
$PUCSORGBOTTOM
 10
0.0
 20
0.0
 30
0.0
  9
$PUCSORGLEFT
 10
0.0
 20
0.0
 30
0.0
  9
$PUCSORGRIGHT
 10
0.0
 20
0.0
 30
0.0
  9
$PUCSORGFRONT
 10
0.0
 20
0.0
 30
0.0
  9
$PUCSORGBACK
 10
0.0
 20
0.0
 30
0.0
  9
$USERI1
 70
     0
  9
$USERI2
 70
     0
  9
$USERI3
 70
     0
  9
$USERI4
 70
     0
  9
$USERI5
 70
     0
  9
$USERR1
 40
0.0
  9
$USERR2
 40
0.0
  9
$USERR3
 40
0.0
  9
$USERR4
 40
0.0
  9
$USERR5
 40
0.0
  9
$WORLDVIEW
 70
     1
  9
$SHADEDGE
 70
     3
  9
$SHADEDIF
 70
    70
  9
$TILEMODE
 70
     1
  9
$MAXACTVP
 70
    64
  9
$PINSBASE
 10
0.0
 20
0.0
 30
0.0
  9
$PLIMCHECK
 70
     0
  9
$PEXTMIN
 10
1.000000000000000E+20
 20
1.000000000000000E+20
 30
1.000000000000000E+20
  9
$PEXTMAX
 10
-1.000000000000000E+20
 20
-1.000000000000000E+20
 30
-1.000000000000000E+20
  9
$PLIMMIN
 10
0.0
 20
0.0
  9
$PLIMMAX
 10
420.0
 20
297.0
  9
$UNITMODE
 70
     0
  9
$VISRETAIN
 70
     1
  9
$PLINEGEN
 70
     0
  9
$PSLTSCALE
 70
     1
  9
$TREEDEPTH
 70
  3020
  9
$CMLSTYLE
  2
Standard
  9
$CMLJUST
 70
     0
  9
$CMLSCALE
 40
20.0
  9
$PROXYGRAPHICS
 70
     1
  9
$MEASUREMENT
 70
     0
  9
$CELWEIGHT
370
    -1
  9
$ENDCAPS
280
     0
  9
$JOINSTYLE
280
     0
  9
$LWDISPLAY
290
     0
  9
$INSUNITS
 70
     1
  9
$HYPERLINKBASE
  1

  9
$STYLESHEET
  1
monochrome_140.ctb
  9
$XEDIT
290
     1
  9
$CEPSNTYPE
380
     0
  9
$PSTYLEMODE
290
     1
  9
$FINGERPRINTGUID
  2
{938A2469-3AF5-11D5-BC95-0050BABCE9EC}
  9
$VERSIONGUID
  2
{51710109-9274-4DD3-AEB7-33FD44562956}
  9
$EXTNAMES
290
     1
  9
$PSVPSCALE
 40
0.0
  9
$OLESTARTUP
290
     0
  0
ENDSEC
  0
SECTION
  2
CLASSES
  0
CLASS
  1
ACDBDICTIONARYWDFLT
  2
AcDbDictionaryWithDefault
  3
ObjectDBX Classes
 90
        0
280
     0
281
     0
  0
CLASS
  1
ACDBPLACEHOLDER
  2
AcDbPlaceHolder
  3
ObjectDBX Classes
 90
        0
280
     0
281
     0
  0
CLASS
  1
LAYOUT
  2
AcDbLayout
  3
ObjectDBX Classes
 90
        0
280
     0
281
     0
  0
CLASS
  1
DICTIONARYVAR
  2
AcDbDictionaryVar
  3
ObjectDBX Classes
 90
        0
280
     0
281
     0
  0
CLASS
  1
SORTENTSTABLE
  2
AcDbSortentsTable
  3
ObjectDBX Classes
 90
        0
280
     0
281
     0
  0
CLASS
  1
AEC_VARS_DWG_SETUP
  2
AecDbVarsDwgSetup
  3
AecBase50|Product Desc: Autodesk Architectural Desktop 2007 |Company: Autodesk,Inc. |WEB Address: www.autodesk.com
 90
      129
280
     0
281
     0
  0
CLASS
  1
AEC_DISP_REP_CONFIG
  2
AecDbDispRepConfig
  3
AecBase50|Product Desc: Autodesk Architectural Desktop 2007 |Company: Autodesk,Inc. |WEB Address: www.autodesk.com
 90
      129
280
     0
281
     0
  0
CLASS
  1
AEC_DISP_REP_SET
  2
AecDbDispRepSet
  3
AecBase50|Product Desc: Autodesk Architectural Desktop 2007 |Company: Autodesk,Inc. |WEB Address: www.autodesk.com
 90
      129
280
     0
281
     0
  0
CLASS
  1
AEC_DISP_REP_2D_SECTION
  2
AecDbDispRep2dSection
  3
AecBase50|Product Desc: Autodesk Architectural Desktop 2007 |Company: Autodesk,Inc. |WEB Address: www.autodesk.com
 90
      129
280
     0
281
     0
  0
CLASS
  1
AEC_DISP_REP_ANCHOR_BUB_TO_GRID
  2
AecDbDispRepAnchorBubToGrid
  3
AecStructureBase50|Product Desc: Autodesk Architectural Desktop 2007 |Company: Autodesk,Inc. |WEB Address: www.autodesk.com
 90
      129
280
     0
281
     0
  0
CLASS
  1
AEC_DISP_REP_ANCHOR_BUB_TO_GRID_MODEL
  2
AecDbDispRepAnchorBubToGridMdl
  3
AecStructureBase50|Product Desc: Autodesk Architectural Desktop 2007 |Company: Autodesk,Inc. |WEB Address: www.autodesk.com
 90
      129
280
     0
281
     0
  0
CLASS
  1
AEC_DISP_REP_ANCHOR_ENT_TO_NODE
  2
AecDbDispRepAnchorEntToNode
  3
AecBase50|Product Desc: Autodesk Architectural Desktop 2007 |Company: Autodesk,Inc. |WEB Address: www.autodesk.com
 90
      129
280
     0
281
     0
  0
CLASS
  1
AEC_DISP_REP_ANCHOR_TAG_TO_ENT
  2
AecDbDispRepAnchorTagToEnt
  3
AecScheduleData50|Product Desc: Autodesk Architectural Desktop 2007 |Company: Autodesk,Inc. |WEB Address: www.autodesk.com
 90
      129
280
     0
281
     0
  0
CLASS
  1
AEC_DISP_REP_AREA
  2
AecDbDispRepArea
  3
AecAreaCalculationBase50|Product Desc: Autodesk Architectural Desktop 2007 |Company: Autodesk,Inc. |WEB Address: www.autodesk.com
 90
    32897
280
     0
281
     0
  0
CLASS
  1
AEC_DISP_REP_AREA_DECOMPOSED
  2
AecDbDispRepAreaDecomposed
  3
AecAreaCalculationBase50|Product Desc: Autodesk Architectural Desktop 2007 |Company: Autodesk,Inc. |WEB Address: www.autodesk.com
 90
    32897
280
     0
281
     0
  0
CLASS
  1
AEC_DISP_REP_AREAGROUP
  2
AecDbDispRepAreaGroup
  3
AecAreaCalculationBase50|Product Desc: Autodesk Architectural Desktop 2007 |Company: Autodesk,Inc. |WEB Address: www.autodesk.com
 90
    32897
280
     0
281
     0
  0
CLASS
  1
AEC_DISP_REP_BDG_ELEVLINE_MODEL
  2
AecDbDispRepBdgElevLineModel
  3
AecArchBase50|Product Desc: Autodesk Architectural Desktop 2007 |Company: Autodesk,Inc. |WEB Address: www.autodesk.com
 90
      129
280
     0
281
     0
  0
CLASS
  1
AEC_DISP_REP_BDG_SECTIONLINE_PLAN
  2
AecDbDispRepBdgElevLinePlan
  3
AecArchBase50|Product Desc: Autodesk Architectural Desktop 2007 |Company: Autodesk,Inc. |WEB Address: www.autodesk.com
 90
      129
280
     0
281
     0
  0
CLASS
  1
AEC_DISP_REP_BDG_SECTIONLINE_MODEL
  2
AecDbDispRepBdgSectionLineModel
  3
AecArchBase50|Product Desc: Autodesk Architectural Desktop 2007 |Company: Autodesk,Inc. |WEB Address: www.autodesk.com
 90
      129
280
     0
281
     0
  0
CLASS
  1
AEC_DISP_REP_BDG_SECTIONLINE_PLAN
  2
AecDbDispRepBdgSectionLinePlan
  3
AecArchBase50|Product Desc: Autodesk Architectural Desktop 2007 |Company: Autodesk,Inc. |WEB Address: www.autodesk.com
 90
      129
280
     0
281
     0
  0
CLASS
  1
AEC_DISP_REP_BDG_SECTION_SUBDIV
  2
AecDbDispRepBdgSectionSubDiv
  3
AecArchBase50|Product Desc: Autodesk Architectural Desktop 2007 |Company: Autodesk,Inc. |WEB Address: www.autodesk.com
 90
      129
280
     0
281
     0
  0
CLASS
  1
AEC_DISP_REP_CAMERA
  2
AecDbDispRepCamera
  3
AecBase50|Product Desc: Autodesk Architectural Desktop 2007 |Company: Autodesk,Inc. |WEB Address: www.autodesk.com
 90
    32897
280
     0
281
     0
  0
CLASS
  1
AEC_DISP_REP_CEILING_GRID
  2
AecDbDispRepCeilingGrid
  3
AecArchBase50|Product Desc: Autodesk Architectural Desktop 2007 |Company: Autodesk,Inc. |WEB Address: www.autodesk.com
 90
      893
280
     0
281
     0
  0
CLASS
  1
AEC_DISP_REP_CEILING_GRID_MODEL
  2
AecDbDispRepCeilingGridModel
  3
AecArchBase50|Product Desc: Autodesk Architectural Desktop 2007 |Company: Autodesk,Inc. |WEB Address: www.autodesk.com
 90
      129
280
     0
281
     0
  0
CLASS
  1
AEC_DISP_REP_CEILING_GRID_RCP
  2
AecDbDispRepCeilingGridRcp
  3
AecArchBase50|Product Desc: Autodesk Architectural Desktop 2007 |Company: Autodesk,Inc. |WEB Address: www.autodesk.com
 90
      129
280
     0
281
     0
  0
CLASS
  1
AEC_DISP_REP_CLIP_VOLUME_MODEL
  2
AecDbDispRepClipVolModel
  3
AecBase50|Product Desc: Autodesk Architectural Desktop 2007 |Company: Autodesk,Inc. |WEB Address: www.autodesk.com
 90
      129
280
     0
281
     0
  0
CLASS
  1
AEC_DISP_REP_CLIP_VOLUME_PLAN
  2
AecDbDispRepClipVolPlan
  3
AecBase50|Product Desc: Autodesk Architectural Desktop 2007 |Company: Autodesk,Inc. |WEB Address: www.autodesk.com
 90
      129
280
     0
281
     0
  0
CLASS
  1
AEC_DISP_REP_CLIP_VOLUME_RESULT_SUBDIV
  2
AecDbDispRepClipVolResSubDiv
  3
AecBase50|Product Desc: Autodesk Architectural Desktop 2007 |Company: Autodesk,Inc. |WEB Address: www.autodesk.com
 90
      129
280
     0
281
     0
  0
CLASS
  1
AEC_DISP_REP_CLIP_VOLUME_RESULT
  2
AecDbDispRepClipVolResult
  3
AecBase50|Product Desc: Autodesk Architectural Desktop 2007 |Company: Autodesk,Inc. |WEB Address: www.autodesk.com
 90
      129
280
     0
281
     0
  0
CLASS
  1
AEC_DISP_REP_COLUMN_GRID
  2
AecDbDispRepColumnGrid
  3
AecStructureBase50|Product Desc: Autodesk Architectural Desktop 2007 |Company: Autodesk,Inc. |WEB Address: www.autodesk.com
 90
      129
280
     0
281
     0
  0
CLASS
  1
AEC_DISP_REP_COLUMN_GRID_MODEL
  2
AecDbDispRepColumnGridModel
  3
AecStructureBase50|Product Desc: Autodesk Architectural Desktop 2007 |Company: Autodesk,Inc. |WEB Address: www.autodesk.com
 90
      129
280
     0
281
     0
  0
CLASS
  1
AEC_DISP_REP_CURTAIN_WALL_LAYOUT_MODEL
  2
AecDbDispRepCurtainWallLayoutModel
  3
AecArchBase50|Product Desc: Autodesk Architectural Desktop 2007 |Company: Autodesk,Inc. |WEB Address: www.autodesk.com
 90
      129
280
     0
281
     0
  0
CLASS
  1
AEC_DISP_REP_CURTAIN_WALL_LAYOUT_PLAN
  2
AecDbDispRepCurtainWallLayoutPlan
  3
AecArchBase50|Product Desc: Autodesk Architectural Desktop 2007 |Company: Autodesk,Inc. |WEB Address: www.autodesk.com
 90
      129
280
     0
281
     0
  0
CLASS
  1
AEC_DISP_REP_CURTAIN_WALL_UNIT_MODEL
  2
AecDbDispRepCurtainWallUnitModel
  3
AecArchBase50|Product Desc: Autodesk Architectural Desktop 2007 |Company: Autodesk,Inc. |WEB Address: www.autodesk.com
 90
      129
280
     0
281
     0
  0
CLASS
  1
AEC_DISP_REP_CURTAIN_WALL_UNIT_PLAN
  2
AecDbDispRepCurtainWallUnitPlan
  3
AecArchBase50|Product Desc: Autodesk Architectural Desktop 2007 |Company: Autodesk,Inc. |WEB Address: www.autodesk.com
 90
      129
280
     0
281
     0
  0
CLASS
  1
AEC_DB_DISP_REP_DIM_GROUP_PLAN
  2
AecDbDispRepDimGroupPlan
  3
AecArchDACHBase50|Product Desc: Autodesk Architectural Desktop 2007 |Company: Autodesk,Inc. |WEB Address: www.autodesk.com
 90
      129
280
     0
281
     0
  0
CLASS
  1
AEC_DISP_REP_DOOR_MODEL
  2
AecDbDispRepDoorModel
  3
AecArchBase50|Product Desc: Autodesk Architectural Desktop 2007 |Company: Autodesk,Inc. |WEB Address: www.autodesk.com
 90
      129
280
     0
281
     0
  0
CLASS
  1
AEC_DISP_REP_DOOR_NOMINAL
  2
AecDbDispRepDoorNominal
  3
AecArchBase50|Product Desc: Autodesk Architectural Desktop 2007 |Company: Autodesk,Inc. |WEB Address: www.autodesk.com
 90
      129
280
     0
281
     0
  0
CLASS
  1
AEC_DISP_REP_DOOR_PLAN
  2
AecDbDispRepDoorPlan
  3
AecArchBase50|Product Desc: Autodesk Architectural Desktop 2007 |Company: Autodesk,Inc. |WEB Address: www.autodesk.com
 90
      129
280
     0
281
     0
  0
CLASS
  1
AEC_DISP_REP_EDITINPLACEPROFILE
  2
AecDbDispRepEditInPlaceProfile
  3
AecBase50|Product Desc: Autodesk Architectural Desktop 2007 |Company: Autodesk,Inc. |WEB Address: www.autodesk.com
 90
      129
280
     0
281
     0
  0
CLASS
  1
AEC_DISP_REP_ENT_REF
  2
AecDbDispRepEntRef
  3
AecBase50|Product Desc: Autodesk Architectural Desktop 2007 |Company: Autodesk,Inc. |WEB Address: www.autodesk.com
 90
      129
280
     0
281
     0
  0
CLASS
  1
AEC_DISP_REP_LAYOUT_CURVE
  2
AecDbDispRepLayoutCurve
  3
AecBase50|Product Desc: Autodesk Architectural Desktop 2007 |Company: Autodesk,Inc. |WEB Address: www.autodesk.com
 90
      129
280
     0
281
     0
  0
CLASS
  1
AEC_DISP_REP_LAYOUT_GRID2D
  2
AecDbDispRepLayoutGrid2d
  3
AecBase50|Product Desc: Autodesk Architectural Desktop 2007 |Company: Autodesk,Inc. |WEB Address: www.autodesk.com
 90
      129
280
     0
281
     0
  0
CLASS
  1
AEC_DISP_REP_LAYOUT_GRID3D
  2
AecDbDispRepLayoutGrid3d
  3
AecBase50|Product Desc: Autodesk Architectural Desktop 2007 |Company: Autodesk,Inc. |WEB Address: www.autodesk.com
 90
      129
280
     0
281
     0
  0
CLASS
  1
AEC_DISP_REP_MASKBLOCK_REF
  2
AecDbDispRepMaskBlockRef
  3
AecBase50|Product Desc: Autodesk Architectural Desktop 2007 |Company: Autodesk,Inc. |WEB Address: www.autodesk.com
 90
      129
280
     0
281
     0
  0
CLASS
  1
AEC_DISP_REP_MASKBLOCK_REF_RCP
  2
AecDbDispRepMaskBlockRefRcp
  3
AecArchBase50|Product Desc: Autodesk Architectural Desktop 2007 |Company: Autodesk,Inc. |WEB Address: www.autodesk.com
 90
      129
280
     0
281
     0
  0
CLASS
  1
AEC_DISP_REP_MASS_ELEM_MODEL
  2
AecDbDispRepMassElemModel
  3
AecBaseEx50|Product Desc: Autodesk Architectural Desktop 2007 |Company: Autodesk,Inc. |WEB Address: www.autodesk.com
 90
      129
280
     0
281
     0
  0
CLASS
  1
AEC_DISP_REP_MASS_ELEM_SCHEM
  2
AecDbDispRepMassElemSchem
  3
AecBaseEx50|Product Desc: Autodesk Architectural Desktop 2007 |Company: Autodesk,Inc. |WEB Address: www.autodesk.com
 90
      129
280
     0
281
     0
  0
CLASS
  1
AEC_DISP_REP_MASS_GROUP_MODEL
  2
AecDbDispRepMassGroupModel
  3
AecBaseEx50|Product Desc: Autodesk Architectural Desktop 2007 |Company: Autodesk,Inc. |WEB Address: www.autodesk.com
 90
      129
280
     0
281
     0
  0
CLASS
  1
AEC_DISP_REP_MASS_GROUP_PLAN
  2
AecDbDispRepMassGroupPlan
  3
AecBaseEx50|Product Desc: Autodesk Architectural Desktop 2007 |Company: Autodesk,Inc. |WEB Address: www.autodesk.com
 90
      129
280
     0
281
     0
  0
CLASS
  1
AEC_DISP_REP_MATERIAL
  2
AecDbDispRepMaterial
  3
AecBase50|Product Desc: Autodesk Architectural Desktop 2007 |Company: Autodesk,Inc. |WEB Address: www.autodesk.com
 90
      129
280
     0
281
     0
  0
CLASS
  1
AEC_DISP_REP_MVBLOCK_REF
  2
AecDbDispRepMvBlockRef
  3
AecBase50|Product Desc: Autodesk Architectural Desktop 2007 |Company: Autodesk,Inc. |WEB Address: www.autodesk.com
 90
      129
280
     0
281
     0
  0
CLASS
  1
AEC_DISP_REP_MVBLOCK_REF_MODEL
  2
AecDbDispRepMvBlockRefModel
  3
AecBase50|Product Desc: Autodesk Architectural Desktop 2007 |Company: Autodesk,Inc. |WEB Address: www.autodesk.com
 90
      129
280
     0
281
     0
  0
CLASS
  1
AEC_DISP_REP_OPENING
  2
AecDbDispRepOpening
  3
AecArchBase50|Product Desc: Autodesk Architectural Desktop 2007 |Company: Autodesk,Inc. |WEB Address: www.autodesk.com
 90
      129
280
     0
281
     0
  0
CLASS
  1
AEC_DISP_REP_OPENING_MODEL
  2
AecDbDispRepOpeningModel
  3
AecArchBase50|Product Desc: Autodesk Architectural Desktop 2007 |Company: Autodesk,Inc. |WEB Address: www.autodesk.com
 90
      129
280
     0
281
     0
  0
CLASS
  1
AEC_DISP_REP_POLYGON_MODEL
  2
AecDbDispRepPolygonModel
  3
AecBase50|Product Desc: Autodesk Architectural Desktop 2007 |Company: Autodesk,Inc. |WEB Address: www.autodesk.com
 90
      129
280
     0
281
     0
  0
CLASS
  1
AEC_DISP_REP_RAILING_MODEL
  2
AecDbDispRepRailingModel
  3
AecArchBase50|Product Desc: Autodesk Architectural Desktop 2007 |Company: Autodesk,Inc. |WEB Address: www.autodesk.com
 90
      129
280
     0
281
     0
  0
CLASS
  1
AEC_DISP_REP_RAILING_PLAN
  2
AecDbDispRepRailingPlan
  3
AecArchBase50|Product Desc: Autodesk Architectural Desktop 2007 |Company: Autodesk,Inc. |WEB Address: www.autodesk.com
 90
      129
280
     0
281
     0
  0
CLASS
  1
AEC_DISP_REP_ROOF_MODEL
  2
AecDbDispRepRoofModel
  3
AecArchBase50|Product Desc: Autodesk Architectural Desktop 2007 |Company: Autodesk,Inc. |WEB Address: www.autodesk.com
 90
      129
280
     0
281
     0
  0
CLASS
  1
AEC_DISP_REP_ROOF_PLAN
  2
AecDbDispRepRoofPlan
  3
AecArchBase50|Product Desc: Autodesk Architectural Desktop 2007 |Company: Autodesk,Inc. |WEB Address: www.autodesk.com
 90
      129
280
     0
281
     0
  0
CLASS
  1
AEC_DISP_REP_ROOFSLAB_MODEL
  2
AecDbDispRepRoofSlabModel
  3
AecArchBase50|Product Desc: Autodesk Architectural Desktop 2007 |Company: Autodesk,Inc. |WEB Address: www.autodesk.com
 90
      129
280
     0
281
     0
  0
CLASS
  1
AEC_DISP_REP_ROOFSLAB_PLAN
  2
AecDbDispRepRoofSlabPlan
  3
AecArchBase50|Product Desc: Autodesk Architectural Desktop 2007 |Company: Autodesk,Inc. |WEB Address: www.autodesk.com
 90
      129
280
     0
281
     0
  0
CLASS
  1
AEC_DISP_REP_SCHEDULE_TABLE
  2
AecDbDispRepScheduleTable
  3
AecSchedule50|Product Desc: Autodesk Architectural Desktop 2007 |Company: Autodesk,Inc. |WEB Address: www.autodesk.com
 90
      129
280
     0
281
     0
  0
CLASS
  1
AEC_DISP_REP_SLAB_MODEL
  2
AecDbDispRepSlabModel
  3
AecArchBase50|Product Desc: Autodesk Architectural Desktop 2007 |Company: Autodesk,Inc. |WEB Address: www.autodesk.com
 90
      129
280
     0
281
     0
  0
CLASS
  1
AEC_DISP_REP_SLAB_PLAN
  2
AecDbDispRepSlabPlan
  3
AecArchBase50|Product Desc: Autodesk Architectural Desktop 2007 |Company: Autodesk,Inc. |WEB Address: www.autodesk.com
 90
      129
280
     0
281
     0
  0
CLASS
  1
AEC_DISP_REP_SLICE
  2
AecDbDispRepSlice
  3
AecBase50|Product Desc: Autodesk Architectural Desktop 2007 |Company: Autodesk,Inc. |WEB Address: www.autodesk.com
 90
      129
280
     0
281
     0
  0
CLASS
  1
AEC_DISP_REP_SPACE_BOUNDARY_MODEL
  2
AecDbDispRepSpaceBoundaryModel
  3
AecArchBase50|Product Desc: Autodesk Architectural Desktop 2007 |Company: Autodesk,Inc. |WEB Address: www.autodesk.com
 90
    32897
280
     0
281
     0
  0
CLASS
  1
AEC_DISP_REP_SPACE_BOUNDARY_PLAN
  2
AecDbDispRepSpaceBoundaryPlan
  3
AecArchBase50|Product Desc: Autodesk Architectural Desktop 2007 |Company: Autodesk,Inc. |WEB Address: www.autodesk.com
 90
    32897
280
     0
281
     0
  0
CLASS
  1
AEC_DISP_REP_SPACE_BOUNDARY_SCHEM
  2
AecDbDispRepSpaceBoundarySketch
  3
AecArchBase50|Product Desc: Autodesk Architectural Desktop 2007 |Company: Autodesk,Inc. |WEB Address: www.autodesk.com
 90
    32897
280
     0
281
     0
  0
CLASS
  1
AEC_DISP_REP_SPACE_MODEL
  2
AecDbDispRepSpaceModel
  3
AecArchBase50|Product Desc: Autodesk Architectural Desktop 2007 |Company: Autodesk,Inc. |WEB Address: www.autodesk.com
 90
      129
280
     0
281
     0
  0
CLASS
  1
AEC_DISP_REP_SPACE_PLAN
  2
AecDbDispRepSpacePlan
  3
AecArchBase50|Product Desc: Autodesk Architectural Desktop 2007 |Company: Autodesk,Inc. |WEB Address: www.autodesk.com
 90
      129
280
     0
281
     0
  0
CLASS
  1
AEC_DISP_REP_STAIR_MODEL
  2
AecDbDispRepStairModel
  3
AecArchBase50|Product Desc: Autodesk Architectural Desktop 2007 |Company: Autodesk,Inc. |WEB Address: www.autodesk.com
 90
      129
280
     0
281
     0
  0
CLASS
  1
AEC_DISP_REP_STAIR_PLAN
  2
AecDbDispRepStairPlan
  3
AecArchBase50|Product Desc: Autodesk Architectural Desktop 2007 |Company: Autodesk,Inc. |WEB Address: www.autodesk.com
 90
      129
280
     0
281
     0
  0
CLASS
  1
AEC_DISP_REP_WALL_GRAPH
  2
AecDbDispRepWallGraph
  3
AecArchBase50|Product Desc: Autodesk Architectural Desktop 2007 |Company: Autodesk,Inc. |WEB Address: www.autodesk.com
 90
      129
280
     0
281
     0
  0
CLASS
  1
AEC_DISP_REP_WALL_MODEL
  2
AecDbDispRepWallModel
  3
AecArchBase50|Product Desc: Autodesk Architectural Desktop 2007 |Company: Autodesk,Inc. |WEB Address: www.autodesk.com
 90
      129
280
     0
281
     0
  0
CLASS
  1
AEC_DISP_REP_WALL_PLAN
  2
AecDbDispRepWallPlan
  3
AecArchBase50|Product Desc: Autodesk Architectural Desktop 2007 |Company: Autodesk,Inc. |WEB Address: www.autodesk.com
 90
      129
280
     0
281
     0
  0
CLASS
  1
AEC_DISP_REP_WALL_SCHEM
  2
AecDbDispRepWallSchem
  3
AecArchBase50|Product Desc: Autodesk Architectural Desktop 2007 |Company: Autodesk,Inc. |WEB Address: www.autodesk.com
 90
      129
280
     0
281
     0
  0
CLASS
  1
AEC_DISP_REP_WINDOW_ASSEMBLY_MODEL
  2
AecDbDispRepWindowAssemblyModel
  3
AecArchBase50|Product Desc: Autodesk Architectural Desktop 2007 |Company: Autodesk,Inc. |WEB Address: www.autodesk.com
 90
      129
280
     0
281
     0
  0
CLASS
  1
AEC_DISP_REP_WINDOW_ASSEMBLY_PLAN
  2
AecDbDispRepWindowAssemblyPlan
  3
AecArchBase50|Product Desc: Autodesk Architectural Desktop 2007 |Company: Autodesk,Inc. |WEB Address: www.autodesk.com
 90
      129
280
     0
281
     0
  0
CLASS
  1
AEC_AECDBDISPREPWINDOWASSEMBLYPLAN100
  2
AecDbDispRepWindowAssemblyPlan100
  3
AecArchDACHBase50|Product Desc: Autodesk Architectural Desktop 2007 |Company: Autodesk,Inc. |WEB Address: www.autodesk.com
 90
      129
280
     0
281
     0
  0
CLASS
  1
AEC_DISP_REP_WINDOW_MODEL
  2
AecDbDispRepWindowModel
  3
AecArchBase50|Product Desc: Autodesk Architectural Desktop 2007 |Company: Autodesk,Inc. |WEB Address: www.autodesk.com
 90
      129
280
     0
281
     0
  0
CLASS
  1
AEC_DISP_REP_WINDOW_NOMINAL
  2
AecDbDispRepWindowNominal
  3
AecArchBase50|Product Desc: Autodesk Architectural Desktop 2007 |Company: Autodesk,Inc. |WEB Address: www.autodesk.com
 90
      129
280
     0
281
     0
  0
CLASS
  1
AEC_DISP_REP_WINDOW_PLAN
  2
AecDbDispRepWindowPlan
  3
AecArchBase50|Product Desc: Autodesk Architectural Desktop 2007 |Company: Autodesk,Inc. |WEB Address: www.autodesk.com
 90
      129
280
     0
281
     0
  0
CLASS
  1
AECS_DISP_REP_MEMBER_LOGICAL
  2
AecsDbDispRepMemberLogical
  3
AecStructureBase50|Product Desc: Autodesk Architectural Desktop 2007 |Company: Autodesk,Inc. |WEB Address: www.autodesk.com
 90
      129
280
     0
281
     0
  0
CLASS
  1
AECS_DISP_REP_MEMBER_MODEL_DESIGN
  2
AecsDbDispRepMemberModelDesign
  3
AecStructureBase50|Product Desc: Autodesk Architectural Desktop 2007 |Company: Autodesk,Inc. |WEB Address: www.autodesk.com
 90
      129
280
     0
281
     0
  0
CLASS
  1
AECS_DISP_REP_MEMBER_PLAN_DESIGN
  2
AecsDbDispRepMemberPlanDesign
  3
AecStructureBase50|Product Desc: Autodesk Architectural Desktop 2007 |Company: Autodesk,Inc. |WEB Address: www.autodesk.com
 90
      129
280
     0
281
     0
  0
CLASS
  1
AEC_DISP_PROPS_ENT
  2
AecDbDispPropsEnt
  3
AecBase50|Product Desc: Autodesk Architectural Desktop 2007 |Company: Autodesk,Inc. |WEB Address: www.autodesk.com
 90
      129
280
     0
281
     0
  0
CLASS
  1
AEC_DISP_PROPS_CLIP_VOLUME
  2
AecDbDispPropsClipVol
  3
AecBase50|Product Desc: Autodesk Architectural Desktop 2007 |Company: Autodesk,Inc. |WEB Address: www.autodesk.com
 90
      129
280
     0
281
     0
  0
CLASS
  1
AEC_DISP_PROPS_SLICE
  2
AecDbDispPropsSlice
  3
AecBase50|Product Desc: Autodesk Architectural Desktop 2007 |Company: Autodesk,Inc. |WEB Address: www.autodesk.com
 90
      129
280
     0
281
     0
  0
CLASS
  1
AEC_DISP_PROPS_ROOFSLAB_PLAN
  2
AecDbDispPropsRoofSlabPlan
  3
AecArchBase50|Product Desc: Autodesk Architectural Desktop 2007 |Company: Autodesk,Inc. |WEB Address: www.autodesk.com
 90
      129
280
     0
281
     0
  0
CLASS
  1
AEC_DISP_PROPS_GRID_ASSEMBLY_MODEL
  2
AecDbDispPropsGridAssemblyModel
  3
AecArchBase50|Product Desc: Autodesk Architectural Desktop 2007 |Company: Autodesk,Inc. |WEB Address: www.autodesk.com
 90
      129
280
     0
281
     0
  0
CLASS
  1
AEC_DISP_PROPS_ROOF
  2
AecDbDispPropsRoof
  3
AecArchBase50|Product Desc: Autodesk Architectural Desktop 2007 |Company: Autodesk,Inc. |WEB Address: www.autodesk.com
 90
      129
280
     0
281
     0
  0
CLASS
  1
AEC_DISP_PROPS_SPACE_MODEL
  2
AecDbDispPropsSpaceModel
  3
AecArchBase50|Product Desc: Autodesk Architectural Desktop 2007 |Company: Autodesk,Inc. |WEB Address: www.autodesk.com
 90
      129
280
     0
281
     0
  0
CLASS
  1
AEC_DISP_PROPS_EDITINPLACEPROFILE_MODEL
  2
AecDbDispPropsEditInPlaceProfile
  3
AecBase50|Product Desc: Autodesk Architectural Desktop 2007 |Company: Autodesk,Inc. |WEB Address: www.autodesk.com
 90
      129
280
     0
281
     0
  0
CLASS
  1
AEC_DISP_PROPS_DOOR
  2
AecDbDispPropsDoor
  3
AecArchBase50|Product Desc: Autodesk Architectural Desktop 2007 |Company: Autodesk,Inc. |WEB Address: www.autodesk.com
 90
      129
280
     0
281
     0
  0
CLASS
  1
AEC_DISP_PROPS_MASKBLOCK
  2
AecDbDispPropsMaskBlock
  3
AecBase50|Product Desc: Autodesk Architectural Desktop 2007 |Company: Autodesk,Inc. |WEB Address: www.autodesk.com
 90
      129
280
     0
281
     0
  0
CLASS
  1
AEC_DISP_PROPS_SPACE_PLAN
  2
AecDbDispPropsSpacePlan
  3
AecArchBase50|Product Desc: Autodesk Architectural Desktop 2007 |Company: Autodesk,Inc. |WEB Address: www.autodesk.com
 90
      129
280
     0
281
     0
  0
CLASS
  1
AEC_DISP_PROPS_RAILING_PLAN
  2
AecDbDispPropsRailingPlan
  3
AecArchBase50|Product Desc: Autodesk Architectural Desktop 2007 |Company: Autodesk,Inc. |WEB Address: www.autodesk.com
 90
      129
280
     0
281
     0
  0
CLASS
  1
AEC_DISP_PROPS_LAYOUT_GRID2D
  2
AecDbDispPropsLayoutGrid2d
  3
AecBase50|Product Desc: Autodesk Architectural Desktop 2007 |Company: Autodesk,Inc. |WEB Address: www.autodesk.com
 90
      129
280
     0
281
     0
  0
CLASS
  1
AEC_DISP_PROPS_CLIP_VOLUME_RESULT
  2
AecDbDispPropsClipVolResSubDiv
  3
AecBase50|Product Desc: Autodesk Architectural Desktop 2007 |Company: Autodesk,Inc. |WEB Address: www.autodesk.com
 90
      129
280
     0
281
     0
  0
CLASS
  1
AEC_DISP_PROPS_STAIR_MODEL
  2
AecDbDispPropsStairModel
  3
AecArchBase50|Product Desc: Autodesk Architectural Desktop 2007 |Company: Autodesk,Inc. |WEB Address: www.autodesk.com
 90
      129
280
     0
281
     0
  0
CLASS
  1
AEC_DISP_PROPS_LAYOUT_CURVE
  2
AecDbDispPropsLayoutCurve
  3
AecBase50|Product Desc: Autodesk Architectural Desktop 2007 |Company: Autodesk,Inc. |WEB Address: www.autodesk.com
 90
      129
280
     0
281
     0
  0
CLASS
  1
AEC_DISP_PROPS_POLYGON_MODEL
  2
AecDbDispPropsPolygonModel
  3
AecBase50|Product Desc: Autodesk Architectural Desktop 2007 |Company: Autodesk,Inc. |WEB Address: www.autodesk.com
 90
      129
280
     0
281
     0
  0
CLASS
  1
AEC_DISP_PROPS_MASS_GROUP
  2
AecDbDispPropsMassGroup
  3
AecBaseEx50|Product Desc: Autodesk Architectural Desktop 2007 |Company: Autodesk,Inc. |WEB Address: www.autodesk.com
 90
      129
280
     0
281
     0
  0
CLASS
  1
AEC_DISP_PROPS_STAIR_PLAN
  2
AecDbDispPropsStairPlan
  3
AecArchBase50|Product Desc: Autodesk Architectural Desktop 2007 |Company: Autodesk,Inc. |WEB Address: www.autodesk.com
 90
      129
280
     0
281
     0
  0
CLASS
  1
AEC_DISP_PROPS_OPENING
  2
AecDbDispPropsOpening
  3
AecArchBase50|Product Desc: Autodesk Architectural Desktop 2007 |Company: Autodesk,Inc. |WEB Address: www.autodesk.com
 90
      129
280
     0
281
     0
  0
CLASS
  1
AEC_DISP_PROPS_WALL_GRAPH
  2
AecDbDispPropsWallGraph
  3
AecArchBase50|Product Desc: Autodesk Architectural Desktop 2007 |Company: Autodesk,Inc. |WEB Address: www.autodesk.com
 90
      129
280
     0
281
     0
  0
CLASS
  1
AEC_DISP_PROPS_DOOR_NOMINAL
  2
AecDbDispPropsDoorNominal
  3
AecArchBase50|Product Desc: Autodesk Architectural Desktop 2007 |Company: Autodesk,Inc. |WEB Address: www.autodesk.com
 90
      129
280
     0
281
     0
  0
CLASS
  1
AEC_DISP_PROPS_SLAB
  2
AecDbDispPropsSlab
  3
AecArchBase50|Product Desc: Autodesk Architectural Desktop 2007 |Company: Autodesk,Inc. |WEB Address: www.autodesk.com
 90
      129
280
     0
281
     0
  0
CLASS
  1
AEC_DISP_PROPS_WALL_MODEL
  2
AecDbDispPropsWallModel
  3
AecArchBase50|Product Desc: Autodesk Architectural Desktop 2007 |Company: Autodesk,Inc. |WEB Address: www.autodesk.com
 90
      129
280
     0
281
     0
  0
CLASS
  1
AEC_DISP_PROPS_MATERIAL
  2
AecDbDispPropsMaterial
  3
AecBase50|Product Desc: Autodesk Architectural Desktop 2007 |Company: Autodesk,Inc. |WEB Address: www.autodesk.com
 90
      129
280
     0
281
     0
  0
CLASS
  1
AEC_DISP_PROPS_WINDOW
  2
AecDbDispPropsWindow
  3
AecArchBase50|Product Desc: Autodesk Architectural Desktop 2007 |Company: Autodesk,Inc. |WEB Address: www.autodesk.com
 90
      129
280
     0
281
     0
  0
CLASS
  1
AEC_DISP_PROPS_LAYOUT_GRID3D
  2
AecDbDispPropsLayoutGrid3d
  3
AecBase50|Product Desc: Autodesk Architectural Desktop 2007 |Company: Autodesk,Inc. |WEB Address: www.autodesk.com
 90
      129
280
     0
281
     0
  0
CLASS
  1
AEC_DISP_PROPS_GRID_ASSEMBLY_PLAN
  2
AecDbDispPropsGridAssemblyPlan
  3
AecArchBase50|Product Desc: Autodesk Architectural Desktop 2007 |Company: Autodesk,Inc. |WEB Address: www.autodesk.com
 90
      129
280
     0
281
     0
  0
CLASS
  1
AEC_DISP_PROPS_WALL_SCHEM
  2
AecDbDispPropsWallSchem
  3
AecArchBase50|Product Desc: Autodesk Architectural Desktop 2007 |Company: Autodesk,Inc. |WEB Address: www.autodesk.com
 90
      129
280
     0
281
     0
  0
CLASS
  1
AEC_DISP_PROPS_WALL_PLAN
  2
AecDbDispPropsWallPlan
  3
AecArchBase50|Product Desc: Autodesk Architectural Desktop 2007 |Company: Autodesk,Inc. |WEB Address: www.autodesk.com
 90
      129
280
     0
281
     0
  0
CLASS
  1
AEC_DISP_PROPS_SPACE_BOUNDARY
  2
AecDbDispPropsSpaceBoundary
  3
AecArchBase50|Product Desc: Autodesk Architectural Desktop 2007 |Company: Autodesk,Inc. |WEB Address: www.autodesk.com
 90
    32897
280
     0
281
     0
  0
CLASS
  1
AEC_DISP_PROPS_SLAB_PLAN
  2
AecDbDispPropsSlabPlan
  3
AecArchBase50|Product Desc: Autodesk Architectural Desktop 2007 |Company: Autodesk,Inc. |WEB Address: www.autodesk.com
 90
      129
280
     0
281
     0
  0
CLASS
  1
AEC_DISP_PROPS_RAILING_MODEL
  2
AecDbDispPropsRailingModel
  3
AecArchBase50|Product Desc: Autodesk Architectural Desktop 2007 |Company: Autodesk,Inc. |WEB Address: www.autodesk.com
 90
      129
280
     0
281
     0
  0
CLASS
  1
AEC_DISP_PROPS_MASS_ELEM_MODEL
  2
AecDbDispPropsMassElem
  3
AecBaseEx50|Product Desc: Autodesk Architectural Desktop 2007 |Company: Autodesk,Inc. |WEB Address: www.autodesk.com
 90
      129
280
     0
281
     0
  0
CLASS
  1
AEC_DISP_PROPS_DIM
  2
AecDbDispPropsDimGroup
  3
AecArchDACHBase50|Product Desc: Autodesk Architectural Desktop 2007 |Company: Autodesk,Inc. |WEB Address: www.autodesk.com
 90
      129
280
     0
281
     0
  0
CLASS
  1
AEC_DISP_PROPS_ROOFSLAB
  2
AecDbDispPropsRoofSlab
  3
AecArchBase50|Product Desc: Autodesk Architectural Desktop 2007 |Company: Autodesk,Inc. |WEB Address: www.autodesk.com
 90
      129
280
     0
281
     0
  0
CLASS
  1
AEC_DISP_PROPS_ENT_REF
  2
AecDbDispPropsEntRef
  3
AecBase50|Product Desc: Autodesk Architectural Desktop 2007 |Company: Autodesk,Inc. |WEB Address: www.autodesk.com
 90
      129
280
     0
281
     0
  0
CLASS
  1
AEC_DISP_PROPS_2D_SECTION
  2
AecDbDispProps2dSection
  3
AecBase50|Product Desc: Autodesk Architectural Desktop 2007 |Company: Autodesk,Inc. |WEB Address: www.autodesk.com
 90
      129
280
     0
281
     0
  0
CLASS
  1
AECS_DISP_PROPS_MEMBER_LOGICAL
  2
AecsDbDispPropsMemberLogical
  3
AecStructureBase50|Product Desc: Autodesk Architectural Desktop 2007 |Company: Autodesk,Inc. |WEB Address: www.autodesk.com
 90
      129
280
     0
281
     0
  0
CLASS
  1
AEC_DISP_PROPS_AREA_DECOMPOSED
  2
AecDbDispPropsAreaDecomposed
  3
AecAreaCalculationBase50|Product Desc: Autodesk Architectural Desktop 2007 |Company: Autodesk,Inc. |WEB Address: www.autodesk.com
 90
    32897
280
     0
281
     0
  0
CLASS
  1
AEC_DISP_PROPS_CAMERA
  2
AecDbDispPropsCamera
  3
AecBase50|Product Desc: Autodesk Architectural Desktop 2007 |Company: Autodesk,Inc. |WEB Address: www.autodesk.com
 90
    32897
280
     0
281
     0
  0
CLASS
  1
AECS_DISP_PROPS_MEMBER
  2
AecsDbDispPropsMember
  3
AecStructureBase50|Product Desc: Autodesk Architectural Desktop 2007 |Company: Autodesk,Inc. |WEB Address: www.autodesk.com
 90
      129
280
     0
281
     0
  0
CLASS
  1
AECS_DISP_PROPS_MEMBER_PLAN
  2
AecsDbDispPropsMemberPlan
  3
AecStructureBase50|Product Desc: Autodesk Architectural Desktop 2007 |Company: Autodesk,Inc. |WEB Address: www.autodesk.com
 90
      129
280
     0
281
     0
  0
CLASS
  1
AEC_DISP_PROPS_AREAGROUP
  2
AecDbDispPropsAreaGroup
  3
AecAreaCalculationBase50|Product Desc: Autodesk Architectural Desktop 2007 |Company: Autodesk,Inc. |WEB Address: www.autodesk.com
 90
    32897
280
     0
281
     0
  0
CLASS
  1
AEC_DISP_PROPS_WINDOW_NOMINAL
  2
AecDbDispPropsWindowNominal
  3
AecArchBase50|Product Desc: Autodesk Architectural Desktop 2007 |Company: Autodesk,Inc. |WEB Address: www.autodesk.com
 90
      129
280
     0
281
     0
  0
CLASS
  1
AEC_DISP_PROPS_AREA
  2
AecDbDispPropsArea
  3
AecAreaCalculationBase50|Product Desc: Autodesk Architectural Desktop 2007 |Company: Autodesk,Inc. |WEB Address: www.autodesk.com
 90
    32897
280
     0
281
     0
  0
CLASS
  1
AEC_DISP_PROPS_SCHEDULE_TABLE
  2
AecDbDispPropsScheduleTable
  3
AecSchedule50|Product Desc: Autodesk Architectural Desktop 2007 |Company: Autodesk,Inc. |WEB Address: www.autodesk.com
 90
      129
280
     0
281
     0
  0
CLASS
  1
AEC_LAYERKEY_STYLE
  2
AecDbLayerKeyStyle
  3
AecBase50|Product Desc: Autodesk Architectural Desktop 2007 |Company: Autodesk,Inc. |WEB Address: www.autodesk.com
 90
    32897
280
     0
281
     0
  0
CLASS
  1
AEC_VARS_ARCHBASE
  2
AecDbVarsArchBase
  3
AecArchBase50|Product Desc: Autodesk Architectural Desktop 2007 |Company: Autodesk,Inc. |WEB Address: www.autodesk.com
 90
      129
280
     0
281
     0
  0
CLASS
  1
AEC_VARS_MUNICH
  2
AecDbVarsMunich
  3
AecArchDACHBase50|Product Desc: Autodesk Architectural Desktop 2007 |Company: Autodesk,Inc. |WEB Address: www.autodesk.com
 90
      129
280
     0
281
     0
  0
CLASS
  1
AEC_NOTIFICATION_TRACKER
  2
AecDbNotificationTracker
  3
AecBase50|Product Desc: Autodesk Architectural Desktop 2007 |Company: Autodesk,Inc. |WEB Address: www.autodesk.com
 90
      129
280
     0
281
     0
  0
CLASS
  1
AEC_DISP_REP_ANCHOR
  2
AecDbDispRepAnchor
  3
AecBase50|Product Desc: Autodesk Architectural Desktop 2007 |Company: Autodesk,Inc. |WEB Address: www.autodesk.com
 90
      129
280
     0
281
     0
  0
CLASS
  1
AEC_DISP_REP_POLYGON_TRUECOLOUR
  2
AecDbDispRepPolygonTrueColour
  3
AecBase50|Product Desc: Autodesk Architectural Desktop 2007 |Company: Autodesk,Inc. |WEB Address: www.autodesk.com
 90
      129
280
     0
281
     0
  0
CLASS
  1
AEC_DISP_PROPS_POLYGON_TRUECOLOUR
  2
AecDbDispPropsPolygonTrueColour
  3
AecBase50|Product Desc: Autodesk Architectural Desktop 2007 |Company: Autodesk,Inc. |WEB Address: www.autodesk.com
 90
      129
280
     0
281
     0
  0
CLASS
  1
AEC_DISP_REP_BDG_ELEVLINE_RCP
  2
AecDbDispRepBdgElevLineRcp
  3
AecArchBase50|Product Desc: Autodesk Architectural Desktop 2007 |Company: Autodesk,Inc. |WEB Address: www.autodesk.com
 90
      129
280
     0
281
     0
  0
CLASS
  1
AEC_DISP_REP_BDG_SECTIONLINE_RCP
  2
AecDbDispRepBdgSectionLineRcp
  3
AecArchBase50|Product Desc: Autodesk Architectural Desktop 2007 |Company: Autodesk,Inc. |WEB Address: www.autodesk.com
 90
      129
280
     0
281
     0
  0
CLASS
  1
AEC_DISP_REP_BDG_SECTION_MODEL
  2
AecDbDispRepBdgSectionModel
  3
AecArchBase50|Product Desc: Autodesk Architectural Desktop 2007 |Company: Autodesk,Inc. |WEB Address: www.autodesk.com
 90
      129
280
     0
281
     0
  0
CLASS
  1
AEC_DISP_REP_DOOR_ELEV
  2
AecDbDispRepDoorElev
  3
AecArchBase50|Product Desc: Autodesk Architectural Desktop 2007 |Company: Autodesk,Inc. |WEB Address: www.autodesk.com
 90
      129
280
     0
281
     0
  0
CLASS
  1
AEC_DISP_REP_DOOR_RCP
  2
AecDbDispRepDoorRcp
  3
AecArchBase50|Product Desc: Autodesk Architectural Desktop 2007 |Company: Autodesk,Inc. |WEB Address: www.autodesk.com
 90
      129
280
     0
281
     0
  0
CLASS
  1
AEC_DISP_REP_DOOR_THRESHOLD_PLAN
  2
AecDbDispRepDoorThresholdPlan
  3
AecArchBase50|Product Desc: Autodesk Architectural Desktop 2007 |Company: Autodesk,Inc. |WEB Address: www.autodesk.com
 90
      129
280
     0
281
     0
  0
CLASS
  1
AEC_DISP_PROPS_DOOR_THRESHOLD_PLAN
  2
AecDbDispPropsDoorThresholdPlan
  3
AecArchBase50|Product Desc: Autodesk Architectural Desktop 2007 |Company: Autodesk,Inc. |WEB Address: www.autodesk.com
 90
      129
280
     0
281
     0
  0
CLASS
  1
AEC_DISP_REP_MASS_ELEM_RCP
  2
AecDbDispRepMassElemRcp
  3
AecArchBase50|Product Desc: Autodesk Architectural Desktop 2007 |Company: Autodesk,Inc. |WEB Address: www.autodesk.com
 90
      129
280
     0
281
     0
  0
CLASS
  1
AEC_DISP_REP_MASS_GROUP_RCP
  2
AecDbDispRepMassGroupRcp
  3
AecArchBase50|Product Desc: Autodesk Architectural Desktop 2007 |Company: Autodesk,Inc. |WEB Address: www.autodesk.com
 90
      129
280
     0
281
     0
  0
CLASS
  1
AEC_DISP_REP_MVBLOCK_REF_RCP
  2
AecDbDispRepMvBlockRefRcp
  3
AecArchBase50|Product Desc: Autodesk Architectural Desktop 2007 |Company: Autodesk,Inc. |WEB Address: www.autodesk.com
 90
      129
280
     0
281
     0
  0
CLASS
  1
AEC_DISP_REP_ROOF_RCP
  2
AecDbDispRepRoofRcp
  3
AecArchBase50|Product Desc: Autodesk Architectural Desktop 2007 |Company: Autodesk,Inc. |WEB Address: www.autodesk.com
 90
      129
280
     0
281
     0
  0
CLASS
  1
AEC_DISP_REP_SPACE_BOUNDARY_DIAGRAM
  2
AecDbDispRepSpaceBoundaryDgrm
  3
AecArchBase50|Product Desc: Autodesk Architectural Desktop 2007 |Company: Autodesk,Inc. |WEB Address: www.autodesk.com
 90
    32897
280
     0
281
     0
  0
CLASS
  1
AEC_DISP_REP_SPACE_RCP
  2
AecDbDispRepSpaceRcp
  3
AecArchBase50|Product Desc: Autodesk Architectural Desktop 2007 |Company: Autodesk,Inc. |WEB Address: www.autodesk.com
 90
      129
280
     0
281
     0
  0
CLASS
  1
AEC_DISP_REP_SPACE_VOLUME
  2
AecDbDispRepSpaceVolume
  3
AecArchBase50|Product Desc: Autodesk Architectural Desktop 2007 |Company: Autodesk,Inc. |WEB Address: www.autodesk.com
 90
      129
280
     0
281
     0
  0
CLASS
  1
AEC_DISP_REP_STAIR_PLAN_OVERLAPPING
  2
AecDbDispRepStairPlanOverlapping
  3
AecArchBase50|Product Desc: Autodesk Architectural Desktop 2007 |Company: Autodesk,Inc. |WEB Address: www.autodesk.com
 90
      129
280
     0
281
     0
  0
CLASS
  1
AEC_DISP_PROPS_STAIR_PLAN_OVERLAPPING
  2
AecDbDispPropsStairPlanOverlapping
  3
AecArchBase50|Product Desc: Autodesk Architectural Desktop 2007 |Company: Autodesk,Inc. |WEB Address: www.autodesk.com
 90
      129
280
     0
281
     0
  0
CLASS
  1
AEC_DISP_REP_STAIR_RCP
  2
AecDbDispRepStairRcp
  3
AecArchBase50|Product Desc: Autodesk Architectural Desktop 2007 |Company: Autodesk,Inc. |WEB Address: www.autodesk.com
 90
      129
280
     0
281
     0
  0
CLASS
  1
AEC_DISP_REP_WALL_RCP
  2
AecDbDispRepWallRcp
  3
AecArchBase50|Product Desc: Autodesk Architectural Desktop 2007 |Company: Autodesk,Inc. |WEB Address: www.autodesk.com
 90
      129
280
     0
281
     0
  0
CLASS
  1
AEC_DISP_REP_WINDOWASSEMBLY_SILL_PLAN
  2
AecDbDispRepWindowAssemblySillPlan
  3
AecArchBase50|Product Desc: Autodesk Architectural Desktop 2007 |Company: Autodesk,Inc. |WEB Address: www.autodesk.com
 90
      129
280
     0
281
     0
  0
CLASS
  1
AEC_DISP_PROPS_WINDOW_ASSEMBLY_SILL_PLAN
  2
AecDbDispPropsWindowAssemblySillPlan
  3
AecArchBase50|Product Desc: Autodesk Architectural Desktop 2007 |Company: Autodesk,Inc. |WEB Address: www.autodesk.com
 90
      129
280
     0
281
     0
  0
CLASS
  1
AEC_DISP_REP_WINDOW_ELEV
  2
AecDbDispRepWindowElev
  3
AecArchBase50|Product Desc: Autodesk Architectural Desktop 2007 |Company: Autodesk,Inc. |WEB Address: www.autodesk.com
 90
      129
280
     0
281
     0
  0
CLASS
  1
AEC_DISP_REP_WINDOW_RCP
  2
AecDbDispRepWindowRcp
  3
AecArchBase50|Product Desc: Autodesk Architectural Desktop 2007 |Company: Autodesk,Inc. |WEB Address: www.autodesk.com
 90
      129
280
     0
281
     0
  0
CLASS
  1
AEC_DISP_REP_WINDOW_SILL_PLAN
  2
AecDbDispRepWindowSillPlan
  3
AecArchBase50|Product Desc: Autodesk Architectural Desktop 2007 |Company: Autodesk,Inc. |WEB Address: www.autodesk.com
 90
      129
280
     0
281
     0
  0
CLASS
  1
AEC_DISP_PROPS_WINDOW_SILL_PLAN
  2
AecDbDispPropsWindowSillPlan
  3
AecArchBase50|Product Desc: Autodesk Architectural Desktop 2007 |Company: Autodesk,Inc. |WEB Address: www.autodesk.com
 90
      129
280
     0
281
     0
  0
CLASS
  1
AEC_DISP_REP_ANCHOR_BUB_TO_GRID_RCP
  2
AecDbDispRepAnchorBubToGridRcp
  3
AecStructureBase50|Product Desc: Autodesk Architectural Desktop 2007 |Company: Autodesk,Inc. |WEB Address: www.autodesk.com
 90
      129
280
     0
281
     0
  0
CLASS
  1
AEC_DISP_REP_COLUMN_GRID_RCP
  2
AecDbDispRepColumnGridRcp
  3
AecStructureBase50|Product Desc: Autodesk Architectural Desktop 2007 |Company: Autodesk,Inc. |WEB Address: www.autodesk.com
 90
      129
280
     0
281
     0
  0
CLASS
  1
AECS_DISP_REP_MEMBER_ELEVATION_DESIGN
  2
AecsDbDispRepMemberElevationDesign
  3
AecStructureBase50|Product Desc: Autodesk Architectural Desktop 2007 |Company: Autodesk,Inc. |WEB Address: www.autodesk.com
 90
      129
280
     0
281
     0
  0
CLASS
  1
AECS_DISP_PROPS_MEMBER_PROJECTED
  2
AecsDbDispPropsMemberProjected
  3
AecStructureBase50|Product Desc: Autodesk Architectural Desktop 2007 |Company: Autodesk,Inc. |WEB Address: www.autodesk.com
 90
      129
280
     0
281
     0
  0
CLASS
  1
AECS_DISP_REP_MEMBER_ELEVATION_DETAIL
  2
AecsDbDispRepMemberElevationDetail
  3
AecStructureBase50|Product Desc: Autodesk Architectural Desktop 2007 |Company: Autodesk,Inc. |WEB Address: www.autodesk.com
 90
      129
280
     0
281
     0
  0
CLASS
  1
AECS_DISP_REP_MEMBER_MODEL_DETAIL
  2
AecsDbDispRepMemberModelDetail
  3
AecStructureBase50|Product Desc: Autodesk Architectural Desktop 2007 |Company: Autodesk,Inc. |WEB Address: www.autodesk.com
 90
      129
280
     0
281
     0
  0
CLASS
  1
AECS_DISP_REP_MEMBER_PLAN_DETAIL
  2
AecsDbDispRepMemberPlanDetail
  3
AecStructureBase50|Product Desc: Autodesk Architectural Desktop 2007 |Company: Autodesk,Inc. |WEB Address: www.autodesk.com
 90
      129
280
     0
281
     0
  0
CLASS
  1
AECS_DISP_REP_MEMBER_PLAN_SKETCH
  2
AecsDbDispRepMemberPlanSketch
  3
AecStructureBase50|Product Desc: Autodesk Architectural Desktop 2007 |Company: Autodesk,Inc. |WEB Address: www.autodesk.com
 90
      129
280
     0
281
     0
  0
CLASS
  1
AECS_DISP_PROPS_MEMBER_PLAN_SKETCH
  2
AecsDbDispPropsMemberPlanSketch
  3
AecStructureBase50|Product Desc: Autodesk Architectural Desktop 2007 |Company: Autodesk,Inc. |WEB Address: www.autodesk.com
 90
      129
280
     0
281
     0
  0
CLASS
  1
AEC_AECDBDISPREPAREA100
  2
AecDbDispRepArea100
  3
AecArchDACHBase50|Product Desc: Autodesk Architectural Desktop 2007 |Company: Autodesk,Inc. |WEB Address: www.autodesk.com
 90
    32897
280
     0
281
     0
  0
CLASS
  1
AEC_AECDBDISPREPAREAGROUP100
  2
AecDbDispRepAreaGroup100
  3
AecArchDACHBase50|Product Desc: Autodesk Architectural Desktop 2007 |Company: Autodesk,Inc. |WEB Address: www.autodesk.com
 90
    32897
280
     0
281
     0
  0
CLASS
  1
AEC_AECDBDISPREPBDGELEVLINEPLAN100
  2
AecDbDispRepBdgElevLinePlan100
  3
AecArchDACHBase50|Product Desc: Autodesk Architectural Desktop 2007 |Company: Autodesk,Inc. |WEB Address: www.autodesk.com
 90
      129
280
     0
281
     0
  0
CLASS
  1
AEC_AECDBDISPREPBDGSECTIONLINEPLAN100
  2
AecDbDispRepBdgSectionLinePlan100
  3
AecArchDACHBase50|Product Desc: Autodesk Architectural Desktop 2007 |Company: Autodesk,Inc. |WEB Address: www.autodesk.com
 90
      129
280
     0
281
     0
  0
CLASS
  1
AEC_AECDBDISPREPCEILINGGRIDPLAN100
  2
AecDbDispRepCeilingGridPlan100
  3
AecArchDACHBase50|Product Desc: Autodesk Architectural Desktop 2007 |Company: Autodesk,Inc. |WEB Address: www.autodesk.com
 90
      129
280
     0
281
     0
  0
CLASS
  1
AEC_AECDBDISPREPCOLUMNGRIDPLAN100
  2
AecDbDispRepColumnGridPlan100
  3
AecArchDACHBase50|Product Desc: Autodesk Architectural Desktop 2007 |Company: Autodesk,Inc. |WEB Address: www.autodesk.com
 90
      129
280
     0
281
     0
  0
CLASS
  1
AEC_AECDBDISPREPCURTAINWALLLAYOUTPLAN100
  2
AecDbDispRepCurtainWallLayoutPlan100
  3
AecArchDACHBase50|Product Desc: Autodesk Architectural Desktop 2007 |Company: Autodesk,Inc. |WEB Address: www.autodesk.com
 90
      129
280
     0
281
     0
  0
CLASS
  1
AEC_AECDBDISPREPCURTAINWALLUNITPLAN100
  2
AecDbDispRepCurtainWallUnitPlan100
  3
AecArchDACHBase50|Product Desc: Autodesk Architectural Desktop 2007 |Company: Autodesk,Inc. |WEB Address: www.autodesk.com
 90
      129
280
     0
281
     0
  0
CLASS
  1
AEC_AECDBDISPREPMVBLOCKREFPLAN100
  2
AecDbDispRepMvBlockRefPlan100
  3
AecArchDACHBase50|Product Desc: Autodesk Architectural Desktop 2007 |Company: Autodesk,Inc. |WEB Address: www.autodesk.com
 90
      129
280
     0
281
     0
  0
CLASS
  1
AEC_AECDBDISPREPROOFPLAN100
  2
AecDbDispRepRoofPlan100
  3
AecArchDACHBase50|Product Desc: Autodesk Architectural Desktop 2007 |Company: Autodesk,Inc. |WEB Address: www.autodesk.com
 90
      129
280
     0
281
     0
  0
CLASS
  1
AEC_AECDBDISPREPROOFSLABPLAN100
  2
AecDbDispRepRoofSlabPlan100
  3
AecArchDACHBase50|Product Desc: Autodesk Architectural Desktop 2007 |Company: Autodesk,Inc. |WEB Address: www.autodesk.com
 90
      129
280
     0
281
     0
  0
CLASS
  1
AEC_AECDBDISPREPSLABPLAN100
  2
AecDbDispRepSlabPlan100
  3
AecArchDACHBase50|Product Desc: Autodesk Architectural Desktop 2007 |Company: Autodesk,Inc. |WEB Address: www.autodesk.com
 90
      129
280
     0
281
     0
  0
CLASS
  1
AEC_AECDBDISPREPSPACEBOUNDARYPLAN100
  2
AecDbDispRepSpaceBoundaryPlan100
  3
AecArchDACHBase50|Product Desc: Autodesk Architectural Desktop 2007 |Company: Autodesk,Inc. |WEB Address: www.autodesk.com
 90
    32897
280
     0
281
     0
  0
CLASS
  1
AEC_AECDBDISPREPSPACEPLAN100
  2
AecDbDispRepSpacePlan100
  3
AecArchDACHBase50|Product Desc: Autodesk Architectural Desktop 2007 |Company: Autodesk,Inc. |WEB Address: www.autodesk.com
 90
      129
280
     0
281
     0
  0
CLASS
  1
AEC_AECDBDISPREPWALLPLAN100
  2
AecDbDispRepWallPlan100
  3
AecArchDACHBase50|Product Desc: Autodesk Architectural Desktop 2007 |Company: Autodesk,Inc. |WEB Address: www.autodesk.com
 90
      129
280
     0
281
     0
  0
CLASS
  1
AEC_AECDBDISPREPAREA50
  2
AecDbDispRepArea50
  3
AecArchDACHBase50|Product Desc: Autodesk Architectural Desktop 2007 |Company: Autodesk,Inc. |WEB Address: www.autodesk.com
 90
    32897
280
     0
281
     0
  0
CLASS
  1
AEC_AECDBDISPREPAREAGROUP50
  2
AecDbDispRepAreaGroup50
  3
AecArchDACHBase50|Product Desc: Autodesk Architectural Desktop 2007 |Company: Autodesk,Inc. |WEB Address: www.autodesk.com
 90
    32897
280
     0
281
     0
  0
CLASS
  1
AEC_AECDBDISPREPBDGELEVLINEPLAN50
  2
AecDbDispRepBdgElevLinePlan50
  3
AecArchDACHBase50|Product Desc: Autodesk Architectural Desktop 2007 |Company: Autodesk,Inc. |WEB Address: www.autodesk.com
 90
      129
280
     0
281
     0
  0
CLASS
  1
AEC_AECDBDISPREPBDGSECTIONLINEPLAN50
  2
AecDbDispRepBdgSectionLinePlan50
  3
AecArchDACHBase50|Product Desc: Autodesk Architectural Desktop 2007 |Company: Autodesk,Inc. |WEB Address: www.autodesk.com
 90
      129
280
     0
281
     0
  0
CLASS
  1
AEC_AECDBDISPREPCEILINGGRIDPLAN50
  2
AecDbDispRepCeilingGridPlan50
  3
AecArchDACHBase50|Product Desc: Autodesk Architectural Desktop 2007 |Company: Autodesk,Inc. |WEB Address: www.autodesk.com
 90
      129
280
     0
281
     0
  0
CLASS
  1
AEC_AECDBDISPREPCOLUMNGRIDPLAN50
  2
AecDbDispRepColumnGridPlan50
  3
AecArchDACHBase50|Product Desc: Autodesk Architectural Desktop 2007 |Company: Autodesk,Inc. |WEB Address: www.autodesk.com
 90
      129
280
     0
281
     0
  0
CLASS
  1
AEC_AECDBDISPREPCURTAINWALLLAYOUTPLAN50
  2
AecDbDispRepCurtainWallLayoutPlan50
  3
AecArchDACHBase50|Product Desc: Autodesk Architectural Desktop 2007 |Company: Autodesk,Inc. |WEB Address: www.autodesk.com
 90
      129
280
     0
281
     0
  0
CLASS
  1
AEC_AECDBDISPREPCURTAINWALLUNITPLAN50
  2
AecDbDispRepCurtainWallUnitPlan50
  3
AecArchDACHBase50|Product Desc: Autodesk Architectural Desktop 2007 |Company: Autodesk,Inc. |WEB Address: www.autodesk.com
 90
      129
280
     0
281
     0
  0
CLASS
  1
AEC_AECDBDISPREPMVBLOCKREFPLAN50
  2
AecDbDispRepMvBlockRefPlan50
  3
AecArchDACHBase50|Product Desc: Autodesk Architectural Desktop 2007 |Company: Autodesk,Inc. |WEB Address: www.autodesk.com
 90
      129
280
     0
281
     0
  0
CLASS
  1
AEC_AECDBDISPREPROOFPLAN50
  2
AecDbDispRepRoofPlan50
  3
AecArchDACHBase50|Product Desc: Autodesk Architectural Desktop 2007 |Company: Autodesk,Inc. |WEB Address: www.autodesk.com
 90
      129
280
     0
281
     0
  0
CLASS
  1
AEC_AECDBDISPREPROOFSLABPLAN50
  2
AecDbDispRepRoofSlabPlan50
  3
AecArchDACHBase50|Product Desc: Autodesk Architectural Desktop 2007 |Company: Autodesk,Inc. |WEB Address: www.autodesk.com
 90
      129
280
     0
281
     0
  0
CLASS
  1
AEC_AECDBDISPREPSLABPLAN50
  2
AecDbDispRepSlabPlan50
  3
AecArchDACHBase50|Product Desc: Autodesk Architectural Desktop 2007 |Company: Autodesk,Inc. |WEB Address: www.autodesk.com
 90
      129
280
     0
281
     0
  0
CLASS
  1
AEC_AECDBDISPREPSPACEBOUNDARYPLAN50
  2
AecDbDispRepSpaceBoundaryPlan50
  3
AecArchDACHBase50|Product Desc: Autodesk Architectural Desktop 2007 |Company: Autodesk,Inc. |WEB Address: www.autodesk.com
 90
    32897
280
     0
281
     0
  0
CLASS
  1
AEC_AECDBDISPREPSPACEPLAN50
  2
AecDbDispRepSpacePlan50
  3
AecArchDACHBase50|Product Desc: Autodesk Architectural Desktop 2007 |Company: Autodesk,Inc. |WEB Address: www.autodesk.com
 90
      129
280
     0
281
     0
  0
CLASS
  1
AEC_AECDBDISPREPWALLPLAN50
  2
AecDbDispRepWallPlan50
  3
AecArchDACHBase50|Product Desc: Autodesk Architectural Desktop 2007 |Company: Autodesk,Inc. |WEB Address: www.autodesk.com
 90
      129
280
     0
281
     0
  0
CLASS
  1
AEC_AECDBDISPREPWINDOWASSEMBLYPLAN50
  2
AecDbDispRepWindowAssemblyPlan50
  3
AecArchDACHBase50|Product Desc: Autodesk Architectural Desktop 2007 |Company: Autodesk,Inc. |WEB Address: www.autodesk.com
 90
      129
280
     0
281
     0
  0
CLASS
  1
AEC_DB_DISP_REP_DIM_GROUP_PLAN100
  2
AecDbDispRepDimGroupPlan100
  3
AecArchDACHBase50|Product Desc: Autodesk Architectural Desktop 2007 |Company: Autodesk,Inc. |WEB Address: www.autodesk.com
 90
      129
280
     0
281
     0
  0
CLASS
  1
AEC_DB_DISP_REP_DIM_GROUP_PLAN50
  2
AecDbDispRepDimGroupPlan50
  3
AecArchDACHBase50|Product Desc: Autodesk Architectural Desktop 2007 |Company: Autodesk,Inc. |WEB Address: www.autodesk.com
 90
      129
280
     0
281
     0
  0
CLASS
  1
AEC_DISP_REP_DOOR_PLAN_50
  2
AecDbDispRepDoorPlan50
  3
AecArchDACHBase50|Product Desc: Autodesk Architectural Desktop 2007 |Company: Autodesk,Inc. |WEB Address: www.autodesk.com
 90
      129
280
     0
281
     0
  0
CLASS
  1
AEC_DISP_PROPS_DOOR_PLAN_50
  2
AecDbDispPropsDoorPlan50
  3
AecArchDACHBase50|Product Desc: Autodesk Architectural Desktop 2007 |Company: Autodesk,Inc. |WEB Address: www.autodesk.com
 90
      129
280
     0
281
     0
  0
CLASS
  1
AEC_DISP_REP_DOOR_PLAN_HEKTO
  2
AecDbDispRepDoorPlanHekto
  3
AecArchDACHBase50|Product Desc: Autodesk Architectural Desktop 2007 |Company: Autodesk,Inc. |WEB Address: www.autodesk.com
 90
      129
280
     0
281
     0
  0
CLASS
  1
AEC_DISP_PROPS_DOOR_PLAN_100
  2
AecDbDispPropsDoorPlan100
  3
AecArchDACHBase50|Product Desc: Autodesk Architectural Desktop 2007 |Company: Autodesk,Inc. |WEB Address: www.autodesk.com
 90
      129
280
     0
281
     0
  0
CLASS
  1
AEC_DISP_REP_DOOR_THRESHOLD_SYMBOL_PLAN
  2
AecDbDispRepDoorThresholdSymbolPlan
  3
AecArchDACHBase50|Product Desc: Autodesk Architectural Desktop 2007 |Company: Autodesk,Inc. |WEB Address: www.autodesk.com
 90
      129
280
     0
281
     0
  0
CLASS
  1
AEC_DISP_PROPS_DOOR_THRESHOLD_SYMBOL_PLAN
  2
AecDbDispPropsDoorThresholdSymbolPlan
  3
AecArchDACHBase50|Product Desc: Autodesk Architectural Desktop 2007 |Company: Autodesk,Inc. |WEB Address: www.autodesk.com
 90
      129
280
     0
281
     0
  0
CLASS
  1
AEC_DISPREPAECDBDISPREPMASSELEMPLAN100
  2
AecDbDispRepMassElemPlan100
  3
AecArchDACHBase50|Product Desc: Autodesk Architectural Desktop 2007 |Company: Autodesk,Inc. |WEB Address: www.autodesk.com
 90
      129
280
     0
281
     0
  0
CLASS
  1
AEC_DISPROPSMASSELEMPLANCOMMON
  2
AecDbDispPropsMassElemPlanCommon
  3
AecArchDACHBase50|Product Desc: Autodesk Architectural Desktop 2007 |Company: Autodesk,Inc. |WEB Address: www.autodesk.com
 90
      129
280
     0
281
     0
  0
CLASS
  1
AEC_DISPREPAECDBDISPREPMASSELEMPLAN50
  2
AecDbDispRepMassElemPlan50
  3
AecArchDACHBase50|Product Desc: Autodesk Architectural Desktop 2007 |Company: Autodesk,Inc. |WEB Address: www.autodesk.com
 90
      129
280
     0
281
     0
  0
CLASS
  1
AEC_DISPREPAECDBDISPREPMASSGROUPPLAN100
  2
AecDbDispRepMassGroupPlan100
  3
AecArchDACHBase50|Product Desc: Autodesk Architectural Desktop 2007 |Company: Autodesk,Inc. |WEB Address: www.autodesk.com
 90
      129
280
     0
281
     0
  0
CLASS
  1
AEC_DISPROPSMASSGROUPPLANCOMMON
  2
AecDbDispPropsMassGroupPlanCommon
  3
AecArchDACHBase50|Product Desc: Autodesk Architectural Desktop 2007 |Company: Autodesk,Inc. |WEB Address: www.autodesk.com
 90
      129
280
     0
281
     0
  0
CLASS
  1
AEC_DISPREPAECDBDISPREPMASSGROUPPLAN50
  2
AecDbDispRepMassGroupPlan50
  3
AecArchDACHBase50|Product Desc: Autodesk Architectural Desktop 2007 |Company: Autodesk,Inc. |WEB Address: www.autodesk.com
 90
      129
280
     0
281
     0
  0
CLASS
  1
AEC_DISPREPAECDBDISPREPOPENINGPLAN100
  2
AecDbDispRepOpeningPlan100
  3
AecArchDACHBase50|Product Desc: Autodesk Architectural Desktop 2007 |Company: Autodesk,Inc. |WEB Address: www.autodesk.com
 90
      129
280
     0
281
     0
  0
CLASS
  1
AEC_DISPROPSOPENINGPLANCOMMONHATCHED
  2
AecDbDispPropsOpeningPlanCommonHatched
  3
AecArchDACHBase50|Product Desc: Autodesk Architectural Desktop 2007 |Company: Autodesk,Inc. |WEB Address: www.autodesk.com
 90
      129
280
     0
281
     0
  0
CLASS
  1
AEC_DISPREPAECDBDISPREPOPENINGPLAN50
  2
AecDbDispRepOpeningPlan50
  3
AecArchDACHBase50|Product Desc: Autodesk Architectural Desktop 2007 |Company: Autodesk,Inc. |WEB Address: www.autodesk.com
 90
      129
280
     0
281
     0
  0
CLASS
  1
AEC_DISPREPAECDBDISPREPOPENINGPLANREFLECTED
  2
AecDbDispRepOpeningPlanReflected
  3
AecArchDACHBase50|Product Desc: Autodesk Architectural Desktop 2007 |Company: Autodesk,Inc. |WEB Address: www.autodesk.com
 90
      129
280
     0
281
     0
  0
CLASS
  1
AEC_DISPROPSOPENINGPLANCOMMON
  2
AecDbDispPropsOpeningPlanCommon
  3
AecArchDACHBase50|Product Desc: Autodesk Architectural Desktop 2007 |Company: Autodesk,Inc. |WEB Address: www.autodesk.com
 90
      129
280
     0
281
     0
  0
CLASS
  1
AEC_DISPREPAECDBDISPREPOPENINGSILLPLAN
  2
AecDbDispRepOpeningSillPlan
  3
AecArchDACHBase50|Product Desc: Autodesk Architectural Desktop 2007 |Company: Autodesk,Inc. |WEB Address: www.autodesk.com
 90
      129
280
     0
281
     0
  0
CLASS
  1
AEC_DISPROPSOPENINGSILLPLAN
  2
AecDbDispPropsOpeningSillPlan
  3
AecArchDACHBase50|Product Desc: Autodesk Architectural Desktop 2007 |Company: Autodesk,Inc. |WEB Address: www.autodesk.com
 90
      129
280
     0
281
     0
  0
CLASS
  1
AEC_DISP_REP_RAILING_PLAN_100
  2
AecDbDispRepRailingPlan100
  3
AecArchDACHBase50|Product Desc: Autodesk Architectural Desktop 2007 |Company: Autodesk,Inc. |WEB Address: www.autodesk.com
 90
      129
280
     0
281
     0
  0
CLASS
  1
AEC_DISP_ROPS_RAILING_PLAN_100
  2
AecDbDispPropsRailingPlan100
  3
AecArchDACHBase50|Product Desc: Autodesk Architectural Desktop 2007 |Company: Autodesk,Inc. |WEB Address: www.autodesk.com
 90
      129
280
     0
281
     0
  0
CLASS
  1
AEC_DISP_REP_RAILING_PLAN_50
  2
AecDbDispRepRailingPlan50
  3
AecArchDACHBase50|Product Desc: Autodesk Architectural Desktop 2007 |Company: Autodesk,Inc. |WEB Address: www.autodesk.com
 90
      129
280
     0
281
     0
  0
CLASS
  1
AEC_DISP_ROPS_RAILING_PLAN_50
  2
AecDbDispPropsRailingPlan50
  3
AecArchDACHBase50|Product Desc: Autodesk Architectural Desktop 2007 |Company: Autodesk,Inc. |WEB Address: www.autodesk.com
 90
      129
280
     0
281
     0
  0
CLASS
  1
AEC_DISP_REP_STAIR_PLAN_100
  2
AecDbDispRepStairPlan100
  3
AecArchDACHBase50|Product Desc: Autodesk Architectural Desktop 2007 |Company: Autodesk,Inc. |WEB Address: www.autodesk.com
 90
      129
280
     0
281
     0
  0
CLASS
  1
AEC_DISP_ROPS_STAIR_PLAN_100
  2
AecDbDispPropsStairPlan100
  3
AecArchDACHBase50|Product Desc: Autodesk Architectural Desktop 2007 |Company: Autodesk,Inc. |WEB Address: www.autodesk.com
 90
      129
280
     0
281
     0
  0
CLASS
  1
AEC_DISP_REP_STAIR_PLAN_50
  2
AecDbDispRepStairPlan50
  3
AecArchDACHBase50|Product Desc: Autodesk Architectural Desktop 2007 |Company: Autodesk,Inc. |WEB Address: www.autodesk.com
 90
      129
280
     0
281
     0
  0
CLASS
  1
AEC_DISP_ROPS_STAIR_PLAN_50
  2
AecDbDispPropsStairPlan50
  3
AecArchDACHBase50|Product Desc: Autodesk Architectural Desktop 2007 |Company: Autodesk,Inc. |WEB Address: www.autodesk.com
 90
      129
280
     0
281
     0
  0
CLASS
  1
AEC_DISP_REP_WINDOW_PLAN_100
  2
AecDbDispRepWindowPlan100
  3
AecArchDACHBase50|Product Desc: Autodesk Architectural Desktop 2007 |Company: Autodesk,Inc. |WEB Address: www.autodesk.com
 90
      129
280
     0
281
     0
  0
CLASS
  1
AEC_DISP_PROPS_WINDOW_PLAN_100
  2
AecDbDispPropsWindowPlan100
  3
AecArchDACHBase50|Product Desc: Autodesk Architectural Desktop 2007 |Company: Autodesk,Inc. |WEB Address: www.autodesk.com
 90
      129
280
     0
281
     0
  0
CLASS
  1
AEC_DISP_REP_WINDOW_PLAN_50
  2
AecDbDispRepWindowPlan50
  3
AecArchDACHBase50|Product Desc: Autodesk Architectural Desktop 2007 |Company: Autodesk,Inc. |WEB Address: www.autodesk.com
 90
      129
280
     0
281
     0
  0
CLASS
  1
AEC_DISP_PROPS_WINDOW_PLAN_50
  2
AecDbDispPropsWindowPlan50
  3
AecArchDACHBase50|Product Desc: Autodesk Architectural Desktop 2007 |Company: Autodesk,Inc. |WEB Address: www.autodesk.com
 90
      129
280
     0
281
     0
  0
CLASS
  1
BINRECORD
  2
AcAecBinRecord
  3
AecBase50|Product Desc: Autodesk Architectural Desktop 2007 |Company: Autodesk,Inc. |WEB Address: www.autodesk.com
 90
    32897
280
     0
281
     0
  0
CLASS
  1
SPATIAL_FILTER
  2
AcDbSpatialFilter
  3
ObjectDBX Classes
 90
    32768
280
     0
281
     0
  0
CLASS
  1
AEC_VARS_STRUCTUREBASE
  2
AecsDbVarsStructureBase
  3
AecStructureBase50|Product Desc: Autodesk Architectural Desktop 2007 |Company: Autodesk,Inc. |WEB Address: www.autodesk.com
 90
    32897
280
     0
281
     0
  0
CLASS
  1
DIMASSOC
  2
AcDbDimAssoc
  3
"AcDbDimAssoc|Product Desc:     AcDim ARX App For Dimension|Company:          Autodesk, Inc.|WEB Address:      www.autodesk.com"
 90
    32768
280
     0
281
     0
  0
CLASS
  1
OBJECT_PTR
  2
CAseDLPNTableRecord
  3
ASE-LPNTableRecord
 90
        1
280
     0
281
     0
  0
CLASS
  1
MATERIAL
  2
AcDbMaterial
  3
ObjectDBX Classes
 90
     1153
280
     0
281
     0
  0
CLASS
  1
VISUALSTYLE
  2
AcDbVisualStyle
  3
ObjectDBX Classes
 90
     4095
280
     0
281
     0
  0
CLASS
  1
TABLESTYLE
  2
AcDbTableStyle
  3
ObjectDBX Classes
 90
     4095
280
     0
281
     0
  0
CLASS
  1
SCALE
  2
AcDbScale
  3
ObjectDBX Classes
 90
     1153
280
     0
281
     0
  0
CLASS
  1
MLEADERSTYLE
  2
AcDbMLeaderStyle
  3
ACDB_MLEADERSTYLE_CLASS
 90
     4095
280
     0
281
     0
  0
CLASS
  1
NPOCOLLECTION
  2
AcDbImpNonPersistentObjectsCollection
  3
ObjectDBX Classes
 90
     1153
280
     0
281
     0
  0
CLASS
  1
AEC_DISP_REP_SPACE_DECOMPOSED
  2
AecDbDispRepSpaceDecomposed
  3
AecArchBase50|Product Desc: Autodesk Architectural Desktop 2007 |Company: Autodesk,Inc. |WEB Address: www.autodesk.com
 90
      129
280
     0
281
     0
  0
CLASS
  1
AEC_DISP_PROPS_SPACE_DECOMPOSED
  2
AecDbDispPropsSpaceDecomposed
  3
AecArchBase50|Product Desc: Autodesk Architectural Desktop 2007 |Company: Autodesk,Inc. |WEB Address: www.autodesk.com
 90
      129
280
     0
281
     0
  0
CLASS
  1
AEC_DISP_REP_DISPLAYTHEME
  2
AecDbDispRepDisplayTheme
  3
AecBase50|Product Desc: Autodesk Architectural Desktop 2007 |Company: Autodesk,Inc. |WEB Address: www.autodesk.com
 90
      129
280
     0
281
     0
  0
CLASS
  1
AEC_DISP_PROPS_DISPLAYTHEME
  2
AecDbDispPropsDisplayTheme
  3
AecBase50|Product Desc: Autodesk Architectural Desktop 2007 |Company: Autodesk,Inc. |WEB Address: www.autodesk.com
 90
      129
280
     0
281
     0
  0
CLASS
  1
AEC_DISP_REP_ANCHOR_EXT_TAG_TO_ENT
  2
AecDbDispRepAnchorExtendedTagToEnt
  3
AecScheduleData50|Product Desc: Autodesk Architectural Desktop 2007 |Company: Autodesk,Inc. |WEB Address: www.autodesk.com
 90
      129
280
     0
281
     0
  0
CLASS
  1
AEC_DISP_REP_ZONE
  2
AecDbDispRepZone
  3
AecArchBase50|Product Desc: Autodesk Architectural Desktop 2007 |Company: Autodesk,Inc. |WEB Address: www.autodesk.com
 90
      129
280
     0
281
     0
  0
CLASS
  1
AEC_DISP_PROPS_ZONE
  2
AecDbDispPropsZone
  3
AecArchBase50|Product Desc: Autodesk Architectural Desktop 2007 |Company: Autodesk,Inc. |WEB Address: www.autodesk.com
 90
      129
280
     0
281
     0
  0
CLASS
  1
AEC_AECDBDISPREPZONE100
  2
AecDbDispRepZonePlan100
  3
AecArchDACHBase50|Product Desc: Autodesk Architectural Desktop 2007 |Company: Autodesk,Inc. |WEB Address: www.autodesk.com
 90
      129
280
     0
281
     0
  0
CLASS
  1
AEC_AECDBDISPREPZONE50
  2
AecDbDispRepZonePlan50
  3
AecArchDACHBase50|Product Desc: Autodesk Architectural Desktop 2007 |Company: Autodesk,Inc. |WEB Address: www.autodesk.com
 90
      129
280
     0
281
     0
  0
CLASS
  1
CELLSTYLEMAP
  2
AcDbCellStyleMap
  3
ObjectDBX Classes
 90
     1152
280
     0
281
     0
  0
ENDSEC
  0
SECTION
  2
TABLES
  0
TABLE
  2
VPORT
  5
1C
330
0
100
AcDbSymbolTable
 70
     1
  0
VPORT
  5
29D0
330
1C
100
AcDbSymbolTableRecord
100
AcDbViewportTableRecord
  2
*Active
 70
     0
 10
0.0
 20
0.0
 11
1.0
 21
1.0
 12
208834.7438105397
 22
129251.9506033992
 13
0.0
 23
0.0
 14
10.0
 24
10.0
 15
10.0
 25
10.0
 16
0.0
 26
0.0
 36
1.0
 17
0.0
 27
0.0
 37
0.0
 40
26670.52857856089
 41
1.561333333333333
 42
50.0
 43
0.0
 44
0.0
 50
0.0
 51
0.0
 71
     0
 72
  1000
 73
     1
 74
     1
 75
     0
 76
     0
 77
     0
 78
     0
281
     0
 65
     1
110
0.0
120
0.0
130
0.0
111
1.0
121
0.0
131
0.0
112
0.0
122
1.0
132
0.0
 79
     0
146
0.0
  0
ENDTAB
  0
TABLE
  2
LTYPE
  5
17
330
0
100
AcDbSymbolTable
 70
     6
  0
LTYPE
  5
18
330
17
100
AcDbSymbolTableRecord
100
AcDbLinetypeTableRecord
  2
ByBlock
 70
     0
  3

 72
    65
 73
     0
 40
0.0
  0
LTYPE
  5
19
330
17
100
AcDbSymbolTableRecord
100
AcDbLinetypeTableRecord
  2
ByLayer
 70
     0
  3

 72
    65
 73
     0
 40
0.0
  0
LTYPE
  5
8
330
17
100
AcDbSymbolTableRecord
100
AcDbLinetypeTableRecord
  2
Continuous
 70
     0
  3
Solid line
 72
    65
 73
     0
 40
0.0
  0
LTYPE
  5
158
330
17
100
AcDbSymbolTableRecord
100
AcDbLinetypeTableRecord
  2
HIDDEN
 70
     0
  3
Hidden __ __ __ __ __ __ __ __ __ __ __ __ __ _
 72
    65
 73
     2
 40
0.375
 49
0.25
 74
     0
 49
-0.125
 74
     0
  0
ENDTAB
  0
TABLE
  2
LAYER
  5
11
102
{ACAD_XDICTIONARY
360
12
102
}
330
0
100
AcDbSymbolTable
 70
    32
  0
LAYER
  5
4
102
{ACAD_XDICTIONARY
360
2B5F
102
}
330
11
100
AcDbSymbolTableRecord
100
AcDbLayerTableRecord
  2
0
 70
     0
 62
     7
  6
Continuous
370
    -3
390
5
1001
RAK
1000
{ACET-LAYISO
1070
     0
1070
     7
1000
Continuous
1071
       -3
1071
        1
1005
5
1000
ACET-LAYISO}
  0
LAYER
  5
65
330
11
100
AcDbSymbolTableRecord
100
AcDbLayerTableRecord
  2
DEFPOINTS
 70
     0
 62
     7
  6
Continuous
290
     0
370
    -3
390
5
1001
RAK
1000
{ACET-LAYISO
1070
     0
1070
     7
1000
Continuous
1071
       -3
1071
        0
1005
5
1000
ACET-LAYISO}
  0
LAYER
  5
15E
102
{ACAD_XDICTIONARY
360
2B67
102
}
330
11
100
AcDbSymbolTableRecord
100
AcDbLayerTableRecord
  2
RAMKI-A4
 70
     0
 62
     2
  6
Continuous
290
     0
370
    -3
390
5
1001
RAK
1000
{ACET-LAYISO
1070
     0
1070
     2
1000
Continuous
1071
       -3
1071
        0
1005
5
1000
ACET-LAYISO}
  0
LAYER
  5
143
102
{ACAD_XDICTIONARY
360
2B6B
102
}
330
11
100
AcDbSymbolTableRecord
100
AcDbLayerTableRecord
  2
NAPISY
 70
     0
 62
   140
  6
Continuous
370
    -3
390
5
1001
RAK
1000
{ACET-LAYISO
1070
     0
1070
   140
1000
Continuous
1071
       -3
1071
        1
1005
5
1000
ACET-LAYISO}
  0
LAYER
  5
5E2
102
{ACAD_XDICTIONARY
360
2B83
102
}
330
11
100
AcDbSymbolTableRecord
100
AcDbLayerTableRecord
  2
TEREN$0$A-MassElement-G
 70
     0
 62
   210
  6
Continuous
370
     9
390
5
1001
AcAecLayerStandard
1000
BS1192 - Descriptive
1001
RAK
1000
{ACET-LAYISO
1070
     0
1070
   210
1000
Continuous
1071
        9
1071
        1
1005
5
1000
ACET-LAYISO}
  0
LAYER
  5
2250
102
{ACAD_XDICTIONARY
360
2B87
102
}
330
11
100
AcDbSymbolTableRecord
100
AcDbLayerTableRecord
  2
Rodo-teren$0$S-FloorSlab-G
 70
     0
 62
   162
  6
Continuous
370
    -3
390
5
1001
AcAecLayerStandard
1000
1m1_ARCHON
1001
RAK
1000
{ACET-LAYISO
1070
     0
1070
   162
1000
Continuous
1071
       -3
1071
        1
1005
5
1000
ACET-LAYISO}
  0
LAYER
  5
2541
102
{ACAD_XDICTIONARY
360
2B95
102
}
330
11
100
AcDbSymbolTableRecord
100
AcDbLayerTableRecord
  2
-hatch
 70
     0
 62
   134
  6
Continuous
370
     5
390
5
1001
RAK
1000
{ACET-LAYISO
1070
     0
1070
   134
1000
Continuous
1071
        5
1071
        1
1005
5
1000
ACET-LAYISO}
  0
LAYER
  5
2C20
102
{ACAD_XDICTIONARY
360
2C21
102
}
330
11
100
AcDbSymbolTableRecord
100
AcDbLayerTableRecord
  2
0Hatch
 70
     0
 62
   122
  6
Continuous
370
     5
390
5
  0
ENDTAB
  0
TABLE
  2
STYLE
  5
14
330
0
100
AcDbSymbolTable
 70
    10
  0
STYLE
  5
15
330
14
100
AcDbSymbolTableRecord
100
AcDbTextStyleTableRecord
  2
Standard
 70
     0
 40
0.0
 41
1.0
 50
0.0
 71
     0
 42
2.5
  3
txt
  4

  0
STYLE
  5
22
330
14
100
AcDbSymbolTableRecord
100
AcDbTextStyleTableRecord
  2
ROMANS
 70
     0
 40
0.0
 41
0.9
 50
0.0
 71
     0
 42
20.0
  3
romans.shx
  4

  0
STYLE
  5
144
330
14
100
AcDbSymbolTableRecord
100
AcDbTextStyleTableRecord
  2
AVA
 70
     0
 40
0.0
 41
1.0
 50
0.0
 71
     0
 42
158.5644099714409
  3
ARIAL.TTF
  4

1001
ACAD
1000
Arial CE
1071
    60962
  0
ENDTAB
  0
TABLE
  2
VIEW
  5
1A
330
0
100
AcDbSymbolTable
 70
     1
  0
VIEW
  5
C
330
1A
100
AcDbSymbolTableRecord
100
AcDbViewTableRecord
  2
RODODENDRON 5
 70
     0
 40
14020.0
 10
220287.1664355166
 20
148687.514558954
 41
10200.00000000003
 11
0.0
 21
0.0
 31
1.0
 12
0.0
 22
0.0
 32
0.0
 42
50.0
 43
0.0
 44
0.0
 50
0.0
 71
     0
281
     0
 72
     1
110
0.0
120
0.0
130
0.0
111
1.0
121
0.0
131
0.0
112
0.0
122
1.0
132
0.0
 79
     0
146
0.0
  0
ENDTAB
  0
TABLE
  2
UCS
  5
1B
330
0
100
AcDbSymbolTable
 70
     0
  0
ENDTAB
  0
TABLE
  2
APPID
  5
1E
330
0
100
AcDbSymbolTable
 70
     6
  0
APPID
  5
1F
330
1E
100
AcDbSymbolTableRecord
100
AcDbRegAppTableRecord
  2
ACAD
 70
     0
  0
APPID
  5
1E1
330
1E
100
AcDbSymbolTableRecord
100
AcDbRegAppTableRecord
  2
RAK
 70
     0
  0
APPID
  5
1E2
330
1E
100
AcDbSymbolTableRecord
100
AcDbRegAppTableRecord
  2
AcAecLayerStandard
 70
     0
  0
APPID
  5
1BB7
330
1E
100
AcDbSymbolTableRecord
100
AcDbRegAppTableRecord
  2
DCO15
 70
     0
  0
APPID
  5
2A21
330
1E
100
AcDbSymbolTableRecord
100
AcDbRegAppTableRecord
  2
ACAD_MLEADERVER
 70
     0
  0
APPID
  5
2C22
330
1E
100
AcDbSymbolTableRecord
100
AcDbRegAppTableRecord
  2
ACAD_PSEXT
 70
     0
  0
ENDTAB
  0
TABLE
  2
DIMSTYLE
  5
20
330
0
100
AcDbSymbolTable
 70
    13
100
AcDbDimStyleTable
 71
     2
340
21
340
2B
  0
DIMSTYLE
105
21
102
{ACAD_REACTORS
330
2822
330
282D
330
2838
330
2843
330
286A
330
2875
330
2880
330
288D
330
28BD
330
28BC
330
28BB
330
28BA
330
28B9
330
28B8
330
28B7
330
28B6
102
}
330
20
100
AcDbSymbolTableRecord
100
AcDbDimStyleTableRecord
  2
500
 70
     0
 41
30.0
 42
43.0
 43
0.0
 44
13.0
 45
0.5
 46
12.0
 73
     0
 74
     0
 75
     1
 76
     1
 78
    12
140
80.0
141
0.0
145
1.0
147
0.0
172
     1
174
     1
176
     1
177
     1
178
    10
271
     1
272
     1
279
     2
340
22
341
23
342
23
  0
DIMSTYLE
105
2B
330
20
100
AcDbSymbolTableRecord
100
AcDbDimStyleTableRecord
  2
Standard
 70
     0
340
15
  0
ENDTAB
  0
TABLE
  2
BLOCK_RECORD
  5
1
330
0
100
AcDbSymbolTable
 70
    58
  0
BLOCK_RECORD
  5
2
330
1
100
AcDbSymbolTableRecord
100
AcDbBlockTableRecord
  2
*Model_Space
340
A
  0
BLOCK_RECORD
  5
D
330
1
100
AcDbSymbolTableRecord
100
AcDbBlockTableRecord
  2
*Paper_Space
340
10
  0
BLOCK_RECORD
  5
23
102
{ACAD_XDICTIONARY
360
24
102
}
330
1
100
AcDbSymbolTableRecord
100
AcDbBlockTableRecord
  2
B-DIM
340
0
102
{BLKREFS
331
284F
331
2850
331
2856
331
2857
331
285D
331
285E
331
2864
331
2865
331
2899
331
289A
331
28A2
331
28A3
331
28A9
331
28AA
331
28B0
331
28B1
331
2966
331
2967
331
296D
331
296E
331
2974
331
2975
331
297B
331
297C
331
2982
331
2983
331
2989
331
298A
331
2992
331
2993
331
2999
331
299A
331
2BA5
331
2BA6
331
2BAF
331
2BB0
331
2BBB
331
2BBC
331
2BC5
331
2BC6
331
2BCF
331
2BD0
331
2BD9
331
2BDA
331
2BE3
331
2BE4
331
2BED
331
2BEE
331
2BF9
331
2BFA
331
2C03
331
2C04
331
2C0D
331
2C0E
331
2C17
331
2C18
331
2DB7
331
2DB8
331
2DBE
331
2DBF
331
2DC7
331
2DC8
331
2DCE
331
2DCF
331
2DD5
331
2DD6
331
2DDC
331
2DDD
331
2DE3
331
2DE4
331
2DEA
331
2DEB
331
2DF3
331
2DF4
331
2DFA
331
2DFB
331
2E01
331
2E02
331
2E08
331
2E09
102
}
  0
BLOCK_RECORD
  5
2823
330
1
100
AcDbSymbolTableRecord
100
AcDbBlockTableRecord
  2
*D16
340
0
  0
BLOCK_RECORD
  5
282E
330
1
100
AcDbSymbolTableRecord
100
AcDbBlockTableRecord
  2
*D17
340
0
  0
BLOCK_RECORD
  5
2839
330
1
100
AcDbSymbolTableRecord
100
AcDbBlockTableRecord
  2
*D18
340
0
  0
BLOCK_RECORD
  5
2844
330
1
100
AcDbSymbolTableRecord
100
AcDbBlockTableRecord
  2
*D19
340
0
  0
BLOCK_RECORD
  5
286B
330
1
100
AcDbSymbolTableRecord
100
AcDbBlockTableRecord
  2
*D20
340
0
  0
BLOCK_RECORD
  5
2876
330
1
100
AcDbSymbolTableRecord
100
AcDbBlockTableRecord
  2
*D21
340
0
  0
BLOCK_RECORD
  5
2881
330
1
100
AcDbSymbolTableRecord
100
AcDbBlockTableRecord
  2
*D22
340
0
  0
BLOCK_RECORD
  5
288E
330
1
100
AcDbSymbolTableRecord
100
AcDbBlockTableRecord
  2
*D23
340
0
  0
BLOCK_RECORD
  5
2913
330
1
100
AcDbSymbolTableRecord
100
AcDbBlockTableRecord
  2
*D24
340
0
  0
BLOCK_RECORD
  5
291D
330
1
100
AcDbSymbolTableRecord
100
AcDbBlockTableRecord
  2
*D25
340
0
  0
BLOCK_RECORD
  5
2927
330
1
100
AcDbSymbolTableRecord
100
AcDbBlockTableRecord
  2
*D26
340
0
  0
BLOCK_RECORD
  5
2931
330
1
100
AcDbSymbolTableRecord
100
AcDbBlockTableRecord
  2
*D27
340
0
  0
BLOCK_RECORD
  5
293B
330
1
100
AcDbSymbolTableRecord
100
AcDbBlockTableRecord
  2
*D28
340
0
  0
BLOCK_RECORD
  5
2945
330
1
100
AcDbSymbolTableRecord
100
AcDbBlockTableRecord
  2
*D29
340
0
  0
BLOCK_RECORD
  5
294F
330
1
100
AcDbSymbolTableRecord
100
AcDbBlockTableRecord
  2
*D30
340
0
  0
BLOCK_RECORD
  5
295B
330
1
100
AcDbSymbolTableRecord
100
AcDbBlockTableRecord
  2
*D31
340
0
  0
ENDTAB
  0
ENDSEC
  0
SECTION
  2
BLOCKS
  0
BLOCK
  5
3
330
2
100
AcDbEntity
  8
0
100
AcDbBlockBegin
  2
*Model_Space
 70
     0
 10
0.0
 20
0.0
 30
0.0
  3
*Model_Space
  1

  0
ENDBLK
  5
9
330
2
100
AcDbEntity
  8
0
100
AcDbBlockEnd
  0
BLOCK
  5
E
330
D
100
AcDbEntity
 67
     1
  8
0
100
AcDbBlockBegin
  2
*Paper_Space
 70
     0
 10
0.0
 20
0.0
 30
0.0
  3
*Paper_Space
  1

  0
ENDBLK
  5
F
330
D
100
AcDbEntity
 67
     1
  8
0
100
AcDbBlockEnd
  0
BLOCK
  5
26
330
23
100
AcDbEntity
  8
0
100
AcDbBlockBegin
  2
B-DIM
 70
     0
 10
0.0
 20
0.0
 30
0.0
  3
B-DIM
  1

  0
LINE
  5
27
330
23
100
AcDbEntity
  8
0
 62
     1
100
AcDbLine
 10
0.000000000000091
 20
-1.1
 30
0.0
 11
0.000000000000091
 21
1.1
 31
0.0
  0
LWPOLYLINE
  5
28
330
23
100
AcDbEntity
  8
0
 62
     1
100
AcDbPolyline
 90
        2
 70
     0
 43
0.3
 10
-0.7071067811864851
 20
-0.7071067811864851
 10
0.707106781186576
 20
0.707106781186576
  0
LINE
  5
29
330
23
100
AcDbEntity
  8
0
 62
     1
100
AcDbLine
 10
1.20000000000009
 20
0.0
 30
0.0
 11
-1.199999999999909
 21
0.0
 31
0.0
  0
ENDBLK
  5
2A
330
23
100
AcDbEntity
  8
0
100
AcDbBlockEnd
  0
BLOCK
  5
282B
330
2823
100
AcDbEntity
  8
0
100
AcDbBlockBegin
  2
*D16
 70
     1
 10
0.0
 20
0.0
 30
0.0
  3
*D16
  1

  0
LINE
  5
2863
330
2823
100
AcDbEntity
  8
Rodo-teren$0$S-FloorSlab-G
 62
     1
370
    -2
100
AcDbLine
 10
203945.0918698076
 20
133353.4306032435
 30
0.0
 11
204245.0918698076
 21
133353.4306032435
 31
0.0
  0
INSERT
  5
2864
330
2823
100
AcDbEntity
  8
Rodo-teren$0$S-FloorSlab-G
 62
     1
370
    -2
100
AcDbBlockReference
  2
B-DIM
 10
203915.0918698076
 20
133353.4306032435
 30
0.0
 41
30.0
 42
30.0
 43
30.0
 50
180.0
  0
INSERT
  5
2865
330
2823
100
AcDbEntity
  8
Rodo-teren$0$S-FloorSlab-G
 62
     1
370
    -2
100
AcDbBlockReference
  2
B-DIM
 10
204275.0918698077
 20
133353.4306032435
 30
0.0
 41
30.0
 42
30.0
 43
30.0
  0
MTEXT
  5
2866
330
2823
100
AcDbEntity
  8
Rodo-teren$0$S-FloorSlab-G
 62
    10
100
AcDbMText
 10
204095.0918698076
 20
133433.4306032435
 30
0.0
 40
80.0
 41
0.0
 71
     5
 72
     1
  1
\A1;360
  7
ROMANS
 73
     1
 44
1.0
1001
ACAD
1000
MTEXTBEGIN
1070
    73
1070
     1
1070
    44
1040
1.0
1070
    74
1070
     0
1000
MTEXTEND
  0
POINT
  5
2867
330
2823
100
AcDbEntity
  8
DEFPOINTS
 62
     0
100
AcDbPoint
 10
203915.0918698076
 20
132462.5234028745
 30
0.0
  0
POINT
  5
2868
330
2823
100
AcDbEntity
  8
DEFPOINTS
 62
     0
100
AcDbPoint
 10
204275.0918698077
 20
132462.5234028745
 30
0.0
  0
POINT
  5
2869
330
2823
100
AcDbEntity
  8
DEFPOINTS
 62
     0
100
AcDbPoint
 10
204275.0918698077
 20
133353.4306032435
 30
0.0
  0
ENDBLK
  5
282C
330
2823
100
AcDbEntity
  8
0
100
AcDbBlockEnd
  0
BLOCK
  5
2836
330
282E
100
AcDbEntity
  8
0
100
AcDbBlockBegin
  2
*D17
 70
     1
 10
0.0
 20
0.0
 30
0.0
  3
*D17
  1

  0
LINE
  5
285C
330
282E
100
AcDbEntity
  8
Rodo-teren$0$S-FloorSlab-G
 62
     1
370
    -2
100
AcDbLine
 10
204305.0918698076
 20
133353.4306032435
 30
0.0
 11
204925.0918698076
 21
133353.4306032435
 31
0.0
  0
INSERT
  5
285D
330
282E
100
AcDbEntity
  8
Rodo-teren$0$S-FloorSlab-G
 62
     1
370
    -2
100
AcDbBlockReference
  2
B-DIM
 10
204275.0918698077
 20
133353.4306032435
 30
0.0
 41
30.0
 42
30.0
 43
30.0
 50
180.0
  0
INSERT
  5
285E
330
282E
100
AcDbEntity
  8
Rodo-teren$0$S-FloorSlab-G
 62
     1
370
    -2
100
AcDbBlockReference
  2
B-DIM
 10
204955.0918698077
 20
133353.4306032435
 30
0.0
 41
30.0
 42
30.0
 43
30.0
  0
MTEXT
  5
285F
330
282E
100
AcDbEntity
  8
Rodo-teren$0$S-FloorSlab-G
 62
    10
100
AcDbMText
 10
204615.0918698076
 20
133433.4306032435
 30
0.0
 40
80.0
 41
0.0
 71
     5
 72
     1
  1
\A1;680
  7
ROMANS
 73
     1
 44
1.0
1001
ACAD
1000
MTEXTBEGIN
1070
    73
1070
     1
1070
    44
1040
1.0
1070
    74
1070
     0
1000
MTEXTEND
  0
POINT
  5
2860
330
282E
100
AcDbEntity
  8
DEFPOINTS
 62
     0
100
AcDbPoint
 10
204275.0918698077
 20
132462.5234028745
 30
0.0
  0
POINT
  5
2861
330
282E
100
AcDbEntity
  8
DEFPOINTS
 62
     0
100
AcDbPoint
 10
204955.0918698077
 20
132784.5234028745
 30
0.0
  0
POINT
  5
2862
330
282E
100
AcDbEntity
  8
DEFPOINTS
 62
     0
100
AcDbPoint
 10
204955.0918698077
 20
133353.4306032435
 30
0.0
  0
ENDBLK
  5
2837
330
282E
100
AcDbEntity
  8
0
100
AcDbBlockEnd
  0
BLOCK
  5
2841
330
2839
100
AcDbEntity
  8
0
100
AcDbBlockBegin
  2
*D18
 70
     1
 10
0.0
 20
0.0
 30
0.0
  3
*D18
  1

  0
LINE
  5
2855
330
2839
100
AcDbEntity
  8
Rodo-teren$0$S-FloorSlab-G
 62
     1
370
    -2
100
AcDbLine
 10
204985.0918698076
 20
133353.4306032435
 30
0.0
 11
205375.0918698076
 21
133353.4306032435
 31
0.0
  0
INSERT
  5
2856
330
2839
100
AcDbEntity
  8
Rodo-teren$0$S-FloorSlab-G
 62
     1
370
    -2
100
AcDbBlockReference
  2
B-DIM
 10
204955.0918698077
 20
133353.4306032435
 30
0.0
 41
30.0
 42
30.0
 43
30.0
 50
180.0
  0
INSERT
  5
2857
330
2839
100
AcDbEntity
  8
Rodo-teren$0$S-FloorSlab-G
 62
     1
370
    -2
100
AcDbBlockReference
  2
B-DIM
 10
205405.0918698076
 20
133353.4306032435
 30
0.0
 41
30.0
 42
30.0
 43
30.0
  0
MTEXT
  5
2858
330
2839
100
AcDbEntity
  8
Rodo-teren$0$S-FloorSlab-G
 62
    10
100
AcDbMText
 10
205180.0918698076
 20
133433.4306032435
 30
0.0
 40
80.0
 41
0.0
 71
     5
 72
     1
  1
\A1;450
  7
ROMANS
 73
     1
 44
1.0
1001
ACAD
1000
MTEXTBEGIN
1070
    73
1070
     1
1070
    44
1040
1.0
1070
    74
1070
     0
1000
MTEXTEND
  0
POINT
  5
2859
330
2839
100
AcDbEntity
  8
DEFPOINTS
 62
     0
100
AcDbPoint
 10
204955.0918698077
 20
132784.5234028745
 30
0.0
  0
POINT
  5
285A
330
2839
100
AcDbEntity
  8
DEFPOINTS
 62
     0
100
AcDbPoint
 10
205405.0918698076
 20
132334.5234028745
 30
0.0
  0
POINT
  5
285B
330
2839
100
AcDbEntity
  8
DEFPOINTS
 62
     0
100
AcDbPoint
 10
205405.0918698076
 20
133353.4306032435
 30
0.0
  0
ENDBLK
  5
2842
330
2839
100
AcDbEntity
  8
0
100
AcDbBlockEnd
  0
BLOCK
  5
284C
330
2844
100
AcDbEntity
  8
0
100
AcDbBlockBegin
  2
*D19
 70
     1
 10
0.0
 20
0.0
 30
0.0
  3
*D19
  1

  0
LINE
  5
284E
330
2844
100
AcDbEntity
  8
Rodo-teren$0$S-FloorSlab-G
 62
     1
370
    -2
100
AcDbLine
 10
203945.0918698076
 20
133562.1455300822
 30
0.0
 11
205375.0918698076
 21
133562.1455300822
 31
0.0
  0
INSERT
  5
284F
330
2844
100
AcDbEntity
  8
Rodo-teren$0$S-FloorSlab-G
 62
     1
370
    -2
100
AcDbBlockReference
  2
B-DIM
 10
203915.0918698076
 20
133562.1455300822
 30
0.0
 41
30.0
 42
30.0
 43
30.0
 50
180.0
  0
INSERT
  5
2850
330
2844
100
AcDbEntity
  8
Rodo-teren$0$S-FloorSlab-G
 62
     1
370
    -2
100
AcDbBlockReference
  2
B-DIM
 10
205405.0918698076
 20
133562.1455300822
 30
0.0
 41
30.0
 42
30.0
 43
30.0
  0
MTEXT
  5
2851
330
2844
100
AcDbEntity
  8
Rodo-teren$0$S-FloorSlab-G
 62
    10
100
AcDbMText
 10
204660.0918698076
 20
133642.1455300822
 30
0.0
 40
80.0
 41
0.0
 71
     5
 72
     1
  1
\A1;1490
  7
ROMANS
 73
     1
 44
1.0
1001
ACAD
1000
MTEXTBEGIN
1070
    73
1070
     1
1070
    44
1040
1.0
1070
    74
1070
     0
1000
MTEXTEND
  0
POINT
  5
2852
330
2844
100
AcDbEntity
  8
DEFPOINTS
 62
     0
100
AcDbPoint
 10
203915.0918698076
 20
132462.5234028745
 30
0.0
  0
POINT
  5
2853
330
2844
100
AcDbEntity
  8
DEFPOINTS
 62
     0
100
AcDbPoint
 10
205405.0918698076
 20
132334.5234028745
 30
0.0
  0
POINT
  5
2854
330
2844
100
AcDbEntity
  8
DEFPOINTS
 62
     0
100
AcDbPoint
 10
205405.0918698076
 20
133562.1455300822
 30
0.0
  0
ENDBLK
  5
284D
330
2844
100
AcDbEntity
  8
0
100
AcDbBlockEnd
  0
BLOCK
  5
2873
330
286B
100
AcDbEntity
  8
0
100
AcDbBlockBegin
  2
*D20
 70
     1
 10
0.0
 20
0.0
 30
0.0
  3
*D20
  1

  0
LINE
  5
28AF
330
286B
100
AcDbEntity
  8
Rodo-teren$0$S-FloorSlab-G
 62
     1
370
    -2
100
AcDbLine
 10
203280.5941332325
 20
132754.5234028745
 30
0.0
 11
203280.5941332325
 21
132492.5234028745
 31
0.0
  0
INSERT
  5
28B0
330
286B
100
AcDbEntity
  8
Rodo-teren$0$S-FloorSlab-G
 62
     1
370
    -2
100
AcDbBlockReference
  2
B-DIM
 10
203280.5941332325
 20
132784.5234028745
 30
0.0
 41
30.0
 42
30.0
 43
30.0
 50
90.0
  0
INSERT
  5
28B1
330
286B
100
AcDbEntity
  8
Rodo-teren$0$S-FloorSlab-G
 62
     1
370
    -2
100
AcDbBlockReference
  2
B-DIM
 10
203280.5941332325
 20
132462.5234028745
 30
0.0
 41
30.0
 42
30.0
 43
30.0
 50
270.0
  0
MTEXT
  5
28B2
330
286B
100
AcDbEntity
  8
Rodo-teren$0$S-FloorSlab-G
 62
    10
100
AcDbMText
 10
203200.5941332325
 20
132623.5234028746
 30
0.0
 40
80.0
 41
0.0
 71
     5
 72
     1
  1
\A1;322
  7
ROMANS
 11
0.0000000000000001
 21
1.0
 31
0.0
 73
     1
 44
1.0
1001
ACAD
1000
MTEXTBEGIN
1070
    73
1070
     1
1070
    44
1040
1.0
1070
    74
1070
     0
1000
MTEXTEND
  0
POINT
  5
28B3
330
286B
100
AcDbEntity
  8
DEFPOINTS
 62
     0
100
AcDbPoint
 10
204275.0918698077
 20
132784.5234028745
 30
0.0
  0
POINT
  5
28B4
330
286B
100
AcDbEntity
  8
DEFPOINTS
 62
     0
100
AcDbPoint
 10
204275.0918698077
 20
132462.5234028745
 30
0.0
  0
POINT
  5
28B5
330
286B
100
AcDbEntity
  8
DEFPOINTS
 62
     0
100
AcDbPoint
 10
203280.5941332325
 20
132462.5234028745
 30
0.0
  0
ENDBLK
  5
2874
330
286B
100
AcDbEntity
  8
0
100
AcDbBlockEnd
  0
BLOCK
  5
287E
330
2876
100
AcDbEntity
  8
0
100
AcDbBlockBegin
  2
*D21
 70
     1
 10
0.0
 20
0.0
 30
0.0
  3
*D21
  1

  0
LINE
  5
28A8
330
2876
100
AcDbEntity
  8
Rodo-teren$0$S-FloorSlab-G
 62
     1
370
    -2
100
AcDbLine
 10
203280.5941332325
 20
132432.5234028745
 30
0.0
 11
203280.5941332325
 21
131834.5234028745
 31
0.0
  0
INSERT
  5
28A9
330
2876
100
AcDbEntity
  8
Rodo-teren$0$S-FloorSlab-G
 62
     1
370
    -2
100
AcDbBlockReference
  2
B-DIM
 10
203280.5941332325
 20
132462.5234028745
 30
0.0
 41
30.0
 42
30.0
 43
30.0
 50
90.0
  0
INSERT
  5
28AA
330
2876
100
AcDbEntity
  8
Rodo-teren$0$S-FloorSlab-G
 62
     1
370
    -2
100
AcDbBlockReference
  2
B-DIM
 10
203280.5941332325
 20
131804.5234028745
 30
0.0
 41
30.0
 42
30.0
 43
30.0
 50
270.0
  0
MTEXT
  5
28AB
330
2876
100
AcDbEntity
  8
Rodo-teren$0$S-FloorSlab-G
 62
    10
100
AcDbMText
 10
203200.5941332325
 20
132133.5234028746
 30
0.0
 40
80.0
 41
0.0
 71
     5
 72
     1
  1
\A1;658
  7
ROMANS
 11
0.0000000000000001
 21
1.0
 31
0.0
 73
     1
 44
1.0
1001
ACAD
1000
MTEXTBEGIN
1070
    73
1070
     1
1070
    44
1040
1.0
1070
    74
1070
     0
1000
MTEXTEND
  0
POINT
  5
28AC
330
2876
100
AcDbEntity
  8
DEFPOINTS
 62
     0
100
AcDbPoint
 10
204275.0918698077
 20
132462.5234028745
 30
0.0
  0
POINT
  5
28AD
330
2876
100
AcDbEntity
  8
DEFPOINTS
 62
     0
100
AcDbPoint
 10
203915.0918698076
 20
131804.5234028745
 30
0.0
  0
POINT
  5
28AE
330
2876
100
AcDbEntity
  8
DEFPOINTS
 62
     0
100
AcDbPoint
 10
203280.5941332325
 20
131804.5234028745
 30
0.0
  0
ENDBLK
  5
287F
330
2876
100
AcDbEntity
  8
0
100
AcDbBlockEnd
  0
BLOCK
  5
288B
330
2881
100
AcDbEntity
  8
0
100
AcDbBlockBegin
  2
*D22
 70
     1
 10
0.0
 20
0.0
 30
0.0
  3
*D22
  1

  0
LINE
  5
289F
330
2881
100
AcDbEntity
  8
Rodo-teren$0$S-FloorSlab-G
 62
     1
370
    -2
100
AcDbLine
 10
203280.5941332325
 20
131834.5234028745
 30
0.0
 11
203280.5941332325
 21
131864.5234028745
 31
0.0
  0
LINE
  5
28A0
330
2881
100
AcDbEntity
  8
Rodo-teren$0$S-FloorSlab-G
 62
     1
370
    -2
100
AcDbLine
 10
203280.5941332325
 20
131624.5234028745
 30
0.0
 11
203280.5941332325
 21
131594.5234028745
 31
0.0
  0
LINE
  5
28A1
330
2881
100
AcDbEntity
  8
Rodo-teren$0$S-FloorSlab-G
 62
     1
370
    -2
100
AcDbLine
 10
203280.5941332325
 20
131804.5234028745
 30
0.0
 11
203280.5941332325
 21
131654.5234028745
 31
0.0
  0
INSERT
  5
28A2
330
2881
100
AcDbEntity
  8
Rodo-teren$0$S-FloorSlab-G
 62
     1
370
    -2
100
AcDbBlockReference
  2
B-DIM
 10
203280.5941332325
 20
131804.5234028745
 30
0.0
 41
30.0
 42
30.0
 43
30.0
 50
270.0
  0
INSERT
  5
28A3
330
2881
100
AcDbEntity
  8
Rodo-teren$0$S-FloorSlab-G
 62
     1
370
    -2
100
AcDbBlockReference
  2
B-DIM
 10
203280.5941332325
 20
131654.5234028745
 30
0.0
 41
30.0
 42
30.0
 43
30.0
 50
90.0
  0
MTEXT
  5
28A4
330
2881
100
AcDbEntity
  8
Rodo-teren$0$S-FloorSlab-G
 62
    10
100
AcDbMText
 10
203200.5941332325
 20
131729.5234028746
 30
0.0
 40
80.0
 41
0.0
 71
     5
 72
     1
  1
\A1;150
  7
ROMANS
 11
0.0000000000000001
 21
1.0
 31
0.0
 73
     1
 44
1.0
1001
ACAD
1000
MTEXTBEGIN
1070
    73
1070
     1
1070
    44
1040
1.0
1070
    74
1070
     0
1000
MTEXTEND
  0
POINT
  5
28A5
330
2881
100
AcDbEntity
  8
DEFPOINTS
 62
     0
100
AcDbPoint
 10
203915.0918698076
 20
131804.5234028745
 30
0.0
  0
POINT
  5
28A6
330
2881
100
AcDbEntity
  8
DEFPOINTS
 62
     0
100
AcDbPoint
 10
204275.0918698077
 20
131654.5234028745
 30
0.0
  0
POINT
  5
28A7
330
2881
100
AcDbEntity
  8
DEFPOINTS
 62
     0
100
AcDbPoint
 10
203280.5941332325
 20
131654.5234028745
 30
0.0
  0
ENDBLK
  5
288C
330
2881
100
AcDbEntity
  8
0
100
AcDbBlockEnd
  0
BLOCK
  5
2896
330
288E
100
AcDbEntity
  8
0
100
AcDbBlockBegin
  2
*D23
 70
     1
 10
0.0
 20
0.0
 30
0.0
  3
*D23
  1

  0
LINE
  5
2898
330
288E
100
AcDbEntity
  8
Rodo-teren$0$S-FloorSlab-G
 62
     1
370
    -2
100
AcDbLine
 10
203048.663918113
 20
132754.5234028745
 30
0.0
 11
203048.663918113
 21
131684.5234028745
 31
0.0
  0
INSERT
  5
2899
330
288E
100
AcDbEntity
  8
Rodo-teren$0$S-FloorSlab-G
 62
     1
370
    -2
100
AcDbBlockReference
  2
B-DIM
 10
203048.663918113
 20
132784.5234028745
 30
0.0
 41
30.0
 42
30.0
 43
30.0
 50
90.0
  0
INSERT
  5
289A
330
288E
100
AcDbEntity
  8
Rodo-teren$0$S-FloorSlab-G
 62
     1
370
    -2
100
AcDbBlockReference
  2
B-DIM
 10
203048.663918113
 20
131654.5234028745
 30
0.0
 41
30.0
 42
30.0
 43
30.0
 50
270.0
  0
MTEXT
  5
289B
330
288E
100
AcDbEntity
  8
Rodo-teren$0$S-FloorSlab-G
 62
    10
100
AcDbMText
 10
202968.663918113
 20
132219.5234028746
 30
0.0
 40
80.0
 41
0.0
 71
     5
 72
     1
  1
\A1;1130
  7
ROMANS
 11
0.0000000000000001
 21
1.0
 31
0.0
 73
     1
 44
1.0
1001
ACAD
1000
MTEXTBEGIN
1070
    73
1070
     1
1070
    44
1040
1.0
1070
    74
1070
     0
1000
MTEXTEND
  0
POINT
  5
289C
330
288E
100
AcDbEntity
  8
DEFPOINTS
 62
     0
100
AcDbPoint
 10
204275.0918698077
 20
132784.5234028745
 30
0.0
  0
POINT
  5
289D
330
288E
100
AcDbEntity
  8
DEFPOINTS
 62
     0
100
AcDbPoint
 10
204275.0918698077
 20
131654.5234028745
 30
0.0
  0
POINT
  5
289E
330
288E
100
AcDbEntity
  8
DEFPOINTS
 62
     0
100
AcDbPoint
 10
203048.663918113
 20
131654.5234028745
 30
0.0
  0
ENDBLK
  5
2897
330
288E
100
AcDbEntity
  8
0
100
AcDbBlockEnd
  0
BLOCK
  5
291B
330
2913
100
AcDbEntity
  8
0
100
AcDbBlockBegin
  2
*D24
 70
     1
 10
0.0
 20
0.0
 30
0.0
  3
*D24
  1

  0
LINE
  5
2965
330
2913
100
AcDbEntity
  8
Rodo-teren$0$S-FloorSlab-G
 62
     1
370
    -2
100
AcDbLine
 10
209702.5377537749
 20
133353.4306032435
 30
0.0
 11
209402.5377537749
 21
133353.4306032435
 31
0.0
  0
INSERT
  5
2966
330
2913
100
AcDbEntity
  8
Rodo-teren$0$S-FloorSlab-G
 62
     1
370
    -2
100
AcDbBlockReference
  2
B-DIM
 10
209732.5377537749
 20
133353.4306032435
 30
0.0
 41
30.0
 42
30.0
 43
30.0
  0
INSERT
  5
2967
330
2913
100
AcDbEntity
  8
Rodo-teren$0$S-FloorSlab-G
 62
     1
370
    -2
100
AcDbBlockReference
  2
B-DIM
 10
209372.5377537749
 20
133353.4306032435
 30
0.0
 41
30.0
 42
30.0
 43
30.0
 50
180.0
  0
MTEXT
  5
2968
330
2913
100
AcDbEntity
  8
Rodo-teren$0$S-FloorSlab-G
 62
    10
100
AcDbMText
 10
209552.5377537749
 20
133433.4306032435
 30
0.0
 40
80.0
 41
0.0
 71
     5
 72
     1
  1
\A1;360
  7
ROMANS
 73
     1
 44
1.0
1001
ACAD
1000
MTEXTBEGIN
1070
    73
1070
     1
1070
    44
1040
1.0
1070
    74
1070
     0
1000
MTEXTEND
  0
POINT
  5
2969
330
2913
100
AcDbEntity
  8
DEFPOINTS
 62
     0
100
AcDbPoint
 10
209732.5377537749
 20
132462.5234028745
 30
0.0
  0
POINT
  5
296A
330
2913
100
AcDbEntity
  8
DEFPOINTS
 62
     0
100
AcDbPoint
 10
209372.5377537749
 20
132462.5234028745
 30
0.0
  0
POINT
  5
296B
330
2913
100
AcDbEntity
  8
DEFPOINTS
 62
     0
100
AcDbPoint
 10
209372.5377537749
 20
133353.4306032435
 30
0.0
  0
ENDBLK
  5
291C
330
2913
100
AcDbEntity
  8
0
100
AcDbBlockEnd
  0
BLOCK
  5
2925
330
291D
100
AcDbEntity
  8
0
100
AcDbBlockBegin
  2
*D25
 70
     1
 10
0.0
 20
0.0
 30
0.0
  3
*D25
  1

  0
LINE
  5
296C
330
291D
100
AcDbEntity
  8
Rodo-teren$0$S-FloorSlab-G
 62
     1
370
    -2
100
AcDbLine
 10
209342.5377537749
 20
133353.4306032435
 30
0.0
 11
208722.5377537749
 21
133353.4306032435
 31
0.0
  0
INSERT
  5
296D
330
291D
100
AcDbEntity
  8
Rodo-teren$0$S-FloorSlab-G
 62
     1
370
    -2
100
AcDbBlockReference
  2
B-DIM
 10
209372.5377537749
 20
133353.4306032435
 30
0.0
 41
30.0
 42
30.0
 43
30.0
  0
INSERT
  5
296E
330
291D
100
AcDbEntity
  8
Rodo-teren$0$S-FloorSlab-G
 62
     1
370
    -2
100
AcDbBlockReference
  2
B-DIM
 10
208692.5377537749
 20
133353.4306032435
 30
0.0
 41
30.0
 42
30.0
 43
30.0
 50
180.0
  0
MTEXT
  5
296F
330
291D
100
AcDbEntity
  8
Rodo-teren$0$S-FloorSlab-G
 62
    10
100
AcDbMText
 10
209032.5377537749
 20
133433.4306032435
 30
0.0
 40
80.0
 41
0.0
 71
     5
 72
     1
  1
\A1;680
  7
ROMANS
 73
     1
 44
1.0
1001
ACAD
1000
MTEXTBEGIN
1070
    73
1070
     1
1070
    44
1040
1.0
1070
    74
1070
     0
1000
MTEXTEND
  0
POINT
  5
2970
330
291D
100
AcDbEntity
  8
DEFPOINTS
 62
     0
100
AcDbPoint
 10
209372.5377537749
 20
132462.5234028745
 30
0.0
  0
POINT
  5
2971
330
291D
100
AcDbEntity
  8
DEFPOINTS
 62
     0
100
AcDbPoint
 10
208692.5377537749
 20
132784.5234028745
 30
0.0
  0
POINT
  5
2972
330
291D
100
AcDbEntity
  8
DEFPOINTS
 62
     0
100
AcDbPoint
 10
208692.5377537749
 20
133353.4306032435
 30
0.0
  0
ENDBLK
  5
2926
330
291D
100
AcDbEntity
  8
0
100
AcDbBlockEnd
  0
BLOCK
  5
292F
330
2927
100
AcDbEntity
  8
0
100
AcDbBlockBegin
  2
*D26
 70
     1
 10
0.0
 20
0.0
 30
0.0
  3
*D26
  1

  0
LINE
  5
2973
330
2927
100
AcDbEntity
  8
Rodo-teren$0$S-FloorSlab-G
 62
     1
370
    -2
100
AcDbLine
 10
208662.5377537749
 20
133353.4306032435
 30
0.0
 11
208272.5377537749
 21
133353.4306032435
 31
0.0
  0
INSERT
  5
2974
330
2927
100
AcDbEntity
  8
Rodo-teren$0$S-FloorSlab-G
 62
     1
370
    -2
100
AcDbBlockReference
  2
B-DIM
 10
208692.5377537749
 20
133353.4306032435
 30
0.0
 41
30.0
 42
30.0
 43
30.0
  0
INSERT
  5
2975
330
2927
100
AcDbEntity
  8
Rodo-teren$0$S-FloorSlab-G
 62
     1
370
    -2
100
AcDbBlockReference
  2
B-DIM
 10
208242.5377537749
 20
133353.4306032435
 30
0.0
 41
30.0
 42
30.0
 43
30.0
 50
180.0
  0
MTEXT
  5
2976
330
2927
100
AcDbEntity
  8
Rodo-teren$0$S-FloorSlab-G
 62
    10
100
AcDbMText
 10
208467.5377537749
 20
133433.4306032435
 30
0.0
 40
80.0
 41
0.0
 71
     5
 72
     1
  1
\A1;450
  7
ROMANS
 73
     1
 44
1.0
1001
ACAD
1000
MTEXTBEGIN
1070
    73
1070
     1
1070
    44
1040
1.0
1070
    74
1070
     0
1000
MTEXTEND
  0
POINT
  5
2977
330
2927
100
AcDbEntity
  8
DEFPOINTS
 62
     0
100
AcDbPoint
 10
208692.5377537749
 20
132784.5234028745
 30
0.0
  0
POINT
  5
2978
330
2927
100
AcDbEntity
  8
DEFPOINTS
 62
     0
100
AcDbPoint
 10
208242.5377537749
 20
132334.5234028745
 30
0.0
  0
POINT
  5
2979
330
2927
100
AcDbEntity
  8
DEFPOINTS
 62
     0
100
AcDbPoint
 10
208242.5377537749
 20
133353.4306032435
 30
0.0
  0
ENDBLK
  5
2930
330
2927
100
AcDbEntity
  8
0
100
AcDbBlockEnd
  0
BLOCK
  5
2939
330
2931
100
AcDbEntity
  8
0
100
AcDbBlockBegin
  2
*D27
 70
     1
 10
0.0
 20
0.0
 30
0.0
  3
*D27
  1

  0
LINE
  5
297A
330
2931
100
AcDbEntity
  8
Rodo-teren$0$S-FloorSlab-G
 62
     1
370
    -2
100
AcDbLine
 10
209702.5377537749
 20
133562.1455300822
 30
0.0
 11
208272.5377537749
 21
133562.1455300822
 31
0.0
  0
INSERT
  5
297B
330
2931
100
AcDbEntity
  8
Rodo-teren$0$S-FloorSlab-G
 62
     1
370
    -2
100
AcDbBlockReference
  2
B-DIM
 10
209732.5377537749
 20
133562.1455300822
 30
0.0
 41
30.0
 42
30.0
 43
30.0
  0
INSERT
  5
297C
330
2931
100
AcDbEntity
  8
Rodo-teren$0$S-FloorSlab-G
 62
     1
370
    -2
100
AcDbBlockReference
  2
B-DIM
 10
208242.5377537749
 20
133562.1455300822
 30
0.0
 41
30.0
 42
30.0
 43
30.0
 50
180.0
  0
MTEXT
  5
297D
330
2931
100
AcDbEntity
  8
Rodo-teren$0$S-FloorSlab-G
 62
    10
100
AcDbMText
 10
208987.5377537749
 20
133642.1455300822
 30
0.0
 40
80.0
 41
0.0
 71
     5
 72
     1
  1
\A1;1490
  7
ROMANS
 73
     1
 44
1.0
1001
ACAD
1000
MTEXTBEGIN
1070
    73
1070
     1
1070
    44
1040
1.0
1070
    74
1070
     0
1000
MTEXTEND
  0
POINT
  5
297E
330
2931
100
AcDbEntity
  8
DEFPOINTS
 62
     0
100
AcDbPoint
 10
209732.5377537749
 20
132462.5234028745
 30
0.0
  0
POINT
  5
297F
330
2931
100
AcDbEntity
  8
DEFPOINTS
 62
     0
100
AcDbPoint
 10
208242.5377537749
 20
132334.5234028745
 30
0.0
  0
POINT
  5
2980
330
2931
100
AcDbEntity
  8
DEFPOINTS
 62
     0
100
AcDbPoint
 10
208242.5377537749
 20
133562.1455300822
 30
0.0
  0
ENDBLK
  5
293A
330
2931
100
AcDbEntity
  8
0
100
AcDbBlockEnd
  0
BLOCK
  5
2943
330
293B
100
AcDbEntity
  8
0
100
AcDbBlockBegin
  2
*D28
 70
     1
 10
0.0
 20
0.0
 30
0.0
  3
*D28
  1

  0
LINE
  5
2981
330
293B
100
AcDbEntity
  8
Rodo-teren$0$S-FloorSlab-G
 62
     1
370
    -2
100
AcDbLine
 10
210367.03549035
 20
132754.5234028745
 30
0.0
 11
210367.03549035
 21
132492.5234028745
 31
0.0
  0
INSERT
  5
2982
330
293B
100
AcDbEntity
  8
Rodo-teren$0$S-FloorSlab-G
 62
     1
370
    -2
100
AcDbBlockReference
  2
B-DIM
 10
210367.03549035
 20
132784.5234028745
 30
0.0
 41
30.0
 42
30.0
 43
30.0
 50
90.0
  0
INSERT
  5
2983
330
293B
100
AcDbEntity
  8
Rodo-teren$0$S-FloorSlab-G
 62
     1
370
    -2
100
AcDbBlockReference
  2
B-DIM
 10
210367.03549035
 20
132462.5234028745
 30
0.0
 41
30.0
 42
30.0
 43
30.0
 50
270.0
  0
MTEXT
  5
2984
330
293B
100
AcDbEntity
  8
Rodo-teren$0$S-FloorSlab-G
 62
    10
100
AcDbMText
 10
210287.03549035
 20
132623.5234028746
 30
0.0
 40
80.0
 41
0.0
 71
     5
 72
     1
  1
\A1;322
  7
ROMANS
 11
0.0000000000000001
 21
1.0
 31
0.0
 73
     1
 44
1.0
1001
ACAD
1000
MTEXTBEGIN
1070
    73
1070
     1
1070
    44
1040
1.0
1070
    74
1070
     0
1000
MTEXTEND
  0
POINT
  5
2985
330
293B
100
AcDbEntity
  8
DEFPOINTS
 62
     0
100
AcDbPoint
 10
209372.5377537749
 20
132784.5234028745
 30
0.0
  0
POINT
  5
2986
330
293B
100
AcDbEntity
  8
DEFPOINTS
 62
     0
100
AcDbPoint
 10
209372.5377537749
 20
132462.5234028745
 30
0.0
  0
POINT
  5
2987
330
293B
100
AcDbEntity
  8
DEFPOINTS
 62
     0
100
AcDbPoint
 10
210367.03549035
 20
132462.5234028745
 30
0.0
  0
ENDBLK
  5
2944
330
293B
100
AcDbEntity
  8
0
100
AcDbBlockEnd
  0
BLOCK
  5
294D
330
2945
100
AcDbEntity
  8
0
100
AcDbBlockBegin
  2
*D29
 70
     1
 10
0.0
 20
0.0
 30
0.0
  3
*D29
  1

  0
LINE
  5
2988
330
2945
100
AcDbEntity
  8
Rodo-teren$0$S-FloorSlab-G
 62
     1
370
    -2
100
AcDbLine
 10
210367.03549035
 20
132432.5234028745
 30
0.0
 11
210367.03549035
 21
131834.5234028745
 31
0.0
  0
INSERT
  5
2989
330
2945
100
AcDbEntity
  8
Rodo-teren$0$S-FloorSlab-G
 62
     1
370
    -2
100
AcDbBlockReference
  2
B-DIM
 10
210367.03549035
 20
132462.5234028745
 30
0.0
 41
30.0
 42
30.0
 43
30.0
 50
90.0
  0
INSERT
  5
298A
330
2945
100
AcDbEntity
  8
Rodo-teren$0$S-FloorSlab-G
 62
     1
370
    -2
100
AcDbBlockReference
  2
B-DIM
 10
210367.03549035
 20
131804.5234028745
 30
0.0
 41
30.0
 42
30.0
 43
30.0
 50
270.0
  0
MTEXT
  5
298B
330
2945
100
AcDbEntity
  8
Rodo-teren$0$S-FloorSlab-G
 62
    10
100
AcDbMText
 10
210287.03549035
 20
132133.5234028746
 30
0.0
 40
80.0
 41
0.0
 71
     5
 72
     1
  1
\A1;658
  7
ROMANS
 11
0.0000000000000001
 21
1.0
 31
0.0
 73
     1
 44
1.0
1001
ACAD
1000
MTEXTBEGIN
1070
    73
1070
     1
1070
    44
1040
1.0
1070
    74
1070
     0
1000
MTEXTEND
  0
POINT
  5
298C
330
2945
100
AcDbEntity
  8
DEFPOINTS
 62
     0
100
AcDbPoint
 10
209372.5377537749
 20
132462.5234028745
 30
0.0
  0
POINT
  5
298D
330
2945
100
AcDbEntity
  8
DEFPOINTS
 62
     0
100
AcDbPoint
 10
209732.5377537749
 20
131804.5234028745
 30
0.0
  0
POINT
  5
298E
330
2945
100
AcDbEntity
  8
DEFPOINTS
 62
     0
100
AcDbPoint
 10
210367.03549035
 20
131804.5234028745
 30
0.0
  0
ENDBLK
  5
294E
330
2945
100
AcDbEntity
  8
0
100
AcDbBlockEnd
  0
BLOCK
  5
2959
330
294F
100
AcDbEntity
  8
0
100
AcDbBlockBegin
  2
*D30
 70
     1
 10
0.0
 20
0.0
 30
0.0
  3
*D30
  1

  0
LINE
  5
298F
330
294F
100
AcDbEntity
  8
Rodo-teren$0$S-FloorSlab-G
 62
     1
370
    -2
100
AcDbLine
 10
210367.03549035
 20
131834.5234028745
 30
0.0
 11
210367.03549035
 21
131864.5234028745
 31
0.0
  0
LINE
  5
2990
330
294F
100
AcDbEntity
  8
Rodo-teren$0$S-FloorSlab-G
 62
     1
370
    -2
100
AcDbLine
 10
210367.03549035
 20
131624.5234028745
 30
0.0
 11
210367.03549035
 21
131594.5234028745
 31
0.0
  0
LINE
  5
2991
330
294F
100
AcDbEntity
  8
Rodo-teren$0$S-FloorSlab-G
 62
     1
370
    -2
100
AcDbLine
 10
210367.03549035
 20
131804.5234028745
 30
0.0
 11
210367.03549035
 21
131654.5234028745
 31
0.0
  0
INSERT
  5
2992
330
294F
100
AcDbEntity
  8
Rodo-teren$0$S-FloorSlab-G
 62
     1
370
    -2
100
AcDbBlockReference
  2
B-DIM
 10
210367.03549035
 20
131804.5234028745
 30
0.0
 41
30.0
 42
30.0
 43
30.0
 50
270.0
  0
INSERT
  5
2993
330
294F
100
AcDbEntity
  8
Rodo-teren$0$S-FloorSlab-G
 62
     1
370
    -2
100
AcDbBlockReference
  2
B-DIM
 10
210367.03549035
 20
131654.5234028745
 30
0.0
 41
30.0
 42
30.0
 43
30.0
 50
90.0
  0
MTEXT
  5
2994
330
294F
100
AcDbEntity
  8
Rodo-teren$0$S-FloorSlab-G
 62
    10
100
AcDbMText
 10
210287.03549035
 20
131729.5234028746
 30
0.0
 40
80.0
 41
0.0
 71
     5
 72
     1
  1
\A1;150
  7
ROMANS
 11
0.0000000000000001
 21
1.0
 31
0.0
 73
     1
 44
1.0
1001
ACAD
1000
MTEXTBEGIN
1070
    73
1070
     1
1070
    44
1040
1.0
1070
    74
1070
     0
1000
MTEXTEND
  0
POINT
  5
2995
330
294F
100
AcDbEntity
  8
DEFPOINTS
 62
     0
100
AcDbPoint
 10
209732.5377537749
 20
131804.5234028745
 30
0.0
  0
POINT
  5
2996
330
294F
100
AcDbEntity
  8
DEFPOINTS
 62
     0
100
AcDbPoint
 10
209372.5377537749
 20
131654.5234028745
 30
0.0
  0
POINT
  5
2997
330
294F
100
AcDbEntity
  8
DEFPOINTS
 62
     0
100
AcDbPoint
 10
210367.03549035
 20
131654.5234028745
 30
0.0
  0
ENDBLK
  5
295A
330
294F
100
AcDbEntity
  8
0
100
AcDbBlockEnd
  0
BLOCK
  5
2963
330
295B
100
AcDbEntity
  8
0
100
AcDbBlockBegin
  2
*D31
 70
     1
 10
0.0
 20
0.0
 30
0.0
  3
*D31
  1

  0
LINE
  5
2998
330
295B
100
AcDbEntity
  8
Rodo-teren$0$S-FloorSlab-G
 62
     1
370
    -2
100
AcDbLine
 10
210598.9657054696
 20
132754.5234028745
 30
0.0
 11
210598.9657054696
 21
131684.5234028745
 31
0.0
  0
INSERT
  5
2999
330
295B
100
AcDbEntity
  8
Rodo-teren$0$S-FloorSlab-G
 62
     1
370
    -2
100
AcDbBlockReference
  2
B-DIM
 10
210598.9657054696
 20
132784.5234028745
 30
0.0
 41
30.0
 42
30.0
 43
30.0
 50
90.0
  0
INSERT
  5
299A
330
295B
100
AcDbEntity
  8
Rodo-teren$0$S-FloorSlab-G
 62
     1
370
    -2
100
AcDbBlockReference
  2
B-DIM
 10
210598.9657054696
 20
131654.5234028745
 30
0.0
 41
30.0
 42
30.0
 43
30.0
 50
270.0
  0
MTEXT
  5
299B
330
295B
100
AcDbEntity
  8
Rodo-teren$0$S-FloorSlab-G
 62
    10
100
AcDbMText
 10
210518.9657054695
 20
132219.5234028746
 30
0.0
 40
80.0
 41
0.0
 71
     5
 72
     1
  1
\A1;1130
  7
ROMANS
 11
0.0000000000000001
 21
1.0
 31
0.0
 73
     1
 44
1.0
1001
ACAD
1000
MTEXTBEGIN
1070
    73
1070
     1
1070
    44
1040
1.0
1070
    74
1070
     0
1000
MTEXTEND
  0
POINT
  5
299C
330
295B
100
AcDbEntity
  8
DEFPOINTS
 62
     0
100
AcDbPoint
 10
209372.5377537749
 20
132784.5234028745
 30
0.0
  0
POINT
  5
299D
330
295B
100
AcDbEntity
  8
DEFPOINTS
 62
     0
100
AcDbPoint
 10
209372.5377537749
 20
131654.5234028745
 30
0.0
  0
POINT
  5
299E
330
295B
100
AcDbEntity
  8
DEFPOINTS
 62
     0
100
AcDbPoint
 10
210598.9657054696
 20
131654.5234028745
 30
0.0
  0
ENDBLK
  5
2964
330
295B
100
AcDbEntity
  8
0
100
AcDbBlockEnd
  0
ENDSEC
  0
SECTION
  2
ENTITIES
  0
LWPOLYLINE
  5
1A2A
330
2
100
AcDbEntity
  8
RAMKI-A4
100
AcDbPolyline
 90
        4
 70
     1
 43
0.0
 10
201611.1256215136
 20
124387.6604017192
 10
201611.1256215136
 20
138407.6604017192
 10
211811.1256215136
 20
138407.6604017192
 10
211811.1256215136
 20
124387.6604017192
  0
TEXT
  5
1A2B
330
2
100
AcDbEntity
  8
NAPISY
100
AcDbText
 10
203090.3553486713
 20
137846.4502228664
 30
0.0
 40
150.0
  1
"DOM W ALOESIE 2"
  7
AVA
100
AcDbText
  0
TEXT
  5
1A2C
330
2
100
AcDbEntity
  8
NAPISY
100
AcDbText
 10
203166.6906193065
 20
137516.5817455036
 30
0.0
 40
150.0
  1
MOŻNA WKLEIĆ DO PROJEKTU ZAGOSPODAROWANIA TERENU
  7
AVA
100
AcDbText
  0
TEXT
  5
1A2E
330
2
100
AcDbEntity
  8
NAPISY
100
AcDbText
 10
206764.2936347979
 20
131482.4546170886
 30
0.0
 40
100.0
  1
OŚ ODBICIA LUSTRZANEGO
 50
90.0
  7
AVA
100
AcDbText
  0
LINE
  5
1A2F
330
2
100
AcDbEntity
  8
NAPISY
  6
HIDDEN
 62
     1
100
AcDbLine
 10
206823.8148117913
 20
130400.8074542681
 30
0.0
 11
206823.8148117913
 21
135203.2645117455
 31
0.0
  0
TEXT
  5
1A42
330
2
100
AcDbEntity
  8
NAPISY
100
AcDbText
 10
203070.4775681885
 20
125053.2164846217
 30
0.0
 40
100.0
  1
   O B R Y S   B U D Y N K U           S K A L A   1 : 5 0 0 
  7
AVA
100
AcDbText
  0
HATCH
  5
27CD
330
2
100
AcDbEntity
  8
0Hatch
100
AcDbHatch
 10
0.0
 20
0.0
 30
-0.000000000117699
210
0.0
220
-0.0000000000000009
230
1.0
  2
SOLID
 70
     1
 71
     0
 91
        4
 92
        7
 72
     0
 73
     1
 93
        6
 10
204735.0918498076
 20
131613.5234177374
 10
204725.0879622116
 20
131613.5234177374
 10
204725.0879622116
 20
131624.5234028745
 10
204690.0918498076
 20
131624.5234028745
 10
204690.0681811756
 20
131574.5234177374
 10
204735.0918498076
 20
131574.5234177374
 97
        0
 92
       23
 72
     0
 73
     1
 93
        4
 10
204735.0918498076
 20
131624.5234028745
 10
204725.0879622116
 20
131624.5234028745
 10
204725.0879622116
 20
131613.5234177374
 10
204735.0918498076
 20
131613.5234177374
 97
        0
 92
        7
 72
     0
 73
     1
 93
        6
 10
204990.0918898076
 20
131624.5234028745
 10
204955.0929498338
 20
131624.5234028745
 10
204955.0929498338
 20
131613.5234177374
 10
204945.0918898076
 20
131613.5234177374
 10
204945.0918898076
 20
131574.5234177374
 10
204990.1155584397
 20
131574.5234177374
 97
        0
 92
       23
 72
     0
 73
     1
 93
        4
 10
204955.0929498338
 20
131624.5234028745
 10
204945.0918898076
 20
131624.5234028745
 10
204945.0918898076
 20
131613.5234177374
 10
204955.0929498338
 20
131613.5234177374
 97
        0
 75
     0
 76
     1
 47
0.524765879180955
 98
        4
 10
204723.0801755115
 20
131595.7654864376
 10
204732.475442267
 20
131621.4300500373
 10
204972.9334949821
 20
131592.5679404075
 10
204948.2576789586
 20
131618.8062331188
  0
LINE
  5
27CE
330
2
100
AcDbEntity
  8
TEREN$0$A-MassElement-G
  6
Continuous
 62
   210
370
    -3
100
AcDbLine
 10
205138.2059687966
 20
132334.5234028745
 30
-0.0000000000001623
 11
205509.6037538688
 21
132334.5234028745
 31
-0.0000000000001623
  0
ARC
  5
27CF
330
2
100
AcDbEntity
  8
TEREN$0$A-MassElement-G
  6
Continuous
 62
   210
370
    -3
100
AcDbCircle
 10
204931.0918698077
 20
132310.5234028745
 30
-0.0000000000001836
 40
579.0094990585028
100
AcDbArc
 50
2.37559621570747
 51
87.62440378429253
  0
ARC
  5
27D0
330
2
100
AcDbEntity
  8
TEREN$0$A-MassElement-G
  6
Continuous
 62
   210
370
    -3
100
AcDbCircle
 10
204931.0918698077
 20
132310.5234028745
 30
-0.0000000000001836
 40
609.0094990585035
100
AcDbArc
 50
359.4355092344104
 51
90.56449076641509
  0
LINE
  5
27D1
330
2
100
AcDbEntity
  8
TEREN$0$A-MassElement-G
  6
Continuous
 62
   210
370
    -3
100
AcDbLine
 10
204925.0918698076
 20
132919.5033450265
 30
0.0000000000003573
 11
204925.0918698076
 21
132784.5234028745
 31
0.0000000000002374
  0
LINE
  5
27D2
330
2
100
AcDbEntity
  8
TEREN$0$A-MassElement-G
  6
Continuous
 62
   210
370
    -3
100
AcDbLine
 10
205405.0918698076
 20
132304.5234028745
 30
-0.000000000000189
 11
205540.0718119597
 21
132304.5234028745
 31
-0.000000000000189
  0
ARC
  5
27D3
330
2
100
AcDbEntity
  8
TEREN$0$A-MassElement-G
  6
Continuous
 62
   210
370
    -3
100
AcDbCircle
 10
204931.0918698077
 20
132310.5234028745
 30
-0.0000000000001836
 40
639.0094990585031
100
AcDbArc
 50
356.7704068153461
 51
93.22959318382144
  0
LINE
  5
27D4
330
2
100
AcDbEntity
  8
TEREN$0$A-MassElement-G
  6
Continuous
 62
   210
370
    -3
100
AcDbLine
 10
204895.0918698077
 20
132948.5180265877
 30
0.000000000000383
 11
204895.0918698077
 21
132784.5234028745
 31
0.0000000000002374
  0
LINE
  5
27D5
330
2
100
AcDbEntity
  8
TEREN$0$A-MassElement-G
  6
Continuous
 62
   210
370
    -3
100
AcDbLine
 10
204955.0918698077
 20
132517.6375018634
 30
0.0000000000000003
 11
204955.0918698077
 21
132889.0352869356
 31
0.0000000000003302
  0
LINE
  5
27D6
330
2
100
AcDbEntity
  8
TEREN$0$A-MassElement-G
  6
Continuous
 62
   210
370
    -3
100
AcDbLine
 10
205405.0918698076
 20
132274.5234028745
 30
-0.0000000000002156
 11
205569.0864935209
 21
132274.5234028745
 31
-0.0000000000002156
  0
3DFACE
  5
27D7
330
2
100
AcDbEntity
  8
TEREN$0$A-MassElement-G
  6
Continuous
 62
   210
370
    -3
100
AcDbFace
 10
205002.5918698076
 20
131654.5234028745
 30
-0.0000000000007663
 11
205002.5918698076
 21
131654.5234028745
 31
-0.0000000000007663
 12
205002.5918698076
 22
131554.5234028745
 32
-0.0000000000008551
 13
205002.5918698076
 23
131554.5234028745
 33
-0.0000000000008551
  0
3DFACE
  5
27D8
330
2
100
AcDbEntity
  8
TEREN$0$A-MassElement-G
  6
Continuous
 62
   210
370
    -3
100
AcDbFace
 10
205002.5918698076
 20
131654.5234028745
 30
-0.0000000000007663
 11
205022.5918698076
 21
131654.5234028745
 31
-0.0000000000007663
 12
205022.5918698076
 22
131554.3369312951
 32
-0.0000000000008553
 13
205022.5918698076
 23
131554.3369312951
 33
-0.0000000000008553
 70
    12
  0
3DFACE
  5
27D9
330
2
100
AcDbEntity
  8
TEREN$0$A-MassElement-G
  6
Continuous
 62
   210
370
    -3
100
AcDbFace
 10
205024.7444272397
 20
131543.4427784192
 30
-0.0000000000008649
 11
205002.5918698076
 21
131554.5234028745
 31
-0.0000000000008551
 12
205002.5918698076
 22
131654.5234028745
 32
-0.0000000000007663
 13
205022.5918698076
 23
131554.3369312951
 33
-0.0000000000008553
 70
     5
  0
3DFACE
  5
27DA
330
2
100
AcDbEntity
  8
TEREN$0$A-MassElement-G
  6
Continuous
 62
   210
370
    -3
100
AcDbFace
 10
205002.5918698076
 20
131554.5234028745
 30
-0.0000000000008551
 11
205024.7444272397
 21
131543.4427784192
 31
-0.0000000000008649
 12
205038.7503453229
 22
131503.4161641793
 32
-0.0000000000009005
 13
205038.7503453229
 23
131503.4161641793
 33
-0.0000000000009005
 70
    13
  0
3DFACE
  5
27DB
330
2
100
AcDbEntity
  8
TEREN$0$A-MassElement-G
  6
Continuous
 62
   210
370
    -3
100
AcDbFace
 10
205061.3118653817
 20
131467.5097106994
 30
-0.0000000000009324
 11
205004.4282339077
 21
131543.8402403324
 31
-0.0000000000008646
 12
205002.5918698076
 22
131554.5234028745
 32
-0.0000000000008551
 13
205038.7503453229
 23
131503.4161641793
 33
-0.0000000000009005
 70
     5
  0
3DFACE
  5
27DC
330
2
100
AcDbEntity
  8
TEREN$0$A-MassElement-G
  6
Continuous
 62
   210
370
    -3
100
AcDbFace
 10
205016.237639648
 20
131504.9098468966
 30
-0.0000000000008992
 11
205004.4282339077
 21
131543.8402403324
 31
-0.0000000000008646
 12
205061.3118653817
 22
131467.5097106994
 32
-0.0000000000009324
 13
205061.3118653817
 23
131467.5097106994
 33
-0.0000000000009324
 70
    14
  0
3DFACE
  5
27DD
330
2
100
AcDbEntity
  8
TEREN$0$A-MassElement-G
  6
Continuous
 62
   210
370
    -3
100
AcDbFace
 10
205091.2976585917
 20
131437.5239174894
 30
-0.000000000000959
 11
205035.4150739599
 21
131469.0313908232
 31
-0.000000000000931
 12
205016.237639648
 22
131504.9098468966
 32
-0.0000000000008992
 13
205061.3118653817
 23
131467.5097106994
 33
-0.0000000000009324
 70
     5
  0
3DFACE
  5
27DE
330
2
100
AcDbEntity
  8
TEREN$0$A-MassElement-G
  6
Continuous
 62
   210
370
    -3
100
AcDbFace
 10
205083.0998037644
 20
131418.5698854754
 30
-0.0000000000009758
 11
205061.2235587978
 21
131437.5836610582
 31
-0.000000000000959
 12
205091.2976585917
 22
131437.5239174894
 32
-0.000000000000959
 13
205095.1615317748
 23
131434.5234028745
 33
-0.0000000000009617
 70
     2
  0
3DFACE
  5
27DF
330
2
100
AcDbEntity
  8
TEREN$0$A-MassElement-G
  6
Continuous
 62
   210
370
    -3
100
AcDbFace
 10
205035.4150739599
 20
131469.0313908232
 30
-0.000000000000931
 11
205091.2976585917
 21
131437.5239174894
 31
-0.000000000000959
 12
205061.2235587978
 22
131437.5836610582
 32
-0.000000000000959
 13
205061.2235587978
 23
131437.5836610582
 33
-0.000000000000959
 70
     3
  0
3DFACE
  5
27E0
330
2
100
AcDbEntity
  8
TEREN$0$A-MassElement-G
  6
Continuous
 62
   210
370
    -3
100
AcDbFace
 10
205022.5918698076
 20
131554.5234028745
 30
-0.0000000000008551
 11
205022.5918698076
 21
131554.3369312951
 31
-0.0000000000008553
 12
205022.5918698076
 22
131654.5234028745
 32
-0.0000000000007663
 13
205022.5918698076
 23
131654.5234028745
 33
-0.0000000000007663
 70
     2
  0
3DFACE
  5
27E1
330
2
100
AcDbEntity
  8
TEREN$0$A-MassElement-G
  6
Continuous
 62
   210
370
    -3
100
AcDbFace
 10
205022.5918698076
 20
131554.3369312951
 30
-0.0000000000008553
 11
205022.5918698076
 21
131654.5234028745
 31
-0.0000000000007663
 12
205022.5918698076
 22
131554.3369312951
 32
-0.0000000000008553
 13
205022.5918698076
 23
131554.3369312951
 33
-0.0000000000008553
 70
     2
  0
3DFACE
  5
27E2
330
2
100
AcDbEntity
  8
TEREN$0$A-MassElement-G
  6
Continuous
 62
   210
370
    -3
100
AcDbFace
 10
205002.5918698076
 20
131654.5234028745
 30
-0.0000000000007663
 11
205002.5918698076
 21
131554.5234028745
 31
-0.0000000000008551
 12
205022.5918698076
 22
131554.5234028745
 32
-0.0000000000008551
 13
205022.5918698076
 23
131654.5234028745
 33
-0.0000000000007663
  0
3DFACE
  5
27E3
330
2
100
AcDbEntity
  8
TEREN$0$A-MassElement-G
  6
Continuous
 62
   210
370
    -3
100
AcDbFace
 10
205016.237639648
 20
131504.9098468966
 30
-0.0000000000008992
 11
205004.4282339077
 21
131543.8402403324
 31
-0.0000000000008646
 12
205004.4282339077
 22
131543.8402403324
 32
-0.0000000000008646
 13
205016.237639648
 23
131504.9098468966
 33
-0.0000000000008992
  0
3DFACE
  5
27E4
330
2
100
AcDbEntity
  8
TEREN$0$A-MassElement-G
  6
Continuous
 62
   210
370
    -3
100
AcDbFace
 10
205035.4150739599
 20
131469.0313908232
 30
-0.000000000000931
 11
205016.237639648
 21
131504.9098468966
 31
-0.0000000000008992
 12
205016.237639648
 22
131504.9098468966
 32
-0.0000000000008992
 13
205035.4150739599
 23
131469.0313908232
 33
-0.000000000000931
  0
3DFACE
  5
27E5
330
2
100
AcDbEntity
  8
TEREN$0$A-MassElement-G
  6
Continuous
 62
   210
370
    -3
100
AcDbFace
 10
205061.2235587978
 20
131437.5836610582
 30
-0.000000000000959
 11
205035.4150739599
 21
131469.0313908232
 31
-0.000000000000931
 12
205035.4150739599
 22
131469.0313908232
 32
-0.000000000000931
 13
205061.2235587978
 23
131437.5836610582
 33
-0.000000000000959
  0
3DFACE
  5
27E6
330
2
100
AcDbEntity
  8
TEREN$0$A-MassElement-G
  6
Continuous
 62
   210
370
    -3
100
AcDbFace
 10
205083.0998037644
 20
131418.5698854754
 30
-0.0000000000009758
 11
205061.2235587978
 21
131437.5836610582
 31
-0.000000000000959
 12
205061.2235587978
 22
131437.5836610582
 32
-0.000000000000959
 13
205083.0998037644
 23
131418.5698854754
 33
-0.0000000000009758
  0
3DFACE
  5
27E7
330
2
100
AcDbEntity
  8
TEREN$0$A-MassElement-G
  6
Continuous
 62
   210
370
    -3
100
AcDbFace
 10
205095.1615317748
 20
131434.5234028745
 30
-0.0000000000009617
 11
205083.0998037644
 21
131418.5698854754
 31
-0.0000000000009758
 12
205083.0998037644
 22
131418.5698854754
 32
-0.0000000000009758
 13
205095.1615317748
 23
131434.5234028745
 33
-0.0000000000009617
  0
3DFACE
  5
27E8
330
2
100
AcDbEntity
  8
TEREN$0$A-MassElement-G
  6
Continuous
 62
   210
370
    -3
100
AcDbFace
 10
205091.2976585917
 20
131437.5239174894
 30
-0.000000000000959
 11
205095.1615317748
 21
131434.5234028745
 31
-0.0000000000009617
 12
205095.1615317748
 22
131434.5234028745
 32
-0.0000000000009617
 13
205091.2976585917
 23
131437.5239174894
 33
-0.000000000000959
  0
3DFACE
  5
27E9
330
2
100
AcDbEntity
  8
TEREN$0$A-MassElement-G
  6
Continuous
 62
   210
370
    -3
100
AcDbFace
 10
205061.3118653817
 20
131467.5097106994
 30
-0.0000000000009324
 11
205091.2976585917
 21
131437.5239174894
 31
-0.000000000000959
 12
205091.2976585917
 22
131437.5239174894
 32
-0.000000000000959
 13
205061.3118653817
 23
131467.5097106994
 33
-0.0000000000009324
  0
3DFACE
  5
27EA
330
2
100
AcDbEntity
  8
TEREN$0$A-MassElement-G
  6
Continuous
 62
   210
370
    -3
100
AcDbFace
 10
205038.7503453229
 20
131503.4161641793
 30
-0.0000000000009005
 11
205061.3118653817
 21
131467.5097106994
 31
-0.0000000000009324
 12
205061.3118653817
 22
131467.5097106994
 32
-0.0000000000009324
 13
205038.7503453229
 23
131503.4161641793
 33
-0.0000000000009005
  0
3DFACE
  5
27EB
330
2
100
AcDbEntity
  8
TEREN$0$A-MassElement-G
  6
Continuous
 62
   210
370
    -3
100
AcDbFace
 10
205024.7444272397
 20
131543.4427784192
 30
-0.0000000000008649
 11
205038.7503453229
 21
131503.4161641793
 31
-0.0000000000009005
 12
205038.7503453229
 22
131503.4161641793
 32
-0.0000000000009005
 13
205024.7444272397
 23
131543.4427784192
 33
-0.0000000000008649
  0
3DFACE
  5
27EC
330
2
100
AcDbEntity
  8
TEREN$0$A-MassElement-G
  6
Continuous
 62
   210
370
    -3
100
AcDbFace
 10
205083.0998037644
 20
131418.5698854754
 30
-0.0000000000009758
 11
205095.1615317748
 21
131434.5234028745
 31
-0.0000000000009617
 12
205091.2976585917
 22
131437.5239174894
 32
-0.000000000000959
 13
205091.2976585917
 23
131437.5239174894
 33
-0.000000000000959
 70
    12
  0
3DFACE
  5
27ED
330
2
100
AcDbEntity
  8
TEREN$0$A-MassElement-G
  6
Continuous
 62
   210
370
    -3
100
AcDbFace
 10
205083.0998037644
 20
131418.5698854754
 30
-0.0000000000009758
 11
205091.2976585917
 21
131437.5239174894
 31
-0.000000000000959
 12
205061.3118653817
 22
131467.5097106994
 32
-0.0000000000009324
 13
205061.3118653817
 23
131467.5097106994
 33
-0.0000000000009324
 70
    13
  0
3DFACE
  5
27EE
330
2
100
AcDbEntity
  8
TEREN$0$A-MassElement-G
  6
Continuous
 62
   210
370
    -3
100
AcDbFace
 10
205038.7503453229
 20
131503.4161641793
 30
-0.0000000000009005
 11
205061.2235587978
 21
131437.5836610582
 31
-0.000000000000959
 12
205083.0998037644
 22
131418.5698854754
 32
-0.0000000000009758
 13
205061.3118653817
 23
131467.5097106994
 33
-0.0000000000009324
 70
     5
  0
3DFACE
  5
27EF
330
2
100
AcDbEntity
  8
TEREN$0$A-MassElement-G
  6
Continuous
 62
   210
370
    -3
100
AcDbFace
 10
205024.7444272397
 20
131543.4427784192
 30
-0.0000000000008649
 11
205035.4150739599
 21
131469.0313908232
 31
-0.000000000000931
 12
205061.2235587978
 22
131437.5836610582
 32
-0.000000000000959
 13
205038.7503453229
 23
131503.4161641793
 33
-0.0000000000009005
 70
     5
  0
3DFACE
  5
27F0
330
2
100
AcDbEntity
  8
TEREN$0$A-MassElement-G
  6
Continuous
 62
   210
370
    -3
100
AcDbFace
 10
205022.5918698076
 20
131554.3369312951
 30
-0.0000000000008553
 11
205016.237639648
 21
131504.9098468966
 31
-0.0000000000008992
 12
205035.4150739599
 22
131469.0313908232
 32
-0.000000000000931
 13
205024.7444272397
 23
131543.4427784192
 33
-0.0000000000008649
 70
     5
  0
3DFACE
  5
27F1
330
2
100
AcDbEntity
  8
TEREN$0$A-MassElement-G
  6
Continuous
 62
   210
370
    -3
100
AcDbFace
 10
205016.237639648
 20
131504.9098468966
 30
-0.0000000000008992
 11
205022.5918698076
 21
131554.3369312951
 31
-0.0000000000008553
 12
205004.4282339077
 22
131543.8402403324
 32
-0.0000000000008646
 13
205004.4282339077
 23
131543.8402403324
 33
-0.0000000000008646
 70
     3
  0
LINE
  5
27F2
330
2
100
AcDbEntity
  8
TEREN$0$A-MassElement-G
  6
Continuous
 62
   210
370
    -3
100
AcDbLine
 10
204659.3064255759
 20
131494.5234028745
 30
-0.0000000000009084
 11
204641.669811504
 21
131464.5234028745
 31
-0.000000000000935
  0
LINE
  5
27F3
330
2
100
AcDbEntity
  8
TEREN$0$A-MassElement-G
  6
Continuous
 62
   210
370
    -3
100
AcDbLine
 10
204641.669811504
 20
131464.5234028745
 30
-0.000000000000935
 11
205038.5139281113
 21
131464.5234028745
 31
-0.000000000000935
  0
LINE
  5
27F4
330
2
100
AcDbEntity
  8
TEREN$0$A-MassElement-G
  6
Continuous
 62
   210
370
    -3
100
AcDbLine
 10
205038.5139281113
 20
131464.5234028745
 30
-0.000000000000935
 11
205020.8773140393
 21
131494.5234028745
 31
-0.0000000000009084
  0
LINE
  5
27F5
330
2
100
AcDbEntity
  8
TEREN$0$A-MassElement-G
  6
Continuous
 62
   210
370
    -3
100
AcDbLine
 10
204670.9395373945
 20
131524.5234028745
 30
-0.0000000000008817
 11
204659.3064255759
 21
131494.5234028745
 31
-0.0000000000009084
  0
LINE
  5
27F6
330
2
100
AcDbEntity
  8
TEREN$0$A-MassElement-G
  6
Continuous
 62
   210
370
    -3
100
AcDbLine
 10
204659.3064255759
 20
131494.5234028745
 30
-0.0000000000009084
 11
205020.8773140393
 21
131494.5234028745
 31
-0.0000000000009084
  0
LINE
  5
27F7
330
2
100
AcDbEntity
  8
TEREN$0$A-MassElement-G
  6
Continuous
 62
   210
370
    -3
100
AcDbLine
 10
205020.8773140393
 20
131494.5234028745
 30
-0.0000000000009084
 11
205009.2442022208
 21
131524.5234028745
 31
-0.0000000000008817
  0
LINE
  5
27F8
330
2
100
AcDbEntity
  8
TEREN$0$A-MassElement-G
  6
Continuous
 62
   210
370
    -3
100
AcDbLine
 10
205002.5918698076
 20
131554.5234028745
 30
-0.0000000000008551
 11
205002.5918698076
 21
131654.5234028745
 31
-0.0000000000007663
  0
LINE
  5
27F9
330
2
100
AcDbEntity
  8
TEREN$0$A-MassElement-G
  6
Continuous
 62
   210
370
    -3
100
AcDbLine
 10
204677.5918698076
 20
131654.5234028745
 30
-0.0000000000007663
 11
204677.5918698076
 21
131554.5234028745
 31
-0.0000000000008551
  0
3DFACE
  5
27FA
330
2
100
AcDbEntity
  8
TEREN$0$A-MassElement-G
  6
Continuous
 62
   210
370
    -3
100
AcDbFace
 10
204597.0839358508
 20
131418.5698854754
 30
-0.0000000000009758
 11
204585.0222078405
 21
131434.5234028745
 31
-0.0000000000009617
 12
204588.8860810236
 22
131437.5239174894
 32
-0.000000000000959
 13
204588.8860810236
 23
131437.5239174894
 33
-0.000000000000959
 70
    12
  0
3DFACE
  5
27FB
330
2
100
AcDbEntity
  8
TEREN$0$A-MassElement-G
  6
Continuous
 62
   210
370
    -3
100
AcDbFace
 10
204597.0839358508
 20
131418.5698854754
 30
-0.0000000000009758
 11
204588.8860810236
 21
131437.5239174894
 31
-0.000000000000959
 12
204618.8718742336
 22
131467.5097106994
 32
-0.0000000000009324
 13
204618.8718742336
 23
131467.5097106994
 33
-0.0000000000009324
 70
    13
  0
3DFACE
  5
27FC
330
2
100
AcDbEntity
  8
TEREN$0$A-MassElement-G
  6
Continuous
 62
   210
370
    -3
100
AcDbFace
 10
204641.4333942924
 20
131503.4161641793
 30
-0.0000000000009005
 11
204618.9601808175
 21
131437.5836610582
 31
-0.000000000000959
 12
204597.0839358508
 22
131418.5698854754
 32
-0.0000000000009758
 13
204618.8718742336
 23
131467.5097106994
 33
-0.0000000000009324
 70
     5
  0
3DFACE
  5
27FD
330
2
100
AcDbEntity
  8
TEREN$0$A-MassElement-G
  6
Continuous
 62
   210
370
    -3
100
AcDbFace
 10
204655.4393123756
 20
131543.4427784192
 30
-0.0000000000008649
 11
204644.7686656553
 21
131469.0313908232
 31
-0.000000000000931
 12
204618.9601808175
 22
131437.5836610582
 32
-0.000000000000959
 13
204641.4333942924
 23
131503.4161641793
 33
-0.0000000000009005
 70
     5
  0
3DFACE
  5
27FE
330
2
100
AcDbEntity
  8
TEREN$0$A-MassElement-G
  6
Continuous
 62
   210
370
    -3
100
AcDbFace
 10
204657.5918698076
 20
131554.3369312951
 30
-0.0000000000008553
 11
204663.9460999673
 21
131504.9098468966
 31
-0.0000000000008992
 12
204644.7686656553
 22
131469.0313908232
 32
-0.000000000000931
 13
204655.4393123756
 23
131543.4427784192
 33
-0.0000000000008649
 70
     5
  0
3DFACE
  5
27FF
330
2
100
AcDbEntity
  8
TEREN$0$A-MassElement-G
  6
Continuous
 62
   210
370
    -3
100
AcDbFace
 10
204677.5918698076
 20
131654.5234028745
 30
-0.0000000000007663
 11
204677.5918698076
 21
131554.5234028745
 31
-0.0000000000008551
 12
204657.5918698076
 22
131554.3369312951
 32
-0.0000000000008553
 13
204657.5918698076
 23
131654.5234028745
 33
-0.0000000000007663
 70
     2
  0
3DFACE
  5
2800
330
2
100
AcDbEntity
  8
TEREN$0$A-MassElement-G
  6
Continuous
 62
   210
370
    -3
100
AcDbFace
 10
204677.5918698076
 20
131554.5234028745
 30
-0.0000000000008551
 11
204675.7555057076
 21
131543.8402403324
 31
-0.0000000000008646
 12
204663.9460999673
 22
131504.9098468966
 32
-0.0000000000008992
 13
204657.5918698076
 23
131554.3369312951
 33
-0.0000000000008553
 70
    12
  0
3DFACE
  5
2801
330
2
100
AcDbEntity
  8
TEREN$0$A-MassElement-G
  6
Continuous
 62
   210
370
    -3
100
AcDbFace
 10
204677.5918698076
 20
131554.5234028745
 30
-0.0000000000008551
 11
204677.5918698076
 21
131654.5234028745
 31
-0.0000000000007663
 12
204677.5918698076
 22
131654.5234028745
 32
-0.0000000000007663
 13
204677.5918698076
 23
131554.5234028745
 33
-0.0000000000008551
  0
3DFACE
  5
2802
330
2
100
AcDbEntity
  8
TEREN$0$A-MassElement-G
  6
Continuous
 62
   210
370
    -3
100
AcDbFace
 10
204677.5918698076
 20
131554.5234028745
 30
-0.0000000000008551
 11
204677.5918698076
 21
131654.5234028745
 31
-0.0000000000007663
 12
204657.5918698076
 22
131654.5234028745
 32
-0.0000000000007663
 13
204657.5918698076
 23
131554.5234028745
 33
-0.0000000000008551
  0
3DFACE
  5
2803
330
2
100
AcDbEntity
  8
TEREN$0$A-MassElement-G
  6
Continuous
 62
   210
370
    -3
100
AcDbFace
 10
204657.5918698076
 20
131654.5234028745
 30
-0.0000000000007663
 11
204657.5918698076
 21
131554.3369312951
 31
-0.0000000000008553
 12
204657.5918698076
 22
131554.5234028745
 32
-0.0000000000008551
 13
204657.5918698076
 23
131654.5234028745
 33
-0.0000000000007663
 70
     2
  0
3DFACE
  5
2804
330
2
100
AcDbEntity
  8
TEREN$0$A-MassElement-G
  6
Continuous
 62
   210
370
    -3
100
AcDbFace
 10
204663.9460999673
 20
131504.9098468966
 30
-0.0000000000008992
 11
204675.7555057076
 21
131543.8402403324
 31
-0.0000000000008646
 12
204675.7555057076
 22
131543.8402403324
 32
-0.0000000000008646
 13
204663.9460999673
 23
131504.9098468966
 33
-0.0000000000008992
  0
3DFACE
  5
2805
330
2
100
AcDbEntity
  8
TEREN$0$A-MassElement-G
  6
Continuous
 62
   210
370
    -3
100
AcDbFace
 10
204644.7686656553
 20
131469.0313908232
 30
-0.000000000000931
 11
204663.9460999673
 21
131504.9098468966
 31
-0.0000000000008992
 12
204663.9460999673
 22
131504.9098468966
 32
-0.0000000000008992
 13
204644.7686656553
 23
131469.0313908232
 33
-0.000000000000931
  0
3DFACE
  5
2806
330
2
100
AcDbEntity
  8
TEREN$0$A-MassElement-G
  6
Continuous
 62
   210
370
    -3
100
AcDbFace
 10
204618.9601808175
 20
131437.5836610582
 30
-0.000000000000959
 11
204644.7686656553
 21
131469.0313908232
 31
-0.000000000000931
 12
204644.7686656553
 22
131469.0313908232
 32
-0.000000000000931
 13
204618.9601808175
 23
131437.5836610582
 33
-0.000000000000959
  0
3DFACE
  5
2807
330
2
100
AcDbEntity
  8
TEREN$0$A-MassElement-G
  6
Continuous
 62
   210
370
    -3
100
AcDbFace
 10
204597.0839358508
 20
131418.5698854754
 30
-0.0000000000009758
 11
204618.9601808175
 21
131437.5836610582
 31
-0.000000000000959
 12
204618.9601808175
 22
131437.5836610582
 32
-0.000000000000959
 13
204597.0839358508
 23
131418.5698854754
 33
-0.0000000000009758
  0
3DFACE
  5
2808
330
2
100
AcDbEntity
  8
TEREN$0$A-MassElement-G
  6
Continuous
 62
   210
370
    -3
100
AcDbFace
 10
204585.0222078405
 20
131434.5234028745
 30
-0.0000000000009617
 11
204597.0839358508
 21
131418.5698854754
 31
-0.0000000000009758
 12
204597.0839358508
 22
131418.5698854754
 32
-0.0000000000009758
 13
204585.0222078405
 23
131434.5234028745
 33
-0.0000000000009617
  0
3DFACE
  5
2809
330
2
100
AcDbEntity
  8
TEREN$0$A-MassElement-G
  6
Continuous
 62
   210
370
    -3
100
AcDbFace
 10
204588.8860810236
 20
131437.5239174894
 30
-0.000000000000959
 11
204585.0222078405
 21
131434.5234028745
 31
-0.0000000000009617
 12
204585.0222078405
 22
131434.5234028745
 32
-0.0000000000009617
 13
204588.8860810236
 23
131437.5239174894
 33
-0.000000000000959
  0
3DFACE
  5
280A
330
2
100
AcDbEntity
  8
TEREN$0$A-MassElement-G
  6
Continuous
 62
   210
370
    -3
100
AcDbFace
 10
204618.8718742336
 20
131467.5097106994
 30
-0.0000000000009324
 11
204588.8860810236
 21
131437.5239174894
 31
-0.000000000000959
 12
204588.8860810236
 22
131437.5239174894
 32
-0.000000000000959
 13
204618.8718742336
 23
131467.5097106994
 33
-0.0000000000009324
  0
3DFACE
  5
280B
330
2
100
AcDbEntity
  8
TEREN$0$A-MassElement-G
  6
Continuous
 62
   210
370
    -3
100
AcDbFace
 10
204641.4333942924
 20
131503.4161641793
 30
-0.0000000000009005
 11
204618.8718742336
 21
131467.5097106994
 31
-0.0000000000009324
 12
204618.8718742336
 22
131467.5097106994
 32
-0.0000000000009324
 13
204641.4333942924
 23
131503.4161641793
 33
-0.0000000000009005
  0
3DFACE
  5
280C
330
2
100
AcDbEntity
  8
TEREN$0$A-MassElement-G
  6
Continuous
 62
   210
370
    -3
100
AcDbFace
 10
204655.4393123756
 20
131543.4427784192
 30
-0.0000000000008649
 11
204641.4333942924
 21
131503.4161641793
 31
-0.0000000000009005
 12
204641.4333942924
 22
131503.4161641793
 32
-0.0000000000009005
 13
204655.4393123756
 23
131543.4427784192
 33
-0.0000000000008649
  0
3DFACE
  5
280D
330
2
100
AcDbEntity
  8
TEREN$0$A-MassElement-G
  6
Continuous
 62
   210
370
    -3
100
AcDbFace
 10
204677.5918698076
 20
131554.5234028745
 30
-0.0000000000008551
 11
204655.4393123756
 21
131543.4427784192
 31
-0.0000000000008649
 12
204641.4333942924
 22
131503.4161641793
 32
-0.0000000000009005
 13
204641.4333942924
 23
131503.4161641793
 33
-0.0000000000009005
 70
    13
  0
3DFACE
  5
280E
330
2
100
AcDbEntity
  8
TEREN$0$A-MassElement-G
  6
Continuous
 62
   210
370
    -3
100
AcDbFace
 10
204618.8718742336
 20
131467.5097106994
 30
-0.0000000000009324
 11
204675.7555057076
 21
131543.8402403324
 31
-0.0000000000008646
 12
204677.5918698076
 22
131554.5234028745
 32
-0.0000000000008551
 13
204641.4333942924
 23
131503.4161641793
 33
-0.0000000000009005
 70
     5
  0
3DFACE
  5
280F
330
2
100
AcDbEntity
  8
TEREN$0$A-MassElement-G
  6
Continuous
 62
   210
370
    -3
100
AcDbFace
 10
204663.9460999673
 20
131504.9098468966
 30
-0.0000000000008992
 11
204675.7555057076
 21
131543.8402403324
 31
-0.0000000000008646
 12
204618.8718742336
 22
131467.5097106994
 32
-0.0000000000009324
 13
204618.8718742336
 23
131467.5097106994
 33
-0.0000000000009324
 70
    14
  0
3DFACE
  5
2810
330
2
100
AcDbEntity
  8
TEREN$0$A-MassElement-G
  6
Continuous
 62
   210
370
    -3
100
AcDbFace
 10
204588.8860810236
 20
131437.5239174894
 30
-0.000000000000959
 11
204644.7686656553
 21
131469.0313908232
 31
-0.000000000000931
 12
204663.9460999673
 22
131504.9098468966
 32
-0.0000000000008992
 13
204618.8718742336
 23
131467.5097106994
 33
-0.0000000000009324
 70
     5
  0
3DFACE
  5
2811
330
2
100
AcDbEntity
  8
TEREN$0$A-MassElement-G
  6
Continuous
 62
   210
370
    -3
100
AcDbFace
 10
204597.0839358508
 20
131418.5698854754
 30
-0.0000000000009758
 11
204618.9601808175
 21
131437.5836610582
 31
-0.000000000000959
 12
204588.8860810236
 22
131437.5239174894
 32
-0.000000000000959
 13
204585.0222078405
 23
131434.5234028745
 33
-0.0000000000009617
 70
     2
  0
3DFACE
  5
2812
330
2
100
AcDbEntity
  8
TEREN$0$A-MassElement-G
  6
Continuous
 62
   210
370
    -3
100
AcDbFace
 10
204644.7686656553
 20
131469.0313908232
 30
-0.000000000000931
 11
204588.8860810236
 21
131437.5239174894
 31
-0.000000000000959
 12
204618.9601808175
 22
131437.5836610582
 32
-0.000000000000959
 13
204618.9601808175
 23
131437.5836610582
 33
-0.000000000000959
 70
     3
  0
LINE
  5
2813
330
2
100
AcDbEntity
  8
TEREN$0$A-MassElement-G
  6
Continuous
 62
   210
370
    -3
100
AcDbLine
 10
204275.0918698077
 20
131654.5234028745
 30
-0.0000000000007663
 11
203915.0918698076
 21
131654.5234028745
 31
-0.0000000000007663
  0
LINE
  5
2814
330
2
100
AcDbEntity
  8
TEREN$0$A-MassElement-G
  6
Continuous
 62
   210
370
    -3
100
AcDbLine
 10
203915.0918698076
 20
131654.5234028745
 30
-0.0000000000007663
 11
203915.0918698076
 21
131804.5234028745
 31
-0.0000000000006331
  0
LINE
  5
2815
330
2
100
AcDbEntity
  8
TEREN$0$A-MassElement-G
  6
Continuous
 62
   210
370
    -3
100
AcDbLine
 10
203915.0918698076
 20
131782.5234028745
 30
-0.0000000000006526
 11
204275.0918698077
 21
131782.5234028745
 31
-0.0000000000006526
  0
LWPOLYLINE
  5
2816
330
2
100
AcDbEntity
  8
0Hatch
100
AcDbPolyline
 90
        4
 70
     1
 43
0.0
 10
204674.0918498076
 20
131574.5234028745
 10
204735.0918498076
 20
131574.5234028745
 10
204735.0918498076
 20
131624.5234028745
 10
204674.0918498076
 20
131624.5234028745
  0
LWPOLYLINE
  5
2817
330
2
100
AcDbEntity
  8
0Hatch
100
AcDbPolyline
 90
        4
 70
     1
 43
0.0
 10
204690.0681811686
 20
131574.5234028745
 10
204735.0918498076
 20
131574.5234028745
 10
204735.0918498076
 20
131624.5234028745
 10
204690.0918498076
 20
131624.5234028745
  0
LWPOLYLINE
  5
2818
330
2
100
AcDbEntity
  8
0Hatch
100
AcDbPolyline
 90
        4
 70
     1
 43
0.0
 10
205006.0918898076
 20
131574.5234028745
 10
204945.0918898076
 20
131574.5234028745
 10
204945.0918898076
 20
131624.5234028745
 10
205006.0918898076
 20
131624.5234028745
  0
LWPOLYLINE
  5
2819
330
2
100
AcDbEntity
  8
0Hatch
100
AcDbPolyline
 90
        4
 70
     1
 43
0.0
 10
204990.1155584467
 20
131574.5234028745
 10
204945.0918898076
 20
131574.5234028745
 10
204945.0918898076
 20
131624.5234028745
 10
204990.0918898076
 20
131624.5234028745
  0
LWPOLYLINE
  5
281A
102
{ACAD_REACTORS
330
2821
102
}
330
2
100
AcDbEntity
  8
0Hatch
100
AcDbPolyline
 90
       11
 70
     1
 43
0.0
 10
204955.0918698077
 20
132784.5234028745
 10
204955.0918698077
 20
132520.6572887663
 42
-0.3490620863513383
 10
205141.2257556995
 20
132334.5234028745
 10
205405.0918698076
 20
132334.5234028745
 10
205405.0918698076
 20
131654.5234028745
 10
204275.0918698077
 20
131654.5234028745
 10
204275.0918698077
 20
131804.5234028745
 10
203915.0918698076
 20
131804.5234028745
 10
203915.0918698076
 20
132462.5234028745
 10
204275.0918698077
 20
132462.5234028745
 10
204275.0918698077
 20
132784.5234028745
  0
LWPOLYLINE
  5
281B
102
{ACAD_REACTORS
330
2821
102
}
330
2
100
AcDbEntity
  8
0Hatch
100
AcDbPolyline
 90
       14
 70
     0
 43
0.0
 10
204955.0918698077
 20
132784.5234028745
 10
204275.0918698077
 20
132784.5234028745
 10
204275.0918698077
 20
132462.5234028745
 10
203915.0918698076
 20
132462.5234028745
 10
203915.0918698076
 20
131804.5234028745
 10
203975.0918698076
 20
131804.5234028745
 10
204215.0918698077
 20
131804.5234028745
 10
204275.0918698077
 20
131804.5234028745
 10
204275.0918698077
 20
131654.5234028745
 10
204785.0918698076
 20
131654.5234028745
 10
204895.0918698077
 20
131654.5234028745
 10
205405.0918698076
 20
131654.5234028745
 10
205405.0918698076
 20
132334.5234028745
 10
205141.2257192508
 20
132334.5237220013
  0
LINE
  5
281C
102
{ACAD_REACTORS
330
2821
102
}
330
2
100
AcDbEntity
  8
-hatch
100
AcDbLine
 10
203975.0918698076
 20
131804.5234028745
 30
-0.0000000000006331
 11
203975.0918698076
 21
131864.5234028745
 31
-0.0000000000005798
  0
LINE
  5
281D
102
{ACAD_REACTORS
330
2821
102
}
330
2
100
AcDbEntity
  8
-hatch
100
AcDbLine
 10
204245.0918698076
 20
131804.5234028745
 30
-0.0000000000006331
 11
204245.0918698076
 21
131864.5234028745
 31
-0.0000000000005798
  0
LINE
  5
281E
102
{ACAD_REACTORS
330
2821
102
}
330
2
100
AcDbEntity
  8
-hatch
100
AcDbLine
 10
204785.0918698076
 20
131654.5234028745
 30
-0.0000000000007663
 11
204785.0918698076
 21
131714.5234028745
 31
-0.000000000000713
  0
LINE
  5
281F
102
{ACAD_REACTORS
330
2821
102
}
330
2
100
AcDbEntity
  8
0Hatch
100
AcDbLine
 10
204895.0918698077
 20
131654.5234028745
 30
-0.0000000000007663
 11
204895.0918698077
 21
131714.5234028745
 31
-0.000000000000713
  0
LWPOLYLINE
  5
2820
102
{ACAD_REACTORS
330
2821
102
}
330
2
100
AcDbEntity
  8
0Hatch
100
AcDbPolyline
 90
       11
 70
     1
 43
0.0
 10
204895.0918698077
 20
132724.5234028745
 10
204335.0918698076
 20
132724.5234028745
 10
204335.0918698076
 20
132402.5234028745
 10
203975.0918698076
 20
132402.5234028745
 10
203975.0918698076
 20
131864.5234028745
 10
204335.0918698076
 20
131864.5234028745
 10
204335.0918698076
 20
131714.5234028745
 10
205345.0918698076
 20
131714.5234028745
 10
205345.0918698076
 20
132274.5234028745
 10
205078.2524963352
 20
132274.5234028745
 42
0.5628542013988668
 10
204895.0918698077
 20
132457.6840294021
  0
HATCH
  5
2821
330
2
100
AcDbEntity
  8
0Hatch
100
AcDbHatch
 10
0.0
 20
0.0
 30
-0.000000000117699
210
0.0
220
-0.0000000000000009
230
1.0
  2
SOLID
 70
     1
 71
     1
 91
        2
 92
        7
 72
     1
 73
     1
 93
       21
 10
204275.0918698077
 20
132784.5234028745
 42
0.0
 10
204275.0918698077
 20
132462.5234028745
 42
0.0
 10
203915.0918698076
 20
132462.5234028745
 42
0.0
 10
203915.0918698076
 20
131804.5234028745
 42
0.0
 10
203975.0918698076
 20
131804.5234028745
 42
0.0
 10
203975.0918698076
 20
131864.5234028745
 42
0.0
 10
203975.0918698076
 20
132402.5234028745
 42
0.0
 10
204335.0918698076
 20
132402.5234028745
 42
0.0
 10
204335.0918698076
 20
132724.5234028745
 42
0.0
 10
204895.0918698077
 20
132724.5234028745
 42
0.0
 10
204895.0918698077
 20
132457.6840294021
 42
-0.5628542013988671
 10
205078.2524963352
 20
132274.5234028745
 42
0.0
 10
205345.0918698076
 20
132274.5234028745
 42
0.0
 10
205345.0918698076
 20
131714.5234028745
 42
0.0
 10
204895.0918698076
 20
131714.5234028745
 42
0.0
 10
204895.0918698077
 20
131654.5234028745
 42
0.0
 10
205405.0918698077
 20
131654.5234028745
 42
0.0
 10
205405.0918698076
 20
132334.5234028745
 42
0.0
 10
205141.2257556995
 20
132334.5234028745
 42
0.3490620863513382
 10
204955.0918698077
 20
132520.6572887663
 42
0.0
 10
204955.0918698077
 20
132784.5234028745
 42
0.0
 97
        5
330
281B
330
281C
330
2820
330
281F
330
281A
 92
       22
 72
     0
 73
     1
 93
        8
 10
204335.0918698076
 20
131714.5234028744
 10
204335.0918698077
 20
131864.5234028745
 10
204245.0918698076
 20
131864.5234028745
 10
204245.0918698076
 20
131804.5234028745
 10
204275.0918698077
 20
131804.5234028745
 10
204275.0918698077
 20
131654.5234028745
 10
204785.0918698076
 20
131654.5234028745
 10
204785.0918698076
 20
131714.5234028745
 97
        4
330
2820
330
281D
330
281B
330
281E
 75
     0
 76
     1
 47
4.094401691395873
 98
        2
 10
204547.7044059584
 20
132764.2287752798
 10
204330.5970638896
 20
131691.4955068801
  0
DIMENSION
  5
2822
330
2
100
AcDbEntity
  8
Rodo-teren$0$S-FloorSlab-G
100
AcDbDimension
  2
*D16
 10
204275.0918698077
 20
133353.4306032435
 30
0.0
 11
204095.0918698076
 21
133433.4306032435
 31
0.0
 70
    32
 71
     5
 42
360.0
  3
500
100
AcDbAlignedDimension
 13
203915.0918698076
 23
132462.5234028745
 33
0.0
 14
204275.0918698077
 24
132462.5234028745
 34
0.0
100
AcDbRotatedDimension
  0
DIMENSION
  5
282D
330
2
100
AcDbEntity
  8
Rodo-teren$0$S-FloorSlab-G
100
AcDbDimension
  2
*D17
 10
204955.0918698077
 20
133353.4306032435
 30
0.0
 11
204615.0918698076
 21
133433.4306032435
 31
0.0
 70
    32
 71
     5
 42
680.0
  3
500
100
AcDbAlignedDimension
 13
204275.0918698077
 23
132462.5234028745
 33
0.0
 14
204955.0918698077
 24
132784.5234028745
 34
0.0
100
AcDbRotatedDimension
  0
DIMENSION
  5
2838
330
2
100
AcDbEntity
  8
Rodo-teren$0$S-FloorSlab-G
100
AcDbDimension
  2
*D18
 10
205405.0918698076
 20
133353.4306032435
 30
0.0
 11
205180.0918698076
 21
133433.4306032435
 31
0.0
 70
    32
 71
     5
 42
450.0
  3
500
100
AcDbAlignedDimension
 13
204955.0918698077
 23
132784.5234028745
 33
0.0
 14
205405.0918698076
 24
132334.5234028745
 34
0.0
100
AcDbRotatedDimension
  0
DIMENSION
  5
2843
330
2
100
AcDbEntity
  8
Rodo-teren$0$S-FloorSlab-G
100
AcDbDimension
  2
*D19
 10
205405.0918698076
 20
133562.1455300822
 30
0.0
 11
204660.0918698076
 21
133642.1455300822
 31
0.0
 70
    32
 71
     5
 42
1490.0
  3
500
100
AcDbAlignedDimension
 13
203915.0918698076
 23
132462.5234028745
 33
0.0
 14
205405.0918698076
 24
132334.5234028745
 34
0.0
100
AcDbRotatedDimension
  0
DIMENSION
  5
286A
330
2
100
AcDbEntity
  8
Rodo-teren$0$S-FloorSlab-G
100
AcDbDimension
  2
*D20
 10
203280.5941332325
 20
132462.5234028745
 30
0.0
 11
203200.5941332325
 21
132623.5234028746
 31
0.0
 70
    32
 71
     5
 42
322.0
  3
500
100
AcDbAlignedDimension
 13
204275.0918698077
 23
132784.5234028745
 33
0.0
 14
204275.0918698077
 24
132462.5234028745
 34
0.0
 50
90.0
100
AcDbRotatedDimension
  0
DIMENSION
  5
2875
330
2
100
AcDbEntity
  8
Rodo-teren$0$S-FloorSlab-G
100
AcDbDimension
  2
*D21
 10
203280.5941332325
 20
131804.5234028745
 30
0.0
 11
203200.5941332325
 21
132133.5234028746
 31
0.0
 70
    32
 71
     5
 42
658.0
  3
500
100
AcDbAlignedDimension
 13
204275.0918698077
 23
132462.5234028745
 33
0.0
 14
203915.0918698076
 24
131804.5234028745
 34
0.0
 50
90.0
100
AcDbRotatedDimension
  0
DIMENSION
  5
2880
330
2
100
AcDbEntity
  8
Rodo-teren$0$S-FloorSlab-G
100
AcDbDimension
  2
*D22
 10
203280.5941332325
 20
131654.5234028745
 30
0.0
 11
203200.5941332325
 21
131729.5234028746
 31
0.0
 70
    32
 71
     5
 42
150.0
  3
500
100
AcDbAlignedDimension
 13
203915.0918698076
 23
131804.5234028745
 33
0.0
 14
204275.0918698077
 24
131654.5234028745
 34
0.0
 50
90.0
100
AcDbRotatedDimension
  0
DIMENSION
  5
288D
330
2
100
AcDbEntity
  8
Rodo-teren$0$S-FloorSlab-G
100
AcDbDimension
  2
*D23
 10
203048.663918113
 20
131654.5234028745
 30
0.0
 11
202968.663918113
 21
132219.5234028746
 31
0.0
 70
    32
 71
     5
 42
1130.0
  3
500
100
AcDbAlignedDimension
 13
204275.0918698077
 23
132784.5234028745
 33
0.0
 14
204275.0918698077
 24
131654.5234028745
 34
0.0
 50
90.0
100
AcDbRotatedDimension
  0
DIMENSION
  5
28B6
330
2
100
AcDbEntity
  8
Rodo-teren$0$S-FloorSlab-G
100
AcDbDimension
  2
*D31
 10
210598.9657054696
 20
131654.5234028745
 30
0.0
 11
210518.9657054695
 21
132219.5234028746
 31
0.0
 70
    32
 71
     5
 42
1130.0
  3
500
100
AcDbAlignedDimension
 13
209372.5377537749
 23
132784.5234028745
 33
0.0
 14
209372.5377537749
 24
131654.5234028745
 34
0.0
 50
90.0
100
AcDbRotatedDimension
  0
DIMENSION
  5
28B7
330
2
100
AcDbEntity
  8
Rodo-teren$0$S-FloorSlab-G
100
AcDbDimension
  2
*D30
 10
210367.03549035
 20
131654.5234028745
 30
0.0
 11
210287.03549035
 21
131729.5234028746
 31
0.0
 70
    32
 71
     5
 42
150.0
  3
500
100
AcDbAlignedDimension
 13
209732.5377537749
 23
131804.5234028745
 33
0.0
 14
209372.5377537749
 24
131654.5234028745
 34
0.0
 50
90.0
100
AcDbRotatedDimension
  0
DIMENSION
  5
28B8
330
2
100
AcDbEntity
  8
Rodo-teren$0$S-FloorSlab-G
100
AcDbDimension
  2
*D29
 10
210367.03549035
 20
131804.5234028745
 30
0.0
 11
210287.03549035
 21
132133.5234028746
 31
0.0
 70
    32
 71
     5
 42
658.0
  3
500
100
AcDbAlignedDimension
 13
209372.5377537749
 23
132462.5234028745
 33
0.0
 14
209732.5377537749
 24
131804.5234028745
 34
0.0
 50
90.0
100
AcDbRotatedDimension
  0
DIMENSION
  5
28B9
330
2
100
AcDbEntity
  8
Rodo-teren$0$S-FloorSlab-G
100
AcDbDimension
  2
*D28
 10
210367.03549035
 20
132462.5234028745
 30
0.0
 11
210287.03549035
 21
132623.5234028746
 31
0.0
 70
    32
 71
     5
 42
322.0
  3
500
100
AcDbAlignedDimension
 13
209372.5377537749
 23
132784.5234028745
 33
0.0
 14
209372.5377537749
 24
132462.5234028745
 34
0.0
 50
90.0
100
AcDbRotatedDimension
  0
DIMENSION
  5
28BA
330
2
100
AcDbEntity
  8
Rodo-teren$0$S-FloorSlab-G
100
AcDbDimension
  2
*D27
 10
208242.5377537749
 20
133562.1455300822
 30
0.0
 11
208987.5377537749
 21
133642.1455300822
 31
0.0
 70
    32
 71
     5
 42
1490.0
  3
500
100
AcDbAlignedDimension
 13
209732.5377537749
 23
132462.5234028745
 33
0.0
 14
208242.5377537749
 24
132334.5234028745
 34
0.0
 50
180.0
100
AcDbRotatedDimension
  0
DIMENSION
  5
28BB
330
2
100
AcDbEntity
  8
Rodo-teren$0$S-FloorSlab-G
100
AcDbDimension
  2
*D26
 10
208242.5377537749
 20
133353.4306032435
 30
0.0
 11
208467.5377537749
 21
133433.4306032435
 31
0.0
 70
    32
 71
     5
 42
450.0
  3
500
100
AcDbAlignedDimension
 13
208692.5377537749
 23
132784.5234028745
 33
0.0
 14
208242.5377537749
 24
132334.5234028745
 34
0.0
 50
180.0
100
AcDbRotatedDimension
  0
DIMENSION
  5
28BC
330
2
100
AcDbEntity
  8
Rodo-teren$0$S-FloorSlab-G
100
AcDbDimension
  2
*D25
 10
208692.5377537749
 20
133353.4306032435
 30
0.0
 11
209032.5377537749
 21
133433.4306032435
 31
0.0
 70
    32
 71
     5
 42
680.0
  3
500
100
AcDbAlignedDimension
 13
209372.5377537749
 23
132462.5234028745
 33
0.0
 14
208692.5377537749
 24
132784.5234028745
 34
0.0
 50
180.0
100
AcDbRotatedDimension
  0
DIMENSION
  5
28BD
330
2
100
AcDbEntity
  8
Rodo-teren$0$S-FloorSlab-G
100
AcDbDimension
  2
*D24
 10
209372.5377537749
 20
133353.4306032435
 30
0.0
 11
209552.5377537749
 21
133433.4306032435
 31
0.0
 70
    32
 71
     5
 42
360.0
  3
500
100
AcDbAlignedDimension
 13
209732.5377537749
 23
132462.5234028745
 33
0.0
 14
209372.5377537749
 24
132462.5234028745
 34
0.0
 50
180.0
100
AcDbRotatedDimension
  0
HATCH
  5
28BE
330
2
100
AcDbEntity
  8
0Hatch
100
AcDbHatch
 10
0.0
 20
0.0
 30
-0.000000000117699
210
0.0
220
-0.0000000000000009
230
1.0
  2
SOLID
 70
     1
 71
     1
 91
        2
 92
        7
 72
     1
 73
     1
 93
       21
 10
208692.5377537749
 20
132784.5234028745
 42
0.0
 10
208692.5377537749
 20
132520.6572887663
 42
0.3490620863513382
 10
208506.4038678831
 20
132334.5234028745
 42
0.0
 10
208242.5377537749
 20
132334.5234028745
 42
0.0
 10
208242.5377537749
 20
131654.5234028745
 42
0.0
 10
208752.5377537749
 20
131654.5234028745
 42
0.0
 10
208752.5377537749
 20
131714.5234028745
 42
0.0
 10
208302.5377537749
 20
131714.5234028745
 42
0.0
 10
208302.5377537749
 20
132274.5234028745
 42
0.0
 10
208569.3771272473
 20
132274.5234028745
 42
-0.5628542013988671
 10
208752.5377537749
 20
132457.6840294021
 42
0.0
 10
208752.5377537749
 20
132724.5234028745
 42
0.0
 10
209312.5377537749
 20
132724.5234028745
 42
0.0
 10
209312.5377537749
 20
132402.5234028745
 42
0.0
 10
209672.5377537749
 20
132402.5234028745
 42
0.0
 10
209672.5377537749
 20
131864.5234028745
 42
0.0
 10
209672.5377537749
 20
131804.5234028745
 42
0.0
 10
209732.5377537749
 20
131804.5234028745
 42
0.0
 10
209732.5377537749
 20
132462.5234028745
 42
0.0
 10
209372.5377537749
 20
132462.5234028745
 42
0.0
 10
209372.5377537749
 20
132784.5234028745
 42
0.0
 97
        5
330
28C4
330
28C3
330
28BF
330
28C0
330
28C5
 92
       23
 72
     0
 73
     1
 93
        8
 10
209312.5377537749
 20
131714.5234028745
 10
208862.5377537749
 20
131714.5234028745
 10
208862.5377537749
 20
131654.5234028745
 10
209372.5377537749
 20
131654.5234028745
 10
209372.5377537749
 20
131804.5234028745
 10
209402.5377537749
 20
131804.5234028745
 10
209402.5377537749
 20
131864.5234028745
 10
209312.5377537749
 20
131864.5234028745
 97
        4
330
28BF
330
28C2
330
28C4
330
28C1
 75
     0
 76
     1
 47
4.094401691395873
 98
        2
 10
209099.9252176241
 20
132764.2287752798
 10
209317.0325596929
 20
131691.4955068801
  0
LWPOLYLINE
  5
28BF
102
{ACAD_REACTORS
330
28BE
102
}
330
2
100
AcDbEntity
  8
0Hatch
100
AcDbPolyline
 90
       11
 70
     1
 43
0.0
 10
208752.5377537749
 20
132724.5234028745
 10
209312.5377537749
 20
132724.5234028745
 10
209312.5377537749
 20
132402.5234028745
 10
209672.5377537749
 20
132402.5234028745
 10
209672.5377537749
 20
131864.5234028745
 10
209312.5377537749
 20
131864.5234028745
 10
209312.5377537749
 20
131714.5234028745
 10
208302.5377537749
 20
131714.5234028745
 10
208302.5377537749
 20
132274.5234028745
 10
208569.3771272473
 20
132274.5234028745
 42
-0.5628542013988668
 10
208752.5377537749
 20
132457.6840294021
  0
LINE
  5
28C0
102
{ACAD_REACTORS
330
28BE
102
}
330
2
100
AcDbEntity
  8
0Hatch
100
AcDbLine
 10
208752.5377537749
 20
131654.5234028745
 30
-0.0000000000007663
 11
208752.5377537749
 21
131714.5234028745
 31
-0.000000000000713
  0
LINE
  5
28C1
102
{ACAD_REACTORS
330
28BE
102
}
330
2
100
AcDbEntity
  8
0Hatch
100
AcDbLine
 10
208862.5377537749
 20
131654.5234028745
 30
-0.0000000000007663
 11
208862.5377537749
 21
131714.5234028745
 31
-0.000000000000713
  0
LINE
  5
28C2
102
{ACAD_REACTORS
330
28BE
102
}
330
2
100
AcDbEntity
  8
0Hatch
100
AcDbLine
 10
209402.5377537749
 20
131804.5234028745
 30
-0.0000000000006331
 11
209402.5377537749
 21
131864.5234028745
 31
-0.0000000000005798
  0
LINE
  5
28C3
102
{ACAD_REACTORS
330
28BE
102
}
330
2
100
AcDbEntity
  8
0Hatch
100
AcDbLine
 10
209672.5377537749
 20
131804.5234028745
 30
-0.0000000000006331
 11
209672.5377537749
 21
131864.5234028745
 31
-0.0000000000005798
  0
LWPOLYLINE
  5
28C4
102
{ACAD_REACTORS
330
28BE
102
}
330
2
100
AcDbEntity
  8
0Hatch
100
AcDbPolyline
 90
       14
 70
     0
 43
0.0
 10
208692.5377537749
 20
132784.5234028745
 10
209372.5377537749
 20
132784.5234028745
 10
209372.5377537749
 20
132462.5234028745
 10
209732.5377537749
 20
132462.5234028745
 10
209732.5377537749
 20
131804.5234028745
 10
209672.5377537749
 20
131804.5234028745
 10
209432.5377537749
 20
131804.5234028745
 10
209372.5377537749
 20
131804.5234028745
 10
209372.5377537749
 20
131654.5234028745
 10
208862.5377537749
 20
131654.5234028745
 10
208752.5377537749
 20
131654.5234028745
 10
208242.5377537749
 20
131654.5234028745
 10
208242.5377537749
 20
132334.5234028745
 10
208506.4039043317
 20
132334.5237220013
  0
LWPOLYLINE
  5
28C5
102
{ACAD_REACTORS
330
28BE
102
}
330
2
100
AcDbEntity
  8
0Hatch
100
AcDbPolyline
 90
       11
 70
     1
 43
0.0
 10
208692.5377537749
 20
132784.5234028745
 10
208692.5377537749
 20
132520.6572887663
 42
0.3490620863513383
 10
208506.4038678831
 20
132334.5234028745
 10
208242.5377537749
 20
132334.5234028745
 10
208242.5377537749
 20
131654.5234028745
 10
209372.5377537749
 20
131654.5234028745
 10
209372.5377537749
 20
131804.5234028745
 10
209732.5377537749
 20
131804.5234028745
 10
209732.5377537749
 20
132462.5234028745
 10
209372.5377537749
 20
132462.5234028745
 10
209372.5377537749
 20
132784.5234028745
  0
LWPOLYLINE
  5
28C6
330
2
100
AcDbEntity
  8
0Hatch
100
AcDbPolyline
 90
        4
 70
     1
 43
0.0
 10
208657.5140651358
 20
131574.5234028745
 10
208702.5377337749
 20
131574.5234028745
 10
208702.5377337749
 20
131624.5234028745
 10
208657.5377337749
 20
131624.5234028745
  0
LWPOLYLINE
  5
28C7
330
2
100
AcDbEntity
  8
0Hatch
100
AcDbPolyline
 90
        4
 70
     1
 43
0.0
 10
208641.5377337749
 20
131574.5234028745
 10
208702.5377337749
 20
131574.5234028745
 10
208702.5377337749
 20
131624.5234028745
 10
208641.5377337749
 20
131624.5234028745
  0
LWPOLYLINE
  5
28C8
330
2
100
AcDbEntity
  8
0Hatch
100
AcDbPolyline
 90
        4
 70
     1
 43
0.0
 10
208957.5614424139
 20
131574.5234028745
 10
208912.5377737749
 20
131574.5234028745
 10
208912.5377737749
 20
131624.5234028745
 10
208957.5377737749
 20
131624.5234028745
  0
LWPOLYLINE
  5
28C9
330
2
100
AcDbEntity
  8
0Hatch
100
AcDbPolyline
 90
        4
 70
     1
 43
0.0
 10
208973.5377737749
 20
131574.5234028745
 10
208912.5377737749
 20
131574.5234028745
 10
208912.5377737749
 20
131624.5234028745
 10
208973.5377737749
 20
131624.5234028745
  0
LINE
  5
28CA
330
2
100
AcDbEntity
  8
TEREN$0$A-MassElement-G
  6
Continuous
 62
   210
370
    -3
100
AcDbLine
 10
209732.5377537749
 20
131782.5234028745
 30
-0.0000000000006526
 11
209372.5377537749
 21
131782.5234028745
 31
-0.0000000000006526
  0
LINE
  5
28CB
330
2
100
AcDbEntity
  8
TEREN$0$A-MassElement-G
  6
Continuous
 62
   210
370
    -3
100
AcDbLine
 10
209732.5377537749
 20
131654.5234028745
 30
-0.0000000000007663
 11
209732.5377537749
 21
131804.5234028745
 31
-0.0000000000006331
  0
LINE
  5
28CC
330
2
100
AcDbEntity
  8
TEREN$0$A-MassElement-G
  6
Continuous
 62
   210
370
    -3
100
AcDbLine
 10
209372.5377537749
 20
131654.5234028745
 30
-0.0000000000007663
 11
209732.5377537749
 21
131654.5234028745
 31
-0.0000000000007663
  0
3DFACE
  5
28CD
330
2
100
AcDbEntity
  8
TEREN$0$A-MassElement-G
  6
Continuous
 62
   210
370
    -3
100
AcDbFace
 10
209002.8609579272
 20
131469.0313908232
 30
-0.000000000000931
 11
209058.743542559
 21
131437.5239174894
 31
-0.000000000000959
 12
209028.6694427651
 22
131437.5836610582
 32
-0.000000000000959
 13
209028.6694427651
 23
131437.5836610582
 33
-0.000000000000959
 70
     3
  0
3DFACE
  5
28CE
330
2
100
AcDbEntity
  8
TEREN$0$A-MassElement-G
  6
Continuous
 62
   210
370
    -3
100
AcDbFace
 10
209050.5456877318
 20
131418.5698854754
 30
-0.0000000000009758
 11
209028.6694427651
 21
131437.5836610582
 31
-0.000000000000959
 12
209058.743542559
 22
131437.5239174894
 32
-0.000000000000959
 13
209062.607415742
 23
131434.5234028745
 33
-0.0000000000009617
 70
     2
  0
3DFACE
  5
28CF
330
2
100
AcDbEntity
  8
TEREN$0$A-MassElement-G
  6
Continuous
 62
   210
370
    -3
100
AcDbFace
 10
209058.743542559
 20
131437.5239174894
 30
-0.000000000000959
 11
209002.8609579272
 21
131469.0313908232
 31
-0.000000000000931
 12
208983.6835236152
 22
131504.9098468966
 32
-0.0000000000008992
 13
209028.757749349
 23
131467.5097106994
 33
-0.0000000000009324
 70
     5
  0
3DFACE
  5
28D0
330
2
100
AcDbEntity
  8
TEREN$0$A-MassElement-G
  6
Continuous
 62
   210
370
    -3
100
AcDbFace
 10
208983.6835236152
 20
131504.9098468966
 30
-0.0000000000008992
 11
208971.8741178749
 21
131543.8402403324
 31
-0.0000000000008646
 12
209028.757749349
 22
131467.5097106994
 32
-0.0000000000009324
 13
209028.757749349
 23
131467.5097106994
 33
-0.0000000000009324
 70
    14
  0
3DFACE
  5
28D1
330
2
100
AcDbEntity
  8
TEREN$0$A-MassElement-G
  6
Continuous
 62
   210
370
    -3
100
AcDbFace
 10
209028.757749349
 20
131467.5097106994
 30
-0.0000000000009324
 11
208971.8741178749
 21
131543.8402403324
 31
-0.0000000000008646
 12
208970.0377537749
 22
131554.5234028745
 32
-0.0000000000008551
 13
209006.1962292902
 23
131503.4161641793
 33
-0.0000000000009005
 70
     5
  0
3DFACE
  5
28D2
330
2
100
AcDbEntity
  8
TEREN$0$A-MassElement-G
  6
Continuous
 62
   210
370
    -3
100
AcDbFace
 10
208970.0377537749
 20
131554.5234028745
 30
-0.0000000000008551
 11
208992.1903112069
 21
131543.4427784192
 31
-0.0000000000008649
 12
209006.1962292902
 22
131503.4161641793
 32
-0.0000000000009005
 13
209006.1962292902
 23
131503.4161641793
 33
-0.0000000000009005
 70
    13
  0
3DFACE
  5
28D3
330
2
100
AcDbEntity
  8
TEREN$0$A-MassElement-G
  6
Continuous
 62
   210
370
    -3
100
AcDbFace
 10
208992.1903112069
 20
131543.4427784192
 30
-0.0000000000008649
 11
209006.1962292902
 21
131503.4161641793
 31
-0.0000000000009005
 12
209006.1962292902
 22
131503.4161641793
 32
-0.0000000000009005
 13
208992.1903112069
 23
131543.4427784192
 33
-0.0000000000008649
  0
3DFACE
  5
28D4
330
2
100
AcDbEntity
  8
TEREN$0$A-MassElement-G
  6
Continuous
 62
   210
370
    -3
100
AcDbFace
 10
209006.1962292902
 20
131503.4161641793
 30
-0.0000000000009005
 11
209028.757749349
 21
131467.5097106994
 31
-0.0000000000009324
 12
209028.757749349
 22
131467.5097106994
 32
-0.0000000000009324
 13
209006.1962292902
 23
131503.4161641793
 33
-0.0000000000009005
  0
3DFACE
  5
28D5
330
2
100
AcDbEntity
  8
TEREN$0$A-MassElement-G
  6
Continuous
 62
   210
370
    -3
100
AcDbFace
 10
209028.757749349
 20
131467.5097106994
 30
-0.0000000000009324
 11
209058.743542559
 21
131437.5239174894
 31
-0.000000000000959
 12
209058.743542559
 22
131437.5239174894
 32
-0.000000000000959
 13
209028.757749349
 23
131467.5097106994
 33
-0.0000000000009324
  0
3DFACE
  5
28D6
330
2
100
AcDbEntity
  8
TEREN$0$A-MassElement-G
  6
Continuous
 62
   210
370
    -3
100
AcDbFace
 10
209058.743542559
 20
131437.5239174894
 30
-0.000000000000959
 11
209062.607415742
 21
131434.5234028745
 31
-0.0000000000009617
 12
209062.607415742
 22
131434.5234028745
 32
-0.0000000000009617
 13
209058.743542559
 23
131437.5239174894
 33
-0.000000000000959
  0
3DFACE
  5
28D7
330
2
100
AcDbEntity
  8
TEREN$0$A-MassElement-G
  6
Continuous
 62
   210
370
    -3
100
AcDbFace
 10
209062.607415742
 20
131434.5234028745
 30
-0.0000000000009617
 11
209050.5456877318
 21
131418.5698854754
 31
-0.0000000000009758
 12
209050.5456877318
 22
131418.5698854754
 32
-0.0000000000009758
 13
209062.607415742
 23
131434.5234028745
 33
-0.0000000000009617
  0
3DFACE
  5
28D8
330
2
100
AcDbEntity
  8
TEREN$0$A-MassElement-G
  6
Continuous
 62
   210
370
    -3
100
AcDbFace
 10
209050.5456877318
 20
131418.5698854754
 30
-0.0000000000009758
 11
209028.6694427651
 21
131437.5836610582
 31
-0.000000000000959
 12
209028.6694427651
 22
131437.5836610582
 32
-0.000000000000959
 13
209050.5456877318
 23
131418.5698854754
 33
-0.0000000000009758
  0
3DFACE
  5
28D9
330
2
100
AcDbEntity
  8
TEREN$0$A-MassElement-G
  6
Continuous
 62
   210
370
    -3
100
AcDbFace
 10
209028.6694427651
 20
131437.5836610582
 30
-0.000000000000959
 11
209002.8609579272
 21
131469.0313908232
 31
-0.000000000000931
 12
209002.8609579272
 22
131469.0313908232
 32
-0.000000000000931
 13
209028.6694427651
 23
131437.5836610582
 33
-0.000000000000959
  0
3DFACE
  5
28DA
330
2
100
AcDbEntity
  8
TEREN$0$A-MassElement-G
  6
Continuous
 62
   210
370
    -3
100
AcDbFace
 10
209002.8609579272
 20
131469.0313908232
 30
-0.000000000000931
 11
208983.6835236152
 21
131504.9098468966
 31
-0.0000000000008992
 12
208983.6835236152
 22
131504.9098468966
 32
-0.0000000000008992
 13
209002.8609579272
 23
131469.0313908232
 33
-0.000000000000931
  0
3DFACE
  5
28DB
330
2
100
AcDbEntity
  8
TEREN$0$A-MassElement-G
  6
Continuous
 62
   210
370
    -3
100
AcDbFace
 10
208983.6835236152
 20
131504.9098468966
 30
-0.0000000000008992
 11
208971.8741178749
 21
131543.8402403324
 31
-0.0000000000008646
 12
208971.8741178749
 22
131543.8402403324
 32
-0.0000000000008646
 13
208983.6835236152
 23
131504.9098468966
 33
-0.0000000000008992
  0
3DFACE
  5
28DC
330
2
100
AcDbEntity
  8
TEREN$0$A-MassElement-G
  6
Continuous
 62
   210
370
    -3
100
AcDbFace
 10
208990.0377537749
 20
131654.5234028745
 30
-0.0000000000007663
 11
208990.0377537749
 21
131554.3369312951
 31
-0.0000000000008553
 12
208990.0377537749
 22
131554.5234028745
 32
-0.0000000000008551
 13
208990.0377537749
 23
131654.5234028745
 33
-0.0000000000007663
 70
     2
  0
3DFACE
  5
28DD
330
2
100
AcDbEntity
  8
TEREN$0$A-MassElement-G
  6
Continuous
 62
   210
370
    -3
100
AcDbFace
 10
208970.0377537749
 20
131554.5234028745
 30
-0.0000000000008551
 11
208970.0377537749
 21
131654.5234028745
 31
-0.0000000000007663
 12
208990.0377537749
 22
131654.5234028745
 32
-0.0000000000007663
 13
208990.0377537749
 23
131554.5234028745
 33
-0.0000000000008551
  0
3DFACE
  5
28DE
330
2
100
AcDbEntity
  8
TEREN$0$A-MassElement-G
  6
Continuous
 62
   210
370
    -3
100
AcDbFace
 10
208970.0377537749
 20
131554.5234028745
 30
-0.0000000000008551
 11
208970.0377537749
 21
131654.5234028745
 31
-0.0000000000007663
 12
208970.0377537749
 22
131654.5234028745
 32
-0.0000000000007663
 13
208970.0377537749
 23
131554.5234028745
 33
-0.0000000000008551
  0
3DFACE
  5
28DF
330
2
100
AcDbEntity
  8
TEREN$0$A-MassElement-G
  6
Continuous
 62
   210
370
    -3
100
AcDbFace
 10
208970.0377537749
 20
131554.5234028745
 30
-0.0000000000008551
 11
208971.8741178749
 21
131543.8402403324
 31
-0.0000000000008646
 12
208983.6835236152
 22
131504.9098468966
 32
-0.0000000000008992
 13
208990.0377537749
 23
131554.3369312951
 33
-0.0000000000008553
 70
    12
  0
3DFACE
  5
28E0
330
2
100
AcDbEntity
  8
TEREN$0$A-MassElement-G
  6
Continuous
 62
   210
370
    -3
100
AcDbFace
 10
208970.0377537749
 20
131654.5234028745
 30
-0.0000000000007663
 11
208970.0377537749
 21
131554.5234028745
 31
-0.0000000000008551
 12
208990.0377537749
 22
131554.3369312951
 32
-0.0000000000008553
 13
208990.0377537749
 23
131654.5234028745
 33
-0.0000000000007663
 70
     2
  0
3DFACE
  5
28E1
330
2
100
AcDbEntity
  8
TEREN$0$A-MassElement-G
  6
Continuous
 62
   210
370
    -3
100
AcDbFace
 10
208990.0377537749
 20
131554.3369312951
 30
-0.0000000000008553
 11
208983.6835236152
 21
131504.9098468966
 31
-0.0000000000008992
 12
209002.8609579272
 22
131469.0313908232
 32
-0.000000000000931
 13
208992.1903112069
 23
131543.4427784192
 33
-0.0000000000008649
 70
     5
  0
3DFACE
  5
28E2
330
2
100
AcDbEntity
  8
TEREN$0$A-MassElement-G
  6
Continuous
 62
   210
370
    -3
100
AcDbFace
 10
208992.1903112069
 20
131543.4427784192
 30
-0.0000000000008649
 11
209002.8609579272
 21
131469.0313908232
 31
-0.000000000000931
 12
209028.6694427651
 22
131437.5836610582
 32
-0.000000000000959
 13
209006.1962292902
 23
131503.4161641793
 33
-0.0000000000009005
 70
     5
  0
3DFACE
  5
28E3
330
2
100
AcDbEntity
  8
TEREN$0$A-MassElement-G
  6
Continuous
 62
   210
370
    -3
100
AcDbFace
 10
209006.1962292902
 20
131503.4161641793
 30
-0.0000000000009005
 11
209028.6694427651
 21
131437.5836610582
 31
-0.000000000000959
 12
209050.5456877318
 22
131418.5698854754
 32
-0.0000000000009758
 13
209028.757749349
 23
131467.5097106994
 33
-0.0000000000009324
 70
     5
  0
3DFACE
  5
28E4
330
2
100
AcDbEntity
  8
TEREN$0$A-MassElement-G
  6
Continuous
 62
   210
370
    -3
100
AcDbFace
 10
209050.5456877318
 20
131418.5698854754
 30
-0.0000000000009758
 11
209058.743542559
 21
131437.5239174894
 31
-0.000000000000959
 12
209028.757749349
 22
131467.5097106994
 32
-0.0000000000009324
 13
209028.757749349
 23
131467.5097106994
 33
-0.0000000000009324
 70
    13
  0
3DFACE
  5
28E5
330
2
100
AcDbEntity
  8
TEREN$0$A-MassElement-G
  6
Continuous
 62
   210
370
    -3
100
AcDbFace
 10
209050.5456877318
 20
131418.5698854754
 30
-0.0000000000009758
 11
209062.607415742
 21
131434.5234028745
 31
-0.0000000000009617
 12
209058.743542559
 22
131437.5239174894
 32
-0.000000000000959
 13
209058.743542559
 23
131437.5239174894
 33
-0.000000000000959
 70
    12
  0
LINE
  5
28E6
330
2
100
AcDbEntity
  8
TEREN$0$A-MassElement-G
  6
Continuous
 62
   210
370
    -3
100
AcDbLine
 10
208970.0377537749
 20
131654.5234028745
 30
-0.0000000000007663
 11
208970.0377537749
 21
131554.5234028745
 31
-0.0000000000008551
  0
LINE
  5
28E7
330
2
100
AcDbEntity
  8
TEREN$0$A-MassElement-G
  6
Continuous
 62
   210
370
    -3
100
AcDbLine
 10
208645.0377537749
 20
131554.5234028745
 30
-0.0000000000008551
 11
208645.0377537749
 21
131654.5234028745
 31
-0.0000000000007663
  0
LINE
  5
28E8
330
2
100
AcDbEntity
  8
TEREN$0$A-MassElement-G
  6
Continuous
 62
   210
370
    -3
100
AcDbLine
 10
208626.7523095433
 20
131494.5234028745
 30
-0.0000000000009084
 11
208638.3854213617
 21
131524.5234028745
 31
-0.0000000000008817
  0
LINE
  5
28E9
330
2
100
AcDbEntity
  8
TEREN$0$A-MassElement-G
  6
Continuous
 62
   210
370
    -3
100
AcDbLine
 10
208988.3231980066
 20
131494.5234028745
 30
-0.0000000000009084
 11
208626.7523095433
 21
131494.5234028745
 31
-0.0000000000009084
  0
LINE
  5
28EA
330
2
100
AcDbEntity
  8
TEREN$0$A-MassElement-G
  6
Continuous
 62
   210
370
    -3
100
AcDbLine
 10
208976.6900861881
 20
131524.5234028745
 30
-0.0000000000008817
 11
208988.3231980066
 21
131494.5234028745
 31
-0.0000000000009084
  0
LINE
  5
28EB
330
2
100
AcDbEntity
  8
TEREN$0$A-MassElement-G
  6
Continuous
 62
   210
370
    -3
100
AcDbLine
 10
208609.1156954713
 20
131464.5234028745
 30
-0.000000000000935
 11
208626.7523095433
 21
131494.5234028745
 31
-0.0000000000009084
  0
LINE
  5
28EC
330
2
100
AcDbEntity
  8
TEREN$0$A-MassElement-G
  6
Continuous
 62
   210
370
    -3
100
AcDbLine
 10
209005.9598120785
 20
131464.5234028745
 30
-0.000000000000935
 11
208609.1156954713
 21
131464.5234028745
 31
-0.000000000000935
  0
LINE
  5
28ED
330
2
100
AcDbEntity
  8
TEREN$0$A-MassElement-G
  6
Continuous
 62
   210
370
    -3
100
AcDbLine
 10
208988.3231980066
 20
131494.5234028745
 30
-0.0000000000009084
 11
209005.9598120785
 21
131464.5234028745
 31
-0.000000000000935
  0
3DFACE
  5
28EE
330
2
100
AcDbEntity
  8
TEREN$0$A-MassElement-G
  6
Continuous
 62
   210
370
    -3
100
AcDbFace
 10
208631.3919839346
 20
131504.9098468966
 30
-0.0000000000008992
 11
208625.0377537749
 21
131554.3369312951
 31
-0.0000000000008553
 12
208643.2013896748
 22
131543.8402403324
 32
-0.0000000000008646
 13
208643.2013896748
 23
131543.8402403324
 33
-0.0000000000008646
 70
     3
  0
3DFACE
  5
28EF
330
2
100
AcDbEntity
  8
TEREN$0$A-MassElement-G
  6
Continuous
 62
   210
370
    -3
100
AcDbFace
 10
208625.0377537749
 20
131554.3369312951
 30
-0.0000000000008553
 11
208631.3919839346
 21
131504.9098468966
 31
-0.0000000000008992
 12
208612.2145496227
 22
131469.0313908232
 32
-0.000000000000931
 13
208622.8851963429
 23
131543.4427784192
 33
-0.0000000000008649
 70
     5
  0
3DFACE
  5
28F0
330
2
100
AcDbEntity
  8
TEREN$0$A-MassElement-G
  6
Continuous
 62
   210
370
    -3
100
AcDbFace
 10
208622.8851963429
 20
131543.4427784192
 30
-0.0000000000008649
 11
208612.2145496227
 21
131469.0313908232
 31
-0.000000000000931
 12
208586.4060647848
 22
131437.5836610582
 32
-0.000000000000959
 13
208608.8792782597
 23
131503.4161641793
 33
-0.0000000000009005
 70
     5
  0
3DFACE
  5
28F1
330
2
100
AcDbEntity
  8
TEREN$0$A-MassElement-G
  6
Continuous
 62
   210
370
    -3
100
AcDbFace
 10
208608.8792782597
 20
131503.4161641793
 30
-0.0000000000009005
 11
208586.4060647848
 21
131437.5836610582
 31
-0.000000000000959
 12
208564.5298198181
 22
131418.5698854754
 32
-0.0000000000009758
 13
208586.3177582009
 23
131467.5097106994
 33
-0.0000000000009324
 70
     5
  0
3DFACE
  5
28F2
330
2
100
AcDbEntity
  8
TEREN$0$A-MassElement-G
  6
Continuous
 62
   210
370
    -3
100
AcDbFace
 10
208564.5298198181
 20
131418.5698854754
 30
-0.0000000000009758
 11
208556.3319649908
 21
131437.5239174894
 31
-0.000000000000959
 12
208586.3177582009
 22
131467.5097106994
 32
-0.0000000000009324
 13
208586.3177582009
 23
131467.5097106994
 33
-0.0000000000009324
 70
    13
  0
3DFACE
  5
28F3
330
2
100
AcDbEntity
  8
TEREN$0$A-MassElement-G
  6
Continuous
 62
   210
370
    -3
100
AcDbFace
 10
208564.5298198181
 20
131418.5698854754
 30
-0.0000000000009758
 11
208552.4680918078
 21
131434.5234028745
 31
-0.0000000000009617
 12
208556.3319649908
 22
131437.5239174894
 32
-0.000000000000959
 13
208556.3319649908
 23
131437.5239174894
 33
-0.000000000000959
 70
    12
  0
3DFACE
  5
28F4
330
2
100
AcDbEntity
  8
TEREN$0$A-MassElement-G
  6
Continuous
 62
   210
370
    -3
100
AcDbFace
 10
208622.8851963429
 20
131543.4427784192
 30
-0.0000000000008649
 11
208608.8792782597
 21
131503.4161641793
 31
-0.0000000000009005
 12
208608.8792782597
 22
131503.4161641793
 32
-0.0000000000009005
 13
208622.8851963429
 23
131543.4427784192
 33
-0.0000000000008649
  0
3DFACE
  5
28F5
330
2
100
AcDbEntity
  8
TEREN$0$A-MassElement-G
  6
Continuous
 62
   210
370
    -3
100
AcDbFace
 10
208608.8792782597
 20
131503.4161641793
 30
-0.0000000000009005
 11
208586.3177582009
 21
131467.5097106994
 31
-0.0000000000009324
 12
208586.3177582009
 22
131467.5097106994
 32
-0.0000000000009324
 13
208608.8792782597
 23
131503.4161641793
 33
-0.0000000000009005
  0
3DFACE
  5
28F6
330
2
100
AcDbEntity
  8
TEREN$0$A-MassElement-G
  6
Continuous
 62
   210
370
    -3
100
AcDbFace
 10
208586.3177582009
 20
131467.5097106994
 30
-0.0000000000009324
 11
208556.3319649908
 21
131437.5239174894
 31
-0.000000000000959
 12
208556.3319649908
 22
131437.5239174894
 32
-0.000000000000959
 13
208586.3177582009
 23
131467.5097106994
 33
-0.0000000000009324
  0
3DFACE
  5
28F7
330
2
100
AcDbEntity
  8
TEREN$0$A-MassElement-G
  6
Continuous
 62
   210
370
    -3
100
AcDbFace
 10
208556.3319649908
 20
131437.5239174894
 30
-0.000000000000959
 11
208552.4680918078
 21
131434.5234028745
 31
-0.0000000000009617
 12
208552.4680918078
 22
131434.5234028745
 32
-0.0000000000009617
 13
208556.3319649908
 23
131437.5239174894
 33
-0.000000000000959
  0
3DFACE
  5
28F8
330
2
100
AcDbEntity
  8
TEREN$0$A-MassElement-G
  6
Continuous
 62
   210
370
    -3
100
AcDbFace
 10
208552.4680918078
 20
131434.5234028745
 30
-0.0000000000009617
 11
208564.5298198181
 21
131418.5698854754
 31
-0.0000000000009758
 12
208564.5298198181
 22
131418.5698854754
 32
-0.0000000000009758
 13
208552.4680918078
 23
131434.5234028745
 33
-0.0000000000009617
  0
3DFACE
  5
28F9
330
2
100
AcDbEntity
  8
TEREN$0$A-MassElement-G
  6
Continuous
 62
   210
370
    -3
100
AcDbFace
 10
208564.5298198181
 20
131418.5698854754
 30
-0.0000000000009758
 11
208586.4060647848
 21
131437.5836610582
 31
-0.000000000000959
 12
208586.4060647848
 22
131437.5836610582
 32
-0.000000000000959
 13
208564.5298198181
 23
131418.5698854754
 33
-0.0000000000009758
  0
3DFACE
  5
28FA
330
2
100
AcDbEntity
  8
TEREN$0$A-MassElement-G
  6
Continuous
 62
   210
370
    -3
100
AcDbFace
 10
208586.4060647848
 20
131437.5836610582
 30
-0.000000000000959
 11
208612.2145496227
 21
131469.0313908232
 31
-0.000000000000931
 12
208612.2145496227
 22
131469.0313908232
 32
-0.000000000000931
 13
208586.4060647848
 23
131437.5836610582
 33
-0.000000000000959
  0
3DFACE
  5
28FB
330
2
100
AcDbEntity
  8
TEREN$0$A-MassElement-G
  6
Continuous
 62
   210
370
    -3
100
AcDbFace
 10
208612.2145496227
 20
131469.0313908232
 30
-0.000000000000931
 11
208631.3919839346
 21
131504.9098468966
 31
-0.0000000000008992
 12
208631.3919839346
 22
131504.9098468966
 32
-0.0000000000008992
 13
208612.2145496227
 23
131469.0313908232
 33
-0.000000000000931
  0
3DFACE
  5
28FC
330
2
100
AcDbEntity
  8
TEREN$0$A-MassElement-G
  6
Continuous
 62
   210
370
    -3
100
AcDbFace
 10
208631.3919839346
 20
131504.9098468966
 30
-0.0000000000008992
 11
208643.2013896748
 21
131543.8402403324
 31
-0.0000000000008646
 12
208643.2013896748
 22
131543.8402403324
 32
-0.0000000000008646
 13
208631.3919839346
 23
131504.9098468966
 33
-0.0000000000008992
  0
3DFACE
  5
28FD
330
2
100
AcDbEntity
  8
TEREN$0$A-MassElement-G
  6
Continuous
 62
   210
370
    -3
100
AcDbFace
 10
208645.0377537749
 20
131654.5234028745
 30
-0.0000000000007663
 11
208645.0377537749
 21
131554.5234028745
 31
-0.0000000000008551
 12
208625.0377537749
 22
131554.5234028745
 32
-0.0000000000008551
 13
208625.0377537749
 23
131654.5234028745
 33
-0.0000000000007663
  0
3DFACE
  5
28FE
330
2
100
AcDbEntity
  8
TEREN$0$A-MassElement-G
  6
Continuous
 62
   210
370
    -3
100
AcDbFace
 10
208625.0377537749
 20
131554.3369312951
 30
-0.0000000000008553
 11
208625.0377537749
 21
131654.5234028745
 31
-0.0000000000007663
 12
208625.0377537749
 22
131554.3369312951
 32
-0.0000000000008553
 13
208625.0377537749
 23
131554.3369312951
 33
-0.0000000000008553
 70
     2
  0
3DFACE
  5
28FF
330
2
100
AcDbEntity
  8
TEREN$0$A-MassElement-G
  6
Continuous
 62
   210
370
    -3
100
AcDbFace
 10
208625.0377537749
 20
131554.5234028745
 30
-0.0000000000008551
 11
208625.0377537749
 21
131554.3369312951
 31
-0.0000000000008553
 12
208625.0377537749
 22
131654.5234028745
 32
-0.0000000000007663
 13
208625.0377537749
 23
131654.5234028745
 33
-0.0000000000007663
 70
     2
  0
3DFACE
  5
2900
330
2
100
AcDbEntity
  8
TEREN$0$A-MassElement-G
  6
Continuous
 62
   210
370
    -3
100
AcDbFace
 10
208612.2145496227
 20
131469.0313908232
 30
-0.000000000000931
 11
208556.3319649908
 21
131437.5239174894
 31
-0.000000000000959
 12
208586.4060647848
 22
131437.5836610582
 32
-0.000000000000959
 13
208586.4060647848
 23
131437.5836610582
 33
-0.000000000000959
 70
     3
  0
3DFACE
  5
2901
330
2
100
AcDbEntity
  8
TEREN$0$A-MassElement-G
  6
Continuous
 62
   210
370
    -3
100
AcDbFace
 10
208564.5298198181
 20
131418.5698854754
 30
-0.0000000000009758
 11
208586.4060647848
 21
131437.5836610582
 31
-0.000000000000959
 12
208556.3319649908
 22
131437.5239174894
 32
-0.000000000000959
 13
208552.4680918078
 23
131434.5234028745
 33
-0.0000000000009617
 70
     2
  0
3DFACE
  5
2902
330
2
100
AcDbEntity
  8
TEREN$0$A-MassElement-G
  6
Continuous
 62
   210
370
    -3
100
AcDbFace
 10
208556.3319649908
 20
131437.5239174894
 30
-0.000000000000959
 11
208612.2145496227
 21
131469.0313908232
 31
-0.000000000000931
 12
208631.3919839346
 22
131504.9098468966
 32
-0.0000000000008992
 13
208586.3177582009
 23
131467.5097106994
 33
-0.0000000000009324
 70
     5
  0
3DFACE
  5
2903
330
2
100
AcDbEntity
  8
TEREN$0$A-MassElement-G
  6
Continuous
 62
   210
370
    -3
100
AcDbFace
 10
208631.3919839346
 20
131504.9098468966
 30
-0.0000000000008992
 11
208643.2013896748
 21
131543.8402403324
 31
-0.0000000000008646
 12
208586.3177582009
 22
131467.5097106994
 32
-0.0000000000009324
 13
208586.3177582009
 23
131467.5097106994
 33
-0.0000000000009324
 70
    14
  0
3DFACE
  5
2904
330
2
100
AcDbEntity
  8
TEREN$0$A-MassElement-G
  6
Continuous
 62
   210
370
    -3
100
AcDbFace
 10
208586.3177582009
 20
131467.5097106994
 30
-0.0000000000009324
 11
208643.2013896748
 21
131543.8402403324
 31
-0.0000000000008646
 12
208645.0377537749
 22
131554.5234028745
 32
-0.0000000000008551
 13
208608.8792782597
 23
131503.4161641793
 33
-0.0000000000009005
 70
     5
  0
3DFACE
  5
2905
330
2
100
AcDbEntity
  8
TEREN$0$A-MassElement-G
  6
Continuous
 62
   210
370
    -3
100
AcDbFace
 10
208645.0377537749
 20
131554.5234028745
 30
-0.0000000000008551
 11
208622.8851963429
 21
131543.4427784192
 31
-0.0000000000008649
 12
208608.8792782597
 22
131503.4161641793
 32
-0.0000000000009005
 13
208608.8792782597
 23
131503.4161641793
 33
-0.0000000000009005
 70
    13
  0
3DFACE
  5
2906
330
2
100
AcDbEntity
  8
TEREN$0$A-MassElement-G
  6
Continuous
 62
   210
370
    -3
100
AcDbFace
 10
208622.8851963429
 20
131543.4427784192
 30
-0.0000000000008649
 11
208645.0377537749
 21
131554.5234028745
 31
-0.0000000000008551
 12
208645.0377537749
 22
131654.5234028745
 32
-0.0000000000007663
 13
208625.0377537749
 23
131554.3369312951
 33
-0.0000000000008553
 70
     5
  0
3DFACE
  5
2907
330
2
100
AcDbEntity
  8
TEREN$0$A-MassElement-G
  6
Continuous
 62
   210
370
    -3
100
AcDbFace
 10
208645.0377537749
 20
131654.5234028745
 30
-0.0000000000007663
 11
208625.0377537749
 21
131654.5234028745
 31
-0.0000000000007663
 12
208625.0377537749
 22
131554.3369312951
 32
-0.0000000000008553
 13
208625.0377537749
 23
131554.3369312951
 33
-0.0000000000008553
 70
    12
  0
3DFACE
  5
2908
330
2
100
AcDbEntity
  8
TEREN$0$A-MassElement-G
  6
Continuous
 62
   210
370
    -3
100
AcDbFace
 10
208645.0377537749
 20
131654.5234028745
 30
-0.0000000000007663
 11
208645.0377537749
 21
131654.5234028745
 31
-0.0000000000007663
 12
208645.0377537749
 22
131554.5234028745
 32
-0.0000000000008551
 13
208645.0377537749
 23
131554.5234028745
 33
-0.0000000000008551
  0
LINE
  5
2909
330
2
100
AcDbEntity
  8
TEREN$0$A-MassElement-G
  6
Continuous
 62
   210
370
    -3
100
AcDbLine
 10
208242.5377537749
 20
132274.5234028745
 30
-0.0000000000002156
 11
208078.5431300617
 21
132274.5234028745
 31
-0.0000000000002156
  0
LINE
  5
290A
330
2
100
AcDbEntity
  8
TEREN$0$A-MassElement-G
  6
Continuous
 62
   210
370
    -3
100
AcDbLine
 10
208692.5377537749
 20
132517.6375018634
 30
0.0000000000000003
 11
208692.5377537749
 21
132889.0352869356
 31
0.0000000000003302
  0
LINE
  5
290B
330
2
100
AcDbEntity
  8
TEREN$0$A-MassElement-G
  6
Continuous
 62
   210
370
    -3
100
AcDbLine
 10
208752.5377537749
 20
132948.5180265877
 30
0.000000000000383
 11
208752.5377537749
 21
132784.5234028745
 31
0.0000000000002374
  0
ARC
  5
290C
330
2
100
AcDbEntity
  8
TEREN$0$A-MassElement-G
  6
Continuous
 62
   210
370
    -3
100
AcDbCircle
 10
208716.5377537749
 20
132310.5234028745
 30
-0.0000000000001836
 40
639.0094990585031
100
AcDbArc
 50
86.77040681617857
 51
183.2295931846539
  0
LINE
  5
290D
330
2
100
AcDbEntity
  8
TEREN$0$A-MassElement-G
  6
Continuous
 62
   210
370
    -3
100
AcDbLine
 10
208242.5377537749
 20
132304.5234028745
 30
-0.000000000000189
 11
208107.5578116228
 21
132304.5234028745
 31
-0.000000000000189
  0
LINE
  5
290E
330
2
100
AcDbEntity
  8
TEREN$0$A-MassElement-G
  6
Continuous
 62
   210
370
    -3
100
AcDbLine
 10
208722.5377537749
 20
132919.5033450265
 30
0.0000000000003573
 11
208722.5377537749
 21
132784.5234028745
 31
0.0000000000002374
  0
ARC
  5
290F
330
2
100
AcDbEntity
  8
TEREN$0$A-MassElement-G
  6
Continuous
 62
   210
370
    -3
100
AcDbCircle
 10
208716.5377537749
 20
132310.5234028745
 30
-0.0000000000001836
 40
609.0094990585035
100
AcDbArc
 50
89.43550923358491
 51
180.5644907655896
  0
ARC
  5
2910
330
2
100
AcDbEntity
  8
TEREN$0$A-MassElement-G
  6
Continuous
 62
   210
370
    -3
100
AcDbCircle
 10
208716.5377537749
 20
132310.5234028745
 30
-0.0000000000001836
 40
579.0094990585028
100
AcDbArc
 50
92.37559621570744
 51
177.6244037842925
  0
LINE
  5
2911
330
2
100
AcDbEntity
  8
TEREN$0$A-MassElement-G
  6
Continuous
 62
   210
370
    -3
100
AcDbLine
 10
208509.423654786
 20
132334.5234028745
 30
-0.0000000000001623
 11
208138.0258697138
 21
132334.5234028745
 31
-0.0000000000001623
  0
HATCH
  5
2912
330
2
100
AcDbEntity
  8
0Hatch
100
AcDbHatch
 10
0.0
 20
0.0
 30
-0.000000000117699
210
0.0
220
-0.0000000000000009
230
1.0
  2
SOLID
 70
     1
 71
     0
 91
        4
 92
        7
 72
     0
 73
     1
 93
        6
 10
208912.5377737749
 20
131613.5234177374
 10
208922.5416613709
 20
131613.5234177374
 10
208922.5416613709
 20
131624.5234028745
 10
208957.5377737749
 20
131624.5234028745
 10
208957.561442407
 20
131574.5234177374
 10
208912.5377737749
 20
131574.5234177374
 97
        0
 92
       23
 72
     0
 73
     1
 93
        4
 10
208912.5377737749
 20
131624.5234028745
 10
208922.5416613709
 20
131624.5234028745
 10
208922.5416613709
 20
131613.5234177374
 10
208912.5377737749
 20
131613.5234177374
 97
        0
 92
        7
 72
     0
 73
     1
 93
        6
 10
208657.5377337749
 20
131624.5234028745
 10
208692.5366737487
 20
131624.5234028745
 10
208692.5366737487
 20
131613.5234177374
 10
208702.5377337749
 20
131613.5234177374
 10
208702.5377337749
 20
131574.5234177374
 10
208657.5140651429
 20
131574.5234177374
 97
        0
 92
       23
 72
     0
 73
     1
 93
        4
 10
208692.5366737487
 20
131624.5234028745
 10
208702.5377337749
 20
131624.5234028745
 10
208702.5377337749
 20
131613.5234177374
 10
208692.5366737487
 20
131613.5234177374
 97
        0
 75
     0
 76
     1
 47
0.524765879180955
 98
        4
 10
208924.549448071
 20
131595.7654864376
 10
208915.1541813155
 20
131621.4300500373
 10
208674.6961286004
 20
131592.5679404075
 10
208699.371944624
 20
131618.8062331188
  0
ENDSEC
  0
SECTION
  2
OBJECTS
  0
DICTIONARY
  5
7
330
0
100
AcDbDictionary
281
     1
  3
ACAD_COLOR
350
31
  3
ACAD_GROUP
350
2D
  3
ACAD_LAYOUT
350
B
  3
ACAD_MATERIAL
350
30
  3
ACAD_MLEADERSTYLE
350
2A1F
  3
ACAD_MLINESTYLE
350
2E
  3
ACAD_PLOTSETTINGS
350
2F
  3
ACAD_PLOTSTYLENAME
350
6
  3
ACAD_SCALELIST
350
29FD
  3
ACAD_TABLESTYLE
350
29FB
  3
ACAD_VISUALSTYLE
350
29EA
  3
ACDB_RECOMPOSE_DATA
350
2E30
  3
AcDbVariableDictionary
350
2E26
  3
AEC_CLASSIFICATION_SYSTEM_DEFS
350
3C3
  3
AEC_DISP_REP_CONFIGURATIONS
350
2B59
  3
AEC_DISP_REP_SETS
350
2B4F
  3
AEC_DISP_REPS
350
2A2B
  3
AEC_DISPLAY_PROPS_DEFAULTS
350
2A2D
  3
AEC_PROPERTY_SET_DEFS
350
3C4
  3
AEC_VARS
350
29BE
  3
ASE_INDEX_DICTIONARY
350
250E
  3
CONLABELDictionary
350
2282
  3
CONLDEFDictionary
350
2280
  3
DWGPROPS
350
2E31
  0
DICTIONARY
  5
12
330
11
100
AcDbDictionary
280
     1
281
     1
  3
ACAD_LAYERSTATES
360
13
  0
DICTIONARY
  5
2B5F
330
4
100
AcDbDictionary
280
     1
281
     1
  3
ADSK_XREC_LAYER_RECONCILED
360
2B60
  0
DICTIONARY
  5
2B67
330
15E
100
AcDbDictionary
280
     1
281
     1
  3
ADSK_XREC_LAYER_RECONCILED
360
2B68
  0
DICTIONARY
  5
2B6B
330
143
100
AcDbDictionary
280
     1
281
     1
  3
ADSK_XREC_LAYER_RECONCILED
360
2B6C
  0
DICTIONARY
  5
2B83
330
5E2
100
AcDbDictionary
280
     1
281
     1
  3
ADSK_XREC_LAYER_RECONCILED
360
2B84
  0
DICTIONARY
  5
2B87
330
2250
100
AcDbDictionary
280
     1
281
     1
  3
ADSK_XREC_LAYER_RECONCILED
360
2B88
  0
DICTIONARY
  5
2B95
330
2541
100
AcDbDictionary
280
     1
281
     1
  3
ADSK_XREC_LAYER_RECONCILED
360
2B96
  0
DICTIONARY
  5
2C21
330
2C20
100
AcDbDictionary
280
     1
281
     1
  0
DICTIONARY
  5
24
330
23
100
AcDbDictionary
280
     1
281
     1
  3
ACAD_SORTENTS
360
27C8
  0
DICTIONARY
  5
31
102
{ACAD_REACTORS
330
7
102
}
330
7
100
AcDbDictionary
281
     1
  0
DICTIONARY
  5
2D
102
{ACAD_REACTORS
330
7
102
}
330
7
100
AcDbDictionary
281
     1
  0
DICTIONARY
  5
B
102
{ACAD_REACTORS
330
7
102
}
330
7
100
AcDbDictionary
281
     1
  3
Layout1
350
10
  3
Model
350
A
  0
DICTIONARY
  5
30
102
{ACAD_REACTORS
330
7
102
}
330
7
100
AcDbDictionary
281
     1
  3
ByBlock
350
29DA
  3
ByLayer
350
29D2
  3
Global
350
29E2
  0
DICTIONARY
  5
2A1F
102
{ACAD_REACTORS
330
7
102
}
330
7
100
AcDbDictionary
281
     1
  3
Standard
350
2A20
  0
DICTIONARY
  5
2E
102
{ACAD_REACTORS
330
7
102
}
330
7
100
AcDbDictionary
281
     1
  3
Standard
350
33
  0
DICTIONARY
  5
2F
102
{ACAD_REACTORS
330
7
102
}
330
7
100
AcDbDictionary
281
     1
  0
ACDBDICTIONARYWDFLT
  5
6
102
{ACAD_REACTORS
330
7
102
}
330
7
100
AcDbDictionary
281
     1
  3
Normal
350
5
100
AcDbDictionaryWithDefault
340
5
  0
DICTIONARY
  5
29FD
102
{ACAD_REACTORS
330
7
102
}
330
7
100
AcDbDictionary
281
     1
  3
*A1
350
2C23
  3
*A10
350
2C2C
  3
*A11
350
2C2D
  3
*A12
350
2C2E
  3
*A13
350
2C2F
  3
*A14
350
2C30
  3
*A15
350
2C31
  3
*A16
350
2C32
  3
*A17
350
2C33
  3
*A18
350
2C34
  3
*A19
350
2C35
  3
*A2
350
2C24
  3
*A20
350
2C36
  3
*A21
350
2C37
  3
*A22
350
2C38
  3
*A23
350
2C39
  3
*A24
350
2C3A
  3
*A25
350
2C3B
  3
*A26
350
2C3C
  3
*A27
350
2C3D
  3
*A28
350
2C3E
  3
*A29
350
2C3F
  3
*A3
350
2C25
  3
*A30
350
2C40
  3
*A31
350
2C41
  3
*A32
350
2C42
  3
*A33
350
2C43
  3
*A34
350
2C44
  3
*A35
350
2C45
  3
*A36
350
2C46
  3
*A37
350
2C47
  3
*A38
350
2C48
  3
*A39
350
2C49
  3
*A4
350
2C26
  3
*A40
350
2C4A
  3
*A41
350
2C4B
  3
*A42
350
2C4C
  3
*A43
350
2C4D
  3
*A44
350
2C4E
  3
*A45
350
2C4F
  3
*A46
350
2C50
  3
*A47
350
2C51
  3
*A48
350
2C52
  3
*A49
350
2C53
  3
*A5
350
2C27
  3
*A6
350
2C28
  3
*A7
350
2C29
  3
*A8
350
2C2A
  3
*A9
350
2C2B
  3
A0
350
29FE
  3
A1
350
29FF
  3
A2
350
2A00
  3
A3
350
2A01
  3
A4
350
2A02
  3
A5
350
2A03
  3
A6
350
2A04
  3
A7
350
2A05
  3
A8
350
2A06
  3
A9
350
2A07
  3
B0
350
2A08
  3
B1
350
2A09
  3
B2
350
2A0A
  3
B3
350
2A0B
  3
B4
350
2A0C
  3
B5
350
2A0D
  3
B6
350
2A0E
  3
B7
350
2A0F
  3
B8
350
2A10
  3
B9
350
2A11
  3
C0
350
2A12
  3
C1
350
2A13
  3
C2
350
2A14
  3
C3
350
2A15
  3
C4
350
2A16
  3
C5
350
2A17
  3
C6
350
2A18
  3
C7
350
2A19
  3
C8
350
2A1A
  3
C9
350
2A1B
  3
D0
350
2A1C
  3
D1
350
2A1D
  3
D2
350
2A1E
  0
DICTIONARY
  5
29FB
102
{ACAD_REACTORS
330
7
102
}
330
7
100
AcDbDictionary
281
     1
  3
Standard
350
29FC
  0
DICTIONARY
  5
29EA
102
{ACAD_REACTORS
330
7
102
}
330
7
100
AcDbDictionary
281
     1
  3
2dWireframe
350
29F0
  3
3D Hidden
350
29F2
  3
3dWireframe
350
29F1
  3
Basic
350
29EF
  3
Brighten
350
29F6
  3
ColorChange
350
29FA
  3
Conceptual
350
29F3
  3
Dim
350
29F5
  3
Facepattern
350
29F9
  3
Flat
350
29EB
  3
FlatWithEdges
350
29EC
  3
Gouraud
350
29ED
  3
GouraudWithEdges
350
29EE
  3
Linepattern
350
29F8
  3
Phong
350
2B5D
  3
PhongWithEdges
350
2B5E
  3
Realistic
350
29F4
  3
Thicken
350
29F7
  0
XRECORD
  5
2E30
102
{ACAD_REACTORS
330
7
102
}
330
7
100
AcDbXrecord
280
     1
 90
        1
330
29FC
  0
DICTIONARY
  5
2E26
102
{ACAD_REACTORS
330
7
102
}
330
7
100
AcDbDictionary
281
     1
  3
CANNOSCALE
350
2E29
  3
CMLEADERSTYLE
350
2E28
  3
CTABLESTYLE
350
2E27
  3
DIMASSOC
350
2E2D
  3
HIDETEXT
350
2E2C
  3
INDEXCTL
350
2E2B
  3
SORTENTS
350
2E2A
  0
DICTIONARY
  5
3C3
102
{ACAD_REACTORS
330
7
102
}
330
7
100
AcDbDictionary
281
     1
  0
DICTIONARY
  5
2B59
102
{ACAD_REACTORS
330
7
102
}
330
7
100
AcDbDictionary
281
     1
  3
Standard
350
2B5A
  0
DICTIONARY
  5
2B4F
102
{ACAD_REACTORS
330
7
102
}
330
7
100
AcDbDictionary
281
     1
  3
Elevation
350
2B53
  3
Model
350
2B50
  3
Model High Detail
350
2B57
  3
Model Low Detail
350
2B56
  3
Plan
350
2B51
  3
Plan Diagnostic
350
2B58
  3
Plan High Detail
350
2B55
  3
Plan Low Detail
350
2B54
  3
Reflected
350
2B52
  0
DICTIONARY
  5
2A2B
102
{ACAD_REACTORS
330
7
102
}
330
7
100
AcDbDictionary
281
     1
  3
AecDbDispRep2dSection
350
2B20
  3
AecDbDispRepAnchor
350
2B22
  3
AecDbDispRepAnchorBubToGrid
350
2AB2
  3
AecDbDispRepAnchorBubToGridMdl
350
2AB4
  3
AecDbDispRepAnchorBubToGridRcp
350
2AB6
  3
AecDbDispRepAnchorEntToNode
350
2B23
  3
AecDbDispRepAnchorExtendedTagToEnt
350
2A89
  3
AecDbDispRepAnchorTagToEnt
350
2A87
  3
AecDbDispRepBdgElevLineModel
350
2A8B
  3
AecDbDispRepBdgElevLinePlan
350
2A8D
  3
AecDbDispRepBdgElevLinePlan100
350
2AE2
  3
AecDbDispRepBdgElevLinePlan50
350
2AFD
  3
AecDbDispRepBdgElevLineRcp
350
2A8F
  3
AecDbDispRepBdgSectionLineModel
350
2A91
  3
AecDbDispRepBdgSectionLinePlan
350
2A93
  3
AecDbDispRepBdgSectionLinePlan100
350
2AE4
  3
AecDbDispRepBdgSectionLinePlan50
350
2AFF
  3
AecDbDispRepBdgSectionLineRcp
350
2A95
  3
AecDbDispRepBdgSectionModel
350
2A97
  3
AecDbDispRepBdgSectionSubDiv
350
2A98
  3
AecDbDispRepCeilingGrid
350
2A9A
  3
AecDbDispRepCeilingGridModel
350
2A9C
  3
AecDbDispRepCeilingGridPlan100
350
2AE6
  3
AecDbDispRepCeilingGridPlan50
350
2B01
  3
AecDbDispRepCeilingGridRcp
350
2A9E
  3
AecDbDispRepClipVolModel
350
2A68
  3
AecDbDispRepClipVolPlan
350
2A6A
  3
AecDbDispRepClipVolResSubDiv
350
2A6D
  3
AecDbDispRepClipVolResult
350
2A6C
  3
AecDbDispRepColumnGrid
350
2AB8
  3
AecDbDispRepColumnGridModel
350
2ABA
  3
AecDbDispRepColumnGridPlan100
350
2AE8
  3
AecDbDispRepColumnGridPlan50
350
2B03
  3
AecDbDispRepColumnGridRcp
350
2ABC
  3
AecDbDispRepCurtainWallLayoutModel
350
2AA0
  3
AecDbDispRepCurtainWallLayoutPlan
350
2AA2
  3
AecDbDispRepCurtainWallLayoutPlan100
350
2AEA
  3
AecDbDispRepCurtainWallLayoutPlan50
350
2B05
  3
AecDbDispRepCurtainWallUnitModel
350
2AA4
  3
AecDbDispRepCurtainWallUnitPlan
350
2AA6
  3
AecDbDispRepCurtainWallUnitPlan100
350
2AEC
  3
AecDbDispRepCurtainWallUnitPlan50
350
2B07
  3
AecDbDispRepDimGroupPlan
350
2B29
  3
AecDbDispRepDimGroupPlan100
350
2B25
  3
AecDbDispRepDimGroupPlan50
350
2B27
  3
AecDbDispRepDisplayTheme
350
2A6F
  3
AecDbDispRepDoorElev
350
2AAA
  3
AecDbDispRepDoorModel
350
2AA8
  3
AecDbDispRepDoorNominal
350
2AAE
  3
AecDbDispRepDoorPlan
350
2AAC
  3
AecDbDispRepDoorPlan50
350
2B2B
  3
AecDbDispRepDoorPlanHekto
350
2B2D
  3
AecDbDispRepDoorRcp
350
2AB0
  3
AecDbDispRepDoorThresholdPlan
350
2A2C
  3
AecDbDispRepDoorThresholdSymbolPlan
350
2B2F
  3
AecDbDispRepEditInPlaceProfile
350
2A71
  3
AecDbDispRepEntRef
350
2A73
  3
AecDbDispRepLayoutCurve
350
2A75
  3
AecDbDispRepLayoutGrid2d
350
2A77
  3
AecDbDispRepLayoutGrid3d
350
2A79
  3
AecDbDispRepMaskBlockRef
350
2A7B
  3
AecDbDispRepMaskBlockRefRcp
350
2A2F
  3
AecDbDispRepMassElemModel
350
2B18
  3
AecDbDispRepMassElemPlan100
350
2B31
  3
AecDbDispRepMassElemPlan50
350
2B33
  3
AecDbDispRepMassElemRcp
350
2A31
  3
AecDbDispRepMassElemSchem
350
2B1A
  3
AecDbDispRepMassGroupModel
350
2B1C
  3
AecDbDispRepMassGroupPlan
350
2B1E
  3
AecDbDispRepMassGroupPlan100
350
2B35
  3
AecDbDispRepMassGroupPlan50
350
2B37
  3
AecDbDispRepMassGroupRcp
350
2A33
  3
AecDbDispRepMaterial
350
2A7D
  3
AecDbDispRepMvBlockRef
350
2A7F
  3
AecDbDispRepMvBlockRefModel
350
2A80
  3
AecDbDispRepMvBlockRefPlan100
350
2AEE
  3
AecDbDispRepMvBlockRefPlan50
350
2B09
  3
AecDbDispRepMvBlockRefRcp
350
2A35
  3
AecDbDispRepOpening
350
2A36
  3
AecDbDispRepOpeningModel
350
2A38
  3
AecDbDispRepOpeningPlan100
350
2B39
  3
AecDbDispRepOpeningPlan50
350
2B3B
  3
AecDbDispRepOpeningPlanReflected
350
2B3D
  3
AecDbDispRepOpeningSillPlan
350
2B3F
  3
AecDbDispRepPolygonModel
350
2A81
  3
AecDbDispRepPolygonTrueColour
350
2A83
  3
AecDbDispRepRailingModel
350
2A3A
  3
AecDbDispRepRailingPlan
350
2A3C
  3
AecDbDispRepRailingPlan100
350
2B41
  3
AecDbDispRepRailingPlan50
350
2B43
  3
AecDbDispRepRoofModel
350
2A3E
  3
AecDbDispRepRoofPlan
350
2A40
  3
AecDbDispRepRoofPlan100
350
2AEF
  3
AecDbDispRepRoofPlan50
350
2B0A
  3
AecDbDispRepRoofRcp
350
2A42
  3
AecDbDispRepRoofSlabModel
350
2A46
  3
AecDbDispRepRoofSlabPlan
350
2A4A
  3
AecDbDispRepRoofSlabPlan100
350
2AF1
  3
AecDbDispRepRoofSlabPlan50
350
2B0C
  3
AecDbDispRepScheduleTable
350
2B4D
  3
AecDbDispRepSlabModel
350
2A44
  3
AecDbDispRepSlabPlan
350
2A48
  3
AecDbDispRepSlabPlan100
350
2AF3
  3
AecDbDispRepSlabPlan50
350
2B0E
  3
AecDbDispRepSlice
350
2A85
  3
AecDbDispRepSpaceDecomposed
350
2A4C
  3
AecDbDispRepSpaceModel
350
2A4E
  3
AecDbDispRepSpacePlan
350
2A50
  3
AecDbDispRepSpacePlan100
350
2AF5
  3
AecDbDispRepSpacePlan50
350
2B10
  3
AecDbDispRepSpaceRcp
350
2A52
  3
AecDbDispRepSpaceVolume
350
2A54
  3
AecDbDispRepStairModel
350
2A56
  3
AecDbDispRepStairPlan
350
2A58
  3
AecDbDispRepStairPlan100
350
2B45
  3
AecDbDispRepStairPlan50
350
2B47
  3
AecDbDispRepStairPlanOverlapping
350
2A5A
  3
AecDbDispRepStairRcp
350
2A5C
  3
AecDbDispRepWallGraph
350
2A5E
  3
AecDbDispRepWallModel
350
2A60
  3
AecDbDispRepWallPlan
350
2A62
  3
AecDbDispRepWallPlan100
350
2AF7
  3
AecDbDispRepWallPlan50
350
2B12
  3
AecDbDispRepWallRcp
350
2A64
  3
AecDbDispRepWallSchem
350
2A66
  3
AecDbDispRepWindowAssemblyModel
350
2ACE
  3
AecDbDispRepWindowAssemblyPlan
350
2AD0
  3
AecDbDispRepWindowAssemblyPlan100
350
2AF9
  3
AecDbDispRepWindowAssemblyPlan50
350
2B14
  3
AecDbDispRepWindowAssemblySillPlan
350
2AD2
  3
AecDbDispRepWindowElev
350
2AD6
  3
AecDbDispRepWindowModel
350
2AD4
  3
AecDbDispRepWindowNominal
350
2ADA
  3
AecDbDispRepWindowPlan
350
2AD8
  3
AecDbDispRepWindowPlan100
350
2B49
  3
AecDbDispRepWindowPlan50
350
2B4B
  3
AecDbDispRepWindowRcp
350
2ADC
  3
AecDbDispRepWindowSillPlan
350
2ADE
  3
AecDbDispRepZone
350
2AE0
  3
AecDbDispRepZonePlan100
350
2AFB
  3
AecDbDispRepZonePlan50
350
2B16
  3
AecsDbDispRepMemberElevationDesign
350
2ABE
  3
AecsDbDispRepMemberElevationDetail
350
2AC0
  3
AecsDbDispRepMemberLogical
350
2AC2
  3
AecsDbDispRepMemberModelDesign
350
2AC4
  3
AecsDbDispRepMemberModelDetail
350
2AC6
  3
AecsDbDispRepMemberPlanDesign
350
2AC8
  3
AecsDbDispRepMemberPlanDetail
350
2ACA
  3
AecsDbDispRepMemberPlanSketch
350
2ACC
  0
DICTIONARY
  5
2A2D
102
{ACAD_REACTORS
330
7
102
}
330
7
100
AcDbDictionary
281
     1
  3
*A1
350
2A2E
  3
*A10
350
2A41
  3
*A100
350
2AFA
  3
*A101
350
2AFC
  3
*A102
350
2AFE
  3
*A103
350
2B00
  3
*A104
350
2B02
  3
*A105
350
2B04
  3
*A106
350
2B06
  3
*A107
350
2B08
  3
*A108
350
2B0B
  3
*A109
350
2B0D
  3
*A11
350
2A43
  3
*A110
350
2B0F
  3
*A111
350
2B11
  3
*A112
350
2B13
  3
*A113
350
2B15
  3
*A114
350
2B17
  3
*A115
350
2B19
  3
*A116
350
2B1B
  3
*A117
350
2B1D
  3
*A118
350
2B1F
  3
*A119
350
2B21
  3
*A12
350
2A45
  3
*A120
350
2B24
  3
*A121
350
2B26
  3
*A122
350
2B28
  3
*A123
350
2B2A
  3
*A124
350
2B2C
  3
*A125
350
2B2E
  3
*A126
350
2B30
  3
*A127
350
2B32
  3
*A128
350
2B34
  3
*A129
350
2B36
  3
*A13
350
2A47
  3
*A130
350
2B38
  3
*A131
350
2B3A
  3
*A132
350
2B3C
  3
*A133
350
2B3E
  3
*A134
350
2B40
  3
*A135
350
2B42
  3
*A136
350
2B44
  3
*A137
350
2B46
  3
*A138
350
2B48
  3
*A139
350
2B4A
  3
*A14
350
2A49
  3
*A140
350
2B4C
  3
*A141
350
2B4E
  3
*A15
350
2A4B
  3
*A16
350
2A4D
  3
*A17
350
2A4F
  3
*A18
350
2A51
  3
*A19
350
2A53
  3
*A2
350
2A30
  3
*A20
350
2A55
  3
*A21
350
2A57
  3
*A22
350
2A59
  3
*A23
350
2A5B
  3
*A24
350
2A5D
  3
*A25
350
2A5F
  3
*A26
350
2A61
  3
*A27
350
2A63
  3
*A28
350
2A65
  3
*A29
350
2A67
  3
*A3
350
2A32
  3
*A30
350
2A69
  3
*A31
350
2A6B
  3
*A32
350
2A6E
  3
*A33
350
2A70
  3
*A34
350
2A72
  3
*A35
350
2A74
  3
*A36
350
2A76
  3
*A37
350
2A78
  3
*A38
350
2A7A
  3
*A39
350
2A7C
  3
*A4
350
2A34
  3
*A40
350
2A7E
  3
*A41
350
2A82
  3
*A42
350
2A84
  3
*A43
350
2A86
  3
*A44
350
2A88
  3
*A45
350
2A8A
  3
*A46
350
2A8C
  3
*A47
350
2A8E
  3
*A48
350
2A90
  3
*A49
350
2A92
  3
*A5
350
2A37
  3
*A50
350
2A94
  3
*A51
350
2A96
  3
*A52
350
2A99
  3
*A53
350
2A9B
  3
*A54
350
2A9D
  3
*A55
350
2A9F
  3
*A56
350
2AA1
  3
*A57
350
2AA3
  3
*A58
350
2AA5
  3
*A59
350
2AA7
  3
*A6
350
2A39
  3
*A60
350
2AA9
  3
*A61
350
2AAB
  3
*A62
350
2AAD
  3
*A63
350
2AAF
  3
*A64
350
2AB1
  3
*A65
350
2AB3
  3
*A66
350
2AB5
  3
*A67
350
2AB7
  3
*A68
350
2AB9
  3
*A69
350
2ABB
  3
*A7
350
2A3B
  3
*A70
350
2ABD
  3
*A71
350
2ABF
  3
*A72
350
2AC1
  3
*A73
350
2AC3
  3
*A74
350
2AC5
  3
*A75
350
2AC7
  3
*A76
350
2AC9
  3
*A77
350
2ACB
  3
*A78
350
2ACD
  3
*A79
350
2ACF
  3
*A8
350
2A3D
  3
*A80
350
2AD1
  3
*A81
350
2AD3
  3
*A82
350
2AD5
  3
*A83
350
2AD7
  3
*A84
350
2AD9
  3
*A85
350
2ADB
  3
*A86
350
2ADD
  3
*A87
350
2ADF
  3
*A88
350
2AE1
  3
*A89
350
2AE3
  3
*A9
350
2A3F
  3
*A90
350
2AE5
  3
*A91
350
2AE7
  3
*A92
350
2AE9
  3
*A93
350
2AEB
  3
*A94
350
2AED
  3
*A95
350
2AF0
  3
*A96
350
2AF2
  3
*A97
350
2AF4
  3
*A98
350
2AF6
  3
*A99
350
2AF8
  0
DICTIONARY
  5
3C4
102
{ACAD_REACTORS
330
7
102
}
330
7
100
AcDbDictionary
281
     1
  0
DICTIONARY
  5
29BE
102
{ACAD_REACTORS
330
7
102
}
330
7
100
AcDbDictionary
281
     1
  3
AEC_VARS_ARCHBASE
350
29C0
  3
AEC_VARS_DWG_SETUP
350
29BF
  3
AECMX_VARS_MUNICH
350
29C1
  0
DICTIONARY
  5
250E
102
{ACAD_REACTORS
330
7
102
}
330
7
100
AcDbDictionary
281
     1
  3
ALFABETLink1
350
250F
  3
ASEBlockHierarchyIndexRecord
350
2510
1001
DCO15
1040
1552031370.953
  0
DICTIONARY
  5
2282
102
{ACAD_REACTORS
330
7
102
}
330
7
100
AcDbDictionary
281
     1
  3
ALFABET-Arial37
350
2283
  0
DICTIONARY
  5
2280
102
{ACAD_REACTORS
330
7
102
}
330
7
100
AcDbDictionary
281
     1
  3
ALFABETLink1
350
2281
  0
XRECORD
  5
2E31
102
{ACAD_REACTORS
330
7
102
}
330
7
100
AcDbXrecord
280
     1
  1
DWGPROPS COOKIE
  2

  3

  4

  6

  7

  8
beata.rzonca
  9

300
=
301
=
302
=
303
=
304
=
305
=
306
=
307
=
308
=
309
=
 40
7.689091585648148
 41
2452027.670547454
 42
2454960.369646261
  1

 90
        0
  0
DICTIONARY
  5
13
102
{ACAD_REACTORS
330
12
102
}
330
12
100
AcDbDictionary
281
     1
  0
XRECORD
  5
2B60
102
{ACAD_REACTORS
330
2B5F
102
}
330
2B5F
100
AcDbXrecord
280
     1
290
     1
  0
XRECORD
  5
2B68
102
{ACAD_REACTORS
330
2B67
102
}
330
2B67
100
AcDbXrecord
280
     1
290
     1
  0
XRECORD
  5
2B6C
102
{ACAD_REACTORS
330
2B6B
102
}
330
2B6B
100
AcDbXrecord
280
     1
290
     1
  0
XRECORD
  5
2B84
102
{ACAD_REACTORS
330
2B83
102
}
330
2B83
100
AcDbXrecord
280
     1
290
     1
  0
XRECORD
  5
2B88
102
{ACAD_REACTORS
330
2B87
102
}
330
2B87
100
AcDbXrecord
280
     1
290
     1
  0
XRECORD
  5
2B96
102
{ACAD_REACTORS
330
2B95
102
}
330
2B95
100
AcDbXrecord
280
     1
290
     1
  0
SORTENTSTABLE
  5
27C8
102
{ACAD_REACTORS
330
24
102
}
330
24
100
AcDbSortentsTable
330
23
  0
LAYOUT
  5
10
102
{ACAD_XDICTIONARY
360
2E34
102
}
102
{ACAD_REACTORS
330
B
102
}
330
B
100
AcDbPlotSettings
  1

  2
C:\PROGRAM FILES\AUTOCAD LT 2000\plotters\DWF ePlot.pc3
  4

  6

 40
0.0
 41
0.0
 42
0.0
 43
0.0
 44
0.0
 45
0.0
 46
0.0
 47
0.0
 48
0.0
 49
0.0
140
0.0
141
0.0
142
1.0
143
1.0
 70
   688
 72
     0
 73
     0
 74
     5
  7
monochrome_140.ctb
 75
    16
147
1.0
148
0.0
149
0.0
100
AcDbLayout
  1
Layout1
 70
     1
 71
     1
 10
0.0
 20
0.0
 11
420.0
 21
297.0
 12
0.0
 22
0.0
 32
0.0
 14
1.000000000000000E+20
 24
1.000000000000000E+20
 34
1.000000000000000E+20
 15
-1.000000000000000E+20
 25
-1.000000000000000E+20
 35
-1.000000000000000E+20
146
0.0
 13
0.0
 23
0.0
 33
0.0
 16
1.0
 26
0.0
 36
0.0
 17
0.0
 27
1.0
 37
0.0
 76
     0
330
D
  0
LAYOUT
  5
A
102
{ACAD_XDICTIONARY
360
2E32
102
}
102
{ACAD_REACTORS
330
B
102
}
330
B
100
AcDbPlotSettings
  1

  2
\\KOMP-NR-31\HP LaserJet 1200 Series PCL
  4
A4
  6
RODODENDRON 5
 40
6.805083274841308
 41
5.027085304260253
 42
6.805084228515625
 43
5.027069091796875
 44
209.9733276367187
 45
296.9683227539062
 46
0.0
 47
4.0
 48
201611.1256215136
 49
124387.6604017192
140
211811.1256215136
141
138407.6604017192
142
1.0
143
50.0
 70
 11952
 72
     1
 73
     0
 74
     4
  7
monochrome_140.ctb
 75
    25
147
0.02
148
-201611.1256215136
149
-124387.6604017192
100
AcDbLayout
  1
Model
 70
     1
 71
     0
 10
0.0
 20
0.0
 11
12.0
 21
9.0
 12
0.0
 22
0.0
 32
0.0
 14
0.0
 24
0.0
 34
0.0
 15
0.0
 25
0.0
 35
0.0
146
0.0
 13
0.0
 23
0.0
 33
0.0
 16
1.0
 26
0.0
 36
0.0
 17
0.0
 27
1.0
 37
0.0
 76
     0
330
2
331
29D0
  0
MATERIAL
  5
29DA
102
{ACAD_XDICTIONARY
360
29DB
102
}
102
{ACAD_REACTORS
330
30
102
}
330
30
100
AcDbMaterial
  1
ByBlock
 72
     0
 43
0.0208333333333333
 43
0.0
 43
0.0
 43
0.0
 43
0.0
 43
0.0208333333333333
 43
0.0
 43
0.0
 43
0.0
 43
0.0
 43
1.0
 43
0.0
 43
0.0
 43
0.0
 43
0.0
 43
1.0
 77
     0
 47
0.0208333333333333
 47
0.0
 47
0.0
 47
0.0
 47
0.0
 47
0.0208333333333333
 47
0.0
 47
0.0
 47
0.0
 47
0.0
 47
1.0
 47
0.0
 47
0.0
 47
0.0
 47
0.0
 47
1.0
171
     0
 49
0.0208333333333333
 49
0.0
 49
0.0
 49
0.0
 49
0.0
 49
0.0208333333333333
 49
0.0
 49
0.0
 49
0.0
 49
0.0
 49
1.0
 49
0.0
 49
0.0
 49
0.0
 49
0.0
 49
1.0
175
     0
142
0.0208333333333333
142
0.0
142
0.0
142
0.0
142
0.0
142
0.0208333333333333
142
0.0
142
0.0
142
0.0
142
0.0
142
1.0
142
0.0
142
0.0
142
0.0
142
0.0
142
1.0
179
     0
144
0.0208333333333333
144
0.0
144
0.0
144
0.0
144
0.0
144
0.0208333333333333
144
0.0
144
0.0
144
0.0
144
0.0
144
1.0
144
0.0
144
0.0
144
0.0
144
0.0
144
1.0
147
0.0208333333333333
147
0.0
147
0.0
147
0.0
147
0.0
147
0.0208333333333333
147
0.0
147
0.0
147
0.0
147
0.0
147
1.0
147
0.0
147
0.0
147
0.0
147
0.0
147
1.0
  0
MATERIAL
  5
29D2
102
{ACAD_XDICTIONARY
360
29D3
102
}
102
{ACAD_REACTORS
330
30
102
}
330
30
100
AcDbMaterial
  1
ByLayer
 72
     0
 43
0.0208333333333333
 43
0.0
 43
0.0
 43
0.0
 43
0.0
 43
0.0208333333333333
 43
0.0
 43
0.0
 43
0.0
 43
0.0
 43
1.0
 43
0.0
 43
0.0
 43
0.0
 43
0.0
 43
1.0
 77
     0
 47
0.0208333333333333
 47
0.0
 47
0.0
 47
0.0
 47
0.0
 47
0.0208333333333333
 47
0.0
 47
0.0
 47
0.0
 47
0.0
 47
1.0
 47
0.0
 47
0.0
 47
0.0
 47
0.0
 47
1.0
171
     0
 49
0.0208333333333333
 49
0.0
 49
0.0
 49
0.0
 49
0.0
 49
0.0208333333333333
 49
0.0
 49
0.0
 49
0.0
 49
0.0
 49
1.0
 49
0.0
 49
0.0
 49
0.0
 49
0.0
 49
1.0
175
     0
142
0.0208333333333333
142
0.0
142
0.0
142
0.0
142
0.0
142
0.0208333333333333
142
0.0
142
0.0
142
0.0
142
0.0
142
1.0
142
0.0
142
0.0
142
0.0
142
0.0
142
1.0
179
     0
144
0.0208333333333333
144
0.0
144
0.0
144
0.0
144
0.0
144
0.0208333333333333
144
0.0
144
0.0
144
0.0
144
0.0
144
1.0
144
0.0
144
0.0
144
0.0
144
0.0
144
1.0
147
0.0208333333333333
147
0.0
147
0.0
147
0.0
147
0.0
147
0.0208333333333333
147
0.0
147
0.0
147
0.0
147
0.0
147
1.0
147
0.0
147
0.0
147
0.0
147
0.0
147
1.0
  0
MATERIAL
  5
29E2
102
{ACAD_XDICTIONARY
360
29E3
102
}
102
{ACAD_REACTORS
330
30
102
}
330
30
100
AcDbMaterial
  1
Global
 72
     0
 43
0.0208333333333333
 43
0.0
 43
0.0
 43
0.0
 43
0.0
 43
0.0208333333333333
 43
0.0
 43
0.0
 43
0.0
 43
0.0
 43
1.0
 43
0.0
 43
0.0
 43
0.0
 43
0.0
 43
1.0
 77
     0
 47
0.0208333333333333
 47
0.0
 47
0.0
 47
0.0
 47
0.0
 47
0.0208333333333333
 47
0.0
 47
0.0
 47
0.0
 47
0.0
 47
1.0
 47
0.0
 47
0.0
 47
0.0
 47
0.0
 47
1.0
171
     0
 49
0.0208333333333333
 49
0.0
 49
0.0
 49
0.0
 49
0.0
 49
0.0208333333333333
 49
0.0
 49
0.0
 49
0.0
 49
0.0
 49
1.0
 49
0.0
 49
0.0
 49
0.0
 49
0.0
 49
1.0
175
     0
142
0.0208333333333333
142
0.0
142
0.0
142
0.0
142
0.0
142
0.0208333333333333
142
0.0
142
0.0
142
0.0
142
0.0
142
1.0
142
0.0
142
0.0
142
0.0
142
0.0
142
1.0
179
     0
144
0.0208333333333333
144
0.0
144
0.0
144
0.0
144
0.0
144
0.0208333333333333
144
0.0
144
0.0
144
0.0
144
0.0
144
1.0
144
0.0
144
0.0
144
0.0
144
0.0
144
1.0
147
0.0208333333333333
147
0.0
147
0.0
147
0.0
147
0.0
147
0.0208333333333333
147
0.0
147
0.0
147
0.0
147
0.0
147
1.0
147
0.0
147
0.0
147
0.0
147
0.0
147
1.0
  0
MLEADERSTYLE
  5
2A20
102
{ACAD_REACTORS
330
2A1F
102
}
330
2A1F
100
AcDbMLeaderStyle
170
     2
171
     1
172
     0
 90
        2
 40
0.0
 41
0.0
173
     1
 91
-1056964608
340
18
 92
       -2
290
     1
 42
0.09
291
     1
 43
0.36
  3
Standard
 44
0.18
300

342
15
174
     1
178
     6
175
     1
176
     0
 93
-1056964608
 45
0.18
292
     0
297
     0
 46
0.18
 94
-1056964608
 47
1.0
 49
1.0
140
1.0
293
     1
141
0.0
294
     1
177
     0
142
1.0
295
     0
296
     0
143
0.125
1001
ACAD_MLEADERVER
1070
     2
  0
MLINESTYLE
  5
33
102
{ACAD_REACTORS
330
2E
102
}
330
2E
100
AcDbMlineStyle
  2
STANDARD
 70
     0
  3

 62
   256
 51
90.0
 52
90.0
 71
     2
 49
0.5
 62
   256
  6
BYLAYER
 49
-0.5
 62
   256
  6
BYLAYER
  0
ACDBPLACEHOLDER
  5
5
102
{ACAD_REACTORS
330
6
102
}
330
6
  0
SCALE
  5
2C23
102
{ACAD_REACTORS
330
29FD
102
}
330
29FD
100
AcDbScale
 70
     0
300
1:1_2
140
1.0
141
1.0
290
     0
  0
SCALE
  5
2C2C
102
{ACAD_REACTORS
330
29FD
102
}
330
29FD
100
AcDbScale
 70
     0
300
1:20_3
140
1.0
141
20.0
290
     0
  0
SCALE
  5
2C2D
102
{ACAD_REACTORS
330
29FD
102
}
330
29FD
100
AcDbScale
 70
     0
300
1:20_1
140
1.0
141
20.0
290
     0
  0
SCALE
  5
2C2E
102
{ACAD_REACTORS
330
29FD
102
}
330
29FD
100
AcDbScale
 70
     0
300
1:50_3
140
1.0
141
50.0
290
     0
  0
SCALE
  5
2C2F
102
{ACAD_REACTORS
330
29FD
102
}
330
29FD
100
AcDbScale
 70
     0
300
1:100_3
140
1.0
141
100.0
290
     0
  0
SCALE
  5
2C30
102
{ACAD_REACTORS
330
29FD
102
}
330
29FD
100
AcDbScale
 70
     0
300
1:5_1
140
1.0
141
5.0
290
     0
  0
SCALE
  5
2C31
102
{ACAD_REACTORS
330
29FD
102
}
330
29FD
100
AcDbScale
 70
     0
300
1:10_2
140
1.0
141
10.0
290
     0
  0
SCALE
  5
2C32
102
{ACAD_REACTORS
330
29FD
102
}
330
29FD
100
AcDbScale
 70
     0
300
1:100_1
140
1.0
141
100.0
290
     0
  0
SCALE
  5
2C33
102
{ACAD_REACTORS
330
29FD
102
}
330
29FD
100
AcDbScale
 70
     0
300
1:20_2
140
1.0
141
20.0
290
     0
  0
SCALE
  5
2C34
102
{ACAD_REACTORS
330
29FD
102
}
330
29FD
100
AcDbScale
 70
     0
300
1:1_4
140
1.0
141
1.0
290
     0
  0
SCALE
  5
2C35
102
{ACAD_REACTORS
330
29FD
102
}
330
29FD
100
AcDbScale
 70
     0
300
1:2_4
140
1.0
141
2.0
290
     0
  0
SCALE
  5
2C24
102
{ACAD_REACTORS
330
29FD
102
}
330
29FD
100
AcDbScale
 70
     0
300
1:50_2
140
1.0
141
50.0
290
     0
  0
SCALE
  5
2C36
102
{ACAD_REACTORS
330
29FD
102
}
330
29FD
100
AcDbScale
 70
     0
300
1:1_1
140
1.0
141
1.0
290
     0
  0
SCALE
  5
2C37
102
{ACAD_REACTORS
330
29FD
102
}
330
29FD
100
AcDbScale
 70
     0
300
1:5_4
140
1.0
141
5.0
290
     0
  0
SCALE
  5
2C38
102
{ACAD_REACTORS
330
29FD
102
}
330
29FD
100
AcDbScale
 70
     0
300
1:10_4
140
1.0
141
10.0
290
     0
  0
SCALE
  5
2C39
102
{ACAD_REACTORS
330
29FD
102
}
330
29FD
100
AcDbScale
 70
     0
300
1:20_4
140
1.0
141
20.0
290
     0
  0
SCALE
  5
2C3A
102
{ACAD_REACTORS
330
29FD
102
}
330
29FD
100
AcDbScale
 70
     0
300
1:50_4
140
1.0
141
50.0
290
     0
  0
SCALE
  5
2C3B
102
{ACAD_REACTORS
330
29FD
102
}
330
29FD
100
AcDbScale
 70
     0
300
1:100_4
140
1.0
141
100.0
290
     0
  0
SCALE
  5
2C3C
102
{ACAD_REACTORS
330
29FD
102
}
330
29FD
100
AcDbScale
 70
     0
300
1:2_1
140
1.0
141
2.0
290
     0
  0
SCALE
  5
2C3D
102
{ACAD_REACTORS
330
29FD
102
}
330
29FD
100
AcDbScale
 70
     0
300
1:10_1
140
1.0
141
10.0
290
     0
  0
SCALE
  5
2C3E
102
{ACAD_REACTORS
330
29FD
102
}
330
29FD
100
AcDbScale
 70
     0
300
1:2_2
140
1.0
141
2.0
290
     0
  0
SCALE
  5
2C3F
102
{ACAD_REACTORS
330
29FD
102
}
330
29FD
100
AcDbScale
 70
     0
300
1:1_5
140
1.0
141
0.1
290
     0
  0
SCALE
  5
2C25
102
{ACAD_REACTORS
330
29FD
102
}
330
29FD
100
AcDbScale
 70
     0
300
1:5_2
140
1.0
141
5.0
290
     0
  0
SCALE
  5
2C40
102
{ACAD_REACTORS
330
29FD
102
}
330
29FD
100
AcDbScale
 70
     0
300
1:2_5
140
1.0
141
0.2
290
     0
  0
SCALE
  5
2C41
102
{ACAD_REACTORS
330
29FD
102
}
330
29FD
100
AcDbScale
 70
     0
300
1:2.5
140
1.0
141
0.25
290
     0
  0
SCALE
  5
2C42
102
{ACAD_REACTORS
330
29FD
102
}
330
29FD
100
AcDbScale
 70
     0
300
1:5_5
140
1.0
141
0.5
290
     0
  0
SCALE
  5
2C43
102
{ACAD_REACTORS
330
29FD
102
}
330
29FD
100
AcDbScale
 70
     0
300
1:7.5
140
1.0
141
0.75
290
     0
  0
SCALE
  5
2C44
102
{ACAD_REACTORS
330
29FD
102
}
330
29FD
100
AcDbScale
 70
     0
300
1:10_5
140
1.0
141
1.0
290
     0
  0
SCALE
  5
2C45
102
{ACAD_REACTORS
330
29FD
102
}
330
29FD
100
AcDbScale
 70
     0
300
1:20_5
140
1.0
141
2.0
290
     0
  0
SCALE
  5
2C46
102
{ACAD_REACTORS
330
29FD
102
}
330
29FD
100
AcDbScale
 70
     0
300
1:25
140
1.0
141
2.5
290
     0
  0
SCALE
  5
2C47
102
{ACAD_REACTORS
330
29FD
102
}
330
29FD
100
AcDbScale
 70
     0
300
1:50_5
140
1.0
141
5.0
290
     0
  0
SCALE
  5
2C48
102
{ACAD_REACTORS
330
29FD
102
}
330
29FD
100
AcDbScale
 70
     0
300
1:75
140
1.0
141
7.5
290
     0
  0
SCALE
  5
2C49
102
{ACAD_REACTORS
330
29FD
102
}
330
29FD
100
AcDbScale
 70
     0
300
1:100_5
140
1.0
141
10.0
290
     0
  0
SCALE
  5
2C26
102
{ACAD_REACTORS
330
29FD
102
}
330
29FD
100
AcDbScale
 70
     0
300
1:50_1
140
1.0
141
50.0
290
     0
  0
SCALE
  5
2C4A
102
{ACAD_REACTORS
330
29FD
102
}
330
29FD
100
AcDbScale
 70
     0
300
1:150
140
1.0
141
15.0
290
     0
  0
SCALE
  5
2C4B
102
{ACAD_REACTORS
330
29FD
102
}
330
29FD
100
AcDbScale
 70
     0
300
1:200
140
1.0
141
20.0
290
     0
  0
SCALE
  5
2C4C
102
{ACAD_REACTORS
330
29FD
102
}
330
29FD
100
AcDbScale
 70
     0
300
1:250
140
1.0
141
25.0
290
     0
  0
SCALE
  5
2C4D
102
{ACAD_REACTORS
330
29FD
102
}
330
29FD
100
AcDbScale
 70
     0
300
1:500
140
1.0
141
50.0
290
     0
  0
SCALE
  5
2C4E
102
{ACAD_REACTORS
330
29FD
102
}
330
29FD
100
AcDbScale
 70
     0
300
1:750
140
1.0
141
75.0
290
     0
  0
SCALE
  5
2C4F
102
{ACAD_REACTORS
330
29FD
102
}
330
29FD
100
AcDbScale
 70
     0
300
1:1000
140
1.0
141
100.0
290
     0
  0
SCALE
  5
2C50
102
{ACAD_REACTORS
330
29FD
102
}
330
29FD
100
AcDbScale
 70
     0
300
1:1250
140
1.0
141
125.0
290
     0
  0
SCALE
  5
2C51
102
{ACAD_REACTORS
330
29FD
102
}
330
29FD
100
AcDbScale
 70
     0
300
1:2000
140
1.0
141
200.0
290
     0
  0
SCALE
  5
2C52
102
{ACAD_REACTORS
330
29FD
102
}
330
29FD
100
AcDbScale
 70
     0
300
1:2500
140
1.0
141
250.0
290
     0
  0
SCALE
  5
2C53
102
{ACAD_REACTORS
330
29FD
102
}
330
29FD
100
AcDbScale
 70
     0
300
1:5000
140
1.0
141
500.0
290
     0
  0
SCALE
  5
2C27
102
{ACAD_REACTORS
330
29FD
102
}
330
29FD
100
AcDbScale
 70
     0
300
1:100_2
140
1.0
141
100.0
290
     0
  0
SCALE
  5
2C28
102
{ACAD_REACTORS
330
29FD
102
}
330
29FD
100
AcDbScale
 70
     0
300
1:1_3
140
1.0
141
1.0
290
     0
  0
SCALE
  5
2C29
102
{ACAD_REACTORS
330
29FD
102
}
330
29FD
100
AcDbScale
 70
     0
300
1:2_3
140
1.0
141
2.0
290
     0
  0
SCALE
  5
2C2A
102
{ACAD_REACTORS
330
29FD
102
}
330
29FD
100
AcDbScale
 70
     0
300
1:5_3
140
1.0
141
5.0
290
     0
  0
SCALE
  5
2C2B
102
{ACAD_REACTORS
330
29FD
102
}
330
29FD
100
AcDbScale
 70
     0
300
1:10_3
140
1.0
141
10.0
290
     0
  0
SCALE
  5
29FE
102
{ACAD_REACTORS
330
29FD
102
}
330
29FD
100
AcDbScale
 70
     0
300
1:1
140
1.0
141
1.0
290
     0
  0
SCALE
  5
29FF
102
{ACAD_REACTORS
330
29FD
102
}
330
29FD
100
AcDbScale
 70
     0
300
1:2
140
1.0
141
2.0
290
     0
  0
SCALE
  5
2A00
102
{ACAD_REACTORS
330
29FD
102
}
330
29FD
100
AcDbScale
 70
     0
300
1:4
140
1.0
141
4.0
290
     0
  0
SCALE
  5
2A01
102
{ACAD_REACTORS
330
29FD
102
}
330
29FD
100
AcDbScale
 70
     0
300
1:5
140
1.0
141
5.0
290
     0
  0
SCALE
  5
2A02
102
{ACAD_REACTORS
330
29FD
102
}
330
29FD
100
AcDbScale
 70
     0
300
1:8
140
1.0
141
8.0
290
     0
  0
SCALE
  5
2A03
102
{ACAD_REACTORS
330
29FD
102
}
330
29FD
100
AcDbScale
 70
     0
300
1:10
140
1.0
141
10.0
290
     0
  0
SCALE
  5
2A04
102
{ACAD_REACTORS
330
29FD
102
}
330
29FD
100
AcDbScale
 70
     0
300
1:16
140
1.0
141
16.0
290
     0
  0
SCALE
  5
2A05
102
{ACAD_REACTORS
330
29FD
102
}
330
29FD
100
AcDbScale
 70
     0
300
1:20
140
1.0
141
20.0
290
     0
  0
SCALE
  5
2A06
102
{ACAD_REACTORS
330
29FD
102
}
330
29FD
100
AcDbScale
 70
     0
300
1:30
140
1.0
141
30.0
290
     0
  0
SCALE
  5
2A07
102
{ACAD_REACTORS
330
29FD
102
}
330
29FD
100
AcDbScale
 70
     0
300
1:40
140
1.0
141
40.0
290
     0
  0
SCALE
  5
2A08
102
{ACAD_REACTORS
330
29FD
102
}
330
29FD
100
AcDbScale
 70
     0
300
1:50
140
1.0
141
50.0
290
     0
  0
SCALE
  5
2A09
102
{ACAD_REACTORS
330
29FD
102
}
330
29FD
100
AcDbScale
 70
     0
300
1:100
140
1.0
141
100.0
290
     0
  0
SCALE
  5
2A0A
102
{ACAD_REACTORS
330
29FD
102
}
330
29FD
100
AcDbScale
 70
     0
300
2:1
140
2.0
141
1.0
290
     0
  0
SCALE
  5
2A0B
102
{ACAD_REACTORS
330
29FD
102
}
330
29FD
100
AcDbScale
 70
     0
300
4:1
140
4.0
141
1.0
290
     0
  0
SCALE
  5
2A0C
102
{ACAD_REACTORS
330
29FD
102
}
330
29FD
100
AcDbScale
 70
     0
300
8:1
140
8.0
141
1.0
290
     0
  0
SCALE
  5
2A0D
102
{ACAD_REACTORS
330
29FD
102
}
330
29FD
100
AcDbScale
 70
     0
300
10:1
140
10.0
141
1.0
290
     0
  0
SCALE
  5
2A0E
102
{ACAD_REACTORS
330
29FD
102
}
330
29FD
100
AcDbScale
 70
     0
300
100:1
140
100.0
141
1.0
290
     0
  0
SCALE
  5
2A0F
102
{ACAD_REACTORS
330
29FD
102
}
330
29FD
100
AcDbScale
 70
     0
300
1/128" = 1'-0"
140
0.0078125
141
12.0
290
     0
  0
SCALE
  5
2A10
102
{ACAD_REACTORS
330
29FD
102
}
330
29FD
100
AcDbScale
 70
     0
300
1/64" = 1'-0"
140
0.015625
141
12.0
290
     0
  0
SCALE
  5
2A11
102
{ACAD_REACTORS
330
29FD
102
}
330
29FD
100
AcDbScale
 70
     0
300
1/32" = 1'-0"
140
0.03125
141
12.0
290
     0
  0
SCALE
  5
2A12
102
{ACAD_REACTORS
330
29FD
102
}
330
29FD
100
AcDbScale
 70
     0
300
1/16" = 1'-0"
140
0.0625
141
12.0
290
     0
  0
SCALE
  5
2A13
102
{ACAD_REACTORS
330
29FD
102
}
330
29FD
100
AcDbScale
 70
     0
300
3/32" = 1'-0"
140
0.09375
141
12.0
290
     0
  0
SCALE
  5
2A14
102
{ACAD_REACTORS
330
29FD
102
}
330
29FD
100
AcDbScale
 70
     0
300
1/8" = 1'-0"
140
0.125
141
12.0
290
     0
  0
SCALE
  5
2A15
102
{ACAD_REACTORS
330
29FD
102
}
330
29FD
100
AcDbScale
 70
     0
300
3/16" = 1'-0"
140
0.1875
141
12.0
290
     0
  0
SCALE
  5
2A16
102
{ACAD_REACTORS
330
29FD
102
}
330
29FD
100
AcDbScale
 70
     0
300
1/4" = 1'-0"
140
0.25
141
12.0
290
     0
  0
SCALE
  5
2A17
102
{ACAD_REACTORS
330
29FD
102
}
330
29FD
100
AcDbScale
 70
     0
300
3/8" = 1'-0"
140
0.375
141
12.0
290
     0
  0
SCALE
  5
2A18
102
{ACAD_REACTORS
330
29FD
102
}
330
29FD
100
AcDbScale
 70
     0
300
1/2" = 1'-0"
140
0.5
141
12.0
290
     0
  0
SCALE
  5
2A19
102
{ACAD_REACTORS
330
29FD
102
}
330
29FD
100
AcDbScale
 70
     0
300
3/4" = 1'-0"
140
0.75
141
12.0
290
     0
  0
SCALE
  5
2A1A
102
{ACAD_REACTORS
330
29FD
102
}
330
29FD
100
AcDbScale
 70
     0
300
1" = 1'-0"
140
1.0
141
12.0
290
     0
  0
SCALE
  5
2A1B
102
{ACAD_REACTORS
330
29FD
102
}
330
29FD
100
AcDbScale
 70
     0
300
1-1/2" = 1'-0"
140
1.5
141
12.0
290
     0
  0
SCALE
  5
2A1C
102
{ACAD_REACTORS
330
29FD
102
}
330
29FD
100
AcDbScale
 70
     0
300
3" = 1'-0"
140
3.0
141
12.0
290
     0
  0
SCALE
  5
2A1D
102
{ACAD_REACTORS
330
29FD
102
}
330
29FD
100
AcDbScale
 70
     0
300
6" = 1'-0"
140
6.0
141
12.0
290
     0
  0
SCALE
  5
2A1E
102
{ACAD_REACTORS
330
29FD
102
}
330
29FD
100
AcDbScale
 70
     0
300
1'-0" = 1'-0"
140
12.0
141
12.0
290
     1
  0
TABLESTYLE
  5
29FC
102
{ACAD_XDICTIONARY
360
2E2E
102
}
102
{ACAD_REACTORS
330
29FB
102
}
330
29FB
100
AcDbTableStyle
  3
Standard
 70
     0
 71
     0
 40
0.06
 41
0.06
280
     0
281
     0
  7
Standard
140
0.18
170
     2
 62
     0
 63
     7
283
     0
274
    -2
284
     1
 64
     0
275
    -2
285
     1
 65
     0
276
    -2
286
     1
 66
     0
277
    -2
287
     1
 67
     0
278
    -2
288
     1
 68
     0
279
    -2
289
     1
 69
     0
  7
Standard
140
0.25
170
     5
 62
     0
 63
     7
283
     0
274
    -2
284
     1
 64
     0
275
    -2
285
     1
 65
     0
276
    -2
286
     1
 66
     0
277
    -2
287
     1
 67
     0
278
    -2
288
     1
 68
     0
279
    -2
289
     1
 69
     0
  7
Standard
140
0.18
170
     5
 62
     0
 63
     7
283
     0
274
    -2
284
     1
 64
     0
275
    -2
285
     1
 65
     0
276
    -2
286
     1
 66
     0
277
    -2
287
     1
 67
     0
278
    -2
288
     1
 68
     0
279
    -2
289
     1
 69
     0
  0
VISUALSTYLE
  5
29F0
102
{ACAD_REACTORS
330
29EA
102
}
330
29EA
100
AcDbVisualStyle
  2
2dWireframe
 70
     4
 71
     0
 72
     2
 73
     0
 90
        0
 40
-0.6
 41
-30.0
 62
     5
 63
     7
 74
     1
 91
        4
 64
     7
 65
   257
 75
     1
175
     1
 42
1.0
 92
        0
 66
   257
 43
1.0
 76
     1
 77
     6
 78
     2
 67
     7
 79
     5
170
     0
171
     0
290
     0
174
     0
 93
        1
 44
0.0
173
     0
291
     0
 45
0.0
1001
ACAD
1000
AcDbSavedByObjectVersion
1070
     0
  0
VISUALSTYLE
  5
29F2
102
{ACAD_REACTORS
330
29EA
102
}
330
29EA
100
AcDbVisualStyle
  2
3D Hidden
 70
     6
 71
     1
 72
     2
 73
     2
 90
        0
 40
-0.6
 41
-30.0
 62
     5
 63
     7
 74
     2
 91
        2
 64
     7
 65
   257
 75
     2
175
     1
 42
40.0
 92
        0
 66
   257
 43
1.0
 76
     1
 77
     6
 78
     2
 67
     7
 79
     3
170
     0
171
     0
290
     0
174
     0
 93
        1
 44
0.0
173
     0
291
     0
 45
0.0
1001
ACAD
1000
AcDbSavedByObjectVersion
1070
     0
  0
VISUALSTYLE
  5
29F1
102
{ACAD_REACTORS
330
29EA
102
}
330
29EA
100
AcDbVisualStyle
  2
3dWireframe
 70
     5
 71
     0
 72
     2
 73
     0
 90
        0
 40
-0.6
 41
-30.0
 62
     5
 63
     7
 74
     1
 91
        4
 64
     7
 65
   257
 75
     1
175
     1
 42
1.0
 92
        0
 66
   257
 43
1.0
 76
     1
 77
     6
 78
     2
 67
     7
 79
     5
170
     0
171
     0
290
     0
174
     0
 93
        1
 44
0.0
173
     0
291
     0
 45
0.0
1001
ACAD
1000
AcDbSavedByObjectVersion
1070
     0
  0
VISUALSTYLE
  5
29EF
102
{ACAD_REACTORS
330
29EA
102
}
330
29EA
100
AcDbVisualStyle
  2
Basic
 70
     7
 71
     1
 72
     0
 73
     1
 90
        0
 40
-0.6
 41
-30.0
 62
     5
 63
     7
 74
     0
 91
        4
 64
     7
 65
   257
 75
     1
175
     1
 42
1.0
 92
        8
 66
     7
 43
1.0
 76
     1
 77
     6
 78
     2
 67
     7
 79
     5
170
     0
171
     0
290
     0
174
     0
 93
        1
 44
0.0
173
     0
291
     1
 45
0.0
1001
ACAD
1000
AcDbSavedByObjectVersion
1070
     0
  0
VISUALSTYLE
  5
29F6
102
{ACAD_REACTORS
330
29EA
102
}
330
29EA
100
AcDbVisualStyle
  2
Brighten
 70
    12
 71
     2
 72
     2
 73
     0
 90
        0
 40
-0.6
 41
-30.0
 62
     5
 63
     7
 74
     1
 91
        4
 64
     7
 65
   257
 75
     1
175
     1
 42
1.0
 92
        8
 66
     7
 43
1.0
 76
     1
 77
     6
 78
     2
 67
     7
 79
     5
170
     0
171
     0
290
     0
174
     0
 93
        1
 44
50.0
173
     0
291
     1
 45
0.0
1001
ACAD
1000
AcDbSavedByObjectVersion
1070
     0
  0
VISUALSTYLE
  5
29FA
102
{ACAD_REACTORS
330
29EA
102
}
330
29EA
100
AcDbVisualStyle
  2
ColorChange
 70
    16
 71
     2
 72
     2
 73
     3
 90
        0
 40
-0.6
 41
-30.0
 62
     5
 63
     8
 74
     1
 91
        4
 64
     7
 65
   257
 75
     1
175
     1
 42
1.0
 92
        8
 66
     8
 43
1.0
 76
     1
 77
     6
 78
     2
 67
     7
 79
     5
170
     0
171
     0
290
     0
174
     0
 93
        1
 44
0.0
173
     0
291
     1
 45
0.0
1001
ACAD
1000
AcDbSavedByObjectVersion
1070
     0
  0
VISUALSTYLE
  5
29F3
102
{ACAD_REACTORS
330
29EA
102
}
330
29EA
100
AcDbVisualStyle
  2
Conceptual
 70
     9
 71
     3
 72
     2
 73
     0
 90
        0
 40
-0.6
 41
-30.0
 62
     5
 63
     7
 74
     2
 91
        2
 64
     7
 65
   257
 75
     1
175
     1
 42
40.0
 92
        8
 66
     7
 43
1.0
 76
     1
 77
     6
 78
     2
 67
     7
 79
     3
170
     0
171
     0
290
     0
174
     0
 93
        1
 44
0.0
173
     0
291
     0
 45
0.0
1001
ACAD
1000
AcDbSavedByObjectVersion
1070
     0
  0
VISUALSTYLE
  5
29F5
102
{ACAD_REACTORS
330
29EA
102
}
330
29EA
100
AcDbVisualStyle
  2
Dim
 70
    11
 71
     2
 72
     2
 73
     0
 90
        0
 40
-0.6
 41
-30.0
 62
     5
 63
     7
 74
     1
 91
        4
 64
     7
 65
   257
 75
     1
175
     1
 42
1.0
 92
        8
 66
     7
 43
1.0
 76
     1
 77
     6
 78
     2
 67
     7
 79
     5
170
     0
171
     0
290
     0
174
     0
 93
        1
 44
-50.0
173
     0
291
     1
 45
0.0
1001
ACAD
1000
AcDbSavedByObjectVersion
1070
     0
  0
VISUALSTYLE
  5
29F9
102
{ACAD_REACTORS
330
29EA
102
}
330
29EA
100
AcDbVisualStyle
  2
Facepattern
 70
    15
 71
     2
 72
     2
 73
     0
 90
        0
 40
-0.6
 41
-30.0
 62
     5
 63
     7
 74
     1
 91
        4
 64
     7
 65
   257
 75
     1
175
     1
 42
1.0
 92
        8
 66
     7
 43
1.0
 76
     1
 77
     6
 78
     2
 67
     7
 79
     5
170
     0
171
     0
290
     0
174
     0
 93
        1
 44
0.0
173
     0
291
     1
 45
0.0
1001
ACAD
1000
AcDbSavedByObjectVersion
1070
     0
  0
VISUALSTYLE
  5
29EB
102
{ACAD_REACTORS
330
29EA
102
}
330
29EA
100
AcDbVisualStyle
  2
Flat
 70
     0
 71
     2
 72
     1
 73
     1
 90
        2
 40
-0.6
 41
30.0
 62
     5
 63
     7
 74
     0
 91
        4
 64
     7
 65
   257
 75
     1
175
     1
 42
1.0
 92
        8
 66
     7
 43
1.0
 76
     1
 77
     6
 78
     2
 67
     7
 79
     5
170
     0
171
     0
290
     0
174
     0
 93
       13
 44
0.0
173
     0
291
     0
 45
0.0
1001
ACAD
1000
AcDbSavedByObjectVersion
1070
     0
  0
VISUALSTYLE
  5
29EC
102
{ACAD_REACTORS
330
29EA
102
}
330
29EA
100
AcDbVisualStyle
  2
FlatWithEdges
 70
     1
 71
     2
 72
     1
 73
     1
 90
        2
 40
-0.6
 41
30.0
 62
     5
 63
     7
 74
     1
 91
        4
 64
     7
 65
   257
 75
     1
175
     1
 42
1.0
 92
        0
 66
   257
 43
1.0
 76
     1
 77
     6
 78
     2
 67
     7
 79
     5
170
     0
171
     0
290
     0
174
     0
 93
       13
 44
0.0
173
     0
291
     0
 45
0.0
1001
ACAD
1000
AcDbSavedByObjectVersion
1070
     0
  0
VISUALSTYLE
  5
29ED
102
{ACAD_REACTORS
330
29EA
102
}
330
29EA
100
AcDbVisualStyle
  2
Gouraud
 70
     2
 71
     2
 72
     2
 73
     1
 90
        2
 40
-0.6
 41
30.0
 62
     5
 63
     7
 74
     0
 91
        4
 64
     7
 65
   257
 75
     1
175
     1
 42
1.0
 92
        0
 66
     7
 43
1.0
 76
     1
 77
     6
 78
     2
 67
     7
 79
     5
170
     0
171
     0
290
     0
174
     0
 93
       13
 44
0.0
173
     0
291
     0
 45
0.0
1001
ACAD
1000
AcDbSavedByObjectVersion
1070
     0
  0
VISUALSTYLE
  5
29EE
102
{ACAD_REACTORS
330
29EA
102
}
330
29EA
100
AcDbVisualStyle
  2
GouraudWithEdges
 70
     3
 71
     2
 72
     2
 73
     1
 90
        2
 40
-0.6
 41
30.0
 62
     5
 63
     7
 74
     1
 91
        4
 64
     7
 65
   257
 75
     1
175
     1
 42
1.0
 92
        0
 66
   257
 43
1.0
 76
     1
 77
     6
 78
     2
 67
     7
 79
     5
170
     0
171
     0
290
     0
174
     0
 93
       13
 44
0.0
173
     0
291
     0
 45
0.0
1001
ACAD
1000
AcDbSavedByObjectVersion
1070
     0
  0
VISUALSTYLE
  5
29F8
102
{ACAD_REACTORS
330
29EA
102
}
330
29EA
100
AcDbVisualStyle
  2
Linepattern
 70
    14
 71
     2
 72
     2
 73
     0
 90
        0
 40
-0.6
 41
-30.0
 62
     5
 63
     7
 74
     1
 91
        4
 64
     7
 65
   257
 75
     7
175
     7
 42
1.0
 92
        8
 66
     7
 43
1.0
 76
     1
 77
     6
 78
     2
 67
     7
 79
     5
170
     0
171
     0
290
     0
174
     0
 93
        1
 44
0.0
173
     0
291
     1
 45
0.0
1001
ACAD
1000
AcDbSavedByObjectVersion
1070
     0
  0
VISUALSTYLE
  5
2B5D
102
{ACAD_REACTORS
330
29EA
102
}
330
29EA
100
AcDbVisualStyle
  2

 70
     8
 71
     2
 72
     2
 73
     0
 90
        0
 40
-0.6
 41
-30.0
 62
     5
 63
     7
 74
     0
 91
        0
 64
     7
 65
   257
 75
     1
175
     1
 42
1.0
 92
        8
 66
     8
 43
1.0
 76
     1
 77
     6
 78
     2
 67
     7
 79
     5
170
     0
171
     0
290
     0
174
     0
 93
       13
 44
0.0
173
     0
291
     0
 45
0.0
1001
ACAD
1000
AcDbSavedByObjectVersion
1070
     0
  0
VISUALSTYLE
  5
2B5E
102
{ACAD_REACTORS
330
29EA
102
}
330
29EA
100
AcDbVisualStyle
  2

 70
     8
 71
     2
 72
     2
 73
     0
 90
        0
 40
-0.6
 41
-30.0
 62
     5
 63
     7
 74
     1
 91
        0
 64
     7
 65
   257
 75
     1
175
     1
 42
1.0
 92
        8
 66
     8
 43
1.0
 76
     1
 77
     6
 78
     2
 67
     7
 79
     5
170
     0
171
     0
290
     0
174
     0
 93
       13
 44
0.0
173
     0
291
     0
 45
0.0
1001
ACAD
1000
AcDbSavedByObjectVersion
1070
     0
  0
VISUALSTYLE
  5
29F4
102
{ACAD_REACTORS
330
29EA
102
}
330
29EA
100
AcDbVisualStyle
  2
Realistic
 70
     8
 71
     2
 72
     2
 73
     0
 90
        0
 40
-0.6
 41
-30.0
 62
     5
 63
     7
 74
     1
 91
        0
 64
     7
 65
   257
 75
     1
175
     1
 42
1.0
 92
        8
 66
     8
 43
1.0
 76
     1
 77
     6
 78
     2
 67
     7
 79
     5
170
     0
171
     0
290
     0
174
     0
 93
       13
 44
0.0
173
     0
291
     0
 45
0.0
1001
ACAD
1000
AcDbSavedByObjectVersion
1070
     0
  0
VISUALSTYLE
  5
29F7
102
{ACAD_REACTORS
330
29EA
102
}
330
29EA
100
AcDbVisualStyle
  2
Thicken
 70
    13
 71
     2
 72
     2
 73
     0
 90
        0
 40
-0.6
 41
-30.0
 62
     5
 63
     7
 74
     1
 91
        4
 64
     7
 65
   257
 75
     1
175
     1
 42
1.0
 92
       12
 66
     7
 43
1.0
 76
     1
 77
     6
 78
     2
 67
     7
 79
     5
170
     0
171
     0
290
     0
174
     0
 93
        1
 44
0.0
173
     0
291
     1
 45
0.0
1001
ACAD
1000
AcDbSavedByObjectVersion
1070
     0
  0
DICTIONARYVAR
  5
2E29
102
{ACAD_REACTORS
330
2E26
102
}
330
2E26
100
DictionaryVariables
280
     0
  1
1/8" = 1'-0"
  0
DICTIONARYVAR
  5
2E28
102
{ACAD_REACTORS
330
2E26
102
}
330
2E26
100
DictionaryVariables
280
     0
  1
STANDARD
  0
DICTIONARYVAR
  5
2E27
102
{ACAD_REACTORS
330
2E26
102
}
330
2E26
100
DictionaryVariables
280
     0
  1
STANDARD
  0
DICTIONARYVAR
  5
2E2D
102
{ACAD_REACTORS
330
2E26
102
}
330
2E26
100
DictionaryVariables
280
     0
  1
1
  0
DICTIONARYVAR
  5
2E2C
102
{ACAD_REACTORS
330
2E26
102
}
330
2E26
100
DictionaryVariables
280
     0
  1
1
  0
DICTIONARYVAR
  5
2E2B
102
{ACAD_REACTORS
330
2E26
102
}
330
2E26
100
DictionaryVariables
280
     0
  1
0
  0
DICTIONARYVAR
  5
2E2A
102
{ACAD_REACTORS
330
2E26
102
}
330
2E26
100
DictionaryVariables
280
     0
  1
127
  0
XRECORD
  5
250F
102
{ACAD_REACTORS
330
250E
102
}
330
250E
100
AcDbXrecord
280
     1
330
2288
1004
01000000360000000000000001000000
1000
ALFABET-Arial37
330
2289
1004
360000000000000001000000
1000
ALFABET-Arial37
  0
XRECORD
  5
2510
102
{ACAD_REACTORS
330
250E
102
}
330
250E
100
AcDbXrecord
280
     1
330
182
330
183
330
2864
330
2865
330
285D
330
285E
330
2856
330
2857
330
284F
330
2850
330
28B0
330
28B1
330
28A9
330
28AA
330
28A2
330
28A3
330
2899
330
289A
330
2966
330
2967
330
296D
330
296E
330
2974
330
2975
330
297B
330
297C
330
2982
330
2983
330
2989
330
298A
330
2992
330
2993
330
2999
330
299A
  0
ACAD_PROXY_OBJECT
  5
2283
102
{ACAD_REACTORS
330
2282
102
}
330
2282
100
AcDbProxyObject
 90
      499
 91
      741
 95
   131097
 70
     0
 93
        0
 94
        0
1001
DCO15
1000
jet_dbsamples...ALFABET(ALFABET-Arial37)
1000
liter_alf
1040
1.0
1040
1.0
1040
0.0
1040
0.0
1040
0.0
1040
0.0
1040
0.0
1040
37.0
1071
        0
1071
      256
1071
        7
1071
        5
1071
        1
1000

1000
ByLayer
1000
{\fArial|b0|i0|c238|p34;#(liter_alf)}
1001
ACAD
1000
AcRTDxfName
1000
OBJECT_PTR
  0
ACAD_PROXY_OBJECT
  5
2281
102
{ACAD_REACTORS
330
2280
102
}
330
2280
100
AcDbProxyObject
 90
      499
 91
      741
 95
   131097
 70
     0
 93
        0
 94
        0
1001
DCO15
1000
jet_dbsamples...ALFABET(ALFABETLink1)
1000
IDENTYFIKATOR
1000

1000

1070
     4
1070
     0
1070
     0
1070
     0
1070
  1024
1001
ACAD
1000
AcRTDxfName
1000
OBJECT_PTR
  0
DICTIONARY
  5
2E34
330
10
100
AcDbDictionary
280
     1
281
     1
  3
ACAD_XREC_ROUNDTRIP
360
2E35
  0
DICTIONARY
  5
2E32
330
A
100
AcDbDictionary
280
     1
281
     1
  3
ACAD_XREC_ROUNDTRIP
360
2E33
  0
DICTIONARY
  5
29DB
330
29DA
100
AcDbDictionary
280
     1
281
     1
  3
ACAD_XREC_ROUNDTRIP
360
2E37
  3
BUMPTILE
360
29DD
  3
DIFFUSETILE
360
29DC
  3
OPACITYTILE
360
29E0
  3
REFLECTIONTILE
360
29DF
  3
REFRACTIONTILE
360
29E1
  3
SPECULARTILE
360
29DE
  0
DICTIONARY
  5
29D3
330
29D2
100
AcDbDictionary
280
     1
281
     1
  3
ACAD_XREC_ROUNDTRIP
360
2E36
  3
BUMPTILE
360
29D5
  3
DIFFUSETILE
360
29D4
  3
OPACITYTILE
360
29D8
  3
REFLECTIONTILE
360
29D7
  3
REFRACTIONTILE
360
29D9
  3
SPECULARTILE
360
29D6
  0
DICTIONARY
  5
29E3
330
29E2
100
AcDbDictionary
280
     1
281
     1
  3
ACAD_XREC_ROUNDTRIP
360
2E38
  3
BUMPTILE
360
29E5
  3
DIFFUSETILE
360
29E4
  3
OPACITYTILE
360
29E8
  3
REFLECTIONTILE
360
29E7
  3
REFRACTIONTILE
360
29E9
  3
SPECULARTILE
360
29E6
  0
DICTIONARY
  5
2E2E
330
29FC
100
AcDbDictionary
280
     1
281
     1
  3
ACAD_ROUNDTRIP_2008_TABLESTYLE_CELLSTYLEMAP
360
2E2F
  3
ACAD_XREC_ROUNDTRIP
360
2E39
  0
XRECORD
  5
2E35
102
{ACAD_REACTORS
330
2E34
102
}
330
2E34
100
AcDbXrecord
280
     1
102
SHADEPLOT
 70
     0
102
SHADEPLOTRESLEVEL
 70
     2
102
SHADEPLOTCUSTOMDPI
 70
   300
  0
XRECORD
  5
2E33
102
{ACAD_REACTORS
330
2E32
102
}
330
2E32
100
AcDbXrecord
280
     1
102
SHADEPLOT
 70
     1
102
SHADEPLOTRESLEVEL
 70
     2
102
SHADEPLOTCUSTOMDPI
 70
   300
  0
XRECORD
  5
2E37
102
{ACAD_REACTORS
330
29DB
102
}
330
29DB
100
AcDbXrecord
280
     1
102
MATERIAL
148
0.0
149
0.0
149
0.0
 93
        0
 94
      127
282
     0
 72
     0
 77
     0
171
     0
175
     0
179
     0
273
     0
  0
XRECORD
  5
29DD
102
{ACAD_REACTORS
330
29DB
102
}
330
29DB
100
AcDbXrecord
280
     1
270
     1
271
     1
  0
XRECORD
  5
29DC
102
{ACAD_REACTORS
330
29DB
102
}
330
29DB
100
AcDbXrecord
280
     1
270
     1
271
     1
  0
XRECORD
  5
29E0
102
{ACAD_REACTORS
330
29DB
102
}
330
29DB
100
AcDbXrecord
280
     1
270
     1
271
     1
  0
XRECORD
  5
29DF
102
{ACAD_REACTORS
330
29DB
102
}
330
29DB
100
AcDbXrecord
280
     1
270
     1
271
     1
  0
XRECORD
  5
29E1
102
{ACAD_REACTORS
330
29DB
102
}
330
29DB
100
AcDbXrecord
280
     1
270
     1
271
     1
  0
XRECORD
  5
29DE
102
{ACAD_REACTORS
330
29DB
102
}
330
29DB
100
AcDbXrecord
280
     1
270
     1
271
     1
  0
XRECORD
  5
2E36
102
{ACAD_REACTORS
330
29D3
102
}
330
29D3
100
AcDbXrecord
280
     1
102
MATERIAL
148
0.0
149
0.0
149
0.0
 93
        0
 94
      127
282
     0
 72
     0
 77
     0
171
     0
175
     0
179
     0
273
     0
  0
XRECORD
  5
29D5
102
{ACAD_REACTORS
330
29D3
102
}
330
29D3
100
AcDbXrecord
280
     1
270
     1
271
     1
  0
XRECORD
  5
29D4
102
{ACAD_REACTORS
330
29D3
102
}
330
29D3
100
AcDbXrecord
280
     1
270
     1
271
     1
  0
XRECORD
  5
29D8
102
{ACAD_REACTORS
330
29D3
102
}
330
29D3
100
AcDbXrecord
280
     1
270
     1
271
     1
  0
XRECORD
  5
29D7
102
{ACAD_REACTORS
330
29D3
102
}
330
29D3
100
AcDbXrecord
280
     1
270
     1
271
     1
  0
XRECORD
  5
29D9
102
{ACAD_REACTORS
330
29D3
102
}
330
29D3
100
AcDbXrecord
280
     1
270
     1
271
     1
  0
XRECORD
  5
29D6
102
{ACAD_REACTORS
330
29D3
102
}
330
29D3
100
AcDbXrecord
280
     1
270
     1
271
     1
  0
XRECORD
  5
2E38
102
{ACAD_REACTORS
330
29E3
102
}
330
29E3
100
AcDbXrecord
280
     1
102
MATERIAL
148
0.0
149
0.0
149
0.0
 93
        0
 94
      127
282
     0
 72
     0
 77
     0
171
     0
175
     0
179
     0
273
     0
  0
XRECORD
  5
29E5
102
{ACAD_REACTORS
330
29E3
102
}
330
29E3
100
AcDbXrecord
280
     1
270
     1
271
     1
  0
XRECORD
  5
29E4
102
{ACAD_REACTORS
330
29E3
102
}
330
29E3
100
AcDbXrecord
280
     1
270
     1
271
     1
  0
XRECORD
  5
29E8
102
{ACAD_REACTORS
330
29E3
102
}
330
29E3
100
AcDbXrecord
280
     1
270
     1
271
     1
  0
XRECORD
  5
29E7
102
{ACAD_REACTORS
330
29E3
102
}
330
29E3
100
AcDbXrecord
280
     1
270
     1
271
     1
  0
XRECORD
  5
29E9
102
{ACAD_REACTORS
330
29E3
102
}
330
29E3
100
AcDbXrecord
280
     1
270
     1
271
     1
  0
XRECORD
  5
29E6
102
{ACAD_REACTORS
330
29E3
102
}
330
29E3
100
AcDbXrecord
280
     1
270
     1
271
     1
  0
CELLSTYLEMAP
  5
2E2F
102
{ACAD_REACTORS
330
2E2E
102
}
330
2E2E
100
AcDbCellStyleMap
 90
        3
300
CELLSTYLE
  1
TABLEFORMAT_BEGIN
 90
        5
170
     1
 91
        0
 92
    32768
 62
   257
 93
        1
300
CONTENTFORMAT
  1
CONTENTFORMAT_BEGIN
 90
        0
 91
        0
 92
      512
 93
        0
300

 40
0.0
140
1.0
 94
        5
 62
     0
340
15
144
0.25
309
CONTENTFORMAT_END
171
     0
 94
        0
309
TABLEFORMAT_END
  1
CELLSTYLE_BEGIN
 90
        1
 91
        1
300
_TITLE
309
CELLSTYLE_END
300
CELLSTYLE
  1
TABLEFORMAT_BEGIN
 90
        5
170
     1
 91
        0
 92
        0
 62
   257
 93
        1
300
CONTENTFORMAT
  1
CONTENTFORMAT_BEGIN
 90
        0
 91
        0
 92
      512
 93
        0
300

 40
0.0
140
1.0
 94
        5
 62
     0
340
15
144
0.18
309
CONTENTFORMAT_END
171
     0
 94
        0
309
TABLEFORMAT_END
  1
CELLSTYLE_BEGIN
 90
        2
 91
        1
300
_HEADER
309
CELLSTYLE_END
300
CELLSTYLE
  1
TABLEFORMAT_BEGIN
 90
        5
170
     1
 91
        0
 92
        0
 62
   257
 93
        1
300
CONTENTFORMAT
  1
CONTENTFORMAT_BEGIN
 90
        0
 91
        0
 92
      512
 93
        0
300

 40
0.0
140
1.0
 94
        2
 62
     0
340
15
144
0.18
309
CONTENTFORMAT_END
171
     0
 94
        0
309
TABLEFORMAT_END
  1
CELLSTYLE_BEGIN
 90
        3
 91
        2
300
_DATA
309
CELLSTYLE_END
  0
XRECORD
  5
2E39
102
{ACAD_REACTORS
330
2E2E
102
}
330
2E2E
100
AcDbXrecord
280
     1
102
ACAD_ROUNDTRIP_PRE2007_TABLESTYLE
 90
      512
 91
        0
  1

 92
      512
 93
        0
  2

 94
      512
 95
        0
  3

  0
ENDSEC
  0
EOF
