  0
SECTION
  2
HEADER
  9
$ACADVER
  1
AC1015
  9
$ACADMAINTVER
 70
    20
  9
$DWGCODEPAGE
  3
ANSI_1250
  9
$INSBASE
 10
215187.233673673
 20
127657.5168525552
 30
0.0
  9
$EXTMIN
 10
227462.0076071393
 20
127651.581526546
 30
-47.00234230730281
  9
$EXTMAX
 10
237676.4402129126
 20
141681.840844853
 30
0.0013508085868068
  9
$LIMMIN
 10
0.0
 20
0.0
  9
$LIMMAX
 10
420.0
 20
297.0
  9
$ORTHOMODE
 70
     0
  9
$REGENMODE
 70
     1
  9
$FILLMODE
 70
     1
  9
$QTEXTMODE
 70
     0
  9
$MIRRTEXT
 70
     0
  9
$LTSCALE
 40
75.0
  9
$ATTMODE
 70
     1
  9
$TEXTSIZE
 40
20.0
  9
$TRACEWID
 40
1.0
  9
$TEXTSTYLE
  7
ROMANS
  9
$CLAYER
  8
0Wymiary-PL
  9
$CELTYPE
  6
ByLayer
  9
$CECOLOR
 62
   256
  9
$CELTSCALE
 40
1.0
  9
$DISPSILH
 70
     0
  9
$DIMSCALE
 40
1.0
  9
$DIMASZ
 40
30.0
  9
$DIMEXO
 40
43.0
  9
$DIMDLI
 40
0.0
  9
$DIMRND
 40
0.5
  9
$DIMDLE
 40
12.0
  9
$DIMEXE
 40
13.0
  9
$DIMTP
 40
0.0
  9
$DIMTM
 40
0.0
  9
$DIMTXT
 40
80.0
  9
$DIMCEN
 40
0.0
  9
$DIMTSZ
 40
0.0
  9
$DIMTOL
 70
     0
  9
$DIMLIM
 70
     0
  9
$DIMTIH
 70
     0
  9
$DIMTOH
 70
     0
  9
$DIMSE1
 70
     1
  9
$DIMSE2
 70
     1
  9
$DIMTAD
 70
     0
  9
$DIMZIN
 70
    12
  9
$DIMBLK
  1
B-DIM
  9
$DIMASO
 70
     1
  9
$DIMSHO
 70
     1
  9
$DIMPOST
  1

  9
$DIMAPOST
  1

  9
$DIMALT
 70
     0
  9
$DIMALTD
 70
     2
  9
$DIMALTF
 40
25.4
  9
$DIMLFAC
 40
1.0
  9
$DIMTOFL
 70
     1
  9
$DIMTVP
 40
1.0
  9
$DIMTIX
 70
     1
  9
$DIMSOXD
 70
     0
  9
$DIMSAH
 70
     0
  9
$DIMBLK1
  1

  9
$DIMBLK2
  1

  9
$DIMSTYLE
  2
500
  9
$DIMCLRD
 70
     1
  9
$DIMCLRE
 70
     1
  9
$DIMCLRT
 70
    10
  9
$DIMTFAC
 40
1.0
  9
$DIMGAP
 40
0.0
  9
$DIMJUST
 70
     0
  9
$DIMSD1
 70
     0
  9
$DIMSD2
 70
     0
  9
$DIMTOLJ
 70
     1
  9
$DIMTZIN
 70
     0
  9
$DIMALTZ
 70
     0
  9
$DIMALTTZ
 70
     0
  9
$DIMUPT
 70
     0
  9
$DIMDEC
 70
     1
  9
$DIMTDEC
 70
     1
  9
$DIMALTU
 70
     2
  9
$DIMALTTD
 70
     2
  9
$DIMTXSTY
  7
ROMANS
  9
$DIMAUNIT
 70
     0
  9
$DIMADEC
 70
     0
  9
$DIMALTRND
 40
0.0
  9
$DIMAZIN
 70
     0
  9
$DIMDSEP
 70
    46
  9
$DIMATFIT
 70
     3
  9
$DIMFRAC
 70
     0
  9
$DIMLDRBLK
  1
B-DIM
  9
$DIMLUNIT
 70
     2
  9
$DIMLWD
 70
    -2
  9
$DIMLWE
 70
    -2
  9
$DIMTMOVE
 70
     2
  9
$LUNITS
 70
     2
  9
$LUPREC
 70
     1
  9
$SKETCHINC
 40
1.0
  9
$FILLETRAD
 40
0.0
  9
$AUNITS
 70
     0
  9
$AUPREC
 70
     0
  9
$MENU
  1
.
  9
$ELEVATION
 40
0.0
  9
$PELEVATION
 40
0.0
  9
$THICKNESS
 40
0.0
  9
$LIMCHECK
 70
     0
  9
$CHAMFERA
 40
0.0
  9
$CHAMFERB
 40
0.0
  9
$CHAMFERC
 40
20.0
  9
$CHAMFERD
 40
0.0
  9
$SKPOLY
 70
     0
  9
$TDCREATE
 40
2452027.670547454
  9
$TDUCREATE
 40
2452027.587214121
  9
$TDUPDATE
 40
2454957.566786378
  9
$TDUUPDATE
 40
2454957.483453044
  9
$TDINDWG
 40
9.1811338542
  9
$TDUSRTIMER
 40
9.1811338542
  9
$USRTIMER
 70
     1
  9
$ANGBASE
 50
0.0
  9
$ANGDIR
 70
     0
  9
$PDMODE
 70
     0
  9
$PDSIZE
 40
0.0
  9
$PLINEWID
 40
0.0
  9
$SPLFRAME
 70
     0
  9
$SPLINETYPE
 70
     6
  9
$SPLINESEGS
 70
     8
  9
$HANDSEED
  5
1BDA6
  9
$SURFTAB1
 70
     6
  9
$SURFTAB2
 70
     6
  9
$SURFTYPE
 70
     6
  9
$SURFU
 70
     6
  9
$SURFV
 70
     6
  9
$UCSBASE
  2

  9
$UCSNAME
  2

  9
$UCSORG
 10
0.0
 20
0.0
 30
0.0
  9
$UCSXDIR
 10
1.0
 20
0.0
 30
0.0
  9
$UCSYDIR
 10
0.0
 20
1.0
 30
0.0
  9
$UCSORTHOREF
  2

  9
$UCSORTHOVIEW
 70
     0
  9
$UCSORGTOP
 10
0.0
 20
0.0
 30
0.0
  9
$UCSORGBOTTOM
 10
0.0
 20
0.0
 30
0.0
  9
$UCSORGLEFT
 10
0.0
 20
0.0
 30
0.0
  9
$UCSORGRIGHT
 10
0.0
 20
0.0
 30
0.0
  9
$UCSORGFRONT
 10
0.0
 20
0.0
 30
0.0
  9
$UCSORGBACK
 10
0.0
 20
0.0
 30
0.0
  9
$PUCSBASE
  2

  9
$PUCSNAME
  2

  9
$PUCSORG
 10
0.0
 20
0.0
 30
0.0
  9
$PUCSXDIR
 10
1.0
 20
0.0
 30
0.0
  9
$PUCSYDIR
 10
0.0
 20
1.0
 30
0.0
  9
$PUCSORTHOREF
  2

  9
$PUCSORTHOVIEW
 70
     0
  9
$PUCSORGTOP
 10
0.0
 20
0.0
 30
0.0
  9
$PUCSORGBOTTOM
 10
0.0
 20
0.0
 30
0.0
  9
$PUCSORGLEFT
 10
0.0
 20
0.0
 30
0.0
  9
$PUCSORGRIGHT
 10
0.0
 20
0.0
 30
0.0
  9
$PUCSORGFRONT
 10
0.0
 20
0.0
 30
0.0
  9
$PUCSORGBACK
 10
0.0
 20
0.0
 30
0.0
  9
$USERI1
 70
     0
  9
$USERI2
 70
     0
  9
$USERI3
 70
     0
  9
$USERI4
 70
     0
  9
$USERI5
 70
     0
  9
$USERR1
 40
0.0
  9
$USERR2
 40
0.0
  9
$USERR3
 40
0.0
  9
$USERR4
 40
0.0
  9
$USERR5
 40
0.0
  9
$WORLDVIEW
 70
     1
  9
$SHADEDGE
 70
     3
  9
$SHADEDIF
 70
    70
  9
$TILEMODE
 70
     1
  9
$MAXACTVP
 70
    64
  9
$PINSBASE
 10
0.0
 20
0.0
 30
0.0
  9
$PLIMCHECK
 70
     0
  9
$PEXTMIN
 10
1.000000000000000E+20
 20
1.000000000000000E+20
 30
1.000000000000000E+20
  9
$PEXTMAX
 10
-1.000000000000000E+20
 20
-1.000000000000000E+20
 30
-1.000000000000000E+20
  9
$PLIMMIN
 10
0.0
 20
0.0
  9
$PLIMMAX
 10
420.0
 20
297.0
  9
$UNITMODE
 70
     0
  9
$VISRETAIN
 70
     1
  9
$PLINEGEN
 70
     0
  9
$PSLTSCALE
 70
     1
  9
$TREEDEPTH
 70
  3020
  9
$CMLSTYLE
  2
Standard
  9
$CMLJUST
 70
     0
  9
$CMLSCALE
 40
20.0
  9
$PROXYGRAPHICS
 70
     1
  9
$MEASUREMENT
 70
     0
  9
$CELWEIGHT
370
    -1
  9
$ENDCAPS
280
     0
  9
$JOINSTYLE
280
     0
  9
$LWDISPLAY
290
     1
  9
$INSUNITS
 70
     1
  9
$HYPERLINKBASE
  1

  9
$STYLESHEET
  1
monochrome_140.ctb
  9
$XEDIT
290
     1
  9
$CEPSNTYPE
380
     0
  9
$PSTYLEMODE
290
     1
  9
$FINGERPRINTGUID
  2
{938A2469-3AF5-11D5-BC95-0050BABCE9EC}
  9
$VERSIONGUID
  2
{ADA61223-FA63-4DF9-B40D-8F33CBF4BA06}
  9
$EXTNAMES
290
     1
  9
$PSVPSCALE
 40
0.0
  9
$OLESTARTUP
290
     0
  0
ENDSEC
  0
SECTION
  2
CLASSES
  0
CLASS
  1
ACDBDICTIONARYWDFLT
  2
AcDbDictionaryWithDefault
  3
ObjectDBX Classes
 90
        0
280
     0
281
     0
  0
CLASS
  1
ACDBPLACEHOLDER
  2
AcDbPlaceHolder
  3
ObjectDBX Classes
 90
        0
280
     0
281
     0
  0
CLASS
  1
LAYOUT
  2
AcDbLayout
  3
ObjectDBX Classes
 90
        0
280
     0
281
     0
  0
CLASS
  1
DICTIONARYVAR
  2
AcDbDictionaryVar
  3
ObjectDBX Classes
 90
        0
280
     0
281
     0
  0
CLASS
  1
SORTENTSTABLE
  2
AcDbSortentsTable
  3
ObjectDBX Classes
 90
        0
280
     0
281
     0
  0
CLASS
  1
AEC_VARS_DWG_SETUP
  2
AecDbVarsDwgSetup
  3
AecBase50|Product Desc: Autodesk Architectural Desktop 2007 |Company: Autodesk,Inc. |WEB Address: www.autodesk.com
 90
      129
280
     0
281
     0
  0
CLASS
  1
AEC_DISP_REP_CONFIG
  2
AecDbDispRepConfig
  3
AecBase50|Product Desc: Autodesk Architectural Desktop 2007 |Company: Autodesk,Inc. |WEB Address: www.autodesk.com
 90
      129
280
     0
281
     0
  0
CLASS
  1
AEC_DISP_REP_SET
  2
AecDbDispRepSet
  3
AecBase50|Product Desc: Autodesk Architectural Desktop 2007 |Company: Autodesk,Inc. |WEB Address: www.autodesk.com
 90
      129
280
     0
281
     0
  0
CLASS
  1
AEC_DISP_REP_2D_SECTION
  2
AecDbDispRep2dSection
  3
AecBase50|Product Desc: Autodesk Architectural Desktop 2007 |Company: Autodesk,Inc. |WEB Address: www.autodesk.com
 90
      129
280
     0
281
     0
  0
CLASS
  1
AEC_DISP_REP_ANCHOR_BUB_TO_GRID
  2
AecDbDispRepAnchorBubToGrid
  3
AecStructureBase50|Product Desc: Autodesk Architectural Desktop 2007 |Company: Autodesk,Inc. |WEB Address: www.autodesk.com
 90
      129
280
     0
281
     0
  0
CLASS
  1
AEC_DISP_REP_ANCHOR_BUB_TO_GRID_MODEL
  2
AecDbDispRepAnchorBubToGridMdl
  3
AecStructureBase50|Product Desc: Autodesk Architectural Desktop 2007 |Company: Autodesk,Inc. |WEB Address: www.autodesk.com
 90
      129
280
     0
281
     0
  0
CLASS
  1
AEC_DISP_REP_ANCHOR_ENT_TO_NODE
  2
AecDbDispRepAnchorEntToNode
  3
AecBase50|Product Desc: Autodesk Architectural Desktop 2007 |Company: Autodesk,Inc. |WEB Address: www.autodesk.com
 90
      129
280
     0
281
     0
  0
CLASS
  1
AEC_DISP_REP_ANCHOR_TAG_TO_ENT
  2
AecDbDispRepAnchorTagToEnt
  3
AecScheduleData50|Product Desc: Autodesk Architectural Desktop 2007 |Company: Autodesk,Inc. |WEB Address: www.autodesk.com
 90
      129
280
     0
281
     0
  0
CLASS
  1
AEC_DISP_REP_AREA
  2
AecDbDispRepArea
  3
AecAreaCalculationBase50|Product Desc: Autodesk Architectural Desktop 2007 |Company: Autodesk,Inc. |WEB Address: www.autodesk.com
 90
    32897
280
     0
281
     0
  0
CLASS
  1
AEC_DISP_REP_AREA_DECOMPOSED
  2
AecDbDispRepAreaDecomposed
  3
AecAreaCalculationBase50|Product Desc: Autodesk Architectural Desktop 2007 |Company: Autodesk,Inc. |WEB Address: www.autodesk.com
 90
    32897
280
     0
281
     0
  0
CLASS
  1
AEC_DISP_REP_AREAGROUP
  2
AecDbDispRepAreaGroup
  3
AecAreaCalculationBase50|Product Desc: Autodesk Architectural Desktop 2007 |Company: Autodesk,Inc. |WEB Address: www.autodesk.com
 90
    32897
280
     0
281
     0
  0
CLASS
  1
AEC_DISP_REP_BDG_ELEVLINE_MODEL
  2
AecDbDispRepBdgElevLineModel
  3
AecArchBase50|Product Desc: Autodesk Architectural Desktop 2007 |Company: Autodesk,Inc. |WEB Address: www.autodesk.com
 90
      129
280
     0
281
     0
  0
CLASS
  1
AEC_DISP_REP_BDG_SECTIONLINE_PLAN
  2
AecDbDispRepBdgElevLinePlan
  3
AecArchBase50|Product Desc: Autodesk Architectural Desktop 2007 |Company: Autodesk,Inc. |WEB Address: www.autodesk.com
 90
      129
280
     0
281
     0
  0
CLASS
  1
AEC_DISP_REP_BDG_SECTIONLINE_MODEL
  2
AecDbDispRepBdgSectionLineModel
  3
AecArchBase50|Product Desc: Autodesk Architectural Desktop 2007 |Company: Autodesk,Inc. |WEB Address: www.autodesk.com
 90
      129
280
     0
281
     0
  0
CLASS
  1
AEC_DISP_REP_BDG_SECTIONLINE_PLAN
  2
AecDbDispRepBdgSectionLinePlan
  3
AecArchBase50|Product Desc: Autodesk Architectural Desktop 2007 |Company: Autodesk,Inc. |WEB Address: www.autodesk.com
 90
      129
280
     0
281
     0
  0
CLASS
  1
AEC_DISP_REP_BDG_SECTION_SUBDIV
  2
AecDbDispRepBdgSectionSubDiv
  3
AecArchBase50|Product Desc: Autodesk Architectural Desktop 2007 |Company: Autodesk,Inc. |WEB Address: www.autodesk.com
 90
      129
280
     0
281
     0
  0
CLASS
  1
AEC_DISP_REP_CAMERA
  2
AecDbDispRepCamera
  3
AecBase50|Product Desc: Autodesk Architectural Desktop 2007 |Company: Autodesk,Inc. |WEB Address: www.autodesk.com
 90
    32897
280
     0
281
     0
  0
CLASS
  1
AEC_DISP_REP_CEILING_GRID
  2
AecDbDispRepCeilingGrid
  3
AecArchBase50|Product Desc: Autodesk Architectural Desktop 2007 |Company: Autodesk,Inc. |WEB Address: www.autodesk.com
 90
      893
280
     0
281
     0
  0
CLASS
  1
AEC_DISP_REP_CEILING_GRID_MODEL
  2
AecDbDispRepCeilingGridModel
  3
AecArchBase50|Product Desc: Autodesk Architectural Desktop 2007 |Company: Autodesk,Inc. |WEB Address: www.autodesk.com
 90
      129
280
     0
281
     0
  0
CLASS
  1
AEC_DISP_REP_CEILING_GRID_RCP
  2
AecDbDispRepCeilingGridRcp
  3
AecArchBase50|Product Desc: Autodesk Architectural Desktop 2007 |Company: Autodesk,Inc. |WEB Address: www.autodesk.com
 90
      129
280
     0
281
     0
  0
CLASS
  1
AEC_DISP_REP_CLIP_VOLUME_MODEL
  2
AecDbDispRepClipVolModel
  3
AecBase50|Product Desc: Autodesk Architectural Desktop 2007 |Company: Autodesk,Inc. |WEB Address: www.autodesk.com
 90
      129
280
     0
281
     0
  0
CLASS
  1
AEC_DISP_REP_CLIP_VOLUME_PLAN
  2
AecDbDispRepClipVolPlan
  3
AecBase50|Product Desc: Autodesk Architectural Desktop 2007 |Company: Autodesk,Inc. |WEB Address: www.autodesk.com
 90
      129
280
     0
281
     0
  0
CLASS
  1
AEC_DISP_REP_CLIP_VOLUME_RESULT_SUBDIV
  2
AecDbDispRepClipVolResSubDiv
  3
AecBase50|Product Desc: Autodesk Architectural Desktop 2007 |Company: Autodesk,Inc. |WEB Address: www.autodesk.com
 90
      129
280
     0
281
     0
  0
CLASS
  1
AEC_DISP_REP_CLIP_VOLUME_RESULT
  2
AecDbDispRepClipVolResult
  3
AecBase50|Product Desc: Autodesk Architectural Desktop 2007 |Company: Autodesk,Inc. |WEB Address: www.autodesk.com
 90
      129
280
     0
281
     0
  0
CLASS
  1
AEC_DISP_REP_COLUMN_GRID
  2
AecDbDispRepColumnGrid
  3
AecStructureBase50|Product Desc: Autodesk Architectural Desktop 2007 |Company: Autodesk,Inc. |WEB Address: www.autodesk.com
 90
      129
280
     0
281
     0
  0
CLASS
  1
AEC_DISP_REP_COLUMN_GRID_MODEL
  2
AecDbDispRepColumnGridModel
  3
AecStructureBase50|Product Desc: Autodesk Architectural Desktop 2007 |Company: Autodesk,Inc. |WEB Address: www.autodesk.com
 90
      129
280
     0
281
     0
  0
CLASS
  1
AEC_DISP_REP_CURTAIN_WALL_LAYOUT_MODEL
  2
AecDbDispRepCurtainWallLayoutModel
  3
AecArchBase50|Product Desc: Autodesk Architectural Desktop 2007 |Company: Autodesk,Inc. |WEB Address: www.autodesk.com
 90
      129
280
     0
281
     0
  0
CLASS
  1
AEC_DISP_REP_CURTAIN_WALL_LAYOUT_PLAN
  2
AecDbDispRepCurtainWallLayoutPlan
  3
AecArchBase50|Product Desc: Autodesk Architectural Desktop 2007 |Company: Autodesk,Inc. |WEB Address: www.autodesk.com
 90
      129
280
     0
281
     0
  0
CLASS
  1
AEC_DISP_REP_CURTAIN_WALL_UNIT_MODEL
  2
AecDbDispRepCurtainWallUnitModel
  3
AecArchBase50|Product Desc: Autodesk Architectural Desktop 2007 |Company: Autodesk,Inc. |WEB Address: www.autodesk.com
 90
      129
280
     0
281
     0
  0
CLASS
  1
AEC_DISP_REP_CURTAIN_WALL_UNIT_PLAN
  2
AecDbDispRepCurtainWallUnitPlan
  3
AecArchBase50|Product Desc: Autodesk Architectural Desktop 2007 |Company: Autodesk,Inc. |WEB Address: www.autodesk.com
 90
      129
280
     0
281
     0
  0
CLASS
  1
AEC_DB_DISP_REP_DIM_GROUP_PLAN
  2
AecDbDispRepDimGroupPlan
  3
AecArchDACHBase50|Product Desc: Autodesk Architectural Desktop 2007 |Company: Autodesk,Inc. |WEB Address: www.autodesk.com
 90
      129
280
     0
281
     0
  0
CLASS
  1
AEC_DISP_REP_DOOR_MODEL
  2
AecDbDispRepDoorModel
  3
AecArchBase50|Product Desc: Autodesk Architectural Desktop 2007 |Company: Autodesk,Inc. |WEB Address: www.autodesk.com
 90
      129
280
     0
281
     0
  0
CLASS
  1
AEC_DISP_REP_DOOR_NOMINAL
  2
AecDbDispRepDoorNominal
  3
AecArchBase50|Product Desc: Autodesk Architectural Desktop 2007 |Company: Autodesk,Inc. |WEB Address: www.autodesk.com
 90
      129
280
     0
281
     0
  0
CLASS
  1
AEC_DISP_REP_DOOR_PLAN
  2
AecDbDispRepDoorPlan
  3
AecArchBase50|Product Desc: Autodesk Architectural Desktop 2007 |Company: Autodesk,Inc. |WEB Address: www.autodesk.com
 90
      129
280
     0
281
     0
  0
CLASS
  1
AEC_DISP_REP_EDITINPLACEPROFILE
  2
AecDbDispRepEditInPlaceProfile
  3
AecBase50|Product Desc: Autodesk Architectural Desktop 2007 |Company: Autodesk,Inc. |WEB Address: www.autodesk.com
 90
      129
280
     0
281
     0
  0
CLASS
  1
AEC_DISP_REP_ENT_REF
  2
AecDbDispRepEntRef
  3
AecBase50|Product Desc: Autodesk Architectural Desktop 2007 |Company: Autodesk,Inc. |WEB Address: www.autodesk.com
 90
      129
280
     0
281
     0
  0
CLASS
  1
AEC_DISP_REP_LAYOUT_CURVE
  2
AecDbDispRepLayoutCurve
  3
AecBase50|Product Desc: Autodesk Architectural Desktop 2007 |Company: Autodesk,Inc. |WEB Address: www.autodesk.com
 90
      129
280
     0
281
     0
  0
CLASS
  1
AEC_DISP_REP_LAYOUT_GRID2D
  2
AecDbDispRepLayoutGrid2d
  3
AecBase50|Product Desc: Autodesk Architectural Desktop 2007 |Company: Autodesk,Inc. |WEB Address: www.autodesk.com
 90
      129
280
     0
281
     0
  0
CLASS
  1
AEC_DISP_REP_LAYOUT_GRID3D
  2
AecDbDispRepLayoutGrid3d
  3
AecBase50|Product Desc: Autodesk Architectural Desktop 2007 |Company: Autodesk,Inc. |WEB Address: www.autodesk.com
 90
      129
280
     0
281
     0
  0
CLASS
  1
AEC_DISP_REP_MASKBLOCK_REF
  2
AecDbDispRepMaskBlockRef
  3
AecBase50|Product Desc: Autodesk Architectural Desktop 2007 |Company: Autodesk,Inc. |WEB Address: www.autodesk.com
 90
      129
280
     0
281
     0
  0
CLASS
  1
AEC_DISP_REP_MASKBLOCK_REF_RCP
  2
AecDbDispRepMaskBlockRefRcp
  3
AecArchBase50|Product Desc: Autodesk Architectural Desktop 2007 |Company: Autodesk,Inc. |WEB Address: www.autodesk.com
 90
      129
280
     0
281
     0
  0
CLASS
  1
AEC_DISP_REP_MASS_ELEM_MODEL
  2
AecDbDispRepMassElemModel
  3
AecBaseEx50|Product Desc: Autodesk Architectural Desktop 2007 |Company: Autodesk,Inc. |WEB Address: www.autodesk.com
 90
      129
280
     0
281
     0
  0
CLASS
  1
AEC_DISP_REP_MASS_ELEM_SCHEM
  2
AecDbDispRepMassElemSchem
  3
AecBaseEx50|Product Desc: Autodesk Architectural Desktop 2007 |Company: Autodesk,Inc. |WEB Address: www.autodesk.com
 90
      129
280
     0
281
     0
  0
CLASS
  1
AEC_DISP_REP_MASS_GROUP_MODEL
  2
AecDbDispRepMassGroupModel
  3
AecBaseEx50|Product Desc: Autodesk Architectural Desktop 2007 |Company: Autodesk,Inc. |WEB Address: www.autodesk.com
 90
      129
280
     0
281
     0
  0
CLASS
  1
AEC_DISP_REP_MASS_GROUP_PLAN
  2
AecDbDispRepMassGroupPlan
  3
AecBaseEx50|Product Desc: Autodesk Architectural Desktop 2007 |Company: Autodesk,Inc. |WEB Address: www.autodesk.com
 90
      129
280
     0
281
     0
  0
CLASS
  1
AEC_DISP_REP_MATERIAL
  2
AecDbDispRepMaterial
  3
AecBase50|Product Desc: Autodesk Architectural Desktop 2007 |Company: Autodesk,Inc. |WEB Address: www.autodesk.com
 90
      129
280
     0
281
     0
  0
CLASS
  1
AEC_DISP_REP_MVBLOCK_REF
  2
AecDbDispRepMvBlockRef
  3
AecBase50|Product Desc: Autodesk Architectural Desktop 2007 |Company: Autodesk,Inc. |WEB Address: www.autodesk.com
 90
      129
280
     0
281
     0
  0
CLASS
  1
AEC_DISP_REP_MVBLOCK_REF_MODEL
  2
AecDbDispRepMvBlockRefModel
  3
AecBase50|Product Desc: Autodesk Architectural Desktop 2007 |Company: Autodesk,Inc. |WEB Address: www.autodesk.com
 90
      129
280
     0
281
     0
  0
CLASS
  1
AEC_DISP_REP_OPENING
  2
AecDbDispRepOpening
  3
AecArchBase50|Product Desc: Autodesk Architectural Desktop 2007 |Company: Autodesk,Inc. |WEB Address: www.autodesk.com
 90
      129
280
     0
281
     0
  0
CLASS
  1
AEC_DISP_REP_OPENING_MODEL
  2
AecDbDispRepOpeningModel
  3
AecArchBase50|Product Desc: Autodesk Architectural Desktop 2007 |Company: Autodesk,Inc. |WEB Address: www.autodesk.com
 90
      129
280
     0
281
     0
  0
CLASS
  1
AEC_DISP_REP_POLYGON_MODEL
  2
AecDbDispRepPolygonModel
  3
AecBase50|Product Desc: Autodesk Architectural Desktop 2007 |Company: Autodesk,Inc. |WEB Address: www.autodesk.com
 90
      129
280
     0
281
     0
  0
CLASS
  1
AEC_DISP_REP_RAILING_MODEL
  2
AecDbDispRepRailingModel
  3
AecArchBase50|Product Desc: Autodesk Architectural Desktop 2007 |Company: Autodesk,Inc. |WEB Address: www.autodesk.com
 90
      129
280
     0
281
     0
  0
CLASS
  1
AEC_DISP_REP_RAILING_PLAN
  2
AecDbDispRepRailingPlan
  3
AecArchBase50|Product Desc: Autodesk Architectural Desktop 2007 |Company: Autodesk,Inc. |WEB Address: www.autodesk.com
 90
      129
280
     0
281
     0
  0
CLASS
  1
AEC_DISP_REP_ROOF_MODEL
  2
AecDbDispRepRoofModel
  3
AecArchBase50|Product Desc: Autodesk Architectural Desktop 2007 |Company: Autodesk,Inc. |WEB Address: www.autodesk.com
 90
      129
280
     0
281
     0
  0
CLASS
  1
AEC_DISP_REP_ROOF_PLAN
  2
AecDbDispRepRoofPlan
  3
AecArchBase50|Product Desc: Autodesk Architectural Desktop 2007 |Company: Autodesk,Inc. |WEB Address: www.autodesk.com
 90
      129
280
     0
281
     0
  0
CLASS
  1
AEC_DISP_REP_ROOFSLAB_MODEL
  2
AecDbDispRepRoofSlabModel
  3
AecArchBase50|Product Desc: Autodesk Architectural Desktop 2007 |Company: Autodesk,Inc. |WEB Address: www.autodesk.com
 90
      129
280
     0
281
     0
  0
CLASS
  1
AEC_DISP_REP_ROOFSLAB_PLAN
  2
AecDbDispRepRoofSlabPlan
  3
AecArchBase50|Product Desc: Autodesk Architectural Desktop 2007 |Company: Autodesk,Inc. |WEB Address: www.autodesk.com
 90
      129
280
     0
281
     0
  0
CLASS
  1
AEC_DISP_REP_SCHEDULE_TABLE
  2
AecDbDispRepScheduleTable
  3
AecSchedule50|Product Desc: Autodesk Architectural Desktop 2007 |Company: Autodesk,Inc. |WEB Address: www.autodesk.com
 90
      129
280
     0
281
     0
  0
CLASS
  1
AEC_DISP_REP_SLAB_MODEL
  2
AecDbDispRepSlabModel
  3
AecArchBase50|Product Desc: Autodesk Architectural Desktop 2007 |Company: Autodesk,Inc. |WEB Address: www.autodesk.com
 90
      129
280
     0
281
     0
  0
CLASS
  1
AEC_DISP_REP_SLAB_PLAN
  2
AecDbDispRepSlabPlan
  3
AecArchBase50|Product Desc: Autodesk Architectural Desktop 2007 |Company: Autodesk,Inc. |WEB Address: www.autodesk.com
 90
      129
280
     0
281
     0
  0
CLASS
  1
AEC_DISP_REP_SLICE
  2
AecDbDispRepSlice
  3
AecBase50|Product Desc: Autodesk Architectural Desktop 2007 |Company: Autodesk,Inc. |WEB Address: www.autodesk.com
 90
      129
280
     0
281
     0
  0
CLASS
  1
AEC_DISP_REP_SPACE_BOUNDARY_MODEL
  2
AecDbDispRepSpaceBoundaryModel
  3
AecArchBase50|Product Desc: Autodesk Architectural Desktop 2007 |Company: Autodesk,Inc. |WEB Address: www.autodesk.com
 90
    32897
280
     0
281
     0
  0
CLASS
  1
AEC_DISP_REP_SPACE_BOUNDARY_PLAN
  2
AecDbDispRepSpaceBoundaryPlan
  3
AecArchBase50|Product Desc: Autodesk Architectural Desktop 2007 |Company: Autodesk,Inc. |WEB Address: www.autodesk.com
 90
    32897
280
     0
281
     0
  0
CLASS
  1
AEC_DISP_REP_SPACE_BOUNDARY_SCHEM
  2
AecDbDispRepSpaceBoundarySketch
  3
AecArchBase50|Product Desc: Autodesk Architectural Desktop 2007 |Company: Autodesk,Inc. |WEB Address: www.autodesk.com
 90
    32897
280
     0
281
     0
  0
CLASS
  1
AEC_DISP_REP_SPACE_MODEL
  2
AecDbDispRepSpaceModel
  3
AecArchBase50|Product Desc: Autodesk Architectural Desktop 2007 |Company: Autodesk,Inc. |WEB Address: www.autodesk.com
 90
      129
280
     0
281
     0
  0
CLASS
  1
AEC_DISP_REP_SPACE_PLAN
  2
AecDbDispRepSpacePlan
  3
AecArchBase50|Product Desc: Autodesk Architectural Desktop 2007 |Company: Autodesk,Inc. |WEB Address: www.autodesk.com
 90
      129
280
     0
281
     0
  0
CLASS
  1
AEC_DISP_REP_STAIR_MODEL
  2
AecDbDispRepStairModel
  3
AecArchBase50|Product Desc: Autodesk Architectural Desktop 2007 |Company: Autodesk,Inc. |WEB Address: www.autodesk.com
 90
      129
280
     0
281
     0
  0
CLASS
  1
AEC_DISP_REP_STAIR_PLAN
  2
AecDbDispRepStairPlan
  3
AecArchBase50|Product Desc: Autodesk Architectural Desktop 2007 |Company: Autodesk,Inc. |WEB Address: www.autodesk.com
 90
      129
280
     0
281
     0
  0
CLASS
  1
AEC_DISP_REP_WALL_GRAPH
  2
AecDbDispRepWallGraph
  3
AecArchBase50|Product Desc: Autodesk Architectural Desktop 2007 |Company: Autodesk,Inc. |WEB Address: www.autodesk.com
 90
      129
280
     0
281
     0
  0
CLASS
  1
AEC_DISP_REP_WALL_MODEL
  2
AecDbDispRepWallModel
  3
AecArchBase50|Product Desc: Autodesk Architectural Desktop 2007 |Company: Autodesk,Inc. |WEB Address: www.autodesk.com
 90
      129
280
     0
281
     0
  0
CLASS
  1
AEC_DISP_REP_WALL_PLAN
  2
AecDbDispRepWallPlan
  3
AecArchBase50|Product Desc: Autodesk Architectural Desktop 2007 |Company: Autodesk,Inc. |WEB Address: www.autodesk.com
 90
      129
280
     0
281
     0
  0
CLASS
  1
AEC_DISP_REP_WALL_SCHEM
  2
AecDbDispRepWallSchem
  3
AecArchBase50|Product Desc: Autodesk Architectural Desktop 2007 |Company: Autodesk,Inc. |WEB Address: www.autodesk.com
 90
      129
280
     0
281
     0
  0
CLASS
  1
AEC_DISP_REP_WINDOW_ASSEMBLY_MODEL
  2
AecDbDispRepWindowAssemblyModel
  3
AecArchBase50|Product Desc: Autodesk Architectural Desktop 2007 |Company: Autodesk,Inc. |WEB Address: www.autodesk.com
 90
      129
280
     0
281
     0
  0
CLASS
  1
AEC_DISP_REP_WINDOW_ASSEMBLY_PLAN
  2
AecDbDispRepWindowAssemblyPlan
  3
AecArchBase50|Product Desc: Autodesk Architectural Desktop 2007 |Company: Autodesk,Inc. |WEB Address: www.autodesk.com
 90
      129
280
     0
281
     0
  0
CLASS
  1
AEC_AECDBDISPREPWINDOWASSEMBLYPLAN100
  2
AecDbDispRepWindowAssemblyPlan100
  3
AecArchDACHBase50|Product Desc: Autodesk Architectural Desktop 2007 |Company: Autodesk,Inc. |WEB Address: www.autodesk.com
 90
      129
280
     0
281
     0
  0
CLASS
  1
AEC_DISP_REP_WINDOW_MODEL
  2
AecDbDispRepWindowModel
  3
AecArchBase50|Product Desc: Autodesk Architectural Desktop 2007 |Company: Autodesk,Inc. |WEB Address: www.autodesk.com
 90
      129
280
     0
281
     0
  0
CLASS
  1
AEC_DISP_REP_WINDOW_NOMINAL
  2
AecDbDispRepWindowNominal
  3
AecArchBase50|Product Desc: Autodesk Architectural Desktop 2007 |Company: Autodesk,Inc. |WEB Address: www.autodesk.com
 90
      129
280
     0
281
     0
  0
CLASS
  1
AEC_DISP_REP_WINDOW_PLAN
  2
AecDbDispRepWindowPlan
  3
AecArchBase50|Product Desc: Autodesk Architectural Desktop 2007 |Company: Autodesk,Inc. |WEB Address: www.autodesk.com
 90
      129
280
     0
281
     0
  0
CLASS
  1
AECS_DISP_REP_MEMBER_LOGICAL
  2
AecsDbDispRepMemberLogical
  3
AecStructureBase50|Product Desc: Autodesk Architectural Desktop 2007 |Company: Autodesk,Inc. |WEB Address: www.autodesk.com
 90
      129
280
     0
281
     0
  0
CLASS
  1
AECS_DISP_REP_MEMBER_MODEL_DESIGN
  2
AecsDbDispRepMemberModelDesign
  3
AecStructureBase50|Product Desc: Autodesk Architectural Desktop 2007 |Company: Autodesk,Inc. |WEB Address: www.autodesk.com
 90
      129
280
     0
281
     0
  0
CLASS
  1
AECS_DISP_REP_MEMBER_PLAN_DESIGN
  2
AecsDbDispRepMemberPlanDesign
  3
AecStructureBase50|Product Desc: Autodesk Architectural Desktop 2007 |Company: Autodesk,Inc. |WEB Address: www.autodesk.com
 90
      129
280
     0
281
     0
  0
CLASS
  1
AEC_DISP_PROPS_ENT
  2
AecDbDispPropsEnt
  3
AecBase50|Product Desc: Autodesk Architectural Desktop 2007 |Company: Autodesk,Inc. |WEB Address: www.autodesk.com
 90
      129
280
     0
281
     0
  0
CLASS
  1
AEC_DISP_PROPS_CLIP_VOLUME
  2
AecDbDispPropsClipVol
  3
AecBase50|Product Desc: Autodesk Architectural Desktop 2007 |Company: Autodesk,Inc. |WEB Address: www.autodesk.com
 90
      129
280
     0
281
     0
  0
CLASS
  1
AEC_DISP_PROPS_SLICE
  2
AecDbDispPropsSlice
  3
AecBase50|Product Desc: Autodesk Architectural Desktop 2007 |Company: Autodesk,Inc. |WEB Address: www.autodesk.com
 90
      129
280
     0
281
     0
  0
CLASS
  1
AEC_DISP_PROPS_ROOFSLAB_PLAN
  2
AecDbDispPropsRoofSlabPlan
  3
AecArchBase50|Product Desc: Autodesk Architectural Desktop 2007 |Company: Autodesk,Inc. |WEB Address: www.autodesk.com
 90
      129
280
     0
281
     0
  0
CLASS
  1
AEC_DISP_PROPS_GRID_ASSEMBLY_MODEL
  2
AecDbDispPropsGridAssemblyModel
  3
AecArchBase50|Product Desc: Autodesk Architectural Desktop 2007 |Company: Autodesk,Inc. |WEB Address: www.autodesk.com
 90
      129
280
     0
281
     0
  0
CLASS
  1
AEC_DISP_PROPS_ROOF
  2
AecDbDispPropsRoof
  3
AecArchBase50|Product Desc: Autodesk Architectural Desktop 2007 |Company: Autodesk,Inc. |WEB Address: www.autodesk.com
 90
      129
280
     0
281
     0
  0
CLASS
  1
AEC_DISP_PROPS_SPACE_MODEL
  2
AecDbDispPropsSpaceModel
  3
AecArchBase50|Product Desc: Autodesk Architectural Desktop 2007 |Company: Autodesk,Inc. |WEB Address: www.autodesk.com
 90
      129
280
     0
281
     0
  0
CLASS
  1
AEC_DISP_PROPS_EDITINPLACEPROFILE_MODEL
  2
AecDbDispPropsEditInPlaceProfile
  3
AecBase50|Product Desc: Autodesk Architectural Desktop 2007 |Company: Autodesk,Inc. |WEB Address: www.autodesk.com
 90
      129
280
     0
281
     0
  0
CLASS
  1
AEC_DISP_PROPS_DOOR
  2
AecDbDispPropsDoor
  3
AecArchBase50|Product Desc: Autodesk Architectural Desktop 2007 |Company: Autodesk,Inc. |WEB Address: www.autodesk.com
 90
      129
280
     0
281
     0
  0
CLASS
  1
AEC_DISP_PROPS_MASKBLOCK
  2
AecDbDispPropsMaskBlock
  3
AecBase50|Product Desc: Autodesk Architectural Desktop 2007 |Company: Autodesk,Inc. |WEB Address: www.autodesk.com
 90
      129
280
     0
281
     0
  0
CLASS
  1
AEC_DISP_PROPS_SPACE_PLAN
  2
AecDbDispPropsSpacePlan
  3
AecArchBase50|Product Desc: Autodesk Architectural Desktop 2007 |Company: Autodesk,Inc. |WEB Address: www.autodesk.com
 90
      129
280
     0
281
     0
  0
CLASS
  1
AEC_DISP_PROPS_RAILING_PLAN
  2
AecDbDispPropsRailingPlan
  3
AecArchBase50|Product Desc: Autodesk Architectural Desktop 2007 |Company: Autodesk,Inc. |WEB Address: www.autodesk.com
 90
      129
280
     0
281
     0
  0
CLASS
  1
AEC_DISP_PROPS_LAYOUT_GRID2D
  2
AecDbDispPropsLayoutGrid2d
  3
AecBase50|Product Desc: Autodesk Architectural Desktop 2007 |Company: Autodesk,Inc. |WEB Address: www.autodesk.com
 90
      129
280
     0
281
     0
  0
CLASS
  1
AEC_DISP_PROPS_CLIP_VOLUME_RESULT
  2
AecDbDispPropsClipVolResSubDiv
  3
AecBase50|Product Desc: Autodesk Architectural Desktop 2007 |Company: Autodesk,Inc. |WEB Address: www.autodesk.com
 90
      129
280
     0
281
     0
  0
CLASS
  1
AEC_DISP_PROPS_STAIR_MODEL
  2
AecDbDispPropsStairModel
  3
AecArchBase50|Product Desc: Autodesk Architectural Desktop 2007 |Company: Autodesk,Inc. |WEB Address: www.autodesk.com
 90
      129
280
     0
281
     0
  0
CLASS
  1
AEC_DISP_PROPS_LAYOUT_CURVE
  2
AecDbDispPropsLayoutCurve
  3
AecBase50|Product Desc: Autodesk Architectural Desktop 2007 |Company: Autodesk,Inc. |WEB Address: www.autodesk.com
 90
      129
280
     0
281
     0
  0
CLASS
  1
AEC_DISP_PROPS_POLYGON_MODEL
  2
AecDbDispPropsPolygonModel
  3
AecBase50|Product Desc: Autodesk Architectural Desktop 2007 |Company: Autodesk,Inc. |WEB Address: www.autodesk.com
 90
      129
280
     0
281
     0
  0
CLASS
  1
AEC_DISP_PROPS_MASS_GROUP
  2
AecDbDispPropsMassGroup
  3
AecBaseEx50|Product Desc: Autodesk Architectural Desktop 2007 |Company: Autodesk,Inc. |WEB Address: www.autodesk.com
 90
      129
280
     0
281
     0
  0
CLASS
  1
AEC_DISP_PROPS_STAIR_PLAN
  2
AecDbDispPropsStairPlan
  3
AecArchBase50|Product Desc: Autodesk Architectural Desktop 2007 |Company: Autodesk,Inc. |WEB Address: www.autodesk.com
 90
      129
280
     0
281
     0
  0
CLASS
  1
AEC_DISP_PROPS_OPENING
  2
AecDbDispPropsOpening
  3
AecArchBase50|Product Desc: Autodesk Architectural Desktop 2007 |Company: Autodesk,Inc. |WEB Address: www.autodesk.com
 90
      129
280
     0
281
     0
  0
CLASS
  1
AEC_DISP_PROPS_WALL_GRAPH
  2
AecDbDispPropsWallGraph
  3
AecArchBase50|Product Desc: Autodesk Architectural Desktop 2007 |Company: Autodesk,Inc. |WEB Address: www.autodesk.com
 90
      129
280
     0
281
     0
  0
CLASS
  1
AEC_DISP_PROPS_DOOR_NOMINAL
  2
AecDbDispPropsDoorNominal
  3
AecArchBase50|Product Desc: Autodesk Architectural Desktop 2007 |Company: Autodesk,Inc. |WEB Address: www.autodesk.com
 90
      129
280
     0
281
     0
  0
CLASS
  1
AEC_DISP_PROPS_SLAB
  2
AecDbDispPropsSlab
  3
AecArchBase50|Product Desc: Autodesk Architectural Desktop 2007 |Company: Autodesk,Inc. |WEB Address: www.autodesk.com
 90
      129
280
     0
281
     0
  0
CLASS
  1
AEC_DISP_PROPS_WALL_MODEL
  2
AecDbDispPropsWallModel
  3
AecArchBase50|Product Desc: Autodesk Architectural Desktop 2007 |Company: Autodesk,Inc. |WEB Address: www.autodesk.com
 90
      129
280
     0
281
     0
  0
CLASS
  1
AEC_DISP_PROPS_MATERIAL
  2
AecDbDispPropsMaterial
  3
AecBase50|Product Desc: Autodesk Architectural Desktop 2007 |Company: Autodesk,Inc. |WEB Address: www.autodesk.com
 90
      129
280
     0
281
     0
  0
CLASS
  1
AEC_DISP_PROPS_WINDOW
  2
AecDbDispPropsWindow
  3
AecArchBase50|Product Desc: Autodesk Architectural Desktop 2007 |Company: Autodesk,Inc. |WEB Address: www.autodesk.com
 90
      129
280
     0
281
     0
  0
CLASS
  1
AEC_DISP_PROPS_LAYOUT_GRID3D
  2
AecDbDispPropsLayoutGrid3d
  3
AecBase50|Product Desc: Autodesk Architectural Desktop 2007 |Company: Autodesk,Inc. |WEB Address: www.autodesk.com
 90
      129
280
     0
281
     0
  0
CLASS
  1
AEC_DISP_PROPS_GRID_ASSEMBLY_PLAN
  2
AecDbDispPropsGridAssemblyPlan
  3
AecArchBase50|Product Desc: Autodesk Architectural Desktop 2007 |Company: Autodesk,Inc. |WEB Address: www.autodesk.com
 90
      129
280
     0
281
     0
  0
CLASS
  1
AEC_DISP_PROPS_WALL_SCHEM
  2
AecDbDispPropsWallSchem
  3
AecArchBase50|Product Desc: Autodesk Architectural Desktop 2007 |Company: Autodesk,Inc. |WEB Address: www.autodesk.com
 90
      129
280
     0
281
     0
  0
CLASS
  1
AEC_DISP_PROPS_WALL_PLAN
  2
AecDbDispPropsWallPlan
  3
AecArchBase50|Product Desc: Autodesk Architectural Desktop 2007 |Company: Autodesk,Inc. |WEB Address: www.autodesk.com
 90
      129
280
     0
281
     0
  0
CLASS
  1
AEC_DISP_PROPS_SPACE_BOUNDARY
  2
AecDbDispPropsSpaceBoundary
  3
AecArchBase50|Product Desc: Autodesk Architectural Desktop 2007 |Company: Autodesk,Inc. |WEB Address: www.autodesk.com
 90
    32897
280
     0
281
     0
  0
CLASS
  1
AEC_DISP_PROPS_SLAB_PLAN
  2
AecDbDispPropsSlabPlan
  3
AecArchBase50|Product Desc: Autodesk Architectural Desktop 2007 |Company: Autodesk,Inc. |WEB Address: www.autodesk.com
 90
      129
280
     0
281
     0
  0
CLASS
  1
AEC_DISP_PROPS_RAILING_MODEL
  2
AecDbDispPropsRailingModel
  3
AecArchBase50|Product Desc: Autodesk Architectural Desktop 2007 |Company: Autodesk,Inc. |WEB Address: www.autodesk.com
 90
      129
280
     0
281
     0
  0
CLASS
  1
AEC_DISP_PROPS_MASS_ELEM_MODEL
  2
AecDbDispPropsMassElem
  3
AecBaseEx50|Product Desc: Autodesk Architectural Desktop 2007 |Company: Autodesk,Inc. |WEB Address: www.autodesk.com
 90
      129
280
     0
281
     0
  0
CLASS
  1
AEC_DISP_PROPS_DIM
  2
AecDbDispPropsDimGroup
  3
AecArchDACHBase50|Product Desc: Autodesk Architectural Desktop 2007 |Company: Autodesk,Inc. |WEB Address: www.autodesk.com
 90
      129
280
     0
281
     0
  0
CLASS
  1
AEC_DISP_PROPS_ROOFSLAB
  2
AecDbDispPropsRoofSlab
  3
AecArchBase50|Product Desc: Autodesk Architectural Desktop 2007 |Company: Autodesk,Inc. |WEB Address: www.autodesk.com
 90
      129
280
     0
281
     0
  0
CLASS
  1
AEC_DISP_PROPS_ENT_REF
  2
AecDbDispPropsEntRef
  3
AecBase50|Product Desc: Autodesk Architectural Desktop 2007 |Company: Autodesk,Inc. |WEB Address: www.autodesk.com
 90
      129
280
     0
281
     0
  0
CLASS
  1
AEC_DISP_PROPS_2D_SECTION
  2
AecDbDispProps2dSection
  3
AecBase50|Product Desc: Autodesk Architectural Desktop 2007 |Company: Autodesk,Inc. |WEB Address: www.autodesk.com
 90
      129
280
     0
281
     0
  0
CLASS
  1
AECS_DISP_PROPS_MEMBER_LOGICAL
  2
AecsDbDispPropsMemberLogical
  3
AecStructureBase50|Product Desc: Autodesk Architectural Desktop 2007 |Company: Autodesk,Inc. |WEB Address: www.autodesk.com
 90
      129
280
     0
281
     0
  0
CLASS
  1
AEC_DISP_PROPS_AREA_DECOMPOSED
  2
AecDbDispPropsAreaDecomposed
  3
AecAreaCalculationBase50|Product Desc: Autodesk Architectural Desktop 2007 |Company: Autodesk,Inc. |WEB Address: www.autodesk.com
 90
    32897
280
     0
281
     0
  0
CLASS
  1
AEC_DISP_PROPS_CAMERA
  2
AecDbDispPropsCamera
  3
AecBase50|Product Desc: Autodesk Architectural Desktop 2007 |Company: Autodesk,Inc. |WEB Address: www.autodesk.com
 90
    32897
280
     0
281
     0
  0
CLASS
  1
AECS_DISP_PROPS_MEMBER
  2
AecsDbDispPropsMember
  3
AecStructureBase50|Product Desc: Autodesk Architectural Desktop 2007 |Company: Autodesk,Inc. |WEB Address: www.autodesk.com
 90
      129
280
     0
281
     0
  0
CLASS
  1
AECS_DISP_PROPS_MEMBER_PLAN
  2
AecsDbDispPropsMemberPlan
  3
AecStructureBase50|Product Desc: Autodesk Architectural Desktop 2007 |Company: Autodesk,Inc. |WEB Address: www.autodesk.com
 90
      129
280
     0
281
     0
  0
CLASS
  1
AEC_DISP_PROPS_AREAGROUP
  2
AecDbDispPropsAreaGroup
  3
AecAreaCalculationBase50|Product Desc: Autodesk Architectural Desktop 2007 |Company: Autodesk,Inc. |WEB Address: www.autodesk.com
 90
    32897
280
     0
281
     0
  0
CLASS
  1
AEC_DISP_PROPS_WINDOW_NOMINAL
  2
AecDbDispPropsWindowNominal
  3
AecArchBase50|Product Desc: Autodesk Architectural Desktop 2007 |Company: Autodesk,Inc. |WEB Address: www.autodesk.com
 90
      129
280
     0
281
     0
  0
CLASS
  1
AEC_DISP_PROPS_AREA
  2
AecDbDispPropsArea
  3
AecAreaCalculationBase50|Product Desc: Autodesk Architectural Desktop 2007 |Company: Autodesk,Inc. |WEB Address: www.autodesk.com
 90
    32897
280
     0
281
     0
  0
CLASS
  1
AEC_DISP_PROPS_SCHEDULE_TABLE
  2
AecDbDispPropsScheduleTable
  3
AecSchedule50|Product Desc: Autodesk Architectural Desktop 2007 |Company: Autodesk,Inc. |WEB Address: www.autodesk.com
 90
      129
280
     0
281
     0
  0
CLASS
  1
AEC_LAYERKEY_STYLE
  2
AecDbLayerKeyStyle
  3
AecBase50|Product Desc: Autodesk Architectural Desktop 2007 |Company: Autodesk,Inc. |WEB Address: www.autodesk.com
 90
      129
280
     0
281
     0
  0
CLASS
  1
AEC_VARS_ARCHBASE
  2
AecDbVarsArchBase
  3
AecArchBase50|Product Desc: Autodesk Architectural Desktop 2007 |Company: Autodesk,Inc. |WEB Address: www.autodesk.com
 90
      129
280
     0
281
     0
  0
CLASS
  1
AEC_VARS_MUNICH
  2
AecDbVarsMunich
  3
AecArchDACHBase50|Product Desc: Autodesk Architectural Desktop 2007 |Company: Autodesk,Inc. |WEB Address: www.autodesk.com
 90
      129
280
     0
281
     0
  0
CLASS
  1
AEC_NOTIFICATION_TRACKER
  2
AecDbNotificationTracker
  3
AecBase50|Product Desc: Autodesk Architectural Desktop 2007 |Company: Autodesk,Inc. |WEB Address: www.autodesk.com
 90
      129
280
     0
281
     0
  0
CLASS
  1
AEC_DISP_REP_ANCHOR
  2
AecDbDispRepAnchor
  3
AecBase50|Product Desc: Autodesk Architectural Desktop 2007 |Company: Autodesk,Inc. |WEB Address: www.autodesk.com
 90
      129
280
     0
281
     0
  0
CLASS
  1
AEC_DISP_REP_POLYGON_TRUECOLOUR
  2
AecDbDispRepPolygonTrueColour
  3
AecBase50|Product Desc: Autodesk Architectural Desktop 2007 |Company: Autodesk,Inc. |WEB Address: www.autodesk.com
 90
      129
280
     0
281
     0
  0
CLASS
  1
AEC_DISP_PROPS_POLYGON_TRUECOLOUR
  2
AecDbDispPropsPolygonTrueColour
  3
AecBase50|Product Desc: Autodesk Architectural Desktop 2007 |Company: Autodesk,Inc. |WEB Address: www.autodesk.com
 90
      129
280
     0
281
     0
  0
CLASS
  1
AEC_DISP_REP_BDG_ELEVLINE_RCP
  2
AecDbDispRepBdgElevLineRcp
  3
AecArchBase50|Product Desc: Autodesk Architectural Desktop 2007 |Company: Autodesk,Inc. |WEB Address: www.autodesk.com
 90
      129
280
     0
281
     0
  0
CLASS
  1
AEC_DISP_REP_BDG_SECTIONLINE_RCP
  2
AecDbDispRepBdgSectionLineRcp
  3
AecArchBase50|Product Desc: Autodesk Architectural Desktop 2007 |Company: Autodesk,Inc. |WEB Address: www.autodesk.com
 90
      129
280
     0
281
     0
  0
CLASS
  1
AEC_DISP_REP_BDG_SECTION_MODEL
  2
AecDbDispRepBdgSectionModel
  3
AecArchBase50|Product Desc: Autodesk Architectural Desktop 2007 |Company: Autodesk,Inc. |WEB Address: www.autodesk.com
 90
      129
280
     0
281
     0
  0
CLASS
  1
AEC_DISP_REP_DOOR_ELEV
  2
AecDbDispRepDoorElev
  3
AecArchBase50|Product Desc: Autodesk Architectural Desktop 2007 |Company: Autodesk,Inc. |WEB Address: www.autodesk.com
 90
      129
280
     0
281
     0
  0
CLASS
  1
AEC_DISP_REP_DOOR_RCP
  2
AecDbDispRepDoorRcp
  3
AecArchBase50|Product Desc: Autodesk Architectural Desktop 2007 |Company: Autodesk,Inc. |WEB Address: www.autodesk.com
 90
      129
280
     0
281
     0
  0
CLASS
  1
AEC_DISP_REP_DOOR_THRESHOLD_PLAN
  2
AecDbDispRepDoorThresholdPlan
  3
AecArchBase50|Product Desc: Autodesk Architectural Desktop 2007 |Company: Autodesk,Inc. |WEB Address: www.autodesk.com
 90
      129
280
     0
281
     0
  0
CLASS
  1
AEC_DISP_PROPS_DOOR_THRESHOLD_PLAN
  2
AecDbDispPropsDoorThresholdPlan
  3
AecArchBase50|Product Desc: Autodesk Architectural Desktop 2007 |Company: Autodesk,Inc. |WEB Address: www.autodesk.com
 90
      129
280
     0
281
     0
  0
CLASS
  1
AEC_DISP_REP_MASS_ELEM_RCP
  2
AecDbDispRepMassElemRcp
  3
AecArchBase50|Product Desc: Autodesk Architectural Desktop 2007 |Company: Autodesk,Inc. |WEB Address: www.autodesk.com
 90
      129
280
     0
281
     0
  0
CLASS
  1
AEC_DISP_REP_MASS_GROUP_RCP
  2
AecDbDispRepMassGroupRcp
  3
AecArchBase50|Product Desc: Autodesk Architectural Desktop 2007 |Company: Autodesk,Inc. |WEB Address: www.autodesk.com
 90
      129
280
     0
281
     0
  0
CLASS
  1
AEC_DISP_REP_MVBLOCK_REF_RCP
  2
AecDbDispRepMvBlockRefRcp
  3
AecArchBase50|Product Desc: Autodesk Architectural Desktop 2007 |Company: Autodesk,Inc. |WEB Address: www.autodesk.com
 90
      129
280
     0
281
     0
  0
CLASS
  1
AEC_DISP_REP_ROOF_RCP
  2
AecDbDispRepRoofRcp
  3
AecArchBase50|Product Desc: Autodesk Architectural Desktop 2007 |Company: Autodesk,Inc. |WEB Address: www.autodesk.com
 90
      129
280
     0
281
     0
  0
CLASS
  1
AEC_DISP_REP_SPACE_BOUNDARY_DIAGRAM
  2
AecDbDispRepSpaceBoundaryDgrm
  3
AecArchBase50|Product Desc: Autodesk Architectural Desktop 2007 |Company: Autodesk,Inc. |WEB Address: www.autodesk.com
 90
    32897
280
     0
281
     0
  0
CLASS
  1
AEC_DISP_REP_SPACE_RCP
  2
AecDbDispRepSpaceRcp
  3
AecArchBase50|Product Desc: Autodesk Architectural Desktop 2007 |Company: Autodesk,Inc. |WEB Address: www.autodesk.com
 90
      129
280
     0
281
     0
  0
CLASS
  1
AEC_DISP_REP_SPACE_VOLUME
  2
AecDbDispRepSpaceVolume
  3
AecArchBase50|Product Desc: Autodesk Architectural Desktop 2007 |Company: Autodesk,Inc. |WEB Address: www.autodesk.com
 90
      129
280
     0
281
     0
  0
CLASS
  1
AEC_DISP_REP_STAIR_PLAN_OVERLAPPING
  2
AecDbDispRepStairPlanOverlapping
  3
AecArchBase50|Product Desc: Autodesk Architectural Desktop 2007 |Company: Autodesk,Inc. |WEB Address: www.autodesk.com
 90
      129
280
     0
281
     0
  0
CLASS
  1
AEC_DISP_PROPS_STAIR_PLAN_OVERLAPPING
  2
AecDbDispPropsStairPlanOverlapping
  3
AecArchBase50|Product Desc: Autodesk Architectural Desktop 2007 |Company: Autodesk,Inc. |WEB Address: www.autodesk.com
 90
      129
280
     0
281
     0
  0
CLASS
  1
AEC_DISP_REP_STAIR_RCP
  2
AecDbDispRepStairRcp
  3
AecArchBase50|Product Desc: Autodesk Architectural Desktop 2007 |Company: Autodesk,Inc. |WEB Address: www.autodesk.com
 90
      129
280
     0
281
     0
  0
CLASS
  1
AEC_DISP_REP_WALL_RCP
  2
AecDbDispRepWallRcp
  3
AecArchBase50|Product Desc: Autodesk Architectural Desktop 2007 |Company: Autodesk,Inc. |WEB Address: www.autodesk.com
 90
      129
280
     0
281
     0
  0
CLASS
  1
AEC_DISP_REP_WINDOWASSEMBLY_SILL_PLAN
  2
AecDbDispRepWindowAssemblySillPlan
  3
AecArchBase50|Product Desc: Autodesk Architectural Desktop 2007 |Company: Autodesk,Inc. |WEB Address: www.autodesk.com
 90
      129
280
     0
281
     0
  0
CLASS
  1
AEC_DISP_PROPS_WINDOW_ASSEMBLY_SILL_PLAN
  2
AecDbDispPropsWindowAssemblySillPlan
  3
AecArchBase50|Product Desc: Autodesk Architectural Desktop 2007 |Company: Autodesk,Inc. |WEB Address: www.autodesk.com
 90
      129
280
     0
281
     0
  0
CLASS
  1
AEC_DISP_REP_WINDOW_ELEV
  2
AecDbDispRepWindowElev
  3
AecArchBase50|Product Desc: Autodesk Architectural Desktop 2007 |Company: Autodesk,Inc. |WEB Address: www.autodesk.com
 90
      129
280
     0
281
     0
  0
CLASS
  1
AEC_DISP_REP_WINDOW_RCP
  2
AecDbDispRepWindowRcp
  3
AecArchBase50|Product Desc: Autodesk Architectural Desktop 2007 |Company: Autodesk,Inc. |WEB Address: www.autodesk.com
 90
      129
280
     0
281
     0
  0
CLASS
  1
AEC_DISP_REP_WINDOW_SILL_PLAN
  2
AecDbDispRepWindowSillPlan
  3
AecArchBase50|Product Desc: Autodesk Architectural Desktop 2007 |Company: Autodesk,Inc. |WEB Address: www.autodesk.com
 90
      129
280
     0
281
     0
  0
CLASS
  1
AEC_DISP_PROPS_WINDOW_SILL_PLAN
  2
AecDbDispPropsWindowSillPlan
  3
AecArchBase50|Product Desc: Autodesk Architectural Desktop 2007 |Company: Autodesk,Inc. |WEB Address: www.autodesk.com
 90
      129
280
     0
281
     0
  0
CLASS
  1
AEC_DISP_REP_ANCHOR_BUB_TO_GRID_RCP
  2
AecDbDispRepAnchorBubToGridRcp
  3
AecStructureBase50|Product Desc: Autodesk Architectural Desktop 2007 |Company: Autodesk,Inc. |WEB Address: www.autodesk.com
 90
      129
280
     0
281
     0
  0
CLASS
  1
AEC_DISP_REP_COLUMN_GRID_RCP
  2
AecDbDispRepColumnGridRcp
  3
AecStructureBase50|Product Desc: Autodesk Architectural Desktop 2007 |Company: Autodesk,Inc. |WEB Address: www.autodesk.com
 90
      129
280
     0
281
     0
  0
CLASS
  1
AECS_DISP_REP_MEMBER_ELEVATION_DESIGN
  2
AecsDbDispRepMemberElevationDesign
  3
AecStructureBase50|Product Desc: Autodesk Architectural Desktop 2007 |Company: Autodesk,Inc. |WEB Address: www.autodesk.com
 90
      129
280
     0
281
     0
  0
CLASS
  1
AECS_DISP_PROPS_MEMBER_PROJECTED
  2
AecsDbDispPropsMemberProjected
  3
AecStructureBase50|Product Desc: Autodesk Architectural Desktop 2007 |Company: Autodesk,Inc. |WEB Address: www.autodesk.com
 90
      129
280
     0
281
     0
  0
CLASS
  1
AECS_DISP_REP_MEMBER_ELEVATION_DETAIL
  2
AecsDbDispRepMemberElevationDetail
  3
AecStructureBase50|Product Desc: Autodesk Architectural Desktop 2007 |Company: Autodesk,Inc. |WEB Address: www.autodesk.com
 90
      129
280
     0
281
     0
  0
CLASS
  1
AECS_DISP_REP_MEMBER_MODEL_DETAIL
  2
AecsDbDispRepMemberModelDetail
  3
AecStructureBase50|Product Desc: Autodesk Architectural Desktop 2007 |Company: Autodesk,Inc. |WEB Address: www.autodesk.com
 90
      129
280
     0
281
     0
  0
CLASS
  1
AECS_DISP_REP_MEMBER_PLAN_DETAIL
  2
AecsDbDispRepMemberPlanDetail
  3
AecStructureBase50|Product Desc: Autodesk Architectural Desktop 2007 |Company: Autodesk,Inc. |WEB Address: www.autodesk.com
 90
      129
280
     0
281
     0
  0
CLASS
  1
AECS_DISP_REP_MEMBER_PLAN_SKETCH
  2
AecsDbDispRepMemberPlanSketch
  3
AecStructureBase50|Product Desc: Autodesk Architectural Desktop 2007 |Company: Autodesk,Inc. |WEB Address: www.autodesk.com
 90
      129
280
     0
281
     0
  0
CLASS
  1
AECS_DISP_PROPS_MEMBER_PLAN_SKETCH
  2
AecsDbDispPropsMemberPlanSketch
  3
AecStructureBase50|Product Desc: Autodesk Architectural Desktop 2007 |Company: Autodesk,Inc. |WEB Address: www.autodesk.com
 90
      129
280
     0
281
     0
  0
CLASS
  1
AEC_AECDBDISPREPAREA100
  2
AecDbDispRepArea100
  3
AecArchDACHBase50|Product Desc: Autodesk Architectural Desktop 2007 |Company: Autodesk,Inc. |WEB Address: www.autodesk.com
 90
    32897
280
     0
281
     0
  0
CLASS
  1
AEC_AECDBDISPREPAREAGROUP100
  2
AecDbDispRepAreaGroup100
  3
AecArchDACHBase50|Product Desc: Autodesk Architectural Desktop 2007 |Company: Autodesk,Inc. |WEB Address: www.autodesk.com
 90
    32897
280
     0
281
     0
  0
CLASS
  1
AEC_AECDBDISPREPBDGELEVLINEPLAN100
  2
AecDbDispRepBdgElevLinePlan100
  3
AecArchDACHBase50|Product Desc: Autodesk Architectural Desktop 2007 |Company: Autodesk,Inc. |WEB Address: www.autodesk.com
 90
      129
280
     0
281
     0
  0
CLASS
  1
AEC_AECDBDISPREPBDGSECTIONLINEPLAN100
  2
AecDbDispRepBdgSectionLinePlan100
  3
AecArchDACHBase50|Product Desc: Autodesk Architectural Desktop 2007 |Company: Autodesk,Inc. |WEB Address: www.autodesk.com
 90
      129
280
     0
281
     0
  0
CLASS
  1
AEC_AECDBDISPREPCEILINGGRIDPLAN100
  2
AecDbDispRepCeilingGridPlan100
  3
AecArchDACHBase50|Product Desc: Autodesk Architectural Desktop 2007 |Company: Autodesk,Inc. |WEB Address: www.autodesk.com
 90
      129
280
     0
281
     0
  0
CLASS
  1
AEC_AECDBDISPREPCOLUMNGRIDPLAN100
  2
AecDbDispRepColumnGridPlan100
  3
AecArchDACHBase50|Product Desc: Autodesk Architectural Desktop 2007 |Company: Autodesk,Inc. |WEB Address: www.autodesk.com
 90
      129
280
     0
281
     0
  0
CLASS
  1
AEC_AECDBDISPREPCURTAINWALLLAYOUTPLAN100
  2
AecDbDispRepCurtainWallLayoutPlan100
  3
AecArchDACHBase50|Product Desc: Autodesk Architectural Desktop 2007 |Company: Autodesk,Inc. |WEB Address: www.autodesk.com
 90
      129
280
     0
281
     0
  0
CLASS
  1
AEC_AECDBDISPREPCURTAINWALLUNITPLAN100
  2
AecDbDispRepCurtainWallUnitPlan100
  3
AecArchDACHBase50|Product Desc: Autodesk Architectural Desktop 2007 |Company: Autodesk,Inc. |WEB Address: www.autodesk.com
 90
      129
280
     0
281
     0
  0
CLASS
  1
AEC_AECDBDISPREPMVBLOCKREFPLAN100
  2
AecDbDispRepMvBlockRefPlan100
  3
AecArchDACHBase50|Product Desc: Autodesk Architectural Desktop 2007 |Company: Autodesk,Inc. |WEB Address: www.autodesk.com
 90
      129
280
     0
281
     0
  0
CLASS
  1
AEC_AECDBDISPREPROOFPLAN100
  2
AecDbDispRepRoofPlan100
  3
AecArchDACHBase50|Product Desc: Autodesk Architectural Desktop 2007 |Company: Autodesk,Inc. |WEB Address: www.autodesk.com
 90
      129
280
     0
281
     0
  0
CLASS
  1
AEC_AECDBDISPREPROOFSLABPLAN100
  2
AecDbDispRepRoofSlabPlan100
  3
AecArchDACHBase50|Product Desc: Autodesk Architectural Desktop 2007 |Company: Autodesk,Inc. |WEB Address: www.autodesk.com
 90
      129
280
     0
281
     0
  0
CLASS
  1
AEC_AECDBDISPREPSLABPLAN100
  2
AecDbDispRepSlabPlan100
  3
AecArchDACHBase50|Product Desc: Autodesk Architectural Desktop 2007 |Company: Autodesk,Inc. |WEB Address: www.autodesk.com
 90
      129
280
     0
281
     0
  0
CLASS
  1
AEC_AECDBDISPREPSPACEBOUNDARYPLAN100
  2
AecDbDispRepSpaceBoundaryPlan100
  3
AecArchDACHBase50|Product Desc: Autodesk Architectural Desktop 2007 |Company: Autodesk,Inc. |WEB Address: www.autodesk.com
 90
    32897
280
     0
281
     0
  0
CLASS
  1
AEC_AECDBDISPREPSPACEPLAN100
  2
AecDbDispRepSpacePlan100
  3
AecArchDACHBase50|Product Desc: Autodesk Architectural Desktop 2007 |Company: Autodesk,Inc. |WEB Address: www.autodesk.com
 90
      129
280
     0
281
     0
  0
CLASS
  1
AEC_AECDBDISPREPWALLPLAN100
  2
AecDbDispRepWallPlan100
  3
AecArchDACHBase50|Product Desc: Autodesk Architectural Desktop 2007 |Company: Autodesk,Inc. |WEB Address: www.autodesk.com
 90
      129
280
     0
281
     0
  0
CLASS
  1
AEC_AECDBDISPREPAREA50
  2
AecDbDispRepArea50
  3
AecArchDACHBase50|Product Desc: Autodesk Architectural Desktop 2007 |Company: Autodesk,Inc. |WEB Address: www.autodesk.com
 90
    32897
280
     0
281
     0
  0
CLASS
  1
AEC_AECDBDISPREPAREAGROUP50
  2
AecDbDispRepAreaGroup50
  3
AecArchDACHBase50|Product Desc: Autodesk Architectural Desktop 2007 |Company: Autodesk,Inc. |WEB Address: www.autodesk.com
 90
    32897
280
     0
281
     0
  0
CLASS
  1
AEC_AECDBDISPREPBDGELEVLINEPLAN50
  2
AecDbDispRepBdgElevLinePlan50
  3
AecArchDACHBase50|Product Desc: Autodesk Architectural Desktop 2007 |Company: Autodesk,Inc. |WEB Address: www.autodesk.com
 90
      129
280
     0
281
     0
  0
CLASS
  1
AEC_AECDBDISPREPBDGSECTIONLINEPLAN50
  2
AecDbDispRepBdgSectionLinePlan50
  3
AecArchDACHBase50|Product Desc: Autodesk Architectural Desktop 2007 |Company: Autodesk,Inc. |WEB Address: www.autodesk.com
 90
      129
280
     0
281
     0
  0
CLASS
  1
AEC_AECDBDISPREPCEILINGGRIDPLAN50
  2
AecDbDispRepCeilingGridPlan50
  3
AecArchDACHBase50|Product Desc: Autodesk Architectural Desktop 2007 |Company: Autodesk,Inc. |WEB Address: www.autodesk.com
 90
      129
280
     0
281
     0
  0
CLASS
  1
AEC_AECDBDISPREPCOLUMNGRIDPLAN50
  2
AecDbDispRepColumnGridPlan50
  3
AecArchDACHBase50|Product Desc: Autodesk Architectural Desktop 2007 |Company: Autodesk,Inc. |WEB Address: www.autodesk.com
 90
      129
280
     0
281
     0
  0
CLASS
  1
AEC_AECDBDISPREPCURTAINWALLLAYOUTPLAN50
  2
AecDbDispRepCurtainWallLayoutPlan50
  3
AecArchDACHBase50|Product Desc: Autodesk Architectural Desktop 2007 |Company: Autodesk,Inc. |WEB Address: www.autodesk.com
 90
      129
280
     0
281
     0
  0
CLASS
  1
AEC_AECDBDISPREPCURTAINWALLUNITPLAN50
  2
AecDbDispRepCurtainWallUnitPlan50
  3
AecArchDACHBase50|Product Desc: Autodesk Architectural Desktop 2007 |Company: Autodesk,Inc. |WEB Address: www.autodesk.com
 90
      129
280
     0
281
     0
  0
CLASS
  1
AEC_AECDBDISPREPMVBLOCKREFPLAN50
  2
AecDbDispRepMvBlockRefPlan50
  3
AecArchDACHBase50|Product Desc: Autodesk Architectural Desktop 2007 |Company: Autodesk,Inc. |WEB Address: www.autodesk.com
 90
      129
280
     0
281
     0
  0
CLASS
  1
AEC_AECDBDISPREPROOFPLAN50
  2
AecDbDispRepRoofPlan50
  3
AecArchDACHBase50|Product Desc: Autodesk Architectural Desktop 2007 |Company: Autodesk,Inc. |WEB Address: www.autodesk.com
 90
      129
280
     0
281
     0
  0
CLASS
  1
AEC_AECDBDISPREPROOFSLABPLAN50
  2
AecDbDispRepRoofSlabPlan50
  3
AecArchDACHBase50|Product Desc: Autodesk Architectural Desktop 2007 |Company: Autodesk,Inc. |WEB Address: www.autodesk.com
 90
      129
280
     0
281
     0
  0
CLASS
  1
AEC_AECDBDISPREPSLABPLAN50
  2
AecDbDispRepSlabPlan50
  3
AecArchDACHBase50|Product Desc: Autodesk Architectural Desktop 2007 |Company: Autodesk,Inc. |WEB Address: www.autodesk.com
 90
      129
280
     0
281
     0
  0
CLASS
  1
AEC_AECDBDISPREPSPACEBOUNDARYPLAN50
  2
AecDbDispRepSpaceBoundaryPlan50
  3
AecArchDACHBase50|Product Desc: Autodesk Architectural Desktop 2007 |Company: Autodesk,Inc. |WEB Address: www.autodesk.com
 90
    32897
280
     0
281
     0
  0
CLASS
  1
AEC_AECDBDISPREPSPACEPLAN50
  2
AecDbDispRepSpacePlan50
  3
AecArchDACHBase50|Product Desc: Autodesk Architectural Desktop 2007 |Company: Autodesk,Inc. |WEB Address: www.autodesk.com
 90
      129
280
     0
281
     0
  0
CLASS
  1
AEC_AECDBDISPREPWALLPLAN50
  2
AecDbDispRepWallPlan50
  3
AecArchDACHBase50|Product Desc: Autodesk Architectural Desktop 2007 |Company: Autodesk,Inc. |WEB Address: www.autodesk.com
 90
      129
280
     0
281
     0
  0
CLASS
  1
AEC_AECDBDISPREPWINDOWASSEMBLYPLAN50
  2
AecDbDispRepWindowAssemblyPlan50
  3
AecArchDACHBase50|Product Desc: Autodesk Architectural Desktop 2007 |Company: Autodesk,Inc. |WEB Address: www.autodesk.com
 90
      129
280
     0
281
     0
  0
CLASS
  1
AEC_DB_DISP_REP_DIM_GROUP_PLAN100
  2
AecDbDispRepDimGroupPlan100
  3
AecArchDACHBase50|Product Desc: Autodesk Architectural Desktop 2007 |Company: Autodesk,Inc. |WEB Address: www.autodesk.com
 90
      129
280
     0
281
     0
  0
CLASS
  1
AEC_DB_DISP_REP_DIM_GROUP_PLAN50
  2
AecDbDispRepDimGroupPlan50
  3
AecArchDACHBase50|Product Desc: Autodesk Architectural Desktop 2007 |Company: Autodesk,Inc. |WEB Address: www.autodesk.com
 90
      129
280
     0
281
     0
  0
CLASS
  1
AEC_DISP_REP_DOOR_PLAN_50
  2
AecDbDispRepDoorPlan50
  3
AecArchDACHBase50|Product Desc: Autodesk Architectural Desktop 2007 |Company: Autodesk,Inc. |WEB Address: www.autodesk.com
 90
      129
280
     0
281
     0
  0
CLASS
  1
AEC_DISP_PROPS_DOOR_PLAN_50
  2
AecDbDispPropsDoorPlan50
  3
AecArchDACHBase50|Product Desc: Autodesk Architectural Desktop 2007 |Company: Autodesk,Inc. |WEB Address: www.autodesk.com
 90
      129
280
     0
281
     0
  0
CLASS
  1
AEC_DISP_REP_DOOR_PLAN_HEKTO
  2
AecDbDispRepDoorPlanHekto
  3
AecArchDACHBase50|Product Desc: Autodesk Architectural Desktop 2007 |Company: Autodesk,Inc. |WEB Address: www.autodesk.com
 90
      129
280
     0
281
     0
  0
CLASS
  1
AEC_DISP_PROPS_DOOR_PLAN_100
  2
AecDbDispPropsDoorPlan100
  3
AecArchDACHBase50|Product Desc: Autodesk Architectural Desktop 2007 |Company: Autodesk,Inc. |WEB Address: www.autodesk.com
 90
      129
280
     0
281
     0
  0
CLASS
  1
AEC_DISP_REP_DOOR_THRESHOLD_SYMBOL_PLAN
  2
AecDbDispRepDoorThresholdSymbolPlan
  3
AecArchDACHBase50|Product Desc: Autodesk Architectural Desktop 2007 |Company: Autodesk,Inc. |WEB Address: www.autodesk.com
 90
      129
280
     0
281
     0
  0
CLASS
  1
AEC_DISP_PROPS_DOOR_THRESHOLD_SYMBOL_PLAN
  2
AecDbDispPropsDoorThresholdSymbolPlan
  3
AecArchDACHBase50|Product Desc: Autodesk Architectural Desktop 2007 |Company: Autodesk,Inc. |WEB Address: www.autodesk.com
 90
      129
280
     0
281
     0
  0
CLASS
  1
AEC_DISPREPAECDBDISPREPMASSELEMPLAN100
  2
AecDbDispRepMassElemPlan100
  3
AecArchDACHBase50|Product Desc: Autodesk Architectural Desktop 2007 |Company: Autodesk,Inc. |WEB Address: www.autodesk.com
 90
      129
280
     0
281
     0
  0
CLASS
  1
AEC_DISPROPSMASSELEMPLANCOMMON
  2
AecDbDispPropsMassElemPlanCommon
  3
AecArchDACHBase50|Product Desc: Autodesk Architectural Desktop 2007 |Company: Autodesk,Inc. |WEB Address: www.autodesk.com
 90
      129
280
     0
281
     0
  0
CLASS
  1
AEC_DISPREPAECDBDISPREPMASSELEMPLAN50
  2
AecDbDispRepMassElemPlan50
  3
AecArchDACHBase50|Product Desc: Autodesk Architectural Desktop 2007 |Company: Autodesk,Inc. |WEB Address: www.autodesk.com
 90
      129
280
     0
281
     0
  0
CLASS
  1
AEC_DISPREPAECDBDISPREPMASSGROUPPLAN100
  2
AecDbDispRepMassGroupPlan100
  3
AecArchDACHBase50|Product Desc: Autodesk Architectural Desktop 2007 |Company: Autodesk,Inc. |WEB Address: www.autodesk.com
 90
      129
280
     0
281
     0
  0
CLASS
  1
AEC_DISPROPSMASSGROUPPLANCOMMON
  2
AecDbDispPropsMassGroupPlanCommon
  3
AecArchDACHBase50|Product Desc: Autodesk Architectural Desktop 2007 |Company: Autodesk,Inc. |WEB Address: www.autodesk.com
 90
      129
280
     0
281
     0
  0
CLASS
  1
AEC_DISPREPAECDBDISPREPMASSGROUPPLAN50
  2
AecDbDispRepMassGroupPlan50
  3
AecArchDACHBase50|Product Desc: Autodesk Architectural Desktop 2007 |Company: Autodesk,Inc. |WEB Address: www.autodesk.com
 90
      129
280
     0
281
     0
  0
CLASS
  1
AEC_DISPREPAECDBDISPREPOPENINGPLAN100
  2
AecDbDispRepOpeningPlan100
  3
AecArchDACHBase50|Product Desc: Autodesk Architectural Desktop 2007 |Company: Autodesk,Inc. |WEB Address: www.autodesk.com
 90
      129
280
     0
281
     0
  0
CLASS
  1
AEC_DISPROPSOPENINGPLANCOMMONHATCHED
  2
AecDbDispPropsOpeningPlanCommonHatched
  3
AecArchDACHBase50|Product Desc: Autodesk Architectural Desktop 2007 |Company: Autodesk,Inc. |WEB Address: www.autodesk.com
 90
      129
280
     0
281
     0
  0
CLASS
  1
AEC_DISPREPAECDBDISPREPOPENINGPLAN50
  2
AecDbDispRepOpeningPlan50
  3
AecArchDACHBase50|Product Desc: Autodesk Architectural Desktop 2007 |Company: Autodesk,Inc. |WEB Address: www.autodesk.com
 90
      129
280
     0
281
     0
  0
CLASS
  1
AEC_DISPREPAECDBDISPREPOPENINGPLANREFLECTED
  2
AecDbDispRepOpeningPlanReflected
  3
AecArchDACHBase50|Product Desc: Autodesk Architectural Desktop 2007 |Company: Autodesk,Inc. |WEB Address: www.autodesk.com
 90
      129
280
     0
281
     0
  0
CLASS
  1
AEC_DISPROPSOPENINGPLANCOMMON
  2
AecDbDispPropsOpeningPlanCommon
  3
AecArchDACHBase50|Product Desc: Autodesk Architectural Desktop 2007 |Company: Autodesk,Inc. |WEB Address: www.autodesk.com
 90
      129
280
     0
281
     0
  0
CLASS
  1
AEC_DISPREPAECDBDISPREPOPENINGSILLPLAN
  2
AecDbDispRepOpeningSillPlan
  3
AecArchDACHBase50|Product Desc: Autodesk Architectural Desktop 2007 |Company: Autodesk,Inc. |WEB Address: www.autodesk.com
 90
      129
280
     0
281
     0
  0
CLASS
  1
AEC_DISPROPSOPENINGSILLPLAN
  2
AecDbDispPropsOpeningSillPlan
  3
AecArchDACHBase50|Product Desc: Autodesk Architectural Desktop 2007 |Company: Autodesk,Inc. |WEB Address: www.autodesk.com
 90
      129
280
     0
281
     0
  0
CLASS
  1
AEC_DISP_REP_RAILING_PLAN_100
  2
AecDbDispRepRailingPlan100
  3
AecArchDACHBase50|Product Desc: Autodesk Architectural Desktop 2007 |Company: Autodesk,Inc. |WEB Address: www.autodesk.com
 90
      129
280
     0
281
     0
  0
CLASS
  1
AEC_DISP_ROPS_RAILING_PLAN_100
  2
AecDbDispPropsRailingPlan100
  3
AecArchDACHBase50|Product Desc: Autodesk Architectural Desktop 2007 |Company: Autodesk,Inc. |WEB Address: www.autodesk.com
 90
      129
280
     0
281
     0
  0
CLASS
  1
AEC_DISP_REP_RAILING_PLAN_50
  2
AecDbDispRepRailingPlan50
  3
AecArchDACHBase50|Product Desc: Autodesk Architectural Desktop 2007 |Company: Autodesk,Inc. |WEB Address: www.autodesk.com
 90
      129
280
     0
281
     0
  0
CLASS
  1
AEC_DISP_ROPS_RAILING_PLAN_50
  2
AecDbDispPropsRailingPlan50
  3
AecArchDACHBase50|Product Desc: Autodesk Architectural Desktop 2007 |Company: Autodesk,Inc. |WEB Address: www.autodesk.com
 90
      129
280
     0
281
     0
  0
CLASS
  1
AEC_DISP_REP_STAIR_PLAN_100
  2
AecDbDispRepStairPlan100
  3
AecArchDACHBase50|Product Desc: Autodesk Architectural Desktop 2007 |Company: Autodesk,Inc. |WEB Address: www.autodesk.com
 90
      129
280
     0
281
     0
  0
CLASS
  1
AEC_DISP_ROPS_STAIR_PLAN_100
  2
AecDbDispPropsStairPlan100
  3
AecArchDACHBase50|Product Desc: Autodesk Architectural Desktop 2007 |Company: Autodesk,Inc. |WEB Address: www.autodesk.com
 90
      129
280
     0
281
     0
  0
CLASS
  1
AEC_DISP_REP_STAIR_PLAN_50
  2
AecDbDispRepStairPlan50
  3
AecArchDACHBase50|Product Desc: Autodesk Architectural Desktop 2007 |Company: Autodesk,Inc. |WEB Address: www.autodesk.com
 90
      129
280
     0
281
     0
  0
CLASS
  1
AEC_DISP_ROPS_STAIR_PLAN_50
  2
AecDbDispPropsStairPlan50
  3
AecArchDACHBase50|Product Desc: Autodesk Architectural Desktop 2007 |Company: Autodesk,Inc. |WEB Address: www.autodesk.com
 90
      129
280
     0
281
     0
  0
CLASS
  1
AEC_DISP_REP_WINDOW_PLAN_100
  2
AecDbDispRepWindowPlan100
  3
AecArchDACHBase50|Product Desc: Autodesk Architectural Desktop 2007 |Company: Autodesk,Inc. |WEB Address: www.autodesk.com
 90
      129
280
     0
281
     0
  0
CLASS
  1
AEC_DISP_PROPS_WINDOW_PLAN_100
  2
AecDbDispPropsWindowPlan100
  3
AecArchDACHBase50|Product Desc: Autodesk Architectural Desktop 2007 |Company: Autodesk,Inc. |WEB Address: www.autodesk.com
 90
      129
280
     0
281
     0
  0
CLASS
  1
AEC_DISP_REP_WINDOW_PLAN_50
  2
AecDbDispRepWindowPlan50
  3
AecArchDACHBase50|Product Desc: Autodesk Architectural Desktop 2007 |Company: Autodesk,Inc. |WEB Address: www.autodesk.com
 90
      129
280
     0
281
     0
  0
CLASS
  1
AEC_DISP_PROPS_WINDOW_PLAN_50
  2
AecDbDispPropsWindowPlan50
  3
AecArchDACHBase50|Product Desc: Autodesk Architectural Desktop 2007 |Company: Autodesk,Inc. |WEB Address: www.autodesk.com
 90
      129
280
     0
281
     0
  0
CLASS
  1
BINRECORD
  2
AcAecBinRecord
  3
AecBase50|Product Desc: Autodesk Architectural Desktop 2007 |Company: Autodesk,Inc. |WEB Address: www.autodesk.com
 90
      129
280
     0
281
     0
  0
CLASS
  1
SPATIAL_FILTER
  2
AcDbSpatialFilter
  3
ObjectDBX Classes
 90
    32768
280
     0
281
     0
  0
CLASS
  1
AEC_VARS_STRUCTUREBASE
  2
AecsDbVarsStructureBase
  3
AecStructureBase50|Product Desc: Autodesk Architectural Desktop 2007 |Company: Autodesk,Inc. |WEB Address: www.autodesk.com
 90
      129
280
     0
281
     0
  0
CLASS
  1
DIMASSOC
  2
AcDbDimAssoc
  3
"AcDbDimAssoc|Product Desc:     AcDim ARX App For Dimension|Company:          Autodesk, Inc.|WEB Address:      www.autodesk.com"
 90
        0
280
     0
281
     0
  0
CLASS
  1
TABLESTYLE
  2
AcDbTableStyle
  3
ObjectDBX Classes
 90
     4095
280
     0
281
     0
  0
CLASS
  1
MATERIAL
  2
AcDbMaterial
  3
ObjectDBX Classes
 90
     1153
280
     0
281
     0
  0
CLASS
  1
VISUALSTYLE
  2
AcDbVisualStyle
  3
ObjectDBX Classes
 90
     4095
280
     0
281
     0
  0
CLASS
  1
EXACXREFPANELOBJECT
  2
ExAcXREFPanelObject
  3
EXAC_ESW
 90
    33793
280
     0
281
     0
  0
CLASS
  1
NPOCOLLECTION
  2
AcDbImpNonPersistentObjectsCollection
  3
ObjectDBX Classes
 90
     1153
280
     0
281
     0
  0
CLASS
  1
AEC_AECDBDISPREPZONE100
  2
AecDbDispRepZonePlan100
  3
AecArchDACHBase50|Product Desc: Autodesk Architectural Desktop 2007 |Company: Autodesk,Inc. |WEB Address: www.autodesk.com
 90
      129
280
     0
281
     0
  0
CLASS
  1
AEC_DISP_PROPS_ZONE
  2
AecDbDispPropsZone
  3
AecArchBase50|Product Desc: Autodesk Architectural Desktop 2007 |Company: Autodesk,Inc. |WEB Address: www.autodesk.com
 90
      129
280
     0
281
     0
  0
CLASS
  1
AEC_AECDBDISPREPZONE50
  2
AecDbDispRepZonePlan50
  3
AecArchDACHBase50|Product Desc: Autodesk Architectural Desktop 2007 |Company: Autodesk,Inc. |WEB Address: www.autodesk.com
 90
      129
280
     0
281
     0
  0
CLASS
  1
AEC_DISP_REP_DISPLAYTHEME
  2
AecDbDispRepDisplayTheme
  3
AecBase50|Product Desc: Autodesk Architectural Desktop 2007 |Company: Autodesk,Inc. |WEB Address: www.autodesk.com
 90
      129
280
     0
281
     0
  0
CLASS
  1
AEC_DISP_PROPS_DISPLAYTHEME
  2
AecDbDispPropsDisplayTheme
  3
AecBase50|Product Desc: Autodesk Architectural Desktop 2007 |Company: Autodesk,Inc. |WEB Address: www.autodesk.com
 90
      129
280
     0
281
     0
  0
CLASS
  1
AEC_DISP_REP_ANCHOR_EXT_TAG_TO_ENT
  2
AecDbDispRepAnchorExtendedTagToEnt
  3
AecScheduleData50|Product Desc: Autodesk Architectural Desktop 2007 |Company: Autodesk,Inc. |WEB Address: www.autodesk.com
 90
      129
280
     0
281
     0
  0
CLASS
  1
AEC_DISP_REP_SPACE_DECOMPOSED
  2
AecDbDispRepSpaceDecomposed
  3
AecArchBase50|Product Desc: Autodesk Architectural Desktop 2007 |Company: Autodesk,Inc. |WEB Address: www.autodesk.com
 90
      129
280
     0
281
     0
  0
CLASS
  1
AEC_DISP_PROPS_SPACE_DECOMPOSED
  2
AecDbDispPropsSpaceDecomposed
  3
AecArchBase50|Product Desc: Autodesk Architectural Desktop 2007 |Company: Autodesk,Inc. |WEB Address: www.autodesk.com
 90
      129
280
     0
281
     0
  0
CLASS
  1
AEC_DISP_REP_ZONE
  2
AecDbDispRepZone
  3
AecArchBase50|Product Desc: Autodesk Architectural Desktop 2007 |Company: Autodesk,Inc. |WEB Address: www.autodesk.com
 90
      129
280
     0
281
     0
  0
CLASS
  1
ACAD_EVALUATION_GRAPH
  2
AcDbEvalGraph
  3
ObjectDBX Classes
 90
     1153
280
     0
281
     0
  0
CLASS
  1
BLOCKFLIPPARAMETER
  2
AcDbBlockFlipParameter
  3
ObjectDBX Classes
 90
    33921
280
     0
281
     0
  0
CLASS
  1
BLOCKFLIPGRIP
  2
AcDbBlockFlipGrip
  3
ObjectDBX Classes
 90
    33921
280
     0
281
     0
  0
CLASS
  1
BLOCKGRIPLOCATIONCOMPONENT
  2
AcDbBlockGripExpr
  3
ObjectDBX Classes
 90
     1153
280
     0
281
     0
  0
CLASS
  1
BLOCKFLIPACTION
  2
AcDbBlockFlipAction
  3
ObjectDBX Classes
 90
    33921
280
     0
281
     0
  0
CLASS
  1
BLOCKROTATIONPARAMETER
  2
AcDbBlockRotationParameter
  3
ObjectDBX Classes
 90
    33921
280
     0
281
     0
  0
CLASS
  1
BLOCKROTATIONGRIP
  2
AcDbBlockRotationGrip
  3
ObjectDBX Classes
 90
    33921
280
     0
281
     0
  0
CLASS
  1
BLOCKROTATEACTION
  2
AcDbBlockRotateAction
  3
ObjectDBX Classes
 90
    33921
280
     0
281
     0
  0
CLASS
  1
BLOCKBASEPOINTPARAMETER
  2
AcDbBlockBasepointParameter
  3
ObjectDBX Classes
 90
    33921
280
     0
281
     0
  0
CLASS
  1
ACDB_DYNAMICBLOCKPURGEPREVENTER_VERSION
  2
AcDbDynamicBlockPurgePreventer
  3
ObjectDBX Classes
 90
     1153
280
     0
281
     0
  0
CLASS
  1
ACDB_BLOCKREPRESENTATION_DATA
  2
AcDbBlockRepresentationData
  3
ObjectDBX Classes
 90
    33921
280
     0
281
     0
  0
CLASS
  1
AEC_SPACE
  2
AecDbSpace
  3
AecArchBase50|Product Desc: Autodesk Architectural Desktop 2007 |Company: Autodesk,Inc. |WEB Address: www.autodesk.com
 90
      893
280
     0
281
     1
  0
CLASS
  1
AecDbPropertySet
  2
AecDbPropertySet
  3
AecScheduleData50|Product Desc: Autodesk Architectural Desktop 2007 |Company: Autodesk,Inc. |WEB Address: www.autodesk.com
 90
      129
280
     0
281
     0
  0
CLASS
  1
AEC_SCHEDULE_TABLE
  2
AecDbScheduleTable
  3
AecSchedule50|Product Desc: Autodesk Architectural Desktop 2007 |Company: Autodesk,Inc. |WEB Address: www.autodesk.com
 90
    33661
280
     0
281
     1
  0
CLASS
  1
AEC_CLEANUP_GROUP_DEF
  2
AecDbCleanupGroupDef
  3
AecArchBase50|Product Desc: Autodesk Architectural Desktop 2007 |Company: Autodesk,Inc. |WEB Address: www.autodesk.com
 90
      129
280
     0
281
     0
  0
CLASS
  1
AEC_ENDCAP_STYLE
  2
AecDbEndcapStyle
  3
AecArchBase50|Product Desc: Autodesk Architectural Desktop 2007 |Company: Autodesk,Inc. |WEB Address: www.autodesk.com
 90
      129
280
     0
281
     0
  0
CLASS
  1
AEC_LIST_DEF
  2
AecDbListDefinition
  3
AecBase50|Product Desc: Autodesk Architectural Desktop 2007 |Company: Autodesk,Inc. |WEB Address: www.autodesk.com
 90
      129
280
     0
281
     0
  0
CLASS
  1
AEC_LIST_DEF
  2
AecDbListItem
  3
AecBase50|Product Desc: Autodesk Architectural Desktop 2007 |Company: Autodesk,Inc. |WEB Address: www.autodesk.com
 90
      129
280
     0
281
     0
  0
CLASS
  1
AEC_MATERIAL_DEF
  2
AecDbMaterialDef
  3
AecBase50|Product Desc: Autodesk Architectural Desktop 2007 |Company: Autodesk,Inc. |WEB Address: www.autodesk.com
 90
      129
280
     0
281
     0
  0
CLASS
  1
AEC_FRAME_DEF
  2
AecDbOpeningEndcapStyle
  3
AecArchBase50|Product Desc: Autodesk Architectural Desktop 2007 |Company: Autodesk,Inc. |WEB Address: www.autodesk.com
 90
      129
280
     0
281
     0
  0
CLASS
  1
AEC_SCHEDULE_DATA_FORMAT
  2
AecDbScheduleDataFormat
  3
AecScheduleData50|Product Desc: Autodesk Architectural Desktop 2007 |Company: Autodesk,Inc. |WEB Address: www.autodesk.com
 90
      129
280
     0
281
     0
  0
CLASS
  1
AEC_PROPERTY_SET_DEF
  2
AecDbPropertySetDef
  3
AecScheduleData50|Product Desc: Autodesk Architectural Desktop 2007 |Company: Autodesk,Inc. |WEB Address: www.autodesk.com
 90
      129
280
     0
281
     0
  0
CLASS
  1
AEC_ROOFSLAB_STYLE
  2
AecDbRoofSlabStyle
  3
AecArchBase50|Product Desc: Autodesk Architectural Desktop 2007 |Company: Autodesk,Inc. |WEB Address: www.autodesk.com
 90
      129
280
     0
281
     0
  0
CLASS
  1
AEC_ROOFSLABEDGE_STYLE
  2
AecDbRoofSlabEdgeStyle
  3
AecArchBase50|Product Desc: Autodesk Architectural Desktop 2007 |Company: Autodesk,Inc. |WEB Address: www.autodesk.com
 90
      129
280
     0
281
     0
  0
CLASS
  1
AEC_SCHEDULE_TABLE_STYLE
  2
AecDbScheduleTableStyle
  3
AecSchedule50|Product Desc: Autodesk Architectural Desktop 2007 |Company: Autodesk,Inc. |WEB Address: www.autodesk.com
 90
      129
280
     0
281
     0
  0
CLASS
  1
AEC_SLAB_STYLE
  2
AecDbSlabStyle
  3
AecArchBase50|Product Desc: Autodesk Architectural Desktop 2007 |Company: Autodesk,Inc. |WEB Address: www.autodesk.com
 90
      129
280
     0
281
     0
  0
CLASS
  1
AEC_SLABEDGE_STYLE
  2
AecDbSlabEdgeStyle
  3
AecArchBase50|Product Desc: Autodesk Architectural Desktop 2007 |Company: Autodesk,Inc. |WEB Address: www.autodesk.com
 90
      129
280
     0
281
     0
  0
CLASS
  1
AEC_SPACE_STYLES
  2
AecDbSpaceStyle
  3
AecArchBase50|Product Desc: Autodesk Architectural Desktop 2007 |Company: Autodesk,Inc. |WEB Address: www.autodesk.com
 90
      129
280
     0
281
     0
  0
CLASS
  1
AEC_WALL_STYLE
  2
AecDbWallStyle
  3
AecArchBase50|Product Desc: Autodesk Architectural Desktop 2007 |Company: Autodesk,Inc. |WEB Address: www.autodesk.com
 90
      129
280
     0
281
     0
  0
CLASS
  1
BLOCKXYPARAMETER
  2
AcDbBlockXYParameter
  3
ObjectDBX Classes
 90
     1153
280
     0
281
     0
  0
CLASS
  1
BLOCKLINEARPARAMETER
  2
AcDbBlockLinearParameter
  3
ObjectDBX Classes
 90
     1153
280
     0
281
     0
  0
CLASS
  1
BLOCKSCALEACTION
  2
AcDbBlockScaleAction
  3
ObjectDBX Classes
 90
     1153
280
     0
281
     0
  0
CLASS
  1
BLOCKMOVEACTION
  2
AcDbBlockMoveAction
  3
ObjectDBX Classes
 90
     1153
280
     0
281
     0
  0
CLASS
  1
BLOCKSTRETCHACTION
  2
AcDbBlockStretchAction
  3
ObjectDBX Classes
 90
     1153
280
     0
281
     0
  0
CLASS
  1
BLOCKLOOKUPPARAMETER
  2
AcDbBlockLookupParameter
  3
ObjectDBX Classes
 90
     1153
280
     0
281
     0
  0
CLASS
  1
BLOCKLOOKUPGRIP
  2
AcDbBlockLookupGrip
  3
ObjectDBX Classes
 90
     1153
280
     0
281
     0
  0
CLASS
  1
BLOCKLOOKUPACTION
  2
AcDbBlockLookupAction
  3
ObjectDBX Classes
 90
     1153
280
     0
281
     0
  0
CLASS
  1
BLOCKVISIBILITYPARAMETER
  2
AcDbBlockVisibilityParameter
  3
ObjectDBX Classes
 90
     1153
280
     0
281
     0
  0
CLASS
  1
BLOCKVISIBILITYGRIP
  2
AcDbBlockVisibilityGrip
  3
ObjectDBX Classes
 90
     1153
280
     0
281
     0
  0
CLASS
  1
SCALE
  2
AcDbScale
  3
ObjectDBX Classes
 90
     1153
280
     0
281
     0
  0
CLASS
  1
MLEADERSTYLE
  2
AcDbMLeaderStyle
  3
ACDB_MLEADERSTYLE_CLASS
 90
     4095
280
     0
281
     0
  0
CLASS
  1
CELLSTYLEMAP
  2
AcDbCellStyleMap
  3
ObjectDBX Classes
 90
     1152
280
     0
281
     0
  0
CLASS
  1
OBJECT_PTR
  2
CAseDLPNTableRecord
  3
ASE-LPNTableRecord
 90
        1
280
     0
281
     0
  0
ENDSEC
  0
SECTION
  2
TABLES
  0
TABLE
  2
VPORT
  5
1C
330
0
100
AcDbSymbolTable
 70
     1
  0
VPORT
  5
1728
330
1C
100
AcDbSymbolTableRecord
100
AcDbViewportTableRecord
  2
*Active
 70
     0
 10
0.0
 20
0.0
 11
1.0
 21
1.0
 12
233773.4534897331
 22
132328.5752109774
 13
0.0
 23
0.0
 14
10.0
 24
10.0
 15
10.0
 25
10.0
 16
0.0
 26
0.0
 36
1.0
 17
0.0
 27
0.0
 37
0.0
 40
23260.22248848741
 41
1.561333333333333
 42
50.0
 43
0.0
 44
0.0
 50
0.0
 51
0.0
 71
     0
 72
  1000
 73
     1
 74
     1
 75
     0
 76
     0
 77
     0
 78
     0
281
     0
 65
     1
110
0.0
120
0.0
130
0.0
111
1.0
121
0.0
131
0.0
112
0.0
122
1.0
132
0.0
 79
     0
146
0.0
  0
ENDTAB
  0
TABLE
  2
LTYPE
  5
17
330
0
100
AcDbSymbolTable
 70
     6
  0
LTYPE
  5
18
330
17
100
AcDbSymbolTableRecord
100
AcDbLinetypeTableRecord
  2
ByBlock
 70
     0
  3

 72
    65
 73
     0
 40
0.0
  0
LTYPE
  5
19
330
17
100
AcDbSymbolTableRecord
100
AcDbLinetypeTableRecord
  2
ByLayer
 70
     0
  3

 72
    65
 73
     0
 40
0.0
  0
LTYPE
  5
8
330
17
100
AcDbSymbolTableRecord
100
AcDbLinetypeTableRecord
  2
Continuous
 70
     0
  3
Solid line
 72
    65
 73
     0
 40
0.0
  0
LTYPE
  5
158
330
17
100
AcDbSymbolTableRecord
100
AcDbLinetypeTableRecord
  2
HIDDEN
 70
     0
  3
Hidden __ __ __ __ __ __ __ __ __ __ __ __ __ _
 72
    65
 73
     2
 40
0.375
 49
0.25
 74
     0
 49
-0.125
 74
     0
  0
ENDTAB
  0
TABLE
  2
LAYER
  5
11
102
{ACAD_XDICTIONARY
360
12
102
}
330
0
100
AcDbSymbolTable
 70
    51
  0
LAYER
  5
4
102
{ACAD_XDICTIONARY
360
1674F
102
}
330
11
100
AcDbSymbolTableRecord
100
AcDbLayerTableRecord
  2
0
 70
     0
 62
     7
  6
Continuous
370
    -3
390
5
1001
RAK
1000
{ACET-LAYISO
1070
     0
1070
     7
1000
Continuous
1071
       -3
1071
        1
1005
5
1000
ACET-LAYISO}
  0
LAYER
  5
65
330
11
100
AcDbSymbolTableRecord
100
AcDbLayerTableRecord
  2
DEFPOINTS
 70
     0
 62
     7
  6
Continuous
290
     0
370
    -3
390
5
1001
RAK
1000
{ACET-LAYISO
1070
     0
1070
     7
1000
Continuous
1071
       -3
1071
        0
1005
5
1000
ACET-LAYISO}
  0
LAYER
  5
15E
102
{ACAD_XDICTIONARY
360
16751
102
}
330
11
100
AcDbSymbolTableRecord
100
AcDbLayerTableRecord
  2
RAMKI-A4
 70
     0
 62
     2
  6
Continuous
290
     0
370
    -3
390
5
1001
RAK
1000
{ACET-LAYISO
1070
     0
1070
     2
1000
Continuous
1071
       -3
1071
        0
1005
5
1000
ACET-LAYISO}
  0
LAYER
  5
143
102
{ACAD_XDICTIONARY
360
16755
102
}
330
11
100
AcDbSymbolTableRecord
100
AcDbLayerTableRecord
  2
NAPISY
 70
     0
 62
   140
  6
Continuous
370
    -3
390
5
1001
RAK
1000
{ACET-LAYISO
1070
     0
1070
   140
1000
Continuous
1071
       -3
1071
        1
1005
5
1000
ACET-LAYISO}
  0
LAYER
  5
202C
102
{ACAD_XDICTIONARY
360
16759
102
}
330
11
100
AcDbSymbolTableRecord
100
AcDbLayerTableRecord
  2
0Hatch
 70
     0
 62
   122
  6
Continuous
370
     5
390
5
  0
LAYER
  5
2081
102
{ACAD_XDICTIONARY
360
1675B
102
}
330
11
100
AcDbSymbolTableRecord
100
AcDbLayerTableRecord
  2
0Wymiary-PL
 70
     0
 62
     1
  6
Continuous
370
     5
390
5
  0
LAYER
  5
139C3
102
{ACAD_XDICTIONARY
360
16785
102
}
330
11
100
AcDbSymbolTableRecord
100
AcDbLayerTableRecord
  2
A-Anno-Scrn
 70
     0
 62
   250
  6
Continuous
370
    25
390
139CA
1001
AcAecLayerStandard
1000
AIA 2nd Edition
1001
RAK
1000
{ACET-LAYISO
1070
     0
1070
   250
1000
CONTINUOUS
1071
       25
1071
        1
1005
139CA
1000
ACET-LAYISO}
  0
LAYER
  5
139C6
102
{ACAD_XDICTIONARY
360
1678B
102
}
330
11
100
AcDbSymbolTableRecord
100
AcDbLayerTableRecord
  2
A-Space-G
 70
     1
 62
    34
  6
Continuous
290
     0
370
    15
390
5
1001
AcAecLayerStandard
1000
BS1192 - Descriptive
1001
RAK
1000
{ACET-LAYISO
1070
     0
1070
    34
1000
Continuous
1071
       15
1071
        1
1005
5
1000
ACET-LAYISO}
  0
LAYER
  5
17D8C
330
11
100
AcDbSymbolTableRecord
100
AcDbLayerTableRecord
  2
0Widok
 70
     0
 62
   114
  6
Continuous
370
     9
390
5
  0
ENDTAB
  0
TABLE
  2
STYLE
  5
14
330
0
100
AcDbSymbolTable
 70
    11
  0
STYLE
  5
15
330
14
100
AcDbSymbolTableRecord
100
AcDbTextStyleTableRecord
  2
Standard
 70
     0
 40
0.0
 41
1.0
 50
0.0
 71
     0
 42
2.5
  3
txt
  4

  0
STYLE
  5
22
330
14
100
AcDbSymbolTableRecord
100
AcDbTextStyleTableRecord
  2
ROMANS
 70
     0
 40
0.0
 41
0.9
 50
0.0
 71
     0
 42
20.0
  3
romans.shx
  4

  0
STYLE
  5
144
330
14
100
AcDbSymbolTableRecord
100
AcDbTextStyleTableRecord
  2
AVA
 70
     0
 40
0.0
 41
1.0
 50
0.0
 71
     0
 42
158.5644099714409
  3
ARIAL.TTF
  4

1001
ACAD
1000
Arial CE
1071
    60962
  0
ENDTAB
  0
TABLE
  2
VIEW
  5
1A
330
0
100
AcDbSymbolTable
 70
     1
  0
VIEW
  5
C
330
1A
100
AcDbSymbolTableRecord
100
AcDbViewTableRecord
  2
RODODENDRON 5
 70
     0
 40
14020.0
 10
220287.1664355166
 20
148687.514558954
 41
10200.00000000003
 11
0.0
 21
0.0
 31
1.0
 12
0.0
 22
0.0
 32
0.0
 42
50.0
 43
0.0
 44
0.0
 50
0.0
 71
     0
281
     0
 72
     1
110
0.0
120
0.0
130
0.0
111
1.0
121
0.0
131
0.0
112
0.0
122
1.0
132
0.0
 79
     0
146
0.0
  0
ENDTAB
  0
TABLE
  2
UCS
  5
1B
330
0
100
AcDbSymbolTable
 70
     0
  0
ENDTAB
  0
TABLE
  2
APPID
  5
1E
330
0
100
AcDbSymbolTable
 70
    22
  0
APPID
  5
1F
330
1E
100
AcDbSymbolTableRecord
100
AcDbRegAppTableRecord
  2
ACAD
 70
     0
  0
APPID
  5
1E1
330
1E
100
AcDbSymbolTableRecord
100
AcDbRegAppTableRecord
  2
RAK
 70
     0
  0
APPID
  5
1E2
330
1E
100
AcDbSymbolTableRecord
100
AcDbRegAppTableRecord
  2
AcAecLayerStandard
 70
     0
  0
APPID
  5
A87
330
1E
100
AcDbSymbolTableRecord
100
AcDbRegAppTableRecord
  2
ACAD_PSEXT
 70
     0
  0
APPID
  5
C44
330
1E
100
AcDbSymbolTableRecord
100
AcDbRegAppTableRecord
  2
DCO15
 70
     0
  0
APPID
  5
1744
330
1E
100
AcDbSymbolTableRecord
100
AcDbRegAppTableRecord
  2
ACAD_EXEMPT_FROM_CAD_STANDARDS
 70
     0
  0
APPID
  5
1745
330
1E
100
AcDbSymbolTableRecord
100
AcDbRegAppTableRecord
  2
ACAD_DSTYLE_DIM_LINETYPE
 70
     0
  0
APPID
  5
1746
330
1E
100
AcDbSymbolTableRecord
100
AcDbRegAppTableRecord
  2
ACAD_DSTYLE_DIM_EXT1_LINETYPE
 70
     0
  0
APPID
  5
1747
330
1E
100
AcDbSymbolTableRecord
100
AcDbRegAppTableRecord
  2
ACAD_DSTYLE_DIM_EXT2_LINETYPE
 70
     0
  0
APPID
  5
1988
330
1E
100
AcDbSymbolTableRecord
100
AcDbRegAppTableRecord
  2
AcLayerTools
 70
     0
  0
APPID
  5
6A86
330
1E
100
AcDbSymbolTableRecord
100
AcDbRegAppTableRecord
  2
AcDbBlockRepETag
 70
     0
  0
APPID
  5
82FB
330
1E
100
AcDbSymbolTableRecord
100
AcDbRegAppTableRecord
  2
AECBASE
 70
     0
  0
APPID
  5
82FC
330
1E
100
AcDbSymbolTableRecord
100
AcDbRegAppTableRecord
  2
AEC_OBJVER_INFO
 70
     0
  0
APPID
  5
D8C8
330
1E
100
AcDbSymbolTableRecord
100
AcDbRegAppTableRecord
  2
AcDbDynamicBlockGUID
 70
     0
  0
APPID
  5
D8C9
330
1E
100
AcDbSymbolTableRecord
100
AcDbRegAppTableRecord
  2
CADZOOKSMATERIAL
 70
     0
  0
APPID
  5
EFA3
330
1E
100
AcDbSymbolTableRecord
100
AcDbRegAppTableRecord
  2
ACAUTHENVIRON
 70
     0
  0
APPID
  5
EFA4
330
1E
100
AcDbSymbolTableRecord
100
AcDbRegAppTableRecord
  2
AcDbDynamicBlockTrueName
 70
     0
  0
APPID
  5
EFA5
330
1E
100
AcDbSymbolTableRecord
100
AcDbRegAppTableRecord
  2
AcDbBlockRepBTag
 70
     0
  0
APPID
  5
EFA6
330
1E
100
AcDbSymbolTableRecord
100
AcDbRegAppTableRecord
  2
AEC_SCHEDULE_TAG
 70
     0
  0
APPID
  5
139C8
330
1E
100
AcDbSymbolTableRecord
100
AcDbRegAppTableRecord
  2
AEC_SCHEDULEDATA_FORMULA_SAMPLES
 70
     0
  0
APPID
  5
16747
330
1E
100
AcDbSymbolTableRecord
100
AcDbRegAppTableRecord
  2
ACAD_MLEADERVER
 70
     0
  0
APPID
  5
1BDA5
330
1E
100
AcDbSymbolTableRecord
100
AcDbRegAppTableRecord
  2
AcDbAttr
 70
     0
  0
ENDTAB
  0
TABLE
  2
DIMSTYLE
  5
20
330
0
100
AcDbSymbolTable
 70
    11
100
AcDbDimStyleTable
 71
     2
340
21
340
2B
  0
DIMSTYLE
105
21
102
{ACAD_REACTORS
330
1BC08
330
1BC09
330
1BC0A
330
1BC0B
330
1BC0C
330
1BC0D
330
1BC0E
330
1BC0F
330
1BC60
330
1BC61
330
1BC62
330
1BC63
330
1BC64
330
1BC65
330
1BC66
330
1BC67
102
}
330
20
100
AcDbSymbolTableRecord
100
AcDbDimStyleTableRecord
  2
500
 70
     0
 41
30.0
 42
43.0
 43
0.0
 44
13.0
 45
0.5
 46
12.0
 73
     0
 74
     0
 75
     1
 76
     1
 78
    12
140
80.0
141
0.0
145
1.0
147
0.0
172
     1
174
     1
176
     1
177
     1
178
    10
271
     1
272
     1
279
     2
340
22
341
23
342
23
  0
DIMSTYLE
105
2B
330
20
100
AcDbSymbolTableRecord
100
AcDbDimStyleTableRecord
  2
Standard
 70
     0
340
15
  0
ENDTAB
  0
TABLE
  2
BLOCK_RECORD
  5
1
330
0
100
AcDbSymbolTable
 70
   132
  0
BLOCK_RECORD
  5
2
102
{ACAD_XDICTIONARY
360
1FEF
102
}
330
1
100
AcDbSymbolTableRecord
100
AcDbBlockTableRecord
  2
*Model_Space
340
A
  0
BLOCK_RECORD
  5
D
330
1
100
AcDbSymbolTableRecord
100
AcDbBlockTableRecord
  2
*Paper_Space
340
10
  0
BLOCK_RECORD
  5
23
102
{ACAD_XDICTIONARY
360
24
102
}
330
1
100
AcDbSymbolTableRecord
100
AcDbBlockTableRecord
  2
B-DIM
340
0
102
{BLKREFS
331
17D06
331
17D07
331
17D0D
331
17D0E
331
17D14
331
17D15
331
17D1D
331
17D1E
331
17D24
331
17D25
331
17D2B
331
17D2C
331
17D32
331
17D33
331
17D39
331
17D3A
331
17D40
331
17D41
331
17D47
331
17D48
331
17D50
331
17D51
331
17D57
331
17D58
331
17D5E
331
17D5F
331
17D65
331
17D66
331
1B3D8
331
1B3D9
331
1B3DF
331
1B3E0
331
1B3E6
331
1B3E7
331
1B3ED
331
1B3EE
331
1B3F6
331
1B3F7
331
1B3FD
331
1B3FE
331
1B404
331
1B405
331
1B40B
331
1B40C
331
1B4E7
331
1B4E8
331
1B4EE
331
1B4EF
331
1B4F5
331
1B4F6
331
1B4FC
331
1B4FD
331
1B505
331
1B506
331
1B50C
331
1B50D
331
1B513
331
1B514
331
1B51A
331
1B51B
331
1BA40
331
1BA41
331
1BA4A
331
1BA4B
331
1BA54
331
1BA55
331
1BA5E
331
1BA5F
331
1BA6A
331
1BA6B
331
1BA74
331
1BA75
331
1BA7E
331
1BA7F
331
1BA88
331
1BA89
331
1BA94
331
1BA95
331
1BA9E
331
1BA9F
331
1BAA8
331
1BAA9
331
1BAB2
331
1BAB3
331
1BABE
331
1BABF
331
1BAC8
331
1BAC9
331
1BAD2
331
1BAD3
331
1BADC
331
1BADD
331
1BD15
331
1BD16
331
1BD1C
331
1BD1D
331
1BD23
331
1BD24
331
1BD2A
331
1BD2B
331
1BD33
331
1BD34
331
1BD3A
331
1BD3B
331
1BD41
331
1BD42
331
1BD48
331
1BD49
331
1BD51
331
1BD52
331
1BD58
331
1BD59
331
1BD5F
331
1BD60
331
1BD66
331
1BD67
331
1BD6F
331
1BD70
331
1BD76
331
1BD77
331
1BD7D
331
1BD7E
331
1BD84
331
1BD85
102
}
  0
BLOCK_RECORD
  5
1BC6A
330
1
100
AcDbSymbolTableRecord
100
AcDbBlockTableRecord
  2
*D115
340
0
  0
BLOCK_RECORD
  5
1BC76
330
1
100
AcDbSymbolTableRecord
100
AcDbBlockTableRecord
  2
*D116
340
0
  0
BLOCK_RECORD
  5
1BC80
330
1
100
AcDbSymbolTableRecord
100
AcDbBlockTableRecord
  2
*D117
340
0
  0
BLOCK_RECORD
  5
1BC8A
330
1
100
AcDbSymbolTableRecord
100
AcDbBlockTableRecord
  2
*D118
340
0
  0
BLOCK_RECORD
  5
1BC94
330
1
100
AcDbSymbolTableRecord
100
AcDbBlockTableRecord
  2
*D119
340
0
  0
BLOCK_RECORD
  5
1BCA0
330
1
100
AcDbSymbolTableRecord
100
AcDbBlockTableRecord
  2
*D120
340
0
  0
BLOCK_RECORD
  5
1BCAA
330
1
100
AcDbSymbolTableRecord
100
AcDbBlockTableRecord
  2
*D121
340
0
  0
BLOCK_RECORD
  5
1BCB4
330
1
100
AcDbSymbolTableRecord
100
AcDbBlockTableRecord
  2
*D122
340
0
  0
BLOCK_RECORD
  5
1BCBE
330
1
100
AcDbSymbolTableRecord
100
AcDbBlockTableRecord
  2
*D123
340
0
  0
BLOCK_RECORD
  5
1BCCA
330
1
100
AcDbSymbolTableRecord
100
AcDbBlockTableRecord
  2
*D124
340
0
  0
BLOCK_RECORD
  5
1BCD4
330
1
100
AcDbSymbolTableRecord
100
AcDbBlockTableRecord
  2
*D125
340
0
  0
BLOCK_RECORD
  5
1BCDE
330
1
100
AcDbSymbolTableRecord
100
AcDbBlockTableRecord
  2
*D126
340
0
  0
BLOCK_RECORD
  5
1BCE8
330
1
100
AcDbSymbolTableRecord
100
AcDbBlockTableRecord
  2
*D127
340
0
  0
BLOCK_RECORD
  5
1BCF4
330
1
100
AcDbSymbolTableRecord
100
AcDbBlockTableRecord
  2
*D128
340
0
  0
BLOCK_RECORD
  5
1BCFE
330
1
100
AcDbSymbolTableRecord
100
AcDbBlockTableRecord
  2
*D129
340
0
  0
BLOCK_RECORD
  5
1BD08
330
1
100
AcDbSymbolTableRecord
100
AcDbBlockTableRecord
  2
*D130
340
0
  0
ENDTAB
  0
ENDSEC
  0
SECTION
  2
BLOCKS
  0
BLOCK
  5
3
330
2
100
AcDbEntity
  8
0
100
AcDbBlockBegin
  2
*Model_Space
 70
     0
 10
0.0
 20
0.0
 30
0.0
  3
*Model_Space
  1

  0
ENDBLK
  5
9
330
2
100
AcDbEntity
  8
0
100
AcDbBlockEnd
  0
BLOCK
  5
E
330
D
100
AcDbEntity
 67
     1
  8
0
100
AcDbBlockBegin
  2
*Paper_Space
 70
     0
 10
0.0
 20
0.0
 30
0.0
  3
*Paper_Space
  1

  0
ENDBLK
  5
F
330
D
100
AcDbEntity
 67
     1
  8
0
100
AcDbBlockEnd
  0
BLOCK
  5
26
330
23
100
AcDbEntity
  8
0
100
AcDbBlockBegin
  2
B-DIM
 70
     0
 10
0.0
 20
0.0
 30
0.0
  3
B-DIM
  1

  0
LINE
  5
27
330
23
100
AcDbEntity
  8
0
 62
     1
100
AcDbLine
 10
0.000000000000091
 20
-1.1
 30
0.0
 11
0.000000000000091
 21
1.1
 31
0.0
  0
LWPOLYLINE
  5
28
330
23
100
AcDbEntity
  8
0
 62
     1
100
AcDbPolyline
 90
        2
 70
     0
 43
0.3
 10
-0.7071067811864851
 20
-0.7071067811864851
 10
0.707106781186576
 20
0.707106781186576
  0
LINE
  5
29
330
23
100
AcDbEntity
  8
0
 62
     1
100
AcDbLine
 10
1.20000000000009
 20
0.0
 30
0.0
 11
-1.199999999999909
 21
0.0
 31
0.0
  0
ENDBLK
  5
2A
330
23
100
AcDbEntity
  8
0
100
AcDbBlockEnd
  0
BLOCK
  5
1BC6B
330
1BC6A
100
AcDbEntity
  8
0
100
AcDbBlockBegin
  2
*D115
 70
     1
 10
0.0
 20
0.0
 30
0.0
  3
*D115
  1

  0
LINE
  5
1BD12
330
1BC6A
100
AcDbEntity
  8
0Wymiary-PL
 62
     1
370
    -2
100
AcDbLine
 10
235029.1193181671
 20
134240.2992846632
 30
0.0
 11
235059.1193181671
 21
134240.2992846632
 31
0.0
  0
LINE
  5
1BD13
330
1BC6A
100
AcDbEntity
  8
0Wymiary-PL
 62
     1
370
    -2
100
AcDbLine
 10
234939.1193181672
 20
134240.2992846632
 30
0.0
 11
234909.1193181672
 21
134240.2992846632
 31
0.0
  0
LINE
  5
1BD14
330
1BC6A
100
AcDbEntity
  8
0Wymiary-PL
 62
     1
370
    -2
100
AcDbLine
 10
234999.1193181671
 20
134240.2992846632
 30
0.0
 11
234969.1193181671
 21
134240.2992846632
 31
0.0
  0
INSERT
  5
1BD15
330
1BC6A
100
AcDbEntity
  8
0Wymiary-PL
 62
     1
370
    -2
100
AcDbBlockReference
  2
B-DIM
 10
234999.1193181671
 20
134240.2992846632
 30
0.0
 41
30.0
 42
30.0
 43
30.0
 50
180.0
  0
INSERT
  5
1BD16
330
1BC6A
100
AcDbEntity
  8
0Wymiary-PL
 62
     1
370
    -2
100
AcDbBlockReference
  2
B-DIM
 10
234969.1193181671
 20
134240.2992846632
 30
0.0
 41
30.0
 42
30.0
 43
30.0
  0
MTEXT
  5
1BD17
330
1BC6A
100
AcDbEntity
  8
0Wymiary-PL
 62
    10
100
AcDbMText
 10
234984.1193181671
 20
134320.2992846632
 30
0.0
 40
80.0
 41
0.0
 71
     5
 72
     1
  1
\A1;30
  7
ROMANS
 73
     1
 44
1.0
1001
ACAD
1000
MTEXTBEGIN
1070
    73
1070
     1
1070
    44
1040
1.0
1070
    74
1070
     0
1000
MTEXTEND
  0
POINT
  5
1BD18
330
1BC6A
100
AcDbEntity
  8
DEFPOINTS
 62
     0
100
AcDbPoint
 10
234999.1193181671
 20
135352.365331545
 30
0.0
  0
POINT
  5
1BD19
330
1BC6A
100
AcDbEntity
  8
DEFPOINTS
 62
     0
100
AcDbPoint
 10
234969.1193181671
 20
135352.365331545
 30
0.0
  0
POINT
  5
1BD1A
330
1BC6A
100
AcDbEntity
  8
DEFPOINTS
 62
     0
100
AcDbPoint
 10
234969.1193181671
 20
134240.2992846632
 30
0.0
  0
ENDBLK
  5
1BC6C
330
1BC6A
100
AcDbEntity
  8
0
100
AcDbBlockEnd
  0
BLOCK
  5
1BC77
330
1BC76
100
AcDbEntity
  8
0
100
AcDbBlockBegin
  2
*D116
 70
     1
 10
0.0
 20
0.0
 30
0.0
  3
*D116
  1

  0
LINE
  5
1BD1B
330
1BC76
100
AcDbEntity
  8
0Wymiary-PL
 62
     1
370
    -2
100
AcDbLine
 10
234939.1193181672
 20
134240.2992846632
 30
0.0
 11
234372.1193181671
 21
134240.2992846632
 31
0.0
  0
INSERT
  5
1BD1C
330
1BC76
100
AcDbEntity
  8
0Wymiary-PL
 62
     1
370
    -2
100
AcDbBlockReference
  2
B-DIM
 10
234969.1193181671
 20
134240.2992846632
 30
0.0
 41
30.0
 42
30.0
 43
30.0
  0
INSERT
  5
1BD1D
330
1BC76
100
AcDbEntity
  8
0Wymiary-PL
 62
     1
370
    -2
100
AcDbBlockReference
  2
B-DIM
 10
234342.1193181672
 20
134240.2992846632
 30
0.0
 41
30.0
 42
30.0
 43
30.0
 50
180.0
  0
MTEXT
  5
1BD1E
330
1BC76
100
AcDbEntity
  8
0Wymiary-PL
 62
    10
100
AcDbMText
 10
234655.6193181672
 20
134320.2992846632
 30
0.0
 40
80.0
 41
0.0
 71
     5
 72
     1
  1
\A1;627
  7
ROMANS
 73
     1
 44
1.0
1001
ACAD
1000
MTEXTBEGIN
1070
    73
1070
     1
1070
    44
1040
1.0
1070
    74
1070
     0
1000
MTEXTEND
  0
POINT
  5
1BD1F
330
1BC76
100
AcDbEntity
  8
DEFPOINTS
 62
     0
100
AcDbPoint
 10
234969.1193181671
 20
135352.365331545
 30
0.0
  0
POINT
  5
1BD20
330
1BC76
100
AcDbEntity
  8
DEFPOINTS
 62
     0
100
AcDbPoint
 10
234342.1193181672
 20
134732.3653315451
 30
0.0
  0
POINT
  5
1BD21
330
1BC76
100
AcDbEntity
  8
DEFPOINTS
 62
     0
100
AcDbPoint
 10
234342.1193181672
 20
134240.2992846632
 30
0.0
  0
ENDBLK
  5
1BC78
330
1BC76
100
AcDbEntity
  8
0
100
AcDbBlockEnd
  0
BLOCK
  5
1BC81
330
1BC80
100
AcDbEntity
  8
0
100
AcDbBlockBegin
  2
*D117
 70
     1
 10
0.0
 20
0.0
 30
0.0
  3
*D117
  1

  0
LINE
  5
1BD22
330
1BC80
100
AcDbEntity
  8
0Wymiary-PL
 62
     1
370
    -2
100
AcDbLine
 10
234312.1193181672
 20
134240.2992846632
 30
0.0
 11
233929.1193181671
 21
134240.2992846632
 31
0.0
  0
INSERT
  5
1BD23
330
1BC80
100
AcDbEntity
  8
0Wymiary-PL
 62
     1
370
    -2
100
AcDbBlockReference
  2
B-DIM
 10
234342.1193181672
 20
134240.2992846632
 30
0.0
 41
30.0
 42
30.0
 43
30.0
  0
INSERT
  5
1BD24
330
1BC80
100
AcDbEntity
  8
0Wymiary-PL
 62
     1
370
    -2
100
AcDbBlockReference
  2
B-DIM
 10
233899.1193181671
 20
134240.2992846632
 30
0.0
 41
30.0
 42
30.0
 43
30.0
 50
180.0
  0
MTEXT
  5
1BD25
330
1BC80
100
AcDbEntity
  8
0Wymiary-PL
 62
    10
100
AcDbMText
 10
234120.6193181671
 20
134320.2992846632
 30
0.0
 40
80.0
 41
0.0
 71
     5
 72
     1
  1
\A1;443
  7
ROMANS
 73
     1
 44
1.0
1001
ACAD
1000
MTEXTBEGIN
1070
    73
1070
     1
1070
    44
1040
1.0
1070
    74
1070
     0
1000
MTEXTEND
  0
POINT
  5
1BD26
330
1BC80
100
AcDbEntity
  8
DEFPOINTS
 62
     0
100
AcDbPoint
 10
234342.1193181672
 20
134732.3653315451
 30
0.0
  0
POINT
  5
1BD27
330
1BC80
100
AcDbEntity
  8
DEFPOINTS
 62
     0
100
AcDbPoint
 10
233899.1193181671
 20
134732.3653315451
 30
0.0
  0
POINT
  5
1BD28
330
1BC80
100
AcDbEntity
  8
DEFPOINTS
 62
     0
100
AcDbPoint
 10
233899.1193181671
 20
134240.2992846632
 30
0.0
  0
ENDBLK
  5
1BC82
330
1BC80
100
AcDbEntity
  8
0
100
AcDbBlockEnd
  0
BLOCK
  5
1BC8B
330
1BC8A
100
AcDbEntity
  8
0
100
AcDbBlockBegin
  2
*D118
 70
     1
 10
0.0
 20
0.0
 30
0.0
  3
*D118
  1

  0
LINE
  5
1BD29
330
1BC8A
100
AcDbEntity
  8
0Wymiary-PL
 62
     1
370
    -2
100
AcDbLine
 10
234969.1193181671
 20
134035.3901682448
 30
0.0
 11
233929.1193181671
 21
134035.3901682448
 31
0.0
  0
INSERT
  5
1BD2A
330
1BC8A
100
AcDbEntity
  8
0Wymiary-PL
 62
     1
370
    -2
100
AcDbBlockReference
  2
B-DIM
 10
234999.1193181671
 20
134035.3901682448
 30
0.0
 41
30.0
 42
30.0
 43
30.0
  0
INSERT
  5
1BD2B
330
1BC8A
100
AcDbEntity
  8
0Wymiary-PL
 62
     1
370
    -2
100
AcDbBlockReference
  2
B-DIM
 10
233899.1193181671
 20
134035.3901682448
 30
0.0
 41
30.0
 42
30.0
 43
30.0
 50
180.0
  0
MTEXT
  5
1BD2C
330
1BC8A
100
AcDbEntity
  8
0Wymiary-PL
 62
    10
100
AcDbMText
 10
234449.1193181671
 20
134115.3901682448
 30
0.0
 40
80.0
 41
0.0
 71
     5
 72
     1
  1
\A1;1100
  7
ROMANS
 73
     1
 44
1.0
1001
ACAD
1000
MTEXTBEGIN
1070
    73
1070
     1
1070
    44
1040
1.0
1070
    74
1070
     0
1000
MTEXTEND
  0
POINT
  5
1BD2D
330
1BC8A
100
AcDbEntity
  8
DEFPOINTS
 62
     0
100
AcDbPoint
 10
234999.1193181671
 20
135352.365331545
 30
0.0
  0
POINT
  5
1BD2E
330
1BC8A
100
AcDbEntity
  8
DEFPOINTS
 62
     0
100
AcDbPoint
 10
233899.1193181671
 20
134732.3653315451
 30
0.0
  0
POINT
  5
1BD2F
330
1BC8A
100
AcDbEntity
  8
DEFPOINTS
 62
     0
100
AcDbPoint
 10
233899.1193181671
 20
134035.3901682448
 30
0.0
  0
ENDBLK
  5
1BC8C
330
1BC8A
100
AcDbEntity
  8
0
100
AcDbBlockEnd
  0
BLOCK
  5
1BC95
330
1BC94
100
AcDbEntity
  8
0
100
AcDbBlockBegin
  2
*D119
 70
     1
 10
0.0
 20
0.0
 30
0.0
  3
*D119
  1

  0
LINE
  5
1BD30
330
1BC94
100
AcDbEntity
  8
0Wymiary-PL
 62
     1
370
    -2
100
AcDbLine
 10
235542.12932434
 20
136462.3653315451
 30
0.0
 11
235542.12932434
 21
136492.3653315451
 31
0.0
  0
LINE
  5
1BD31
330
1BC94
100
AcDbEntity
  8
0Wymiary-PL
 62
     1
370
    -2
100
AcDbLine
 10
235542.12932434
 20
136250.3653315451
 30
0.0
 11
235542.12932434
 21
136220.3653315451
 31
0.0
  0
LINE
  5
1BD32
330
1BC94
100
AcDbEntity
  8
0Wymiary-PL
 62
     1
370
    -2
100
AcDbLine
 10
235542.12932434
 20
136432.3653315451
 30
0.0
 11
235542.12932434
 21
136280.3653315451
 31
0.0
  0
INSERT
  5
1BD33
330
1BC94
100
AcDbEntity
  8
0Wymiary-PL
 62
     1
370
    -2
100
AcDbBlockReference
  2
B-DIM
 10
235542.12932434
 20
136432.3653315451
 30
0.0
 41
30.0
 42
30.0
 43
30.0
 50
270.0
  0
INSERT
  5
1BD34
330
1BC94
100
AcDbEntity
  8
0Wymiary-PL
 62
     1
370
    -2
100
AcDbBlockReference
  2
B-DIM
 10
235542.12932434
 20
136280.3653315451
 30
0.0
 41
30.0
 42
30.0
 43
30.0
 50
90.0
  0
MTEXT
  5
1BD35
330
1BC94
100
AcDbEntity
  8
0Wymiary-PL
 62
    10
100
AcDbMText
 10
235462.12932434
 20
136356.3653315451
 30
0.0
 40
80.0
 41
0.0
 71
     5
 72
     1
  1
\A1;152
  7
ROMANS
 11
0.0000000000000001
 21
1.0
 31
0.0
 73
     1
 44
1.0
1001
ACAD
1000
MTEXTBEGIN
1070
    73
1070
     1
1070
    44
1040
1.0
1070
    74
1070
     0
1000
MTEXTEND
  0
POINT
  5
1BD36
330
1BC94
100
AcDbEntity
  8
DEFPOINTS
 62
     0
100
AcDbPoint
 10
234470.6320528775
 20
136432.3653315451
 30
0.0
  0
POINT
  5
1BD37
330
1BC94
100
AcDbEntity
  8
DEFPOINTS
 62
     0
100
AcDbPoint
 10
234811.1193181672
 20
136280.3653315451
 30
0.0
  0
POINT
  5
1BD38
330
1BC94
100
AcDbEntity
  8
DEFPOINTS
 62
     0
100
AcDbPoint
 10
235542.12932434
 20
136280.3653315451
 30
0.0
  0
ENDBLK
  5
1BC96
330
1BC94
100
AcDbEntity
  8
0
100
AcDbBlockEnd
  0
BLOCK
  5
1BCA1
330
1BCA0
100
AcDbEntity
  8
0
100
AcDbBlockBegin
  2
*D120
 70
     1
 10
0.0
 20
0.0
 30
0.0
  3
*D120
  1

  0
LINE
  5
1BD39
330
1BCA0
100
AcDbEntity
  8
0Wymiary-PL
 62
     1
370
    -2
100
AcDbLine
 10
235542.12932434
 20
136250.3653315451
 30
0.0
 11
235542.12932434
 21
134982.3653315451
 31
0.0
  0
INSERT
  5
1BD3A
330
1BCA0
100
AcDbEntity
  8
0Wymiary-PL
 62
     1
370
    -2
100
AcDbBlockReference
  2
B-DIM
 10
235542.12932434
 20
136280.3653315451
 30
0.0
 41
30.0
 42
30.0
 43
30.0
 50
90.0
  0
INSERT
  5
1BD3B
330
1BCA0
100
AcDbEntity
  8
0Wymiary-PL
 62
     1
370
    -2
100
AcDbBlockReference
  2
B-DIM
 10
235542.12932434
 20
134952.3653315451
 30
0.0
 41
30.0
 42
30.0
 43
30.0
 50
270.0
  0
MTEXT
  5
1BD3C
330
1BCA0
100
AcDbEntity
  8
0Wymiary-PL
 62
    10
100
AcDbMText
 10
235462.12932434
 20
135616.3653315451
 30
0.0
 40
80.0
 41
0.0
 71
     5
 72
     1
  1
\A1;1328
  7
ROMANS
 11
0.0000000000000001
 21
1.0
 31
0.0
 73
     1
 44
1.0
1001
ACAD
1000
MTEXTBEGIN
1070
    73
1070
     1
1070
    44
1040
1.0
1070
    74
1070
     0
1000
MTEXTEND
  0
POINT
  5
1BD3D
330
1BCA0
100
AcDbEntity
  8
DEFPOINTS
 62
     0
100
AcDbPoint
 10
234811.1193181672
 20
136280.3653315451
 30
0.0
  0
POINT
  5
1BD3E
330
1BCA0
100
AcDbEntity
  8
DEFPOINTS
 62
     0
100
AcDbPoint
 10
234949.3835773583
 20
134952.3653315451
 30
0.0
  0
POINT
  5
1BD3F
330
1BCA0
100
AcDbEntity
  8
DEFPOINTS
 62
     0
100
AcDbPoint
 10
235542.12932434
 20
134952.3653315451
 30
0.0
  0
ENDBLK
  5
1BCA2
330
1BCA0
100
AcDbEntity
  8
0
100
AcDbBlockEnd
  0
BLOCK
  5
1BCAB
330
1BCAA
100
AcDbEntity
  8
0
100
AcDbBlockBegin
  2
*D121
 70
     1
 10
0.0
 20
0.0
 30
0.0
  3
*D121
  1

  0
LINE
  5
1BD40
330
1BCAA
100
AcDbEntity
  8
0Wymiary-PL
 62
     1
370
    -2
100
AcDbLine
 10
235542.12932434
 20
134922.3653315451
 30
0.0
 11
235542.12932434
 21
134762.3653315451
 31
0.0
  0
INSERT
  5
1BD41
330
1BCAA
100
AcDbEntity
  8
0Wymiary-PL
 62
     1
370
    -2
100
AcDbBlockReference
  2
B-DIM
 10
235542.12932434
 20
134952.3653315451
 30
0.0
 41
30.0
 42
30.0
 43
30.0
 50
90.0
  0
INSERT
  5
1BD42
330
1BCAA
100
AcDbEntity
  8
0Wymiary-PL
 62
     1
370
    -2
100
AcDbBlockReference
  2
B-DIM
 10
235542.12932434
 20
134732.3653315451
 30
0.0
 41
30.0
 42
30.0
 43
30.0
 50
270.0
  0
MTEXT
  5
1BD43
330
1BCAA
100
AcDbEntity
  8
0Wymiary-PL
 62
    10
100
AcDbMText
 10
235462.12932434
 20
134842.3653315451
 30
0.0
 40
80.0
 41
0.0
 71
     5
 72
     1
  1
\A1;220
  7
ROMANS
 11
0.0000000000000001
 21
1.0
 31
0.0
 73
     1
 44
1.0
1001
ACAD
1000
MTEXTBEGIN
1070
    73
1070
     1
1070
    44
1040
1.0
1070
    74
1070
     0
1000
MTEXTEND
  0
POINT
  5
1BD44
330
1BCAA
100
AcDbEntity
  8
DEFPOINTS
 62
     0
100
AcDbPoint
 10
234949.3835773583
 20
134952.3653315451
 30
0.0
  0
POINT
  5
1BD45
330
1BCAA
100
AcDbEntity
  8
DEFPOINTS
 62
     0
100
AcDbPoint
 10
234300.3002400497
 20
134732.3653315451
 30
0.0
  0
POINT
  5
1BD46
330
1BCAA
100
AcDbEntity
  8
DEFPOINTS
 62
     0
100
AcDbPoint
 10
235542.12932434
 20
134732.3653315451
 30
0.0
  0
ENDBLK
  5
1BCAC
330
1BCAA
100
AcDbEntity
  8
0
100
AcDbBlockEnd
  0
BLOCK
  5
1BCB5
330
1BCB4
100
AcDbEntity
  8
0
100
AcDbBlockBegin
  2
*D122
 70
     1
 10
0.0
 20
0.0
 30
0.0
  3
*D122
  1

  0
LINE
  5
1BD47
330
1BCB4
100
AcDbEntity
  8
0Wymiary-PL
 62
     1
370
    -2
100
AcDbLine
 10
235738.4762842493
 20
136402.3653315451
 30
0.0
 11
235738.4762842493
 21
134762.3653315451
 31
0.0
  0
INSERT
  5
1BD48
330
1BCB4
100
AcDbEntity
  8
0Wymiary-PL
 62
     1
370
    -2
100
AcDbBlockReference
  2
B-DIM
 10
235738.4762842493
 20
136432.3653315451
 30
0.0
 41
30.0
 42
30.0
 43
30.0
 50
90.0
  0
INSERT
  5
1BD49
330
1BCB4
100
AcDbEntity
  8
0Wymiary-PL
 62
     1
370
    -2
100
AcDbBlockReference
  2
B-DIM
 10
235738.4762842493
 20
134732.3653315451
 30
0.0
 41
30.0
 42
30.0
 43
30.0
 50
270.0
  0
MTEXT
  5
1BD4A
330
1BCB4
100
AcDbEntity
  8
0Wymiary-PL
 62
    10
100
AcDbMText
 10
235658.4762842493
 20
135582.3653315451
 30
0.0
 40
80.0
 41
0.0
 71
     5
 72
     1
  1
\A1;1700
  7
ROMANS
 11
0.0000000000000001
 21
1.0
 31
0.0
 73
     1
 44
1.0
1001
ACAD
1000
MTEXTBEGIN
1070
    73
1070
     1
1070
    44
1040
1.0
1070
    74
1070
     0
1000
MTEXTEND
  0
POINT
  5
1BD4B
330
1BCB4
100
AcDbEntity
  8
DEFPOINTS
 62
     0
100
AcDbPoint
 10
234434.1193181672
 20
136432.3653315451
 30
0.0
  0
POINT
  5
1BD4C
330
1BCB4
100
AcDbEntity
  8
DEFPOINTS
 62
     0
100
AcDbPoint
 10
234167.1724803338
 20
134732.3653315451
 30
0.0
  0
POINT
  5
1BD4D
330
1BCB4
100
AcDbEntity
  8
DEFPOINTS
 62
     0
100
AcDbPoint
 10
235738.4762842493
 20
134732.3653315451
 30
0.0
  0
ENDBLK
  5
1BCB6
330
1BCB4
100
AcDbEntity
  8
0
100
AcDbBlockEnd
  0
BLOCK
  5
1BCBF
330
1BCBE
100
AcDbEntity
  8
0
100
AcDbBlockBegin
  2
*D123
 70
     1
 10
0.0
 20
0.0
 30
0.0
  3
*D123
  1

  0
LINE
  5
1BD4E
330
1BCBE
100
AcDbEntity
  8
0Wymiary-PL
 62
     1
370
    -2
100
AcDbLine
 10
230331.7084329733
 20
134240.2992846632
 30
0.0
 11
230301.7084329733
 21
134240.2992846632
 31
0.0
  0
LINE
  5
1BD4F
330
1BCBE
100
AcDbEntity
  8
0Wymiary-PL
 62
     1
370
    -2
100
AcDbLine
 10
230421.7084329733
 20
134240.2992846632
 30
0.0
 11
230451.7084329733
 21
134240.2992846632
 31
0.0
  0
LINE
  5
1BD50
330
1BCBE
100
AcDbEntity
  8
0Wymiary-PL
 62
     1
370
    -2
100
AcDbLine
 10
230361.7084329733
 20
134240.2992846632
 30
0.0
 11
230391.7084329733
 21
134240.2992846632
 31
0.0
  0
INSERT
  5
1BD51
330
1BCBE
100
AcDbEntity
  8
0Wymiary-PL
 62
     1
370
    -2
100
AcDbBlockReference
  2
B-DIM
 10
230361.7084329733
 20
134240.2992846632
 30
0.0
 41
30.0
 42
30.0
 43
30.0
  0
INSERT
  5
1BD52
330
1BCBE
100
AcDbEntity
  8
0Wymiary-PL
 62
     1
370
    -2
100
AcDbBlockReference
  2
B-DIM
 10
230391.7084329733
 20
134240.2992846632
 30
0.0
 41
30.0
 42
30.0
 43
30.0
 50
180.0
  0
MTEXT
  5
1BD53
330
1BCBE
100
AcDbEntity
  8
0Wymiary-PL
 62
    10
100
AcDbMText
 10
230376.7084329733
 20
134320.2992846632
 30
0.0
 40
80.0
 41
0.0
 71
     5
 72
     1
  1
\A1;30
  7
ROMANS
 73
     1
 44
1.0
1001
ACAD
1000
MTEXTBEGIN
1070
    73
1070
     1
1070
    44
1040
1.0
1070
    74
1070
     0
1000
MTEXTEND
  0
POINT
  5
1BD54
330
1BCBE
100
AcDbEntity
  8
DEFPOINTS
 62
     0
100
AcDbPoint
 10
230361.7084329733
 20
135352.365331545
 30
0.0
  0
POINT
  5
1BD55
330
1BCBE
100
AcDbEntity
  8
DEFPOINTS
 62
     0
100
AcDbPoint
 10
230391.7084329733
 20
135352.365331545
 30
0.0
  0
POINT
  5
1BD56
330
1BCBE
100
AcDbEntity
  8
DEFPOINTS
 62
     0
100
AcDbPoint
 10
230391.7084329733
 20
134240.2992846632
 30
0.0
  0
ENDBLK
  5
1BCC0
330
1BCBE
100
AcDbEntity
  8
0
100
AcDbBlockEnd
  0
BLOCK
  5
1BCCB
330
1BCCA
100
AcDbEntity
  8
0
100
AcDbBlockBegin
  2
*D124
 70
     1
 10
0.0
 20
0.0
 30
0.0
  3
*D124
  1

  0
LINE
  5
1BD57
330
1BCCA
100
AcDbEntity
  8
0Wymiary-PL
 62
     1
370
    -2
100
AcDbLine
 10
230421.7084329733
 20
134240.2992846632
 30
0.0
 11
230988.7084329733
 21
134240.2992846632
 31
0.0
  0
INSERT
  5
1BD58
330
1BCCA
100
AcDbEntity
  8
0Wymiary-PL
 62
     1
370
    -2
100
AcDbBlockReference
  2
B-DIM
 10
230391.7084329733
 20
134240.2992846632
 30
0.0
 41
30.0
 42
30.0
 43
30.0
 50
180.0
  0
INSERT
  5
1BD59
330
1BCCA
100
AcDbEntity
  8
0Wymiary-PL
 62
     1
370
    -2
100
AcDbBlockReference
  2
B-DIM
 10
231018.7084329733
 20
134240.2992846632
 30
0.0
 41
30.0
 42
30.0
 43
30.0
  0
MTEXT
  5
1BD5A
330
1BCCA
100
AcDbEntity
  8
0Wymiary-PL
 62
    10
100
AcDbMText
 10
230705.2084329733
 20
134320.2992846632
 30
0.0
 40
80.0
 41
0.0
 71
     5
 72
     1
  1
\A1;627
  7
ROMANS
 73
     1
 44
1.0
1001
ACAD
1000
MTEXTBEGIN
1070
    73
1070
     1
1070
    44
1040
1.0
1070
    74
1070
     0
1000
MTEXTEND
  0
POINT
  5
1BD5B
330
1BCCA
100
AcDbEntity
  8
DEFPOINTS
 62
     0
100
AcDbPoint
 10
230391.7084329733
 20
135352.365331545
 30
0.0
  0
POINT
  5
1BD5C
330
1BCCA
100
AcDbEntity
  8
DEFPOINTS
 62
     0
100
AcDbPoint
 10
231018.7084329733
 20
134732.3653315451
 30
0.0
  0
POINT
  5
1BD5D
330
1BCCA
100
AcDbEntity
  8
DEFPOINTS
 62
     0
100
AcDbPoint
 10
231018.7084329733
 20
134240.2992846632
 30
0.0
  0
ENDBLK
  5
1BCCC
330
1BCCA
100
AcDbEntity
  8
0
100
AcDbBlockEnd
  0
BLOCK
  5
1BCD5
330
1BCD4
100
AcDbEntity
  8
0
100
AcDbBlockBegin
  2
*D125
 70
     1
 10
0.0
 20
0.0
 30
0.0
  3
*D125
  1

  0
LINE
  5
1BD5E
330
1BCD4
100
AcDbEntity
  8
0Wymiary-PL
 62
     1
370
    -2
100
AcDbLine
 10
231048.7084329733
 20
134240.2992846632
 30
0.0
 11
231431.7084329733
 21
134240.2992846632
 31
0.0
  0
INSERT
  5
1BD5F
330
1BCD4
100
AcDbEntity
  8
0Wymiary-PL
 62
     1
370
    -2
100
AcDbBlockReference
  2
B-DIM
 10
231018.7084329733
 20
134240.2992846632
 30
0.0
 41
30.0
 42
30.0
 43
30.0
 50
180.0
  0
INSERT
  5
1BD60
330
1BCD4
100
AcDbEntity
  8
0Wymiary-PL
 62
     1
370
    -2
100
AcDbBlockReference
  2
B-DIM
 10
231461.7084329733
 20
134240.2992846632
 30
0.0
 41
30.0
 42
30.0
 43
30.0
  0
MTEXT
  5
1BD61
330
1BCD4
100
AcDbEntity
  8
0Wymiary-PL
 62
    10
100
AcDbMText
 10
231240.2084329733
 20
134320.2992846632
 30
0.0
 40
80.0
 41
0.0
 71
     5
 72
     1
  1
\A1;443
  7
ROMANS
 73
     1
 44
1.0
1001
ACAD
1000
MTEXTBEGIN
1070
    73
1070
     1
1070
    44
1040
1.0
1070
    74
1070
     0
1000
MTEXTEND
  0
POINT
  5
1BD62
330
1BCD4
100
AcDbEntity
  8
DEFPOINTS
 62
     0
100
AcDbPoint
 10
231018.7084329733
 20
134732.3653315451
 30
0.0
  0
POINT
  5
1BD63
330
1BCD4
100
AcDbEntity
  8
DEFPOINTS
 62
     0
100
AcDbPoint
 10
231461.7084329733
 20
134732.3653315451
 30
0.0
  0
POINT
  5
1BD64
330
1BCD4
100
AcDbEntity
  8
DEFPOINTS
 62
     0
100
AcDbPoint
 10
231461.7084329733
 20
134240.2992846632
 30
0.0
  0
ENDBLK
  5
1BCD6
330
1BCD4
100
AcDbEntity
  8
0
100
AcDbBlockEnd
  0
BLOCK
  5
1BCDF
330
1BCDE
100
AcDbEntity
  8
0
100
AcDbBlockBegin
  2
*D126
 70
     1
 10
0.0
 20
0.0
 30
0.0
  3
*D126
  1

  0
LINE
  5
1BD65
330
1BCDE
100
AcDbEntity
  8
0Wymiary-PL
 62
     1
370
    -2
100
AcDbLine
 10
230391.7084329733
 20
134035.3901682448
 30
0.0
 11
231431.7084329733
 21
134035.3901682448
 31
0.0
  0
INSERT
  5
1BD66
330
1BCDE
100
AcDbEntity
  8
0Wymiary-PL
 62
     1
370
    -2
100
AcDbBlockReference
  2
B-DIM
 10
230361.7084329733
 20
134035.3901682448
 30
0.0
 41
30.0
 42
30.0
 43
30.0
 50
180.0
  0
INSERT
  5
1BD67
330
1BCDE
100
AcDbEntity
  8
0Wymiary-PL
 62
     1
370
    -2
100
AcDbBlockReference
  2
B-DIM
 10
231461.7084329733
 20
134035.3901682448
 30
0.0
 41
30.0
 42
30.0
 43
30.0
  0
MTEXT
  5
1BD68
330
1BCDE
100
AcDbEntity
  8
0Wymiary-PL
 62
    10
100
AcDbMText
 10
230911.7084329733
 20
134115.3901682448
 30
0.0
 40
80.0
 41
0.0
 71
     5
 72
     1
  1
\A1;1100
  7
ROMANS
 73
     1
 44
1.0
1001
ACAD
1000
MTEXTBEGIN
1070
    73
1070
     1
1070
    44
1040
1.0
1070
    74
1070
     0
1000
MTEXTEND
  0
POINT
  5
1BD69
330
1BCDE
100
AcDbEntity
  8
DEFPOINTS
 62
     0
100
AcDbPoint
 10
230361.7084329733
 20
135352.365331545
 30
0.0
  0
POINT
  5
1BD6A
330
1BCDE
100
AcDbEntity
  8
DEFPOINTS
 62
     0
100
AcDbPoint
 10
231461.7084329733
 20
134732.3653315451
 30
0.0
  0
POINT
  5
1BD6B
330
1BCDE
100
AcDbEntity
  8
DEFPOINTS
 62
     0
100
AcDbPoint
 10
231461.7084329733
 20
134035.3901682448
 30
0.0
  0
ENDBLK
  5
1BCE0
330
1BCDE
100
AcDbEntity
  8
0
100
AcDbBlockEnd
  0
BLOCK
  5
1BCE9
330
1BCE8
100
AcDbEntity
  8
0
100
AcDbBlockBegin
  2
*D127
 70
     1
 10
0.0
 20
0.0
 30
0.0
  3
*D127
  1

  0
LINE
  5
1BD6C
330
1BCE8
100
AcDbEntity
  8
0Wymiary-PL
 62
     1
370
    -2
100
AcDbLine
 10
229818.6984268003
 20
136462.3653315451
 30
0.0
 11
229818.6984268003
 21
136492.3653315451
 31
0.0
  0
LINE
  5
1BD6D
330
1BCE8
100
AcDbEntity
  8
0Wymiary-PL
 62
     1
370
    -2
100
AcDbLine
 10
229818.6984268003
 20
136250.3653315451
 30
0.0
 11
229818.6984268003
 21
136220.3653315451
 31
0.0
  0
LINE
  5
1BD6E
330
1BCE8
100
AcDbEntity
  8
0Wymiary-PL
 62
     1
370
    -2
100
AcDbLine
 10
229818.6984268003
 20
136432.3653315451
 30
0.0
 11
229818.6984268003
 21
136280.3653315451
 31
0.0
  0
INSERT
  5
1BD6F
330
1BCE8
100
AcDbEntity
  8
0Wymiary-PL
 62
     1
370
    -2
100
AcDbBlockReference
  2
B-DIM
 10
229818.6984268003
 20
136432.3653315451
 30
0.0
 41
30.0
 42
30.0
 43
30.0
 50
270.0
  0
INSERT
  5
1BD70
330
1BCE8
100
AcDbEntity
  8
0Wymiary-PL
 62
     1
370
    -2
100
AcDbBlockReference
  2
B-DIM
 10
229818.6984268003
 20
136280.3653315451
 30
0.0
 41
30.0
 42
30.0
 43
30.0
 50
90.0
  0
MTEXT
  5
1BD71
330
1BCE8
100
AcDbEntity
  8
0Wymiary-PL
 62
    10
100
AcDbMText
 10
229738.6984268003
 20
136356.3653315451
 30
0.0
 40
80.0
 41
0.0
 71
     5
 72
     1
  1
\A1;152
  7
ROMANS
 11
0.0000000000000001
 21
1.0
 31
0.0
 73
     1
 44
1.0
1001
ACAD
1000
MTEXTBEGIN
1070
    73
1070
     1
1070
    44
1040
1.0
1070
    74
1070
     0
1000
MTEXTEND
  0
POINT
  5
1BD72
330
1BCE8
100
AcDbEntity
  8
DEFPOINTS
 62
     0
100
AcDbPoint
 10
230890.1956982629
 20
136432.3653315451
 30
0.0
  0
POINT
  5
1BD73
330
1BCE8
100
AcDbEntity
  8
DEFPOINTS
 62
     0
100
AcDbPoint
 10
230549.7084329732
 20
136280.3653315451
 30
0.0
  0
POINT
  5
1BD74
330
1BCE8
100
AcDbEntity
  8
DEFPOINTS
 62
     0
100
AcDbPoint
 10
229818.6984268003
 20
136280.3653315451
 30
0.0
  0
ENDBLK
  5
1BCEA
330
1BCE8
100
AcDbEntity
  8
0
100
AcDbBlockEnd
  0
BLOCK
  5
1BCF5
330
1BCF4
100
AcDbEntity
  8
0
100
AcDbBlockBegin
  2
*D128
 70
     1
 10
0.0
 20
0.0
 30
0.0
  3
*D128
  1

  0
LINE
  5
1BD75
330
1BCF4
100
AcDbEntity
  8
0Wymiary-PL
 62
     1
370
    -2
100
AcDbLine
 10
229818.6984268003
 20
136250.3653315451
 30
0.0
 11
229818.6984268003
 21
134982.3653315451
 31
0.0
  0
INSERT
  5
1BD76
330
1BCF4
100
AcDbEntity
  8
0Wymiary-PL
 62
     1
370
    -2
100
AcDbBlockReference
  2
B-DIM
 10
229818.6984268003
 20
136280.3653315451
 30
0.0
 41
30.0
 42
30.0
 43
30.0
 50
90.0
  0
INSERT
  5
1BD77
330
1BCF4
100
AcDbEntity
  8
0Wymiary-PL
 62
     1
370
    -2
100
AcDbBlockReference
  2
B-DIM
 10
229818.6984268003
 20
134952.3653315451
 30
0.0
 41
30.0
 42
30.0
 43
30.0
 50
270.0
  0
MTEXT
  5
1BD78
330
1BCF4
100
AcDbEntity
  8
0Wymiary-PL
 62
    10
100
AcDbMText
 10
229738.6984268003
 20
135616.3653315451
 30
0.0
 40
80.0
 41
0.0
 71
     5
 72
     1
  1
\A1;1328
  7
ROMANS
 11
0.0000000000000001
 21
1.0
 31
0.0
 73
     1
 44
1.0
1001
ACAD
1000
MTEXTBEGIN
1070
    73
1070
     1
1070
    44
1040
1.0
1070
    74
1070
     0
1000
MTEXTEND
  0
POINT
  5
1BD79
330
1BCF4
100
AcDbEntity
  8
DEFPOINTS
 62
     0
100
AcDbPoint
 10
230549.7084329732
 20
136280.3653315451
 30
0.0
  0
POINT
  5
1BD7A
330
1BCF4
100
AcDbEntity
  8
DEFPOINTS
 62
     0
100
AcDbPoint
 10
230411.4441737822
 20
134952.3653315451
 30
0.0
  0
POINT
  5
1BD7B
330
1BCF4
100
AcDbEntity
  8
DEFPOINTS
 62
     0
100
AcDbPoint
 10
229818.6984268003
 20
134952.3653315451
 30
0.0
  0
ENDBLK
  5
1BCF6
330
1BCF4
100
AcDbEntity
  8
0
100
AcDbBlockEnd
  0
BLOCK
  5
1BCFF
330
1BCFE
100
AcDbEntity
  8
0
100
AcDbBlockBegin
  2
*D129
 70
     1
 10
0.0
 20
0.0
 30
0.0
  3
*D129
  1

  0
LINE
  5
1BD7C
330
1BCFE
100
AcDbEntity
  8
0Wymiary-PL
 62
     1
370
    -2
100
AcDbLine
 10
229818.6984268003
 20
134922.3653315451
 30
0.0
 11
229818.6984268003
 21
134762.3653315451
 31
0.0
  0
INSERT
  5
1BD7D
330
1BCFE
100
AcDbEntity
  8
0Wymiary-PL
 62
     1
370
    -2
100
AcDbBlockReference
  2
B-DIM
 10
229818.6984268003
 20
134952.3653315451
 30
0.0
 41
30.0
 42
30.0
 43
30.0
 50
90.0
  0
INSERT
  5
1BD7E
330
1BCFE
100
AcDbEntity
  8
0Wymiary-PL
 62
     1
370
    -2
100
AcDbBlockReference
  2
B-DIM
 10
229818.6984268003
 20
134732.3653315451
 30
0.0
 41
30.0
 42
30.0
 43
30.0
 50
270.0
  0
MTEXT
  5
1BD7F
330
1BCFE
100
AcDbEntity
  8
0Wymiary-PL
 62
    10
100
AcDbMText
 10
229738.6984268003
 20
134842.3653315451
 30
0.0
 40
80.0
 41
0.0
 71
     5
 72
     1
  1
\A1;220
  7
ROMANS
 11
0.0000000000000001
 21
1.0
 31
0.0
 73
     1
 44
1.0
1001
ACAD
1000
MTEXTBEGIN
1070
    73
1070
     1
1070
    44
1040
1.0
1070
    74
1070
     0
1000
MTEXTEND
  0
POINT
  5
1BD80
330
1BCFE
100
AcDbEntity
  8
DEFPOINTS
 62
     0
100
AcDbPoint
 10
230411.4441737822
 20
134952.3653315451
 30
0.0
  0
POINT
  5
1BD81
330
1BCFE
100
AcDbEntity
  8
DEFPOINTS
 62
     0
100
AcDbPoint
 10
231060.5275110907
 20
134732.3653315451
 30
0.0
  0
POINT
  5
1BD82
330
1BCFE
100
AcDbEntity
  8
DEFPOINTS
 62
     0
100
AcDbPoint
 10
229818.6984268003
 20
134732.3653315451
 30
0.0
  0
ENDBLK
  5
1BD00
330
1BCFE
100
AcDbEntity
  8
0
100
AcDbBlockEnd
  0
BLOCK
  5
1BD09
330
1BD08
100
AcDbEntity
  8
0
100
AcDbBlockBegin
  2
*D130
 70
     1
 10
0.0
 20
0.0
 30
0.0
  3
*D130
  1

  0
LINE
  5
1BD83
330
1BD08
100
AcDbEntity
  8
0Wymiary-PL
 62
     1
370
    -2
100
AcDbLine
 10
229622.3514668911
 20
136402.3653315451
 30
0.0
 11
229622.3514668911
 21
134762.3653315451
 31
0.0
  0
INSERT
  5
1BD84
330
1BD08
100
AcDbEntity
  8
0Wymiary-PL
 62
     1
370
    -2
100
AcDbBlockReference
  2
B-DIM
 10
229622.3514668911
 20
136432.3653315451
 30
0.0
 41
30.0
 42
30.0
 43
30.0
 50
90.0
  0
INSERT
  5
1BD85
330
1BD08
100
AcDbEntity
  8
0Wymiary-PL
 62
     1
370
    -2
100
AcDbBlockReference
  2
B-DIM
 10
229622.3514668911
 20
134732.3653315451
 30
0.0
 41
30.0
 42
30.0
 43
30.0
 50
270.0
  0
MTEXT
  5
1BD86
330
1BD08
100
AcDbEntity
  8
0Wymiary-PL
 62
    10
100
AcDbMText
 10
229542.3514668911
 20
135582.3653315451
 30
0.0
 40
80.0
 41
0.0
 71
     5
 72
     1
  1
\A1;1700
  7
ROMANS
 11
0.0000000000000001
 21
1.0
 31
0.0
 73
     1
 44
1.0
1001
ACAD
1000
MTEXTBEGIN
1070
    73
1070
     1
1070
    44
1040
1.0
1070
    74
1070
     0
1000
MTEXTEND
  0
POINT
  5
1BD87
330
1BD08
100
AcDbEntity
  8
DEFPOINTS
 62
     0
100
AcDbPoint
 10
230926.7084329732
 20
136432.3653315451
 30
0.0
  0
POINT
  5
1BD88
330
1BD08
100
AcDbEntity
  8
DEFPOINTS
 62
     0
100
AcDbPoint
 10
231193.6552708066
 20
134732.3653315451
 30
0.0
  0
POINT
  5
1BD89
330
1BD08
100
AcDbEntity
  8
DEFPOINTS
 62
     0
100
AcDbPoint
 10
229622.3514668911
 20
134732.3653315451
 30
0.0
  0
ENDBLK
  5
1BD0A
330
1BD08
100
AcDbEntity
  8
0
100
AcDbBlockEnd
  0
ENDSEC
  0
SECTION
  2
ENTITIES
  0
LWPOLYLINE
  5
13FC2
330
2
100
AcDbEntity
  8
A-Space-G
100
AcDbPolyline
 90
        3
 70
     1
 43
0.0
 10
229904.062856251
 20
137593.0297434314
 10
229840.6775722897
 20
137630.430980019
 10
229904.0634332897
 20
137630.430980019
  0
LWPOLYLINE
  5
14889
330
2
100
AcDbEntity
  8
A-Space-G
100
AcDbPolyline
 90
        3
 70
     1
 43
0.0
 10
229148.1499892277
 20
132184.2514169756
 10
229084.7647052663
 20
132221.6526535632
 10
229148.1505662663
 20
132221.6526535632
  0
TEXT
  5
1BBB4
330
2
100
AcDbEntity
  8
NAPISY
370
     5
100
AcDbText
 10
228927.0766319675
 20
128323.0717693023
 30
0.0
 40
100.0
  1
   O B R Y S   B U D Y N K U           S K A L A   1 : 5 0 0 
  7
AVA
100
AcDbText
  0
LINE
  5
1BBB5
330
2
100
AcDbEntity
  8
NAPISY
  6
HIDDEN
 62
     1
 48
8.0
370
     5
100
AcDbLine
 10
232680.4138755702
 20
132297.6012360215
 30
0.0
 11
232680.4138755702
 21
138473.119796426
 31
0.0
  0
TEXT
  5
1BBB6
330
2
100
AcDbEntity
  8
NAPISY
370
     5
100
AcDbText
 10
232620.8926985769
 20
132512.3704392803
 30
0.0
 40
100.0
  1
OŚ ODBICIA LUSTRZANEGO
 50
90.0
  7
AVA
100
AcDbText
  0
TEXT
  5
1BBB7
330
2
100
AcDbEntity
  8
NAPISY
370
     5
100
AcDbText
 10
229023.2896830854
 20
140786.4370301842
 30
0.0
 40
150.0
  1
MOŻNA WKLEIĆ DO PROJEKTU ZAGOSPODAROWANIA TERENU
  7
AVA
100
AcDbText
  0
TEXT
  5
1BBB8
330
2
100
AcDbEntity
  8
NAPISY
370
     5
100
AcDbText
 10
228946.9544124502
 20
141116.3055075469
 30
0.0
 40
150.0
  1
"DOM  W ANYŻKU 3"
  7
AVA
100
AcDbText
  0
LWPOLYLINE
  5
1BBB9
330
2
100
AcDbEntity
  8
RAMKI-A4
370
     5
100
AcDbPolyline
 90
        4
 70
     1
 43
0.0
 10
227467.7246852925
 20
127657.5156863998
 10
227467.7246852925
 20
141677.5156863997
 10
237667.7246852926
 20
141677.5156863997
 10
237667.7246852926
 20
127657.5156863998
  0
LWPOLYLINE
  5
1BBBA
330
2
100
AcDbEntity
  8
0Hatch
100
AcDbPolyline
 90
       16
 70
     1
 43
0.0
 10
234969.1193181671
 20
135352.3653315451
 10
234969.1193181671
 20
134952.3653315451
 10
234342.1193181671
 20
134952.3653315451
 10
234342.1193181671
 20
134732.3653315451
 10
233899.1193181671
 20
134732.3653315451
 10
233899.1193181671
 20
136280.3653315451
 10
234215.1193181671
 20
136280.3653315451
 10
234215.1193181671
 20
136313.3677154299
 10
234334.1169342824
 20
136432.3653315451
 10
234534.1217020521
 20
136432.3653315451
 10
234653.1193181673
 20
136313.3677154297
 10
234653.1193181673
 20
136280.3653315451
 10
234969.1193181671
 20
136280.3653315451
 10
234969.1193181671
 20
135880.3653315451
 10
234999.1193181672
 20
135880.3653315451
 10
234999.1193181671
 20
135352.365331545
  0
LWPOLYLINE
  5
1BBBB
330
2
100
AcDbEntity
  8
0Hatch
100
AcDbPolyline
 90
       16
 70
     1
 43
0.0
 10
234909.1193181671
 20
135412.3653315451
 10
234909.1193181672
 20
135012.3653315451
 10
234282.1193181672
 20
135012.3653315451
 10
234282.1193181672
 20
134792.3653315451
 10
233959.1193181671
 20
134792.3653315451
 10
233959.1193181671
 20
136220.3653315451
 10
234275.1193181671
 20
136220.3653315451
 10
234275.1193181671
 20
136288.5149016875
 10
234358.9697480247
 20
136372.3653315451
 10
234509.2688883096
 20
136372.3653315451
 10
234593.1193181673
 20
136288.5149016874
 10
234593.1193181673
 20
136220.3653315451
 10
234909.1193181671
 20
136220.3653315451
 10
234909.1193181672
 20
135820.3653315451
 10
234939.1193181672
 20
135820.3653315451
 10
234939.1193181671
 20
135412.3653315451
  0
LINE
  5
1BBBC
330
2
100
AcDbEntity
  8
0Hatch
100
AcDbLine
 10
234342.1193181672
 20
134732.3653315451
 30
0.0
 11
234342.1193181671
 21
134562.3653315451
 31
0.0
  0
LINE
  5
1BBBD
330
2
100
AcDbEntity
  8
0Hatch
100
AcDbLine
 10
234342.1193181671
 20
134562.3653315451
 30
0.0
 11
233899.1193181671
 21
134562.3653315451
 31
0.0
  0
LINE
  5
1BBBE
330
2
100
AcDbEntity
  8
0Hatch
100
AcDbLine
 10
233899.1193181671
 20
134562.3653315451
 30
0.0
 11
233899.1193181671
 21
134672.3653315451
 31
0.0
  0
LINE
  5
1BBBF
330
2
100
AcDbEntity
  8
0Hatch
100
AcDbLine
 10
234342.1193181671
 20
134672.3653315451
 30
0.0
 11
233899.1193181671
 21
134672.3653315451
 31
0.0
  0
LINE
  5
1BBC0
330
2
100
AcDbEntity
  8
0Hatch
100
AcDbLine
 10
233899.1193181671
 20
134672.3653315451
 30
0.0
 11
233899.1193181671
 21
134732.3653315451
 31
0.0
  0
LINE
  5
1BBC1
330
2
100
AcDbEntity
  8
0Hatch
100
AcDbLine
 10
234342.1193181671
 20
134702.3653315451
 30
0.0
 11
234647.6496633369
 21
134702.3653315451
 31
0.0
  0
LINE
  5
1BBC2
330
2
100
AcDbEntity
  8
0Hatch
100
AcDbLine
 10
234655.3325039934
 20
134672.3653315451
 30
0.0
 11
234342.1193181672
 21
134672.3653315451
 31
0.0
  0
LINE
  5
1BBC3
330
2
100
AcDbEntity
  8
0Hatch
100
AcDbLine
 10
234342.1193181671
 20
134732.3653315451
 30
0.0
 11
234643.6193181671
 21
134732.3653315451
 31
0.0
  0
LINE
  5
1BBC4
330
2
100
AcDbEntity
  8
0Hatch
100
AcDbLine
 10
234647.6554217306
 20
134702.3653315451
 30
0.0
 11
234342.1193181671
 21
134702.3653315451
 31
0.0
  0
LINE
  5
1BBC5
330
2
100
AcDbEntity
  8
0Hatch
100
AcDbLine
 10
234643.6193181671
 20
134952.3653315451
 30
0.0
 11
234643.6193181671
 21
134732.3653315451
 31
0.0
  0
LINE
  5
1BBC6
330
2
100
AcDbEntity
  8
0Hatch
100
AcDbLine
 10
234668.6193181671
 20
134952.3653315451
 30
0.0
 11
234668.6193181671
 21
134732.3653315451
 31
0.0
  0
LINE
  5
1BBC7
330
2
100
AcDbEntity
  8
0Hatch
100
AcDbLine
 10
234643.6193181671
 20
134732.3653315451
 30
0.0
 11
234342.1193181671
 21
134732.3653315451
 31
0.0
  0
ARC
  5
1BBC8
330
2
100
AcDbEntity
  8
0Hatch
100
AcDbCircle
 10
-234842.6772280677
 20
136345.8978771358
 30
0.0
 40
320.4420904108538
210
0.0
220
0.0
230
-1.0
100
AcDbArc
 50
16.95873123342631
 51
180.0010366429567
  0
ARC
  5
1BBC9
330
2
100
AcDbEntity
  8
0Hatch
100
AcDbCircle
 10
234842.6708177081
 20
136345.8920794348
 30
0.0
 40
350.448500718031
100
AcDbArc
 50
0.0
 51
165.7147088292241
  0
LINE
  5
1BBCA
330
2
100
AcDbEntity
  8
0Hatch
100
AcDbLine
 10
235193.1193184261
 20
136345.8920794348
 30
0.0
 11
235163.1193184261
 21
136345.8920794348
 31
0.0
  0
ARC
  5
1BBCB
330
2
100
AcDbEntity
  8
0Hatch
100
AcDbCircle
 10
-234842.6708178213
 20
136345.8920792943
 30
0.0
 40
290.4485008584775
210
0.0
220
0.0
230
-1.0
100
AcDbArc
 50
13.89884394373338
 51
180.0023944265344
  0
ARC
  5
1BBCC
330
2
100
AcDbEntity
  8
0Hatch
100
AcDbCircle
 10
234842.6708176007
 20
136345.8920795921
 30
0.0
 40
320.4485005722255
100
AcDbArc
 50
359.9974984382131
 51
164.3429575543556
  0
LINE
  5
1BBCD
330
2
100
AcDbEntity
  8
0Hatch
100
AcDbLine
 10
235163.1193178675
 20
136345.8780886552
 30
0.0
 11
235133.1193184261
 21
136345.8799412658
 31
0.0
  0
LINE
  5
1BBCE
330
2
100
AcDbEntity
  8
0Hatch
100
AcDbLine
 10
235133.1193184261
 20
136325.8799412658
 30
0.0
 11
235189.1193181671
 21
136325.8799412658
 31
0.0
  0
LINE
  5
1BBCF
330
2
100
AcDbEntity
  8
0Hatch
100
AcDbLine
 10
235189.1193181671
 20
136325.8799412658
 30
0.0
 11
235189.1193181671
 21
136042.4398358546
 31
0.0
  0
ARC
  5
1BBD0
330
2
100
AcDbEntity
  8
0Hatch
100
AcDbCircle
 10
-235249.1193181671
 20
135950.2443912816
 30
0.0
 40
109.9999999999996
210
0.0
220
0.0
230
-1.0
100
AcDbArc
 50
242.9643082114999
 51
56.9442688519869
  0
LINE
  5
1BBD1
330
2
100
AcDbEntity
  8
0Hatch
100
AcDbLine
 10
235299.1193181671
 20
135852.2648015703
 30
0.0
 11
235299.1193181671
 21
135616.3645788234
 31
0.0
  0
ARC
  5
1BBD2
330
2
100
AcDbEntity
  8
0Hatch
100
AcDbCircle
 10
234999.1192867886
 20
135616.3646465564
 30
0.0
 40
300.000031378575
100
AcDbArc
 50
270.0
 51
359.9999870633282
  0
ARC
  5
1BBD3
330
2
100
AcDbEntity
  8
0Hatch
100
AcDbCircle
 10
234842.6720659468
 20
136345.8978774546
 30
0.0
 40
290.4484881069464
100
AcDbArc
 50
359.9964617735772
 51
167.7291541787501
  0
LINE
  5
1BBD4
330
2
100
AcDbEntity
  8
0Hatch
100
AcDbLine
 10
235133.1205534998
 20
136345.8799411896
 30
0.0
 11
235133.1193184261
 21
136325.8799412658
 31
0.0
  0
LINE
  5
1BBD5
330
2
100
AcDbEntity
  8
0Hatch
100
AcDbLine
 10
235329.1193181671
 20
135874.7460469289
 30
0.0
 11
235329.1193181671
 21
135616.3645580919
 31
0.0
  0
ARC
  5
1BBD6
330
2
100
AcDbEntity
  8
0Hatch
100
AcDbCircle
 10
234999.1193730669
 20
135616.3645552866
 30
0.0
 40
329.9999451001728
100
AcDbArc
 50
269.9999904684176
 51
0.0000004869177826
  0
ARC
  5
1BBD7
330
2
100
AcDbEntity
  8
0Hatch
100
AcDbCircle
 10
-234999.1193231619
 20
135616.3646101831
 30
0.0
 40
299.9999950052491
210
0.0
220
0.0
230
-1.0
100
AcDbArc
 50
180.0
 51
270.000006946916
  0
LINE
  5
1BBD8
330
2
100
AcDbEntity
  8
0Hatch
100
AcDbLine
 10
235299.1193181671
 20
135616.3646101831
 30
0.0
 11
235299.1193181671
 21
135852.2648015703
 31
0.0
  0
ARC
  5
1BBD9
330
2
100
AcDbEntity
  8
0Hatch
100
AcDbCircle
 10
-235249.1193181671
 20
135950.2443912816
 30
0.0
 40
110.0000000000216
210
0.0
220
0.0
230
-1.0
100
AcDbArc
 50
223.3417582285135
 51
242.9643082114999
  0
ARC
  5
1BBDA
330
2
100
AcDbEntity
  8
0Hatch
100
AcDbCircle
 10
-235249.1193181672
 20
135950.2443912816
 30
0.0
 40
109.9999999999952
210
0.0
220
0.0
230
-1.0
100
AcDbArc
 50
180.1548662569661
 51
223.3417582285135
  0
LINE
  5
1BBDB
330
2
100
AcDbEntity
  8
0Hatch
100
AcDbLine
 10
235359.1189163478
 20
135949.9470697734
 30
0.0
 11
235359.1189163478
 21
135615.8267713397
 31
0.0
  0
ARC
  5
1BBDC
330
2
100
AcDbEntity
  8
0Hatch
100
AcDbCircle
 10
234999.1200036061
 20
135616.3639286671
 30
0.0
 40
359.9993134899857
100
AcDbArc
 50
269.9998859144965
 51
359.9145085615042
  0
ARC
  5
1BBDD
330
2
100
AcDbEntity
  8
0Hatch
100
AcDbCircle
 10
-234999.1193181671
 20
135616.3646101865
 30
0.0
 40
330.000000000011
210
0.0
220
0.0
230
-1.0
100
AcDbArc
 50
180.0
 51
269.9999904684176
  0
LINE
  5
1BBDE
330
2
100
AcDbEntity
  8
0Hatch
100
AcDbLine
 10
235329.1193181671
 20
135616.3646101865
 30
0.0
 11
235329.1193181671
 21
135874.7460469289
 31
0.0
  0
ARC
  5
1BBDF
330
2
100
AcDbEntity
  8
0Hatch
390
131E6
100
AcDbCircle
 10
235249.1193181671
 20
135950.2443912816
 30
0.0
 40
109.9999999999997
100
AcDbArc
 50
322.5593469883256
 51
111.323686264071
  0
LINE
  5
1BBE0
330
2
100
AcDbEntity
  8
0Hatch
390
131E6
100
AcDbLine
 10
235189.1193181671
 20
136042.4398358546
 30
0.0
 11
235189.1193181671
 21
136325.8799412658
 31
0.0
  0
LINE
  5
1BBE1
330
2
100
AcDbEntity
  8
0Hatch
390
131E6
100
AcDbLine
 10
235209.1193181671
 20
136345.8799412658
 30
0.0
 11
235209.1193181671
 21
136052.7138989412
 31
0.0
  0
LINE
  5
1BBE2
330
2
100
AcDbEntity
  8
0Hatch
390
131E6
100
AcDbLine
 10
235189.1193181671
 20
136325.8799412658
 30
0.0
 11
235133.1193184261
 21
136325.8799412658
 31
0.0
  0
LINE
  5
1BBE3
330
2
100
AcDbEntity
  8
0Hatch
390
131E6
100
AcDbLine
 10
235133.1193184261
 20
136345.8799412658
 30
0.0
 11
235209.1193181671
 21
136345.8799412658
 31
0.0
  0
HATCH
  5
1BBE4
330
2
100
AcDbEntity
  8
0Hatch
100
AcDbHatch
 10
0.0
 20
0.0
 30
0.0
210
0.0
220
0.0
230
1.0
  2
SOLID
 70
     1
 71
     1
 91
        1
 92
        7
 72
     1
 73
     1
 93
        2
 10
235056.1193181671
 20
135378.8653315451
 42
1.0
 10
235011.1193181671
 20
135378.8653315451
 42
1.0
 97
        1
330
1BBE5
 75
     0
 76
     1
 47
1.52009806335656
 98
        1
 10
235024.7157898625
 20
135387.8578276798
1001
ACAD
1010
0.0
1020
0.0
1030
0.0
  0
CIRCLE
  5
1BBE5
102
{ACAD_REACTORS
330
1BBE4
102
}
330
2
100
AcDbEntity
  8
0Widok
100
AcDbCircle
 10
-235033.6193181671
 20
135378.8653315451
 30
0.0
 40
22.5
210
0.0
220
0.0
230
-1.0
  0
HATCH
  5
1BBE6
330
2
100
AcDbEntity
  8
0Hatch
100
AcDbHatch
 10
0.0
 20
0.0
 30
0.0
210
0.0
220
0.0
230
1.0
  2
SOLID
 70
     1
 71
     1
 91
        1
 92
        7
 72
     1
 73
     1
 93
        2
 10
235056.1193181671
 20
135853.8653315451
 42
1.0
 10
235011.1193181671
 20
135853.8653315451
 42
1.0
 97
        1
330
1BBE7
 75
     0
 76
     1
 47
3.087126510956134
 98
        1
 10
235022.5590849593
 20
135863.8431518473
1001
ACAD
1010
0.0
1020
0.0
1030
0.0
  0
CIRCLE
  5
1BBE7
102
{ACAD_REACTORS
330
1BBE6
102
}
330
2
100
AcDbEntity
  8
0Widok
100
AcDbCircle
 10
235033.6193181671
 20
135853.8653315451
 30
0.0
 40
22.5
  0
LINE
  5
1BBE8
330
2
100
AcDbEntity
  8
0Widok
100
AcDbLine
 10
234380.2859848338
 20
135012.3653315451
 30
0.0
 11
234380.2859848338
 21
134952.3653315451
 31
0.0
  0
LINE
  5
1BBE9
330
2
100
AcDbEntity
  8
0Widok
100
AcDbLine
 10
234480.2859848338
 20
134952.3653315451
 30
0.0
 11
234480.2859848338
 21
135012.3653315451
 31
0.0
  0
LINE
  5
1BBEA
330
2
100
AcDbEntity
  8
0Widok
100
AcDbLine
 10
234000.6193181671
 20
134792.3653315451
 30
0.0
 11
234000.6193181671
 21
134732.3653315451
 31
0.0
  0
LINE
  5
1BBEB
330
2
100
AcDbEntity
  8
0Widok
100
AcDbLine
 10
234240.6193181671
 20
134732.3653315451
 30
0.0
 11
234240.6193181671
 21
134792.3653315451
 31
0.0
  0
CIRCLE
  5
1BBEC
330
2
100
AcDbEntity
  8
0Hatch
100
AcDbCircle
 10
235249.1193181671
 20
135950.2443912816
 30
0.0
 40
90.00000000000005
  0
ARC
  5
1BBED
330
2
100
AcDbEntity
  8
0Hatch
100
AcDbCircle
 10
234885.3382792211
 20
134748.410327336
 30
0.0
 40
242.2508989105256
100
AcDbArc
 50
183.7976495237545
 51
220.1972467446037
  0
ARC
  5
1BBEE
330
2
100
AcDbEntity
  8
0Hatch
100
AcDbCircle
 10
234885.3382792211
 20
134748.410327336
 30
0.0
 40
217.2508989105256
100
AcDbArc
 50
183.7976495237545
 51
220.1972467446037
  0
LINE
  5
1BBEF
330
2
100
AcDbEntity
  8
0Hatch
100
AcDbLine
 10
234700.3004911532
 20
134592.0565137916
 30
0.0
 11
234719.396167258
 21
134608.192038391
 31
0.0
  0
LINE
  5
1BBF0
330
2
100
AcDbEntity
  8
0Hatch
100
AcDbLine
 10
234699.037711991
 20
134636.6803827087
 30
-47.0
 11
234753.3919767876
 21
134651.0797203749
 31
-47.0
  0
LINE
  5
1BBF1
330
2
100
AcDbEntity
  8
0Hatch
100
AcDbLine
 10
233899.1193181671
 20
134562.3653315451
 30
0.0
 11
234120.6193181671
 21
134672.3653315451
 31
0.0
  0
LINE
  5
1BBF2
330
2
100
AcDbEntity
  8
0Hatch
100
AcDbLine
 10
234120.6193181671
 20
134672.3653315451
 30
0.0
 11
234342.1193181671
 21
134562.3653315451
 31
0.0
  0
LINE
  5
1BBF3
330
2
100
AcDbEntity
  8
0Hatch
100
AcDbLine
 10
234668.6193181671
 20
134734.0314247891
 30
-0.0027679821722905
 11
234708.2289441352
 21
134741.4410511724
 31
-2.0
  0
LINE
  5
1BBF4
330
2
100
AcDbEntity
  8
0Hatch
100
AcDbLine
 10
234708.2289441352
 20
134741.4410511724
 30
-2.0
 11
234745.7530730405
 21
134756.5196405598
 31
-2.0
  0
LINE
  5
1BBF5
330
2
100
AcDbEntity
  8
0Hatch
100
AcDbLine
 10
234745.7530730405
 20
134756.5196405598
 30
-2.0
 11
234779.9919918216
 21
134778.0398763561
 31
-2.0
  0
LINE
  5
1BBF6
330
2
100
AcDbEntity
  8
0Hatch
100
AcDbLine
 10
234779.9919918216
 20
134778.0398763561
 30
-2.0
 11
234809.8510214204
 21
134805.3137183927
 31
-2.0
  0
LINE
  5
1BBF7
330
2
100
AcDbEntity
  8
0Hatch
100
AcDbLine
 10
234809.8510214204
 20
134805.3137183927
 30
-2.0
 11
234834.375515617
 21
134837.4691734886
 31
-2.0
  0
LINE
  5
1BBF8
330
2
100
AcDbEntity
  8
0Hatch
100
AcDbLine
 10
234834.375515617
 20
134837.4691734886
 30
-2.0
 11
234852.7813827649
 21
134873.478174621
 31
-2.0
  0
LINE
  5
1BBF9
330
2
100
AcDbEntity
  8
0Hatch
100
AcDbLine
 10
234852.7813827649
 20
134873.478174621
 30
-2.0
 11
234864.4801545938
 21
134912.1894500549
 31
-2.0
  0
LINE
  5
1BBFA
330
2
100
AcDbEntity
  8
0Hatch
100
AcDbLine
 10
234864.4801545938
 20
134912.1894500549
 30
-2.0
 11
234963.3057130071
 21
134896.4374402757
 31
-47.0
  0
LINE
  5
1BBFB
330
2
100
AcDbEntity
  8
0Hatch
100
AcDbLine
 10
234852.7813827649
 20
134873.478174621
 30
-2.0
 11
234900.3770850734
 21
134857.9086465622
 31
-24.5
  0
LINE
  5
1BBFC
330
2
100
AcDbEntity
  8
0Hatch
100
AcDbLine
 10
234834.375515617
 20
134837.4691734886
 30
-2.0
 11
234923.5762274
 21
134791.6781385696
 31
-47.0
  0
LINE
  5
1BBFD
330
2
100
AcDbEntity
  8
0Hatch
100
AcDbLine
 10
234809.8510214204
 20
134805.3137183927
 30
-2.0
 11
234850.346053407
 21
134775.6369176505
 31
-24.5
  0
LINE
  5
1BBFE
330
2
100
AcDbEntity
  8
0Hatch
100
AcDbLine
 10
234779.9919918216
 20
134778.0398763561
 30
-2.0
 11
234850.4998943216
 21
134706.3075329732
 31
-47.0
  0
LINE
  5
1BBFF
330
2
100
AcDbEntity
  8
0Hatch
100
AcDbLine
 10
234745.7530730405
 20
134756.5196405598
 30
-2.0
 11
234775.1092574199
 21
134715.5600822304
 31
-24.5
  0
LINE
  5
1BC00
330
2
100
AcDbEntity
  8
0Hatch
100
AcDbLine
 10
234708.2289441352
 20
134741.4410511724
 30
-2.0
 11
234753.3919767876
 21
134651.0797203749
 31
-47.0
  0
LWPOLYLINE
  5
1BC01
330
2
100
AcDbEntity
  8
0Hatch
100
AcDbPolyline
 90
        9
 70
     0
 43
0.0
 38
-47.0
 10
234699.037711991
 20
134636.6803827087
 10
234753.3919767876
 20
134651.0797203749
 10
234804.4654417991
 20
134674.6005239011
 10
234850.4998943216
 20
134706.3075329732
 10
234890.8410853937
 20
134745.9601169083
 10
234923.5762274
 20
134791.6781385696
 10
234947.9727873819
 20
134842.3391185034
 10
234963.3057130071
 20
134896.4374402757
 10
234969.1193181671
 20
134952.3653315451
  0
HATCH
  5
1BC02
330
2
100
AcDbEntity
  8
0Hatch
100
AcDbHatch
 10
0.0
 20
0.0
 30
0.0
210
0.0
220
0.0
230
1.0
  2
SOLID
 70
     1
 71
     1
 91
        1
 92
        7
 72
     1
 73
     1
 93
        2
 10
234613.1226515004
 20
134758.8653315451
 42
1.0
 10
234578.1226515004
 20
134758.8653315451
 42
1.0
 97
        1
330
1BC03
 75
     0
 76
     1
 47
1.930174310868694
 98
        1
 10
234597.5688619261
 20
134756.8182789121
1001
ACAD
1010
0.0
1020
0.0
1030
0.0
  0
CIRCLE
  5
1BC03
102
{ACAD_REACTORS
330
1BC02
102
}
330
2
100
AcDbEntity
  8
0Widok
100
AcDbCircle
 10
234595.6226515005
 20
134758.8653315451
 30
0.0
 40
17.5
  0
LINE
  5
1BC04
330
2
100
AcDbEntity
  8
0Hatch
100
AcDbLine
 10
234864.4801545938
 20
134912.1894500549
 30
-2.0
 11
234870.7014765347
 21
134952.3653315451
 31
0.0
  0
LINE
  5
1BC05
330
2
100
AcDbEntity
  8
0Hatch
100
AcDbLine
 10
234999.1192959734
 20
135316.3646151778
 30
0.0
 11
234969.1193181671
 21
135316.3646151778
 31
0.0
  0
LINE
  5
1BC06
330
2
100
AcDbEntity
  8
0Hatch
100
AcDbLine
 10
234999.119318169
 20
135286.3646101865
 30
0.0
 11
234969.1193181671
 21
135286.3646101865
 31
0.0
  0
LINE
  5
1BC07
330
2
100
AcDbEntity
  8
0Hatch
100
AcDbLine
 10
234999.1192867871
 20
135256.3646151778
 30
0.0
 11
234969.1193181671
 21
135256.3646151778
 31
0.0
  0
DIMENSION
  5
1BC08
330
2
100
AcDbEntity
  8
0Wymiary-PL
100
AcDbDimension
  2
*D115
 10
234969.1193181671
 20
134240.2992846632
 30
0.0
 11
234984.1193181671
 21
134320.2992846632
 31
0.0
 70
    32
 71
     5
 42
29.9999999999709
  3
500
100
AcDbAlignedDimension
 13
234999.1193181671
 23
135352.365331545
 33
0.0
 14
234969.1193181671
 24
135352.365331545
 34
0.0
 50
180.0
100
AcDbRotatedDimension
  0
DIMENSION
  5
1BC09
330
2
100
AcDbEntity
  8
0Wymiary-PL
100
AcDbDimension
  2
*D116
 10
234342.1193181672
 20
134240.2992846632
 30
0.0
 11
234655.6193181672
 21
134320.2992846632
 31
0.0
 70
    32
 71
     5
 42
626.9999999999709
  3
500
100
AcDbAlignedDimension
 13
234969.1193181671
 23
135352.365331545
 33
0.0
 14
234342.1193181672
 24
134732.3653315451
 34
0.0
 50
180.0
100
AcDbRotatedDimension
  0
DIMENSION
  5
1BC0A
330
2
100
AcDbEntity
  8
0Wymiary-PL
100
AcDbDimension
  2
*D117
 10
233899.1193181671
 20
134240.2992846632
 30
0.0
 11
234120.6193181671
 21
134320.2992846632
 31
0.0
 70
    32
 71
     5
 42
443.0000000000582
  3
500
100
AcDbAlignedDimension
 13
234342.1193181672
 23
134732.3653315451
 33
0.0
 14
233899.1193181671
 24
134732.3653315451
 34
0.0
 50
180.0
100
AcDbRotatedDimension
  0
DIMENSION
  5
1BC0B
330
2
100
AcDbEntity
  8
0Wymiary-PL
100
AcDbDimension
  2
*D118
 10
233899.1193181671
 20
134035.3901682448
 30
0.0
 11
234449.1193181671
 21
134115.3901682448
 31
0.0
 70
    32
 71
     5
 42
1100.0
  3
500
100
AcDbAlignedDimension
 13
234999.1193181671
 23
135352.365331545
 33
0.0
 14
233899.1193181671
 24
134732.3653315451
 34
0.0
 50
180.0
100
AcDbRotatedDimension
  0
DIMENSION
  5
1BC0C
330
2
100
AcDbEntity
  8
0Wymiary-PL
100
AcDbDimension
  2
*D119
 10
235542.12932434
 20
136280.3653315451
 30
0.0
 11
235462.12932434
 21
136356.3653315451
 31
0.0
 70
    32
 71
     5
 42
152.0
  3
500
100
AcDbAlignedDimension
 13
234470.6320528775
 23
136432.3653315451
 33
0.0
 14
234811.1193181672
 24
136280.3653315451
 34
0.0
 50
90.0
100
AcDbRotatedDimension
  0
DIMENSION
  5
1BC0D
330
2
100
AcDbEntity
  8
0Wymiary-PL
100
AcDbDimension
  2
*D120
 10
235542.12932434
 20
134952.3653315451
 30
0.0
 11
235462.12932434
 21
135616.3653315451
 31
0.0
 70
    32
 71
     5
 42
1328.0
  3
500
100
AcDbAlignedDimension
 13
234811.1193181672
 23
136280.3653315451
 33
0.0
 14
234949.3835773583
 24
134952.3653315451
 34
0.0
 50
90.0
100
AcDbRotatedDimension
  0
DIMENSION
  5
1BC0E
330
2
100
AcDbEntity
  8
0Wymiary-PL
100
AcDbDimension
  2
*D121
 10
235542.12932434
 20
134732.3653315451
 30
0.0
 11
235462.12932434
 21
134842.3653315451
 31
0.0
 70
    32
 71
     5
 42
220.0
  3
500
100
AcDbAlignedDimension
 13
234949.3835773583
 23
134952.3653315451
 33
0.0
 14
234300.3002400497
 24
134732.3653315451
 34
0.0
 50
90.0
100
AcDbRotatedDimension
  0
DIMENSION
  5
1BC0F
330
2
100
AcDbEntity
  8
0Wymiary-PL
100
AcDbDimension
  2
*D122
 10
235738.4762842493
 20
134732.3653315451
 30
0.0
 11
235658.4762842493
 21
135582.3653315451
 31
0.0
 70
    32
 71
     5
 42
1700.0
  3
500
100
AcDbAlignedDimension
 13
234434.1193181672
 23
136432.3653315451
 33
0.0
 14
234167.1724803338
 24
134732.3653315451
 34
0.0
 50
90.0
100
AcDbRotatedDimension
  0
LWPOLYLINE
  5
1BC10
330
2
100
AcDbEntity
  8
0Hatch
100
AcDbPolyline
 90
       16
 70
     0
 43
60.0
 10
234480.2859848338
 20
134982.3653315451
 10
234939.1193181672
 20
134982.3653315451
 10
234939.1193181671
 20
135382.3653315451
 10
234969.1193181671
 20
135382.3653315451
 10
234969.1193181671
 20
135850.3653315451
 10
234939.1193181672
 20
135850.3653315451
 10
234939.1193181672
 20
136250.3653315451
 10
234623.1193181673
 20
136250.3653315447
 10
234623.1193181672
 20
136300.9413085586
 10
234521.6952951808
 20
136402.3653315451
 10
234346.5433411536
 20
136402.3653315451
 10
234245.1193181671
 20
136300.9413085587
 10
234245.1193181671
 20
136250.3653315451
 10
233929.1193181671
 20
136250.3653315451
 10
233929.1193181671
 20
134762.3653315451
 10
234000.6193181671
 20
134762.3653315451
  0
LWPOLYLINE
  5
1BC11
330
2
100
AcDbEntity
  8
0Hatch
100
AcDbPolyline
 90
        4
 70
     0
 43
60.0
 10
234240.6193181671
 20
134762.365331545
 10
234312.1193181671
 20
134762.365331545
 10
234312.1193181671
 20
134982.3653315451
 10
234380.2859848338
 20
134982.3653315451
  0
LWPOLYLINE
  5
1BC12
330
2
100
AcDbEntity
  8
0Hatch
100
AcDbPolyline
 90
       16
 70
     1
 43
0.0
 10
230391.7084329733
 20
135352.3653315451
 10
230391.7084329733
 20
134952.3653315451
 10
231018.7084329733
 20
134952.3653315451
 10
231018.7084329733
 20
134732.3653315451
 10
231461.7084329733
 20
134732.3653315451
 10
231461.7084329733
 20
136280.3653315451
 10
231145.7084329733
 20
136280.3653315451
 10
231145.7084329733
 20
136313.3677154299
 10
231026.7108168581
 20
136432.3653315451
 10
230826.7060490884
 20
136432.3653315451
 10
230707.7084329731
 20
136313.3677154297
 10
230707.7084329731
 20
136280.3653315451
 10
230391.7084329733
 20
136280.3653315451
 10
230391.7084329733
 20
135880.3653315451
 10
230361.7084329733
 20
135880.3653315451
 10
230361.7084329733
 20
135352.365331545
  0
LWPOLYLINE
  5
1BC13
330
2
100
AcDbEntity
  8
0Hatch
100
AcDbPolyline
 90
       16
 70
     1
 43
0.0
 10
230451.7084329733
 20
135412.3653315451
 10
230451.7084329733
 20
135012.3653315451
 10
231078.7084329733
 20
135012.3653315451
 10
231078.7084329733
 20
134792.3653315451
 10
231401.7084329733
 20
134792.3653315451
 10
231401.7084329733
 20
136220.3653315451
 10
231085.7084329734
 20
136220.3653315451
 10
231085.7084329733
 20
136288.5149016875
 10
231001.8580031157
 20
136372.3653315451
 10
230851.5588628308
 20
136372.3653315451
 10
230767.7084329732
 20
136288.5149016874
 10
230767.708432973
 20
136220.3653315451
 10
230451.7084329733
 20
136220.3653315451
 10
230451.7084329733
 20
135820.3653315451
 10
230421.7084329733
 20
135820.3653315451
 10
230421.7084329733
 20
135412.3653315451
  0
LINE
  5
1BC14
330
2
100
AcDbEntity
  8
0Hatch
100
AcDbLine
 10
231018.7084329733
 20
134732.3653315451
 30
0.0
 11
231018.7084329733
 21
134562.3653315451
 31
0.0
  0
LINE
  5
1BC15
330
2
100
AcDbEntity
  8
0Hatch
100
AcDbLine
 10
231018.7084329733
 20
134562.3653315451
 30
0.0
 11
231461.7084329733
 21
134562.3653315451
 31
0.0
  0
LINE
  5
1BC16
330
2
100
AcDbEntity
  8
0Hatch
100
AcDbLine
 10
231461.7084329733
 20
134562.3653315451
 30
0.0
 11
231461.7084329733
 21
134672.3653315451
 31
0.0
  0
LINE
  5
1BC17
330
2
100
AcDbEntity
  8
0Hatch
100
AcDbLine
 10
231018.7084329733
 20
134672.3653315451
 30
0.0
 11
231461.7084329733
 21
134672.3653315451
 31
0.0
  0
LINE
  5
1BC18
330
2
100
AcDbEntity
  8
0Hatch
100
AcDbLine
 10
231461.7084329733
 20
134672.3653315451
 30
0.0
 11
231461.7084329733
 21
134732.3653315451
 31
0.0
  0
LINE
  5
1BC19
330
2
100
AcDbEntity
  8
0Hatch
100
AcDbLine
 10
231018.7084329733
 20
134702.3653315451
 30
0.0
 11
230713.1780878036
 21
134702.3653315451
 31
0.0
  0
LINE
  5
1BC1A
330
2
100
AcDbEntity
  8
0Hatch
100
AcDbLine
 10
230705.495247147
 20
134672.3653315451
 30
0.0
 11
231018.7084329733
 21
134672.3653315451
 31
0.0
  0
LINE
  5
1BC1B
330
2
100
AcDbEntity
  8
0Hatch
100
AcDbLine
 10
231018.7084329733
 20
134732.3653315451
 30
0.0
 11
230717.2084329733
 21
134732.3653315451
 31
0.0
  0
LINE
  5
1BC1C
330
2
100
AcDbEntity
  8
0Hatch
100
AcDbLine
 10
230713.1723294098
 20
134702.3653315451
 30
0.0
 11
231018.7084329733
 21
134702.3653315451
 31
0.0
  0
LINE
  5
1BC1D
330
2
100
AcDbEntity
  8
0Hatch
100
AcDbLine
 10
230717.2084329733
 20
134952.3653315451
 30
0.0
 11
230717.2084329733
 21
134732.3653315451
 31
0.0
  0
LINE
  5
1BC1E
330
2
100
AcDbEntity
  8
0Hatch
100
AcDbLine
 10
230692.2084329733
 20
134952.3653315451
 30
0.0
 11
230692.2084329733
 21
134732.3653315451
 31
0.0
  0
LINE
  5
1BC1F
330
2
100
AcDbEntity
  8
0Hatch
100
AcDbLine
 10
230717.2084329733
 20
134732.3653315451
 30
0.0
 11
231018.7084329733
 21
134732.3653315451
 31
0.0
  0
ARC
  5
1BC20
330
2
100
AcDbEntity
  8
0Hatch
100
AcDbCircle
 10
-230518.1505230727
 20
136345.8978771358
 30
0.0
 40
320.4420904108538
210
0.0
220
0.0
230
-1.0
100
AcDbArc
 50
359.9989633570433
 51
163.0412687673712
  0
ARC
  5
1BC21
330
2
100
AcDbEntity
  8
0Hatch
100
AcDbCircle
 10
230518.1569334323
 20
136345.8920794348
 30
0.0
 40
350.448500718031
100
AcDbArc
 50
14.2852911707759
 51
180.0
  0
LINE
  5
1BC22
330
2
100
AcDbEntity
  8
0Hatch
100
AcDbLine
 10
230167.7084327143
 20
136345.8920794348
 30
0.0
 11
230197.7084327143
 21
136345.8920794348
 31
0.0
  0
ARC
  5
1BC23
330
2
100
AcDbEntity
  8
0Hatch
100
AcDbCircle
 10
-230518.1569333191
 20
136345.8920792943
 30
0.0
 40
290.4485008584775
210
0.0
220
0.0
230
-1.0
100
AcDbArc
 50
359.9976055734656
 51
166.1011560562666
  0
ARC
  5
1BC24
330
2
100
AcDbEntity
  8
0Hatch
100
AcDbCircle
 10
230518.1569335397
 20
136345.8920795921
 30
0.0
 40
320.4485005722255
100
AcDbArc
 50
15.65704244564433
 51
180.0025015617869
  0
LINE
  5
1BC25
330
2
100
AcDbEntity
  8
0Hatch
100
AcDbLine
 10
230197.7084332729
 20
136345.8780886552
 30
0.0
 11
230227.7084327143
 21
136345.8799412658
 31
0.0
  0
LINE
  5
1BC26
330
2
100
AcDbEntity
  8
0Hatch
100
AcDbLine
 10
230227.7084327143
 20
136325.8799412658
 30
0.0
 11
230171.7084329733
 21
136325.8799412658
 31
0.0
  0
LINE
  5
1BC27
330
2
100
AcDbEntity
  8
0Hatch
100
AcDbLine
 10
230171.7084329733
 20
136325.8799412658
 30
0.0
 11
230171.7084329733
 21
136042.4398358546
 31
0.0
  0
ARC
  5
1BC28
330
2
100
AcDbEntity
  8
0Hatch
100
AcDbCircle
 10
-230111.7084329733
 20
135950.2443912816
 30
0.0
 40
109.9999999999996
210
0.0
220
0.0
230
-1.0
100
AcDbArc
 50
123.0557311480131
 51
297.0356917885001
  0
LINE
  5
1BC29
330
2
100
AcDbEntity
  8
0Hatch
100
AcDbLine
 10
230061.7084329733
 20
135852.2648015703
 30
0.0
 11
230061.7084329733
 21
135616.3645788234
 31
0.0
  0
ARC
  5
1BC2A
330
2
100
AcDbEntity
  8
0Hatch
100
AcDbCircle
 10
230361.7084643519
 20
135616.3646465564
 30
0.0
 40
300.000031378575
100
AcDbArc
 50
180.0000129366717
 51
270.0
  0
ARC
  5
1BC2B
330
2
100
AcDbEntity
  8
0Hatch
100
AcDbCircle
 10
230518.1556851937
 20
136345.8978774546
 30
0.0
 40
290.4484881069464
100
AcDbArc
 50
12.27084582124983
 51
180.0035382264228
  0
LINE
  5
1BC2C
330
2
100
AcDbEntity
  8
0Hatch
100
AcDbLine
 10
230227.7071976406
 20
136345.8799411896
 30
0.0
 11
230227.7084327143
 21
136325.8799412658
 31
0.0
  0
LINE
  5
1BC2D
330
2
100
AcDbEntity
  8
0Hatch
100
AcDbLine
 10
230031.7084329734
 20
135874.7460469289
 30
0.0
 11
230031.7084329734
 21
135616.3645580919
 31
0.0
  0
ARC
  5
1BC2E
330
2
100
AcDbEntity
  8
0Hatch
100
AcDbCircle
 10
230361.7083780735
 20
135616.3645552866
 30
0.0
 40
329.9999451001728
100
AcDbArc
 50
179.9999995130822
 51
270.0000095315823
  0
ARC
  5
1BC2F
330
2
100
AcDbEntity
  8
0Hatch
100
AcDbCircle
 10
-230361.7084279785
 20
135616.3646101831
 30
0.0
 40
299.9999950052491
210
0.0
220
0.0
230
-1.0
100
AcDbArc
 50
269.999993053084
 51
0.0
  0
LINE
  5
1BC30
330
2
100
AcDbEntity
  8
0Hatch
100
AcDbLine
 10
230061.7084329733
 20
135616.3646101831
 30
0.0
 11
230061.7084329733
 21
135852.2648015703
 31
0.0
  0
ARC
  5
1BC31
330
2
100
AcDbEntity
  8
0Hatch
100
AcDbCircle
 10
-230111.7084329733
 20
135950.2443912816
 30
0.0
 40
110.0000000000216
210
0.0
220
0.0
230
-1.0
100
AcDbArc
 50
297.0356917885001
 51
316.6582417697356
  0
ARC
  5
1BC32
330
2
100
AcDbEntity
  8
0Hatch
100
AcDbCircle
 10
-230111.7084329733
 20
135950.2443912816
 30
0.0
 40
109.9999999999952
210
0.0
220
0.0
230
-1.0
100
AcDbArc
 50
316.6582417697356
 51
359.8451337430339
  0
LINE
  5
1BC33
330
2
100
AcDbEntity
  8
0Hatch
100
AcDbLine
 10
230001.7088347926
 20
135949.9470697734
 30
0.0
 11
230001.7088347926
 21
135615.8267713397
 31
0.0
  0
ARC
  5
1BC34
330
2
100
AcDbEntity
  8
0Hatch
100
AcDbCircle
 10
230361.7077475344
 20
135616.3639286671
 30
0.0
 40
359.9993134899857
100
AcDbArc
 50
180.0854914384958
 51
270.0001140855035
  0
ARC
  5
1BC35
330
2
100
AcDbEntity
  8
0Hatch
100
AcDbCircle
 10
-230361.7084329733
 20
135616.3646101865
 30
0.0
 40
330.000000000011
210
0.0
220
0.0
230
-1.0
100
AcDbArc
 50
270.0000095315823
 51
0.0
  0
LINE
  5
1BC36
330
2
100
AcDbEntity
  8
0Hatch
100
AcDbLine
 10
230031.7084329734
 20
135616.3646101865
 30
0.0
 11
230031.7084329734
 21
135874.7460469289
 31
0.0
  0
ARC
  5
1BC37
330
2
100
AcDbEntity
  8
0Hatch
390
131E6
100
AcDbCircle
 10
230111.7084329733
 20
135950.2443912816
 30
0.0
 40
109.9999999999997
100
AcDbArc
 50
68.67631373592899
 51
217.4406530116745
  0
LINE
  5
1BC38
330
2
100
AcDbEntity
  8
0Hatch
390
131E6
100
AcDbLine
 10
230171.7084329733
 20
136042.4398358546
 30
0.0
 11
230171.7084329733
 21
136325.8799412658
 31
0.0
  0
LINE
  5
1BC39
330
2
100
AcDbEntity
  8
0Hatch
390
131E6
100
AcDbLine
 10
230151.7084329733
 20
136345.8799412658
 30
0.0
 11
230151.7084329733
 21
136052.7138989412
 31
0.0
  0
LINE
  5
1BC3A
330
2
100
AcDbEntity
  8
0Hatch
390
131E6
100
AcDbLine
 10
230171.7084329733
 20
136325.8799412658
 30
0.0
 11
230227.7084327143
 21
136325.8799412658
 31
0.0
  0
LINE
  5
1BC3B
330
2
100
AcDbEntity
  8
0Hatch
390
131E6
100
AcDbLine
 10
230227.7084327143
 20
136345.8799412658
 30
0.0
 11
230151.7084329733
 21
136345.8799412658
 31
0.0
  0
HATCH
  5
1BC3C
330
2
100
AcDbEntity
  8
0Hatch
100
AcDbHatch
 10
0.0
 20
0.0
 30
0.0
210
0.0
220
0.0
230
1.0
  2
SOLID
 70
     1
 71
     1
 91
        1
 92
        7
 72
     1
 73
     1
 93
        2
 10
230304.7084329733
 20
135378.8653315451
 42
1.0
 10
230349.7084329733
 20
135378.8653315451
 42
1.0
 97
        1
330
1BC3D
 75
     0
 76
     1
 47
1.52009806335656
 98
        1
 10
230336.1119612779
 20
135387.8578276798
1001
ACAD
1010
0.0
1020
0.0
1030
0.0
  0
CIRCLE
  5
1BC3D
102
{ACAD_REACTORS
330
1BC3C
102
}
330
2
100
AcDbEntity
  8
0Widok
100
AcDbCircle
 10
-230327.2084329733
 20
135378.8653315451
 30
0.0
 40
22.5
210
0.0
220
0.0
230
-1.0
  0
HATCH
  5
1BC3E
330
2
100
AcDbEntity
  8
0Hatch
100
AcDbHatch
 10
0.0
 20
0.0
 30
0.0
210
0.0
220
0.0
230
1.0
  2
SOLID
 70
     1
 71
     1
 91
        1
 92
        7
 72
     1
 73
     1
 93
        2
 10
230349.7084329733
 20
135853.8653315451
 42
1.0
 10
230304.7084329733
 20
135853.8653315451
 42
1.0
 97
        1
330
1BC3F
 75
     0
 76
     1
 47
3.087126510956134
 98
        1
 10
230338.2686661811
 20
135863.8431518473
1001
ACAD
1010
0.0
1020
0.0
1030
0.0
  0
CIRCLE
  5
1BC3F
102
{ACAD_REACTORS
330
1BC3E
102
}
330
2
100
AcDbEntity
  8
0Widok
100
AcDbCircle
 10
230327.2084329733
 20
135853.8653315451
 30
0.0
 40
22.5
  0
LINE
  5
1BC40
330
2
100
AcDbEntity
  8
0Widok
100
AcDbLine
 10
230980.5417663066
 20
135012.3653315451
 30
0.0
 11
230980.5417663066
 21
134952.3653315451
 31
0.0
  0
LINE
  5
1BC41
330
2
100
AcDbEntity
  8
0Widok
100
AcDbLine
 10
230880.5417663066
 20
134952.3653315451
 30
0.0
 11
230880.5417663066
 21
135012.3653315451
 31
0.0
  0
LINE
  5
1BC42
330
2
100
AcDbEntity
  8
0Widok
100
AcDbLine
 10
231360.2084329733
 20
134792.3653315451
 30
0.0
 11
231360.2084329733
 21
134732.3653315451
 31
0.0
  0
LINE
  5
1BC43
330
2
100
AcDbEntity
  8
0Widok
100
AcDbLine
 10
231120.2084329733
 20
134732.3653315451
 30
0.0
 11
231120.2084329733
 21
134792.3653315451
 31
0.0
  0
CIRCLE
  5
1BC44
330
2
100
AcDbEntity
  8
0Hatch
100
AcDbCircle
 10
230111.7084329733
 20
135950.2443912816
 30
0.0
 40
90.00000000000005
  0
ARC
  5
1BC45
330
2
100
AcDbEntity
  8
0Hatch
100
AcDbCircle
 10
230475.4894719193
 20
134748.410327336
 30
0.0
 40
242.2508989105256
100
AcDbArc
 50
319.8027532553962
 51
356.2023504762456
  0
ARC
  5
1BC46
330
2
100
AcDbEntity
  8
0Hatch
100
AcDbCircle
 10
230475.4894719193
 20
134748.410327336
 30
0.0
 40
217.2508989105256
100
AcDbArc
 50
319.8027532553962
 51
356.2023504762456
  0
LINE
  5
1BC47
330
2
100
AcDbEntity
  8
0Hatch
100
AcDbLine
 10
230660.5272599872
 20
134592.0565137916
 30
0.0
 11
230641.4315838824
 21
134608.192038391
 31
0.0
  0
LINE
  5
1BC48
330
2
100
AcDbEntity
  8
0Hatch
100
AcDbLine
 10
230661.7900391494
 20
134636.6803827087
 30
-47.0
 11
230607.4357743529
 21
134651.0797203749
 31
-47.0
  0
LINE
  5
1BC49
330
2
100
AcDbEntity
  8
0Hatch
100
AcDbLine
 10
231461.7084329733
 20
134562.3653315451
 30
0.0
 11
231240.2084329733
 21
134672.3653315451
 31
0.0
  0
LINE
  5
1BC4A
330
2
100
AcDbEntity
  8
0Hatch
100
AcDbLine
 10
231240.2084329733
 20
134672.3653315451
 30
0.0
 11
231018.7084329733
 21
134562.3653315451
 31
0.0
  0
LINE
  5
1BC4B
330
2
100
AcDbEntity
  8
0Hatch
100
AcDbLine
 10
230692.2084329733
 20
134734.0314247891
 30
-0.0027679821722905
 11
230652.5988070053
 21
134741.4410511724
 31
-2.0
  0
LINE
  5
1BC4C
330
2
100
AcDbEntity
  8
0Hatch
100
AcDbLine
 10
230652.5988070053
 20
134741.4410511724
 30
-2.0
 11
230615.0746780999
 21
134756.5196405598
 31
-2.0
  0
LINE
  5
1BC4D
330
2
100
AcDbEntity
  8
0Hatch
100
AcDbLine
 10
230615.0746780999
 20
134756.5196405598
 30
-2.0
 11
230580.8357593189
 21
134778.0398763561
 31
-2.0
  0
LINE
  5
1BC4E
330
2
100
AcDbEntity
  8
0Hatch
100
AcDbLine
 10
230580.8357593189
 20
134778.0398763561
 30
-2.0
 11
230550.9767297201
 21
134805.3137183927
 31
-2.0
  0
LINE
  5
1BC4F
330
2
100
AcDbEntity
  8
0Hatch
100
AcDbLine
 10
230550.9767297201
 20
134805.3137183927
 30
-2.0
 11
230526.4522355235
 21
134837.4691734886
 31
-2.0
  0
LINE
  5
1BC50
330
2
100
AcDbEntity
  8
0Hatch
100
AcDbLine
 10
230526.4522355235
 20
134837.4691734886
 30
-2.0
 11
230508.0463683756
 21
134873.478174621
 31
-2.0
  0
LINE
  5
1BC51
330
2
100
AcDbEntity
  8
0Hatch
100
AcDbLine
 10
230508.0463683756
 20
134873.478174621
 30
-2.0
 11
230496.3475965466
 21
134912.1894500549
 31
-2.0
  0
LINE
  5
1BC52
330
2
100
AcDbEntity
  8
0Hatch
100
AcDbLine
 10
230496.3475965466
 20
134912.1894500549
 30
-2.0
 11
230397.5220381333
 21
134896.4374402757
 31
-47.0
  0
LINE
  5
1BC53
330
2
100
AcDbEntity
  8
0Hatch
100
AcDbLine
 10
230508.0463683756
 20
134873.478174621
 30
-2.0
 11
230460.4506660671
 21
134857.9086465622
 31
-24.5
  0
LINE
  5
1BC54
330
2
100
AcDbEntity
  8
0Hatch
100
AcDbLine
 10
230526.4522355235
 20
134837.4691734886
 30
-2.0
 11
230437.2515237404
 21
134791.6781385696
 31
-47.0
  0
LINE
  5
1BC55
330
2
100
AcDbEntity
  8
0Hatch
100
AcDbLine
 10
230550.9767297201
 20
134805.3137183927
 30
-2.0
 11
230510.4816977334
 21
134775.6369176505
 31
-24.5
  0
LINE
  5
1BC56
330
2
100
AcDbEntity
  8
0Hatch
100
AcDbLine
 10
230580.8357593189
 20
134778.0398763561
 30
-2.0
 11
230510.3278568189
 21
134706.3075329732
 31
-47.0
  0
LINE
  5
1BC57
330
2
100
AcDbEntity
  8
0Hatch
100
AcDbLine
 10
230615.0746780999
 20
134756.5196405598
 30
-2.0
 11
230585.7184937206
 21
134715.5600822304
 31
-24.5
  0
LINE
  5
1BC58
330
2
100
AcDbEntity
  8
0Hatch
100
AcDbLine
 10
230652.5988070053
 20
134741.4410511724
 30
-2.0
 11
230607.4357743529
 21
134651.0797203749
 31
-47.0
  0
LWPOLYLINE
  5
1BC59
330
2
100
AcDbEntity
  8
0Hatch
100
AcDbPolyline
 90
        9
 70
     0
 43
0.0
 38
-47.0
 10
230661.7900391494
 20
134636.6803827087
 10
230607.4357743529
 20
134651.0797203749
 10
230556.3623093413
 20
134674.6005239011
 10
230510.3278568189
 20
134706.3075329732
 10
230469.9866657467
 20
134745.9601169083
 10
230437.2515237404
 20
134791.6781385696
 10
230412.8549637586
 20
134842.3391185034
 10
230397.5220381333
 20
134896.4374402757
 10
230391.7084329733
 20
134952.3653315451
  0
HATCH
  5
1BC5A
330
2
100
AcDbEntity
  8
0Hatch
100
AcDbHatch
 10
0.0
 20
0.0
 30
0.0
210
0.0
220
0.0
230
1.0
  2
SOLID
 70
     1
 71
     1
 91
        1
 92
        7
 72
     1
 73
     1
 93
        2
 10
230782.70509964
 20
134758.8653315451
 42
1.0
 10
230747.70509964
 20
134758.8653315451
 42
1.0
 97
        1
330
1BC5B
 75
     0
 76
     1
 47
1.930174310868694
 98
        1
 10
230763.2588892143
 20
134756.8182789121
1001
ACAD
1010
0.0
1020
0.0
1030
0.0
  0
CIRCLE
  5
1BC5B
102
{ACAD_REACTORS
330
1BC5A
102
}
330
2
100
AcDbEntity
  8
0Widok
100
AcDbCircle
 10
230765.20509964
 20
134758.8653315451
 30
0.0
 40
17.5
  0
LINE
  5
1BC5C
330
2
100
AcDbEntity
  8
0Hatch
100
AcDbLine
 10
230496.3475965466
 20
134912.1894500549
 30
-2.0
 11
230490.1262746058
 21
134952.3653315451
 31
0.0
  0
LINE
  5
1BC5D
330
2
100
AcDbEntity
  8
0Hatch
100
AcDbLine
 10
230361.7084551671
 20
135316.3646151778
 30
0.0
 11
230391.7084329733
 21
135316.3646151778
 31
0.0
  0
LINE
  5
1BC5E
330
2
100
AcDbEntity
  8
0Hatch
100
AcDbLine
 10
230361.7084329715
 20
135286.3646101865
 30
0.0
 11
230391.7084329733
 21
135286.3646101865
 31
0.0
  0
LINE
  5
1BC5F
330
2
100
AcDbEntity
  8
0Hatch
100
AcDbLine
 10
230361.7084643533
 20
135256.3646151778
 30
0.0
 11
230391.7084329733
 21
135256.3646151778
 31
0.0
  0
DIMENSION
  5
1BC60
330
2
100
AcDbEntity
  8
0Wymiary-PL
100
AcDbDimension
  2
*D123
 10
230391.7084329733
 20
134240.2992846632
 30
0.0
 11
230376.7084329733
 21
134320.2992846632
 31
0.0
 70
    32
 71
     5
 42
29.9999999999709
  3
500
100
AcDbAlignedDimension
 13
230361.7084329733
 23
135352.365331545
 33
0.0
 14
230391.7084329733
 24
135352.365331545
 34
0.0
100
AcDbRotatedDimension
  0
DIMENSION
  5
1BC61
330
2
100
AcDbEntity
  8
0Wymiary-PL
100
AcDbDimension
  2
*D124
 10
231018.7084329733
 20
134240.2992846632
 30
0.0
 11
230705.2084329733
 21
134320.2992846632
 31
0.0
 70
    32
 71
     5
 42
626.9999999999709
  3
500
100
AcDbAlignedDimension
 13
230391.7084329733
 23
135352.365331545
 33
0.0
 14
231018.7084329733
 24
134732.3653315451
 34
0.0
100
AcDbRotatedDimension
  0
DIMENSION
  5
1BC62
330
2
100
AcDbEntity
  8
0Wymiary-PL
100
AcDbDimension
  2
*D125
 10
231461.7084329733
 20
134240.2992846632
 30
0.0
 11
231240.2084329733
 21
134320.2992846632
 31
0.0
 70
    32
 71
     5
 42
443.0000000000582
  3
500
100
AcDbAlignedDimension
 13
231018.7084329733
 23
134732.3653315451
 33
0.0
 14
231461.7084329733
 24
134732.3653315451
 34
0.0
100
AcDbRotatedDimension
  0
DIMENSION
  5
1BC63
330
2
100
AcDbEntity
  8
0Wymiary-PL
100
AcDbDimension
  2
*D126
 10
231461.7084329733
 20
134035.3901682448
 30
0.0
 11
230911.7084329733
 21
134115.3901682448
 31
0.0
 70
    32
 71
     5
 42
1100.0
  3
500
100
AcDbAlignedDimension
 13
230361.7084329733
 23
135352.365331545
 33
0.0
 14
231461.7084329733
 24
134732.3653315451
 34
0.0
100
AcDbRotatedDimension
  0
DIMENSION
  5
1BC64
330
2
100
AcDbEntity
  8
0Wymiary-PL
100
AcDbDimension
  2
*D127
 10
229818.6984268003
 20
136280.3653315451
 30
0.0
 11
229738.6984268003
 21
136356.3653315451
 31
0.0
 70
    32
 71
     5
 42
152.0
  3
500
100
AcDbAlignedDimension
 13
230890.1956982629
 23
136432.3653315451
 33
0.0
 14
230549.7084329732
 24
136280.3653315451
 34
0.0
 50
90.0
100
AcDbRotatedDimension
  0
DIMENSION
  5
1BC65
330
2
100
AcDbEntity
  8
0Wymiary-PL
100
AcDbDimension
  2
*D128
 10
229818.6984268003
 20
134952.3653315451
 30
0.0
 11
229738.6984268003
 21
135616.3653315451
 31
0.0
 70
    32
 71
     5
 42
1328.0
  3
500
100
AcDbAlignedDimension
 13
230549.7084329732
 23
136280.3653315451
 33
0.0
 14
230411.4441737822
 24
134952.3653315451
 34
0.0
 50
90.0
100
AcDbRotatedDimension
  0
DIMENSION
  5
1BC66
330
2
100
AcDbEntity
  8
0Wymiary-PL
100
AcDbDimension
  2
*D129
 10
229818.6984268003
 20
134732.3653315451
 30
0.0
 11
229738.6984268003
 21
134842.3653315451
 31
0.0
 70
    32
 71
     5
 42
220.0
  3
500
100
AcDbAlignedDimension
 13
230411.4441737822
 23
134952.3653315451
 33
0.0
 14
231060.5275110907
 24
134732.3653315451
 34
0.0
 50
90.0
100
AcDbRotatedDimension
  0
DIMENSION
  5
1BC67
330
2
100
AcDbEntity
  8
0Wymiary-PL
100
AcDbDimension
  2
*D130
 10
229622.3514668911
 20
134732.3653315451
 30
0.0
 11
229542.3514668911
 21
135582.3653315451
 31
0.0
 70
    32
 71
     5
 42
1700.0
  3
500
100
AcDbAlignedDimension
 13
230926.7084329732
 23
136432.3653315451
 33
0.0
 14
231193.6552708066
 24
134732.3653315451
 34
0.0
 50
90.0
100
AcDbRotatedDimension
  0
LWPOLYLINE
  5
1BC68
330
2
100
AcDbEntity
  8
0Hatch
100
AcDbPolyline
 90
       16
 70
     0
 43
60.0
 10
230880.5417663066
 20
134982.3653315451
 10
230421.7084329732
 20
134982.3653315451
 10
230421.7084329733
 20
135382.3653315451
 10
230391.7084329733
 20
135382.3653315451
 10
230391.7084329733
 20
135850.3653315451
 10
230421.7084329732
 20
135850.3653315451
 10
230421.7084329732
 20
136250.3653315451
 10
230737.7084329731
 20
136250.3653315447
 10
230737.7084329732
 20
136300.9413085586
 10
230839.1324559596
 20
136402.3653315451
 10
231014.2844099869
 20
136402.3653315451
 10
231115.7084329733
 20
136300.9413085587
 10
231115.7084329733
 20
136250.3653315451
 10
231431.7084329733
 20
136250.3653315451
 10
231431.7084329733
 20
134762.3653315451
 10
231360.2084329733
 20
134762.3653315451
  0
LWPOLYLINE
  5
1BC69
330
2
100
AcDbEntity
  8
0Hatch
100
AcDbPolyline
 90
        4
 70
     0
 43
60.0
 10
231120.2084329733
 20
134762.365331545
 10
231048.7084329733
 20
134762.365331545
 10
231048.7084329733
 20
134982.3653315451
 10
230980.5417663066
 20
134982.3653315451
  0
ENDSEC
  0
SECTION
  2
OBJECTS
  0
DICTIONARY
  5
7
330
0
100
AcDbDictionary
281
     1
  3
ACAD_COLOR
350
31
  3
ACAD_GROUP
350
2D
  3
ACAD_LAYOUT
350
B
  3
ACAD_MATERIAL
350
30
  3
ACAD_MLEADERSTYLE
350
16745
  3
ACAD_MLINESTYLE
350
2E
  3
ACAD_PLOTSETTINGS
350
2F
  3
ACAD_PLOTSTYLENAME
350
6
  3
ACAD_SCALELIST
350
16723
  3
ACAD_TABLESTYLE
350
DF2
  3
ACAD_VISUALSTYLE
350
172D
  3
AcAec
350
8309
  3
ACDB_RECOMPOSE_DATA
350
1722B
  3
AcDbVariableDictionary
350
E04
  3
AEC_2D_SECTION_STYLES
350
6852
  3
AEC_CLASSIFICATION_SYSTEM_DEFS
350
3C3
  3
AEC_CLEANUP_GROUP_DEFS
350
6863
  3
AEC_CURTAIN_WALL_LAYOUT_STYLES
350
6864
  3
AEC_CURTAIN_WALL_UNIT_STYLES
350
6865
  3
AEC_DIM_STYLES
350
6871
  3
AEC_DISP_REP_CONFIGURATIONS
350
69A3
  3
AEC_DISP_REP_SETS
350
6999
  3
AEC_DISP_REPS
350
6873
  3
AEC_DISPLAY_PROPS_DEFAULTS
350
6875
  3
AEC_DISPLAYTHEME_STYLES
350
6870
  3
AEC_DOOR_STYLES
350
685B
  3
AEC_ENDCAP_STYLES
350
685C
  3
AEC_LAYERKEY_STYLES
350
685A
  3
AEC_LIST_DEFINITIONS
350
6855
  3
AEC_MASKBLOCK_DEFS
350
684E
  3
AEC_MASS_ELEM_STYLES
350
6854
  3
AEC_MATERIAL_DEFS
350
6853
  3
AEC_MVBLOCK_DEFS
350
684F
  3
AEC_OPENING_ENDCAP_STYLES
350
686C
  3
AEC_POLYGON_STYLES
350
6851
  3
AEC_PROFILE_DEFS
350
6850
  3
AEC_PROPERTY_FORMAT_DEFS
350
6856
  3
AEC_PROPERTY_SET_DEFS
350
3C4
  3
AEC_RAILING_STYLES
350
6867
  3
AEC_ROOFSLAB_STYLES
350
6868
  3
AEC_ROOFSLABEDGE_STYLES
350
6869
  3
AEC_SCHEDULE_TABLE_STYLES
350
6857
  3
AEC_SLAB_STYLES
350
686A
  3
AEC_SLABEDGE_STYLES
350
686B
  3
AEC_SPACE_MODIFIERS
350
686D
  3
AEC_SPACE_STYLES
350
685D
  3
AEC_STAIR_STYLES
350
685E
  3
AEC_STAIR_WINDER_STYLES
350
685F
  3
AEC_STRUCTURALMEMBER_STYLES
350
6858
  3
AEC_VARS
350
687A
  3
AEC_WALL_STYLES
350
6861
  3
AEC_WALLMOD_STYLES
350
6860
  3
AEC_WINDOW_ASSEMBLY_STYLES
350
6866
  3
AEC_WINDOW_STYLES
350
6862
  3
AEC_ZONE_DEFS
350
686F
  3
AEC_ZONE_STYLES
350
686E
  3
AECS_MEMBER_NODE_SHAPE
350
6859
  3
ASE_INDEX_DICTIONARY
350
1B520
  3
BNS_VARIABLES
350
41C3
  3
CONLABELDictionary
350
1AD71
  3
CONLDEFDictionary
350
1AD60
  3
DWGPROPS
350
1BD98
  0
DICTIONARY
  5
12
330
11
100
AcDbDictionary
280
     1
281
     1
  3
ACAD_LAYERFILTERS
360
8311
  3
ACAD_LAYERSTATES
360
13
  3
ACLYDICTIONARY
360
8310
  0
DICTIONARY
  5
1674F
330
4
100
AcDbDictionary
280
     1
281
     1
  3
ADSK_XREC_LAYER_RECONCILED
360
16750
  0
DICTIONARY
  5
16751
330
15E
100
AcDbDictionary
280
     1
281
     1
  3
ADSK_XREC_LAYER_RECONCILED
360
16752
  0
DICTIONARY
  5
16755
330
143
100
AcDbDictionary
280
     1
281
     1
  3
ADSK_XREC_LAYER_RECONCILED
360
16756
  0
DICTIONARY
  5
16759
330
202C
100
AcDbDictionary
280
     1
281
     1
  3
ADSK_XREC_LAYER_RECONCILED
360
1675A
  0
DICTIONARY
  5
1675B
330
2081
100
AcDbDictionary
280
     1
281
     1
  3
ADSK_XREC_LAYER_RECONCILED
360
1675C
  0
DICTIONARY
  5
16785
330
139C3
100
AcDbDictionary
280
     1
281
     1
  3
ADSK_XREC_LAYER_RECONCILED
360
16786
  0
DICTIONARY
  5
1678B
330
139C6
100
AcDbDictionary
280
     1
281
     1
  3
ADSK_XREC_LAYER_RECONCILED
360
1678C
  0
DICTIONARY
  5
1FEF
330
2
100
AcDbDictionary
280
     1
281
     1
  3
ACAD_SORTENTS
360
1FF0
  0
DICTIONARY
  5
24
330
23
100
AcDbDictionary
280
     1
281
     1
  3
ACAD_SORTENTS
360
117C
  0
DICTIONARY
  5
31
102
{ACAD_REACTORS
330
7
102
}
330
7
100
AcDbDictionary
281
     1
  0
DICTIONARY
  5
2D
102
{ACAD_REACTORS
330
7
102
}
330
7
100
AcDbDictionary
281
     1
  0
DICTIONARY
  5
B
102
{ACAD_REACTORS
330
7
102
}
330
7
100
AcDbDictionary
281
     1
  3
Layout1
350
10
  3
Model
350
A
  0
DICTIONARY
  5
30
102
{ACAD_REACTORS
330
7
102
}
330
7
100
AcDbDictionary
281
     1
  3
ByBlock
350
172B
  3
ByLayer
350
172A
  3
General.Chip
350
139CC
  3
Global
350
172C
  0
DICTIONARY
  5
16745
102
{ACAD_REACTORS
330
7
102
}
330
7
100
AcDbDictionary
281
     1
  3
Standard
350
16746
  0
DICTIONARY
  5
2E
102
{ACAD_REACTORS
330
7
102
}
330
7
100
AcDbDictionary
281
     1
  3
Standard
350
33
  0
DICTIONARY
  5
2F
102
{ACAD_REACTORS
330
7
102
}
330
7
100
AcDbDictionary
281
     1
  0
ACDBDICTIONARYWDFLT
  5
6
102
{ACAD_REACTORS
330
7
102
}
330
7
100
AcDbDictionary
281
     1
  3
Extra Wide
350
139C9
  3
Medium
350
131E6
  3
Normal
350
5
  3
Thin Screened
350
139CA
  3
Wide
350
139CB
100
AcDbDictionaryWithDefault
340
5
  0
DICTIONARY
  5
16723
102
{ACAD_REACTORS
330
7
102
}
330
7
100
AcDbDictionary
281
     1
  3
*A1
350
167F9
  3
*A10
350
167FD
  3
*A11
350
167FF
  3
*A12
350
16801
  3
*A13
350
16802
  3
*A14
350
16800
  3
*A15
350
16803
  3
*A16
350
16806
  3
*A17
350
16804
  3
*A18
350
16805
  3
*A19
350
16807
  3
*A2
350
16809
  3
*A20
350
1680A
  3
*A21
350
16808
  3
*A3
350
1680B
  3
*A4
350
1680D
  3
*A43
350
1BAE3
  3
*A44
350
1BAE4
  3
*A45
350
1BAE5
  3
*A46
350
1BAE6
  3
*A47
350
1BAE7
  3
*A48
350
1BAE8
  3
*A49
350
1BAE9
  3
*A5
350
167FA
  3
*A50
350
1BAEA
  3
*A51
350
1BAEB
  3
*A52
350
1BAEC
  3
*A53
350
1BAED
  3
*A54
350
1BAEE
  3
*A55
350
1BAEF
  3
*A56
350
1BAF0
  3
*A57
350
1BAF1
  3
*A58
350
1BAF2
  3
*A59
350
1BAF3
  3
*A6
350
1680C
  3
*A60
350
1BAF4
  3
*A61
350
1BAF5
  3
*A62
350
1BAF6
  3
*A63
350
1BAF7
  3
*A7
350
167FB
  3
*A8
350
167FE
  3
*A9
350
167FC
  3
A0
350
16724
  3
A1
350
16725
  3
A2
350
16726
  3
A3
350
16727
  3
A4
350
16728
  3
A5
350
16729
  3
A6
350
1672A
  3
A7
350
1672B
  3
A8
350
1672C
  3
A9
350
1672D
  3
B0
350
1672E
  3
B1
350
1672F
  3
B2
350
16730
  3
B3
350
16731
  3
B4
350
16732
  3
B5
350
16733
  3
B6
350
16734
  3
B7
350
16735
  3
B8
350
16736
  3
B9
350
16737
  3
C0
350
16738
  3
C1
350
16739
  3
C2
350
1673A
  3
C3
350
1673B
  3
C4
350
1673C
  3
C5
350
1673D
  3
C6
350
1673E
  3
C7
350
1673F
  3
C8
350
16740
  3
C9
350
16741
  3
D0
350
16742
  3
D1
350
16743
  3
D2
350
16744
  0
DICTIONARY
  5
DF2
102
{ACAD_REACTORS
330
7
102
}
330
7
100
AcDbDictionary
281
     1
  3
Standard
350
DF3
  0
DICTIONARY
  5
172D
102
{ACAD_REACTORS
330
7
102
}
330
7
100
AcDbDictionary
281
     1
  3
2dWireframe
350
1733
  3
3D Hidden
350
12DA2
  3
3dWireframe
350
12DA1
  3
Basic
350
1732
  3
Brighten
350
1739
  3
ColorChange
350
173D
  3
Conceptual
350
12DA3
  3
Dim
350
1738
  3
Facepattern
350
173C
  3
Flat
350
172E
  3
FlatWithEdges
350
172F
  3
Gouraud
350
1730
  3
GouraudWithEdges
350
1731
  3
Linepattern
350
173B
  3
Phong
350
1B53C
  3
PhongWithEdges
350
1B53D
  3
Realistic
350
12DA4
  3
Thicken
350
173A
  0
DICTIONARY
  5
8309
102
{ACAD_REACTORS
330
7
102
}
330
7
100
AcDbDictionary
281
     1
  3
AcAecLayerManager
350
830A
  0
XRECORD
  5
1722B
102
{ACAD_REACTORS
330
7
102
}
330
7
100
AcDbXrecord
280
     1
 90
        1
330
DF3
  0
DICTIONARY
  5
E04
102
{ACAD_REACTORS
330
7
102
}
330
7
100
AcDbDictionary
281
     1
  3
CANNOSCALE
350
1722E
  3
CMLEADERSTYLE
350
1722C
  3
CTABLESTYLE
350
E05
  3
DIMASSOC
350
1BD96
  3
HIDETEXT
350
1BD95
  3
INDEXCTL
350
1BD94
  3
LIGHTINGUNITS
350
1722F
  3
MSLTSCALE
350
1722D
  3
SORTENTS
350
1BD93
  0
DICTIONARY
  5
6852
102
{ACAD_REACTORS
330
7
102
}
330
7
100
AcDbDictionary
281
     1
  0
DICTIONARY
  5
3C3
102
{ACAD_REACTORS
330
7
102
}
330
7
100
AcDbDictionary
281
     1
  0
DICTIONARY
  5
6863
102
{ACAD_REACTORS
330
7
102
}
330
7
100
AcDbDictionary
281
     1
  3
Standard
350
13CB2
  0
DICTIONARY
  5
6864
102
{ACAD_REACTORS
330
7
102
}
330
7
100
AcDbDictionary
281
     1
  0
DICTIONARY
  5
6865
102
{ACAD_REACTORS
330
7
102
}
330
7
100
AcDbDictionary
281
     1
  0
DICTIONARY
  5
6871
102
{ACAD_REACTORS
330
7
102
}
330
7
100
AcDbDictionary
281
     1
  0
DICTIONARY
  5
69A3
102
{ACAD_REACTORS
330
7
102
}
330
7
100
AcDbDictionary
281
     1
  3
Medium Detail
350
82FE
  3
Standard
350
69A4
  0
DICTIONARY
  5
6999
102
{ACAD_REACTORS
330
7
102
}
330
7
100
AcDbDictionary
281
     1
  3
Elevation
350
699D
  3
Model
350
699A
  3
Model High Detail
350
69A1
  3
Model Low Detail
350
69A0
  3
Plan
350
699B
  3
Plan Diagnostic
350
69A2
  3
Plan High Detail
350
699F
  3
Plan Low Detail
350
699E
  3
Reflected
350
699C
  0
DICTIONARY
  5
6873
102
{ACAD_REACTORS
330
7
102
}
330
7
100
AcDbDictionary
281
     1
  3
AecDbDispRep2dSection
350
68D5
  3
AecDbDispRepAnchor
350
68D7
  3
AecDbDispRepAnchorBubToGrid
350
697D
  3
AecDbDispRepAnchorBubToGridMdl
350
697F
  3
AecDbDispRepAnchorBubToGridRcp
350
6981
  3
AecDbDispRepAnchorEntToNode
350
68D8
  3
AecDbDispRepAnchorExtendedTagToEnt
350
6903
  3
AecDbDispRepAnchorTagToEnt
350
6901
  3
AecDbDispRepBdgElevLineModel
350
6907
  3
AecDbDispRepBdgElevLinePlan
350
6909
  3
AecDbDispRepBdgElevLinePlan100
350
6874
  3
AecDbDispRepBdgElevLinePlan50
350
6892
  3
AecDbDispRepBdgElevLineRcp
350
690B
  3
AecDbDispRepBdgSectionLineModel
350
690D
  3
AecDbDispRepBdgSectionLinePlan
350
690F
  3
AecDbDispRepBdgSectionLinePlan100
350
6877
  3
AecDbDispRepBdgSectionLinePlan50
350
6894
  3
AecDbDispRepBdgSectionLineRcp
350
6911
  3
AecDbDispRepBdgSectionModel
350
6913
  3
AecDbDispRepBdgSectionSubDiv
350
6914
  3
AecDbDispRepCeilingGrid
350
6916
  3
AecDbDispRepCeilingGridModel
350
6918
  3
AecDbDispRepCeilingGridPlan100
350
6879
  3
AecDbDispRepCeilingGridPlan50
350
6896
  3
AecDbDispRepCeilingGridRcp
350
691A
  3
AecDbDispRepClipVolModel
350
68DA
  3
AecDbDispRepClipVolPlan
350
68DC
  3
AecDbDispRepClipVolResSubDiv
350
68DF
  3
AecDbDispRepClipVolResult
350
68DE
  3
AecDbDispRepColumnGrid
350
6983
  3
AecDbDispRepColumnGridModel
350
6985
  3
AecDbDispRepColumnGridPlan100
350
687D
  3
AecDbDispRepColumnGridPlan50
350
6898
  3
AecDbDispRepColumnGridRcp
350
6987
  3
AecDbDispRepCurtainWallLayoutModel
350
691C
  3
AecDbDispRepCurtainWallLayoutPlan
350
691E
  3
AecDbDispRepCurtainWallLayoutPlan100
350
687F
  3
AecDbDispRepCurtainWallLayoutPlan50
350
689A
  3
AecDbDispRepCurtainWallUnitModel
350
6920
  3
AecDbDispRepCurtainWallUnitPlan
350
6922
  3
AecDbDispRepCurtainWallUnitPlan100
350
6881
  3
AecDbDispRepCurtainWallUnitPlan50
350
689C
  3
AecDbDispRepDimGroupPlan
350
68B1
  3
AecDbDispRepDimGroupPlan100
350
68AD
  3
AecDbDispRepDimGroupPlan50
350
68AF
  3
AecDbDispRepDisplayTheme
350
68E1
  3
AecDbDispRepDoorElev
350
6926
  3
AecDbDispRepDoorModel
350
6924
  3
AecDbDispRepDoorNominal
350
692A
  3
AecDbDispRepDoorPlan
350
6928
  3
AecDbDispRepDoorPlan50
350
68B3
  3
AecDbDispRepDoorPlanHekto
350
68B5
  3
AecDbDispRepDoorRcp
350
692C
  3
AecDbDispRepDoorThresholdPlan
350
692E
  3
AecDbDispRepDoorThresholdSymbolPlan
350
68B7
  3
AecDbDispRepEditInPlaceProfile
350
68E3
  3
AecDbDispRepEntRef
350
68E5
  3
AecDbDispRepLayoutCurve
350
68E7
  3
AecDbDispRepLayoutGrid2d
350
68E9
  3
AecDbDispRepLayoutGrid3d
350
68EB
  3
AecDbDispRepMaskBlockRef
350
68ED
  3
AecDbDispRepMaskBlockRefRcp
350
6930
  3
AecDbDispRepMassElemModel
350
68F9
  3
AecDbDispRepMassElemPlan100
350
68B9
  3
AecDbDispRepMassElemPlan50
350
68BB
  3
AecDbDispRepMassElemRcp
350
6932
  3
AecDbDispRepMassElemSchem
350
68FB
  3
AecDbDispRepMassGroupModel
350
68FD
  3
AecDbDispRepMassGroupPlan
350
68FF
  3
AecDbDispRepMassGroupPlan100
350
68BD
  3
AecDbDispRepMassGroupPlan50
350
68BF
  3
AecDbDispRepMassGroupRcp
350
6934
  3
AecDbDispRepMaterial
350
68EF
  3
AecDbDispRepMaterial$General High Detail
350
13CB3
  3
AecDbDispRepMaterial$General Low Detail
350
13CB4
  3
AecDbDispRepMaterial$General Medium Detail
350
13CB5
  3
AecDbDispRepMaterial$General Presentation
350
13CB6
  3
AecDbDispRepMaterial$General Reflected
350
13CB7
  3
AecDbDispRepMaterial$General Reflected Screened
350
13CB8
  3
AecDbDispRepMaterial$General Screened
350
13CB9
  3
AecDbDispRepMvBlockRef
350
68F1
  3
AecDbDispRepMvBlockRef$Plan
350
8301
  3
AecDbDispRepMvBlockRefModel
350
68F2
  3
AecDbDispRepMvBlockRefPlan100
350
6883
  3
AecDbDispRepMvBlockRefPlan50
350
689E
  3
AecDbDispRepMvBlockRefRcp
350
6936
  3
AecDbDispRepOpening
350
6937
  3
AecDbDispRepOpeningModel
350
6939
  3
AecDbDispRepOpeningPlan100
350
68C1
  3
AecDbDispRepOpeningPlan50
350
68C3
  3
AecDbDispRepOpeningPlanReflected
350
68C5
  3
AecDbDispRepOpeningSillPlan
350
68C7
  3
AecDbDispRepPolygonModel
350
68F3
  3
AecDbDispRepPolygonTrueColour
350
68F5
  3
AecDbDispRepRailingModel
350
693B
  3
AecDbDispRepRailingPlan
350
693D
  3
AecDbDispRepRailingPlan100
350
68C9
  3
AecDbDispRepRailingPlan50
350
68CB
  3
AecDbDispRepRoofModel
350
693F
  3
AecDbDispRepRoofPlan
350
6941
  3
AecDbDispRepRoofPlan100
350
6884
  3
AecDbDispRepRoofPlan50
350
689F
  3
AecDbDispRepRoofRcp
350
6943
  3
AecDbDispRepRoofSlabModel
350
6947
  3
AecDbDispRepRoofSlabPlan
350
694B
  3
AecDbDispRepRoofSlabPlan100
350
6886
  3
AecDbDispRepRoofSlabPlan50
350
68A1
  3
AecDbDispRepScheduleTable
350
6905
  3
AecDbDispRepSlabModel
350
6945
  3
AecDbDispRepSlabPlan
350
6949
  3
AecDbDispRepSlabPlan100
350
6888
  3
AecDbDispRepSlabPlan50
350
68A3
  3
AecDbDispRepSlice
350
68F7
  3
AecDbDispRepSpaceDecomposed
350
694D
  3
AecDbDispRepSpaceModel
350
694F
  3
AecDbDispRepSpacePlan
350
6951
  3
AecDbDispRepSpacePlan100
350
688A
  3
AecDbDispRepSpacePlan50
350
68A5
  3
AecDbDispRepSpaceRcp
350
6953
  3
AecDbDispRepSpaceVolume
350
6955
  3
AecDbDispRepStairModel
350
6957
  3
AecDbDispRepStairPlan
350
6959
  3
AecDbDispRepStairPlan100
350
68CD
  3
AecDbDispRepStairPlan50
350
68CF
  3
AecDbDispRepStairPlanOverlapping
350
695B
  3
AecDbDispRepStairRcp
350
695D
  3
AecDbDispRepWallGraph
350
695F
  3
AecDbDispRepWallModel
350
6961
  3
AecDbDispRepWallPlan
350
6963
  3
AecDbDispRepWallPlan100
350
688C
  3
AecDbDispRepWallPlan50
350
68A7
  3
AecDbDispRepWallRcp
350
6965
  3
AecDbDispRepWallSchem
350
6967
  3
AecDbDispRepWindowAssemblyModel
350
6969
  3
AecDbDispRepWindowAssemblyPlan
350
696B
  3
AecDbDispRepWindowAssemblyPlan100
350
688E
  3
AecDbDispRepWindowAssemblyPlan50
350
68A9
  3
AecDbDispRepWindowAssemblySillPlan
350
696D
  3
AecDbDispRepWindowElev
350
6971
  3
AecDbDispRepWindowModel
350
696F
  3
AecDbDispRepWindowNominal
350
6975
  3
AecDbDispRepWindowPlan
350
6973
  3
AecDbDispRepWindowPlan100
350
68D1
  3
AecDbDispRepWindowPlan50
350
68D3
  3
AecDbDispRepWindowRcp
350
6977
  3
AecDbDispRepWindowSillPlan
350
6979
  3
AecDbDispRepZone
350
697B
  3
AecDbDispRepZonePlan100
350
6890
  3
AecDbDispRepZonePlan50
350
68AB
  3
AecsDbDispRepMemberElevationDesign
350
6989
  3
AecsDbDispRepMemberElevationDetail
350
698B
  3
AecsDbDispRepMemberLogical
350
698D
  3
AecsDbDispRepMemberModelDesign
350
698F
  3
AecsDbDispRepMemberModelDetail
350
6991
  3
AecsDbDispRepMemberPlanDesign
350
6993
  3
AecsDbDispRepMemberPlanDetail
350
6995
  3
AecsDbDispRepMemberPlanSketch
350
6997
  0
DICTIONARY
  5
6875
102
{ACAD_REACTORS
330
7
102
}
330
7
100
AcDbDictionary
281
     1
  3
*A1
350
6876
  3
*A10
350
694A
  3
*A100
350
13CBD
  3
*A101
350
13CC0
  3
*A102
350
68B6
  3
*A103
350
6958
  3
*A104
350
696E
  3
*A105
350
695E
  3
*A106
350
692D
  3
*A107
350
68FA
  3
*A108
350
6972
  3
*A109
350
68D6
  3
*A11
350
68AE
  3
*A110
350
6910
  3
*A111
350
13CBF
  3
*A112
350
6917
  3
*A113
350
68FE
  3
*A114
350
6912
  3
*A115
350
697C
  3
*A116
350
68B2
  3
*A117
350
68C8
  3
*A118
350
68BA
  3
*A119
350
13CBE
  3
*A12
350
691F
  3
*A120
350
6968
  3
*A121
350
68CC
  3
*A122
350
694C
  3
*A123
350
68F0
  3
*A124
350
695C
  3
*A125
350
68CA
  3
*A126
350
68D0
  3
*A127
350
6925
  3
*A128
350
6929
  3
*A129
350
6954
  3
*A13
350
6974
  3
*A130
350
68A4
  3
*A131
350
687E
  3
*A132
350
6882
  3
*A133
350
6889
  3
*A134
350
689D
  3
*A135
350
6960
  3
*A136
350
6878
  3
*A137
350
688F
  3
*A138
350
68D2
  3
*A139
350
6906
  3
*A14
350
688B
  3
*A140
350
68C0
  3
*A141
350
6923
  3
*A142
350
6940
  3
*A143
350
68CE
  3
*A144
350
698C
  3
*A145
350
6944
  3
*A146
350
6970
  3
*A147
350
6998
  3
*A148
350
6900
  3
*A15
350
6880
  3
*A16
350
693C
  3
*A17
350
694E
  3
*A18
350
68EC
  3
*A19
350
6899
  3
*A2
350
68F8
  3
*A20
350
68FC
  3
*A21
350
6984
  3
*A22
350
690C
  3
*A23
350
6933
  3
*A24
350
68F6
  3
*A25
350
68A2
  3
*A26
350
6976
  3
*A27
350
6978
  3
*A28
350
6891
  3
*A29
350
6994
  3
*A3
350
6931
  3
*A30
350
6966
  3
*A31
350
68AC
  3
*A32
350
68BC
  3
*A33
350
6915
  3
*A34
350
68D9
  3
*A35
350
689B
  3
*A36
350
6950
  3
*A37
350
68AA
  3
*A38
350
6942
  3
*A39
350
6986
  3
*A4
350
68EA
  3
*A40
350
68E4
  3
*A41
350
6902
  3
*A42
350
68E6
  3
*A43
350
696C
  3
*A44
350
6921
  3
*A45
350
68C2
  3
*A46
350
6927
  3
*A47
350
6988
  3
*A48
350
692B
  3
*A49
350
693A
  3
*A5
350
6956
  3
*A50
350
68E8
  3
*A51
350
68DD
  3
*A52
350
68EE
  3
*A53
350
68BE
  3
*A54
350
693E
  3
*A55
350
68B8
  3
*A56
350
6893
  3
*A57
350
6990
  3
*A58
350
6885
  3
*A59
350
6887
  3
*A6
350
691B
  3
*A60
350
68E0
  3
*A61
350
68B0
  3
*A62
350
6962
  3
*A63
350
6996
  3
*A64
350
68C4
  3
*A65
350
692F
  3
*A66
350
6946
  3
*A67
350
6935
  3
*A68
350
68C6
  3
*A69
350
68B4
  3
*A7
350
6895
  3
*A70
350
698A
  3
*A71
350
697E
  3
*A72
350
6919
  3
*A73
350
68A0
  3
*A74
350
698E
  3
*A75
350
6908
  3
*A76
350
68A8
  3
*A77
350
690A
  3
*A78
350
68E2
  3
*A79
350
6992
  3
*A8
350
6897
  3
*A80
350
68DB
  3
*A81
350
6904
  3
*A82
350
696A
  3
*A83
350
6948
  3
*A84
350
695A
  3
*A85
350
6952
  3
*A86
350
687C
  3
*A87
350
68A6
  3
*A88
350
6964
  3
*A89
350
690E
  3
*A9
350
6980
  3
*A90
350
697A
  3
*A91
350
6982
  3
*A92
350
68D4
  3
*A93
350
13CBA
  3
*A94
350
688D
  3
*A95
350
6938
  3
*A96
350
68F4
  3
*A97
350
691D
  3
*A98
350
13CBB
  3
*A99
350
13CBC
  0
DICTIONARY
  5
6870
102
{ACAD_REACTORS
330
7
102
}
330
7
100
AcDbDictionary
281
     1
  0
DICTIONARY
  5
685B
102
{ACAD_REACTORS
330
7
102
}
330
7
100
AcDbDictionary
281
     1
  0
DICTIONARY
  5
685C
102
{ACAD_REACTORS
330
7
102
}
330
7
100
AcDbDictionary
281
     1
  3
Standard
350
13CC1
  0
DICTIONARY
  5
685A
102
{ACAD_REACTORS
330
7
102
}
330
7
100
AcDbDictionary
281
     1
  3
AIA (256 Color)
350
8304
  0
DICTIONARY
  5
6855
102
{ACAD_REACTORS
330
7
102
}
330
7
100
AcDbDictionary
281
     1
  3
Pomieszczenia
350
13CC2
  3
Posadzka
350
13CEC
  0
DICTIONARY
  5
684E
102
{ACAD_REACTORS
330
7
102
}
330
7
100
AcDbDictionary
281
     1
  0
DICTIONARY
  5
6854
102
{ACAD_REACTORS
330
7
102
}
330
7
100
AcDbDictionary
281
     1
  0
DICTIONARY
  5
6853
102
{ACAD_REACTORS
330
7
102
}
330
7
100
AcDbDictionary
281
     1
  3
Standard
350
13CF5
  0
DICTIONARY
  5
684F
102
{ACAD_REACTORS
330
7
102
}
330
7
100
AcDbDictionary
281
     1
  0
DICTIONARY
  5
686C
102
{ACAD_REACTORS
330
7
102
}
330
7
100
AcDbDictionary
281
     1
  3
Standard
350
13D00
  0
DICTIONARY
  5
6851
102
{ACAD_REACTORS
330
7
102
}
330
7
100
AcDbDictionary
281
     1
  0
DICTIONARY
  5
6850
102
{ACAD_REACTORS
330
7
102
}
330
7
100
AcDbDictionary
281
     1
  0
DICTIONARY
  5
6856
102
{ACAD_REACTORS
330
7
102
}
330
7
100
AcDbDictionary
281
     1
  3
Area
350
13D01
  3
Case - Lower
350
13D02
  3
Case - Upper
350
13D03
  3
Length - Nominal
350
13D04
  3
Number - Object
350
13D05
  3
poziom_bezwzgl
350
13D06
  3
Standard
350
13D07
  3
zaokragl do 1 miejsca po przecinku
350
13D08
  0
DICTIONARY
  5
3C4
102
{ACAD_REACTORS
330
7
102
}
330
7
100
AcDbDictionary
281
     1
  3
Powierzchnie
350
13D09
  3
SpaceObjects_ver3
350
13D0A
  0
DICTIONARY
  5
6867
102
{ACAD_REACTORS
330
7
102
}
330
7
100
AcDbDictionary
281
     1
  0
DICTIONARY
  5
6868
102
{ACAD_REACTORS
330
7
102
}
330
7
100
AcDbDictionary
281
     1
  3
Standard
350
13D0B
  0
DICTIONARY
  5
6869
102
{ACAD_REACTORS
330
7
102
}
330
7
100
AcDbDictionary
281
     1
  3
Standard
350
13D0C
  0
DICTIONARY
  5
6857
102
{ACAD_REACTORS
330
7
102
}
330
7
100
AcDbDictionary
281
     1
  3
pomieszczenia-parter
350
13D0D
  3
pomieszczenia-parter (2)
350
145DD
  0
DICTIONARY
  5
686A
102
{ACAD_REACTORS
330
7
102
}
330
7
100
AcDbDictionary
281
     1
  3
Standard
350
13D11
  0
DICTIONARY
  5
686B
102
{ACAD_REACTORS
330
7
102
}
330
7
100
AcDbDictionary
281
     1
  3
Standard
350
13D12
  0
DICTIONARY
  5
686D
102
{ACAD_REACTORS
330
7
102
}
330
7
100
AcDbDictionary
281
     1
  0
DICTIONARY
  5
685D
102
{ACAD_REACTORS
330
7
102
}
330
7
100
AcDbDictionary
281
     1
  3
SPACE
350
13D13
  0
DICTIONARY
  5
685E
102
{ACAD_REACTORS
330
7
102
}
330
7
100
AcDbDictionary
281
     1
  0
DICTIONARY
  5
685F
102
{ACAD_REACTORS
330
7
102
}
330
7
100
AcDbDictionary
281
     1
  0
DICTIONARY
  5
6858
102
{ACAD_REACTORS
330
7
102
}
330
7
100
AcDbDictionary
281
     1
  0
DICTIONARY
  5
687A
102
{ACAD_REACTORS
330
7
102
}
330
7
100
AcDbDictionary
281
     1
  3
AEC_VARS_ARCHBASE
350
8307
  3
AEC_VARS_DWG_SETUP
350
687B
  3
AEC_VARS_STRUCTUREBASE
350
13D18
  3
AECMX_VARS_MUNICH
350
8308
  0
DICTIONARY
  5
6861
102
{ACAD_REACTORS
330
7
102
}
330
7
100
AcDbDictionary
281
     1
  3
Standard
350
13D19
  0
DICTIONARY
  5
6860
102
{ACAD_REACTORS
330
7
102
}
330
7
100
AcDbDictionary
281
     1
  0
DICTIONARY
  5
6866
102
{ACAD_REACTORS
330
7
102
}
330
7
100
AcDbDictionary
281
     1
  0
DICTIONARY
  5
6862
102
{ACAD_REACTORS
330
7
102
}
330
7
100
AcDbDictionary
281
     1
  0
DICTIONARY
  5
686F
102
{ACAD_REACTORS
330
7
102
}
330
7
100
AcDbDictionary
281
     1
  0
DICTIONARY
  5
686E
102
{ACAD_REACTORS
330
7
102
}
330
7
100
AcDbDictionary
281
     1
  0
DICTIONARY
  5
6859
102
{ACAD_REACTORS
330
7
102
}
330
7
100
AcDbDictionary
281
     1
  0
DICTIONARY
  5
1B520
102
{ACAD_REACTORS
330
7
102
}
330
7
100
AcDbDictionary
281
     1
  3
_elementy_wiezby_Link1
350
1B530
  3
_materialy_przegrod_pl_Link1
350
1B52F
  3
_nazwy_przegrod_pl_Link1
350
1B52E
  3
_nazwy_rysunkow_Arial37
350
1B52D
  3
_opisy_rozne_II_Link1
350
1B52C
  3
_opisy_rozne_II_Link2
350
1B52B
  3
_posadzki_do_zestawienia_pomieszczen_Link1
350
1B52A
  3
_rozne_opisy_rys_Link1
350
1B529
  3
_tabelka_-_inform_i_etykiety_Link1
350
1B528
  3
_uwagi_ogolne_na_arkuszu_Link1
350
1B527
  3
ALFABETLink1
350
1B526
  3
ASEBlockHierarchyIndexRecord
350
1B531
  3
jednostkiLink1
350
1B525
  3
miesiaceLink1
350
1B524
  3
pomieszczeniaLink1
350
1B523
  3
stolarkaLink1
350
1B522
  3
tbl_PRZEGRODYLink1
350
1B521
1001
DCO15
1040
1618740254.39
  0
DICTIONARY
  5
41C3
102
{ACAD_REACTORS
330
7
102
}
330
7
100
AcDbDictionary
281
     1
  3
ACET-OVERKILL-FUZZ
350
12D8D
  3
ACET-OVERKILL-NO-ENDTOEND
350
12D90
  3
ACET-OVERKILL-NO-PARTIAL
350
12D8F
  3
ACET-OVERKILL-NO-PLINES
350
12D8E
  0
DICTIONARY
  5
1AD71
102
{ACAD_REACTORS
330
7
102
}
330
7
100
AcDbDictionary
281
     1
  3
_el_wzb_Left_nazw_romans16
350
1AD95
  3
_elementy_wiezby_SKROT_Romans16
350
1AD94
  3
_materialy_przegrod_pl_Label1
350
1AD93
  3
_nazwy_przegrod_romans18
350
1AD92
  3
_nazwy_rysunkow_Arial37
350
1AD91
  3
_nazwy_rysunkow_Romans18
350
1AD90
  3
_opisy_rozne_II_Label1
350
1AD8F
  3
_opisy_rozne_II_Link1Label1
350
1AD8E
  3
_posadzki_do_zestawienia_pomieszczen_Romans17
350
1AD8D
  3
_rozne_opisy_rys_R16_right
350
1AD8C
  3
_rozne_opisy_rys_Romans12
350
1AD8B
  3
_rozne_opisy_rys_Romans16
350
1AD8A
  3
_tabelka_-_inform_i_etykiety_Romans13
350
1AD89
  3
_tabelka_Arial15-center
350
1AD88
  3
_tabelka_Arial151
350
1AD87
  3
_tabelka_Romans 10
350
1AD86
  3
_tabelka_Romans13
350
1AD85
  3
_tabelka_Romans19
350
1AD84
  3
ALFABET-Arial20
350
1AD83
  3
ALFABET-Arial26
350
1AD82
  3
ALFABET-Arial37
350
1AD81
  3
Arial_27
350
1AD80
  3
jednostki-Arial18
350
1AD7F
  3
jednostki-Arial30
350
1AD7E
  3
jednostki-Romans16
350
1AD7D
  3
miesiace-Romans17
350
1AD7C
  3
pomieszczenia-Arial 15
350
1AD7B
  3
pomieszczenia-Romans17
350
1AD7A
  3
romans16
350
1AD79
  3
Romans_17
350
1AD78
  3
stolarka-Arial14
350
1AD77
  3
stolarka-Romans1607
350
1AD76
  3
stolarka-Romans1608
350
1AD75
  3
stolarkaLabel1
350
1AD74
  3
tbl_PRZEGRODY
350
1AD73
  3
uwag_og_na_ark_Arial18
350
1AD72
  0
DICTIONARY
  5
1AD60
102
{ACAD_REACTORS
330
7
102
}
330
7
100
AcDbDictionary
281
     1
  3
_elementy_wiezby_Link1
350
1AD70
  3
_materialy_przegrod_pl_Link1
350
1AD6F
  3
_nazwy_przegrod_pl_Link1
350
1AD6E
  3
_nazwy_rysunkow_Arial37
350
1AD6D
  3
_opisy_rozne_II_Link1
350
1AD6C
  3
_opisy_rozne_II_Link2
350
1AD6B
  3
_posadzki_do_zestawienia_pomieszczen_Link1
350
1AD6A
  3
_rozne_opisy_rys_Link1
350
1AD69
  3
_tabelka_-_inform_i_etykiety_Link1
350
1AD68
  3
_uwagi_ogolne_na_arkuszu_Link1
350
1AD67
  3
ALFABETLink1
350
1AD66
  3
jednostkiLink1
350
1AD65
  3
miesiaceLink1
350
1AD64
  3
pomieszczeniaLink1
350
1AD63
  3
stolarkaLink1
350
1AD62
  3
tbl_PRZEGRODYLink1
350
1AD61
  0
XRECORD
  5
1BD98
102
{ACAD_REACTORS
330
7
102
}
330
7
100
AcDbXrecord
280
     1
  1
DWGPROPS COOKIE
  2

  3

  4

  6

  7

  8
beata.rzonca
  9

300
=
301
=
302
=
303
=
304
=
305
=
306
=
307
=
308
=
309
=
 40
9.181120648148148
 41
2452027.670547454
 42
2454957.566786378
  1

 90
        0
  0
DICTIONARY
  5
8311
102
{ACAD_REACTORS
330
12
102
}
330
12
100
AcDbDictionary
281
     1
  0
DICTIONARY
  5
13
102
{ACAD_REACTORS
330
12
102
}
330
12
100
AcDbDictionary
281
     1
  0
DICTIONARY
  5
8310
102
{ACAD_REACTORS
330
12
102
}
330
12
100
AcDbDictionary
281
     1
1001
ACAD
1000
<All
  0
XRECORD
  5
16750
102
{ACAD_REACTORS
330
1674F
102
}
330
1674F
100
AcDbXrecord
280
     1
290
     1
  0
XRECORD
  5
16752
102
{ACAD_REACTORS
330
16751
102
}
330
16751
100
AcDbXrecord
280
     1
290
     1
  0
XRECORD
  5
16756
102
{ACAD_REACTORS
330
16755
102
}
330
16755
100
AcDbXrecord
280
     1
290
     1
  0
XRECORD
  5
1675A
102
{ACAD_REACTORS
330
16759
102
}
330
16759
100
AcDbXrecord
280
     1
290
     1
  0
XRECORD
  5
1675C
102
{ACAD_REACTORS
330
1675B
102
}
330
1675B
100
AcDbXrecord
280
     1
290
     1
  0
XRECORD
  5
16786
102
{ACAD_REACTORS
330
16785
102
}
330
16785
100
AcDbXrecord
280
     1
290
     1
  0
XRECORD
  5
1678C
102
{ACAD_REACTORS
330
1678B
102
}
330
1678B
100
AcDbXrecord
280
     1
290
     1
  0
SORTENTSTABLE
  5
1FF0
102
{ACAD_REACTORS
330
1FEF
102
}
330
1FEF
100
AcDbSortentsTable
330
2
331
1486E
  5
14896
331
13FA2
  5
13FAC
331
14850
  5
14888
331
13F84
  5
13F8E
331
14873
  5
14897
331
14855
  5
14889
331
13FA7
  5
13FB1
331
13F89
  5
13F93
331
14878
  5
14898
331
13FAC
  5
13FBA
331
1485A
  5
1488A
331
13F8E
  5
13F98
331
13FB1
  5
13FBB
331
1485F
  5
14893
331
13F93
  5
13F9D
331
14889
  5
14D6E
331
1488A
  5
14D6F
331
14864
  5
14894
331
13F98
  5
13FA2
331
13FC2
  5
13FC8
331
14869
  5
14895
331
13FC3
  5
13FCC
331
1484B
  5
14887
331
13F9D
  5
13FA7
  0
SORTENTSTABLE
  5
117C
102
{ACAD_REACTORS
330
24
102
}
330
24
100
AcDbSortentsTable
330
23
  0
LAYOUT
  5
10
102
{ACAD_XDICTIONARY
360
1BD9B
102
}
102
{ACAD_REACTORS
330
B
102
}
330
B
100
AcDbPlotSettings
  1

  2
C:\PROGRAM FILES\AUTOCAD LT 2000\plotters\DWF ePlot.pc3
  4

  6

 40
0.0
 41
0.0
 42
0.0
 43
0.0
 44
0.0
 45
0.0
 46
0.0
 47
0.0
 48
0.0
 49
0.0
140
0.0
141
0.0
142
1.0
143
1.0
 70
   688
 72
     0
 73
     0
 74
     5
  7
monochrome_140.ctb
 75
    16
147
1.0
148
0.0
149
0.0
100
AcDbLayout
  1
Layout1
 70
     1
 71
     1
 10
0.0
 20
0.0
 11
420.0
 21
297.0
 12
0.0
 22
0.0
 32
0.0
 14
1.000000000000000E+20
 24
1.000000000000000E+20
 34
1.000000000000000E+20
 15
-1.000000000000000E+20
 25
-1.000000000000000E+20
 35
-1.000000000000000E+20
146
0.0
 13
0.0
 23
0.0
 33
0.0
 16
1.0
 26
0.0
 36
0.0
 17
0.0
 27
1.0
 37
0.0
 76
     0
330
D
  0
LAYOUT
  5
A
102
{ACAD_XDICTIONARY
360
1BD99
102
}
102
{ACAD_REACTORS
330
B
102
}
330
B
100
AcDbPlotSettings
  1

  2
CutePDF Writer
  4
A4
  6
RODODENDRON 5
 40
3.174999952316284
 41
3.174999952316284
 42
3.175003051757812
 43
3.17498779296875
 44
209.8886566162109
 45
297.0530090332031
 46
-0.230673193931878
 47
5.151510643959028
 48
215187.2000545948
 49
127657.5157057546
140
225387.2000545948
141
141677.5157057546
142
1.0
143
50.0
 70
 11940
 72
     1
 73
     0
 74
     4
  7
monochrome_140.ctb
 75
     0
147
0.0192512917051128
148
-215187.2000545948
149
-127657.5157057546
100
AcDbLayout
  1
Model
 70
     1
 71
     0
 10
0.0
 20
0.0
 11
12.0
 21
9.0
 12
0.0
 22
0.0
 32
0.0
 14
0.0
 24
0.0
 34
0.0
 15
0.0
 25
0.0
 35
0.0
146
0.0
 13
0.0
 23
0.0
 33
0.0
 16
1.0
 26
0.0
 36
0.0
 17
0.0
 27
1.0
 37
0.0
 76
     0
330
2
331
1728
1001
ACAD_PSEXT
1000
CutePDF Writer
1000
CutePDF Writer
1000
CPW2:
1000

1070
     0
  0
MATERIAL
  5
172B
102
{ACAD_XDICTIONARY
360
1BDA0
102
}
102
{ACAD_REACTORS
330
30
102
}
330
30
100
AcDbMaterial
  1
ByBlock
 73
     1
 78
     1
172
     1
176
     1
270
     1
274
     1
  0
MATERIAL
  5
172A
102
{ACAD_XDICTIONARY
360
1BD9E
102
}
102
{ACAD_REACTORS
330
30
102
}
330
30
100
AcDbMaterial
  1
ByLayer
 73
     1
 78
     1
172
     1
176
     1
270
     1
274
     1
  0
MATERIAL
  5
139CC
102
{ACAD_XDICTIONARY
360
139CD
102
}
102
{ACAD_REACTORS
330
30
102
}
330
30
100
AcDbMaterial
  1
General.Chip
 70
     1
 90
-1029332071
 71
     1
 91
-1029332071
 73
     1
 43
64.51593032277642
 43
0.0
 43
0.0
 43
0.0
 43
0.0
 43
64.51593032277642
 43
0.0
 43
0.0
 43
0.0
 43
0.0
 43
64.51593032277642
 43
0.0
 43
0.0
 43
0.0
 43
0.0
 43
1.0
 44
0.0
 76
     1
 92
-1023410177
 78
     1
172
     1
176
     1
270
     1
273
     1
274
     1
  0
MATERIAL
  5
172C
102
{ACAD_XDICTIONARY
360
1BDA2
102
}
102
{ACAD_REACTORS
330
30
102
}
330
30
100
AcDbMaterial
  1
Global
 73
     1
 78
     1
172
     1
176
     1
270
     1
274
     1
  0
MLEADERSTYLE
  5
16746
102
{ACAD_REACTORS
330
16745
102
}
330
16745
100
AcDbMLeaderStyle
170
     2
171
     1
172
     0
 90
        2
 40
0.0
 41
0.0
173
     1
 91
-1056964608
340
18
 92
       -2
290
     1
 42
0.09
291
     1
 43
0.36
  3
Standard
 44
0.18
300

342
15
174
     1
178
     6
175
     1
176
     0
 93
-1056964608
 45
0.18
292
     0
297
     0
 46
0.18
 94
-1056964608
 47
1.0
 49
1.0
140
1.0
293
     1
141
0.0
294
     1
177
     0
142
1.0
295
     0
296
     0
143
0.125
1001
ACAD_MLEADERVER
1070
     2
  0
MLINESTYLE
  5
33
102
{ACAD_REACTORS
330
2E
102
}
330
2E
100
AcDbMlineStyle
  2
STANDARD
 70
     0
  3

 62
   256
 51
90.0
 52
90.0
 71
     2
 49
0.5
 62
   256
  6
BYLAYER
 49
-0.5
 62
   256
  6
BYLAYER
  0
ACDBPLACEHOLDER
  5
139C9
102
{ACAD_REACTORS
330
6
102
}
330
6
  0
ACDBPLACEHOLDER
  5
131E6
102
{ACAD_REACTORS
330
6
102
}
330
6
  0
ACDBPLACEHOLDER
  5
5
102
{ACAD_REACTORS
330
6
102
}
330
6
  0
ACDBPLACEHOLDER
  5
139CA
102
{ACAD_REACTORS
330
6
102
}
330
6
  0
ACDBPLACEHOLDER
  5
139CB
102
{ACAD_REACTORS
330
6
102
}
330
6
  0
SCALE
  5
167F9
102
{ACAD_REACTORS
330
16723
102
}
330
16723
100
AcDbScale
 70
     0
300
1:10_1
140
1.0
141
1.0
290
     0
  0
SCALE
  5
167FD
102
{ACAD_REACTORS
330
16723
102
}
330
16723
100
AcDbScale
 70
     0
300
1:10_XREF
140
1.0
141
10.0
290
     0
  0
SCALE
  5
167FF
102
{ACAD_REACTORS
330
16723
102
}
330
16723
100
AcDbScale
 70
     0
300
1:50_XREF
140
1.0
141
50.0
290
     0
  0
SCALE
  5
16801
102
{ACAD_REACTORS
330
16723
102
}
330
16723
100
AcDbScale
 70
     0
300
1:1_1
140
1.0
141
0.1
290
     0
  0
SCALE
  5
16802
102
{ACAD_REACTORS
330
16723
102
}
330
16723
100
AcDbScale
 70
     0
300
1:2_1
140
1.0
141
0.2
290
     0
  0
SCALE
  5
16800
102
{ACAD_REACTORS
330
16723
102
}
330
16723
100
AcDbScale
 70
     0
300
1:100_XREF
140
1.0
141
100.0
290
     0
  0
SCALE
  5
16803
102
{ACAD_REACTORS
330
16723
102
}
330
16723
100
AcDbScale
 70
     0
300
1:5_1
140
1.0
141
0.5
290
     0
  0
SCALE
  5
16806
102
{ACAD_REACTORS
330
16723
102
}
330
16723
100
AcDbScale
 70
     0
300
1:100_1
140
1.0
141
10.0
290
     0
  0
SCALE
  5
16804
102
{ACAD_REACTORS
330
16723
102
}
330
16723
100
AcDbScale
 70
     0
300
1:20_1
140
1.0
141
2.0
290
     0
  0
SCALE
  5
16805
102
{ACAD_REACTORS
330
16723
102
}
330
16723
100
AcDbScale
 70
     0
300
1:50_1
140
1.0
141
5.0
290
     0
  0
SCALE
  5
16807
102
{ACAD_REACTORS
330
16723
102
}
330
16723
100
AcDbScale
 70
     0
300
1:1_1_1
140
1.0
141
1.0
290
     0
  0
SCALE
  5
16809
102
{ACAD_REACTORS
330
16723
102
}
330
16723
100
AcDbScale
 70
     0
300
1:5_1_1
140
1.0
141
5.0
290
     0
  0
SCALE
  5
1680A
102
{ACAD_REACTORS
330
16723
102
}
330
16723
100
AcDbScale
 70
     0
300
1:10_1_1
140
1.0
141
10.0
290
     0
  0
SCALE
  5
16808
102
{ACAD_REACTORS
330
16723
102
}
330
16723
100
AcDbScale
 70
     0
300
1:2_1_1
140
1.0
141
2.0
290
     0
  0
SCALE
  5
1680B
102
{ACAD_REACTORS
330
16723
102
}
330
16723
100
AcDbScale
 70
     0
300
1:20_1_1
140
1.0
141
20.0
290
     0
  0
SCALE
  5
1680D
102
{ACAD_REACTORS
330
16723
102
}
330
16723
100
AcDbScale
 70
     0
300
1:100_1_1
140
1.0
141
100.0
290
     0
  0
SCALE
  5
1BAE3
102
{ACAD_REACTORS
330
16723
102
}
330
16723
100
AcDbScale
 70
     0
300
1:10_2
140
1.0
141
1.0
290
     0
  0
SCALE
  5
1BAE4
102
{ACAD_REACTORS
330
16723
102
}
330
16723
100
AcDbScale
 70
     0
300
1:2_2
140
1.0
141
0.2
290
     0
  0
SCALE
  5
1BAE5
102
{ACAD_REACTORS
330
16723
102
}
330
16723
100
AcDbScale
 70
     0
300
1:5_2
140
1.0
141
0.5
290
     0
  0
SCALE
  5
1BAE6
102
{ACAD_REACTORS
330
16723
102
}
330
16723
100
AcDbScale
 70
     0
300
1:20_2
140
1.0
141
2.0
290
     0
  0
SCALE
  5
1BAE7
102
{ACAD_REACTORS
330
16723
102
}
330
16723
100
AcDbScale
 70
     0
300
1:50_2
140
1.0
141
5.0
290
     0
  0
SCALE
  5
1BAE8
102
{ACAD_REACTORS
330
16723
102
}
330
16723
100
AcDbScale
 70
     0
300
1:100_2
140
1.0
141
10.0
290
     0
  0
SCALE
  5
1BAE9
102
{ACAD_REACTORS
330
16723
102
}
330
16723
100
AcDbScale
 70
     0
300
1:1_2
140
1.0
141
1.0
290
     0
  0
SCALE
  5
167FA
102
{ACAD_REACTORS
330
16723
102
}
330
16723
100
AcDbScale
 70
     0
300
1:1_XREF
140
1.0
141
1.0
290
     0
  0
SCALE
  5
1BAEA
102
{ACAD_REACTORS
330
16723
102
}
330
16723
100
AcDbScale
 70
     0
300
1:2_2_1
140
1.0
141
2.0
290
     0
  0
SCALE
  5
1BAEB
102
{ACAD_REACTORS
330
16723
102
}
330
16723
100
AcDbScale
 70
     0
300
1:5_2_1
140
1.0
141
5.0
290
     0
  0
SCALE
  5
1BAEC
102
{ACAD_REACTORS
330
16723
102
}
330
16723
100
AcDbScale
 70
     0
300
1:10_2_1
140
1.0
141
10.0
290
     0
  0
SCALE
  5
1BAED
102
{ACAD_REACTORS
330
16723
102
}
330
16723
100
AcDbScale
 70
     0
300
1:20_2_1
140
1.0
141
20.0
290
     0
  0
SCALE
  5
1BAEE
102
{ACAD_REACTORS
330
16723
102
}
330
16723
100
AcDbScale
 70
     0
300
1:50_2_1
140
1.0
141
50.0
290
     0
  0
SCALE
  5
1BAEF
102
{ACAD_REACTORS
330
16723
102
}
330
16723
100
AcDbScale
 70
     0
300
1:100_2_1
140
1.0
141
100.0
290
     0
  0
SCALE
  5
1BAF0
102
{ACAD_REACTORS
330
16723
102
}
330
16723
100
AcDbScale
 70
     0
300
1:1_3
140
1.0
141
0.1
290
     0
  0
SCALE
  5
1BAF1
102
{ACAD_REACTORS
330
16723
102
}
330
16723
100
AcDbScale
 70
     0
300
1:1_1_2
140
1.0
141
1.0
290
     0
  0
SCALE
  5
1BAF2
102
{ACAD_REACTORS
330
16723
102
}
330
16723
100
AcDbScale
 70
     0
300
1:2_1_2
140
1.0
141
2.0
290
     0
  0
SCALE
  5
1BAF3
102
{ACAD_REACTORS
330
16723
102
}
330
16723
100
AcDbScale
 70
     0
300
1:5_1_2
140
1.0
141
5.0
290
     0
  0
SCALE
  5
1680C
102
{ACAD_REACTORS
330
16723
102
}
330
16723
100
AcDbScale
 70
     0
300
1:50_1_1
140
1.0
141
50.0
290
     0
  0
SCALE
  5
1BAF4
102
{ACAD_REACTORS
330
16723
102
}
330
16723
100
AcDbScale
 70
     0
300
1:10_1_2
140
1.0
141
10.0
290
     0
  0
SCALE
  5
1BAF5
102
{ACAD_REACTORS
330
16723
102
}
330
16723
100
AcDbScale
 70
     0
300
1:20_1_2
140
1.0
141
20.0
290
     0
  0
SCALE
  5
1BAF6
102
{ACAD_REACTORS
330
16723
102
}
330
16723
100
AcDbScale
 70
     0
300
1:50_1_2
140
1.0
141
50.0
290
     0
  0
SCALE
  5
1BAF7
102
{ACAD_REACTORS
330
16723
102
}
330
16723
100
AcDbScale
 70
     0
300
1:100_1_2
140
1.0
141
100.0
290
     0
  0
SCALE
  5
167FB
102
{ACAD_REACTORS
330
16723
102
}
330
16723
100
AcDbScale
 70
     0
300
1:2_XREF
140
1.0
141
2.0
290
     0
  0
SCALE
  5
167FE
102
{ACAD_REACTORS
330
16723
102
}
330
16723
100
AcDbScale
 70
     0
300
1:20_XREF
140
1.0
141
20.0
290
     0
  0
SCALE
  5
167FC
102
{ACAD_REACTORS
330
16723
102
}
330
16723
100
AcDbScale
 70
     0
300
1:5_XREF
140
1.0
141
5.0
290
     0
  0
SCALE
  5
16724
102
{ACAD_REACTORS
330
16723
102
}
330
16723
100
AcDbScale
 70
     0
300
1:1
140
1.0
141
1.0
290
     0
  0
SCALE
  5
16725
102
{ACAD_REACTORS
330
16723
102
}
330
16723
100
AcDbScale
 70
     0
300
1:2
140
1.0
141
2.0
290
     0
  0
SCALE
  5
16726
102
{ACAD_REACTORS
330
16723
102
}
330
16723
100
AcDbScale
 70
     0
300
1:4
140
1.0
141
4.0
290
     0
  0
SCALE
  5
16727
102
{ACAD_REACTORS
330
16723
102
}
330
16723
100
AcDbScale
 70
     0
300
1:5
140
1.0
141
5.0
290
     0
  0
SCALE
  5
16728
102
{ACAD_REACTORS
330
16723
102
}
330
16723
100
AcDbScale
 70
     0
300
1:8
140
1.0
141
8.0
290
     0
  0
SCALE
  5
16729
102
{ACAD_REACTORS
330
16723
102
}
330
16723
100
AcDbScale
 70
     0
300
1:10
140
1.0
141
10.0
290
     0
  0
SCALE
  5
1672A
102
{ACAD_REACTORS
330
16723
102
}
330
16723
100
AcDbScale
 70
     0
300
1:16
140
1.0
141
16.0
290
     0
  0
SCALE
  5
1672B
102
{ACAD_REACTORS
330
16723
102
}
330
16723
100
AcDbScale
 70
     0
300
1:20
140
1.0
141
20.0
290
     0
  0
SCALE
  5
1672C
102
{ACAD_REACTORS
330
16723
102
}
330
16723
100
AcDbScale
 70
     0
300
1:30
140
1.0
141
30.0
290
     0
  0
SCALE
  5
1672D
102
{ACAD_REACTORS
330
16723
102
}
330
16723
100
AcDbScale
 70
     0
300
1:40
140
1.0
141
40.0
290
     0
  0
SCALE
  5
1672E
102
{ACAD_REACTORS
330
16723
102
}
330
16723
100
AcDbScale
 70
     0
300
1:50
140
1.0
141
50.0
290
     0
  0
SCALE
  5
1672F
102
{ACAD_REACTORS
330
16723
102
}
330
16723
100
AcDbScale
 70
     0
300
1:100
140
1.0
141
100.0
290
     0
  0
SCALE
  5
16730
102
{ACAD_REACTORS
330
16723
102
}
330
16723
100
AcDbScale
 70
     0
300
2:1
140
2.0
141
1.0
290
     0
  0
SCALE
  5
16731
102
{ACAD_REACTORS
330
16723
102
}
330
16723
100
AcDbScale
 70
     0
300
4:1
140
4.0
141
1.0
290
     0
  0
SCALE
  5
16732
102
{ACAD_REACTORS
330
16723
102
}
330
16723
100
AcDbScale
 70
     0
300
8:1
140
8.0
141
1.0
290
     0
  0
SCALE
  5
16733
102
{ACAD_REACTORS
330
16723
102
}
330
16723
100
AcDbScale
 70
     0
300
10:1
140
10.0
141
1.0
290
     0
  0
SCALE
  5
16734
102
{ACAD_REACTORS
330
16723
102
}
330
16723
100
AcDbScale
 70
     0
300
100:1
140
100.0
141
1.0
290
     0
  0
SCALE
  5
16735
102
{ACAD_REACTORS
330
16723
102
}
330
16723
100
AcDbScale
 70
     0
300
1/128" = 1'-0"
140
0.0078125
141
12.0
290
     0
  0
SCALE
  5
16736
102
{ACAD_REACTORS
330
16723
102
}
330
16723
100
AcDbScale
 70
     0
300
1/64" = 1'-0"
140
0.015625
141
12.0
290
     0
  0
SCALE
  5
16737
102
{ACAD_REACTORS
330
16723
102
}
330
16723
100
AcDbScale
 70
     0
300
1/32" = 1'-0"
140
0.03125
141
12.0
290
     0
  0
SCALE
  5
16738
102
{ACAD_REACTORS
330
16723
102
}
330
16723
100
AcDbScale
 70
     0
300
1/16" = 1'-0"
140
0.0625
141
12.0
290
     0
  0
SCALE
  5
16739
102
{ACAD_REACTORS
330
16723
102
}
330
16723
100
AcDbScale
 70
     0
300
3/32" = 1'-0"
140
0.09375
141
12.0
290
     0
  0
SCALE
  5
1673A
102
{ACAD_REACTORS
330
16723
102
}
330
16723
100
AcDbScale
 70
     0
300
1/8" = 1'-0"
140
0.125
141
12.0
290
     0
  0
SCALE
  5
1673B
102
{ACAD_REACTORS
330
16723
102
}
330
16723
100
AcDbScale
 70
     0
300
3/16" = 1'-0"
140
0.1875
141
12.0
290
     0
  0
SCALE
  5
1673C
102
{ACAD_REACTORS
330
16723
102
}
330
16723
100
AcDbScale
 70
     0
300
1/4" = 1'-0"
140
0.25
141
12.0
290
     0
  0
SCALE
  5
1673D
102
{ACAD_REACTORS
330
16723
102
}
330
16723
100
AcDbScale
 70
     0
300
3/8" = 1'-0"
140
0.375
141
12.0
290
     0
  0
SCALE
  5
1673E
102
{ACAD_REACTORS
330
16723
102
}
330
16723
100
AcDbScale
 70
     0
300
1/2" = 1'-0"
140
0.5
141
12.0
290
     0
  0
SCALE
  5
1673F
102
{ACAD_REACTORS
330
16723
102
}
330
16723
100
AcDbScale
 70
     0
300
3/4" = 1'-0"
140
0.75
141
12.0
290
     0
  0
SCALE
  5
16740
102
{ACAD_REACTORS
330
16723
102
}
330
16723
100
AcDbScale
 70
     0
300
1" = 1'-0"
140
1.0
141
12.0
290
     0
  0
SCALE
  5
16741
102
{ACAD_REACTORS
330
16723
102
}
330
16723
100
AcDbScale
 70
     0
300
1-1/2" = 1'-0"
140
1.5
141
12.0
290
     0
  0
SCALE
  5
16742
102
{ACAD_REACTORS
330
16723
102
}
330
16723
100
AcDbScale
 70
     0
300
3" = 1'-0"
140
3.0
141
12.0
290
     0
  0
SCALE
  5
16743
102
{ACAD_REACTORS
330
16723
102
}
330
16723
100
AcDbScale
 70
     0
300
6" = 1'-0"
140
6.0
141
12.0
290
     0
  0
SCALE
  5
16744
102
{ACAD_REACTORS
330
16723
102
}
330
16723
100
AcDbScale
 70
     0
300
1'-0" = 1'-0"
140
12.0
141
12.0
290
     1
  0
TABLESTYLE
  5
DF3
102
{ACAD_XDICTIONARY
360
17229
102
}
102
{ACAD_REACTORS
330
DF2
102
}
330
DF2
100
AcDbTableStyle
  3
Standard
 70
     0
 71
     0
 40
0.06
 41
0.06
280
     0
281
     0
  7
Standard
140
0.18
170
     2
 62
     0
 63
     7
283
     0
274
    -2
284
     1
 64
     0
275
    -2
285
     1
 65
     0
276
    -2
286
     1
 66
     0
277
    -2
287
     1
 67
     0
278
    -2
288
     1
 68
     0
279
    -2
289
     1
 69
     0
  7
Standard
140
0.25
170
     5
 62
     0
 63
     7
283
     0
274
    -2
284
     1
 64
     0
275
    -2
285
     1
 65
     0
276
    -2
286
     1
 66
     0
277
    -2
287
     1
 67
     0
278
    -2
288
     1
 68
     0
279
    -2
289
     1
 69
     0
  7
Standard
140
0.18
170
     5
 62
     0
 63
     7
283
     0
274
    -2
284
     1
 64
     0
275
    -2
285
     1
 65
     0
276
    -2
286
     1
 66
     0
277
    -2
287
     1
 67
     0
278
    -2
288
     1
 68
     0
279
    -2
289
     1
 69
     0
  0
VISUALSTYLE
  5
1733
102
{ACAD_REACTORS
330
172D
102
}
330
172D
100
AcDbVisualStyle
  2
2dWireframe
 70
     4
 71
     0
 72
     2
 73
     0
 90
        0
 40
-0.6
 41
-30.0
 62
     5
 63
     7
 74
     1
 91
        4
 64
     7
 65
   257
 75
     1
175
     1
 42
1.0
 92
        0
 66
   257
 43
1.0
 76
     1
 77
     6
 78
     2
 67
     7
 79
     5
170
     0
171
     0
290
     0
174
     0
 93
        1
 44
0.0
173
     0
291
     0
 45
0.0
1001
ACAD
1000
AcDbSavedByObjectVersion
1070
     0
  0
VISUALSTYLE
  5
12DA2
102
{ACAD_REACTORS
330
172D
102
}
330
172D
100
AcDbVisualStyle
  2
3D Hidden
 70
     6
 71
     1
 72
     2
 73
     2
 90
        0
 40
-0.6
 41
-30.0
 62
     5
 63
     7
 74
     2
 91
        2
 64
     7
 65
   257
 75
     2
175
     1
 42
40.0
 92
        0
 66
   257
 43
1.0
 76
     1
 77
     6
 78
     2
 67
     7
 79
     3
170
     0
171
     0
290
     0
174
     0
 93
        1
 44
0.0
173
     0
291
     0
 45
0.0
1001
ACAD
1000
AcDbSavedByObjectVersion
1070
     0
  0
VISUALSTYLE
  5
12DA1
102
{ACAD_REACTORS
330
172D
102
}
330
172D
100
AcDbVisualStyle
  2
3dWireframe
 70
     5
 71
     0
 72
     2
 73
     0
 90
        0
 40
-0.6
 41
-30.0
 62
     5
 63
     7
 74
     1
 91
        4
 64
     7
 65
   257
 75
     1
175
     1
 42
1.0
 92
        0
 66
   257
 43
1.0
 76
     1
 77
     6
 78
     2
 67
     7
 79
     5
170
     0
171
     0
290
     0
174
     0
 93
        1
 44
0.0
173
     0
291
     0
 45
0.0
1001
ACAD
1000
AcDbSavedByObjectVersion
1070
     0
  0
VISUALSTYLE
  5
1732
102
{ACAD_REACTORS
330
172D
102
}
330
172D
100
AcDbVisualStyle
  2
Basic
 70
     7
 71
     1
 72
     0
 73
     1
 90
        0
 40
-0.6
 41
-30.0
 62
     5
 63
     7
 74
     0
 91
        4
 64
     7
 65
   257
 75
     1
175
     1
 42
1.0
 92
        8
 66
     7
 43
1.0
 76
     1
 77
     6
 78
     2
 67
     7
 79
     5
170
     0
171
     0
290
     0
174
     0
 93
        1
 44
0.0
173
     0
291
     1
 45
0.0
1001
ACAD
1000
AcDbSavedByObjectVersion
1070
     0
  0
VISUALSTYLE
  5
1739
102
{ACAD_REACTORS
330
172D
102
}
330
172D
100
AcDbVisualStyle
  2
Brighten
 70
    12
 71
     2
 72
     2
 73
     0
 90
        0
 40
-0.6
 41
-30.0
 62
     5
 63
     7
 74
     1
 91
        4
 64
     7
 65
   257
 75
     1
175
     1
 42
1.0
 92
        8
 66
     7
 43
1.0
 76
     1
 77
     6
 78
     2
 67
     7
 79
     5
170
     0
171
     0
290
     0
174
     0
 93
        1
 44
50.0
173
     0
291
     1
 45
0.0
1001
ACAD
1000
AcDbSavedByObjectVersion
1070
     0
  0
VISUALSTYLE
  5
173D
102
{ACAD_REACTORS
330
172D
102
}
330
172D
100
AcDbVisualStyle
  2
ColorChange
 70
    16
 71
     2
 72
     2
 73
     3
 90
        0
 40
-0.6
 41
-30.0
 62
     5
 63
     8
 74
     1
 91
        4
 64
     7
 65
   257
 75
     1
175
     1
 42
1.0
 92
        8
 66
     8
 43
1.0
 76
     1
 77
     6
 78
     2
 67
     7
 79
     5
170
     0
171
     0
290
     0
174
     0
 93
        1
 44
0.0
173
     0
291
     1
 45
0.0
1001
ACAD
1000
AcDbSavedByObjectVersion
1070
     0
  0
VISUALSTYLE
  5
12DA3
102
{ACAD_REACTORS
330
172D
102
}
330
172D
100
AcDbVisualStyle
  2
Conceptual
 70
     9
 71
     3
 72
     2
 73
     0
 90
        0
 40
-0.6
 41
-30.0
 62
     5
 63
     7
 74
     2
 91
        2
 64
     7
 65
   257
 75
     1
175
     1
 42
40.0
 92
        8
 66
     7
 43
1.0
 76
     1
 77
     6
 78
     2
 67
     7
 79
     3
170
     0
171
     0
290
     0
174
     0
 93
        1
 44
0.0
173
     0
291
     0
 45
0.0
1001
ACAD
1000
AcDbSavedByObjectVersion
1070
     0
  0
VISUALSTYLE
  5
1738
102
{ACAD_REACTORS
330
172D
102
}
330
172D
100
AcDbVisualStyle
  2
Dim
 70
    11
 71
     2
 72
     2
 73
     0
 90
        0
 40
-0.6
 41
-30.0
 62
     5
 63
     7
 74
     1
 91
        4
 64
     7
 65
   257
 75
     1
175
     1
 42
1.0
 92
        8
 66
     7
 43
1.0
 76
     1
 77
     6
 78
     2
 67
     7
 79
     5
170
     0
171
     0
290
     0
174
     0
 93
        1
 44
-50.0
173
     0
291
     1
 45
0.0
1001
ACAD
1000
AcDbSavedByObjectVersion
1070
     0
  0
VISUALSTYLE
  5
173C
102
{ACAD_REACTORS
330
172D
102
}
330
172D
100
AcDbVisualStyle
  2
Facepattern
 70
    15
 71
     2
 72
     2
 73
     0
 90
        0
 40
-0.6
 41
-30.0
 62
     5
 63
     7
 74
     1
 91
        4
 64
     7
 65
   257
 75
     1
175
     1
 42
1.0
 92
        8
 66
     7
 43
1.0
 76
     1
 77
     6
 78
     2
 67
     7
 79
     5
170
     0
171
     0
290
     0
174
     0
 93
        1
 44
0.0
173
     0
291
     1
 45
0.0
1001
ACAD
1000
AcDbSavedByObjectVersion
1070
     0
  0
VISUALSTYLE
  5
172E
102
{ACAD_REACTORS
330
172D
102
}
330
172D
100
AcDbVisualStyle
  2
Flat
 70
     0
 71
     2
 72
     1
 73
     1
 90
        2
 40
-0.6
 41
30.0
 62
     5
 63
     7
 74
     0
 91
        4
 64
     7
 65
   257
 75
     1
175
     1
 42
1.0
 92
        8
 66
     7
 43
1.0
 76
     1
 77
     6
 78
     2
 67
     7
 79
     5
170
     0
171
     0
290
     0
174
     0
 93
       13
 44
0.0
173
     0
291
     0
 45
0.0
1001
ACAD
1000
AcDbSavedByObjectVersion
1070
     0
  0
VISUALSTYLE
  5
172F
102
{ACAD_REACTORS
330
172D
102
}
330
172D
100
AcDbVisualStyle
  2
FlatWithEdges
 70
     1
 71
     2
 72
     1
 73
     1
 90
        2
 40
-0.6
 41
30.0
 62
     5
 63
     7
 74
     1
 91
        4
 64
     7
 65
   257
 75
     1
175
     1
 42
1.0
 92
        0
 66
   257
 43
1.0
 76
     1
 77
     6
 78
     2
 67
     7
 79
     5
170
     0
171
     0
290
     0
174
     0
 93
       13
 44
0.0
173
     0
291
     0
 45
0.0
1001
ACAD
1000
AcDbSavedByObjectVersion
1070
     0
  0
VISUALSTYLE
  5
1730
102
{ACAD_REACTORS
330
172D
102
}
330
172D
100
AcDbVisualStyle
  2
Gouraud
 70
     2
 71
     2
 72
     2
 73
     1
 90
        2
 40
-0.6
 41
30.0
 62
     5
 63
     7
 74
     0
 91
        4
 64
     7
 65
   257
 75
     1
175
     1
 42
1.0
 92
        0
 66
     7
 43
1.0
 76
     1
 77
     6
 78
     2
 67
     7
 79
     5
170
     0
171
     0
290
     0
174
     0
 93
       13
 44
0.0
173
     0
291
     0
 45
0.0
1001
ACAD
1000
AcDbSavedByObjectVersion
1070
     0
  0
VISUALSTYLE
  5
1731
102
{ACAD_REACTORS
330
172D
102
}
330
172D
100
AcDbVisualStyle
  2
GouraudWithEdges
 70
     3
 71
     2
 72
     2
 73
     1
 90
        2
 40
-0.6
 41
30.0
 62
     5
 63
     7
 74
     1
 91
        4
 64
     7
 65
   257
 75
     1
175
     1
 42
1.0
 92
        0
 66
   257
 43
1.0
 76
     1
 77
     6
 78
     2
 67
     7
 79
     5
170
     0
171
     0
290
     0
174
     0
 93
       13
 44
0.0
173
     0
291
     0
 45
0.0
1001
ACAD
1000
AcDbSavedByObjectVersion
1070
     0
  0
VISUALSTYLE
  5
173B
102
{ACAD_REACTORS
330
172D
102
}
330
172D
100
AcDbVisualStyle
  2
Linepattern
 70
    14
 71
     2
 72
     2
 73
     0
 90
        0
 40
-0.6
 41
-30.0
 62
     5
 63
     7
 74
     1
 91
        4
 64
     7
 65
   257
 75
     7
175
     7
 42
1.0
 92
        8
 66
     7
 43
1.0
 76
     1
 77
     6
 78
     2
 67
     7
 79
     5
170
     0
171
     0
290
     0
174
     0
 93
        1
 44
0.0
173
     0
291
     1
 45
0.0
1001
ACAD
1000
AcDbSavedByObjectVersion
1070
     0
  0
VISUALSTYLE
  5
1B53C
102
{ACAD_REACTORS
330
172D
102
}
330
172D
100
AcDbVisualStyle
  2

 70
     8
 71
     2
 72
     2
 73
     0
 90
        0
 40
-0.6
 41
-30.0
 62
     5
 63
     7
 74
     0
 91
        0
 64
     7
 65
   257
 75
     1
175
     1
 42
1.0
 92
        8
 66
     8
 43
1.0
 76
     1
 77
     6
 78
     2
 67
     7
 79
     5
170
     0
171
     0
290
     0
174
     0
 93
       13
 44
0.0
173
     0
291
     0
 45
0.0
1001
ACAD
1000
AcDbSavedByObjectVersion
1070
     0
  0
VISUALSTYLE
  5
1B53D
102
{ACAD_REACTORS
330
172D
102
}
330
172D
100
AcDbVisualStyle
  2

 70
     8
 71
     2
 72
     2
 73
     0
 90
        0
 40
-0.6
 41
-30.0
 62
     5
 63
     7
 74
     1
 91
        0
 64
     7
 65
   257
 75
     1
175
     1
 42
1.0
 92
        8
 66
     8
 43
1.0
 76
     1
 77
     6
 78
     2
 67
     7
 79
     5
170
     0
171
     0
290
     0
174
     0
 93
       13
 44
0.0
173
     0
291
     0
 45
0.0
1001
ACAD
1000
AcDbSavedByObjectVersion
1070
     0
  0
VISUALSTYLE
  5
12DA4
102
{ACAD_REACTORS
330
172D
102
}
330
172D
100
AcDbVisualStyle
  2
Realistic
 70
     8
 71
     2
 72
     2
 73
     0
 90
        0
 40
-0.6
 41
-30.0
 62
     5
 63
     7
 74
     1
 91
        0
 64
     7
 65
   257
 75
     1
175
     1
 42
1.0
 92
        8
 66
     8
 43
1.0
 76
     1
 77
     6
 78
     2
 67
     7
 79
     5
170
     0
171
     0
290
     0
174
     0
 93
       13
 44
0.0
173
     0
291
     0
 45
0.0
1001
ACAD
1000
AcDbSavedByObjectVersion
1070
     0
  0
VISUALSTYLE
  5
173A
102
{ACAD_REACTORS
330
172D
102
}
330
172D
100
AcDbVisualStyle
  2
Thicken
 70
    13
 71
     2
 72
     2
 73
     0
 90
        0
 40
-0.6
 41
-30.0
 62
     5
 63
     7
 74
     1
 91
        4
 64
     7
 65
   257
 75
     1
175
     1
 42
1.0
 92
       12
 66
     7
 43
1.0
 76
     1
 77
     6
 78
     2
 67
     7
 79
     5
170
     0
171
     0
290
     0
174
     0
 93
        1
 44
0.0
173
     0
291
     1
 45
0.0
1001
ACAD
1000
AcDbSavedByObjectVersion
1070
     0
  0
DICTIONARY
  5
830A
102
{ACAD_REACTORS
330
8309
102
}
330
8309
100
AcDbDictionary
280
     1
281
     1
  3
Standards
360
830B
  0
DICTIONARYVAR
  5
1722E
102
{ACAD_REACTORS
330
E04
102
}
330
E04
100
DictionaryVariables
280
     0
  1
1/8" = 1'-0"
  0
DICTIONARYVAR
  5
1722C
102
{ACAD_REACTORS
330
E04
102
}
330
E04
100
DictionaryVariables
280
     0
  1
STANDARD
  0
DICTIONARYVAR
  5
E05
102
{ACAD_REACTORS
330
E04
102
}
330
E04
100
DictionaryVariables
280
     0
  1
STANDARD
  0
DICTIONARYVAR
  5
1BD96
102
{ACAD_REACTORS
330
E04
102
}
330
E04
100
DictionaryVariables
280
     0
  1
1
  0
DICTIONARYVAR
  5
1BD95
102
{ACAD_REACTORS
330
E04
102
}
330
E04
100
DictionaryVariables
280
     0
  1
1
  0
DICTIONARYVAR
  5
1BD94
102
{ACAD_REACTORS
330
E04
102
}
330
E04
100
DictionaryVariables
280
     0
  1
0
  0
DICTIONARYVAR
  5
1722F
102
{ACAD_REACTORS
330
E04
102
}
330
E04
100
DictionaryVariables
280
     0
  1
0
  0
DICTIONARYVAR
  5
1722D
102
{ACAD_REACTORS
330
E04
102
}
330
E04
100
DictionaryVariables
280
     0
  1
0
  0
DICTIONARYVAR
  5
1BD93
102
{ACAD_REACTORS
330
E04
102
}
330
E04
100
DictionaryVariables
280
     0
  1
127
  0
XRECORD
  5
1B530
102
{ACAD_REACTORS
330
1B520
102
}
330
1B520
100
AcDbXrecord
280
     1
  0
XRECORD
  5
1B52F
102
{ACAD_REACTORS
330
1B520
102
}
330
1B520
100
AcDbXrecord
280
     1
  0
XRECORD
  5
1B52E
102
{ACAD_REACTORS
330
1B520
102
}
330
1B520
100
AcDbXrecord
280
     1
  0
XRECORD
  5
1B52D
102
{ACAD_REACTORS
330
1B520
102
}
330
1B520
100
AcDbXrecord
280
     1
  0
XRECORD
  5
1B52C
102
{ACAD_REACTORS
330
1B520
102
}
330
1B520
100
AcDbXrecord
280
     1
  0
XRECORD
  5
1B52B
102
{ACAD_REACTORS
330
1B520
102
}
330
1B520
100
AcDbXrecord
280
     1
  0
XRECORD
  5
1B52A
102
{ACAD_REACTORS
330
1B520
102
}
330
1B520
100
AcDbXrecord
280
     1
  0
XRECORD
  5
1B529
102
{ACAD_REACTORS
330
1B520
102
}
330
1B520
100
AcDbXrecord
280
     1
  0
XRECORD
  5
1B528
102
{ACAD_REACTORS
330
1B520
102
}
330
1B520
100
AcDbXrecord
280
     1
  0
XRECORD
  5
1B527
102
{ACAD_REACTORS
330
1B520
102
}
330
1B520
100
AcDbXrecord
280
     1
  0
XRECORD
  5
1B526
102
{ACAD_REACTORS
330
1B520
102
}
330
1B520
100
AcDbXrecord
280
     1
  0
XRECORD
  5
1B531
102
{ACAD_REACTORS
330
1B520
102
}
330
1B520
100
AcDbXrecord
280
     1
330
130B6
330
130B8
330
130B9
330
130BA
330
130C7
330
130C8
330
130CC
330
130CE
330
130CF
330
130D0
330
15A21
330
15A22
330
15A24
330
15A25
330
15A26
330
15A27
330
15A28
330
15A29
330
15A2E
330
15A2F
330
15A30
330
15A31
330
17D65
330
17D66
330
17D5E
330
17D5F
330
17D57
330
17D58
330
17D50
330
17D51
330
17D47
330
17D48
330
17D40
330
17D41
330
17D39
330
17D3A
330
17D32
330
17D33
330
17D2B
330
17D2C
330
17D24
330
17D25
330
17D1D
330
17D1E
330
17D14
330
17D15
330
17D0D
330
17D0E
330
17D06
330
17D07
330
1B3D8
330
1B3D9
330
1B3DF
330
1B3E0
330
1B3E6
330
1B3E7
330
1B3ED
330
1B3EE
330
1B3F6
330
1B3F7
330
1B3FD
330
1B3FE
330
1B404
330
1B405
330
1B40B
330
1B40C
330
1B4E7
330
1B4E8
330
1B4EE
330
1B4EF
330
1B4F5
330
1B4F6
330
1B4FC
330
1B4FD
330
1B505
330
1B506
330
1B50C
330
1B50D
330
1B513
330
1B514
330
1B51A
330
1B51B
  0
XRECORD
  5
1B525
102
{ACAD_REACTORS
330
1B520
102
}
330
1B520
100
AcDbXrecord
280
     1
  0
XRECORD
  5
1B524
102
{ACAD_REACTORS
330
1B520
102
}
330
1B520
100
AcDbXrecord
280
     1
  0
XRECORD
  5
1B523
102
{ACAD_REACTORS
330
1B520
102
}
330
1B520
100
AcDbXrecord
280
     1
  0
XRECORD
  5
1B522
102
{ACAD_REACTORS
330
1B520
102
}
330
1B520
100
AcDbXrecord
280
     1
  0
XRECORD
  5
1B521
102
{ACAD_REACTORS
330
1B520
102
}
330
1B520
100
AcDbXrecord
280
     1
330
0
1004
600100003F0100000000000001000000
1000
tbl_PRZEGRODY
  0
XRECORD
  5
12D8D
102
{ACAD_REACTORS
330
41C3
102
}
330
41C3
100
AcDbXrecord
280
     1
 40
0.000001
  0
XRECORD
  5
12D90
102
{ACAD_REACTORS
330
41C3
102
}
330
41C3
100
AcDbXrecord
280
     1
 70
     0
  0
XRECORD
  5
12D8F
102
{ACAD_REACTORS
330
41C3
102
}
330
41C3
100
AcDbXrecord
280
     1
 70
     0
  0
XRECORD
  5
12D8E
102
{ACAD_REACTORS
330
41C3
102
}
330
41C3
100
AcDbXrecord
280
     1
 70
     0
  0
ACAD_PROXY_OBJECT
  5
1AD95
102
{ACAD_REACTORS
330
1AD71
102
}
330
1AD71
100
AcDbProxyObject
 90
      499
 91
      797
 95
   131099
 70
     0
 93
        1
310
4C
 94
        0
1001
DCO15
1000
jet_dbsamples..."elementy wiezby"(_el_wzb_Left_nazw_romans16)
1000
nazw_el_wiezb
1040
1.0
1040
1.0
1040
0.0
1040
0.0
1040
0.0
1040
0.0
1040
0.0
1040
15.0
1071
        0
1071
      256
1071
        7
1071
        5
1071
        1
1000
ROMANS
1000
ByLayer
1000
#(nazw_el_wiezb)
1001
ACAD
1000
AcRTDxfName
1000
OBJECT_PTR
  0
ACAD_PROXY_OBJECT
  5
1AD94
102
{ACAD_REACTORS
330
1AD71
102
}
330
1AD71
100
AcDbProxyObject
 90
      499
 91
      797
 95
   131099
 70
     0
 93
        1
310
4C
 94
        0
1001
DCO15
1000
jet_dbsamples..."elementy wiezby"(_elementy_wiezby_SKROT_Romans16)
1000
skrot_el_wiezb
1040
1.0
1040
1.0
1040
0.0
1040
0.0
1040
0.0
1040
0.0
1040
0.0
1040
16.0
1071
        0
1071
      256
1071
        9
1071
        5
1071
        1
1000
ROMANS
1000
ByLayer
1000
#(skrot_el_wiezb)
1001
ACAD
1000
AcRTDxfName
1000
OBJECT_PTR
  0
ACAD_PROXY_OBJECT
  5
1AD93
102
{ACAD_REACTORS
330
1AD71
102
}
330
1AD71
100
AcDbProxyObject
 90
      499
 91
      797
 95
   131099
 70
     0
 93
        1
310
4C
 94
        0
1001
DCO15
1000
jet_dbsamples..."materialy przegrod pl"(_materialy_przegrod_pl_Label1)
1000
nazw_mat
1040
1.0
1040
1.0
1040
0.0
1040
0.0
1040
0.0
1040
0.0
1040
0.0
1040
17.0
1071
        0
1071
      256
1071
        7
1071
        5
1071
        1
1000
Romans17
1000
ByLayer
1000
#(nazw_mat)
1001
ACAD
1000
AcRTDxfName
1000
OBJECT_PTR
  0
ACAD_PROXY_OBJECT
  5
1AD92
102
{ACAD_REACTORS
330
1AD71
102
}
330
1AD71
100
AcDbProxyObject
 90
      499
 91
      797
 95
   131099
 70
     0
 93
        1
310
4C
 94
        0
1001
DCO15
1000
jet_dbsamples..."nazwy przegrod pl"(_nazwy_przegrod_romans18)
1000
nzw_przegrody
1040
1.0
1040
1.0
1040
0.0
1040
0.0
1040
0.0
1040
0.0
1040
0.0
1040
17.0
1071
        0
1071
      256
1071
        7
1071
        5
1071
        1
1000
Romans17
1000
ByLayer
1000
{\L\C2;#(nzw_przegrody)}
1001
ACAD
1000
AcRTDxfName
1000
OBJECT_PTR
  0
ACAD_PROXY_OBJECT
  5
1AD91
102
{ACAD_REACTORS
330
1AD71
102
}
330
1AD71
100
AcDbProxyObject
 90
      499
 91
      797
 95
   131099
 70
     0
 93
        1
310
4C
 94
        0
1001
DCO15
1000
jet_dbsamples..."nazwy rysunkow"(_nazwy_rysunkow_Arial37)
1000
1linia
1000
2linia
1000
3linia
1040
1.0
1040
1.0
1040
0.0
1040
0.0
1040
0.0
1040
0.0
1040
0.0
1040
37.0
1071
        0
1071
      256
1071
        1
1071
        5
1071
        1
1000
Romans17
1000
ByLayer
1000
{\fArial|b0|i0|c238|p34;#(1linia)\P#(2linia)\P#(3linia)}
1001
ACAD
1000
AcRTDxfName
1000
OBJECT_PTR
  0
ACAD_PROXY_OBJECT
  5
1AD90
102
{ACAD_REACTORS
330
1AD71
102
}
330
1AD71
100
AcDbProxyObject
 90
      499
 91
      797
 95
   131099
 70
     0
 93
        1
310
4C
 94
        0
1001
DCO15
1000
jet_dbsamples..."nazwy rysunkow"(_nazwy_rysunkow_Romans18)
1000
1linia
1000
2linia
1000
3linia
1040
1.0
1040
1.0
1040
0.0
1040
0.0
1040
0.0
1040
0.0
1040
0.0
1040
18.0
1071
        0
1071
      256
1071
        2
1071
        5
1071
        1
1000
Romans17
1000
ByLayer
1000
{\Fromans.shx|c238;#(1linia)\P#(2linia)\P#(3linia)}
1001
ACAD
1000
AcRTDxfName
1000
OBJECT_PTR
  0
ACAD_PROXY_OBJECT
  5
1AD8F
102
{ACAD_REACTORS
330
1AD71
102
}
330
1AD71
100
AcDbProxyObject
 90
      499
 91
      797
 95
   131099
 70
     0
 93
        1
310
4C
 94
        0
1001
DCO15
1000
jet_dbsamples..."opisy rozne II"(_opisy_rozne_II_Label1)
1000
opis różny
1040
1.0
1040
1.0
1040
0.0
1040
0.0
1040
0.0
1040
0.0
1040
0.0
1040
10.0
1071
        0
1071
      256
1071
        1
1071
        5
1071
        1
1000
ROMANS
1000
ByLayer
1000
#(opis różny)
1001
ACAD
1000
AcRTDxfName
1000
OBJECT_PTR
  0
ACAD_PROXY_OBJECT
  5
1AD8E
102
{ACAD_REACTORS
330
1AD71
102
}
330
1AD71
100
AcDbProxyObject
 90
      499
 91
      797
 95
   131099
 70
     0
 93
        1
310
4C
 94
        0
1001
DCO15
1000
jet_dbsamples..."opisy rozne II"(_opisy_rozne_II_Link1Label1)
1000
opis różny
1040
1.0
1040
1.0
1040
0.0
1040
0.0
1040
0.0
1040
0.0
1040
0.0
1040
10.0
1071
        0
1071
      256
1071
        1
1071
        5
1071
        1
1000
ROMANS
1000
ByLayer
1000
#(opis różny)
1001
ACAD
1000
AcRTDxfName
1000
OBJECT_PTR
  0
ACAD_PROXY_OBJECT
  5
1AD8D
102
{ACAD_REACTORS
330
1AD71
102
}
330
1AD71
100
AcDbProxyObject
 90
      499
 91
      797
 95
   131099
 70
     0
 93
        1
310
4C
 94
        0
1001
DCO15
1000
jet_dbsamples..."posadzki do zestawienia pomieszczen"(_posadzki_do_zestawienia_pomieszczen_Romans17)
1000
nazwa_pos
1040
1.0
1040
1.0
1040
0.0
1040
0.0
1040
0.0
1040
0.0
1040
0.0
1040
17.0
1071
        0
1071
      256
1071
        7
1071
        5
1071
        1
1000
ROMANS
1000
ByLayer
1000
#(nazwa_pos)
1001
ACAD
1000
AcRTDxfName
1000
OBJECT_PTR
  0
ACAD_PROXY_OBJECT
  5
1AD8C
102
{ACAD_REACTORS
330
1AD71
102
}
330
1AD71
100
AcDbProxyObject
 90
      499
 91
      797
 95
   131099
 70
     0
 93
        1
310
4C
 94
        0
1001
DCO15
1000
jet_dbsamples..."rozne opisy rys"(_rozne_opisy_rys_R16_right)
1000
1L
1000
2L
1000
3L
1000
4L
1000
5L
1040
1.0
1040
1.0
1040
0.0
1040
0.0
1040
0.0
1040
0.0
1040
0.0
1040
16.0
1071
        0
1071
      256
1071
        3
1071
        5
1071
        1
1000
ROMANS
1000
ByLayer
1000
#(1L)\P#(2L)\P#(3L)\P#(4L)\P#(5L)
1001
ACAD
1000
AcRTDxfName
1000
OBJECT_PTR
  0
ACAD_PROXY_OBJECT
  5
1AD8B
102
{ACAD_REACTORS
330
1AD71
102
}
330
1AD71
100
AcDbProxyObject
 90
      499
 91
      797
 95
   131099
 70
     0
 93
        1
310
4C
 94
        0
1001
DCO15
1000
jet_dbsamples..."rozne opisy rys"(_rozne_opisy_rys_Romans12)
1000
1L
1000
2L
1000
3L
1000
4L
1000
5L
1040
1.0
1040
1.0
1040
0.0
1040
0.0
1040
0.0
1040
0.0
1040
0.0
1040
13.0
1071
        0
1071
      256
1071
        1
1071
        5
1071
        1
1000
ROMANS
1000
ByLayer
1000
#(1L)\P#(2L)\P#(3L)\P#(4L)\P#(5L)
1001
ACAD
1000
AcRTDxfName
1000
OBJECT_PTR
  0
ACAD_PROXY_OBJECT
  5
1AD8A
102
{ACAD_REACTORS
330
1AD71
102
}
330
1AD71
100
AcDbProxyObject
 90
      499
 91
      797
 95
   131099
 70
     0
 93
        1
310
4C
 94
        0
1001
DCO15
1000
jet_dbsamples..."rozne opisy rys"(_rozne_opisy_rys_Romans16)
1000
1L
1000
2L
1000
3L
1000
4L
1000
5L
1040
1.0
1040
1.0
1040
0.0
1040
0.0
1040
0.0
1040
0.0
1040
0.0
1040
16.0
1071
        0
1071
      256
1071
        1
1071
        5
1071
        1
1000
ROMANS
1000
ByLayer
1000
#(1L)\P#(2L)\P#(3L)\P#(4L)\P#(5L)
1001
ACAD
1000
AcRTDxfName
1000
OBJECT_PTR
  0
ACAD_PROXY_OBJECT
  5
1AD89
102
{ACAD_REACTORS
330
1AD71
102
}
330
1AD71
100
AcDbProxyObject
 90
      499
 91
      797
 95
   131099
 70
     0
 93
        1
310
4C
 94
        0
1001
DCO15
1000
jet_dbsamples..."tabelka - inform i etykiety"(_tabelka_-_inform_i_etykiety_Romans13)
1000
1linia
1000
2linia_ewentualna
1000
3linia_ewentualna
1040
1.0
1040
1.0
1040
0.0
1040
0.0
1040
0.0
1040
0.0
1040
0.0
1040
13.0
1071
        0
1071
      256
1071
        1
1071
        5
1071
        1
1000
ROMANS
1000
ByLayer
1000
#(1linia)\P#(2linia_ewentualna)\P#(3linia_ewentualna)
1001
ACAD
1000
AcRTDxfName
1000
OBJECT_PTR
  0
ACAD_PROXY_OBJECT
  5
1AD88
102
{ACAD_REACTORS
330
1AD71
102
}
330
1AD71
100
AcDbProxyObject
 90
      499
 91
      797
 95
   131099
 70
     0
 93
        1
310
4C
 94
        0
1001
DCO15
1000
jet_dbsamples..."tabelka - inform i etykiety"(_tabelka_Arial15-center)
1000
1linia
1000
2linia_ewentualna
1000
3linia_ewentualna
1040
1.0
1040
1.0
1040
0.0
1040
0.0
1040
0.0
1040
0.0
1040
0.0
1040
15.0
1071
        0
1071
      256
1071
        2
1071
        5
1071
        1
1000
ROMANS
1000
ByLayer
1000
{\fArial|b0|i0|c238|p34;#(1linia)\P#(2linia_ewentualna)\P#(3linia_ewentualna)}
1001
ACAD
1000
AcRTDxfName
1000
OBJECT_PTR
  0
ACAD_PROXY_OBJECT
  5
1AD87
102
{ACAD_REACTORS
330
1AD71
102
}
330
1AD71
100
AcDbProxyObject
 90
      499
 91
      797
 95
   131099
 70
     0
 93
        1
310
4C
 94
        0
1001
DCO15
1000
jet_dbsamples..."tabelka - inform i etykiety"(_tabelka_Arial151)
1000
1linia
1040
1.0
1040
1.0
1040
0.0
1040
0.0
1040
0.0
1040
0.0
1040
0.0
1040
15.0
1071
        0
1071
      256
1071
        1
1071
        5
1071
        1
1000
ARIAL
1000
ByLayer
1000
{\fArial|b0|i0|c238|p34;#(1linia)}
1001
ACAD
1000
AcRTDxfName
1000
OBJECT_PTR
  0
ACAD_PROXY_OBJECT
  5
1AD86
102
{ACAD_REACTORS
330
1AD71
102
}
330
1AD71
100
AcDbProxyObject
 90
      499
 91
      797
 95
   131099
 70
     0
 93
        1
310
4C
 94
        0
1001
DCO15
1000
jet_dbsamples..."tabelka - inform i etykiety"(_tabelka_Romans 10)
1000
1linia
1000
2linia_ewentualna
1000
3linia_ewentualna
1040
1.0
1040
1.0
1040
0.0
1040
0.0
1040
0.0
1040
0.0
1040
0.0
1040
10.0
1071
        0
1071
      256
1071
        1
1071
        5
1071
        1
1000
ARIAL
1000
ByLayer
1000
#(1linia)\P#(2linia_ewentualna)\P#(3linia_ewentualna)
1001
ACAD
1000
AcRTDxfName
1000
OBJECT_PTR
  0
ACAD_PROXY_OBJECT
  5
1AD85
102
{ACAD_REACTORS
330
1AD71
102
}
330
1AD71
100
AcDbProxyObject
 90
      499
 91
      797
 95
   131099
 70
     0
 93
        1
310
4C
 94
        0
1001
DCO15
1000
jet_dbsamples..."tabelka - inform i etykiety"(_tabelka_Romans13)
1000
1linia
1000
2linia_ewentualna
1000
3linia_ewentualna
1040
1.0
1040
1.0
1040
0.0
1040
0.0
1040
0.0
1040
0.0
1040
0.0
1040
13.0
1071
        0
1071
      256
1071
        1
1071
        5
1071
        1
1000
ARIAL
1000
ByLayer
1000
#(1linia)\P#(2linia_ewentualna)\P#(3linia_ewentualna)
1001
ACAD
1000
AcRTDxfName
1000
OBJECT_PTR
  0
ACAD_PROXY_OBJECT
  5
1AD84
102
{ACAD_REACTORS
330
1AD71
102
}
330
1AD71
100
AcDbProxyObject
 90
      499
 91
      797
 95
   131099
 70
     0
 93
        1
310
4C
 94
        0
1001
DCO15
1000
jet_dbsamples..."tabelka - inform i etykiety"(_tabelka_Romans19)
1000
1linia
1000
2linia_ewentualna
1000
3linia_ewentualna
1040
1.0
1040
1.0
1040
0.0
1040
0.0
1040
0.0
1040
0.0
1040
0.0
1040
19.0
1071
        0
1071
      256
1071
        2
1071
        5
1071
        1
1000
ARIAL
1000
ByLayer
1000
#(1linia)\P#(2linia_ewentualna)\P#(3linia_ewentualna)
1001
ACAD
1000
AcRTDxfName
1000
OBJECT_PTR
  0
ACAD_PROXY_OBJECT
  5
1AD83
102
{ACAD_REACTORS
330
1AD71
102
}
330
1AD71
100
AcDbProxyObject
 90
      499
 91
      797
 95
   131099
 70
     0
 93
        1
310
4C
 94
        0
1001
DCO15
1000
jet_dbsamples...ALFABET(ALFABET-Arial20)
1000
liter_alf
1040
1.0
1040
1.0
1040
0.0
1040
0.0
1040
0.0
1040
0.0
1040
0.0
1040
20.0
1071
        0
1071
      256
1071
        7
1071
        5
1071
        1
1000
ARIAL
1000
ByLayer
1000
{\fArial|b0|i0|c238|p34;#(liter_alf)}
1001
ACAD
1000
AcRTDxfName
1000
OBJECT_PTR
  0
ACAD_PROXY_OBJECT
  5
1AD82
102
{ACAD_REACTORS
330
1AD71
102
}
330
1AD71
100
AcDbProxyObject
 90
      499
 91
      797
 95
   131099
 70
     0
 93
        1
310
4C
 94
        0
1001
DCO15
1000
jet_dbsamples...ALFABET(ALFABET-Arial26)
1000
liter_alf
1040
1.0
1040
1.0
1040
0.0
1040
0.0
1040
0.0
1040
0.0
1040
0.0
1040
26.0
1071
        0
1071
      256
1071
        7
1071
        5
1071
        1
1000
ARIAL
1000
ByLayer
1000
{\fArial|b0|i0|c238|p34;\C140;#(liter_alf)}
1001
ACAD
1000
AcRTDxfName
1000
OBJECT_PTR
  0
ACAD_PROXY_OBJECT
  5
1AD81
102
{ACAD_REACTORS
330
1AD71
102
}
330
1AD71
100
AcDbProxyObject
 90
      499
 91
      797
 95
   131099
 70
     0
 93
        1
310
4C
 94
        0
1001
DCO15
1000
jet_dbsamples...ALFABET(ALFABET-Arial37)
1000
liter_alf
1040
1.0
1040
1.0
1040
0.0
1040
0.0
1040
0.0
1040
0.0
1040
0.0
1040
37.0
1071
        0
1071
      256
1071
        7
1071
        5
1071
        1
1000
ARIAL
1000
ByLayer
1000
{\fArial|b0|i0|c238|p34;#(liter_alf)}
1001
ACAD
1000
AcRTDxfName
1000
OBJECT_PTR
  0
ACAD_PROXY_OBJECT
  5
1AD80
102
{ACAD_REACTORS
330
1AD71
102
}
330
1AD71
100
AcDbProxyObject
 90
      499
 91
      797
 95
   131099
 70
     0
 93
        1
310
4C
 94
        0
1001
DCO15
1000
jet_dbsamples..."uwagi ogolne na arkuszu"(Arial_27)
1000
1naglowek
1000
1linia
1000
2linia
1000
3linia
1000
4linia
1000
5linia
1000
6linia
1000
7linia
1000
8linia
1000
9linia
1000
10linia
1000
11linia
1000
12linia
1040
1.0
1040
1.0
1040
0.0
1040
0.0
1040
0.0
1040
0.0
1040
0.0
1040
26.0
1071
        0
1071
      256
1071
        1
1071
        5
1071
        1
1000
ARIAL
1000
ByLayer
1000
{\fArial|b0|i0|c238|p34;#(1naglowek)\P#(1linia)\P#(2linia)\P#(3linia)\P#(4linia)\P#(5linia)\P#(6linia)\P#(7linia)\P#(8linia)\P#(9linia)\P#(10linia)\P#(11linia)\P#(12linia)}
1001
ACAD
1000
AcRTDxfName
1000
OBJECT_PTR
  0
ACAD_PROXY_OBJECT
  5
1AD7F
102
{ACAD_REACTORS
330
1AD71
102
}
330
1AD71
100
AcDbProxyObject
 90
      499
 91
      797
 95
   131099
 70
     0
 93
        1
310
4C
 94
        0
1001
DCO15
1000
jet_dbsamples...jednostki(jednostki-Arial18)
1000
jedn
1040
1.0
1040
1.0
1040
0.0
1040
0.0
1040
0.0
1040
0.0
1040
0.0
1040
18.0
1071
        0
1071
      256
1071
        7
1071
        5
1071
        1
1000
ARIAL
1000
ByLayer
1000
{\fArial|b0|i0|c238|p34;#(jedn)}
1001
ACAD
1000
AcRTDxfName
1000
OBJECT_PTR
  0
ACAD_PROXY_OBJECT
  5
1AD7E
102
{ACAD_REACTORS
330
1AD71
102
}
330
1AD71
100
AcDbProxyObject
 90
      499
 91
      797
 95
   131099
 70
     0
 93
        1
310
4C
 94
        0
1001
DCO15
1000
jet_dbsamples...jednostki(jednostki-Arial30)
1000
jedn
1040
1.0
1040
1.0
1040
0.0
1040
0.0
1040
0.0
1040
0.0
1040
0.0
1040
30.0
1071
        0
1071
      256
1071
        7
1071
        5
1071
        1
1000
ARIAL
1000
ByLayer
1000
{\fArial|b0|i0|c238|p34;#(jedn)}
1001
ACAD
1000
AcRTDxfName
1000
OBJECT_PTR
  0
ACAD_PROXY_OBJECT
  5
1AD7D
102
{ACAD_REACTORS
330
1AD71
102
}
330
1AD71
100
AcDbProxyObject
 90
      499
 91
      797
 95
   131099
 70
     0
 93
        1
310
4C
 94
        0
1001
DCO15
1000
jet_dbsamples...jednostki(jednostki-Romans16)
1000
jedn
1040
1.0
1040
1.0
1040
0.0
1040
0.0
1040
0.0
1040
0.0
1040
0.0
1040
16.0
1071
        0
1071
      256
1071
        7
1071
        5
1071
        1
1000
ARIAL
1000
ByLayer
1000
#(jedn)
1001
ACAD
1000
AcRTDxfName
1000
OBJECT_PTR
  0
ACAD_PROXY_OBJECT
  5
1AD7C
102
{ACAD_REACTORS
330
1AD71
102
}
330
1AD71
100
AcDbProxyObject
 90
      499
 91
      797
 95
   131099
 70
     0
 93
        1
310
4C
 94
        0
1001
DCO15
1000
jet_dbsamples...miesiace(miesiace-Romans17)
1000
nzw_mies
1040
1.0
1040
1.0
1040
0.0
1040
0.0
1040
0.0
1040
0.0
1040
0.0
1040
17.0
1071
        0
1071
      256
1071
        1
1071
        5
1071
        1
1000
ARIAL
1000
ByLayer
1000
#(nzw_mies)
1001
ACAD
1000
AcRTDxfName
1000
OBJECT_PTR
  0
ACAD_PROXY_OBJECT
  5
1AD7B
102
{ACAD_REACTORS
330
1AD71
102
}
330
1AD71
100
AcDbProxyObject
 90
      499
 91
      797
 95
   131099
 70
     0
 93
        1
310
4C
 94
        0
1001
DCO15
1000
jet_dbsamples...pomieszczenia(pomieszczenia-Arial 15)
1000
nazwa
1040
1.0
1040
1.0
1040
0.0
1040
0.0
1040
0.0
1040
0.0
1040
0.0
1040
15.0
1071
        0
1071
      256
1071
        8
1071
        5
1071
        1
1000
ARIAL
1000
ByLayer
1000
{\fArial|b0|i0|c238|p34;#(nazwa)}
1001
ACAD
1000
AcRTDxfName
1000
OBJECT_PTR
  0
ACAD_PROXY_OBJECT
  5
1AD7A
102
{ACAD_REACTORS
330
1AD71
102
}
330
1AD71
100
AcDbProxyObject
 90
      499
 91
      797
 95
   131099
 70
     0
 93
        1
310
4C
 94
        0
1001
DCO15
1000
jet_dbsamples...pomieszczenia(pomieszczenia-Romans17)
1000
nazwa
1040
1.0
1040
1.0
1040
0.0
1040
0.0
1040
0.0
1040
0.0
1040
0.0
1040
17.0
1071
        0
1071
      256
1071
        7
1071
        5
1071
        1
1000
Romans17
1000
ByLayer
1000
#(nazwa)
1001
ACAD
1000
AcRTDxfName
1000
OBJECT_PTR
  0
ACAD_PROXY_OBJECT
  5
1AD79
102
{ACAD_REACTORS
330
1AD71
102
}
330
1AD71
100
AcDbProxyObject
 90
      499
 91
      797
 95
   131099
 70
     0
 93
        1
310
4C
 94
        0
1001
DCO15
1000
jet_dbsamples..."elementy wiezby"(romans16)
1000
nazw_el_wiezb
1040
1.0
1040
1.0
1040
0.0
1040
0.0
1040
0.0
1040
0.0
1040
0.0
1040
16.0
1071
        0
1071
      256
1071
        1
1071
        5
1071
        1
1000
Romans17
1000
ByLayer
1000
#(nazw_el_wiezb)
1001
ACAD
1000
AcRTDxfName
1000
OBJECT_PTR
  0
ACAD_PROXY_OBJECT
  5
1AD78
102
{ACAD_REACTORS
330
1AD71
102
}
330
1AD71
100
AcDbProxyObject
 90
      499
 91
      797
 95
   131099
 70
     0
 93
        1
310
4C
 94
        0
1001
DCO15
1000
jet_dbsamples..."uwagi ogolne na arkuszu"(Romans_17)
1000
1naglowek
1000
1linia
1000
2linia
1000
3linia
1000
4linia
1000
5linia
1000
6linia
1000
7linia
1000
8linia
1000
9linia
1000
10linia
1000
11linia
1000
12linia
1040
1.0
1040
1.0
1040
0.0
1040
0.0
1040
0.0
1040
0.0
1040
0.0
1040
17.0
1071
        0
1071
      256
1071
        1
1071
        5
1071
        1
1000
Romans17
1000
ByLayer
1000
#(1naglowek)\P#(1linia)\P#(2linia)\P#(3linia)\P#(4linia)\P#(5linia)\P#(6linia)\P#(7linia)\P#(8linia)\P#(9linia)\P#(10linia)\P#(11linia)\P#(12linia)
1001
ACAD
1000
AcRTDxfName
1000
OBJECT_PTR
  0
ACAD_PROXY_OBJECT
  5
1AD77
102
{ACAD_REACTORS
330
1AD71
102
}
330
1AD71
100
AcDbProxyObject
 90
      499
 91
      797
 95
   131099
 70
     0
 93
        1
310
4C
 94
        0
1001
DCO15
1000
jet_dbsamples...stolarka(stolarka-Arial14)
1000
STOL_TKST
1000
STOL_TKST_2linia
1040
1.0
1040
1.0
1040
0.0
1040
0.0
1040
0.0
1040
0.0
1040
0.0
1040
14.0
1071
        0
1071
      256
1071
        1
1071
        5
1071
        1
1000
Romans17
1000
ByLayer
1000
{\fArial|b0|i0|c238|p34;#(STOL_TKST)\P#(STOL_TKST_2linia)}
1001
ACAD
1000
AcRTDxfName
1000
OBJECT_PTR
  0
ACAD_PROXY_OBJECT
  5
1AD76
102
{ACAD_REACTORS
330
1AD71
102
}
330
1AD71
100
AcDbProxyObject
 90
      499
 91
      797
 95
   131099
 70
     0
 93
        1
310
4C
 94
        0
1001
DCO15
1000
jet_dbsamples...stolarka(stolarka-Romans1607)
1000
STOL_TKST
1000
STOL_TKST_2linia
1040
1.0
1040
1.0
1040
0.0
1040
0.0
1040
0.0
1040
0.0
1040
0.0
1040
16.0
1071
        0
1071
      256
1071
        5
1071
        5
1071
        1
1000
Romans17
1000
ByLayer
1000
#(STOL_TKST)\P#(STOL_TKST_2linia)
1001
ACAD
1000
AcRTDxfName
1000
OBJECT_PTR
  0
ACAD_PROXY_OBJECT
  5
1AD75
102
{ACAD_REACTORS
330
1AD71
102
}
330
1AD71
100
AcDbProxyObject
 90
      499
 91
      797
 95
   131099
 70
     0
 93
        1
310
4C
 94
        0
1001
DCO15
1000
jet_dbsamples...stolarka(stolarka-Romans1608)
1000
STOL_TKST
1000
STOL_TKST_2linia
1040
1.0
1040
1.0
1040
0.0
1040
0.0
1040
0.0
1040
0.0
1040
0.0
1040
16.0
1071
        0
1071
      256
1071
        5
1071
        5
1071
        1
1000
ROMANS
1000
ByLayer
1000
#(STOL_TKST)\P#(STOL_TKST_2linia)
1001
ACAD
1000
AcRTDxfName
1000
OBJECT_PTR
  0
ACAD_PROXY_OBJECT
  5
1AD74
102
{ACAD_REACTORS
330
1AD71
102
}
330
1AD71
100
AcDbProxyObject
 90
      499
 91
      797
 95
   131099
 70
     0
 93
        1
310
4C
 94
        0
1001
DCO15
1000
jet_dbsamples...stolarka(stolarkaLabel1)
1000
STOL_TKST
1000
STOL_TKST_2linia
1040
1.0
1040
1.0
1040
0.0
1040
0.0
1040
0.0
1040
0.0
1040
0.0
1040
25.0
1071
        0
1071
      256
1071
        1
1071
        5
1071
        1
1000
ROMANS
1000
ByLayer
1000
{\fArial|b0|i0|c238|p34;#(STOL_TKST)\P#(STOL_TKST_2linia)}
1001
ACAD
1000
AcRTDxfName
1000
OBJECT_PTR
  0
ACAD_PROXY_OBJECT
  5
1AD73
102
{ACAD_REACTORS
330
1AD71
102
}
330
1AD71
100
AcDbProxyObject
 90
      499
 91
      797
 95
   131099
 70
     0
 93
        1
310
4C
 94
        0
1001
DCO15
1000
jet_dbsamples...tbl_PRZEGRODY(tbl_PRZEGRODY)
1000
nazwa przegrody
1000
1w
1000
2w
1000
3w
1000
4w
1000
5w
1000
6w
1000
7w
1000
8w
1000
9w
1000
10w
1000
11w
1000
12w
1000
13w
1000
14w
1000
15w
1000
16w
1040
1.0
1040
1.0
1040
0.0
1040
0.0
1040
0.0
1040
0.0
1040
0.0
1040
17.0
1071
        0
1071
      256
1071
        1
1071
        5
1071
        1
1000
Romans17
1000
ByLayer
1000
{\Fromans.shx|c238;\L\C2;#(nazwa przegrody)\C4;\P}#(1w)\P#(2w)\P#(3w)\P#(4w)\P#(5w)\P#(6w)\P#(7w)\P#(8w)\P#(9w)\P#(10w)\P#(11w)\P#(12w)\P#(13w)\P#(14w)\P#(15w)\P#(16w)
1001
ACAD
1000
AcRTDxfName
1000
OBJECT_PTR
  0
ACAD_PROXY_OBJECT
  5
1AD72
102
{ACAD_REACTORS
330
1AD71
102
}
330
1AD71
100
AcDbProxyObject
 90
      499
 91
      797
 95
   131099
 70
     0
 93
        1
310
4C
 94
        0
1001
DCO15
1000
jet_dbsamples..."uwagi ogolne na arkuszu"(uwag_og_na_ark_Arial18)
1000
1naglowek
1000
1linia
1000
2linia
1000
3linia
1000
4linia
1000
5linia
1000
6linia
1000
7linia
1000
8linia
1000
9linia
1000
10linia
1000
11linia
1000
12linia
1040
1.0
1040
1.0
1040
0.0
1040
0.0
1040
0.0
1040
0.0
1040
0.0
1040
18.0
1071
        0
1071
      256
1071
        1
1071
        5
1071
        1
1000
Romans17
1000
ByLayer
1000
{\fArial|b0|i0|c238|p34;#(1naglowek)\P#(1linia)\P#(2linia)\P#(3linia)\P#(4linia)\P#(5linia)\P#(6linia)\P#(7linia)\P#(8linia)\P#(9linia)\P#(10linia)\P#(11linia)\P#(12linia)}
1001
ACAD
1000
AcRTDxfName
1000
OBJECT_PTR
  0
ACAD_PROXY_OBJECT
  5
1AD70
102
{ACAD_REACTORS
330
1AD60
102
}
330
1AD60
100
AcDbProxyObject
 90
      499
 91
      797
 95
   131099
 70
     0
 93
        1
310
4C
 94
        0
1001
DCO15
1000
jet_dbsamples..."elementy wiezby"(_elementy_wiezby_Link1)
1000
IDENTYFIKATOR
1000

1000

1070
     4
1070
     0
1070
     0
1070
     0
1070
  1024
1001
ACAD
1000
AcRTDxfName
1000
OBJECT_PTR
  0
ACAD_PROXY_OBJECT
  5
1AD6F
102
{ACAD_REACTORS
330
1AD60
102
}
330
1AD60
100
AcDbProxyObject
 90
      499
 91
      797
 95
   131099
 70
     0
 93
        1
310
4C
 94
        0
1001
DCO15
1000
jet_dbsamples..."materialy przegrod pl"(_materialy_przegrod_pl_Link1)
1000
IDENTYFIKATOR
1000

1000

1070
     4
1070
     0
1070
     0
1070
     0
1070
  1024
1001
ACAD
1000
AcRTDxfName
1000
OBJECT_PTR
  0
ACAD_PROXY_OBJECT
  5
1AD6E
102
{ACAD_REACTORS
330
1AD60
102
}
330
1AD60
100
AcDbProxyObject
 90
      499
 91
      797
 95
   131099
 70
     0
 93
        1
310
4C
 94
        0
1001
DCO15
1000
jet_dbsamples..."nazwy przegrod pl"(_nazwy_przegrod_pl_Link1)
1000
IDENTYFIKATOR
1000

1000

1070
     4
1070
     0
1070
     0
1070
     0
1070
  1024
1001
ACAD
1000
AcRTDxfName
1000
OBJECT_PTR
  0
ACAD_PROXY_OBJECT
  5
1AD6D
102
{ACAD_REACTORS
330
1AD60
102
}
330
1AD60
100
AcDbProxyObject
 90
      499
 91
      797
 95
   131099
 70
     0
 93
        1
310
4C
 94
        0
1001
DCO15
1000
jet_dbsamples..."nazwy rysunkow"(_nazwy_rysunkow_Arial37)
1000
IDENTYFIKATOR
1000

1000

1070
     4
1070
     0
1070
     0
1070
     0
1070
  1024
1001
ACAD
1000
AcRTDxfName
1000
OBJECT_PTR
  0
ACAD_PROXY_OBJECT
  5
1AD6C
102
{ACAD_REACTORS
330
1AD60
102
}
330
1AD60
100
AcDbProxyObject
 90
      499
 91
      797
 95
   131099
 70
     0
 93
        1
310
4C
 94
        0
1001
DCO15
1000
jet_dbsamples..."opisy rozne II"(_opisy_rozne_II_Link1)
1000
"opis różny"
1000
1250
1000
ASCII
1070
    12
1070
   200
1070
     0
1070
     0
1070
  1024
1001
ACAD
1000
AcRTDxfName
1000
OBJECT_PTR
  0
ACAD_PROXY_OBJECT
  5
1AD6B
102
{ACAD_REACTORS
330
1AD60
102
}
330
1AD60
100
AcDbProxyObject
 90
      499
 91
      797
 95
   131099
 70
     0
 93
        1
310
4C
 94
        0
1001
DCO15
1000
jet_dbsamples..."opisy rozne II"(_opisy_rozne_II_Link2)
1000
IDENTYFIKATOR
1000

1000

1070
     4
1070
     0
1070
     0
1070
     0
1070
  1024
1001
ACAD
1000
AcRTDxfName
1000
OBJECT_PTR
  0
ACAD_PROXY_OBJECT
  5
1AD6A
102
{ACAD_REACTORS
330
1AD60
102
}
330
1AD60
100
AcDbProxyObject
 90
      499
 91
      797
 95
   131099
 70
     0
 93
        1
310
4C
 94
        0
1001
DCO15
1000
jet_dbsamples..."posadzki do zestawienia pomieszczen"(_posadzki_do_zestawienia_pomieszczen_Link1)
1000
IDENTYFIKATOR
1000

1000

1070
     4
1070
     0
1070
     0
1070
     0
1070
  1024
1001
ACAD
1000
AcRTDxfName
1000
OBJECT_PTR
  0
ACAD_PROXY_OBJECT
  5
1AD69
102
{ACAD_REACTORS
330
1AD60
102
}
330
1AD60
100
AcDbProxyObject
 90
      499
 91
      797
 95
   131099
 70
     0
 93
        1
310
4C
 94
        0
1001
DCO15
1000
jet_dbsamples..."rozne opisy rys"(_rozne_opisy_rys_Link1)
1000
IDENTYFIKATOR
1000

1000

1070
     4
1070
     0
1070
     0
1070
     0
1070
  1024
1001
ACAD
1000
AcRTDxfName
1000
OBJECT_PTR
  0
ACAD_PROXY_OBJECT
  5
1AD68
102
{ACAD_REACTORS
330
1AD60
102
}
330
1AD60
100
AcDbProxyObject
 90
      499
 91
      797
 95
   131099
 70
     0
 93
        1
310
4C
 94
        0
1001
DCO15
1000
jet_dbsamples..."tabelka - inform i etykiety"(_tabelka_-_inform_i_etykiety_Link1)
1000
IDENTYFIKATOR
1000

1000

1070
     4
1070
     0
1070
     0
1070
     0
1070
  1024
1001
ACAD
1000
AcRTDxfName
1000
OBJECT_PTR
  0
ACAD_PROXY_OBJECT
  5
1AD67
102
{ACAD_REACTORS
330
1AD60
102
}
330
1AD60
100
AcDbProxyObject
 90
      499
 91
      797
 95
   131099
 70
     0
 93
        1
310
4C
 94
        0
1001
DCO15
1000
jet_dbsamples..."uwagi ogolne na arkuszu"(_uwagi_ogolne_na_arkuszu_Link1)
1000
IDENTYFIKATOR
1000

1000

1070
     4
1070
     0
1070
     0
1070
     0
1070
  1024
1001
ACAD
1000
AcRTDxfName
1000
OBJECT_PTR
  0
ACAD_PROXY_OBJECT
  5
1AD66
102
{ACAD_REACTORS
330
1AD60
102
}
330
1AD60
100
AcDbProxyObject
 90
      499
 91
      797
 95
   131099
 70
     0
 93
        1
310
4C
 94
        0
1001
DCO15
1000
jet_dbsamples...ALFABET(ALFABETLink1)
1000
IDENTYFIKATOR
1000

1000

1070
     4
1070
     0
1070
     0
1070
     0
1070
  1024
1001
ACAD
1000
AcRTDxfName
1000
OBJECT_PTR
  0
ACAD_PROXY_OBJECT
  5
1AD65
102
{ACAD_REACTORS
330
1AD60
102
}
330
1AD60
100
AcDbProxyObject
 90
      499
 91
      797
 95
   131099
 70
     0
 93
        1
310
4C
 94
        0
1001
DCO15
1000
jet_dbsamples...jednostki(jednostkiLink1)
1000
IDENTYFIKATOR
1000

1000

1070
     4
1070
     0
1070
     0
1070
     0
1070
  1024
1001
ACAD
1000
AcRTDxfName
1000
OBJECT_PTR
  0
ACAD_PROXY_OBJECT
  5
1AD64
102
{ACAD_REACTORS
330
1AD60
102
}
330
1AD60
100
AcDbProxyObject
 90
      499
 91
      797
 95
   131099
 70
     0
 93
        1
310
4C
 94
        0
1001
DCO15
1000
jet_dbsamples...miesiace(miesiaceLink1)
1000
IDENTYFIKATOR
1000

1000

1070
     4
1070
     0
1070
     0
1070
     0
1070
  1024
1001
ACAD
1000
AcRTDxfName
1000
OBJECT_PTR
  0
ACAD_PROXY_OBJECT
  5
1AD63
102
{ACAD_REACTORS
330
1AD60
102
}
330
1AD60
100
AcDbProxyObject
 90
      499
 91
      797
 95
   131099
 70
     0
 93
        1
310
4C
 94
        0
1001
DCO15
1000
jet_dbsamples...pomieszczenia(pomieszczeniaLink1)
1000
IDENTYFIKATOR
1000

1000

1070
     4
1070
     0
1070
     0
1070
     0
1070
  1024
1001
ACAD
1000
AcRTDxfName
1000
OBJECT_PTR
  0
ACAD_PROXY_OBJECT
  5
1AD62
102
{ACAD_REACTORS
330
1AD60
102
}
330
1AD60
100
AcDbProxyObject
 90
      499
 91
      797
 95
   131099
 70
     0
 93
        1
310
4C
 94
        0
1001
DCO15
1000
jet_dbsamples...stolarka(stolarkaLink1)
1000
IDENTYFIKATOR
1000

1000

1070
     4
1070
     0
1070
     0
1070
     0
1070
  1024
1001
ACAD
1000
AcRTDxfName
1000
OBJECT_PTR
  0
ACAD_PROXY_OBJECT
  5
1AD61
102
{ACAD_REACTORS
330
1AD60
102
}
330
1AD60
100
AcDbProxyObject
 90
      499
 91
      797
 95
   131099
 70
     0
 93
        1
310
4C
 94
        0
1001
DCO15
1000
jet_dbsamples...tbl_PRZEGRODY(tbl_PRZEGRODYLink1)
1000
IDENTYFIKATOR
1000

1000

1070
     4
1070
     0
1070
     0
1070
     0
1070
  1024
1001
ACAD
1000
AcRTDxfName
1000
OBJECT_PTR
  0
DICTIONARY
  5
1BD9B
330
10
100
AcDbDictionary
280
     1
281
     1
  3
ACAD_XREC_ROUNDTRIP
360
1BD9C
  0
DICTIONARY
  5
1BD99
330
A
100
AcDbDictionary
280
     1
281
     1
  3
ACAD_XREC_ROUNDTRIP
360
1BD9A
  0
DICTIONARY
  5
1BDA0
330
172B
100
AcDbDictionary
280
     1
281
     1
  3
ACAD_XREC_ROUNDTRIP
360
1BDA1
  0
DICTIONARY
  5
1BD9E
330
172A
100
AcDbDictionary
280
     1
281
     1
  3
ACAD_XREC_ROUNDTRIP
360
1BD9F
  0
DICTIONARY
  5
139CD
330
139CC
100
AcDbDictionary
280
     1
281
     1
  3
ACAD_XREC_ROUNDTRIP
360
1BDA4
  3
VIZ XML Material Definition
360
139CE
  0
DICTIONARY
  5
1BDA2
330
172C
100
AcDbDictionary
280
     1
281
     1
  3
ACAD_XREC_ROUNDTRIP
360
1BDA3
  0
DICTIONARY
  5
17229
330
DF3
100
AcDbDictionary
280
     1
281
     1
  3
ACAD_ROUNDTRIP_2008_TABLESTYLE_CELLSTYLEMAP
360
1BD97
  3
ACAD_XREC_ROUNDTRIP
360
1BD9D
  0
BINRECORD
  5
830B
102
{ACAD_REACTORS
330
830A
102
}
330
830A
100
AcAecBinRecord
 90
        0
 91
    19403
 70
     0
310
0100FFFEFF0D4100490041002000560065007200730069006F006E00200033000500FFFF01001C004163416563556B4C6179657244657363726970746976654669656C64FFFEFF154400690073006300690070006C0069006E0065002000440065007300690067006E00610074006F0072000102000000007B333637354541
310
46100100002100000070BA406CD0EA76040B00FFFEFF001500FFFEFF01440002000000FFFEFF07500072006F0063006500730073000E00FFFEFF01440002000000FFFEFF12500072006F0063006500730073002000440065006D006F006C006900740069006F006E00000000000000FFFEFF01560002000000FFFEFF0E5000
310
72006F0063006500730073002000560061006300750075006D00000000000000FFFEFF01450002000000FFFEFF12500072006F006300650073007300200045006C0065006300740072006900630061006C00000000000000FFFEFF01570002000000FFFEFF0E500072006F0063006500730073002000570061007400650072
310
007300000000000000FFFEFF01580002000000FFFEFF0F500072006F00630065007300730020004500780068006100750073007400000000000000FFFEFF01470002000000FFFEFF0D500072006F006300650073007300200047006100730065007300000000000000FFFEFF014F0002000000FFFEFF0B500072006F006300
310
65007300730020004F0069006C00000000000000FFFEFF01500002000000FFFEFF0E500072006F006300650073007300200050006900700069006E006700000000000000FFFEFF01510002000000FFFEFF11500072006F0063006500730073002000450071007500690070006D0065006E007400000000000000FFFEFF0152
310
0002000000FFFEFF19500072006F006300650073007300200044007200610069006E0073002000260020005200650063006C00610069006D007300000000000000FFFEFF01410002000000FFFEFF0C500072006F00630065007300730020004100690072007300000000000000FFFEFF01530002000000FFFEFF0C50007200
310
6F00630065007300730020005300690074006500000000000000FFFEFF01540002000000FFFEFF18500072006F006300650073007300200045006E0074007200610069006E0065006400200053006F006C00690064007300000000000000FFFEFF01430002000000FFFEFF11500072006F0063006500730073002000430068
310
0065006D006900630061006C00730000000000000000000000FFFEFF01560002000000FFFEFF1053007500720076006500790020002F0020004D0061007000700069006E0067000500FFFEFF01460002000000FFFEFF0C4600690065006C0064002000530075007200760065007900000000000000FFFEFF01490002000000
310
FFFEFF0E4400690067006900740061006C002000530075007200760065007900000000000000FFFEFF014A0002000000FFFEFF1F53007500720076006500790020002F0020004D0061007000700069006E006700200028005500730065007200200044006500660069006E00650064002900000000000000FFFEFF014B0002
310
000000FFFEFF1F53007500720076006500790020002F0020004D0061007000700069006E006700200028005500730065007200200044006500660069006E00650064002900000000000000FFFEFF01410002000000FFFEFF0D410065007200690061006C00200053007500720076006500790000000000000000000000FFFE
310
FF01450002000000FFFEFF0A45006C0065006300740072006900630061006C000900FFFEFF01440002000000FFFEFF1545006C0065006300740072006900630061006C002000440065006D006F006C006900740069006F006E00000000000000FFFEFF01590002000000FFFEFF1C45006C0065006300740072006900630061
310
006C00200041007500780069006C0069006100720079002000530079007300740065006D007300000000000000FFFEFF01490002000000FFFEFF1A45006C0065006300740072006900630061006C00200049006E0073007400720075006D0065006E0074006100740069006F006E00000000000000FFFEFF014A0002000000
310
FFFEFF1945006C0065006300740072006900630061006C00200028005500730065007200200044006500660069006E00650064002900000000000000FFFEFF014B0002000000FFFEFF1945006C0065006300740072006900630061006C00200028005500730065007200200044006500660069006E00650064002900000000
310
000000FFFEFF014C0002000000FFFEFF1345006C0065006300740072006900630061006C0020004C00690067006800740069006E006700000000000000FFFEFF01500002000000FFFEFF1045006C0065006300740072006900630061006C00200050006F00770065007200000000000000FFFEFF01530002000000FFFEFF0F
310
45006C0065006300740072006900630061006C0020005300690074006500000000000000FFFEFF01540002000000FFFEFF1D45006C0065006300740072006900630061006C002000540065006C00650063006F006D006D0075006E00690063006100740069006F006E00730000000000000000000000FFFEFF015700020000
310
00FFFEFF0B43006900760069006C00200057006F0072006B0073000200FFFEFF014A0002000000FFFEFF1A43006900760069006C00200057006F0072006B007300200028005500730065007200200044006500660069006E00650064002900000000000000FFFEFF014B0002000000FFFEFF1A43006900760069006C002000
310
57006F0072006B007300200028005500730065007200200044006500660069006E0065006400290000000000000000000000FFFEFF01460002000000FFFEFF0F46006900720065002000500072006F00740065006300740069006F006E000400FFFEFF014A0002000000FFFEFF134600690072006500200028005500730065
310
007200200044006500660069006E00650064002900000000000000FFFEFF014B0002000000FFFEFF134600690072006500200028005500730065007200200044006500660069006E00650064002900000000000000FFFEFF01410002000000FFFEFF184600690072006500200044006500740065006300740069006F006E00
310
200061006E006400200041006C00610072006D00000000000000FFFEFF01530002000000FFFEFF10460069007200650020005300750070007000720065007300730069006F006E0000000000000000000000FFFEFF01470002000000FFFEFF07470065006E006500720061006C000500FFFEFF01490002000000FFFEFF1347
310
0065006E006500720061006C00200049006E0066006F0072006D006100740069006F006E00000000000000FFFEFF014A0002000000FFFEFF16470065006E006500720061006C00200028005500730065007200200044006500660069006E00650064002900000000000000FFFEFF014B0002000000FFFEFF16470065006E00
310
6500720061006C00200028005500730065007200200044006500660069006E00650064002900000000000000FFFEFF01520002000000FFFEFF10470065006E006500720061006C0020005200650073006F007500720063006500000000000000FFFEFF01430002000000FFFEFF13470065006E006500720061006C00200043
310
006F006E0074007200610063007400750061006C0000000000000000000000FFFEFF01580002000000FFFEFF114F00740068006500720020004400690073006300690070006C0069006E00650073000200FFFEFF014A0002000000FFFEFF204F00740068006500720020004400690073006300690070006C0069006E006500
310
7300200028005500730065007200200044006500660069006E00650064002900000000000000FFFEFF014B0002000000FFFEFF204F00740068006500720020004400690073006300690070006C0069006E0065007300200028005500730065007200200044006500660069006E0065006400290000000000000000000000FF
310
FEFF01480002000000FFFEFF13480061007A006100720064006F007500730020004D006100740065007200690061006C0073000700FFFEFF014A0002000000FFFEFF22480061007A006100720064006F007500730020004D006100740065007200690061006C00730020002800550073006500720020004400650066006900
310
6E00650064002900000000000000FFFEFF014B0002000000FFFEFF22480061007A006100720064006F007500730020004D006100740065007200690061006C007300200028005500730065007200200044006500660069006E00650064002900000000000000FFFEFF014C0002000000FFFEFF044C00650061006400000000
310
000000FFFEFF01500002000000FFFEFF03500043004200000000000000FFFEFF01520002000000FFFEFF0C5200650066007200690067006500720061006E0074007300000000000000FFFEFF01410002000000FFFEFF084100730062006500730074006F007300000000000000FFFEFF01430002000000FFFEFF0943006800
310
65006D006900630061006C00730000000000000000000000FFFEFF01490002000000FFFEFF0949006E0074006500720069006F00720073000600FFFEFF01440002000000FFFEFF1349006E0074006500720069006F0072002000440065006D006F006C006900740069006F006E00000000000000FFFEFF01460002000000FF
310
FEFF1149006E0074006500720069006F0072002000460069006E0069007300680065007300000000000000FFFEFF01470002000000FFFEFF1249006E0074006500720069006F0072007300200047007200610070006800690063007300000000000000FFFEFF014A0002000000FFFEFF1849006E0074006500720069006F00
310
72007300200028005500730065007200200044006500660069006E00650064002900000000000000FFFEFF014B0002000000FFFEFF1849006E0074006500720069006F0072007300200028005500730065007200200044006500660069006E00650064002900000000000000FFFEFF014E0002000000FFFEFF0F49006E0074
310
006500720069006F0072002000440065007300690067006E0000000000000000000000FFFEFF015A0002000000FFFEFF1A43006F006E00740072006100630074006F00720020002F002000530068006F0070002000440072006100770069006E00670073000200FFFEFF014A0002000000FFFEFF2943006F006E0074007200
310
6100630074006F00720020002F002000530068006F0070002000440072006100770069006E0067007300200028005500730065007200200044006500660069006E00650064002900000000000000FFFEFF014B0002000000FFFEFF2943006F006E00740072006100630074006F00720020002F002000530068006F00700020
310
00440072006100770069006E0067007300200028005500730065007200200044006500660069006E0065006400290000000000000000000000FFFEFF014C0002000000FFFEFF094C0061006E006400730063006100700065000500FFFEFF01440002000000FFFEFF144C0061006E0064007300630061007000650020004400
310
65006D006F006C006900740069006F006E00000000000000FFFEFF01490002000000FFFEFF144C0061006E006400730063006100700065002000490072007200690067006100740069006F006E00000000000000FFFEFF014A0002000000FFFEFF184C0061006E006400730063006100700065002000280055007300650072
310
00200044006500660069006E00650064002900000000000000FFFEFF014B0002000000FFFEFF184C0061006E00640073006300610070006500200028005500730065007200200044006500660069006E00650064002900000000000000FFFEFF01500002000000FFFEFF124C0061006E006400730063006100700065002000
310
50006C0061006E00740069006E00670000000000000000000000FFFEFF014D0002000000FFFEFF0A4D0065006300680061006E006900630061006C000700FFFEFF01440002000000FFFEFF154D0065006300680061006E006900630061006C002000440065006D006F006C006900740069006F006E00000000000000FFFEFF
310
01480002000000FFFEFF0F4D0065006300680061006E006900630061006C0020004800560041004300000000000000FFFEFF01490002000000FFFEFF1A4D0065006300680061006E006900630061006C00200049006E0073007400720075006D0065006E0074006100740069006F006E00000000000000FFFEFF014A000200
310
0000FFFEFF194D0065006300680061006E006900630061006C00200028005500730065007200200044006500660069006E00650064002900000000000000FFFEFF014B0002000000FFFEFF194D0065006300680061006E006900630061006C00200028005500730065007200200044006500660069006E0065006400290000
310
0000000000FFFEFF01500002000000FFFEFF114D0065006300680061006E006900630061006C00200050006900700069006E006700000000000000FFFEFF01530002000000FFFEFF0F4D0065006300680061006E006900630061006C002000530069007400650000000000000000000000FFFEFF014F0002000000FFFEFF0A
310
4F007000650072006100740069006F006E0073000200FFFEFF014A0002000000FFFEFF194F007000650072006100740069006F006E007300200028005500730065007200200044006500660069006E00650064002900000000000000FFFEFF014B0002000000FFFEFF194F007000650072006100740069006F006E00730020
310
0028005500730065007200200044006500660069006E0065006400290000000000000000000000FFFEFF01500002000000FFFEFF0850006C0075006D00620069006E0067000600FFFEFF01440002000000FFFEFF1350006C0075006D00620069006E0067002000440065006D006F006C006900740069006F006E0000000000
310
0000FFFEFF014A0002000000FFFEFF1750006C0075006D00620069006E006700200028005500730065007200200044006500660069006E00650064002900000000000000FFFEFF014B0002000000FFFEFF1750006C0075006D00620069006E006700200028005500730065007200200044006500660069006E006500640029
310
00000000000000FFFEFF01500002000000FFFEFF0F50006C0075006D00620069006E006700200050006900700069006E006700000000000000FFFEFF01510002000000FFFEFF1250006C0075006D00620069006E0067002000450071007500690070006D0065006E007400000000000000FFFEFF01530002000000FFFEFF0D
310
50006C0075006D00620069006E0067002000530069007400650000000000000000000000FFFEFF01510002000000FFFEFF09450071007500690070006D0065006E0074001100FFFEFF01440002000000FFFEFF1344006500740065006E00740069006F006E002000450071007500690070006D0065006E0074000000000000
310
00FFFEFF01560002000000FFFEFF1C56006900640065006F002F00500068006F0074006F0067007200610070006800690063002000450071007500690070006D0065006E007400000000000000FFFEFF01450002000000FFFEFF1545006400750063006100740069006F006E0061006C002000450071007500690070006D00
310
65006E007400000000000000FFFEFF01460002000000FFFEFF1646006F006F006400200053006500720076006900630065002000450071007500690070006D0065006E007400000000000000FFFEFF01590002000000FFFEFF12530065006300750072006900740079002000450071007500690070006D0065006E00740000
310
0000000000FFFEFF01480002000000FFFEFF1248006F00730070006900740061006C002000450071007500690070006D0065006E007400000000000000FFFEFF014A0002000000FFFEFF18450071007500690070006D0065006E007400200028005500730065007200200044006500660069006E0065006400290000000000
310
0000FFFEFF014B0002000000FFFEFF18450071007500690070006D0065006E007400200028005500730065007200200044006500660069006E00650064002900000000000000FFFEFF014C0002000000FFFEFF144C00610062006F007200610074006F00720079002000450071007500690070006D0065006E007400000000
310
000000FFFEFF014D0002000000FFFEFF154D00610069006E00740065006E0061006E00630065002000450071007500690070006D0065006E007400000000000000FFFEFF01500002000000FFFEFF155000610072006B0069006E00670020004C006F0074002000450071007500690070006D0065006E007400000000000000
310
FFFEFF01520002000000FFFEFF10520065007400610069006C002000450071007500690070006D0065006E007400000000000000FFFEFF01410002000000FFFEFF124100740068006C0065007400690063002000450071007500690070006D0065006E007400000000000000FFFEFF01530002000000FFFEFF0E5300690074
310
0065002000450071007500690070006D0065006E007400000000000000FFFEFF01420002000000FFFEFF0E420061006E006B002000450071007500690070006D0065006E007400000000000000FFFEFF01540002000000FFFEFF145400680065006100740072006900630061006C002000450071007500690070006D006500
310
6E007400000000000000FFFEFF01430002000000FFFEFF16440072007900200043006C00650061006E0069006E0067002000450071007500690070006D0065006E00740000000000000000000000FFFEFF01410002000000FFFEFF0D4100720063006800690074006500630074007500720061006C000A00FFFEFF01440002
310
000000FFFEFF184100720063006800690074006500630074007500720061006C002000440065006D006F006C006900740069006F006E00000000000000FFFEFF01450002000000FFFEFF164100720063006800690074006500630074007500720061006C00200045006C0065006D0065006E0074007300000000000000FFFE
310
FF01460002000000FFFEFF164100720063006800690074006500630074007500720061006C002000460069006E0069007300680065007300000000000000FFFEFF01470002000000FFFEFF164100720063006800690074006500630074007500720061006C00200047007200610070006800690063007300000000000000FF
310
FEFF01490002000000FFFEFF164100720063006800690074006500630074007500720061006C00200049006E0074006500720069006F007200000000000000FFFEFF014A0002000000FFFEFF1C4100720063006800690074006500630074007500720061006C00200028005500730065007200200044006500660069006E00
310
650064002900000000000000FFFEFF014B0002000000FFFEFF1C4100720063006800690074006500630074007500720061006C00200028005500730065007200200044006500660069006E00650064002900000000000000FFFEFF01500002000000FFFEFF144100720063006800690074006500630074007500720061006C
310
00200050006100760069006E006700000000000000FFFEFF01530002000000FFFEFF124100720063006800690074006500630074007500720061006C0020005300690074006500000000000000FFFEFF01540002000000FFFEFF1C4100720063006800690074006500630074007500720061006C0020005400720061006E00
310
730070006F00720074006100740069006F006E0000000000000001000000FFFEFF01520002000000FFFEFF085200650073006F0075007200630065000700FFFEFF01450002000000FFFEFF135200650073006F007500720063006500200045006C0065006300740072006900630061006C00000000000000FFFEFF014A0002
310
000000FFFEFF175200650073006F007500720063006500200028005500730065007200200044006500660069006E00650064002900000000000000FFFEFF014B0002000000FFFEFF175200650073006F007500720063006500200028005500730065007200200044006500660069006E00650064002900000000000000FFFE
310
FF014D0002000000FFFEFF135200650073006F00750072006300650020004D0065006300680061006E006900630061006C00000000000000FFFEFF01410002000000FFFEFF165200650073006F00750072006300650020004100720063006800690074006500630074007500720061006C00000000000000FFFEFF01530002
310
000000FFFEFF135200650073006F00750072006300650020005300740072007500630074007500720061006C00000000000000FFFEFF01430002000000FFFEFF0E5200650073006F007500720063006500200043006900760069006C0000000000000000000000FFFEFF01420002000000FFFEFF0C470065006F0074006500
310
630068006E006900630061006C000200FFFEFF014A0002000000FFFEFF1B470065006F0074006500630068006E006900630061006C00200028005500730065007200200044006500660069006E00650064002900000000000000FFFEFF014B0002000000FFFEFF1B470065006F0074006500630068006E006900630061006C
310
00200028005500730065007200200044006500660069006E0065006400290000000000000000000000FFFEFF01530002000000FFFEFF0A5300740072007500630074007500720061006C000600FFFEFF01440002000000FFFEFF155300740072007500630074007500720061006C002000440065006D006F006C0069007400
310
69006F006E00000000000000FFFEFF01460002000000FFFEFF125300740072007500630074007500720061006C0020004600720061006D0069006E006700000000000000FFFEFF014A0002000000FFFEFF195300740072007500630074007500720061006C00200028005500730065007200200044006500660069006E0065
310
0064002900000000000000FFFEFF014B0002000000FFFEFF195300740072007500630074007500720061006C00200028005500730065007200200044006500660069006E00650064002900000000000000FFFEFF01530002000000FFFEFF0F5300740072007500630074007500720061006C00200053006900740065000000
310
00000000FFFEFF01420002000000FFFEFF175300740072007500630074007500720061006C00200053007500620073007400720075006300740075007200650000000000000000000000FFFEFF01430002000000FFFEFF0543006900760069006C000900FFFEFF01440002000000FFFEFF1043006900760069006C00200044
310
0065006D006F006C006900740069006F006E00000000000000FFFEFF01550002000000FFFEFF0F43006900760069006C0020005500740069006C0069007400690065007300000000000000FFFEFF01470002000000FFFEFF0D43006900760069006C002000470072006100640069006E006700000000000000FFFEFF014900
310
02000000FFFEFF1243006900760069006C00200049006D00700072006F00760065006D0065006E0074007300000000000000FFFEFF014A0002000000FFFEFF1443006900760069006C00200028005500730065007200200044006500660069006E00650064002900000000000000FFFEFF014B0002000000FFFEFF14430069
310
00760069006C00200028005500730065007200200044006500660069006E00650064002900000000000000FFFEFF01500002000000FFFEFF0C43006900760069006C00200050006100760069006E006700000000000000FFFEFF01530002000000FFFEFF0A43006900760069006C0020005300690074006500000000000000
310
FFFEFF01540002000000FFFEFF1443006900760069006C0020005400720061006E00730070006F00720074006100740069006F006E0000000000000000000000FFFEFF01540002000000FFFEFF12540065006C00650063006F006D006D0075006E00690063006100740069006F006E0073000900FFFEFF01590002000000FF
310
FEFF0853006500630075007200690074007900000000000000FFFEFF01490002000000FFFEFF0849006E0074006500720063006F006D00000000000000FFFEFF014A0002000000FFFEFF21540065006C00650063006F006D006D0075006E00690063006100740069006F006E00730020002800550073006500720020004400
310
6500660069006E00650064002900000000000000FFFEFF014B0002000000FFFEFF21540065006C00650063006F006D006D0075006E00690063006100740069006F006E007300200028005500730065007200200044006500660069006E00650064002900000000000000FFFEFF014D0002000000FFFEFF0A4D006F006E0069
310
0074006F00720069006E006700000000000000FFFEFF014E0002000000FFFEFF0D440061007400610020004E006500740077006F0072006B007300000000000000FFFEFF01410002000000FFFEFF0E41007500640069006F0020002F002000560069007300750061006C00000000000000FFFEFF01540002000000FFFEFF09
310
540065006C006500700068006F006E006500000000000000FFFEFF01430002000000FFFEFF1143006C006F0063006B00200061006E0064002000500072006F006700720061006D00000000000000000000000180FFFEFF054D0061006A006F0072000300000000000000000000000000000000000000000000000000000000
310
000000FFFEFF002300FFFEFF052D0046006C006F00720002000000FFFEFF0546006C006F006F007200000000000000FFFEFF052D004500710070006D0002000000FFFEFF09450071007500690070006D0065006E007400000000000000FFFEFF052D00530069007400650002000000FFFEFF09530069007400650020007000
310
6C0061006E00000000000000FFFEFF052D0050006C0061006E0002000000FFFEFF154B0065007900200070006C0061006E002000280066006C006F006F007200200070006C0061006E002900000000000000FFFEFF052D004400650074006C0002000000FFFEFF06440065007400610069006C00000000000000FFFEFF052D
310
0054006F0070006F0002000000FFFEFF0A54006F0070006F00670072006100700068007900000000000000FFFEFF052D004300740072006C0002000000FFFEFF0E43006F006E00740072006F006C00200050006F0069006E0074007300000000000000FFFEFF052D004600750072006E0002000000FFFEFF0B460075007200
310
6E0069007300680069006E0067007300000000000000FFFEFF052D0053006C006100620002000000FFFEFF0553006C00610062007300000000000000FFFEFF052D0050006F006C00790002000000FFFEFF0850006F006C00790067006F006E007300000000000000FFFEFF052D0043006F006D006D0002000000FFFEFF1254
310
0065006C00650063006F006D006D0075006E00690063006100740069006F006E007300000000000000FFFEFF052D00570061006C006C0002000000FFFEFF05570061006C006C007300000000000000FFFEFF052D0047006C0061007A0002000000FFFEFF0747006C0061007A0069006E006700000000000000FFFEFF052D00
310
410072006500610002000000FFFEFF044100720065006100000000000000FFFEFF052D0043006F006400650002000000FFFEFF1443006F0064006500200063006F006D0070006C00690061006E0063006500200070006C0061006E00000000000000FFFEFF052D005300740072006D0002000000FFFEFF0844007200610069
310
006E00610067006500000000000000FFFEFF052D0044006F006F00720002000000FFFEFF0544006F006F0072007300000000000000FFFEFF052D0041006E006E006F0002000000FFFEFF0A41006E006E006F0074006100740069006F006E00000000000000FFFEFF052D004200650061006D0002000000FFFEFF0542006500
310
61006D007300000000000000FFFEFF052D004C0069007400650002000000FFFEFF114C00690067006800740069006E006700200066006900780074007500720065007300000000000000FFFEFF052D00480056004100430002000000FFFEFF044800560041004300000000000000FFFEFF052D004100630063007300020000
310
00FFFEFF0B410063006300650073007300200070006C0061006E00000000000000FFFEFF052D0043006F006C00730002000000FFFEFF0743006F006C0075006D006E007300000000000000FFFEFF052D0043006C006E00670002000000FFFEFF074300650069006C0069006E006700000000000000FFFEFF052D0045007600
310
6100630002000000FFFEFF0F450076006100630075006100740069006F006E00200070006C0061006E00000000000000FFFEFF052D0043006F006E00760002000000FFFEFF1143006F006E0076006500790069006E0067002000730079007300740065006D007300000000000000FFFEFF052D005300650063007400020000
310
00FFFEFF07530065006300740069006F006E00000000000000FFFEFF052D00500072006F00700002000000FFFEFF08500072006F0070006500720074007900000000000000FFFEFF052D0052006F006F00660002000000FFFEFF0452006F006F006600000000000000FFFEFF052D0045006C006500630002000000FFFEFF0A
310
45006C0065006300740072006900630061006C00000000000000FFFEFF052D00470072006900640002000000FFFEFF0A470072006900640020006C0069006E0065007300000000000000FFFEFF052D00540069006E006E0002000000FFFEFF1E54007200690061006E00670075006C00610074006500640020006900720072
310
006500670075006C006100720020006E006500740077006F0072006B00000000000000FFFEFF052D00500072006F00740002000000FFFEFF1646006900720065002000700072006F00740065006300740069006F006E002000730079007300740065006D00000000000000FFFEFF052D00460069007200650002000000FFFE
310
FF1446006900720065002000700072006F00740065006300740069006F006E00200070006C0061006E00000000000000FFFEFF052D0045006C006500760002000000FFFEFF0945006C00650076006100740069006F006E000000000000000180FFFEFF074D0069006E006F00720020003100040000000000000000F00E7704
310
00000000000000000000000000000000F00000FFFEFF006A00FFFEFF052D00410062006F00760002000000FFFEFF0E45006C0065006D0065006E00740073002000610062006F0076006500000000000000FFFEFF052D005400610062006C0002000000FFFEFF0B440061007400610020007400610062006C00650073000000
310
00000000FFFEFF052D00420064007200790002000000FFFEFF0842006F0075006E006400610072007900000000000000FFFEFF052D004500710070006D0002000000FFFEFF09450071007500690070006D0065006E007400000000000000FFFEFF052D0043006E007400720002000000FFFEFF0A430065006E007400650072
310
006C0069006E006500000000000000FFFEFF052D0057006B007300660002000000FFFEFF1E530079007300740065006D00200077006F0072006B0020007300750072006600610063006500200063006F006D0070006F006E0065006E0074007300000000000000FFFEFF052D00420072006E00670002000000FFFEFF1A4200
310
65006100720069006E0067007300200026002000640069007300740061006E006300650020006C006100620065006C007300000000000000FFFEFF052D00530077006300680002000000FFFEFF0853007700690074006300680065007300000000000000FFFEFF052D005400680069006E0002000000FFFEFF195400680069
310
006E0020007700650069006700680074002000670072006100700068006900630020006C0069006E0065007300000000000000FFFEFF052D00520061006900730002000000FFFEFF06520061006900730065006400000000000000FFFEFF052D004F00700065006E0002000000FFFEFF084F00700065006E0069006E006700
310
7300000000000000FFFEFF052D004E0070006C00740002000000FFFEFF204E006F006E002D0070006C006F007400740069006E00670020006700720061007000680069006300200069006E0066006F0072006D006100740069006F006E00000000000000FFFEFF052D00500072006F00660002000000FFFEFF08500072006F
310
00660069006C0065007300000000000000FFFEFF052D005200650066006C0002000000FFFEFF0E5200650066006C0065006300740065006400200050006C0061006E00000000000000FFFEFF052D00460069006E00650002000000FFFEFF19460069006E006500200077006500690067006800740020006700720061007000
310
68006900630020006C0069006E0065007300000000000000FFFEFF052D004100700070006C0002000000FFFEFF0A4100700070006C00690061006E00630065007300000000000000FFFEFF052D00440069006D00730002000000FFFEFF0A440069006D0065006E00730069006F006E007300000000000000FFFEFF052D0050
310
006F007700720002000000FFFEFF0550006F00770065007200000000000000FFFEFF052D0053006C006100620002000000FFFEFF0553006C00610062007300000000000000FFFEFF052D0043006F006E006E0002000000FFFEFF0B43006F006E006E0065006300740069006F006E007300000000000000FFFEFF052D005700
310
61006C006C0002000000FFFEFF05570061006C006C007300000000000000FFFEFF052D004100730073006D0002000000FFFEFF0A41007300730065006D0062006C00690065007300000000000000FFFEFF052D005600680063006C0002000000FFFEFF08560065006800690063006C0065007300000000000000FFFEFF052D
310
0043006F006D006D0002000000FFFEFF1A540065006C006500700068006F006E0065002C00200063006F006D006D0075006E00690063006100740069006F006E0073002000000000000000FFFEFF052D00460072006500650002000000FFFEFF0C46007200650065007300740061006E00640069006E006700000000000000
310
FFFEFF052D00530079006D00620002000000FFFEFF07530079006D0062006F006C007300000000000000FFFEFF052D00520064006D00650002000000FFFEFF1B52006500610064002D006D00650020006C006100790065007200200028006E006F007400200070006C006F0074007400650064002900000000000000FFFEFF
310
052D0053006C006300650002000000FFFEFF0653006C006900630065007300000000000000FFFEFF052D00460061007300630002000000FFFEFF074600610073006300690061007300000000000000FFFEFF052D00460069006C00650002000000FFFEFF0D460069006C006500200063006100620069006E00650074007300
310
000000000000FFFEFF052D004D00610073006B0002000000FFFEFF1241004400540020004D00610073006B0069006E00670020004F0062006A00650063007400000000000000FFFEFF052D004A0061006D00620002000000FFFEFF1544006F006F007200200061006E0064002000770069006E0064006F00770020006A0061
310
006D0062007300000000000000FFFEFF052D005300690067006E0002000000FFFEFF055300690067006E007300000000000000FFFEFF052D0046006E007300680002000000FFFEFF08460069006E0069007300680065007300000000000000FFFEFF052D00530063006800640002000000FFFEFF0953006300680065006400
310
75006C0065007300000000000000FFFEFF052D00500072006800740002000000FFFEFF0E5000610072007400690061006C002000680065006900670068007400000000000000FFFEFF052D00470072007000730002000000FFFEFF06470072006F00750070007300000000000000FFFEFF052D00540068006C006400020000
310
00FFFEFF0A5400680072006500730068006F006C0064007300000000000000FFFEFF052D005300630072006E0002000000FFFEFF14530063007200650065006E006500640020004200610063006B00670072006F0075006E0064007300000000000000FFFEFF052D0043006F006D00700002000000FFFEFF1349006E007400
310
650072006E0061006C00200063006F006D0070006F006E0065006E0074007300000000000000FFFEFF052D005400690074006C0002000000FFFEFF18440072006100770069006E00670020006F0072002000640065007400610069006C0020007400690074006C0065007300000000000000FFFEFF052D0054006500780074
310
0002000000FFFEFF045400650078007400000000000000FFFEFF052D004D00610072006B0002000000FFFEFF1D4D00610072006B006500720073002C00200062007200650061006B0020006D00610072006B0073002C0020006C00650061006400650072007300000000000000FFFEFF052D00460075006C006C0002000000
310
FFFEFF0B460075006C006C002D00680065006900670068007400000000000000FFFEFF052D00450076007400720002000000FFFEFF1B45006C0065007600610074006F00720020006300610072007300200061006E0064002000650071007500690070006D0065006E007400000000000000FFFEFF052D0053007000630065
310
0002000000FFFEFF0553007000610063006500000000000000FFFEFF052D00530075007300700002000000FFFEFF12530075007300700065006E00640065006400200065006C0065006D0065006E0074007300000000000000FFFEFF052D00540065006500730002000000FFFEFF094D00610069006E002000740065006500
310
7300000000000000FFFEFF052D00460069007800740002000000FFFEFF1170006C0075006D00620069006E006700200066006900780074007500720065007300000000000000FFFEFF052D00520065006600720002000000FFFEFF195200650066006500720065006E00630065002C002000650078007400650072006E0061
310
006C002000660069006C0065007300000000000000FFFEFF052D004C00610062006C0002000000FFFEFF064C006100620065006C007300000000000000FFFEFF052D004C0069007400650002000000FFFEFF084C00690067006800740069006E006700000000000000FFFEFF052D00480065007600790002000000FFFEFF1A
310
4800650061007600790020007700650069006700680074002000670072006100700068006900630020006C0069006E0065007300000000000000FFFEFF052D00480065006100640002000000FFFEFF1744006F006F007200200061006E0064002000770069006E0064006F0077002000680065006100640065007200730000
310
0000000000FFFEFF052D004C00650067006E0002000000FFFEFF144C006500670065006E00640073002C002000530079006D0062006F006C0020006B00650079007300000000000000FFFEFF052D004B00650079006E0002000000FFFEFF084B00650079006E006F00740065007300000000000000FFFEFF052D0046006900
310
7800640002000000FFFEFF0F460069007800650064002000650071007500690070006D0065006E007400000000000000FFFEFF052D004C00650076006C0002000000FFFEFF274C006500760065006C0020006300680061006E006700650073002C002000720061006D00700073002C00200070006900740073002C00200064
310
0065007000720065007300730069006F006E007300000000000000FFFEFF052D004D00650064006D0002000000FFFEFF1B4D0065006400690075006D0020007700650069006700680074002000670072006100700068006900630020006C0069006E0065007300000000000000FFFEFF052D0042006C006F00770002000000
310
FFFEFF0E45006C0065006D0065006E00740073002000620065006C006F007700000000000000FFFEFF052D00410063006300730002000000FFFEFF06410063006300650073007300000000000000FFFEFF052D004F0063006300700002000000FFFEFF1A4F00630063007500700061006E00740020006F007200200065006D
310
0070006C006F0079006500650020006E0061006D0065007300000000000000FFFEFF052D00430061007300650002000000FFFEFF08430061007300650077006F0072006B00000000000000FFFEFF052D00520065007600730002000000FFFEFF095200650076006900730069006F006E007300000000000000FFFEFF052D00
310
420072006300650002000000FFFEFF06420072006100630065007300000000000000FFFEFF052D00480069006400650002000000FFFEFF0E480069006400640065006E0020006F0062006A006500630074007300000000000000FFFEFF052D0043006C006E00670002000000FFFEFF074300650069006C0069006E00670000
310
0000000000FFFEFF052D005500740069006C0002000000FFFEFF095500740069006C0069007400690065007300000000000000FFFEFF052D00500061007400740002000000FFFEFF19540065007800740075007200650020006F00720020006800610074006300680020007000610074007400650072006E00730000000000
310
0000FFFEFF052D00430061007600690002000000FFFEFF06430061007600690074007900000000000000FFFEFF052D0050006C006E00740002000000FFFEFF0650006C0061006E0074007300000000000000FFFEFF052D00530074007200730002000000FFFEFF215300740061006900720020007400720065006100640073
310
002C00200065007300630061006C00610074006F00720073002C0020006C00610064006400650072007300000000000000FFFEFF052D00520065007600630002000000FFFEFF0F5200650076006900730069006F006E00200063006C006F00750064007300000000000000FFFEFF052D004D006F007600650002000000FFFE
310
FF124D006F0076006500610062006C0065002000650071007500690070006D0065006E007400000000000000FFFEFF052D005000650070006C0002000000FFFEFF06500065006F0070006C006500000000000000FFFEFF052D00440065006D006F0002000000FFFEFF0A440065006D006F006C006900740069006F006E0000
310
0000000000FFFEFF052D00430075007200740002000000FFFEFF0C4300750072007400610069006E002000570061006C006C00000000000000FFFEFF052D005700640077006B0002000000FFFEFF164100720063006800690074006500630074007500720061006C00200077006F006F00640077006F0072006B0000000000
310
0000FFFEFF052D004E006F007400650002000000FFFEFF054E006F00740065007300000000000000FFFEFF052D004F0076006800640002000000FFFEFF084F007600650072006800650061006400000000000000FFFEFF052D00530075006200740002000000FFFEFF14530075006200740072006100630074006900760065
310
00200065006C0065006D0065006E0074007300000000000000FFFEFF052D00530044004600460002000000FFFEFF1053007500700070006C0079002000640069006600660075007300650072007300000000000000FFFEFF052D00530074006F00720002000000FFFEFF19530079007300740065006D002000730074006F00
310
7200610067006500200063006F006D0070006F006E0065006E0074007300000000000000FFFEFF052D004900640065006E0002000000FFFEFF134900640065006E00740069006600690063006100740069006F006E0020005400610067007300000000000000FFFEFF052D004800720061006C0002000000FFFEFF16480061
310
006E0064007200610069006C0073002C0020006700750061007200640020007200610069006C007300000000000000FFFEFF052D00570069006400650002000000FFFEFF19570069006400650020007700650069006700680074002000670072006100700068006900630020006C0069006E0065007300000000000000FFFE
310
FF052D004D0061007300730002000000FFFEFF104D0061007300730069006E006700200045006C0065006D0065006E0074007300000000000000FFFEFF052D004C0069006E00650002000000FFFEFF0D44006500660069006E0069006E00670020004C0069006E006500000000000000FFFEFF052D00560069006500770002
310
000000FFFEFF13560069006500770070006F0072007400200044006500660069006E006900740069006F006E00000000000000FFFEFF052D0050006B006E00670002000000FFFEFF075000610072006B0069006E006700000000000000FFFEFF052D00520044004600460002000000FFFEFF14520065007400750072006E00
310
20006100690072002000640069006600660075007300650072007300000000000000FFFEFF052D00530065006100740002000000FFFEFF07530065006100740069006E006700000000000000FFFEFF052D0050006E006C00730002000000FFFEFF0D530079007300740065006D002000700061006E0065006C007300000000
310
000000FFFEFF052D004D0061007400630002000000FFFEFF0B4D00610074006300680020006C0069006E0065007300000000000000FFFEFF052D00410064007400760002000000FFFEFF1141006400640069007400690076006500200065006C0065006D0065006E0074007300000000000000FFFEFF052D00430068006100
310
730002000000FFFEFF0543006800610073006500000000000000FFFEFF052D005300700063006C0002000000FFFEFF0B5300700065006300690061006C007400690065007300000000000000FFFEFF052D00470072006900640002000000FFFEFF044700720069006400000000000000FFFEFF052D004E00690063006E0002
310
000000FFFEFF0F4E006F007400200069006E00200063006F006E0074007200610063007400000000000000FFFEFF052D004D0063007500740002000000FFFEFF164D00610069006E00200063007500740020006C0069006E006500200065006C0065006D0065006E0074007300000000000000FFFEFF052D00460069007200
310
650002000000FFFEFF0A46006900720065002000770061006C006C007300000000000000FFFEFF052D00530069006C006C0002000000FFFEFF0C570069006E0064006F0077002000730069006C006C007300000000000000FFFEFF052D005400700074006E0002000000FFFEFF1154006F0069006C00650074002000700061
310
00720074006900740069006F006E007300000000000000FFFEFF052D00520069007300720002000000FFFEFF0C530074006100690072002000720069007300650072007300000000000000FFFEFF052D004F0074006C006E0002000000FFFEFF074F00750074006C0069006E006500000000000000FFFEFF052D0054007400
310
6C00620002000000FFFEFF1642006F007200640065007200200061006E00640020007400690074006C006500200062006C006F0063006B000000000000000180FFFEFF074D0069006E006F0072002000320005000000004164642062656C6F77207468652073656C6563746564206974656DFFFEFF001600FFFEFF052D0041
310
0062006F00760002000000FFFEFF0E45006C0065006D0065006E00740073002000610062006F0076006500000000000000FFFEFF052D00420064007200790002000000FFFEFF0D4500640067006500200062006F0075006E006400610072007900000000000000FFFEFF052D005400680069006E0002000000FFFEFF0E4D00
310
69006E006F00720020006C0069006E00650077006F0072006B00000000000000FFFEFF052D004E0070006C00740002000000FFFEFF154E006F006E002D0070006C006F007400740069006E006700200065006C0065006D0065006E0074007300000000000000FFFEFF052D005200650066006C0002000000FFFEFF0F520065
310
0066006C0065006300740065006400200050006C0061006E007300000000000000FFFEFF052D00440069006D00730002000000FFFEFF0A440069006D0065006E00730069006F006E007300000000000000FFFEFF052D005300630061006C0002000000FFFEFF10470072006100700068006900630061006C00200053006300
310
61006C0065007300000000000000FFFEFF052D0053006C006300650002000000FFFEFF0653006C006900630065007300000000000000FFFEFF052D0047006C0061007A0002000000FFFEFF0747006C0061007A0069006E006700000000000000FFFEFF052D00460061007300630002000000FFFEFF06460061007300630069
310
006100000000000000FFFEFF052D00470072007000730002000000FFFEFF06470072006F00750070007300000000000000FFFEFF052D005400690074006C0002000000FFFEFF065400690074006C0065007300000000000000FFFEFF052D00530066006900740002000000FFFEFF0653006F00660066006900740000000000
310
0000FFFEFF052D00500061007400740002000000FFFEFF0E4800610074006300680020007000610074007400650072006E007300000000000000FFFEFF052D00480069006400650002000000FFFEFF0F480069006400640065006E00200065006C0065006D0065006E0074007300000000000000FFFEFF052D004E006F0074
310
00650002000000FFFEFF16470065006E006500720061006C0020005400650078007400200061006E00640020004E006F00740065007300000000000000FFFEFF052D0055006E006900740002000000FFFEFF0455006E0069007400000000000000FFFEFF052D004900640065006E0002000000FFFEFF0A4900640065006E00
310
740069006600690065007200000000000000FFFEFF052D004C0069006E00650002000000FFFEFF10470065006E006500720061006C0020006C0069006E00650077006F0072006B00000000000000FFFEFF052D00530069006C006C0002000000FFFEFF05530069006C006C007300000000000000FFFEFF052D005200690073
310
00720002000000FFFEFF06520069007300650072007300000000000000FFFEFF052D004F0074006C006E0002000000FFFEFF074F00750074006C0069006E0065000000000000000180FFFEFF06530074006100740075007300060000000000000000A434770470040000B10000005073770400000000050000FFFEFF000F00
310
FFFEFF022D00310002000000FFFEFF075000680061007300650020003100000000000000FFFEFF022D00320002000000FFFEFF075000680061007300650020003200000000000000FFFEFF022D00540002000000FFFEFF0E540065006D0070006F007200610072007900200077006F0072006B00000000000000FFFEFF022D
310
00330002000000FFFEFF075000680061007300650020003300000000000000FFFEFF022D00440002000000FFFEFF144500780069007300740069006E006700200074006F002000640065006D006F006C00690073006800000000000000FFFEFF022D00340002000000FFFEFF07500068006100730065002000340000000000
310
0000FFFEFF022D00450002000000FFFEFF124500780069007300740069006E006700200074006F002000720065006D00610069006E00000000000000FFFEFF022D00350002000000FFFEFF075000680061007300650020003500000000000000FFFEFF022D00460002000000FFFEFF0B460075007400750072006500200077
310
006F0072006B00000000000000FFFEFF022D00360002000000FFFEFF075000680061007300650020003600000000000000FFFEFF022D00370002000000FFFEFF075000680061007300650020003700000000000000FFFEFF022D00380002000000FFFEFF075000680061007300650020003800000000000000FFFEFF022D00
310
390002000000FFFEFF075000680061007300650020003900000000000000FFFEFF022D004D0002000000FFFEFF114900740065006D007300200074006F0020006200650020006D006F00760065006400000000000000FFFEFF022D004E0002000000FFFEFF084E0065007700200077006F0072006B000000000000000600FF
310
FF04001A004163416563556B4C61796572436F6D706F6E656E744669656C64FFFEFF174400690073006300690070006C0069006E0065002000440065007300690067006E00610074006F0072002000310001000000FFFEFF0440002C0040004000000000000100000000FFFEFF014100000000000780FFFEFF174400690073
310
006300690070006C0069006E0065002000440065007300690067006E00610074006F0072002000320001000000FFFEFF0440002C0040004000010000000100000000FFFEFF014400000000000780FFFEFF054D0061006A006F00720005000000FFFEFF052D00400040004000400000000000010000002DFFFEFF052D005700
310
61006C006C00000000000780FFFEFF064D0069006E006F007200310005000000FFFEFF022D002A0001000000010000002DFFFEFF052D004900640065006E00000000000780FFFEFF064D0069006E006F007200320005000000FFFEFF022D002A0001000000010000002DFFFEFF052D005400650078007400000000000780FF
310
FEFF0653007400610074007500730002000000FFFEFF022D002A0001000000010000002DFFFEFF022D004E0000000000050000010203040500FFFEFF00FFFEFF0320002D002000FFFEFF022C002000FFFEFF012000FFFEFF0320002D002000FFFEFF00
  0
XRECORD
  5
1BD9C
102
{ACAD_REACTORS
330
1BD9B
102
}
330
1BD9B
100
AcDbXrecord
280
     1
102
SHADEPLOT
 70
     0
102
SHADEPLOTRESLEVEL
 70
     2
102
SHADEPLOTCUSTOMDPI
 70
   300
  0
XRECORD
  5
1BD9A
102
{ACAD_REACTORS
330
1BD99
102
}
330
1BD99
100
AcDbXrecord
280
     1
102
SHADEPLOT
 70
     1
102
SHADEPLOTRESLEVEL
 70
     2
102
SHADEPLOTCUSTOMDPI
 70
   300
  0
XRECORD
  5
1BDA1
102
{ACAD_REACTORS
330
1BDA0
102
}
330
1BDA0
100
AcDbXrecord
280
     1
102
MATERIAL
148
0.0
149
0.0
149
0.0
 93
        0
 94
       63
282
     0
 72
     1
 77
     1
171
     1
175
     1
179
     1
273
     0
  0
XRECORD
  5
1BD9F
102
{ACAD_REACTORS
330
1BD9E
102
}
330
1BD9E
100
AcDbXrecord
280
     1
102
MATERIAL
148
0.0
149
0.0
149
0.0
 93
        0
 94
       63
282
     0
 72
     1
 77
     1
171
     1
175
     1
179
     1
273
     0
  0
XRECORD
  5
1BDA4
102
{ACAD_REACTORS
330
139CD
102
}
330
139CD
100
AcDbXrecord
280
     1
102
MATERIAL
148
0.0
149
0.0
149
0.0
 93
        0
 94
       63
282
     0
 72
     1
 77
     1
171
     1
175
     1
179
     1
273
     1
  0
XRECORD
  5
139CE
102
{ACAD_REACTORS
330
139CD
102
}
330
139CD
100
AcDbXrecord
280
     1
300
<Material id="{99120C30-EB7F-4CE3-A8EC-E4A5AC8B9576}" app="3DSVIZ">^M^J^I<LinearUnits unitType="m" unitScale="1.0"/>^M^J^I<ArchitecturalMaterial name="General.Chip">^M^J^I^I<ArchTemplateParameters name="Paper" classid_A="1901925249" classid_B="1933333956">^M^J^I^I^I<Arc
300
hShaderType type="Phong"/>^M^J^I^I^I<ArchReflectivity>^M^J^I^I^I^I<RGBf r="0.65" g="0.65" b="0.65"/>^M^J^I^I^I</ArchReflectivity>^M^J^I^I^I<ArchMinReflectivity>0.3</ArchMinReflectivity>^M^J^I^I^I<ArchMaxReflectivity>0.7</ArchMaxReflectivity>^M^J^I^I^I<ArchShininess>0.0</ArchShininess>^M
300
^J^I^I^I<ArchMinShininess>0.0</ArchMinShininess>^M^J^I^I^I<ArchMaxShinness>1.0</ArchMaxShinness>^M^J^I^I^I<ArchTransparency>0.0</ArchTransparency>^M^J^I^I^I<ArchMinTransparency>0.0</ArchMinTransparency>^M^J^I^I^I<ArchMaxTransparency>0.0</ArchMaxTransparency>^M^J^I^I^I<ArchIndexOfRefr
300
action>1.0</ArchIndexOfRefraction>^M^J^I^I^I<ArchMinIndexOfRefraction>1.0</ArchMinIndexOfRefraction>^M^J^I^I^I<ArchMaxIndexOfRefraction>1.0</ArchMaxIndexOfRefraction>^M^J^I^I^I<ArchSetParameters>1</ArchSetParameters>^M^J^I^I</ArchTemplateParameters>^M^J^I^I<ArchMatParameters>^M^J
300
^I^I^I<ArchDiffuseColor>^M^J^I^I^I^I<RGBf r="0.647059" g="0.639216" b="0.6"/>^M^J^I^I^I</ArchDiffuseColor>^M^J^I^I^I<ArchIndexOfRefraction>1.0</ArchIndexOfRefraction>^M^J^I^I^I<ArchTwoSided>0</ArchTwoSided>^M^J^I^I^I<ArchEmitLuminance>0</ArchEmitLuminance>^M^J^I^I^I<ArchColorBleedScale>1.
300
0</ArchColorBleedScale>^M^J^I^I^I<ArchReflectanceScale>1.0</ArchReflectanceScale>^M^J^I^I^I<ArchIndirectBumpAmount>1.0</ArchIndirectBumpAmount>^M^J^I^I^I<ArchTransmittanceScale>1.0</ArchTransmittanceScale>^M^J^I^I^I<ArchUseTextureSize>1</ArchUseTextureSize>^M^J^I^I^I<ArchTextureW
300
idth>40.0</ArchTextureWidth>^M^J^I^I^I<ArchTextureHeight>40.0</ArchTextureHeight>^M^J^I^I^I<ArchTextureUOffset>0.0</ArchTextureUOffset>^M^J^I^I^I<ArchTextureVOffset>0.0</ArchTextureVOffset>^M^J^I^I^I<ArchDiffuseAmount>1.0</ArchDiffuseAmount>^M^J^I^I^I<ArchShininess>0.0</ArchShini
300
ness>^M^J^I^I^I<ArchTransparency>0.0</ArchTransparency>^M^J^I^I^I<ArchLuminance>0.0</ArchLuminance>^M^J^I^I^I<ArchBumpMapAmount>0.15</ArchBumpMapAmount>^M^J^I^I^I<ArchCutoutMapAmount>1.0</ArchCutoutMapAmount>^M^J^I^I^I<ArchDisplayMapInViewport>0</ArchDisplayMapInViewport>^M^J^I^I</Ar
300
chMatParameters>^M^J^I^I<MapSet>^M^J^I^I^I<MapLib>^M^J^I^I^I^I<TextureMap name="Map #8" id="{EBBA9041-9C68-43B4-A7A8-66E4230A8BCD}">^M^J^I^I^I^I^I<DisplayMapInViewport>0</DisplayMapInViewport>^M^J^I^I^I^I^I<BitmapMap>^M^J^I^I^I^I^I^I<TexMapCoords2d>^M^J^I^I^I^I^I^I^I<TextureCoords>^M^J^I^I^I^I^I^I^I^I<Explicit
300
MapChannel CoordPlane="uv">^M^J^I^I^I^I^I^I^I^I^I<MapChannel>1</MapChannel>^M^J^I^I^I^I^I^I^I^I^I<UCoords>^M^J^I^I^I^I^I^I^I^I^I^I<OffsetCoord>19.5</OffsetCoord>^M^J^I^I^I^I^I^I^I^I^I^I<TilingCoord>0.025</TilingCoord>^M^J^I^I^I^I^I^I^I^I^I^I<TextureTiling Tiling="tile"/>^M^J^I^I^I^I^I^I^I^I^I</UCoords>^M^J^I^I^I^I^I^I^I^I^I<VCoords>^M
300
^J^I^I^I^I^I^I^I^I^I^I<OffsetCoord>19.5</OffsetCoord>^M^J^I^I^I^I^I^I^I^I^I^I<TilingCoord>0.025</TilingCoord>^M^J^I^I^I^I^I^I^I^I^I^I<TextureTiling Tiling="tile"/>^M^J^I^I^I^I^I^I^I^I^I</VCoords>^M^J^I^I^I^I^I^I^I^I^I<Angles>^M^J^I^I^I^I^I^I^I^I^I^I<UAngle>0.0</UAngle>^M^J^I^I^I^I^I^I^I^I^I^I<VAngle>0.0</VAngle>^M^J^I^I^I^I^I^I^I^I^I^I<WAngle>0.0
300
</WAngle>^M^J^I^I^I^I^I^I^I^I^I</Angles>^M^J^I^I^I^I^I^I^I^I^I<Blur>1.0</Blur>^M^J^I^I^I^I^I^I^I^I^I<BlurOffset>0.0</BlurOffset>^M^J^I^I^I^I^I^I^I^I</ExplicitMapChannel>^M^J^I^I^I^I^I^I^I</TextureCoords>^M^J^I^I^I^I^I^I</TexMapCoords2d>^M^J^I^I^I^I^I^I<TexMapNoise>^M^J^I^I^I^I^I^I^I<NoiseAmount>1.0</NoiseAmount>^M^J^I^I^I^I^I^I^I<NoiseLeve
300
ls>1</NoiseLevels>^M^J^I^I^I^I^I^I^I<NoiseSize>1.0</NoiseSize>^M^J^I^I^I^I^I^I^I<NoisePhase>0.0</NoisePhase>^M^J^I^I^I^I^I^I</TexMapNoise>^M^J^I^I^I^I^I^I<BitmapParameters>^M^J^I^I^I^I^I^I^I<BitmapFile filename="MEDRUST2.JPG"/>^M^J^I^I^I^I^I^I^I<Cropping on="0" CropType="crop">^M^J^I^I^I^I^I^I^I^I<UCrop>0.0</UCrop>^M
300
^J^I^I^I^I^I^I^I^I<VCrop>0.0</VCrop>^M^J^I^I^I^I^I^I^I^I<WCrop>1.0</WCrop>^M^J^I^I^I^I^I^I^I^I<HCrop>1.0</HCrop>^M^J^I^I^I^I^I^I^I^I<JitterPlacement on="0">1.0</JitterPlacement>^M^J^I^I^I^I^I^I^I</Cropping>^M^J^I^I^I^I^I^I^I<Filtering Type="pyramidal"/>^M^J^I^I^I^I^I^I^I<MonoChannelOutput Output="rgbIntensity"/>^M^J^I^I^I^I^I^I
300
^I<RGBChannelOutput Output="alphaAsGray"/>^M^J^I^I^I^I^I^I^I<AlphaSource Source="none"/>^M^J^I^I^I^I^I^I^I<PremultipliedAlpha>1</PremultipliedAlpha>^M^J^I^I^I^I^I^I</BitmapParameters>^M^J^I^I^I^I^I^I<TexMapOutput>^M^J^I^I^I^I^I^I^I<Invert>0</Invert>^M^J^I^I^I^I^I^I^I<Clamp>0</Clamp>^M^J^I^I^I^I^I^I^I<AlphaFromRGBInt
300
ensity>0</AlphaFromRGBIntensity>^M^J^I^I^I^I^I^I^I<OutputAmount>1.0</OutputAmount>^M^J^I^I^I^I^I^I^I<RGBOffset>0.0</RGBOffset>^M^J^I^I^I^I^I^I^I<RGBLevel>1.0</RGBLevel>^M^J^I^I^I^I^I^I^I<BumpAmount>1.0</BumpAmount>^M^J^I^I^I^I^I^I</TexMapOutput>^M^J^I^I^I^I^I</BitmapMap>^M^J^I^I^I^I</TextureMap>^M^J^I^I^I</MapLib>^M^J
300
^I^I^I<Map on="1" TexMapChannelNum="8" TexMapChannel="Bump Map" Amount="15" TexMapRef="{EBBA9041-9C68-43B4-A7A8-66E4230A8BCD}"/>^M^J^I^I</MapSet>^M^J^I</ArchitecturalMaterial>^M^J</Material>
  0
XRECORD
  5
1BDA3
102
{ACAD_REACTORS
330
1BDA2
102
}
330
1BDA2
100
AcDbXrecord
280
     1
102
MATERIAL
148
0.0
149
0.0
149
0.0
 93
        0
 94
       63
282
     0
 72
     1
 77
     1
171
     1
175
     1
179
     1
273
     0
  0
CELLSTYLEMAP
  5
1BD97
102
{ACAD_REACTORS
330
17229
102
}
330
17229
100
AcDbCellStyleMap
 90
        3
300
CELLSTYLE
  1
TABLEFORMAT_BEGIN
 90
        5
170
     1
 91
        0
 92
    32768
 62
   257
 93
        1
300
CONTENTFORMAT
  1
CONTENTFORMAT_BEGIN
 90
        0
 91
        0
 92
        4
 93
        0
300

 40
0.0
140
1.0
 94
        5
 62
     0
340
15
144
0.25
309
CONTENTFORMAT_END
171
     1
301
MARGIN
  1
CELLMARGIN_BEGIN
 40
0.06
 40
0.06
 40
0.06
 40
0.06
 40
0.18
 40
0.18
309
CELLMARGIN_END
 94
        6
 95
        1
302
GRIDFORMAT
  1
GRIDFORMAT_BEGIN
 90
        0
 91
        1
 62
     0
 92
       -2
340
0
 93
        0
 40
0.045
309
GRIDFORMAT_END
 95
        2
302
GRIDFORMAT
  1
GRIDFORMAT_BEGIN
 90
        0
 91
        1
 62
     0
 92
       -2
340
0
 93
        0
 40
0.045
309
GRIDFORMAT_END
 95
        4
302
GRIDFORMAT
  1
GRIDFORMAT_BEGIN
 90
        0
 91
        1
 62
     0
 92
       -2
340
0
 93
        0
 40
0.045
309
GRIDFORMAT_END
 95
        8
302
GRIDFORMAT
  1
GRIDFORMAT_BEGIN
 90
        0
 91
        1
 62
     0
 92
       -2
340
0
 93
        0
 40
0.045
309
GRIDFORMAT_END
 95
       16
302
GRIDFORMAT
  1
GRIDFORMAT_BEGIN
 90
        0
 91
        1
 62
     0
 92
       -2
340
0
 93
        0
 40
0.045
309
GRIDFORMAT_END
 95
       32
302
GRIDFORMAT
  1
GRIDFORMAT_BEGIN
 90
        0
 91
        1
 62
     0
 92
       -2
340
0
 93
        0
 40
0.045
309
GRIDFORMAT_END
309
TABLEFORMAT_END
  1
CELLSTYLE_BEGIN
 90
        1
 91
        1
300
_TITLE
309
CELLSTYLE_END
300
CELLSTYLE
  1
TABLEFORMAT_BEGIN
 90
        5
170
     1
 91
        0
 92
        0
 62
   257
 93
        1
300
CONTENTFORMAT
  1
CONTENTFORMAT_BEGIN
 90
        0
 91
        0
 92
        4
 93
        0
300

 40
0.0
140
1.0
 94
        5
 62
     0
340
15
144
0.18
309
CONTENTFORMAT_END
171
     1
301
MARGIN
  1
CELLMARGIN_BEGIN
 40
0.06
 40
0.06
 40
0.06
 40
0.06
 40
0.18
 40
0.18
309
CELLMARGIN_END
 94
        6
 95
        1
302
GRIDFORMAT
  1
GRIDFORMAT_BEGIN
 90
        0
 91
        1
 62
     0
 92
       -2
340
0
 93
        0
 40
0.045
309
GRIDFORMAT_END
 95
        2
302
GRIDFORMAT
  1
GRIDFORMAT_BEGIN
 90
        0
 91
        1
 62
     0
 92
       -2
340
0
 93
        0
 40
0.045
309
GRIDFORMAT_END
 95
        4
302
GRIDFORMAT
  1
GRIDFORMAT_BEGIN
 90
        0
 91
        1
 62
     0
 92
       -2
340
0
 93
        0
 40
0.045
309
GRIDFORMAT_END
 95
        8
302
GRIDFORMAT
  1
GRIDFORMAT_BEGIN
 90
        0
 91
        1
 62
     0
 92
       -2
340
0
 93
        0
 40
0.045
309
GRIDFORMAT_END
 95
       16
302
GRIDFORMAT
  1
GRIDFORMAT_BEGIN
 90
        0
 91
        1
 62
     0
 92
       -2
340
0
 93
        0
 40
0.045
309
GRIDFORMAT_END
 95
       32
302
GRIDFORMAT
  1
GRIDFORMAT_BEGIN
 90
        0
 91
        1
 62
     0
 92
       -2
340
0
 93
        0
 40
0.045
309
GRIDFORMAT_END
309
TABLEFORMAT_END
  1
CELLSTYLE_BEGIN
 90
        2
 91
        1
300
_HEADER
309
CELLSTYLE_END
300
CELLSTYLE
  1
TABLEFORMAT_BEGIN
 90
        5
170
     1
 91
        0
 92
        0
 62
   257
 93
        1
300
CONTENTFORMAT
  1
CONTENTFORMAT_BEGIN
 90
        0
 91
        0
 92
        4
 93
        0
300

 40
0.0
140
1.0
 94
        2
 62
     0
340
15
144
0.18
309
CONTENTFORMAT_END
171
     1
301
MARGIN
  1
CELLMARGIN_BEGIN
 40
0.06
 40
0.06
 40
0.06
 40
0.06
 40
0.18
 40
0.18
309
CELLMARGIN_END
 94
        6
 95
        1
302
GRIDFORMAT
  1
GRIDFORMAT_BEGIN
 90
        0
 91
        1
 62
     0
 92
       -2
340
0
 93
        0
 40
0.045
309
GRIDFORMAT_END
 95
        2
302
GRIDFORMAT
  1
GRIDFORMAT_BEGIN
 90
        0
 91
        1
 62
     0
 92
       -2
340
0
 93
        0
 40
0.045
309
GRIDFORMAT_END
 95
        4
302
GRIDFORMAT
  1
GRIDFORMAT_BEGIN
 90
        0
 91
        1
 62
     0
 92
       -2
340
0
 93
        0
 40
0.045
309
GRIDFORMAT_END
 95
        8
302
GRIDFORMAT
  1
GRIDFORMAT_BEGIN
 90
        0
 91
        1
 62
     0
 92
       -2
340
0
 93
        0
 40
0.045
309
GRIDFORMAT_END
 95
       16
302
GRIDFORMAT
  1
GRIDFORMAT_BEGIN
 90
        0
 91
        1
 62
     0
 92
       -2
340
0
 93
        0
 40
0.045
309
GRIDFORMAT_END
 95
       32
302
GRIDFORMAT
  1
GRIDFORMAT_BEGIN
 90
        0
 91
        1
 62
     0
 92
       -2
340
0
 93
        0
 40
0.045
309
GRIDFORMAT_END
309
TABLEFORMAT_END
  1
CELLSTYLE_BEGIN
 90
        3
 91
        2
300
_DATA
309
CELLSTYLE_END
  0
XRECORD
  5
1BD9D
102
{ACAD_REACTORS
330
17229
102
}
330
17229
100
AcDbXrecord
280
     1
102
ACAD_ROUNDTRIP_PRE2007_TABLESTYLE
 90
        4
 91
        0
  1

 92
        4
 93
        0
  2

 94
        4
 95
        0
  3

  0
ENDSEC
  0
EOF
