  0
SECTION
  2
HEADER
  9
$ACADVER
  1
AC1015
  9
$ACADMAINTVER
 70
    20
  9
$DWGCODEPAGE
  3
ANSI_1250
  9
$INSBASE
 10
215187.233673673
 20
127657.5168525552
 30
0.0
  9
$EXTMIN
 10
201597.5991178359
 20
124383.7825537183
 30
-0.000000000000013
  9
$EXTMAX
 10
211811.1273475703
 20
138407.6615296082
 30
0.0000000000000023
  9
$LIMMIN
 10
0.0
 20
0.0
  9
$LIMMAX
 10
420.0
 20
297.0
  9
$ORTHOMODE
 70
     0
  9
$REGENMODE
 70
     1
  9
$FILLMODE
 70
     1
  9
$QTEXTMODE
 70
     0
  9
$MIRRTEXT
 70
     0
  9
$LTSCALE
 40
75.0
  9
$ATTMODE
 70
     1
  9
$TEXTSIZE
 40
20.0
  9
$TRACEWID
 40
1.0
  9
$TEXTSTYLE
  7
ROMANS
  9
$CLAYER
  8
SZRAF
  9
$CELTYPE
  6
ByLayer
  9
$CECOLOR
 62
   256
  9
$CELTSCALE
 40
1.0
  9
$DISPSILH
 70
     0
  9
$DIMSCALE
 40
96.0
  9
$DIMASZ
 40
30.0
  9
$DIMEXO
 40
43.0
  9
$DIMDLI
 40
0.0
  9
$DIMRND
 40
0.5
  9
$DIMDLE
 40
12.0
  9
$DIMEXE
 40
13.0
  9
$DIMTP
 40
0.0
  9
$DIMTM
 40
0.0
  9
$DIMTXT
 40
80.0
  9
$DIMCEN
 40
0.0
  9
$DIMTSZ
 40
0.0
  9
$DIMTOL
 70
     0
  9
$DIMLIM
 70
     0
  9
$DIMTIH
 70
     0
  9
$DIMTOH
 70
     0
  9
$DIMSE1
 70
     1
  9
$DIMSE2
 70
     1
  9
$DIMTAD
 70
     0
  9
$DIMZIN
 70
    12
  9
$DIMBLK
  1
B-DIM
  9
$DIMASO
 70
     1
  9
$DIMSHO
 70
     1
  9
$DIMPOST
  1

  9
$DIMAPOST
  1

  9
$DIMALT
 70
     0
  9
$DIMALTD
 70
     2
  9
$DIMALTF
 40
25.4
  9
$DIMLFAC
 40
1.0
  9
$DIMTOFL
 70
     1
  9
$DIMTVP
 40
1.0
  9
$DIMTIX
 70
     1
  9
$DIMSOXD
 70
     0
  9
$DIMSAH
 70
     0
  9
$DIMBLK1
  1

  9
$DIMBLK2
  1

  9
$DIMSTYLE
  2
500
  9
$DIMCLRD
 70
     1
  9
$DIMCLRE
 70
     1
  9
$DIMCLRT
 70
    10
  9
$DIMTFAC
 40
1.0
  9
$DIMGAP
 40
0.0
  9
$DIMJUST
 70
     0
  9
$DIMSD1
 70
     0
  9
$DIMSD2
 70
     0
  9
$DIMTOLJ
 70
     1
  9
$DIMTZIN
 70
     0
  9
$DIMALTZ
 70
     0
  9
$DIMALTTZ
 70
     0
  9
$DIMUPT
 70
     0
  9
$DIMDEC
 70
     1
  9
$DIMTDEC
 70
     1
  9
$DIMALTU
 70
     2
  9
$DIMALTTD
 70
     2
  9
$DIMTXSTY
  7
ROMANS
  9
$DIMAUNIT
 70
     0
  9
$DIMADEC
 70
     0
  9
$DIMALTRND
 40
0.0
  9
$DIMAZIN
 70
     0
  9
$DIMDSEP
 70
    46
  9
$DIMATFIT
 70
     3
  9
$DIMFRAC
 70
     0
  9
$DIMLDRBLK
  1
B-DIM
  9
$DIMLUNIT
 70
     2
  9
$DIMLWD
 70
    -2
  9
$DIMLWE
 70
    -2
  9
$DIMTMOVE
 70
     2
  9
$LUNITS
 70
     4
  9
$LUPREC
 70
     4
  9
$SKETCHINC
 40
1.0
  9
$FILLETRAD
 40
0.0
  9
$AUNITS
 70
     0
  9
$AUPREC
 70
     2
  9
$MENU
  1
.
  9
$ELEVATION
 40
0.0
  9
$PELEVATION
 40
0.0
  9
$THICKNESS
 40
0.0
  9
$LIMCHECK
 70
     0
  9
$CHAMFERA
 40
0.0
  9
$CHAMFERB
 40
0.0
  9
$CHAMFERC
 40
20.0
  9
$CHAMFERD
 40
0.0
  9
$SKPOLY
 70
     0
  9
$TDCREATE
 40
2452027.670547454
  9
$TDUCREATE
 40
2452027.587214121
  9
$TDUPDATE
 40
2454951.662345914
  9
$TDUUPDATE
 40
2454951.579012581
  9
$TDINDWG
 40
7.7233994792
  9
$TDUSRTIMER
 40
7.7233994792
  9
$USRTIMER
 70
     1
  9
$ANGBASE
 50
0.0
  9
$ANGDIR
 70
     0
  9
$PDMODE
 70
     0
  9
$PDSIZE
 40
0.0
  9
$PLINEWID
 40
60.0
  9
$SPLFRAME
 70
     0
  9
$SPLINETYPE
 70
     6
  9
$SPLINESEGS
 70
     8
  9
$HANDSEED
  5
3315
  9
$SURFTAB1
 70
     6
  9
$SURFTAB2
 70
     6
  9
$SURFTYPE
 70
     6
  9
$SURFU
 70
     6
  9
$SURFV
 70
     6
  9
$UCSBASE
  2

  9
$UCSNAME
  2

  9
$UCSORG
 10
0.0
 20
0.0
 30
0.0
  9
$UCSXDIR
 10
1.0
 20
0.0
 30
0.0
  9
$UCSYDIR
 10
0.0
 20
1.0
 30
0.0
  9
$UCSORTHOREF
  2

  9
$UCSORTHOVIEW
 70
     0
  9
$UCSORGTOP
 10
0.0
 20
0.0
 30
0.0
  9
$UCSORGBOTTOM
 10
0.0
 20
0.0
 30
0.0
  9
$UCSORGLEFT
 10
0.0
 20
0.0
 30
0.0
  9
$UCSORGRIGHT
 10
0.0
 20
0.0
 30
0.0
  9
$UCSORGFRONT
 10
0.0
 20
0.0
 30
0.0
  9
$UCSORGBACK
 10
0.0
 20
0.0
 30
0.0
  9
$PUCSBASE
  2

  9
$PUCSNAME
  2

  9
$PUCSORG
 10
0.0
 20
0.0
 30
0.0
  9
$PUCSXDIR
 10
1.0
 20
0.0
 30
0.0
  9
$PUCSYDIR
 10
0.0
 20
1.0
 30
0.0
  9
$PUCSORTHOREF
  2

  9
$PUCSORTHOVIEW
 70
     0
  9
$PUCSORGTOP
 10
0.0
 20
0.0
 30
0.0
  9
$PUCSORGBOTTOM
 10
0.0
 20
0.0
 30
0.0
  9
$PUCSORGLEFT
 10
0.0
 20
0.0
 30
0.0
  9
$PUCSORGRIGHT
 10
0.0
 20
0.0
 30
0.0
  9
$PUCSORGFRONT
 10
0.0
 20
0.0
 30
0.0
  9
$PUCSORGBACK
 10
0.0
 20
0.0
 30
0.0
  9
$USERI1
 70
     0
  9
$USERI2
 70
     0
  9
$USERI3
 70
     0
  9
$USERI4
 70
     0
  9
$USERI5
 70
     0
  9
$USERR1
 40
0.0
  9
$USERR2
 40
0.0
  9
$USERR3
 40
0.0
  9
$USERR4
 40
0.0
  9
$USERR5
 40
0.0
  9
$WORLDVIEW
 70
     1
  9
$SHADEDGE
 70
     3
  9
$SHADEDIF
 70
    70
  9
$TILEMODE
 70
     1
  9
$MAXACTVP
 70
    64
  9
$PINSBASE
 10
0.0
 20
0.0
 30
0.0
  9
$PLIMCHECK
 70
     0
  9
$PEXTMIN
 10
1.000000000000000E+20
 20
1.000000000000000E+20
 30
1.000000000000000E+20
  9
$PEXTMAX
 10
-1.000000000000000E+20
 20
-1.000000000000000E+20
 30
-1.000000000000000E+20
  9
$PLIMMIN
 10
0.0
 20
0.0
  9
$PLIMMAX
 10
420.0
 20
297.0
  9
$UNITMODE
 70
     0
  9
$VISRETAIN
 70
     1
  9
$PLINEGEN
 70
     0
  9
$PSLTSCALE
 70
     1
  9
$TREEDEPTH
 70
  3020
  9
$CMLSTYLE
  2
Standard
  9
$CMLJUST
 70
     0
  9
$CMLSCALE
 40
20.0
  9
$PROXYGRAPHICS
 70
     1
  9
$MEASUREMENT
 70
     0
  9
$CELWEIGHT
370
    -1
  9
$ENDCAPS
280
     0
  9
$JOINSTYLE
280
     0
  9
$LWDISPLAY
290
     0
  9
$INSUNITS
 70
     1
  9
$HYPERLINKBASE
  1

  9
$STYLESHEET
  1
monochrome_140.ctb
  9
$XEDIT
290
     1
  9
$CEPSNTYPE
380
     0
  9
$PSTYLEMODE
290
     1
  9
$FINGERPRINTGUID
  2
{938A2469-3AF5-11D5-BC95-0050BABCE9EC}
  9
$VERSIONGUID
  2
{77978848-24C7-43D5-8E88-5CA1BA4C7B90}
  9
$EXTNAMES
290
     1
  9
$PSVPSCALE
 40
0.0
  9
$OLESTARTUP
290
     0
  0
ENDSEC
  0
SECTION
  2
CLASSES
  0
CLASS
  1
ACDBDICTIONARYWDFLT
  2
AcDbDictionaryWithDefault
  3
ObjectDBX Classes
 90
        0
280
     0
281
     0
  0
CLASS
  1
ACDBPLACEHOLDER
  2
AcDbPlaceHolder
  3
ObjectDBX Classes
 90
        0
280
     0
281
     0
  0
CLASS
  1
LAYOUT
  2
AcDbLayout
  3
ObjectDBX Classes
 90
        0
280
     0
281
     0
  0
CLASS
  1
DICTIONARYVAR
  2
AcDbDictionaryVar
  3
ObjectDBX Classes
 90
        0
280
     0
281
     0
  0
CLASS
  1
SORTENTSTABLE
  2
AcDbSortentsTable
  3
ObjectDBX Classes
 90
        0
280
     0
281
     0
  0
CLASS
  1
AEC_VARS_DWG_SETUP
  2
AecDbVarsDwgSetup
  3
AecBase50|Product Desc: Autodesk Architectural Desktop 2007 |Company: Autodesk,Inc. |WEB Address: www.autodesk.com
 90
      129
280
     0
281
     0
  0
CLASS
  1
AEC_DISP_REP_CONFIG
  2
AecDbDispRepConfig
  3
AecBase50|Product Desc: Autodesk Architectural Desktop 2007 |Company: Autodesk,Inc. |WEB Address: www.autodesk.com
 90
      129
280
     0
281
     0
  0
CLASS
  1
AEC_DISP_REP_SET
  2
AecDbDispRepSet
  3
AecBase50|Product Desc: Autodesk Architectural Desktop 2007 |Company: Autodesk,Inc. |WEB Address: www.autodesk.com
 90
      129
280
     0
281
     0
  0
CLASS
  1
AEC_DISP_REP_2D_SECTION
  2
AecDbDispRep2dSection
  3
AecBase50|Product Desc: Autodesk Architectural Desktop 2007 |Company: Autodesk,Inc. |WEB Address: www.autodesk.com
 90
      129
280
     0
281
     0
  0
CLASS
  1
AEC_DISP_REP_ANCHOR_BUB_TO_GRID
  2
AecDbDispRepAnchorBubToGrid
  3
AecStructureBase50|Product Desc: Autodesk Architectural Desktop 2007 |Company: Autodesk,Inc. |WEB Address: www.autodesk.com
 90
      129
280
     0
281
     0
  0
CLASS
  1
AEC_DISP_REP_ANCHOR_BUB_TO_GRID_MODEL
  2
AecDbDispRepAnchorBubToGridMdl
  3
AecStructureBase50|Product Desc: Autodesk Architectural Desktop 2007 |Company: Autodesk,Inc. |WEB Address: www.autodesk.com
 90
      129
280
     0
281
     0
  0
CLASS
  1
AEC_DISP_REP_ANCHOR_ENT_TO_NODE
  2
AecDbDispRepAnchorEntToNode
  3
AecBase50|Product Desc: Autodesk Architectural Desktop 2007 |Company: Autodesk,Inc. |WEB Address: www.autodesk.com
 90
      129
280
     0
281
     0
  0
CLASS
  1
AEC_DISP_REP_ANCHOR_TAG_TO_ENT
  2
AecDbDispRepAnchorTagToEnt
  3
AecScheduleData50|Product Desc: Autodesk Architectural Desktop 2007 |Company: Autodesk,Inc. |WEB Address: www.autodesk.com
 90
      129
280
     0
281
     0
  0
CLASS
  1
AEC_DISP_REP_AREA
  2
AecDbDispRepArea
  3
AecAreaCalculationBase50|Product Desc: Autodesk Architectural Desktop 2007 |Company: Autodesk,Inc. |WEB Address: www.autodesk.com
 90
      129
280
     0
281
     0
  0
CLASS
  1
AEC_DISP_REP_AREA_DECOMPOSED
  2
AecDbDispRepAreaDecomposed
  3
AecAreaCalculationBase50|Product Desc: Autodesk Architectural Desktop 2007 |Company: Autodesk,Inc. |WEB Address: www.autodesk.com
 90
      129
280
     0
281
     0
  0
CLASS
  1
AEC_DISP_REP_AREAGROUP
  2
AecDbDispRepAreaGroup
  3
AecAreaCalculationBase50|Product Desc: Autodesk Architectural Desktop 2007 |Company: Autodesk,Inc. |WEB Address: www.autodesk.com
 90
      129
280
     0
281
     0
  0
CLASS
  1
AEC_DISP_REP_BDG_ELEVLINE_MODEL
  2
AecDbDispRepBdgElevLineModel
  3
AecArchBase50|Product Desc: Autodesk Architectural Desktop 2007 |Company: Autodesk,Inc. |WEB Address: www.autodesk.com
 90
      129
280
     0
281
     0
  0
CLASS
  1
AEC_DISP_REP_BDG_SECTIONLINE_PLAN
  2
AecDbDispRepBdgElevLinePlan
  3
AecArchBase50|Product Desc: Autodesk Architectural Desktop 2007 |Company: Autodesk,Inc. |WEB Address: www.autodesk.com
 90
      129
280
     0
281
     0
  0
CLASS
  1
AEC_DISP_REP_BDG_SECTIONLINE_MODEL
  2
AecDbDispRepBdgSectionLineModel
  3
AecArchBase50|Product Desc: Autodesk Architectural Desktop 2007 |Company: Autodesk,Inc. |WEB Address: www.autodesk.com
 90
      129
280
     0
281
     0
  0
CLASS
  1
AEC_DISP_REP_BDG_SECTIONLINE_PLAN
  2
AecDbDispRepBdgSectionLinePlan
  3
AecArchBase50|Product Desc: Autodesk Architectural Desktop 2007 |Company: Autodesk,Inc. |WEB Address: www.autodesk.com
 90
      129
280
     0
281
     0
  0
CLASS
  1
AEC_DISP_REP_BDG_SECTION_SUBDIV
  2
AecDbDispRepBdgSectionSubDiv
  3
AecArchBase50|Product Desc: Autodesk Architectural Desktop 2007 |Company: Autodesk,Inc. |WEB Address: www.autodesk.com
 90
      129
280
     0
281
     0
  0
CLASS
  1
AEC_DISP_REP_CAMERA
  2
AecDbDispRepCamera
  3
AecBase50|Product Desc: Autodesk Architectural Desktop 2007 |Company: Autodesk,Inc. |WEB Address: www.autodesk.com
 90
      129
280
     0
281
     0
  0
CLASS
  1
AEC_DISP_REP_CEILING_GRID
  2
AecDbDispRepCeilingGrid
  3
AecArchBase50|Product Desc: Autodesk Architectural Desktop 2007 |Company: Autodesk,Inc. |WEB Address: www.autodesk.com
 90
      893
280
     0
281
     0
  0
CLASS
  1
AEC_DISP_REP_CEILING_GRID_MODEL
  2
AecDbDispRepCeilingGridModel
  3
AecArchBase50|Product Desc: Autodesk Architectural Desktop 2007 |Company: Autodesk,Inc. |WEB Address: www.autodesk.com
 90
      129
280
     0
281
     0
  0
CLASS
  1
AEC_DISP_REP_CEILING_GRID_RCP
  2
AecDbDispRepCeilingGridRcp
  3
AecArchBase50|Product Desc: Autodesk Architectural Desktop 2007 |Company: Autodesk,Inc. |WEB Address: www.autodesk.com
 90
      129
280
     0
281
     0
  0
CLASS
  1
AEC_DISP_REP_CLIP_VOLUME_MODEL
  2
AecDbDispRepClipVolModel
  3
AecBase50|Product Desc: Autodesk Architectural Desktop 2007 |Company: Autodesk,Inc. |WEB Address: www.autodesk.com
 90
      129
280
     0
281
     0
  0
CLASS
  1
AEC_DISP_REP_CLIP_VOLUME_PLAN
  2
AecDbDispRepClipVolPlan
  3
AecBase50|Product Desc: Autodesk Architectural Desktop 2007 |Company: Autodesk,Inc. |WEB Address: www.autodesk.com
 90
      129
280
     0
281
     0
  0
CLASS
  1
AEC_DISP_REP_CLIP_VOLUME_RESULT_SUBDIV
  2
AecDbDispRepClipVolResSubDiv
  3
AecBase50|Product Desc: Autodesk Architectural Desktop 2007 |Company: Autodesk,Inc. |WEB Address: www.autodesk.com
 90
      129
280
     0
281
     0
  0
CLASS
  1
AEC_DISP_REP_CLIP_VOLUME_RESULT
  2
AecDbDispRepClipVolResult
  3
AecBase50|Product Desc: Autodesk Architectural Desktop 2007 |Company: Autodesk,Inc. |WEB Address: www.autodesk.com
 90
      129
280
     0
281
     0
  0
CLASS
  1
AEC_DISP_REP_COLUMN_GRID
  2
AecDbDispRepColumnGrid
  3
AecStructureBase50|Product Desc: Autodesk Architectural Desktop 2007 |Company: Autodesk,Inc. |WEB Address: www.autodesk.com
 90
      129
280
     0
281
     0
  0
CLASS
  1
AEC_DISP_REP_COLUMN_GRID_MODEL
  2
AecDbDispRepColumnGridModel
  3
AecStructureBase50|Product Desc: Autodesk Architectural Desktop 2007 |Company: Autodesk,Inc. |WEB Address: www.autodesk.com
 90
      129
280
     0
281
     0
  0
CLASS
  1
AEC_DISP_REP_CURTAIN_WALL_LAYOUT_MODEL
  2
AecDbDispRepCurtainWallLayoutModel
  3
AecArchBase50|Product Desc: Autodesk Architectural Desktop 2007 |Company: Autodesk,Inc. |WEB Address: www.autodesk.com
 90
      129
280
     0
281
     0
  0
CLASS
  1
AEC_DISP_REP_CURTAIN_WALL_LAYOUT_PLAN
  2
AecDbDispRepCurtainWallLayoutPlan
  3
AecArchBase50|Product Desc: Autodesk Architectural Desktop 2007 |Company: Autodesk,Inc. |WEB Address: www.autodesk.com
 90
      129
280
     0
281
     0
  0
CLASS
  1
AEC_DISP_REP_CURTAIN_WALL_UNIT_MODEL
  2
AecDbDispRepCurtainWallUnitModel
  3
AecArchBase50|Product Desc: Autodesk Architectural Desktop 2007 |Company: Autodesk,Inc. |WEB Address: www.autodesk.com
 90
      129
280
     0
281
     0
  0
CLASS
  1
AEC_DISP_REP_CURTAIN_WALL_UNIT_PLAN
  2
AecDbDispRepCurtainWallUnitPlan
  3
AecArchBase50|Product Desc: Autodesk Architectural Desktop 2007 |Company: Autodesk,Inc. |WEB Address: www.autodesk.com
 90
      129
280
     0
281
     0
  0
CLASS
  1
AEC_DB_DISP_REP_DIM_GROUP_PLAN
  2
AecDbDispRepDimGroupPlan
  3
AecArchDACHBase50|Product Desc: Autodesk Architectural Desktop 2007 |Company: Autodesk,Inc. |WEB Address: www.autodesk.com
 90
      129
280
     0
281
     0
  0
CLASS
  1
AEC_DISP_REP_DOOR_MODEL
  2
AecDbDispRepDoorModel
  3
AecArchBase50|Product Desc: Autodesk Architectural Desktop 2007 |Company: Autodesk,Inc. |WEB Address: www.autodesk.com
 90
      129
280
     0
281
     0
  0
CLASS
  1
AEC_DISP_REP_DOOR_NOMINAL
  2
AecDbDispRepDoorNominal
  3
AecArchBase50|Product Desc: Autodesk Architectural Desktop 2007 |Company: Autodesk,Inc. |WEB Address: www.autodesk.com
 90
      129
280
     0
281
     0
  0
CLASS
  1
AEC_DISP_REP_DOOR_PLAN
  2
AecDbDispRepDoorPlan
  3
AecArchBase50|Product Desc: Autodesk Architectural Desktop 2007 |Company: Autodesk,Inc. |WEB Address: www.autodesk.com
 90
      129
280
     0
281
     0
  0
CLASS
  1
AEC_DISP_REP_EDITINPLACEPROFILE
  2
AecDbDispRepEditInPlaceProfile
  3
AecBase50|Product Desc: Autodesk Architectural Desktop 2007 |Company: Autodesk,Inc. |WEB Address: www.autodesk.com
 90
      129
280
     0
281
     0
  0
CLASS
  1
AEC_DISP_REP_ENT_REF
  2
AecDbDispRepEntRef
  3
AecBase50|Product Desc: Autodesk Architectural Desktop 2007 |Company: Autodesk,Inc. |WEB Address: www.autodesk.com
 90
      129
280
     0
281
     0
  0
CLASS
  1
AEC_DISP_REP_LAYOUT_CURVE
  2
AecDbDispRepLayoutCurve
  3
AecBase50|Product Desc: Autodesk Architectural Desktop 2007 |Company: Autodesk,Inc. |WEB Address: www.autodesk.com
 90
      129
280
     0
281
     0
  0
CLASS
  1
AEC_DISP_REP_LAYOUT_GRID2D
  2
AecDbDispRepLayoutGrid2d
  3
AecBase50|Product Desc: Autodesk Architectural Desktop 2007 |Company: Autodesk,Inc. |WEB Address: www.autodesk.com
 90
      129
280
     0
281
     0
  0
CLASS
  1
AEC_DISP_REP_LAYOUT_GRID3D
  2
AecDbDispRepLayoutGrid3d
  3
AecBase50|Product Desc: Autodesk Architectural Desktop 2007 |Company: Autodesk,Inc. |WEB Address: www.autodesk.com
 90
      129
280
     0
281
     0
  0
CLASS
  1
AEC_DISP_REP_MASKBLOCK_REF
  2
AecDbDispRepMaskBlockRef
  3
AecBase50|Product Desc: Autodesk Architectural Desktop 2007 |Company: Autodesk,Inc. |WEB Address: www.autodesk.com
 90
      129
280
     0
281
     0
  0
CLASS
  1
AEC_DISP_REP_MASKBLOCK_REF_RCP
  2
AecDbDispRepMaskBlockRefRcp
  3
AecArchBase50|Product Desc: Autodesk Architectural Desktop 2007 |Company: Autodesk,Inc. |WEB Address: www.autodesk.com
 90
      129
280
     0
281
     0
  0
CLASS
  1
AEC_DISP_REP_MASS_ELEM_MODEL
  2
AecDbDispRepMassElemModel
  3
AecBaseEx50|Product Desc: Autodesk Architectural Desktop 2007 |Company: Autodesk,Inc. |WEB Address: www.autodesk.com
 90
      129
280
     0
281
     0
  0
CLASS
  1
AEC_DISP_REP_MASS_ELEM_SCHEM
  2
AecDbDispRepMassElemSchem
  3
AecBaseEx50|Product Desc: Autodesk Architectural Desktop 2007 |Company: Autodesk,Inc. |WEB Address: www.autodesk.com
 90
      129
280
     0
281
     0
  0
CLASS
  1
AEC_DISP_REP_MASS_GROUP_MODEL
  2
AecDbDispRepMassGroupModel
  3
AecBaseEx50|Product Desc: Autodesk Architectural Desktop 2007 |Company: Autodesk,Inc. |WEB Address: www.autodesk.com
 90
      129
280
     0
281
     0
  0
CLASS
  1
AEC_DISP_REP_MASS_GROUP_PLAN
  2
AecDbDispRepMassGroupPlan
  3
AecBaseEx50|Product Desc: Autodesk Architectural Desktop 2007 |Company: Autodesk,Inc. |WEB Address: www.autodesk.com
 90
      129
280
     0
281
     0
  0
CLASS
  1
AEC_DISP_REP_MATERIAL
  2
AecDbDispRepMaterial
  3
AecBase50|Product Desc: Autodesk Architectural Desktop 2007 |Company: Autodesk,Inc. |WEB Address: www.autodesk.com
 90
      129
280
     0
281
     0
  0
CLASS
  1
AEC_DISP_REP_MVBLOCK_REF
  2
AecDbDispRepMvBlockRef
  3
AecBase50|Product Desc: Autodesk Architectural Desktop 2007 |Company: Autodesk,Inc. |WEB Address: www.autodesk.com
 90
      129
280
     0
281
     0
  0
CLASS
  1
AEC_DISP_REP_MVBLOCK_REF_MODEL
  2
AecDbDispRepMvBlockRefModel
  3
AecBase50|Product Desc: Autodesk Architectural Desktop 2007 |Company: Autodesk,Inc. |WEB Address: www.autodesk.com
 90
      129
280
     0
281
     0
  0
CLASS
  1
AEC_DISP_REP_OPENING
  2
AecDbDispRepOpening
  3
AecArchBase50|Product Desc: Autodesk Architectural Desktop 2007 |Company: Autodesk,Inc. |WEB Address: www.autodesk.com
 90
      129
280
     0
281
     0
  0
CLASS
  1
AEC_DISP_REP_OPENING_MODEL
  2
AecDbDispRepOpeningModel
  3
AecArchBase50|Product Desc: Autodesk Architectural Desktop 2007 |Company: Autodesk,Inc. |WEB Address: www.autodesk.com
 90
      129
280
     0
281
     0
  0
CLASS
  1
AEC_DISP_REP_POLYGON_MODEL
  2
AecDbDispRepPolygonModel
  3
AecBase50|Product Desc: Autodesk Architectural Desktop 2007 |Company: Autodesk,Inc. |WEB Address: www.autodesk.com
 90
      129
280
     0
281
     0
  0
CLASS
  1
AEC_DISP_REP_RAILING_MODEL
  2
AecDbDispRepRailingModel
  3
AecArchBase50|Product Desc: Autodesk Architectural Desktop 2007 |Company: Autodesk,Inc. |WEB Address: www.autodesk.com
 90
      129
280
     0
281
     0
  0
CLASS
  1
AEC_DISP_REP_RAILING_PLAN
  2
AecDbDispRepRailingPlan
  3
AecArchBase50|Product Desc: Autodesk Architectural Desktop 2007 |Company: Autodesk,Inc. |WEB Address: www.autodesk.com
 90
      129
280
     0
281
     0
  0
CLASS
  1
AEC_DISP_REP_ROOF_MODEL
  2
AecDbDispRepRoofModel
  3
AecArchBase50|Product Desc: Autodesk Architectural Desktop 2007 |Company: Autodesk,Inc. |WEB Address: www.autodesk.com
 90
      129
280
     0
281
     0
  0
CLASS
  1
AEC_DISP_REP_ROOF_PLAN
  2
AecDbDispRepRoofPlan
  3
AecArchBase50|Product Desc: Autodesk Architectural Desktop 2007 |Company: Autodesk,Inc. |WEB Address: www.autodesk.com
 90
      129
280
     0
281
     0
  0
CLASS
  1
AEC_DISP_REP_ROOFSLAB_MODEL
  2
AecDbDispRepRoofSlabModel
  3
AecArchBase50|Product Desc: Autodesk Architectural Desktop 2007 |Company: Autodesk,Inc. |WEB Address: www.autodesk.com
 90
      129
280
     0
281
     0
  0
CLASS
  1
AEC_DISP_REP_ROOFSLAB_PLAN
  2
AecDbDispRepRoofSlabPlan
  3
AecArchBase50|Product Desc: Autodesk Architectural Desktop 2007 |Company: Autodesk,Inc. |WEB Address: www.autodesk.com
 90
      129
280
     0
281
     0
  0
CLASS
  1
AEC_DISP_REP_SCHEDULE_TABLE
  2
AecDbDispRepScheduleTable
  3
AecSchedule50|Product Desc: Autodesk Architectural Desktop 2007 |Company: Autodesk,Inc. |WEB Address: www.autodesk.com
 90
      129
280
     0
281
     0
  0
CLASS
  1
AEC_DISP_REP_SLAB_MODEL
  2
AecDbDispRepSlabModel
  3
AecArchBase50|Product Desc: Autodesk Architectural Desktop 2007 |Company: Autodesk,Inc. |WEB Address: www.autodesk.com
 90
      129
280
     0
281
     0
  0
CLASS
  1
AEC_DISP_REP_SLAB_PLAN
  2
AecDbDispRepSlabPlan
  3
AecArchBase50|Product Desc: Autodesk Architectural Desktop 2007 |Company: Autodesk,Inc. |WEB Address: www.autodesk.com
 90
      129
280
     0
281
     0
  0
CLASS
  1
AEC_DISP_REP_SLICE
  2
AecDbDispRepSlice
  3
AecBase50|Product Desc: Autodesk Architectural Desktop 2007 |Company: Autodesk,Inc. |WEB Address: www.autodesk.com
 90
      129
280
     0
281
     0
  0
CLASS
  1
AEC_DISP_REP_SPACE_BOUNDARY_MODEL
  2
AecDbDispRepSpaceBoundaryModel
  3
AecArchBase50|Product Desc: Autodesk Architectural Desktop 2007 |Company: Autodesk,Inc. |WEB Address: www.autodesk.com
 90
      129
280
     0
281
     0
  0
CLASS
  1
AEC_DISP_REP_SPACE_BOUNDARY_PLAN
  2
AecDbDispRepSpaceBoundaryPlan
  3
AecArchBase50|Product Desc: Autodesk Architectural Desktop 2007 |Company: Autodesk,Inc. |WEB Address: www.autodesk.com
 90
      129
280
     0
281
     0
  0
CLASS
  1
AEC_DISP_REP_SPACE_BOUNDARY_SCHEM
  2
AecDbDispRepSpaceBoundarySketch
  3
AecArchBase50|Product Desc: Autodesk Architectural Desktop 2007 |Company: Autodesk,Inc. |WEB Address: www.autodesk.com
 90
      129
280
     0
281
     0
  0
CLASS
  1
AEC_DISP_REP_SPACE_MODEL
  2
AecDbDispRepSpaceModel
  3
AecArchBase50|Product Desc: Autodesk Architectural Desktop 2007 |Company: Autodesk,Inc. |WEB Address: www.autodesk.com
 90
      129
280
     0
281
     0
  0
CLASS
  1
AEC_DISP_REP_SPACE_PLAN
  2
AecDbDispRepSpacePlan
  3
AecArchBase50|Product Desc: Autodesk Architectural Desktop 2007 |Company: Autodesk,Inc. |WEB Address: www.autodesk.com
 90
      129
280
     0
281
     0
  0
CLASS
  1
AEC_DISP_REP_STAIR_MODEL
  2
AecDbDispRepStairModel
  3
AecArchBase50|Product Desc: Autodesk Architectural Desktop 2007 |Company: Autodesk,Inc. |WEB Address: www.autodesk.com
 90
      129
280
     0
281
     0
  0
CLASS
  1
AEC_DISP_REP_STAIR_PLAN
  2
AecDbDispRepStairPlan
  3
AecArchBase50|Product Desc: Autodesk Architectural Desktop 2007 |Company: Autodesk,Inc. |WEB Address: www.autodesk.com
 90
      129
280
     0
281
     0
  0
CLASS
  1
AEC_DISP_REP_WALL_GRAPH
  2
AecDbDispRepWallGraph
  3
AecArchBase50|Product Desc: Autodesk Architectural Desktop 2007 |Company: Autodesk,Inc. |WEB Address: www.autodesk.com
 90
      129
280
     0
281
     0
  0
CLASS
  1
AEC_DISP_REP_WALL_MODEL
  2
AecDbDispRepWallModel
  3
AecArchBase50|Product Desc: Autodesk Architectural Desktop 2007 |Company: Autodesk,Inc. |WEB Address: www.autodesk.com
 90
      129
280
     0
281
     0
  0
CLASS
  1
AEC_DISP_REP_WALL_PLAN
  2
AecDbDispRepWallPlan
  3
AecArchBase50|Product Desc: Autodesk Architectural Desktop 2007 |Company: Autodesk,Inc. |WEB Address: www.autodesk.com
 90
      129
280
     0
281
     0
  0
CLASS
  1
AEC_DISP_REP_WALL_SCHEM
  2
AecDbDispRepWallSchem
  3
AecArchBase50|Product Desc: Autodesk Architectural Desktop 2007 |Company: Autodesk,Inc. |WEB Address: www.autodesk.com
 90
      129
280
     0
281
     0
  0
CLASS
  1
AEC_DISP_REP_WINDOW_ASSEMBLY_MODEL
  2
AecDbDispRepWindowAssemblyModel
  3
AecArchBase50|Product Desc: Autodesk Architectural Desktop 2007 |Company: Autodesk,Inc. |WEB Address: www.autodesk.com
 90
      129
280
     0
281
     0
  0
CLASS
  1
AEC_DISP_REP_WINDOW_ASSEMBLY_PLAN
  2
AecDbDispRepWindowAssemblyPlan
  3
AecArchBase50|Product Desc: Autodesk Architectural Desktop 2007 |Company: Autodesk,Inc. |WEB Address: www.autodesk.com
 90
      129
280
     0
281
     0
  0
CLASS
  1
AEC_AECDBDISPREPWINDOWASSEMBLYPLAN100
  2
AecDbDispRepWindowAssemblyPlan100
  3
AecArchDACHBase50|Product Desc: Autodesk Architectural Desktop 2007 |Company: Autodesk,Inc. |WEB Address: www.autodesk.com
 90
      129
280
     0
281
     0
  0
CLASS
  1
AEC_DISP_REP_WINDOW_MODEL
  2
AecDbDispRepWindowModel
  3
AecArchBase50|Product Desc: Autodesk Architectural Desktop 2007 |Company: Autodesk,Inc. |WEB Address: www.autodesk.com
 90
      129
280
     0
281
     0
  0
CLASS
  1
AEC_DISP_REP_WINDOW_NOMINAL
  2
AecDbDispRepWindowNominal
  3
AecArchBase50|Product Desc: Autodesk Architectural Desktop 2007 |Company: Autodesk,Inc. |WEB Address: www.autodesk.com
 90
      129
280
     0
281
     0
  0
CLASS
  1
AEC_DISP_REP_WINDOW_PLAN
  2
AecDbDispRepWindowPlan
  3
AecArchBase50|Product Desc: Autodesk Architectural Desktop 2007 |Company: Autodesk,Inc. |WEB Address: www.autodesk.com
 90
      129
280
     0
281
     0
  0
CLASS
  1
AECS_DISP_REP_MEMBER_LOGICAL
  2
AecsDbDispRepMemberLogical
  3
AecStructureBase50|Product Desc: Autodesk Architectural Desktop 2007 |Company: Autodesk,Inc. |WEB Address: www.autodesk.com
 90
      129
280
     0
281
     0
  0
CLASS
  1
AECS_DISP_REP_MEMBER_MODEL_DESIGN
  2
AecsDbDispRepMemberModelDesign
  3
AecStructureBase50|Product Desc: Autodesk Architectural Desktop 2007 |Company: Autodesk,Inc. |WEB Address: www.autodesk.com
 90
      129
280
     0
281
     0
  0
CLASS
  1
AECS_DISP_REP_MEMBER_PLAN_DESIGN
  2
AecsDbDispRepMemberPlanDesign
  3
AecStructureBase50|Product Desc: Autodesk Architectural Desktop 2007 |Company: Autodesk,Inc. |WEB Address: www.autodesk.com
 90
      129
280
     0
281
     0
  0
CLASS
  1
AEC_DISP_PROPS_ENT
  2
AecDbDispPropsEnt
  3
AecBase50|Product Desc: Autodesk Architectural Desktop 2007 |Company: Autodesk,Inc. |WEB Address: www.autodesk.com
 90
      129
280
     0
281
     0
  0
CLASS
  1
AEC_DISP_PROPS_CLIP_VOLUME
  2
AecDbDispPropsClipVol
  3
AecBase50|Product Desc: Autodesk Architectural Desktop 2007 |Company: Autodesk,Inc. |WEB Address: www.autodesk.com
 90
      129
280
     0
281
     0
  0
CLASS
  1
AEC_DISP_PROPS_SLICE
  2
AecDbDispPropsSlice
  3
AecBase50|Product Desc: Autodesk Architectural Desktop 2007 |Company: Autodesk,Inc. |WEB Address: www.autodesk.com
 90
      129
280
     0
281
     0
  0
CLASS
  1
AEC_DISP_PROPS_ROOFSLAB_PLAN
  2
AecDbDispPropsRoofSlabPlan
  3
AecArchBase50|Product Desc: Autodesk Architectural Desktop 2007 |Company: Autodesk,Inc. |WEB Address: www.autodesk.com
 90
      129
280
     0
281
     0
  0
CLASS
  1
AEC_DISP_PROPS_GRID_ASSEMBLY_MODEL
  2
AecDbDispPropsGridAssemblyModel
  3
AecArchBase50|Product Desc: Autodesk Architectural Desktop 2007 |Company: Autodesk,Inc. |WEB Address: www.autodesk.com
 90
      129
280
     0
281
     0
  0
CLASS
  1
AEC_DISP_PROPS_ROOF
  2
AecDbDispPropsRoof
  3
AecArchBase50|Product Desc: Autodesk Architectural Desktop 2007 |Company: Autodesk,Inc. |WEB Address: www.autodesk.com
 90
      129
280
     0
281
     0
  0
CLASS
  1
AEC_DISP_PROPS_SPACE_MODEL
  2
AecDbDispPropsSpaceModel
  3
AecArchBase50|Product Desc: Autodesk Architectural Desktop 2007 |Company: Autodesk,Inc. |WEB Address: www.autodesk.com
 90
      129
280
     0
281
     0
  0
CLASS
  1
AEC_DISP_PROPS_EDITINPLACEPROFILE_MODEL
  2
AecDbDispPropsEditInPlaceProfile
  3
AecBase50|Product Desc: Autodesk Architectural Desktop 2007 |Company: Autodesk,Inc. |WEB Address: www.autodesk.com
 90
      129
280
     0
281
     0
  0
CLASS
  1
AEC_DISP_PROPS_DOOR
  2
AecDbDispPropsDoor
  3
AecArchBase50|Product Desc: Autodesk Architectural Desktop 2007 |Company: Autodesk,Inc. |WEB Address: www.autodesk.com
 90
      129
280
     0
281
     0
  0
CLASS
  1
AEC_DISP_PROPS_MASKBLOCK
  2
AecDbDispPropsMaskBlock
  3
AecBase50|Product Desc: Autodesk Architectural Desktop 2007 |Company: Autodesk,Inc. |WEB Address: www.autodesk.com
 90
      129
280
     0
281
     0
  0
CLASS
  1
AEC_DISP_PROPS_SPACE_PLAN
  2
AecDbDispPropsSpacePlan
  3
AecArchBase50|Product Desc: Autodesk Architectural Desktop 2007 |Company: Autodesk,Inc. |WEB Address: www.autodesk.com
 90
      129
280
     0
281
     0
  0
CLASS
  1
AEC_DISP_PROPS_RAILING_PLAN
  2
AecDbDispPropsRailingPlan
  3
AecArchBase50|Product Desc: Autodesk Architectural Desktop 2007 |Company: Autodesk,Inc. |WEB Address: www.autodesk.com
 90
      129
280
     0
281
     0
  0
CLASS
  1
AEC_DISP_PROPS_LAYOUT_GRID2D
  2
AecDbDispPropsLayoutGrid2d
  3
AecBase50|Product Desc: Autodesk Architectural Desktop 2007 |Company: Autodesk,Inc. |WEB Address: www.autodesk.com
 90
      129
280
     0
281
     0
  0
CLASS
  1
AEC_DISP_PROPS_CLIP_VOLUME_RESULT
  2
AecDbDispPropsClipVolResSubDiv
  3
AecBase50|Product Desc: Autodesk Architectural Desktop 2007 |Company: Autodesk,Inc. |WEB Address: www.autodesk.com
 90
      129
280
     0
281
     0
  0
CLASS
  1
AEC_DISP_PROPS_STAIR_MODEL
  2
AecDbDispPropsStairModel
  3
AecArchBase50|Product Desc: Autodesk Architectural Desktop 2007 |Company: Autodesk,Inc. |WEB Address: www.autodesk.com
 90
      129
280
     0
281
     0
  0
CLASS
  1
AEC_DISP_PROPS_LAYOUT_CURVE
  2
AecDbDispPropsLayoutCurve
  3
AecBase50|Product Desc: Autodesk Architectural Desktop 2007 |Company: Autodesk,Inc. |WEB Address: www.autodesk.com
 90
      129
280
     0
281
     0
  0
CLASS
  1
AEC_DISP_PROPS_POLYGON_MODEL
  2
AecDbDispPropsPolygonModel
  3
AecBase50|Product Desc: Autodesk Architectural Desktop 2007 |Company: Autodesk,Inc. |WEB Address: www.autodesk.com
 90
      129
280
     0
281
     0
  0
CLASS
  1
AEC_DISP_PROPS_MASS_GROUP
  2
AecDbDispPropsMassGroup
  3
AecBaseEx50|Product Desc: Autodesk Architectural Desktop 2007 |Company: Autodesk,Inc. |WEB Address: www.autodesk.com
 90
      129
280
     0
281
     0
  0
CLASS
  1
AEC_DISP_PROPS_STAIR_PLAN
  2
AecDbDispPropsStairPlan
  3
AecArchBase50|Product Desc: Autodesk Architectural Desktop 2007 |Company: Autodesk,Inc. |WEB Address: www.autodesk.com
 90
      129
280
     0
281
     0
  0
CLASS
  1
AEC_DISP_PROPS_OPENING
  2
AecDbDispPropsOpening
  3
AecArchBase50|Product Desc: Autodesk Architectural Desktop 2007 |Company: Autodesk,Inc. |WEB Address: www.autodesk.com
 90
      129
280
     0
281
     0
  0
CLASS
  1
AEC_DISP_PROPS_WALL_GRAPH
  2
AecDbDispPropsWallGraph
  3
AecArchBase50|Product Desc: Autodesk Architectural Desktop 2007 |Company: Autodesk,Inc. |WEB Address: www.autodesk.com
 90
      129
280
     0
281
     0
  0
CLASS
  1
AEC_DISP_PROPS_DOOR_NOMINAL
  2
AecDbDispPropsDoorNominal
  3
AecArchBase50|Product Desc: Autodesk Architectural Desktop 2007 |Company: Autodesk,Inc. |WEB Address: www.autodesk.com
 90
      129
280
     0
281
     0
  0
CLASS
  1
AEC_DISP_PROPS_SLAB
  2
AecDbDispPropsSlab
  3
AecArchBase50|Product Desc: Autodesk Architectural Desktop 2007 |Company: Autodesk,Inc. |WEB Address: www.autodesk.com
 90
      129
280
     0
281
     0
  0
CLASS
  1
AEC_DISP_PROPS_WALL_MODEL
  2
AecDbDispPropsWallModel
  3
AecArchBase50|Product Desc: Autodesk Architectural Desktop 2007 |Company: Autodesk,Inc. |WEB Address: www.autodesk.com
 90
      129
280
     0
281
     0
  0
CLASS
  1
AEC_DISP_PROPS_MATERIAL
  2
AecDbDispPropsMaterial
  3
AecBase50|Product Desc: Autodesk Architectural Desktop 2007 |Company: Autodesk,Inc. |WEB Address: www.autodesk.com
 90
      129
280
     0
281
     0
  0
CLASS
  1
AEC_DISP_PROPS_WINDOW
  2
AecDbDispPropsWindow
  3
AecArchBase50|Product Desc: Autodesk Architectural Desktop 2007 |Company: Autodesk,Inc. |WEB Address: www.autodesk.com
 90
      129
280
     0
281
     0
  0
CLASS
  1
AEC_DISP_PROPS_LAYOUT_GRID3D
  2
AecDbDispPropsLayoutGrid3d
  3
AecBase50|Product Desc: Autodesk Architectural Desktop 2007 |Company: Autodesk,Inc. |WEB Address: www.autodesk.com
 90
      129
280
     0
281
     0
  0
CLASS
  1
AEC_DISP_PROPS_GRID_ASSEMBLY_PLAN
  2
AecDbDispPropsGridAssemblyPlan
  3
AecArchBase50|Product Desc: Autodesk Architectural Desktop 2007 |Company: Autodesk,Inc. |WEB Address: www.autodesk.com
 90
      129
280
     0
281
     0
  0
CLASS
  1
AEC_DISP_PROPS_WALL_SCHEM
  2
AecDbDispPropsWallSchem
  3
AecArchBase50|Product Desc: Autodesk Architectural Desktop 2007 |Company: Autodesk,Inc. |WEB Address: www.autodesk.com
 90
      129
280
     0
281
     0
  0
CLASS
  1
AEC_DISP_PROPS_WALL_PLAN
  2
AecDbDispPropsWallPlan
  3
AecArchBase50|Product Desc: Autodesk Architectural Desktop 2007 |Company: Autodesk,Inc. |WEB Address: www.autodesk.com
 90
      129
280
     0
281
     0
  0
CLASS
  1
AEC_DISP_PROPS_SPACE_BOUNDARY
  2
AecDbDispPropsSpaceBoundary
  3
AecArchBase50|Product Desc: Autodesk Architectural Desktop 2007 |Company: Autodesk,Inc. |WEB Address: www.autodesk.com
 90
      129
280
     0
281
     0
  0
CLASS
  1
AEC_DISP_PROPS_SLAB_PLAN
  2
AecDbDispPropsSlabPlan
  3
AecArchBase50|Product Desc: Autodesk Architectural Desktop 2007 |Company: Autodesk,Inc. |WEB Address: www.autodesk.com
 90
      129
280
     0
281
     0
  0
CLASS
  1
AEC_DISP_PROPS_RAILING_MODEL
  2
AecDbDispPropsRailingModel
  3
AecArchBase50|Product Desc: Autodesk Architectural Desktop 2007 |Company: Autodesk,Inc. |WEB Address: www.autodesk.com
 90
      129
280
     0
281
     0
  0
CLASS
  1
AEC_DISP_PROPS_MASS_ELEM_MODEL
  2
AecDbDispPropsMassElem
  3
AecBaseEx50|Product Desc: Autodesk Architectural Desktop 2007 |Company: Autodesk,Inc. |WEB Address: www.autodesk.com
 90
      129
280
     0
281
     0
  0
CLASS
  1
AEC_DISP_PROPS_DIM
  2
AecDbDispPropsDimGroup
  3
AecArchDACHBase50|Product Desc: Autodesk Architectural Desktop 2007 |Company: Autodesk,Inc. |WEB Address: www.autodesk.com
 90
      129
280
     0
281
     0
  0
CLASS
  1
AEC_DISP_PROPS_ROOFSLAB
  2
AecDbDispPropsRoofSlab
  3
AecArchBase50|Product Desc: Autodesk Architectural Desktop 2007 |Company: Autodesk,Inc. |WEB Address: www.autodesk.com
 90
      129
280
     0
281
     0
  0
CLASS
  1
AEC_DISP_PROPS_ENT_REF
  2
AecDbDispPropsEntRef
  3
AecBase50|Product Desc: Autodesk Architectural Desktop 2007 |Company: Autodesk,Inc. |WEB Address: www.autodesk.com
 90
      129
280
     0
281
     0
  0
CLASS
  1
AEC_DISP_PROPS_2D_SECTION
  2
AecDbDispProps2dSection
  3
AecBase50|Product Desc: Autodesk Architectural Desktop 2007 |Company: Autodesk,Inc. |WEB Address: www.autodesk.com
 90
      129
280
     0
281
     0
  0
CLASS
  1
AECS_DISP_PROPS_MEMBER_LOGICAL
  2
AecsDbDispPropsMemberLogical
  3
AecStructureBase50|Product Desc: Autodesk Architectural Desktop 2007 |Company: Autodesk,Inc. |WEB Address: www.autodesk.com
 90
      129
280
     0
281
     0
  0
CLASS
  1
AEC_DISP_PROPS_AREA_DECOMPOSED
  2
AecDbDispPropsAreaDecomposed
  3
AecAreaCalculationBase50|Product Desc: Autodesk Architectural Desktop 2007 |Company: Autodesk,Inc. |WEB Address: www.autodesk.com
 90
      129
280
     0
281
     0
  0
CLASS
  1
AEC_DISP_PROPS_CAMERA
  2
AecDbDispPropsCamera
  3
AecBase50|Product Desc: Autodesk Architectural Desktop 2007 |Company: Autodesk,Inc. |WEB Address: www.autodesk.com
 90
      129
280
     0
281
     0
  0
CLASS
  1
AECS_DISP_PROPS_MEMBER
  2
AecsDbDispPropsMember
  3
AecStructureBase50|Product Desc: Autodesk Architectural Desktop 2007 |Company: Autodesk,Inc. |WEB Address: www.autodesk.com
 90
      129
280
     0
281
     0
  0
CLASS
  1
AECS_DISP_PROPS_MEMBER_PLAN
  2
AecsDbDispPropsMemberPlan
  3
AecStructureBase50|Product Desc: Autodesk Architectural Desktop 2007 |Company: Autodesk,Inc. |WEB Address: www.autodesk.com
 90
      129
280
     0
281
     0
  0
CLASS
  1
AEC_DISP_PROPS_AREAGROUP
  2
AecDbDispPropsAreaGroup
  3
AecAreaCalculationBase50|Product Desc: Autodesk Architectural Desktop 2007 |Company: Autodesk,Inc. |WEB Address: www.autodesk.com
 90
      129
280
     0
281
     0
  0
CLASS
  1
AEC_DISP_PROPS_WINDOW_NOMINAL
  2
AecDbDispPropsWindowNominal
  3
AecArchBase50|Product Desc: Autodesk Architectural Desktop 2007 |Company: Autodesk,Inc. |WEB Address: www.autodesk.com
 90
      129
280
     0
281
     0
  0
CLASS
  1
AEC_DISP_PROPS_AREA
  2
AecDbDispPropsArea
  3
AecAreaCalculationBase50|Product Desc: Autodesk Architectural Desktop 2007 |Company: Autodesk,Inc. |WEB Address: www.autodesk.com
 90
      129
280
     0
281
     0
  0
CLASS
  1
AEC_DISP_PROPS_SCHEDULE_TABLE
  2
AecDbDispPropsScheduleTable
  3
AecSchedule50|Product Desc: Autodesk Architectural Desktop 2007 |Company: Autodesk,Inc. |WEB Address: www.autodesk.com
 90
      129
280
     0
281
     0
  0
CLASS
  1
AEC_LAYERKEY_STYLE
  2
AecDbLayerKeyStyle
  3
AecBase50|Product Desc: Autodesk Architectural Desktop 2007 |Company: Autodesk,Inc. |WEB Address: www.autodesk.com
 90
      129
280
     0
281
     0
  0
CLASS
  1
AEC_VARS_ARCHBASE
  2
AecDbVarsArchBase
  3
AecArchBase50|Product Desc: Autodesk Architectural Desktop 2007 |Company: Autodesk,Inc. |WEB Address: www.autodesk.com
 90
      129
280
     0
281
     0
  0
CLASS
  1
AEC_VARS_MUNICH
  2
AecDbVarsMunich
  3
AecArchDACHBase50|Product Desc: Autodesk Architectural Desktop 2007 |Company: Autodesk,Inc. |WEB Address: www.autodesk.com
 90
      129
280
     0
281
     0
  0
CLASS
  1
AEC_NOTIFICATION_TRACKER
  2
AecDbNotificationTracker
  3
AecBase50|Product Desc: Autodesk Architectural Desktop 2007 |Company: Autodesk,Inc. |WEB Address: www.autodesk.com
 90
      129
280
     0
281
     0
  0
CLASS
  1
AEC_DISP_REP_ANCHOR
  2
AecDbDispRepAnchor
  3
AecBase50|Product Desc: Autodesk Architectural Desktop 2007 |Company: Autodesk,Inc. |WEB Address: www.autodesk.com
 90
      129
280
     0
281
     0
  0
CLASS
  1
AEC_DISP_REP_POLYGON_TRUECOLOUR
  2
AecDbDispRepPolygonTrueColour
  3
AecBase50|Product Desc: Autodesk Architectural Desktop 2007 |Company: Autodesk,Inc. |WEB Address: www.autodesk.com
 90
      129
280
     0
281
     0
  0
CLASS
  1
AEC_DISP_PROPS_POLYGON_TRUECOLOUR
  2
AecDbDispPropsPolygonTrueColour
  3
AecBase50|Product Desc: Autodesk Architectural Desktop 2007 |Company: Autodesk,Inc. |WEB Address: www.autodesk.com
 90
      129
280
     0
281
     0
  0
CLASS
  1
AEC_DISP_REP_BDG_ELEVLINE_RCP
  2
AecDbDispRepBdgElevLineRcp
  3
AecArchBase50|Product Desc: Autodesk Architectural Desktop 2007 |Company: Autodesk,Inc. |WEB Address: www.autodesk.com
 90
      129
280
     0
281
     0
  0
CLASS
  1
AEC_DISP_REP_BDG_SECTIONLINE_RCP
  2
AecDbDispRepBdgSectionLineRcp
  3
AecArchBase50|Product Desc: Autodesk Architectural Desktop 2007 |Company: Autodesk,Inc. |WEB Address: www.autodesk.com
 90
      129
280
     0
281
     0
  0
CLASS
  1
AEC_DISP_REP_BDG_SECTION_MODEL
  2
AecDbDispRepBdgSectionModel
  3
AecArchBase50|Product Desc: Autodesk Architectural Desktop 2007 |Company: Autodesk,Inc. |WEB Address: www.autodesk.com
 90
      129
280
     0
281
     0
  0
CLASS
  1
AEC_DISP_REP_DOOR_ELEV
  2
AecDbDispRepDoorElev
  3
AecArchBase50|Product Desc: Autodesk Architectural Desktop 2007 |Company: Autodesk,Inc. |WEB Address: www.autodesk.com
 90
      129
280
     0
281
     0
  0
CLASS
  1
AEC_DISP_REP_DOOR_RCP
  2
AecDbDispRepDoorRcp
  3
AecArchBase50|Product Desc: Autodesk Architectural Desktop 2007 |Company: Autodesk,Inc. |WEB Address: www.autodesk.com
 90
      129
280
     0
281
     0
  0
CLASS
  1
AEC_DISP_REP_DOOR_THRESHOLD_PLAN
  2
AecDbDispRepDoorThresholdPlan
  3
AecArchBase50|Product Desc: Autodesk Architectural Desktop 2007 |Company: Autodesk,Inc. |WEB Address: www.autodesk.com
 90
      129
280
     0
281
     0
  0
CLASS
  1
AEC_DISP_PROPS_DOOR_THRESHOLD_PLAN
  2
AecDbDispPropsDoorThresholdPlan
  3
AecArchBase50|Product Desc: Autodesk Architectural Desktop 2007 |Company: Autodesk,Inc. |WEB Address: www.autodesk.com
 90
      129
280
     0
281
     0
  0
CLASS
  1
AEC_DISP_REP_MASS_ELEM_RCP
  2
AecDbDispRepMassElemRcp
  3
AecArchBase50|Product Desc: Autodesk Architectural Desktop 2007 |Company: Autodesk,Inc. |WEB Address: www.autodesk.com
 90
      129
280
     0
281
     0
  0
CLASS
  1
AEC_DISP_REP_MASS_GROUP_RCP
  2
AecDbDispRepMassGroupRcp
  3
AecArchBase50|Product Desc: Autodesk Architectural Desktop 2007 |Company: Autodesk,Inc. |WEB Address: www.autodesk.com
 90
      129
280
     0
281
     0
  0
CLASS
  1
AEC_DISP_REP_MVBLOCK_REF_RCP
  2
AecDbDispRepMvBlockRefRcp
  3
AecArchBase50|Product Desc: Autodesk Architectural Desktop 2007 |Company: Autodesk,Inc. |WEB Address: www.autodesk.com
 90
      129
280
     0
281
     0
  0
CLASS
  1
AEC_DISP_REP_ROOF_RCP
  2
AecDbDispRepRoofRcp
  3
AecArchBase50|Product Desc: Autodesk Architectural Desktop 2007 |Company: Autodesk,Inc. |WEB Address: www.autodesk.com
 90
      129
280
     0
281
     0
  0
CLASS
  1
AEC_DISP_REP_SPACE_BOUNDARY_DIAGRAM
  2
AecDbDispRepSpaceBoundaryDgrm
  3
AecArchBase50|Product Desc: Autodesk Architectural Desktop 2007 |Company: Autodesk,Inc. |WEB Address: www.autodesk.com
 90
      129
280
     0
281
     0
  0
CLASS
  1
AEC_DISP_REP_SPACE_RCP
  2
AecDbDispRepSpaceRcp
  3
AecArchBase50|Product Desc: Autodesk Architectural Desktop 2007 |Company: Autodesk,Inc. |WEB Address: www.autodesk.com
 90
      129
280
     0
281
     0
  0
CLASS
  1
AEC_DISP_REP_SPACE_VOLUME
  2
AecDbDispRepSpaceVolume
  3
AecArchBase50|Product Desc: Autodesk Architectural Desktop 2007 |Company: Autodesk,Inc. |WEB Address: www.autodesk.com
 90
      129
280
     0
281
     0
  0
CLASS
  1
AEC_DISP_REP_STAIR_PLAN_OVERLAPPING
  2
AecDbDispRepStairPlanOverlapping
  3
AecArchBase50|Product Desc: Autodesk Architectural Desktop 2007 |Company: Autodesk,Inc. |WEB Address: www.autodesk.com
 90
      129
280
     0
281
     0
  0
CLASS
  1
AEC_DISP_PROPS_STAIR_PLAN_OVERLAPPING
  2
AecDbDispPropsStairPlanOverlapping
  3
AecArchBase50|Product Desc: Autodesk Architectural Desktop 2007 |Company: Autodesk,Inc. |WEB Address: www.autodesk.com
 90
      129
280
     0
281
     0
  0
CLASS
  1
AEC_DISP_REP_STAIR_RCP
  2
AecDbDispRepStairRcp
  3
AecArchBase50|Product Desc: Autodesk Architectural Desktop 2007 |Company: Autodesk,Inc. |WEB Address: www.autodesk.com
 90
      129
280
     0
281
     0
  0
CLASS
  1
AEC_DISP_REP_WALL_RCP
  2
AecDbDispRepWallRcp
  3
AecArchBase50|Product Desc: Autodesk Architectural Desktop 2007 |Company: Autodesk,Inc. |WEB Address: www.autodesk.com
 90
      129
280
     0
281
     0
  0
CLASS
  1
AEC_DISP_REP_WINDOWASSEMBLY_SILL_PLAN
  2
AecDbDispRepWindowAssemblySillPlan
  3
AecArchBase50|Product Desc: Autodesk Architectural Desktop 2007 |Company: Autodesk,Inc. |WEB Address: www.autodesk.com
 90
      129
280
     0
281
     0
  0
CLASS
  1
AEC_DISP_PROPS_WINDOW_ASSEMBLY_SILL_PLAN
  2
AecDbDispPropsWindowAssemblySillPlan
  3
AecArchBase50|Product Desc: Autodesk Architectural Desktop 2007 |Company: Autodesk,Inc. |WEB Address: www.autodesk.com
 90
      129
280
     0
281
     0
  0
CLASS
  1
AEC_DISP_REP_WINDOW_ELEV
  2
AecDbDispRepWindowElev
  3
AecArchBase50|Product Desc: Autodesk Architectural Desktop 2007 |Company: Autodesk,Inc. |WEB Address: www.autodesk.com
 90
      129
280
     0
281
     0
  0
CLASS
  1
AEC_DISP_REP_WINDOW_RCP
  2
AecDbDispRepWindowRcp
  3
AecArchBase50|Product Desc: Autodesk Architectural Desktop 2007 |Company: Autodesk,Inc. |WEB Address: www.autodesk.com
 90
      129
280
     0
281
     0
  0
CLASS
  1
AEC_DISP_REP_WINDOW_SILL_PLAN
  2
AecDbDispRepWindowSillPlan
  3
AecArchBase50|Product Desc: Autodesk Architectural Desktop 2007 |Company: Autodesk,Inc. |WEB Address: www.autodesk.com
 90
      129
280
     0
281
     0
  0
CLASS
  1
AEC_DISP_PROPS_WINDOW_SILL_PLAN
  2
AecDbDispPropsWindowSillPlan
  3
AecArchBase50|Product Desc: Autodesk Architectural Desktop 2007 |Company: Autodesk,Inc. |WEB Address: www.autodesk.com
 90
      129
280
     0
281
     0
  0
CLASS
  1
AEC_DISP_REP_ANCHOR_BUB_TO_GRID_RCP
  2
AecDbDispRepAnchorBubToGridRcp
  3
AecStructureBase50|Product Desc: Autodesk Architectural Desktop 2007 |Company: Autodesk,Inc. |WEB Address: www.autodesk.com
 90
      129
280
     0
281
     0
  0
CLASS
  1
AEC_DISP_REP_COLUMN_GRID_RCP
  2
AecDbDispRepColumnGridRcp
  3
AecStructureBase50|Product Desc: Autodesk Architectural Desktop 2007 |Company: Autodesk,Inc. |WEB Address: www.autodesk.com
 90
      129
280
     0
281
     0
  0
CLASS
  1
AECS_DISP_REP_MEMBER_ELEVATION_DESIGN
  2
AecsDbDispRepMemberElevationDesign
  3
AecStructureBase50|Product Desc: Autodesk Architectural Desktop 2007 |Company: Autodesk,Inc. |WEB Address: www.autodesk.com
 90
      129
280
     0
281
     0
  0
CLASS
  1
AECS_DISP_PROPS_MEMBER_PROJECTED
  2
AecsDbDispPropsMemberProjected
  3
AecStructureBase50|Product Desc: Autodesk Architectural Desktop 2007 |Company: Autodesk,Inc. |WEB Address: www.autodesk.com
 90
      129
280
     0
281
     0
  0
CLASS
  1
AECS_DISP_REP_MEMBER_ELEVATION_DETAIL
  2
AecsDbDispRepMemberElevationDetail
  3
AecStructureBase50|Product Desc: Autodesk Architectural Desktop 2007 |Company: Autodesk,Inc. |WEB Address: www.autodesk.com
 90
      129
280
     0
281
     0
  0
CLASS
  1
AECS_DISP_REP_MEMBER_MODEL_DETAIL
  2
AecsDbDispRepMemberModelDetail
  3
AecStructureBase50|Product Desc: Autodesk Architectural Desktop 2007 |Company: Autodesk,Inc. |WEB Address: www.autodesk.com
 90
      129
280
     0
281
     0
  0
CLASS
  1
AECS_DISP_REP_MEMBER_PLAN_DETAIL
  2
AecsDbDispRepMemberPlanDetail
  3
AecStructureBase50|Product Desc: Autodesk Architectural Desktop 2007 |Company: Autodesk,Inc. |WEB Address: www.autodesk.com
 90
      129
280
     0
281
     0
  0
CLASS
  1
AECS_DISP_REP_MEMBER_PLAN_SKETCH
  2
AecsDbDispRepMemberPlanSketch
  3
AecStructureBase50|Product Desc: Autodesk Architectural Desktop 2007 |Company: Autodesk,Inc. |WEB Address: www.autodesk.com
 90
      129
280
     0
281
     0
  0
CLASS
  1
AECS_DISP_PROPS_MEMBER_PLAN_SKETCH
  2
AecsDbDispPropsMemberPlanSketch
  3
AecStructureBase50|Product Desc: Autodesk Architectural Desktop 2007 |Company: Autodesk,Inc. |WEB Address: www.autodesk.com
 90
      129
280
     0
281
     0
  0
CLASS
  1
AEC_AECDBDISPREPAREA100
  2
AecDbDispRepArea100
  3
AecArchDACHBase50|Product Desc: Autodesk Architectural Desktop 2007 |Company: Autodesk,Inc. |WEB Address: www.autodesk.com
 90
      129
280
     0
281
     0
  0
CLASS
  1
AEC_AECDBDISPREPAREAGROUP100
  2
AecDbDispRepAreaGroup100
  3
AecArchDACHBase50|Product Desc: Autodesk Architectural Desktop 2007 |Company: Autodesk,Inc. |WEB Address: www.autodesk.com
 90
      129
280
     0
281
     0
  0
CLASS
  1
AEC_AECDBDISPREPBDGELEVLINEPLAN100
  2
AecDbDispRepBdgElevLinePlan100
  3
AecArchDACHBase50|Product Desc: Autodesk Architectural Desktop 2007 |Company: Autodesk,Inc. |WEB Address: www.autodesk.com
 90
      129
280
     0
281
     0
  0
CLASS
  1
AEC_AECDBDISPREPBDGSECTIONLINEPLAN100
  2
AecDbDispRepBdgSectionLinePlan100
  3
AecArchDACHBase50|Product Desc: Autodesk Architectural Desktop 2007 |Company: Autodesk,Inc. |WEB Address: www.autodesk.com
 90
      129
280
     0
281
     0
  0
CLASS
  1
AEC_AECDBDISPREPCEILINGGRIDPLAN100
  2
AecDbDispRepCeilingGridPlan100
  3
AecArchDACHBase50|Product Desc: Autodesk Architectural Desktop 2007 |Company: Autodesk,Inc. |WEB Address: www.autodesk.com
 90
      129
280
     0
281
     0
  0
CLASS
  1
AEC_AECDBDISPREPCOLUMNGRIDPLAN100
  2
AecDbDispRepColumnGridPlan100
  3
AecArchDACHBase50|Product Desc: Autodesk Architectural Desktop 2007 |Company: Autodesk,Inc. |WEB Address: www.autodesk.com
 90
      129
280
     0
281
     0
  0
CLASS
  1
AEC_AECDBDISPREPCURTAINWALLLAYOUTPLAN100
  2
AecDbDispRepCurtainWallLayoutPlan100
  3
AecArchDACHBase50|Product Desc: Autodesk Architectural Desktop 2007 |Company: Autodesk,Inc. |WEB Address: www.autodesk.com
 90
      129
280
     0
281
     0
  0
CLASS
  1
AEC_AECDBDISPREPCURTAINWALLUNITPLAN100
  2
AecDbDispRepCurtainWallUnitPlan100
  3
AecArchDACHBase50|Product Desc: Autodesk Architectural Desktop 2007 |Company: Autodesk,Inc. |WEB Address: www.autodesk.com
 90
      129
280
     0
281
     0
  0
CLASS
  1
AEC_AECDBDISPREPMVBLOCKREFPLAN100
  2
AecDbDispRepMvBlockRefPlan100
  3
AecArchDACHBase50|Product Desc: Autodesk Architectural Desktop 2007 |Company: Autodesk,Inc. |WEB Address: www.autodesk.com
 90
      129
280
     0
281
     0
  0
CLASS
  1
AEC_AECDBDISPREPROOFPLAN100
  2
AecDbDispRepRoofPlan100
  3
AecArchDACHBase50|Product Desc: Autodesk Architectural Desktop 2007 |Company: Autodesk,Inc. |WEB Address: www.autodesk.com
 90
      129
280
     0
281
     0
  0
CLASS
  1
AEC_AECDBDISPREPROOFSLABPLAN100
  2
AecDbDispRepRoofSlabPlan100
  3
AecArchDACHBase50|Product Desc: Autodesk Architectural Desktop 2007 |Company: Autodesk,Inc. |WEB Address: www.autodesk.com
 90
      129
280
     0
281
     0
  0
CLASS
  1
AEC_AECDBDISPREPSLABPLAN100
  2
AecDbDispRepSlabPlan100
  3
AecArchDACHBase50|Product Desc: Autodesk Architectural Desktop 2007 |Company: Autodesk,Inc. |WEB Address: www.autodesk.com
 90
      129
280
     0
281
     0
  0
CLASS
  1
AEC_AECDBDISPREPSPACEBOUNDARYPLAN100
  2
AecDbDispRepSpaceBoundaryPlan100
  3
AecArchDACHBase50|Product Desc: Autodesk Architectural Desktop 2007 |Company: Autodesk,Inc. |WEB Address: www.autodesk.com
 90
      129
280
     0
281
     0
  0
CLASS
  1
AEC_AECDBDISPREPSPACEPLAN100
  2
AecDbDispRepSpacePlan100
  3
AecArchDACHBase50|Product Desc: Autodesk Architectural Desktop 2007 |Company: Autodesk,Inc. |WEB Address: www.autodesk.com
 90
      129
280
     0
281
     0
  0
CLASS
  1
AEC_AECDBDISPREPWALLPLAN100
  2
AecDbDispRepWallPlan100
  3
AecArchDACHBase50|Product Desc: Autodesk Architectural Desktop 2007 |Company: Autodesk,Inc. |WEB Address: www.autodesk.com
 90
      129
280
     0
281
     0
  0
CLASS
  1
AEC_AECDBDISPREPAREA50
  2
AecDbDispRepArea50
  3
AecArchDACHBase50|Product Desc: Autodesk Architectural Desktop 2007 |Company: Autodesk,Inc. |WEB Address: www.autodesk.com
 90
      129
280
     0
281
     0
  0
CLASS
  1
AEC_AECDBDISPREPAREAGROUP50
  2
AecDbDispRepAreaGroup50
  3
AecArchDACHBase50|Product Desc: Autodesk Architectural Desktop 2007 |Company: Autodesk,Inc. |WEB Address: www.autodesk.com
 90
      129
280
     0
281
     0
  0
CLASS
  1
AEC_AECDBDISPREPBDGELEVLINEPLAN50
  2
AecDbDispRepBdgElevLinePlan50
  3
AecArchDACHBase50|Product Desc: Autodesk Architectural Desktop 2007 |Company: Autodesk,Inc. |WEB Address: www.autodesk.com
 90
      129
280
     0
281
     0
  0
CLASS
  1
AEC_AECDBDISPREPBDGSECTIONLINEPLAN50
  2
AecDbDispRepBdgSectionLinePlan50
  3
AecArchDACHBase50|Product Desc: Autodesk Architectural Desktop 2007 |Company: Autodesk,Inc. |WEB Address: www.autodesk.com
 90
      129
280
     0
281
     0
  0
CLASS
  1
AEC_AECDBDISPREPCEILINGGRIDPLAN50
  2
AecDbDispRepCeilingGridPlan50
  3
AecArchDACHBase50|Product Desc: Autodesk Architectural Desktop 2007 |Company: Autodesk,Inc. |WEB Address: www.autodesk.com
 90
      129
280
     0
281
     0
  0
CLASS
  1
AEC_AECDBDISPREPCOLUMNGRIDPLAN50
  2
AecDbDispRepColumnGridPlan50
  3
AecArchDACHBase50|Product Desc: Autodesk Architectural Desktop 2007 |Company: Autodesk,Inc. |WEB Address: www.autodesk.com
 90
      129
280
     0
281
     0
  0
CLASS
  1
AEC_AECDBDISPREPCURTAINWALLLAYOUTPLAN50
  2
AecDbDispRepCurtainWallLayoutPlan50
  3
AecArchDACHBase50|Product Desc: Autodesk Architectural Desktop 2007 |Company: Autodesk,Inc. |WEB Address: www.autodesk.com
 90
      129
280
     0
281
     0
  0
CLASS
  1
AEC_AECDBDISPREPCURTAINWALLUNITPLAN50
  2
AecDbDispRepCurtainWallUnitPlan50
  3
AecArchDACHBase50|Product Desc: Autodesk Architectural Desktop 2007 |Company: Autodesk,Inc. |WEB Address: www.autodesk.com
 90
      129
280
     0
281
     0
  0
CLASS
  1
AEC_AECDBDISPREPMVBLOCKREFPLAN50
  2
AecDbDispRepMvBlockRefPlan50
  3
AecArchDACHBase50|Product Desc: Autodesk Architectural Desktop 2007 |Company: Autodesk,Inc. |WEB Address: www.autodesk.com
 90
      129
280
     0
281
     0
  0
CLASS
  1
AEC_AECDBDISPREPROOFPLAN50
  2
AecDbDispRepRoofPlan50
  3
AecArchDACHBase50|Product Desc: Autodesk Architectural Desktop 2007 |Company: Autodesk,Inc. |WEB Address: www.autodesk.com
 90
      129
280
     0
281
     0
  0
CLASS
  1
AEC_AECDBDISPREPROOFSLABPLAN50
  2
AecDbDispRepRoofSlabPlan50
  3
AecArchDACHBase50|Product Desc: Autodesk Architectural Desktop 2007 |Company: Autodesk,Inc. |WEB Address: www.autodesk.com
 90
      129
280
     0
281
     0
  0
CLASS
  1
AEC_AECDBDISPREPSLABPLAN50
  2
AecDbDispRepSlabPlan50
  3
AecArchDACHBase50|Product Desc: Autodesk Architectural Desktop 2007 |Company: Autodesk,Inc. |WEB Address: www.autodesk.com
 90
      129
280
     0
281
     0
  0
CLASS
  1
AEC_AECDBDISPREPSPACEBOUNDARYPLAN50
  2
AecDbDispRepSpaceBoundaryPlan50
  3
AecArchDACHBase50|Product Desc: Autodesk Architectural Desktop 2007 |Company: Autodesk,Inc. |WEB Address: www.autodesk.com
 90
      129
280
     0
281
     0
  0
CLASS
  1
AEC_AECDBDISPREPSPACEPLAN50
  2
AecDbDispRepSpacePlan50
  3
AecArchDACHBase50|Product Desc: Autodesk Architectural Desktop 2007 |Company: Autodesk,Inc. |WEB Address: www.autodesk.com
 90
      129
280
     0
281
     0
  0
CLASS
  1
AEC_AECDBDISPREPWALLPLAN50
  2
AecDbDispRepWallPlan50
  3
AecArchDACHBase50|Product Desc: Autodesk Architectural Desktop 2007 |Company: Autodesk,Inc. |WEB Address: www.autodesk.com
 90
      129
280
     0
281
     0
  0
CLASS
  1
AEC_AECDBDISPREPWINDOWASSEMBLYPLAN50
  2
AecDbDispRepWindowAssemblyPlan50
  3
AecArchDACHBase50|Product Desc: Autodesk Architectural Desktop 2007 |Company: Autodesk,Inc. |WEB Address: www.autodesk.com
 90
      129
280
     0
281
     0
  0
CLASS
  1
AEC_DB_DISP_REP_DIM_GROUP_PLAN100
  2
AecDbDispRepDimGroupPlan100
  3
AecArchDACHBase50|Product Desc: Autodesk Architectural Desktop 2007 |Company: Autodesk,Inc. |WEB Address: www.autodesk.com
 90
      129
280
     0
281
     0
  0
CLASS
  1
AEC_DB_DISP_REP_DIM_GROUP_PLAN50
  2
AecDbDispRepDimGroupPlan50
  3
AecArchDACHBase50|Product Desc: Autodesk Architectural Desktop 2007 |Company: Autodesk,Inc. |WEB Address: www.autodesk.com
 90
      129
280
     0
281
     0
  0
CLASS
  1
AEC_DISP_REP_DOOR_PLAN_50
  2
AecDbDispRepDoorPlan50
  3
AecArchDACHBase50|Product Desc: Autodesk Architectural Desktop 2007 |Company: Autodesk,Inc. |WEB Address: www.autodesk.com
 90
      129
280
     0
281
     0
  0
CLASS
  1
AEC_DISP_PROPS_DOOR_PLAN_50
  2
AecDbDispPropsDoorPlan50
  3
AecArchDACHBase50|Product Desc: Autodesk Architectural Desktop 2007 |Company: Autodesk,Inc. |WEB Address: www.autodesk.com
 90
      129
280
     0
281
     0
  0
CLASS
  1
AEC_DISP_REP_DOOR_PLAN_HEKTO
  2
AecDbDispRepDoorPlanHekto
  3
AecArchDACHBase50|Product Desc: Autodesk Architectural Desktop 2007 |Company: Autodesk,Inc. |WEB Address: www.autodesk.com
 90
      129
280
     0
281
     0
  0
CLASS
  1
AEC_DISP_PROPS_DOOR_PLAN_100
  2
AecDbDispPropsDoorPlan100
  3
AecArchDACHBase50|Product Desc: Autodesk Architectural Desktop 2007 |Company: Autodesk,Inc. |WEB Address: www.autodesk.com
 90
      129
280
     0
281
     0
  0
CLASS
  1
AEC_DISP_REP_DOOR_THRESHOLD_SYMBOL_PLAN
  2
AecDbDispRepDoorThresholdSymbolPlan
  3
AecArchDACHBase50|Product Desc: Autodesk Architectural Desktop 2007 |Company: Autodesk,Inc. |WEB Address: www.autodesk.com
 90
      129
280
     0
281
     0
  0
CLASS
  1
AEC_DISP_PROPS_DOOR_THRESHOLD_SYMBOL_PLAN
  2
AecDbDispPropsDoorThresholdSymbolPlan
  3
AecArchDACHBase50|Product Desc: Autodesk Architectural Desktop 2007 |Company: Autodesk,Inc. |WEB Address: www.autodesk.com
 90
      129
280
     0
281
     0
  0
CLASS
  1
AEC_DISPREPAECDBDISPREPMASSELEMPLAN100
  2
AecDbDispRepMassElemPlan100
  3
AecArchDACHBase50|Product Desc: Autodesk Architectural Desktop 2007 |Company: Autodesk,Inc. |WEB Address: www.autodesk.com
 90
      129
280
     0
281
     0
  0
CLASS
  1
AEC_DISPROPSMASSELEMPLANCOMMON
  2
AecDbDispPropsMassElemPlanCommon
  3
AecArchDACHBase50|Product Desc: Autodesk Architectural Desktop 2007 |Company: Autodesk,Inc. |WEB Address: www.autodesk.com
 90
      129
280
     0
281
     0
  0
CLASS
  1
AEC_DISPREPAECDBDISPREPMASSELEMPLAN50
  2
AecDbDispRepMassElemPlan50
  3
AecArchDACHBase50|Product Desc: Autodesk Architectural Desktop 2007 |Company: Autodesk,Inc. |WEB Address: www.autodesk.com
 90
      129
280
     0
281
     0
  0
CLASS
  1
AEC_DISPREPAECDBDISPREPMASSGROUPPLAN100
  2
AecDbDispRepMassGroupPlan100
  3
AecArchDACHBase50|Product Desc: Autodesk Architectural Desktop 2007 |Company: Autodesk,Inc. |WEB Address: www.autodesk.com
 90
      129
280
     0
281
     0
  0
CLASS
  1
AEC_DISPROPSMASSGROUPPLANCOMMON
  2
AecDbDispPropsMassGroupPlanCommon
  3
AecArchDACHBase50|Product Desc: Autodesk Architectural Desktop 2007 |Company: Autodesk,Inc. |WEB Address: www.autodesk.com
 90
      129
280
     0
281
     0
  0
CLASS
  1
AEC_DISPREPAECDBDISPREPMASSGROUPPLAN50
  2
AecDbDispRepMassGroupPlan50
  3
AecArchDACHBase50|Product Desc: Autodesk Architectural Desktop 2007 |Company: Autodesk,Inc. |WEB Address: www.autodesk.com
 90
      129
280
     0
281
     0
  0
CLASS
  1
AEC_DISPREPAECDBDISPREPOPENINGPLAN100
  2
AecDbDispRepOpeningPlan100
  3
AecArchDACHBase50|Product Desc: Autodesk Architectural Desktop 2007 |Company: Autodesk,Inc. |WEB Address: www.autodesk.com
 90
      129
280
     0
281
     0
  0
CLASS
  1
AEC_DISPROPSOPENINGPLANCOMMONHATCHED
  2
AecDbDispPropsOpeningPlanCommonHatched
  3
AecArchDACHBase50|Product Desc: Autodesk Architectural Desktop 2007 |Company: Autodesk,Inc. |WEB Address: www.autodesk.com
 90
      129
280
     0
281
     0
  0
CLASS
  1
AEC_DISPREPAECDBDISPREPOPENINGPLAN50
  2
AecDbDispRepOpeningPlan50
  3
AecArchDACHBase50|Product Desc: Autodesk Architectural Desktop 2007 |Company: Autodesk,Inc. |WEB Address: www.autodesk.com
 90
      129
280
     0
281
     0
  0
CLASS
  1
AEC_DISPREPAECDBDISPREPOPENINGPLANREFLECTED
  2
AecDbDispRepOpeningPlanReflected
  3
AecArchDACHBase50|Product Desc: Autodesk Architectural Desktop 2007 |Company: Autodesk,Inc. |WEB Address: www.autodesk.com
 90
      129
280
     0
281
     0
  0
CLASS
  1
AEC_DISPROPSOPENINGPLANCOMMON
  2
AecDbDispPropsOpeningPlanCommon
  3
AecArchDACHBase50|Product Desc: Autodesk Architectural Desktop 2007 |Company: Autodesk,Inc. |WEB Address: www.autodesk.com
 90
      129
280
     0
281
     0
  0
CLASS
  1
AEC_DISPREPAECDBDISPREPOPENINGSILLPLAN
  2
AecDbDispRepOpeningSillPlan
  3
AecArchDACHBase50|Product Desc: Autodesk Architectural Desktop 2007 |Company: Autodesk,Inc. |WEB Address: www.autodesk.com
 90
      129
280
     0
281
     0
  0
CLASS
  1
AEC_DISPROPSOPENINGSILLPLAN
  2
AecDbDispPropsOpeningSillPlan
  3
AecArchDACHBase50|Product Desc: Autodesk Architectural Desktop 2007 |Company: Autodesk,Inc. |WEB Address: www.autodesk.com
 90
      129
280
     0
281
     0
  0
CLASS
  1
AEC_DISP_REP_RAILING_PLAN_100
  2
AecDbDispRepRailingPlan100
  3
AecArchDACHBase50|Product Desc: Autodesk Architectural Desktop 2007 |Company: Autodesk,Inc. |WEB Address: www.autodesk.com
 90
      129
280
     0
281
     0
  0
CLASS
  1
AEC_DISP_ROPS_RAILING_PLAN_100
  2
AecDbDispPropsRailingPlan100
  3
AecArchDACHBase50|Product Desc: Autodesk Architectural Desktop 2007 |Company: Autodesk,Inc. |WEB Address: www.autodesk.com
 90
      129
280
     0
281
     0
  0
CLASS
  1
AEC_DISP_REP_RAILING_PLAN_50
  2
AecDbDispRepRailingPlan50
  3
AecArchDACHBase50|Product Desc: Autodesk Architectural Desktop 2007 |Company: Autodesk,Inc. |WEB Address: www.autodesk.com
 90
      129
280
     0
281
     0
  0
CLASS
  1
AEC_DISP_ROPS_RAILING_PLAN_50
  2
AecDbDispPropsRailingPlan50
  3
AecArchDACHBase50|Product Desc: Autodesk Architectural Desktop 2007 |Company: Autodesk,Inc. |WEB Address: www.autodesk.com
 90
      129
280
     0
281
     0
  0
CLASS
  1
AEC_DISP_REP_STAIR_PLAN_100
  2
AecDbDispRepStairPlan100
  3
AecArchDACHBase50|Product Desc: Autodesk Architectural Desktop 2007 |Company: Autodesk,Inc. |WEB Address: www.autodesk.com
 90
      129
280
     0
281
     0
  0
CLASS
  1
AEC_DISP_ROPS_STAIR_PLAN_100
  2
AecDbDispPropsStairPlan100
  3
AecArchDACHBase50|Product Desc: Autodesk Architectural Desktop 2007 |Company: Autodesk,Inc. |WEB Address: www.autodesk.com
 90
      129
280
     0
281
     0
  0
CLASS
  1
AEC_DISP_REP_STAIR_PLAN_50
  2
AecDbDispRepStairPlan50
  3
AecArchDACHBase50|Product Desc: Autodesk Architectural Desktop 2007 |Company: Autodesk,Inc. |WEB Address: www.autodesk.com
 90
      129
280
     0
281
     0
  0
CLASS
  1
AEC_DISP_ROPS_STAIR_PLAN_50
  2
AecDbDispPropsStairPlan50
  3
AecArchDACHBase50|Product Desc: Autodesk Architectural Desktop 2007 |Company: Autodesk,Inc. |WEB Address: www.autodesk.com
 90
      129
280
     0
281
     0
  0
CLASS
  1
AEC_DISP_REP_WINDOW_PLAN_100
  2
AecDbDispRepWindowPlan100
  3
AecArchDACHBase50|Product Desc: Autodesk Architectural Desktop 2007 |Company: Autodesk,Inc. |WEB Address: www.autodesk.com
 90
      129
280
     0
281
     0
  0
CLASS
  1
AEC_DISP_PROPS_WINDOW_PLAN_100
  2
AecDbDispPropsWindowPlan100
  3
AecArchDACHBase50|Product Desc: Autodesk Architectural Desktop 2007 |Company: Autodesk,Inc. |WEB Address: www.autodesk.com
 90
      129
280
     0
281
     0
  0
CLASS
  1
AEC_DISP_REP_WINDOW_PLAN_50
  2
AecDbDispRepWindowPlan50
  3
AecArchDACHBase50|Product Desc: Autodesk Architectural Desktop 2007 |Company: Autodesk,Inc. |WEB Address: www.autodesk.com
 90
      129
280
     0
281
     0
  0
CLASS
  1
AEC_DISP_PROPS_WINDOW_PLAN_50
  2
AecDbDispPropsWindowPlan50
  3
AecArchDACHBase50|Product Desc: Autodesk Architectural Desktop 2007 |Company: Autodesk,Inc. |WEB Address: www.autodesk.com
 90
      129
280
     0
281
     0
  0
CLASS
  1
BINRECORD
  2
AcAecBinRecord
  3
AecBase50|Product Desc: Autodesk Architectural Desktop 2007 |Company: Autodesk,Inc. |WEB Address: www.autodesk.com
 90
      129
280
     0
281
     0
  0
CLASS
  1
SPATIAL_FILTER
  2
AcDbSpatialFilter
  3
ObjectDBX Classes
 90
    32768
280
     0
281
     0
  0
CLASS
  1
AEC_VARS_STRUCTUREBASE
  2
AecsDbVarsStructureBase
  3
AecStructureBase50|Product Desc: Autodesk Architectural Desktop 2007 |Company: Autodesk,Inc. |WEB Address: www.autodesk.com
 90
    32897
280
     0
281
     0
  0
CLASS
  1
DIMASSOC
  2
AcDbDimAssoc
  3
"AcDbDimAssoc|Product Desc:     AcDim ARX App For Dimension|Company:          Autodesk, Inc.|WEB Address:      www.autodesk.com"
 90
        0
280
     0
281
     0
  0
CLASS
  1
OBJECT_PTR
  2
CAseDLPNTableRecord
  3
ASE-LPNTableRecord
 90
        1
280
     0
281
     0
  0
CLASS
  1
MATERIAL
  2
AcDbMaterial
  3
ObjectDBX Classes
 90
     1153
280
     0
281
     0
  0
CLASS
  1
VISUALSTYLE
  2
AcDbVisualStyle
  3
ObjectDBX Classes
 90
     4095
280
     0
281
     0
  0
CLASS
  1
TABLESTYLE
  2
AcDbTableStyle
  3
ObjectDBX Classes
 90
     4095
280
     0
281
     0
  0
CLASS
  1
SCALE
  2
AcDbScale
  3
ObjectDBX Classes
 90
     1153
280
     0
281
     0
  0
CLASS
  1
MLEADERSTYLE
  2
AcDbMLeaderStyle
  3
ACDB_MLEADERSTYLE_CLASS
 90
     4095
280
     0
281
     0
  0
CLASS
  1
NPOCOLLECTION
  2
AcDbImpNonPersistentObjectsCollection
  3
ObjectDBX Classes
 90
     1153
280
     0
281
     0
  0
CLASS
  1
AEC_DISP_REP_DISPLAYTHEME
  2
AecDbDispRepDisplayTheme
  3
AecBase50|Product Desc: Autodesk Architectural Desktop 2007 |Company: Autodesk,Inc. |WEB Address: www.autodesk.com
 90
      129
280
     0
281
     0
  0
CLASS
  1
AEC_DISP_PROPS_DISPLAYTHEME
  2
AecDbDispPropsDisplayTheme
  3
AecBase50|Product Desc: Autodesk Architectural Desktop 2007 |Company: Autodesk,Inc. |WEB Address: www.autodesk.com
 90
      129
280
     0
281
     0
  0
CLASS
  1
AEC_DISP_REP_ANCHOR_EXT_TAG_TO_ENT
  2
AecDbDispRepAnchorExtendedTagToEnt
  3
AecScheduleData50|Product Desc: Autodesk Architectural Desktop 2007 |Company: Autodesk,Inc. |WEB Address: www.autodesk.com
 90
      129
280
     0
281
     0
  0
CLASS
  1
AEC_DISP_REP_SPACE_DECOMPOSED
  2
AecDbDispRepSpaceDecomposed
  3
AecArchBase50|Product Desc: Autodesk Architectural Desktop 2007 |Company: Autodesk,Inc. |WEB Address: www.autodesk.com
 90
      129
280
     0
281
     0
  0
CLASS
  1
AEC_DISP_PROPS_SPACE_DECOMPOSED
  2
AecDbDispPropsSpaceDecomposed
  3
AecArchBase50|Product Desc: Autodesk Architectural Desktop 2007 |Company: Autodesk,Inc. |WEB Address: www.autodesk.com
 90
      129
280
     0
281
     0
  0
CLASS
  1
AEC_DISP_REP_ZONE
  2
AecDbDispRepZone
  3
AecArchBase50|Product Desc: Autodesk Architectural Desktop 2007 |Company: Autodesk,Inc. |WEB Address: www.autodesk.com
 90
      129
280
     0
281
     0
  0
CLASS
  1
AEC_DISP_PROPS_ZONE
  2
AecDbDispPropsZone
  3
AecArchBase50|Product Desc: Autodesk Architectural Desktop 2007 |Company: Autodesk,Inc. |WEB Address: www.autodesk.com
 90
      129
280
     0
281
     0
  0
CLASS
  1
AEC_AECDBDISPREPZONE100
  2
AecDbDispRepZonePlan100
  3
AecArchDACHBase50|Product Desc: Autodesk Architectural Desktop 2007 |Company: Autodesk,Inc. |WEB Address: www.autodesk.com
 90
      129
280
     0
281
     0
  0
CLASS
  1
AEC_AECDBDISPREPZONE50
  2
AecDbDispRepZonePlan50
  3
AecArchDACHBase50|Product Desc: Autodesk Architectural Desktop 2007 |Company: Autodesk,Inc. |WEB Address: www.autodesk.com
 90
      129
280
     0
281
     0
  0
CLASS
  1
CELLSTYLEMAP
  2
AcDbCellStyleMap
  3
ObjectDBX Classes
 90
     1152
280
     0
281
     0
  0
ENDSEC
  0
SECTION
  2
TABLES
  0
TABLE
  2
VPORT
  5
1C
330
0
100
AcDbSymbolTable
 70
     1
  0
VPORT
  5
2B75
330
1C
100
AcDbSymbolTableRecord
100
AcDbViewportTableRecord
  2
*Active
 70
     0
 10
0.0
 20
0.0
 11
1.0
 21
1.0
 12
208944.3687256108
 22
132789.536509778
 13
0.0
 23
0.0
 14
10.0
 24
10.0
 15
10.0
 25
10.0
 16
0.0
 26
0.0
 36
1.0
 17
0.0
 27
0.0
 37
0.0
 40
32768.21214329709
 41
1.561333333333333
 42
50.0
 43
0.0
 44
0.0
 50
0.0
 51
0.0
 71
     0
 72
  1000
 73
     1
 74
     1
 75
     0
 76
     0
 77
     0
 78
     0
281
     0
 65
     1
110
0.0
120
0.0
130
0.0
111
1.0
121
0.0
131
0.0
112
0.0
122
1.0
132
0.0
 79
     0
146
0.0
  0
ENDTAB
  0
TABLE
  2
LTYPE
  5
17
330
0
100
AcDbSymbolTable
 70
     8
  0
LTYPE
  5
18
330
17
100
AcDbSymbolTableRecord
100
AcDbLinetypeTableRecord
  2
ByBlock
 70
     0
  3

 72
    65
 73
     0
 40
0.0
  0
LTYPE
  5
19
330
17
100
AcDbSymbolTableRecord
100
AcDbLinetypeTableRecord
  2
ByLayer
 70
     0
  3

 72
    65
 73
     0
 40
0.0
  0
LTYPE
  5
8
330
17
100
AcDbSymbolTableRecord
100
AcDbLinetypeTableRecord
  2
Continuous
 70
     0
  3
Solid line
 72
    65
 73
     0
 40
0.0
  0
LTYPE
  5
158
330
17
100
AcDbSymbolTableRecord
100
AcDbLinetypeTableRecord
  2
HIDDEN
 70
     0
  3
Hidden __ __ __ __ __ __ __ __ __ __ __ __ __ _
 72
    65
 73
     2
 40
0.375
 49
0.25
 74
     0
 49
-0.125
 74
     0
  0
ENDTAB
  0
TABLE
  2
LAYER
  5
11
102
{ACAD_XDICTIONARY
360
12
102
}
330
0
100
AcDbSymbolTable
 70
    34
  0
LAYER
  5
4
102
{ACAD_XDICTIONARY
360
2BE1
102
}
330
11
100
AcDbSymbolTableRecord
100
AcDbLayerTableRecord
  2
0
 70
     0
 62
     7
  6
Continuous
370
    -3
390
5
1001
RAK
1000
{ACET-LAYISO
1070
     0
1070
     7
1000
Continuous
1071
       -3
1071
        1
1005
5
1000
ACET-LAYISO}
  0
LAYER
  5
65
330
11
100
AcDbSymbolTableRecord
100
AcDbLayerTableRecord
  2
DEFPOINTS
 70
     0
 62
     7
  6
Continuous
290
     0
370
    -3
390
5
1001
RAK
1000
{ACET-LAYISO
1070
     0
1070
     7
1000
Continuous
1071
       -3
1071
        0
1005
5
1000
ACET-LAYISO}
  0
LAYER
  5
15E
102
{ACAD_XDICTIONARY
360
2BE9
102
}
330
11
100
AcDbSymbolTableRecord
100
AcDbLayerTableRecord
  2
RAMKI-A4
 70
     0
 62
     2
  6
Continuous
290
     0
370
    -3
390
5
1001
RAK
1000
{ACET-LAYISO
1070
     0
1070
     2
1000
Continuous
1071
       -3
1071
        0
1005
5
1000
ACET-LAYISO}
  0
LAYER
  5
BB
102
{ACAD_XDICTIONARY
360
2BEB
102
}
330
11
100
AcDbSymbolTableRecord
100
AcDbLayerTableRecord
  2
SZRAF
 70
     0
 62
   100
  6
Continuous
370
    -3
390
5
1001
RAK
1000
{ACET-LAYISO
1070
     0
1070
   100
1000
Continuous
1071
       -3
1071
        1
1005
5
1000
ACET-LAYISO}
  0
LAYER
  5
143
102
{ACAD_XDICTIONARY
360
2BED
102
}
330
11
100
AcDbSymbolTableRecord
100
AcDbLayerTableRecord
  2
NAPISY
 70
     0
 62
   140
  6
Continuous
370
    -3
390
5
1001
RAK
1000
{ACET-LAYISO
1070
     0
1070
   140
1000
Continuous
1071
       -3
1071
        1
1005
5
1000
ACET-LAYISO}
  0
LAYER
  5
2CC8
102
{ACAD_XDICTIONARY
360
2CC9
102
}
330
11
100
AcDbSymbolTableRecord
100
AcDbLayerTableRecord
  2
0Hatch
 70
     0
 62
   122
  6
Continuous
370
     5
390
5
  0
LAYER
  5
300E
102
{ACAD_XDICTIONARY
360
300F
102
}
330
11
100
AcDbSymbolTableRecord
100
AcDbLayerTableRecord
  2
0Wymiary-PL
 70
     0
 62
     1
  6
Continuous
370
    -3
390
5
1001
RAK
1000
{ACET-LAYISO
1070
     0
1070
     1
1000
Continuous
1071
       -3
1071
        1
1005
5
1000
ACET-LAYISO}
  0
ENDTAB
  0
TABLE
  2
STYLE
  5
14
330
0
100
AcDbSymbolTable
 70
    10
  0
STYLE
  5
15
330
14
100
AcDbSymbolTableRecord
100
AcDbTextStyleTableRecord
  2
Standard
 70
     0
 40
0.0
 41
1.0
 50
0.0
 71
     0
 42
2.5
  3
txt
  4

  0
STYLE
  5
22
330
14
100
AcDbSymbolTableRecord
100
AcDbTextStyleTableRecord
  2
ROMANS
 70
     0
 40
0.0
 41
0.9
 50
0.0
 71
     0
 42
20.0
  3
romans.shx
  4

  0
STYLE
  5
144
330
14
100
AcDbSymbolTableRecord
100
AcDbTextStyleTableRecord
  2
AVA
 70
     0
 40
0.0
 41
1.0
 50
0.0
 71
     0
 42
158.5644099714409
  3
ARIAL.TTF
  4

1001
ACAD
1000
Arial CE
1071
    60962
  0
STYLE
  5
1C28
330
14
100
AcDbSymbolTableRecord
100
AcDbTextStyleTableRecord
  2
ARIAL
 70
     0
 40
0.0
 41
1.0
 50
0.0
 71
     0
 42
20.0
  3
ARIAL.TTF
  4

1001
ACAD
1000
Arial CE
1071
    60962
  0
ENDTAB
  0
TABLE
  2
VIEW
  5
1A
330
0
100
AcDbSymbolTable
 70
     1
  0
VIEW
  5
C
330
1A
100
AcDbSymbolTableRecord
100
AcDbViewTableRecord
  2
RODODENDRON 5
 70
     0
 40
14020.0
 10
220287.1664355166
 20
148687.514558954
 41
10200.00000000003
 11
0.0
 21
0.0
 31
1.0
 12
0.0
 22
0.0
 32
0.0
 42
50.0
 43
0.0
 44
0.0
 50
0.0
 71
     0
281
     0
 72
     1
110
0.0
120
0.0
130
0.0
111
1.0
121
0.0
131
0.0
112
0.0
122
1.0
132
0.0
 79
     0
146
0.0
  0
ENDTAB
  0
TABLE
  2
UCS
  5
1B
330
0
100
AcDbSymbolTable
 70
     0
  0
ENDTAB
  0
TABLE
  2
APPID
  5
1E
330
0
100
AcDbSymbolTable
 70
     8
  0
APPID
  5
1F
330
1E
100
AcDbSymbolTableRecord
100
AcDbRegAppTableRecord
  2
ACAD
 70
     0
  0
APPID
  5
1E1
330
1E
100
AcDbSymbolTableRecord
100
AcDbRegAppTableRecord
  2
RAK
 70
     0
  0
APPID
  5
1E2
330
1E
100
AcDbSymbolTableRecord
100
AcDbRegAppTableRecord
  2
AcAecLayerStandard
 70
     0
  0
APPID
  5
1BB7
330
1E
100
AcDbSymbolTableRecord
100
AcDbRegAppTableRecord
  2
DCO15
 70
     0
  0
APPID
  5
2A1A
330
1E
100
AcDbSymbolTableRecord
100
AcDbRegAppTableRecord
  2
AECBASE
 70
     0
  0
APPID
  5
2BC6
330
1E
100
AcDbSymbolTableRecord
100
AcDbRegAppTableRecord
  2
ACAD_MLEADERVER
 70
     0
  0
APPID
  5
2CCA
330
1E
100
AcDbSymbolTableRecord
100
AcDbRegAppTableRecord
  2
ACAD_PSEXT
 70
     0
  0
APPID
  5
2F4F
330
1E
100
AcDbSymbolTableRecord
100
AcDbRegAppTableRecord
  2
ACAD_EXEMPT_FROM_CAD_STANDARDS
 70
     0
  0
ENDTAB
  0
TABLE
  2
DIMSTYLE
  5
20
330
0
100
AcDbSymbolTable
 70
    14
100
AcDbDimStyleTable
 71
     2
340
21
340
2B
  0
DIMSTYLE
105
21
102
{ACAD_REACTORS
330
2931
330
2838
330
282D
330
2822
330
2817
330
27ED
330
27C9
330
27BE
330
27B3
330
2942
330
2941
330
2940
330
293F
330
293E
330
2946
330
2945
330
2944
330
2943
102
}
330
20
100
AcDbSymbolTableRecord
100
AcDbDimStyleTableRecord
  2
500
 70
     0
 41
30.0
 42
43.0
 43
0.0
 44
13.0
 45
0.5
 46
12.0
 73
     0
 74
     0
 75
     1
 76
     1
 78
    12
140
80.0
141
0.0
145
1.0
147
0.0
172
     1
174
     1
176
     1
177
     1
178
    10
271
     1
272
     1
279
     2
340
22
341
23
342
23
  0
DIMSTYLE
105
2B
330
20
100
AcDbSymbolTableRecord
100
AcDbDimStyleTableRecord
  2
Standard
 70
     0
340
15
  0
ENDTAB
  0
TABLE
  2
BLOCK_RECORD
  5
1
330
0
100
AcDbSymbolTable
 70
   104
  0
BLOCK_RECORD
  5
2
102
{ACAD_XDICTIONARY
360
2F27
102
}
330
1
100
AcDbSymbolTableRecord
100
AcDbBlockTableRecord
  2
*Model_Space
340
A
  0
BLOCK_RECORD
  5
D
330
1
100
AcDbSymbolTableRecord
100
AcDbBlockTableRecord
  2
*Paper_Space
340
10
  0
BLOCK_RECORD
  5
23
102
{ACAD_XDICTIONARY
360
24
102
}
330
1
100
AcDbSymbolTableRecord
100
AcDbBlockTableRecord
  2
B-DIM
340
0
102
{BLKREFS
331
2C25
331
2C26
331
2C2F
331
2C30
331
2C39
331
2C3A
331
2C43
331
2C44
331
2C4F
331
2C50
331
2C59
331
2C5A
331
2C63
331
2C64
331
2C6D
331
2C6E
331
2C77
331
2C78
331
2C81
331
2C82
331
2C8B
331
2C8C
331
2C95
331
2C96
331
2CA1
331
2CA2
331
2CAB
331
2CAC
331
2CB5
331
2CB6
331
2CBF
331
2CC0
331
2E80
331
2E81
331
2E8A
331
2E8B
331
2E96
331
2E97
331
2EA0
331
2EA1
331
2EAC
331
2EAD
331
2EB6
331
2EB7
331
2EC0
331
2EC1
331
2ECA
331
2ECB
331
2ED6
331
2ED7
331
2EE0
331
2EE1
331
2EEC
331
2EED
331
2EF6
331
2EF7
331
2F02
331
2F03
331
2F0C
331
2F0D
331
2F16
331
2F17
331
2F20
331
2F21
331
2F6C
331
2F6D
331
2F76
331
2F77
331
2F80
331
2F81
331
2F8A
331
2F8B
331
2F96
331
2F97
331
2FA0
331
2FA1
331
2FAA
331
2FAB
331
2FB4
331
2FB5
331
2FBE
331
2FBF
331
2FC8
331
2FC9
331
2FD2
331
2FD3
331
2FDC
331
2FDD
331
2FE8
331
2FE9
331
2FF2
331
2FF3
331
2FFC
331
2FFD
331
3006
331
3007
331
31C4
331
31C5
331
31CE
331
31CF
331
31DA
331
31DB
331
31E4
331
31E5
331
31F0
331
31F1
331
31FA
331
31FB
331
3204
331
3205
331
320E
331
320F
331
321A
331
321B
331
3224
331
3225
331
3230
331
3231
331
323A
331
323B
331
3246
331
3247
331
3250
331
3251
331
325A
331
325B
331
3264
331
3265
331
326D
331
326E
331
3274
331
3275
331
327B
331
327C
331
3282
331
3283
331
3289
331
328A
331
3290
331
3291
331
3299
331
329A
331
32A0
331
32A1
331
32A7
331
32A8
331
32AE
331
32AF
331
32B5
331
32B6
331
32BC
331
32BD
331
32C3
331
32C4
331
32CC
331
32CD
331
32D3
331
32D4
331
32DA
331
32DB
331
32E3
331
32E4
331
32EA
331
32EB
102
}
  0
BLOCK_RECORD
  5
27B4
330
1
100
AcDbSymbolTableRecord
100
AcDbBlockTableRecord
  2
*D16
340
0
  0
BLOCK_RECORD
  5
27BF
330
1
100
AcDbSymbolTableRecord
100
AcDbBlockTableRecord
  2
*D17
340
0
  0
BLOCK_RECORD
  5
27CA
330
1
100
AcDbSymbolTableRecord
100
AcDbBlockTableRecord
  2
*D18
340
0
  0
BLOCK_RECORD
  5
27EE
330
1
100
AcDbSymbolTableRecord
100
AcDbBlockTableRecord
  2
*D19
340
0
  0
BLOCK_RECORD
  5
2818
330
1
100
AcDbSymbolTableRecord
100
AcDbBlockTableRecord
  2
*D20
340
0
  0
BLOCK_RECORD
  5
2823
330
1
100
AcDbSymbolTableRecord
100
AcDbBlockTableRecord
  2
*D21
340
0
  0
BLOCK_RECORD
  5
282E
330
1
100
AcDbSymbolTableRecord
100
AcDbBlockTableRecord
  2
*D22
340
0
  0
BLOCK_RECORD
  5
2839
330
1
100
AcDbSymbolTableRecord
100
AcDbBlockTableRecord
  2
*D23
340
0
  0
BLOCK_RECORD
  5
2932
330
1
100
AcDbSymbolTableRecord
100
AcDbBlockTableRecord
  2
*D24
340
0
  0
BLOCK_RECORD
  5
2963
330
1
100
AcDbSymbolTableRecord
100
AcDbBlockTableRecord
  2
*D25
340
0
  0
BLOCK_RECORD
  5
296D
330
1
100
AcDbSymbolTableRecord
100
AcDbBlockTableRecord
  2
*D26
340
0
  0
BLOCK_RECORD
  5
2977
330
1
100
AcDbSymbolTableRecord
100
AcDbBlockTableRecord
  2
*D27
340
0
  0
BLOCK_RECORD
  5
2983
330
1
100
AcDbSymbolTableRecord
100
AcDbBlockTableRecord
  2
*D28
340
0
  0
BLOCK_RECORD
  5
298D
330
1
100
AcDbSymbolTableRecord
100
AcDbBlockTableRecord
  2
*D29
340
0
  0
BLOCK_RECORD
  5
2997
330
1
100
AcDbSymbolTableRecord
100
AcDbBlockTableRecord
  2
*D30
340
0
  0
BLOCK_RECORD
  5
29A1
330
1
100
AcDbSymbolTableRecord
100
AcDbBlockTableRecord
  2
*D31
340
0
  0
BLOCK_RECORD
  5
29AB
330
1
100
AcDbSymbolTableRecord
100
AcDbBlockTableRecord
  2
*D32
340
0
  0
BLOCK_RECORD
  5
29B5
330
1
100
AcDbSymbolTableRecord
100
AcDbBlockTableRecord
  2
*D33
340
0
  0
ENDTAB
  0
ENDSEC
  0
SECTION
  2
BLOCKS
  0
BLOCK
  5
3
330
2
100
AcDbEntity
  8
0
100
AcDbBlockBegin
  2
*Model_Space
 70
     0
 10
0.0
 20
0.0
 30
0.0
  3
*Model_Space
  1

  0
ENDBLK
  5
9
330
2
100
AcDbEntity
  8
0
100
AcDbBlockEnd
  0
BLOCK
  5
E
330
D
100
AcDbEntity
 67
     1
  8
0
100
AcDbBlockBegin
  2
*Paper_Space
 70
     0
 10
0.0
 20
0.0
 30
0.0
  3
*Paper_Space
  1

  0
ENDBLK
  5
F
330
D
100
AcDbEntity
 67
     1
  8
0
100
AcDbBlockEnd
  0
BLOCK
  5
26
330
23
100
AcDbEntity
  8
0
100
AcDbBlockBegin
  2
B-DIM
 70
     0
 10
0.0
 20
0.0
 30
0.0
  3
B-DIM
  1

  0
LINE
  5
27
330
23
100
AcDbEntity
  8
0
 62
     1
100
AcDbLine
 10
0.000000000000091
 20
-1.1
 30
0.0
 11
0.000000000000091
 21
1.1
 31
0.0
  0
LWPOLYLINE
  5
28
330
23
100
AcDbEntity
  8
0
 62
     1
100
AcDbPolyline
 90
        2
 70
     0
 43
0.3
 10
-0.7071067811864851
 20
-0.7071067811864851
 10
0.707106781186576
 20
0.707106781186576
  0
LINE
  5
29
330
23
100
AcDbEntity
  8
0
 62
     1
100
AcDbLine
 10
1.20000000000009
 20
0.0
 30
0.0
 11
-1.199999999999909
 21
0.0
 31
0.0
  0
ENDBLK
  5
2A
330
23
100
AcDbEntity
  8
0
100
AcDbBlockEnd
  0
BLOCK
  5
27BC
330
27B4
100
AcDbEntity
  8
0
100
AcDbBlockBegin
  2
*D16
 70
     1
 10
0.0
 20
0.0
 30
0.0
  3
*D16
  1

  0
LINE
  5
32A6
330
27B4
100
AcDbEntity
  8
0Wymiary-PL
 62
     1
370
    -2
100
AcDbLine
 10
203295.9172188263
 20
133565.6431596105
 30
0.0
 11
203295.9172188263
 21
133355.6431596104
 31
0.0
  0
INSERT
  5
32A7
330
27B4
100
AcDbEntity
  8
0Wymiary-PL
 62
     1
370
    -2
100
AcDbBlockReference
  2
B-DIM
 10
203295.9172188263
 20
133595.6431596104
 30
0.0
 41
30.0
 42
30.0
 43
30.0
 50
90.0
  0
INSERT
  5
32A8
330
27B4
100
AcDbEntity
  8
0Wymiary-PL
 62
     1
370
    -2
100
AcDbBlockReference
  2
B-DIM
 10
203295.9172188263
 20
133325.6431596104
 30
0.0
 41
30.0
 42
30.0
 43
30.0
 50
270.0
  0
MTEXT
  5
32A9
330
27B4
100
AcDbEntity
  8
0Wymiary-PL
 62
    10
100
AcDbMText
 10
203215.9172188262
 20
133460.6431596105
 30
0.0
 40
80.0
 41
0.0
 71
     5
 72
     1
  1
\A1;270
  7
ROMANS
 11
0.0000000000000001
 21
1.0
 31
0.0
 73
     1
 44
1.0
1001
ACAD
1000
MTEXTBEGIN
1070
    73
1070
     1
1070
    44
1040
1.0
1070
    74
1070
     0
1000
MTEXTEND
  0
POINT
  5
32AA
330
27B4
100
AcDbEntity
  8
DEFPOINTS
 62
     0
100
AcDbPoint
 10
204430.4229128583
 20
133595.6431596104
 30
0.0
  0
POINT
  5
32AB
330
27B4
100
AcDbEntity
  8
DEFPOINTS
 62
     0
100
AcDbPoint
 10
204430.4229128583
 20
133325.6431596104
 30
0.0
  0
POINT
  5
32AC
330
27B4
100
AcDbEntity
  8
DEFPOINTS
 62
     0
100
AcDbPoint
 10
203295.9172188263
 20
133325.6431596104
 30
0.0
  0
ENDBLK
  5
27BD
330
27B4
100
AcDbEntity
  8
0
100
AcDbBlockEnd
  0
BLOCK
  5
27C7
330
27BF
100
AcDbEntity
  8
0
100
AcDbBlockBegin
  2
*D17
 70
     1
 10
0.0
 20
0.0
 30
0.0
  3
*D17
  1

  0
LINE
  5
329F
330
27BF
100
AcDbEntity
  8
0Wymiary-PL
 62
     1
370
    -2
100
AcDbLine
 10
203295.9172188263
 20
133295.6431596104
 30
0.0
 11
203295.9172188263
 21
132825.6431596104
 31
0.0
  0
INSERT
  5
32A0
330
27BF
100
AcDbEntity
  8
0Wymiary-PL
 62
     1
370
    -2
100
AcDbBlockReference
  2
B-DIM
 10
203295.9172188263
 20
133325.6431596104
 30
0.0
 41
30.0
 42
30.0
 43
30.0
 50
90.0
  0
INSERT
  5
32A1
330
27BF
100
AcDbEntity
  8
0Wymiary-PL
 62
     1
370
    -2
100
AcDbBlockReference
  2
B-DIM
 10
203295.9172188263
 20
132795.6431596104
 30
0.0
 41
30.0
 42
30.0
 43
30.0
 50
270.0
  0
MTEXT
  5
32A2
330
27BF
100
AcDbEntity
  8
0Wymiary-PL
 62
    10
100
AcDbMText
 10
203215.9172188262
 20
133060.6431596105
 30
0.0
 40
80.0
 41
0.0
 71
     5
 72
     1
  1
\A1;530
  7
ROMANS
 11
0.0000000000000001
 21
1.0
 31
0.0
 73
     1
 44
1.0
1001
ACAD
1000
MTEXTBEGIN
1070
    73
1070
     1
1070
    44
1040
1.0
1070
    74
1070
     0
1000
MTEXTEND
  0
POINT
  5
32A3
330
27BF
100
AcDbEntity
  8
DEFPOINTS
 62
     0
100
AcDbPoint
 10
204430.4229128583
 20
133325.6431596104
 30
0.0
  0
POINT
  5
32A4
330
27BF
100
AcDbEntity
  8
DEFPOINTS
 62
     0
100
AcDbPoint
 10
204240.4229128583
 20
132795.6431596104
 30
0.0
  0
POINT
  5
32A5
330
27BF
100
AcDbEntity
  8
DEFPOINTS
 62
     0
100
AcDbPoint
 10
203295.9172188263
 20
132795.6431596104
 30
0.0
  0
ENDBLK
  5
27C8
330
27BF
100
AcDbEntity
  8
0
100
AcDbBlockEnd
  0
BLOCK
  5
27D4
330
27CA
100
AcDbEntity
  8
0
100
AcDbBlockBegin
  2
*D18
 70
     1
 10
0.0
 20
0.0
 30
0.0
  3
*D18
  1

  0
LINE
  5
3296
330
27CA
100
AcDbEntity
  8
0Wymiary-PL
 62
     1
370
    -2
100
AcDbLine
 10
203295.9172188263
 20
132825.6431596104
 30
0.0
 11
203295.9172188263
 21
132855.6431596104
 31
0.0
  0
LINE
  5
3297
330
27CA
100
AcDbEntity
  8
0Wymiary-PL
 62
     1
370
    -2
100
AcDbLine
 10
203295.9172188263
 20
132705.6431596104
 30
0.0
 11
203295.9172188263
 21
132675.6431596104
 31
0.0
  0
LINE
  5
3298
330
27CA
100
AcDbEntity
  8
0Wymiary-PL
 62
     1
370
    -2
100
AcDbLine
 10
203295.9172188263
 20
132795.6431596104
 30
0.0
 11
203295.9172188263
 21
132735.6431596104
 31
0.0
  0
INSERT
  5
3299
330
27CA
100
AcDbEntity
  8
0Wymiary-PL
 62
     1
370
    -2
100
AcDbBlockReference
  2
B-DIM
 10
203295.9172188263
 20
132795.6431596104
 30
0.0
 41
30.0
 42
30.0
 43
30.0
 50
270.0
  0
INSERT
  5
329A
330
27CA
100
AcDbEntity
  8
0Wymiary-PL
 62
     1
370
    -2
100
AcDbBlockReference
  2
B-DIM
 10
203295.9172188263
 20
132735.6431596104
 30
0.0
 41
30.0
 42
30.0
 43
30.0
 50
90.0
  0
MTEXT
  5
329B
330
27CA
100
AcDbEntity
  8
0Wymiary-PL
 62
    10
100
AcDbMText
 10
203215.9172188262
 20
132765.6431596105
 30
0.0
 40
80.0
 41
0.0
 71
     5
 72
     1
  1
\A1;60
  7
ROMANS
 11
0.0000000000000001
 21
1.0
 31
0.0
 73
     1
 44
1.0
1001
ACAD
1000
MTEXTBEGIN
1070
    73
1070
     1
1070
    44
1040
1.0
1070
    74
1070
     0
1000
MTEXTEND
  0
POINT
  5
329C
330
27CA
100
AcDbEntity
  8
DEFPOINTS
 62
     0
100
AcDbPoint
 10
204240.4229128583
 20
132795.6431596104
 30
0.0
  0
POINT
  5
329D
330
27CA
100
AcDbEntity
  8
DEFPOINTS
 62
     0
100
AcDbPoint
 10
204420.4229128583
 20
132735.6431596104
 30
0.0
  0
POINT
  5
329E
330
27CA
100
AcDbEntity
  8
DEFPOINTS
 62
     0
100
AcDbPoint
 10
203295.9172188263
 20
132735.6431596104
 30
0.0
  0
ENDBLK
  5
27D5
330
27CA
100
AcDbEntity
  8
0
100
AcDbBlockEnd
  0
BLOCK
  5
27F6
330
27EE
100
AcDbEntity
  8
0
100
AcDbBlockBegin
  2
*D19
 70
     1
 10
0.0
 20
0.0
 30
0.0
  3
*D19
  1

  0
LINE
  5
328F
330
27EE
100
AcDbEntity
  8
0Wymiary-PL
 62
     1
370
    -2
100
AcDbLine
 10
203033.7760583718
 20
133565.6431596105
 30
0.0
 11
203033.7760583718
 21
132765.6431596105
 31
0.0
  0
INSERT
  5
3290
330
27EE
100
AcDbEntity
  8
0Wymiary-PL
 62
     1
370
    -2
100
AcDbBlockReference
  2
B-DIM
 10
203033.7760583718
 20
133595.6431596104
 30
0.0
 41
30.0
 42
30.0
 43
30.0
 50
90.0
  0
INSERT
  5
3291
330
27EE
100
AcDbEntity
  8
0Wymiary-PL
 62
     1
370
    -2
100
AcDbBlockReference
  2
B-DIM
 10
203033.7760583718
 20
132735.6431596104
 30
0.0
 41
30.0
 42
30.0
 43
30.0
 50
270.0
  0
MTEXT
  5
3292
330
27EE
100
AcDbEntity
  8
0Wymiary-PL
 62
    10
100
AcDbMText
 10
202953.7760583718
 20
133165.6431596105
 30
0.0
 40
80.0
 41
0.0
 71
     5
 72
     1
  1
\A1;860
  7
ROMANS
 11
0.0000000000000001
 21
1.0
 31
0.0
 73
     1
 44
1.0
1001
ACAD
1000
MTEXTBEGIN
1070
    73
1070
     1
1070
    44
1040
1.0
1070
    74
1070
     0
1000
MTEXTEND
  0
POINT
  5
3293
330
27EE
100
AcDbEntity
  8
DEFPOINTS
 62
     0
100
AcDbPoint
 10
204430.4229128583
 20
133595.6431596104
 30
0.0
  0
POINT
  5
3294
330
27EE
100
AcDbEntity
  8
DEFPOINTS
 62
     0
100
AcDbPoint
 10
204429.9229128583
 20
132735.6431596104
 30
0.0
  0
POINT
  5
3295
330
27EE
100
AcDbEntity
  8
DEFPOINTS
 62
     0
100
AcDbPoint
 10
203033.7760583718
 20
132735.6431596104
 30
0.0
  0
ENDBLK
  5
27F7
330
27EE
100
AcDbEntity
  8
0
100
AcDbBlockEnd
  0
BLOCK
  5
2820
330
2818
100
AcDbEntity
  8
0
100
AcDbBlockBegin
  2
*D20
 70
     1
 10
0.0
 20
0.0
 30
0.0
  3
*D20
  1

  0
LINE
  5
3288
330
2818
100
AcDbEntity
  8
0Wymiary-PL
 62
     1
370
    -2
100
AcDbLine
 10
204390.4229128583
 20
132134.674375364
 30
0.0
 11
204640.4229128583
 21
132134.674375364
 31
0.0
  0
INSERT
  5
3289
330
2818
100
AcDbEntity
  8
0Wymiary-PL
 62
     1
370
    -2
100
AcDbBlockReference
  2
B-DIM
 10
204360.4229128583
 20
132134.674375364
 30
0.0
 41
30.0
 42
30.0
 43
30.0
 50
180.0
  0
INSERT
  5
328A
330
2818
100
AcDbEntity
  8
0Wymiary-PL
 62
     1
370
    -2
100
AcDbBlockReference
  2
B-DIM
 10
204670.4229128583
 20
132134.674375364
 30
0.0
 41
30.0
 42
30.0
 43
30.0
  0
MTEXT
  5
328B
330
2818
100
AcDbEntity
  8
0Wymiary-PL
 62
    10
100
AcDbMText
 10
204515.4229128583
 20
132214.674375364
 30
0.0
 40
80.0
 41
0.0
 71
     5
 72
     1
  1
\A1;310
  7
ROMANS
 73
     1
 44
1.0
1001
ACAD
1000
MTEXTBEGIN
1070
    73
1070
     1
1070
    44
1040
1.0
1070
    74
1070
     0
1000
MTEXTEND
  0
POINT
  5
328C
330
2818
100
AcDbEntity
  8
DEFPOINTS
 62
     0
100
AcDbPoint
 10
204360.4229128583
 20
132795.6431596104
 30
0.0
  0
POINT
  5
328D
330
2818
100
AcDbEntity
  8
DEFPOINTS
 62
     0
100
AcDbPoint
 10
204670.4229128583
 20
132795.6431596104
 30
0.0
  0
POINT
  5
328E
330
2818
100
AcDbEntity
  8
DEFPOINTS
 62
     0
100
AcDbPoint
 10
204670.4229128583
 20
132134.674375364
 30
0.0
  0
ENDBLK
  5
2821
330
2818
100
AcDbEntity
  8
0
100
AcDbBlockEnd
  0
BLOCK
  5
282B
330
2823
100
AcDbEntity
  8
0
100
AcDbBlockBegin
  2
*D21
 70
     1
 10
0.0
 20
0.0
 30
0.0
  3
*D21
  1

  0
LINE
  5
3281
330
2823
100
AcDbEntity
  8
0Wymiary-PL
 62
     1
370
    -2
100
AcDbLine
 10
204700.4229128583
 20
132134.674375364
 30
0.0
 11
205060.4229128583
 21
132134.674375364
 31
0.0
  0
INSERT
  5
3282
330
2823
100
AcDbEntity
  8
0Wymiary-PL
 62
     1
370
    -2
100
AcDbBlockReference
  2
B-DIM
 10
204670.4229128583
 20
132134.674375364
 30
0.0
 41
30.0
 42
30.0
 43
30.0
 50
180.0
  0
INSERT
  5
3283
330
2823
100
AcDbEntity
  8
0Wymiary-PL
 62
     1
370
    -2
100
AcDbBlockReference
  2
B-DIM
 10
205090.4229128583
 20
132134.674375364
 30
0.0
 41
30.0
 42
30.0
 43
30.0
  0
MTEXT
  5
3284
330
2823
100
AcDbEntity
  8
0Wymiary-PL
 62
    10
100
AcDbMText
 10
204880.4229128583
 20
132214.674375364
 30
0.0
 40
80.0
 41
0.0
 71
     5
 72
     1
  1
\A1;420
  7
ROMANS
 73
     1
 44
1.0
1001
ACAD
1000
MTEXTBEGIN
1070
    73
1070
     1
1070
    44
1040
1.0
1070
    74
1070
     0
1000
MTEXTEND
  0
POINT
  5
3285
330
2823
100
AcDbEntity
  8
DEFPOINTS
 62
     0
100
AcDbPoint
 10
204670.4229128583
 20
132795.6431596104
 30
0.0
  0
POINT
  5
3286
330
2823
100
AcDbEntity
  8
DEFPOINTS
 62
     0
100
AcDbPoint
 10
205090.4229128583
 20
132795.6431596104
 30
0.0
  0
POINT
  5
3287
330
2823
100
AcDbEntity
  8
DEFPOINTS
 62
     0
100
AcDbPoint
 10
205090.4229128583
 20
132134.674375364
 30
0.0
  0
ENDBLK
  5
282C
330
2823
100
AcDbEntity
  8
0
100
AcDbBlockEnd
  0
BLOCK
  5
2836
330
282E
100
AcDbEntity
  8
0
100
AcDbBlockBegin
  2
*D22
 70
     1
 10
0.0
 20
0.0
 30
0.0
  3
*D22
  1

  0
LINE
  5
327A
330
282E
100
AcDbEntity
  8
0Wymiary-PL
 62
     1
370
    -2
100
AcDbLine
 10
205120.4229128583
 20
132134.674375364
 30
0.0
 11
205360.4229128583
 21
132134.674375364
 31
0.0
  0
INSERT
  5
327B
330
282E
100
AcDbEntity
  8
0Wymiary-PL
 62
     1
370
    -2
100
AcDbBlockReference
  2
B-DIM
 10
205090.4229128583
 20
132134.674375364
 30
0.0
 41
30.0
 42
30.0
 43
30.0
 50
180.0
  0
INSERT
  5
327C
330
282E
100
AcDbEntity
  8
0Wymiary-PL
 62
     1
370
    -2
100
AcDbBlockReference
  2
B-DIM
 10
205390.4229128583
 20
132134.674375364
 30
0.0
 41
30.0
 42
30.0
 43
30.0
  0
MTEXT
  5
327D
330
282E
100
AcDbEntity
  8
0Wymiary-PL
 62
    10
100
AcDbMText
 10
205240.4229128583
 20
132214.674375364
 30
0.0
 40
80.0
 41
0.0
 71
     5
 72
     1
  1
\A1;300
  7
ROMANS
 73
     1
 44
1.0
1001
ACAD
1000
MTEXTBEGIN
1070
    73
1070
     1
1070
    44
1040
1.0
1070
    74
1070
     0
1000
MTEXTEND
  0
POINT
  5
327E
330
282E
100
AcDbEntity
  8
DEFPOINTS
 62
     0
100
AcDbPoint
 10
205090.4229128583
 20
132795.6431596104
 30
0.0
  0
POINT
  5
327F
330
282E
100
AcDbEntity
  8
DEFPOINTS
 62
     0
100
AcDbPoint
 10
205390.4229128583
 20
132955.6431596105
 30
0.0
  0
POINT
  5
3280
330
282E
100
AcDbEntity
  8
DEFPOINTS
 62
     0
100
AcDbPoint
 10
205390.4229128583
 20
132134.674375364
 30
0.0
  0
ENDBLK
  5
2837
330
282E
100
AcDbEntity
  8
0
100
AcDbBlockEnd
  0
BLOCK
  5
2841
330
2839
100
AcDbEntity
  8
0
100
AcDbBlockBegin
  2
*D23
 70
     1
 10
0.0
 20
0.0
 30
0.0
  3
*D23
  1

  0
LINE
  5
3273
330
2839
100
AcDbEntity
  8
0Wymiary-PL
 62
     1
370
    -2
100
AcDbLine
 10
204270.4229128583
 20
131945.4372833213
 30
0.0
 11
205360.4229128583
 21
131945.4372833213
 31
0.0
  0
INSERT
  5
3274
330
2839
100
AcDbEntity
  8
0Wymiary-PL
 62
     1
370
    -2
100
AcDbBlockReference
  2
B-DIM
 10
204240.4229128583
 20
131945.4372833213
 30
0.0
 41
30.0
 42
30.0
 43
30.0
 50
180.0
  0
INSERT
  5
3275
330
2839
100
AcDbEntity
  8
0Wymiary-PL
 62
     1
370
    -2
100
AcDbBlockReference
  2
B-DIM
 10
205390.4229128583
 20
131945.4372833213
 30
0.0
 41
30.0
 42
30.0
 43
30.0
  0
MTEXT
  5
3276
330
2839
100
AcDbEntity
  8
0Wymiary-PL
 62
    10
100
AcDbMText
 10
204815.4229128583
 20
132025.4372833213
 30
0.0
 40
80.0
 41
0.0
 71
     5
 72
     1
  1
\A1;1150
  7
ROMANS
 73
     1
 44
1.0
1001
ACAD
1000
MTEXTBEGIN
1070
    73
1070
     1
1070
    44
1040
1.0
1070
    74
1070
     0
1000
MTEXTEND
  0
POINT
  5
3277
330
2839
100
AcDbEntity
  8
DEFPOINTS
 62
     0
100
AcDbPoint
 10
204240.4229128583
 20
132795.6431596104
 30
0.0
  0
POINT
  5
3278
330
2839
100
AcDbEntity
  8
DEFPOINTS
 62
     0
100
AcDbPoint
 10
205390.4229128583
 20
132955.6431596105
 30
0.0
  0
POINT
  5
3279
330
2839
100
AcDbEntity
  8
DEFPOINTS
 62
     0
100
AcDbPoint
 10
205390.4229128583
 20
131945.4372833213
 30
0.0
  0
ENDBLK
  5
2842
330
2839
100
AcDbEntity
  8
0
100
AcDbBlockEnd
  0
BLOCK
  5
293C
330
2932
100
AcDbEntity
  8
0
100
AcDbBlockBegin
  2
*D24
 70
     1
 10
0.0
 20
0.0
 30
0.0
  3
*D24
  1

  0
LINE
  5
326A
330
2932
100
AcDbEntity
  8
0Wymiary-PL
 62
     1
370
    -2
100
AcDbLine
 10
204210.4229128583
 20
132134.674375364
 30
0.0
 11
204180.4229128583
 21
132134.674375364
 31
0.0
  0
LINE
  5
326B
330
2932
100
AcDbEntity
  8
0Wymiary-PL
 62
     1
370
    -2
100
AcDbLine
 10
204390.4229128583
 20
132134.674375364
 30
0.0
 11
204420.4229128583
 21
132134.674375364
 31
0.0
  0
LINE
  5
326C
330
2932
100
AcDbEntity
  8
0Wymiary-PL
 62
     1
370
    -2
100
AcDbLine
 10
204240.4229128583
 20
132134.674375364
 30
0.0
 11
204360.4229128583
 21
132134.674375364
 31
0.0
  0
INSERT
  5
326D
330
2932
100
AcDbEntity
  8
0Wymiary-PL
 62
     1
370
    -2
100
AcDbBlockReference
  2
B-DIM
 10
204240.4229128583
 20
132134.674375364
 30
0.0
 41
30.0
 42
30.0
 43
30.0
  0
INSERT
  5
326E
330
2932
100
AcDbEntity
  8
0Wymiary-PL
 62
     1
370
    -2
100
AcDbBlockReference
  2
B-DIM
 10
204360.4229128583
 20
132134.674375364
 30
0.0
 41
30.0
 42
30.0
 43
30.0
 50
180.0
  0
MTEXT
  5
326F
330
2932
100
AcDbEntity
  8
0Wymiary-PL
 62
    10
100
AcDbMText
 10
204300.4229128583
 20
132214.674375364
 30
0.0
 40
80.0
 41
0.0
 71
     5
 72
     1
  1
\A1;120
  7
ROMANS
 73
     1
 44
1.0
1001
ACAD
1000
MTEXTBEGIN
1070
    73
1070
     1
1070
    44
1040
1.0
1070
    74
1070
     0
1000
MTEXTEND
  0
POINT
  5
3270
330
2932
100
AcDbEntity
  8
DEFPOINTS
 62
     0
100
AcDbPoint
 10
204240.4229128583
 20
132795.6431596104
 30
0.0
  0
POINT
  5
3271
330
2932
100
AcDbEntity
  8
DEFPOINTS
 62
     0
100
AcDbPoint
 10
204360.4229128583
 20
132795.6431596104
 30
0.0
  0
POINT
  5
3272
330
2932
100
AcDbEntity
  8
DEFPOINTS
 62
     0
100
AcDbPoint
 10
204360.4229128583
 20
132134.674375364
 30
0.0
  0
ENDBLK
  5
293D
330
2932
100
AcDbEntity
  8
0
100
AcDbBlockEnd
  0
BLOCK
  5
296B
330
2963
100
AcDbEntity
  8
0
100
AcDbBlockBegin
  2
*D25
 70
     1
 10
0.0
 20
0.0
 30
0.0
  3
*D25
  1

  0
LINE
  5
32D2
330
2963
100
AcDbEntity
  8
0Wymiary-PL
 62
     1
370
    -2
100
AcDbLine
 10
210351.7124047563
 20
133565.6431596105
 30
0.0
 11
210351.7124047563
 21
133355.6431596104
 31
0.0
  0
INSERT
  5
32D3
330
2963
100
AcDbEntity
  8
0Wymiary-PL
 62
     1
370
    -2
100
AcDbBlockReference
  2
B-DIM
 10
210351.7124047563
 20
133595.6431596104
 30
0.0
 41
30.0
 42
30.0
 43
30.0
 50
90.0
  0
INSERT
  5
32D4
330
2963
100
AcDbEntity
  8
0Wymiary-PL
 62
     1
370
    -2
100
AcDbBlockReference
  2
B-DIM
 10
210351.7124047563
 20
133325.6431596104
 30
0.0
 41
30.0
 42
30.0
 43
30.0
 50
270.0
  0
MTEXT
  5
32D5
330
2963
100
AcDbEntity
  8
0Wymiary-PL
 62
    10
100
AcDbMText
 10
210271.7124047563
 20
133460.6431596105
 30
0.0
 40
80.0
 41
0.0
 71
     5
 72
     1
  1
\A1;270
  7
ROMANS
 11
0.0000000000000001
 21
1.0
 31
0.0
 73
     1
 44
1.0
1001
ACAD
1000
MTEXTBEGIN
1070
    73
1070
     1
1070
    44
1040
1.0
1070
    74
1070
     0
1000
MTEXTEND
  0
POINT
  5
32D6
330
2963
100
AcDbEntity
  8
DEFPOINTS
 62
     0
100
AcDbPoint
 10
209217.2067107243
 20
133595.6431596104
 30
0.0
  0
POINT
  5
32D7
330
2963
100
AcDbEntity
  8
DEFPOINTS
 62
     0
100
AcDbPoint
 10
209217.2067107243
 20
133325.6431596104
 30
0.0
  0
POINT
  5
32D8
330
2963
100
AcDbEntity
  8
DEFPOINTS
 62
     0
100
AcDbPoint
 10
210351.7124047563
 20
133325.6431596104
 30
0.0
  0
ENDBLK
  5
296C
330
2963
100
AcDbEntity
  8
0
100
AcDbBlockEnd
  0
BLOCK
  5
2975
330
296D
100
AcDbEntity
  8
0
100
AcDbBlockBegin
  2
*D26
 70
     1
 10
0.0
 20
0.0
 30
0.0
  3
*D26
  1

  0
LINE
  5
32D9
330
296D
100
AcDbEntity
  8
0Wymiary-PL
 62
     1
370
    -2
100
AcDbLine
 10
210351.7124047563
 20
133295.6431596104
 30
0.0
 11
210351.7124047563
 21
132825.6431596104
 31
0.0
  0
INSERT
  5
32DA
330
296D
100
AcDbEntity
  8
0Wymiary-PL
 62
     1
370
    -2
100
AcDbBlockReference
  2
B-DIM
 10
210351.7124047563
 20
133325.6431596104
 30
0.0
 41
30.0
 42
30.0
 43
30.0
 50
90.0
  0
INSERT
  5
32DB
330
296D
100
AcDbEntity
  8
0Wymiary-PL
 62
     1
370
    -2
100
AcDbBlockReference
  2
B-DIM
 10
210351.7124047563
 20
132795.6431596104
 30
0.0
 41
30.0
 42
30.0
 43
30.0
 50
270.0
  0
MTEXT
  5
32DC
330
296D
100
AcDbEntity
  8
0Wymiary-PL
 62
    10
100
AcDbMText
 10
210271.7124047563
 20
133060.6431596105
 30
0.0
 40
80.0
 41
0.0
 71
     5
 72
     1
  1
\A1;530
  7
ROMANS
 11
0.0000000000000001
 21
1.0
 31
0.0
 73
     1
 44
1.0
1001
ACAD
1000
MTEXTBEGIN
1070
    73
1070
     1
1070
    44
1040
1.0
1070
    74
1070
     0
1000
MTEXTEND
  0
POINT
  5
32DD
330
296D
100
AcDbEntity
  8
DEFPOINTS
 62
     0
100
AcDbPoint
 10
209217.2067107243
 20
133325.6431596104
 30
0.0
  0
POINT
  5
32DE
330
296D
100
AcDbEntity
  8
DEFPOINTS
 62
     0
100
AcDbPoint
 10
209407.2067107243
 20
132795.6431596104
 30
0.0
  0
POINT
  5
32DF
330
296D
100
AcDbEntity
  8
DEFPOINTS
 62
     0
100
AcDbPoint
 10
210351.7124047563
 20
132795.6431596104
 30
0.0
  0
ENDBLK
  5
2976
330
296D
100
AcDbEntity
  8
0
100
AcDbBlockEnd
  0
BLOCK
  5
2981
330
2977
100
AcDbEntity
  8
0
100
AcDbBlockBegin
  2
*D27
 70
     1
 10
0.0
 20
0.0
 30
0.0
  3
*D27
  1

  0
LINE
  5
32E0
330
2977
100
AcDbEntity
  8
0Wymiary-PL
 62
     1
370
    -2
100
AcDbLine
 10
210351.7124047563
 20
132825.6431596104
 30
0.0
 11
210351.7124047563
 21
132855.6431596104
 31
0.0
  0
LINE
  5
32E1
330
2977
100
AcDbEntity
  8
0Wymiary-PL
 62
     1
370
    -2
100
AcDbLine
 10
210351.7124047563
 20
132705.6431596104
 30
0.0
 11
210351.7124047563
 21
132675.6431596104
 31
0.0
  0
LINE
  5
32E2
330
2977
100
AcDbEntity
  8
0Wymiary-PL
 62
     1
370
    -2
100
AcDbLine
 10
210351.7124047563
 20
132795.6431596104
 30
0.0
 11
210351.7124047563
 21
132735.6431596104
 31
0.0
  0
INSERT
  5
32E3
330
2977
100
AcDbEntity
  8
0Wymiary-PL
 62
     1
370
    -2
100
AcDbBlockReference
  2
B-DIM
 10
210351.7124047563
 20
132795.6431596104
 30
0.0
 41
30.0
 42
30.0
 43
30.0
 50
270.0
  0
INSERT
  5
32E4
330
2977
100
AcDbEntity
  8
0Wymiary-PL
 62
     1
370
    -2
100
AcDbBlockReference
  2
B-DIM
 10
210351.7124047563
 20
132735.6431596104
 30
0.0
 41
30.0
 42
30.0
 43
30.0
 50
90.0
  0
MTEXT
  5
32E5
330
2977
100
AcDbEntity
  8
0Wymiary-PL
 62
    10
100
AcDbMText
 10
210271.7124047563
 20
132765.6431596105
 30
0.0
 40
80.0
 41
0.0
 71
     5
 72
     1
  1
\A1;60
  7
ROMANS
 11
0.0000000000000001
 21
1.0
 31
0.0
 73
     1
 44
1.0
1001
ACAD
1000
MTEXTBEGIN
1070
    73
1070
     1
1070
    44
1040
1.0
1070
    74
1070
     0
1000
MTEXTEND
  0
POINT
  5
32E6
330
2977
100
AcDbEntity
  8
DEFPOINTS
 62
     0
100
AcDbPoint
 10
209407.2067107243
 20
132795.6431596104
 30
0.0
  0
POINT
  5
32E7
330
2977
100
AcDbEntity
  8
DEFPOINTS
 62
     0
100
AcDbPoint
 10
209227.2067107243
 20
132735.6431596104
 30
0.0
  0
POINT
  5
32E8
330
2977
100
AcDbEntity
  8
DEFPOINTS
 62
     0
100
AcDbPoint
 10
210351.7124047563
 20
132735.6431596104
 30
0.0
  0
ENDBLK
  5
2982
330
2977
100
AcDbEntity
  8
0
100
AcDbBlockEnd
  0
BLOCK
  5
298B
330
2983
100
AcDbEntity
  8
0
100
AcDbBlockBegin
  2
*D28
 70
     1
 10
0.0
 20
0.0
 30
0.0
  3
*D28
  1

  0
LINE
  5
32E9
330
2983
100
AcDbEntity
  8
0Wymiary-PL
 62
     1
370
    -2
100
AcDbLine
 10
210613.8535652107
 20
133565.6431596105
 30
0.0
 11
210613.8535652107
 21
132765.6431596105
 31
0.0
  0
INSERT
  5
32EA
330
2983
100
AcDbEntity
  8
0Wymiary-PL
 62
     1
370
    -2
100
AcDbBlockReference
  2
B-DIM
 10
210613.8535652107
 20
133595.6431596104
 30
0.0
 41
30.0
 42
30.0
 43
30.0
 50
90.0
  0
INSERT
  5
32EB
330
2983
100
AcDbEntity
  8
0Wymiary-PL
 62
     1
370
    -2
100
AcDbBlockReference
  2
B-DIM
 10
210613.8535652107
 20
132735.6431596104
 30
0.0
 41
30.0
 42
30.0
 43
30.0
 50
270.0
  0
MTEXT
  5
32EC
330
2983
100
AcDbEntity
  8
0Wymiary-PL
 62
    10
100
AcDbMText
 10
210533.8535652107
 20
133165.6431596105
 30
0.0
 40
80.0
 41
0.0
 71
     5
 72
     1
  1
\A1;860
  7
ROMANS
 11
0.0000000000000001
 21
1.0
 31
0.0
 73
     1
 44
1.0
1001
ACAD
1000
MTEXTBEGIN
1070
    73
1070
     1
1070
    44
1040
1.0
1070
    74
1070
     0
1000
MTEXTEND
  0
POINT
  5
32ED
330
2983
100
AcDbEntity
  8
DEFPOINTS
 62
     0
100
AcDbPoint
 10
209217.2067107243
 20
133595.6431596104
 30
0.0
  0
POINT
  5
32EE
330
2983
100
AcDbEntity
  8
DEFPOINTS
 62
     0
100
AcDbPoint
 10
209217.7067107243
 20
132735.6431596104
 30
0.0
  0
POINT
  5
32EF
330
2983
100
AcDbEntity
  8
DEFPOINTS
 62
     0
100
AcDbPoint
 10
210613.8535652107
 20
132735.6431596104
 30
0.0
  0
ENDBLK
  5
298C
330
2983
100
AcDbEntity
  8
0
100
AcDbBlockEnd
  0
BLOCK
  5
2995
330
298D
100
AcDbEntity
  8
0
100
AcDbBlockBegin
  2
*D29
 70
     1
 10
0.0
 20
0.0
 30
0.0
  3
*D29
  1

  0
LINE
  5
32AD
330
298D
100
AcDbEntity
  8
0Wymiary-PL
 62
     1
370
    -2
100
AcDbLine
 10
209257.2067107242
 20
132134.674375364
 30
0.0
 11
209007.2067107243
 21
132134.674375364
 31
0.0
  0
INSERT
  5
32AE
330
298D
100
AcDbEntity
  8
0Wymiary-PL
 62
     1
370
    -2
100
AcDbBlockReference
  2
B-DIM
 10
209287.2067107243
 20
132134.674375364
 30
0.0
 41
30.0
 42
30.0
 43
30.0
  0
INSERT
  5
32AF
330
298D
100
AcDbEntity
  8
0Wymiary-PL
 62
     1
370
    -2
100
AcDbBlockReference
  2
B-DIM
 10
208977.2067107243
 20
132134.674375364
 30
0.0
 41
30.0
 42
30.0
 43
30.0
 50
180.0
  0
MTEXT
  5
32B0
330
298D
100
AcDbEntity
  8
0Wymiary-PL
 62
    10
100
AcDbMText
 10
209132.2067107243
 20
132214.674375364
 30
0.0
 40
80.0
 41
0.0
 71
     5
 72
     1
  1
\A1;310
  7
ROMANS
 73
     1
 44
1.0
1001
ACAD
1000
MTEXTBEGIN
1070
    73
1070
     1
1070
    44
1040
1.0
1070
    74
1070
     0
1000
MTEXTEND
  0
POINT
  5
32B1
330
298D
100
AcDbEntity
  8
DEFPOINTS
 62
     0
100
AcDbPoint
 10
209287.2067107243
 20
132795.6431596104
 30
0.0
  0
POINT
  5
32B2
330
298D
100
AcDbEntity
  8
DEFPOINTS
 62
     0
100
AcDbPoint
 10
208977.2067107243
 20
132795.6431596104
 30
0.0
  0
POINT
  5
32B3
330
298D
100
AcDbEntity
  8
DEFPOINTS
 62
     0
100
AcDbPoint
 10
208977.2067107243
 20
132134.674375364
 30
0.0
  0
ENDBLK
  5
2996
330
298D
100
AcDbEntity
  8
0
100
AcDbBlockEnd
  0
BLOCK
  5
299F
330
2997
100
AcDbEntity
  8
0
100
AcDbBlockBegin
  2
*D30
 70
     1
 10
0.0
 20
0.0
 30
0.0
  3
*D30
  1

  0
LINE
  5
32B4
330
2997
100
AcDbEntity
  8
0Wymiary-PL
 62
     1
370
    -2
100
AcDbLine
 10
208947.2067107243
 20
132134.674375364
 30
0.0
 11
208587.2067107243
 21
132134.674375364
 31
0.0
  0
INSERT
  5
32B5
330
2997
100
AcDbEntity
  8
0Wymiary-PL
 62
     1
370
    -2
100
AcDbBlockReference
  2
B-DIM
 10
208977.2067107243
 20
132134.674375364
 30
0.0
 41
30.0
 42
30.0
 43
30.0
  0
INSERT
  5
32B6
330
2997
100
AcDbEntity
  8
0Wymiary-PL
 62
     1
370
    -2
100
AcDbBlockReference
  2
B-DIM
 10
208557.2067107243
 20
132134.674375364
 30
0.0
 41
30.0
 42
30.0
 43
30.0
 50
180.0
  0
MTEXT
  5
32B7
330
2997
100
AcDbEntity
  8
0Wymiary-PL
 62
    10
100
AcDbMText
 10
208767.2067107243
 20
132214.674375364
 30
0.0
 40
80.0
 41
0.0
 71
     5
 72
     1
  1
\A1;420
  7
ROMANS
 73
     1
 44
1.0
1001
ACAD
1000
MTEXTBEGIN
1070
    73
1070
     1
1070
    44
1040
1.0
1070
    74
1070
     0
1000
MTEXTEND
  0
POINT
  5
32B8
330
2997
100
AcDbEntity
  8
DEFPOINTS
 62
     0
100
AcDbPoint
 10
208977.2067107243
 20
132795.6431596104
 30
0.0
  0
POINT
  5
32B9
330
2997
100
AcDbEntity
  8
DEFPOINTS
 62
     0
100
AcDbPoint
 10
208557.2067107243
 20
132795.6431596104
 30
0.0
  0
POINT
  5
32BA
330
2997
100
AcDbEntity
  8
DEFPOINTS
 62
     0
100
AcDbPoint
 10
208557.2067107243
 20
132134.674375364
 30
0.0
  0
ENDBLK
  5
29A0
330
2997
100
AcDbEntity
  8
0
100
AcDbBlockEnd
  0
BLOCK
  5
29A9
330
29A1
100
AcDbEntity
  8
0
100
AcDbBlockBegin
  2
*D31
 70
     1
 10
0.0
 20
0.0
 30
0.0
  3
*D31
  1

  0
LINE
  5
32BB
330
29A1
100
AcDbEntity
  8
0Wymiary-PL
 62
     1
370
    -2
100
AcDbLine
 10
208527.2067107243
 20
132134.674375364
 30
0.0
 11
208287.2067107242
 21
132134.674375364
 31
0.0
  0
INSERT
  5
32BC
330
29A1
100
AcDbEntity
  8
0Wymiary-PL
 62
     1
370
    -2
100
AcDbBlockReference
  2
B-DIM
 10
208557.2067107243
 20
132134.674375364
 30
0.0
 41
30.0
 42
30.0
 43
30.0
  0
INSERT
  5
32BD
330
29A1
100
AcDbEntity
  8
0Wymiary-PL
 62
     1
370
    -2
100
AcDbBlockReference
  2
B-DIM
 10
208257.2067107243
 20
132134.674375364
 30
0.0
 41
30.0
 42
30.0
 43
30.0
 50
180.0
  0
MTEXT
  5
32BE
330
29A1
100
AcDbEntity
  8
0Wymiary-PL
 62
    10
100
AcDbMText
 10
208407.2067107243
 20
132214.674375364
 30
0.0
 40
80.0
 41
0.0
 71
     5
 72
     1
  1
\A1;300
  7
ROMANS
 73
     1
 44
1.0
1001
ACAD
1000
MTEXTBEGIN
1070
    73
1070
     1
1070
    44
1040
1.0
1070
    74
1070
     0
1000
MTEXTEND
  0
POINT
  5
32BF
330
29A1
100
AcDbEntity
  8
DEFPOINTS
 62
     0
100
AcDbPoint
 10
208557.2067107243
 20
132795.6431596104
 30
0.0
  0
POINT
  5
32C0
330
29A1
100
AcDbEntity
  8
DEFPOINTS
 62
     0
100
AcDbPoint
 10
208257.2067107243
 20
132955.6431596105
 30
0.0
  0
POINT
  5
32C1
330
29A1
100
AcDbEntity
  8
DEFPOINTS
 62
     0
100
AcDbPoint
 10
208257.2067107243
 20
132134.674375364
 30
0.0
  0
ENDBLK
  5
29AA
330
29A1
100
AcDbEntity
  8
0
100
AcDbBlockEnd
  0
BLOCK
  5
29B3
330
29AB
100
AcDbEntity
  8
0
100
AcDbBlockBegin
  2
*D32
 70
     1
 10
0.0
 20
0.0
 30
0.0
  3
*D32
  1

  0
LINE
  5
32C2
330
29AB
100
AcDbEntity
  8
0Wymiary-PL
 62
     1
370
    -2
100
AcDbLine
 10
209377.2067107243
 20
131945.4372833213
 30
0.0
 11
208287.2067107242
 21
131945.4372833213
 31
0.0
  0
INSERT
  5
32C3
330
29AB
100
AcDbEntity
  8
0Wymiary-PL
 62
     1
370
    -2
100
AcDbBlockReference
  2
B-DIM
 10
209407.2067107243
 20
131945.4372833213
 30
0.0
 41
30.0
 42
30.0
 43
30.0
  0
INSERT
  5
32C4
330
29AB
100
AcDbEntity
  8
0Wymiary-PL
 62
     1
370
    -2
100
AcDbBlockReference
  2
B-DIM
 10
208257.2067107243
 20
131945.4372833213
 30
0.0
 41
30.0
 42
30.0
 43
30.0
 50
180.0
  0
MTEXT
  5
32C5
330
29AB
100
AcDbEntity
  8
0Wymiary-PL
 62
    10
100
AcDbMText
 10
208832.2067107243
 20
132025.4372833213
 30
0.0
 40
80.0
 41
0.0
 71
     5
 72
     1
  1
\A1;1150
  7
ROMANS
 73
     1
 44
1.0
1001
ACAD
1000
MTEXTBEGIN
1070
    73
1070
     1
1070
    44
1040
1.0
1070
    74
1070
     0
1000
MTEXTEND
  0
POINT
  5
32C6
330
29AB
100
AcDbEntity
  8
DEFPOINTS
 62
     0
100
AcDbPoint
 10
209407.2067107243
 20
132795.6431596104
 30
0.0
  0
POINT
  5
32C7
330
29AB
100
AcDbEntity
  8
DEFPOINTS
 62
     0
100
AcDbPoint
 10
208257.2067107243
 20
132955.6431596105
 30
0.0
  0
POINT
  5
32C8
330
29AB
100
AcDbEntity
  8
DEFPOINTS
 62
     0
100
AcDbPoint
 10
208257.2067107243
 20
131945.4372833213
 30
0.0
  0
ENDBLK
  5
29B4
330
29AB
100
AcDbEntity
  8
0
100
AcDbBlockEnd
  0
BLOCK
  5
29BF
330
29B5
100
AcDbEntity
  8
0
100
AcDbBlockBegin
  2
*D33
 70
     1
 10
0.0
 20
0.0
 30
0.0
  3
*D33
  1

  0
LINE
  5
32C9
330
29B5
100
AcDbEntity
  8
0Wymiary-PL
 62
     1
370
    -2
100
AcDbLine
 10
209437.2067107243
 20
132134.674375364
 30
0.0
 11
209467.2067107243
 21
132134.674375364
 31
0.0
  0
LINE
  5
32CA
330
29B5
100
AcDbEntity
  8
0Wymiary-PL
 62
     1
370
    -2
100
AcDbLine
 10
209257.2067107242
 20
132134.674375364
 30
0.0
 11
209227.2067107243
 21
132134.674375364
 31
0.0
  0
LINE
  5
32CB
330
29B5
100
AcDbEntity
  8
0Wymiary-PL
 62
     1
370
    -2
100
AcDbLine
 10
209407.2067107243
 20
132134.674375364
 30
0.0
 11
209287.2067107243
 21
132134.674375364
 31
0.0
  0
INSERT
  5
32CC
330
29B5
100
AcDbEntity
  8
0Wymiary-PL
 62
     1
370
    -2
100
AcDbBlockReference
  2
B-DIM
 10
209407.2067107243
 20
132134.674375364
 30
0.0
 41
30.0
 42
30.0
 43
30.0
 50
180.0
  0
INSERT
  5
32CD
330
29B5
100
AcDbEntity
  8
0Wymiary-PL
 62
     1
370
    -2
100
AcDbBlockReference
  2
B-DIM
 10
209287.2067107243
 20
132134.674375364
 30
0.0
 41
30.0
 42
30.0
 43
30.0
  0
MTEXT
  5
32CE
330
29B5
100
AcDbEntity
  8
0Wymiary-PL
 62
    10
100
AcDbMText
 10
209347.2067107243
 20
132214.674375364
 30
0.0
 40
80.0
 41
0.0
 71
     5
 72
     1
  1
\A1;120
  7
ROMANS
 73
     1
 44
1.0
1001
ACAD
1000
MTEXTBEGIN
1070
    73
1070
     1
1070
    44
1040
1.0
1070
    74
1070
     0
1000
MTEXTEND
  0
POINT
  5
32CF
330
29B5
100
AcDbEntity
  8
DEFPOINTS
 62
     0
100
AcDbPoint
 10
209407.2067107243
 20
132795.6431596104
 30
0.0
  0
POINT
  5
32D0
330
29B5
100
AcDbEntity
  8
DEFPOINTS
 62
     0
100
AcDbPoint
 10
209287.2067107243
 20
132795.6431596104
 30
0.0
  0
POINT
  5
32D1
330
29B5
100
AcDbEntity
  8
DEFPOINTS
 62
     0
100
AcDbPoint
 10
209287.2067107243
 20
132134.674375364
 30
0.0
  0
ENDBLK
  5
29C0
330
29B5
100
AcDbEntity
  8
0
100
AcDbBlockEnd
  0
ENDSEC
  0
SECTION
  2
ENTITIES
  0
LWPOLYLINE
  5
1A2A
330
2
100
AcDbEntity
  8
RAMKI-A4
100
AcDbPolyline
 90
        4
 70
     1
 43
0.0
 10
201611.1256215136
 20
124387.6604017192
 10
201611.1256215136
 20
138407.6604017192
 10
211811.1256215136
 20
138407.6604017192
 10
211811.1256215136
 20
124387.6604017192
  0
TEXT
  5
1A2B
330
2
100
AcDbEntity
  8
NAPISY
100
AcDbText
 10
203090.3553486713
 20
137846.4502228664
 30
0.0
 40
150.0
  1
"DOM W BUKSZPANIE" 
  7
ARIAL
100
AcDbText
  0
TEXT
  5
1A2C
330
2
100
AcDbEntity
  8
NAPISY
100
AcDbText
 10
203166.6906193065
 20
137516.5817455036
 30
0.0
 40
150.0
  1
MOŻNA WKLEIĆ DO PROJEKTU ZAGOSPODAROWANIA TERENU
  7
ARIAL
100
AcDbText
  0
TEXT
  5
1A2E
330
2
100
AcDbEntity
  8
NAPISY
100
AcDbText
 10
206764.2936347979
 20
131482.4546170886
 30
0.0
 40
100.0
  1
OŚ ODBICIA LUSTRZANEGO
 50
90.0
  7
AVA
100
AcDbText
  0
LINE
  5
1A2F
330
2
100
AcDbEntity
  8
NAPISY
  6
HIDDEN
 62
     1
 48
10.0
100
AcDbLine
 10
206823.8148117913
 20
130400.8074542681
 30
0.0
 11
206823.8148117913
 21
135203.2645117455
 31
0.0
  0
TEXT
  5
1A42
330
2
100
AcDbEntity
  8
NAPISY
100
AcDbText
 10
203070.4775681885
 20
125053.2164846217
 30
0.0
 40
150.0
  1
   O B R Y S   B U D Y N K U           S K A L A   1 : 5 0 0 
  7
ARIAL
100
AcDbText
  0
LINE
  5
279A
330
2
100
AcDbEntity
  8
0Hatch
100
AcDbLine
 10
205123.4229128583
 20
133015.6431596104
 30
0.0
 11
205123.4229128583
 21
132955.6431596105
 31
0.0
  0
LINE
  5
279B
330
2
100
AcDbEntity
  8
0Hatch
100
AcDbLine
 10
205303.4229128583
 20
133015.6431596104
 30
0.0
 11
205303.4229128583
 21
132955.6431596105
 31
0.0
  0
LWPOLYLINE
  5
279C
330
2
100
AcDbEntity
  8
0Hatch
100
AcDbPolyline
 90
       15
 70
     1
 43
0.0
 10
205303.4229128583
 20
133015.6431596104
 10
205330.4229128583
 20
133015.6431596104
 10
205330.4229128583
 20
133535.6431596104
 10
204490.4229128583
 20
133535.6431596104
 10
204490.4229128583
 20
133265.6431596104
 10
204300.4229128583
 20
133265.6431596104
 10
204300.4229128583
 20
132927.5077466586
 10
204300.4229128583
 20
132855.6431596104
 10
204385.2757266007
 20
132855.6431596104
 10
204445.2757266007
 20
132795.6431596104
 10
204585.5700991159
 20
132795.6431596104
 10
204645.5700991159
 20
132855.6431596104
 10
205030.4229128583
 20
132855.6431596104
 10
205030.4229128583
 20
133015.6431596104
 10
205123.4229128583
 20
133015.6431596104
  0
LWPOLYLINE
  5
279D
330
2
100
AcDbEntity
  8
0Hatch
100
AcDbPolyline
 90
       15
 70
     1
 43
0.0
 10
205123.4229128583
 20
132955.6431596105
 10
205090.4229128583
 20
132955.6431596105
 10
205090.4229128583
 20
132795.6431596104
 10
204670.4229128583
 20
132795.6431596104
 10
204610.4229128583
 20
132735.6431596104
 10
204420.4229128583
 20
132735.6431596104
 10
204360.4229128583
 20
132795.6431596104
 10
204240.4229128583
 20
132795.6431596104
 10
204240.4229128583
 20
132927.5077466586
 10
204240.4229128583
 20
133325.6431596104
 10
204430.4229128583
 20
133325.6431596104
 10
204430.4229128583
 20
133595.6431596104
 10
205390.4229128583
 20
133595.6431596104
 10
205390.4229128583
 20
132955.6431596105
 10
205303.4229128583
 20
132955.6431596105
  0
LINE
  5
279E
330
2
100
AcDbEntity
  8
0Hatch
100
AcDbLine
 10
205480.4229128583
 20
133045.6431596104
 30
0.0
 11
205390.4229128583
 21
133045.6431596104
 31
0.0
  0
LINE
  5
279F
330
2
100
AcDbEntity
  8
0Hatch
100
AcDbLine
 10
205450.4229128583
 20
133015.6431596104
 30
0.0
 11
205390.4229128583
 21
133015.6431596104
 31
0.0
  0
LINE
  5
27A0
330
2
100
AcDbEntity
  8
0Hatch
100
AcDbLine
 10
205420.4229128583
 20
132985.6431596105
 30
0.0
 11
205390.4229128583
 21
132985.6431596105
 31
0.0
  0
CIRCLE
  5
27A1
102
{ACAD_REACTORS
330
2F4B
102
}
330
2
100
AcDbEntity
  8
0Hatch
100
AcDbCircle
 10
204266.9229128583
 20
133569.1431596104
 30
0.0
 40
26.99999999999997
  0
LINE
  5
27A2
330
2
100
AcDbEntity
  8
0Hatch
100
AcDbLine
 10
205021.4229128583
 20
132735.6431596104
 30
0.0
 11
205450.4229128583
 21
132735.6431596104
 31
0.0
  0
LINE
  5
27A3
330
2
100
AcDbEntity
  8
0Hatch
100
AcDbLine
 10
205051.4229128583
 20
132765.6431596105
 30
0.0
 11
205420.4229128583
 21
132765.6431596105
 31
0.0
  0
LINE
  5
27A4
330
2
100
AcDbEntity
  8
0Hatch
100
AcDbLine
 10
205021.4229128583
 20
132795.6431596104
 30
0.0
 11
205021.4229128583
 21
132735.6431596104
 31
0.0
  0
LINE
  5
27A5
330
2
100
AcDbEntity
  8
0Hatch
100
AcDbLine
 10
205051.4229128583
 20
132795.6431596104
 30
0.0
 11
205051.4229128583
 21
132765.6431596105
 31
0.0
  0
CIRCLE
  5
27A6
102
{ACAD_REACTORS
330
2F4B
102
}
330
2
100
AcDbEntity
  8
0Hatch
100
AcDbCircle
 10
205363.9229128583
 20
132822.1431596104
 30
0.0
 40
26.99999999999997
  0
LINE
  5
27A7
330
2
100
AcDbEntity
  8
0Hatch
100
AcDbLine
 10
204991.4229128583
 20
132795.6431596104
 30
0.0
 11
204991.4229128583
 21
132705.6431596104
 31
0.0
  0
LINE
  5
27A8
330
2
100
AcDbEntity
  8
0Hatch
100
AcDbLine
 10
204991.4229128583
 20
132705.6431596104
 30
0.0
 11
205480.4229128583
 21
132705.6431596104
 31
0.0
  0
LINE
  5
27A9
330
2
100
AcDbEntity
  8
0Hatch
100
AcDbLine
 10
205480.4229128583
 20
132705.6431596104
 30
0.0
 11
205480.4229128583
 21
133045.6431596104
 31
0.0
  0
LINE
  5
27AA
330
2
100
AcDbEntity
  8
0Hatch
100
AcDbLine
 10
205450.4229128583
 20
132735.6431596104
 30
0.0
 11
205450.4229128583
 21
133015.6431596104
 31
0.0
  0
LINE
  5
27AB
330
2
100
AcDbEntity
  8
0Hatch
100
AcDbLine
 10
205420.4229128583
 20
132765.6431596105
 30
0.0
 11
205420.4229128583
 21
132985.6431596105
 31
0.0
  0
LINE
  5
27AC
330
2
100
AcDbEntity
  8
0Hatch
100
AcDbLine
 10
204430.4229128583
 20
133625.6431596104
 30
0.0
 11
203900.4229128583
 21
133625.6431596104
 31
0.0
  0
ARC
  5
27AD
330
2
100
AcDbEntity
  8
0Hatch
100
AcDbCircle
 10
204233.3215814885
 20
133258.4913137068
 30
0.0
 40
332.9744021437406
100
AcDbArc
 50
178.7779626181531
 51
271.2220373818469
  0
LINE
  5
27AE
330
2
100
AcDbEntity
  8
0Hatch
100
AcDbLine
 10
203900.4229128583
 20
133625.6431596104
 30
0.0
 11
203900.4229128583
 21
133265.5926450766
 31
0.0
  0
LWPOLYLINE
  5
27AF
330
2
100
AcDbEntity
  8
0Hatch
100
AcDbPolyline
 90
        2
 70
     0
 43
0.0
 10
204430.4229128583
 20
133655.6431596104
 10
203870.4229128583
 20
133655.6431596104
  0
LWPOLYLINE
  5
27B0
330
2
100
AcDbEntity
  8
0Hatch
100
AcDbPolyline
 90
        2
 70
     0
 43
0.0
 10
203870.4229128583
 20
133265.5926450766
 42
0.4185935899497791
 10
204240.4229128582
 20
132895.5926450766
  0
LWPOLYLINE
  5
27B1
330
2
100
AcDbEntity
  8
0Hatch
100
AcDbPolyline
 90
        2
 70
     0
 43
0.0
 10
203870.4229128583
 20
133655.6431596104
 10
203870.4229128583
 20
133265.5926450766
  0
LINE
  5
27B2
330
2
100
AcDbEntity
  8
0Hatch
100
AcDbLine
 10
204430.4229128583
 20
133655.6431596104
 30
0.0
 11
204430.4229128583
 21
133595.6431596104
 31
0.0
  0
DIMENSION
  5
27B3
330
2
100
AcDbEntity
  8
0Wymiary-PL
100
AcDbDimension
  2
*D16
 10
203295.9172188263
 20
133325.6431596104
 30
0.0
 11
203215.9172188262
 21
133460.6431596105
 31
0.0
 70
    32
 71
     5
 42
270.0
  3
500
100
AcDbAlignedDimension
 13
204430.4229128583
 23
133595.6431596104
 33
0.0
 14
204430.4229128583
 24
133325.6431596104
 34
0.0
 50
90.0
100
AcDbRotatedDimension
  0
DIMENSION
  5
27BE
330
2
100
AcDbEntity
  8
0Wymiary-PL
100
AcDbDimension
  2
*D17
 10
203295.9172188263
 20
132795.6431596104
 30
0.0
 11
203215.9172188262
 21
133060.6431596105
 31
0.0
 70
    32
 71
     5
 42
530.0
  3
500
100
AcDbAlignedDimension
 13
204430.4229128583
 23
133325.6431596104
 33
0.0
 14
204240.4229128583
 24
132795.6431596104
 34
0.0
 50
90.0
100
AcDbRotatedDimension
  0
DIMENSION
  5
27C9
330
2
100
AcDbEntity
  8
0Wymiary-PL
100
AcDbDimension
  2
*D18
 10
203295.9172188263
 20
132735.6431596104
 30
0.0
 11
203215.9172188262
 21
132765.6431596105
 31
0.0
 70
    32
 71
     5
 42
60.0
  3
500
100
AcDbAlignedDimension
 13
204240.4229128583
 23
132795.6431596104
 33
0.0
 14
204420.4229128583
 24
132735.6431596104
 34
0.0
 50
90.0
100
AcDbRotatedDimension
  0
DIMENSION
  5
27ED
330
2
100
AcDbEntity
  8
0Wymiary-PL
100
AcDbDimension
  2
*D19
 10
203033.7760583718
 20
132735.6431596104
 30
0.0
 11
202953.7760583718
 21
133165.6431596105
 31
0.0
 70
    32
 71
     5
 42
860.0
  3
500
100
AcDbAlignedDimension
 13
204430.4229128583
 23
133595.6431596104
 33
0.0
 14
204429.9229128583
 24
132735.6431596104
 34
0.0
 50
90.0
100
AcDbRotatedDimension
  0
DIMENSION
  5
2817
330
2
100
AcDbEntity
  8
0Wymiary-PL
100
AcDbDimension
  2
*D20
 10
204670.4229128583
 20
132134.674375364
 30
0.0
 11
204515.4229128583
 21
132214.674375364
 31
0.0
 70
    32
 71
     5
 42
310.0
  3
500
100
AcDbAlignedDimension
 13
204360.4229128583
 23
132795.6431596104
 33
0.0
 14
204670.4229128583
 24
132795.6431596104
 34
0.0
100
AcDbRotatedDimension
  0
DIMENSION
  5
2822
330
2
100
AcDbEntity
  8
0Wymiary-PL
100
AcDbDimension
  2
*D21
 10
205090.4229128583
 20
132134.674375364
 30
0.0
 11
204880.4229128583
 21
132214.674375364
 31
0.0
 70
    32
 71
     5
 42
420.0
  3
500
100
AcDbAlignedDimension
 13
204670.4229128583
 23
132795.6431596104
 33
0.0
 14
205090.4229128583
 24
132795.6431596104
 34
0.0
100
AcDbRotatedDimension
  0
DIMENSION
  5
282D
330
2
100
AcDbEntity
  8
0Wymiary-PL
100
AcDbDimension
  2
*D22
 10
205390.4229128583
 20
132134.674375364
 30
0.0
 11
205240.4229128583
 21
132214.674375364
 31
0.0
 70
    32
 71
     5
 42
300.0
  3
500
100
AcDbAlignedDimension
 13
205090.4229128583
 23
132795.6431596104
 33
0.0
 14
205390.4229128583
 24
132955.6431596105
 34
0.0
100
AcDbRotatedDimension
  0
DIMENSION
  5
2838
330
2
100
AcDbEntity
  8
0Wymiary-PL
100
AcDbDimension
  2
*D23
 10
205390.4229128583
 20
131945.4372833213
 30
0.0
 11
204815.4229128583
 21
132025.4372833213
 31
0.0
 70
    32
 71
     5
 42
1150.0
  3
500
100
AcDbAlignedDimension
 13
204240.4229128583
 23
132795.6431596104
 33
0.0
 14
205390.4229128583
 24
132955.6431596105
 34
0.0
100
AcDbRotatedDimension
  0
DIMENSION
  5
2931
330
2
100
AcDbEntity
  8
0Wymiary-PL
100
AcDbDimension
  2
*D24
 10
204360.4229128583
 20
132134.674375364
 30
0.0
 11
204300.4229128583
 21
132214.674375364
 31
0.0
 70
    32
 71
     5
 42
120.0
  3
500
100
AcDbAlignedDimension
 13
204240.4229128583
 23
132795.6431596104
 33
0.0
 14
204360.4229128583
 24
132795.6431596104
 34
0.0
100
AcDbRotatedDimension
  0
DIMENSION
  5
293E
330
2
100
AcDbEntity
  8
0Wymiary-PL
100
AcDbDimension
  2
*D33
 10
209287.2067107243
 20
132134.674375364
 30
0.0
 11
209347.2067107243
 21
132214.674375364
 31
0.0
 70
    32
 71
     5
 42
120.0
  3
500
100
AcDbAlignedDimension
 13
209407.2067107243
 23
132795.6431596104
 33
0.0
 14
209287.2067107243
 24
132795.6431596104
 34
0.0
 50
180.0
100
AcDbRotatedDimension
  0
DIMENSION
  5
293F
330
2
100
AcDbEntity
  8
0Wymiary-PL
100
AcDbDimension
  2
*D32
 10
208257.2067107243
 20
131945.4372833213
 30
0.0
 11
208832.2067107243
 21
132025.4372833213
 31
0.0
 70
    32
 71
     5
 42
1150.0
  3
500
100
AcDbAlignedDimension
 13
209407.2067107243
 23
132795.6431596104
 33
0.0
 14
208257.2067107243
 24
132955.6431596105
 34
0.0
 50
180.0
100
AcDbRotatedDimension
  0
DIMENSION
  5
2940
330
2
100
AcDbEntity
  8
0Wymiary-PL
100
AcDbDimension
  2
*D31
 10
208257.2067107243
 20
132134.674375364
 30
0.0
 11
208407.2067107243
 21
132214.674375364
 31
0.0
 70
    32
 71
     5
 42
300.0
  3
500
100
AcDbAlignedDimension
 13
208557.2067107243
 23
132795.6431596104
 33
0.0
 14
208257.2067107243
 24
132955.6431596105
 34
0.0
 50
180.0
100
AcDbRotatedDimension
  0
DIMENSION
  5
2941
330
2
100
AcDbEntity
  8
0Wymiary-PL
100
AcDbDimension
  2
*D30
 10
208557.2067107243
 20
132134.674375364
 30
0.0
 11
208767.2067107243
 21
132214.674375364
 31
0.0
 70
    32
 71
     5
 42
420.0
  3
500
100
AcDbAlignedDimension
 13
208977.2067107243
 23
132795.6431596104
 33
0.0
 14
208557.2067107243
 24
132795.6431596104
 34
0.0
 50
180.0
100
AcDbRotatedDimension
  0
DIMENSION
  5
2942
330
2
100
AcDbEntity
  8
0Wymiary-PL
100
AcDbDimension
  2
*D29
 10
208977.2067107243
 20
132134.674375364
 30
0.0
 11
209132.2067107243
 21
132214.674375364
 31
0.0
 70
    32
 71
     5
 42
310.0
  3
500
100
AcDbAlignedDimension
 13
209287.2067107243
 23
132795.6431596104
 33
0.0
 14
208977.2067107243
 24
132795.6431596104
 34
0.0
 50
180.0
100
AcDbRotatedDimension
  0
DIMENSION
  5
2943
330
2
100
AcDbEntity
  8
0Wymiary-PL
100
AcDbDimension
  2
*D28
 10
210613.8535652107
 20
132735.6431596104
 30
0.0
 11
210533.8535652107
 21
133165.6431596105
 31
0.0
 70
    32
 71
     5
 42
860.0
  3
500
100
AcDbAlignedDimension
 13
209217.2067107243
 23
133595.6431596104
 33
0.0
 14
209217.7067107243
 24
132735.6431596104
 34
0.0
 50
90.0
100
AcDbRotatedDimension
  0
DIMENSION
  5
2944
330
2
100
AcDbEntity
  8
0Wymiary-PL
100
AcDbDimension
  2
*D27
 10
210351.7124047563
 20
132735.6431596104
 30
0.0
 11
210271.7124047563
 21
132765.6431596105
 31
0.0
 70
    32
 71
     5
 42
60.0
  3
500
100
AcDbAlignedDimension
 13
209407.2067107243
 23
132795.6431596104
 33
0.0
 14
209227.2067107243
 24
132735.6431596104
 34
0.0
 50
90.0
100
AcDbRotatedDimension
  0
DIMENSION
  5
2945
330
2
100
AcDbEntity
  8
0Wymiary-PL
100
AcDbDimension
  2
*D26
 10
210351.7124047563
 20
132795.6431596104
 30
0.0
 11
210271.7124047563
 21
133060.6431596105
 31
0.0
 70
    32
 71
     5
 42
530.0
  3
500
100
AcDbAlignedDimension
 13
209217.2067107243
 23
133325.6431596104
 33
0.0
 14
209407.2067107243
 24
132795.6431596104
 34
0.0
 50
90.0
100
AcDbRotatedDimension
  0
DIMENSION
  5
2946
330
2
100
AcDbEntity
  8
0Wymiary-PL
100
AcDbDimension
  2
*D25
 10
210351.7124047563
 20
133325.6431596104
 30
0.0
 11
210271.7124047563
 21
133460.6431596105
 31
0.0
 70
    32
 71
     5
 42
270.0
  3
500
100
AcDbAlignedDimension
 13
209217.2067107243
 23
133595.6431596104
 33
0.0
 14
209217.2067107243
 24
133325.6431596104
 34
0.0
 50
90.0
100
AcDbRotatedDimension
  0
LINE
  5
2947
330
2
100
AcDbEntity
  8
0Hatch
100
AcDbLine
 10
209217.2067107243
 20
133655.6431596104
 30
0.0
 11
209217.2067107243
 21
133595.6431596104
 31
0.0
  0
LWPOLYLINE
  5
2948
330
2
100
AcDbEntity
  8
0Hatch
100
AcDbPolyline
 90
        2
 70
     0
 43
0.0
 10
209777.2067107243
 20
133655.6431596104
 10
209777.2067107243
 20
133265.5926450766
  0
LWPOLYLINE
  5
2949
330
2
100
AcDbEntity
  8
0Hatch
100
AcDbPolyline
 90
        2
 70
     0
 43
0.0
 10
209777.2067107243
 20
133265.5926450766
 42
-0.4185935899497791
 10
209407.2067107243
 20
132895.5926450766
  0
LWPOLYLINE
  5
294A
330
2
100
AcDbEntity
  8
0Hatch
100
AcDbPolyline
 90
        2
 70
     0
 43
0.0
 10
209217.2067107243
 20
133655.6431596104
 10
209777.2067107243
 20
133655.6431596104
  0
LINE
  5
294B
330
2
100
AcDbEntity
  8
0Hatch
100
AcDbLine
 10
209747.2067107243
 20
133625.6431596104
 30
0.0
 11
209747.2067107243
 21
133265.5926450766
 31
0.0
  0
ARC
  5
294C
330
2
100
AcDbEntity
  8
0Hatch
100
AcDbCircle
 10
209414.3080420941
 20
133258.4913137068
 30
0.0
 40
332.9744021437406
100
AcDbArc
 50
268.7779626181531
 51
1.222037381846933
  0
LINE
  5
294D
330
2
100
AcDbEntity
  8
0Hatch
100
AcDbLine
 10
209217.2067107243
 20
133625.6431596104
 30
0.0
 11
209747.2067107243
 21
133625.6431596104
 31
0.0
  0
LINE
  5
294E
330
2
100
AcDbEntity
  8
0Hatch
100
AcDbLine
 10
208227.2067107242
 20
132765.6431596105
 30
0.0
 11
208227.2067107242
 21
132985.6431596105
 31
0.0
  0
LINE
  5
294F
330
2
100
AcDbEntity
  8
0Hatch
100
AcDbLine
 10
208197.2067107242
 20
132735.6431596104
 30
0.0
 11
208197.2067107242
 21
133015.6431596104
 31
0.0
  0
LINE
  5
2950
330
2
100
AcDbEntity
  8
0Hatch
100
AcDbLine
 10
208167.2067107243
 20
132705.6431596104
 30
0.0
 11
208167.2067107243
 21
133045.6431596104
 31
0.0
  0
LINE
  5
2951
330
2
100
AcDbEntity
  8
0Hatch
100
AcDbLine
 10
208656.2067107243
 20
132705.6431596104
 30
0.0
 11
208167.2067107243
 21
132705.6431596104
 31
0.0
  0
LINE
  5
2952
330
2
100
AcDbEntity
  8
0Hatch
100
AcDbLine
 10
208656.2067107243
 20
132795.6431596104
 30
0.0
 11
208656.2067107243
 21
132705.6431596104
 31
0.0
  0
CIRCLE
  5
2953
102
{ACAD_REACTORS
330
2F4B
102
}
330
2
100
AcDbEntity
  8
0Hatch
100
AcDbCircle
 10
208283.7067107243
 20
132822.1431596104
 30
0.0
 40
26.99999999999997
  0
LINE
  5
2954
330
2
100
AcDbEntity
  8
0Hatch
100
AcDbLine
 10
208596.2067107243
 20
132795.6431596104
 30
0.0
 11
208596.2067107243
 21
132765.6431596105
 31
0.0
  0
LINE
  5
2955
330
2
100
AcDbEntity
  8
0Hatch
100
AcDbLine
 10
208626.2067107242
 20
132795.6431596104
 30
0.0
 11
208626.2067107242
 21
132735.6431596104
 31
0.0
  0
LINE
  5
2956
330
2
100
AcDbEntity
  8
0Hatch
100
AcDbLine
 10
208596.2067107243
 20
132765.6431596105
 30
0.0
 11
208227.2067107242
 21
132765.6431596105
 31
0.0
  0
LINE
  5
2957
330
2
100
AcDbEntity
  8
0Hatch
100
AcDbLine
 10
208626.2067107242
 20
132735.6431596104
 30
0.0
 11
208197.2067107242
 21
132735.6431596104
 31
0.0
  0
CIRCLE
  5
2958
102
{ACAD_REACTORS
330
2F4B
102
}
330
2
100
AcDbEntity
  8
0Hatch
100
AcDbCircle
 10
209380.7067107242
 20
133569.1431596104
 30
0.0
 40
26.99999999999997
  0
LINE
  5
2959
330
2
100
AcDbEntity
  8
0Hatch
100
AcDbLine
 10
208227.2067107242
 20
132985.6431596105
 30
0.0
 11
208257.2067107243
 21
132985.6431596105
 31
0.0
  0
LINE
  5
295A
330
2
100
AcDbEntity
  8
0Hatch
100
AcDbLine
 10
208197.2067107242
 20
133015.6431596104
 30
0.0
 11
208257.2067107243
 21
133015.6431596104
 31
0.0
  0
LINE
  5
295B
330
2
100
AcDbEntity
  8
0Hatch
100
AcDbLine
 10
208167.2067107243
 20
133045.6431596104
 30
0.0
 11
208257.2067107243
 21
133045.6431596104
 31
0.0
  0
LWPOLYLINE
  5
295C
330
2
100
AcDbEntity
  8
0Hatch
100
AcDbPolyline
 90
       15
 70
     1
 43
0.0
 10
208524.2067107243
 20
132955.6431596105
 10
208557.2067107243
 20
132955.6431596105
 10
208557.2067107243
 20
132795.6431596104
 10
208977.2067107243
 20
132795.6431596104
 10
209037.2067107242
 20
132735.6431596104
 10
209227.2067107243
 20
132735.6431596104
 10
209287.2067107243
 20
132795.6431596104
 10
209407.2067107243
 20
132795.6431596104
 10
209407.2067107243
 20
132927.5077466586
 10
209407.2067107243
 20
133325.6431596104
 10
209217.2067107243
 20
133325.6431596104
 10
209217.2067107243
 20
133595.6431596104
 10
208257.2067107243
 20
133595.6431596104
 10
208257.2067107243
 20
132955.6431596105
 10
208344.2067107243
 20
132955.6431596105
  0
LWPOLYLINE
  5
295D
330
2
100
AcDbEntity
  8
0Hatch
100
AcDbPolyline
 90
       15
 70
     1
 43
0.0
 10
208344.2067107243
 20
133015.6431596104
 10
208317.2067107243
 20
133015.6431596104
 10
208317.2067107243
 20
133535.6431596104
 10
209157.2067107243
 20
133535.6431596104
 10
209157.2067107243
 20
133265.6431596104
 10
209347.2067107243
 20
133265.6431596104
 10
209347.2067107243
 20
132927.5077466586
 10
209347.2067107243
 20
132855.6431596104
 10
209262.3538969819
 20
132855.6431596104
 10
209202.3538969819
 20
132795.6431596104
 10
209062.0595244667
 20
132795.6431596104
 10
209002.0595244666
 20
132855.6431596104
 10
208617.2067107243
 20
132855.6431596104
 10
208617.2067107243
 20
133015.6431596104
 10
208524.2067107243
 20
133015.6431596104
  0
LINE
  5
295E
330
2
100
AcDbEntity
  8
0Hatch
100
AcDbLine
 10
208344.2067107243
 20
133015.6431596104
 30
0.0
 11
208344.2067107243
 21
132955.6431596105
 31
0.0
  0
LINE
  5
295F
330
2
100
AcDbEntity
  8
0Hatch
100
AcDbLine
 10
208524.2067107243
 20
133015.6431596104
 30
0.0
 11
208524.2067107243
 21
132955.6431596105
 31
0.0
  0
HATCH
  5
2F4B
330
2
100
AcDbEntity
  8
0Hatch
100
AcDbHatch
 10
0.0
 20
0.0
 30
0.0
210
0.0
220
0.0
230
1.0
  2
SOLID
 70
     1
 71
     1
 91
        4
 92
        7
 72
     1
 73
     1
 93
        2
 10
204293.9229128583
 20
133569.1431596104
 42
1.0
 10
204239.9229128583
 20
133569.1431596104
 42
1.0
 97
        1
330
27A1
 92
        7
 72
     1
 73
     1
 93
        2
 10
205390.9229128583
 20
132822.1431596104
 42
1.0
 10
205336.9229128583
 20
132822.1431596104
 42
1.0
 97
        1
330
27A6
 92
        7
 72
     1
 73
     1
 93
        2
 10
208310.7067107242
 20
132822.1431596104
 42
1.0
 10
208256.7067107243
 20
132822.1431596104
 42
1.0
 97
        1
330
2953
 92
        7
 72
     1
 73
     1
 93
        2
 10
209407.7067107242
 20
133569.1431596104
 42
1.0
 10
209353.7067107243
 20
133569.1431596104
 42
1.0
 97
        1
330
2958
 75
     0
 76
     1
 47
1.313518381177377
 98
        4
 10
204272.8670174353
 20
133561.6393689959
 10
205370.5805720908
 20
132811.9126377986
 10
208290.4668757437
 20
132817.8061133109
 10
209384.3010959758
 20
133565.5167971251
1001
ACAD
1010
0.0
1020
0.0
1030
0.0
  0
LWPOLYLINE
  5
2F4D
330
2
100
AcDbEntity
  8
0Hatch
100
AcDbPolyline
 90
       14
 70
     0
 43
60.0
 10
208524.2067107243
 20
132985.6431596105
 10
208587.2067107243
 20
132985.6431596105
 10
208587.2067107243
 20
132825.6431596104
 10
208989.6331175955
 20
132825.6431596104
 10
209049.6331175955
 20
132765.6431596105
 10
209214.780303853
 20
132765.6431596105
 10
209274.7803038531
 20
132825.6431596104
 10
209377.2067107243
 20
132825.6431596104
 10
209377.2067107243
 20
133295.6431596104
 10
209187.2067107242
 20
133295.6431596104
 10
209187.2067107242
 20
133565.6431596105
 10
208287.2067107242
 20
133565.6431596105
 10
208287.2067107242
 20
132985.6431596105
 10
208344.2067107243
 20
132985.6431596105
  0
LWPOLYLINE
  5
2F55
330
2
100
AcDbEntity
  8
0Hatch
100
AcDbPolyline
 90
       15
 70
     1
 43
0.0
 10
205123.4229128583
 20
132955.6431596105
 10
205090.4229128583
 20
132955.6431596105
 10
205090.4229128583
 20
132795.6431596104
 10
204670.4229128583
 20
132795.6431596104
 10
204610.4229128583
 20
132735.6431596104
 10
204420.4229128583
 20
132735.6431596104
 10
204360.4229128583
 20
132795.6431596104
 10
204240.4229128583
 20
132795.6431596104
 10
204240.4229128583
 20
132927.5077466586
 10
204240.4229128583
 20
133325.6431596104
 10
204430.4229128583
 20
133325.6431596104
 10
204430.4229128583
 20
133595.6431596104
 10
205390.4229128583
 20
133595.6431596104
 10
205390.4229128583
 20
132955.6431596105
 10
205303.4229128583
 20
132955.6431596105
  0
LWPOLYLINE
  5
2F56
330
2
100
AcDbEntity
  8
0Hatch
100
AcDbPolyline
 90
       14
 70
     0
 43
60.0
 10
205303.4229128583
 20
132985.6431596105
 10
205360.4229128583
 20
132985.6431596105
 10
205360.4229128583
 20
133565.6431596105
 10
204460.4229128583
 20
133565.6431596105
 10
204460.4229128583
 20
133295.6431596104
 10
204270.4229128583
 20
133295.6431596104
 10
204270.4229128583
 20
132825.6431596104
 10
204372.8493197295
 20
132825.6431596104
 10
204432.8493197295
 20
132765.6431596105
 10
204597.9965059871
 20
132765.6431596105
 10
204657.9965059871
 20
132825.6431596104
 10
205060.4229128583
 20
132825.6431596104
 10
205060.4229128583
 20
132985.6431596105
 10
205123.4229128583
 20
132985.6431596105
  0
ENDSEC
  0
SECTION
  2
OBJECTS
  0
DICTIONARY
  5
7
330
0
100
AcDbDictionary
281
     1
  3
ACAD_COLOR
350
31
  3
ACAD_GROUP
350
2D
  3
ACAD_LAYOUT
350
B
  3
ACAD_MATERIAL
350
30
  3
ACAD_MLEADERSTYLE
350
2BC4
  3
ACAD_MLINESTYLE
350
2E
  3
ACAD_PLOTSETTINGS
350
2F
  3
ACAD_PLOTSTYLENAME
350
6
  3
ACAD_SCALELIST
350
2BA2
  3
ACAD_TABLESTYLE
350
2BA0
  3
ACAD_VISUALSTYLE
350
2B8F
  3
AcAec
350
2B60
  3
ACDB_RECOMPOSE_DATA
350
330B
  3
AcDbVariableDictionary
350
3301
  3
AEC_CLASSIFICATION_SYSTEM_DEFS
350
3C3
  3
AEC_DISP_REP_CONFIGURATIONS
350
2A1B
  3
AEC_DISP_REP_SETS
350
2A1D
  3
AEC_DISP_REPS
350
2A21
  3
AEC_DISPLAY_PROPS_DEFAULTS
350
2A71
  3
AEC_LAYERKEY_STYLES
350
2A19
  3
AEC_PROPERTY_SET_DEFS
350
3C4
  3
AEC_VARS
350
2A17
  3
ASE_INDEX_DICTIONARY
350
250E
  3
CONLABELDictionary
350
2282
  3
CONLDEFDictionary
350
2280
  3
DWGPROPS
350
330C
  0
DICTIONARY
  5
12
330
11
100
AcDbDictionary
280
     1
281
     1
  3
ACAD_LAYERSTATES
360
13
  0
DICTIONARY
  5
2BE1
330
4
100
AcDbDictionary
280
     1
281
     1
  3
ADSK_XREC_LAYER_RECONCILED
360
2BE2
  0
DICTIONARY
  5
2BE9
330
15E
100
AcDbDictionary
280
     1
281
     1
  3
ADSK_XREC_LAYER_RECONCILED
360
2BEA
  0
DICTIONARY
  5
2BEB
330
BB
100
AcDbDictionary
280
     1
281
     1
  3
ADSK_XREC_LAYER_RECONCILED
360
2BEC
  0
DICTIONARY
  5
2BED
330
143
100
AcDbDictionary
280
     1
281
     1
  3
ADSK_XREC_LAYER_RECONCILED
360
2BEE
  0
DICTIONARY
  5
2CC9
330
2CC8
100
AcDbDictionary
280
     1
281
     1
  0
DICTIONARY
  5
300F
330
300E
100
AcDbDictionary
280
     1
281
     1
  0
DICTIONARY
  5
2F27
330
2
100
AcDbDictionary
280
     1
281
     1
  3
ACAD_SORTENTS
360
2F28
  0
DICTIONARY
  5
24
330
23
100
AcDbDictionary
280
     1
281
     1
  3
ACAD_SORTENTS
360
2570
  0
DICTIONARY
  5
31
102
{ACAD_REACTORS
330
7
102
}
330
7
100
AcDbDictionary
281
     1
  0
DICTIONARY
  5
2D
102
{ACAD_REACTORS
330
7
102
}
330
7
100
AcDbDictionary
281
     1
  0
DICTIONARY
  5
B
102
{ACAD_REACTORS
330
7
102
}
330
7
100
AcDbDictionary
281
     1
  3
Layout1
350
10
  3
Model
350
A
  0
DICTIONARY
  5
30
102
{ACAD_REACTORS
330
7
102
}
330
7
100
AcDbDictionary
281
     1
  3
ByBlock
350
2B7F
  3
ByLayer
350
2B77
  3
Global
350
2B87
  0
DICTIONARY
  5
2BC4
102
{ACAD_REACTORS
330
7
102
}
330
7
100
AcDbDictionary
281
     1
  3
Standard
350
2BC5
  0
DICTIONARY
  5
2E
102
{ACAD_REACTORS
330
7
102
}
330
7
100
AcDbDictionary
281
     1
  3
Standard
350
33
  0
DICTIONARY
  5
2F
102
{ACAD_REACTORS
330
7
102
}
330
7
100
AcDbDictionary
281
     1
  0
ACDBDICTIONARYWDFLT
  5
6
102
{ACAD_REACTORS
330
7
102
}
330
7
100
AcDbDictionary
281
     1
  3
Normal
350
5
100
AcDbDictionaryWithDefault
340
5
  0
DICTIONARY
  5
2BA2
102
{ACAD_REACTORS
330
7
102
}
330
7
100
AcDbDictionary
281
     1
  3
*A1
350
2CCB
  3
*A10
350
2CD4
  3
*A11
350
2CD5
  3
*A12
350
2CD6
  3
*A13
350
2CD7
  3
*A14
350
2CD8
  3
*A15
350
2CD9
  3
*A16
350
2CDA
  3
*A17
350
2CDB
  3
*A18
350
2CDC
  3
*A19
350
2CDD
  3
*A2
350
2CCC
  3
*A20
350
2CDE
  3
*A21
350
2CDF
  3
*A22
350
3016
  3
*A23
350
3017
  3
*A24
350
3018
  3
*A25
350
3019
  3
*A26
350
301A
  3
*A27
350
301B
  3
*A28
350
301C
  3
*A29
350
301D
  3
*A3
350
2CCD
  3
*A30
350
301E
  3
*A31
350
301F
  3
*A32
350
3020
  3
*A33
350
3021
  3
*A34
350
3022
  3
*A35
350
3023
  3
*A4
350
2CCE
  3
*A5
350
2CCF
  3
*A6
350
2CD0
  3
*A7
350
2CD1
  3
*A8
350
2CD2
  3
*A9
350
2CD3
  3
A0
350
2BA3
  3
A1
350
2BA4
  3
A2
350
2BA5
  3
A3
350
2BA6
  3
A4
350
2BA7
  3
A5
350
2BA8
  3
A6
350
2BA9
  3
A7
350
2BAA
  3
A8
350
2BAB
  3
A9
350
2BAC
  3
B0
350
2BAD
  3
B1
350
2BAE
  3
B2
350
2BAF
  3
B3
350
2BB0
  3
B4
350
2BB1
  3
B5
350
2BB2
  3
B6
350
2BB3
  3
B7
350
2BB4
  3
B8
350
2BB5
  3
B9
350
2BB6
  3
C0
350
2BB7
  3
C1
350
2BB8
  3
C2
350
2BB9
  3
C3
350
2BBA
  3
C4
350
2BBB
  3
C5
350
2BBC
  3
C6
350
2BBD
  3
C7
350
2BBE
  3
C8
350
2BBF
  3
C9
350
2BC0
  3
D0
350
2BC1
  3
D1
350
2BC2
  3
D2
350
2BC3
  0
DICTIONARY
  5
2BA0
102
{ACAD_REACTORS
330
7
102
}
330
7
100
AcDbDictionary
281
     1
  3
Standard
350
2BA1
  0
DICTIONARY
  5
2B8F
102
{ACAD_REACTORS
330
7
102
}
330
7
100
AcDbDictionary
281
     1
  3
2dWireframe
350
2B95
  3
3D Hidden
350
2B97
  3
3dWireframe
350
2B96
  3
Basic
350
2B94
  3
Brighten
350
2B9B
  3
ColorChange
350
2B9F
  3
Conceptual
350
2B98
  3
Dim
350
2B9A
  3
Facepattern
350
2B9E
  3
Flat
350
2B90
  3
FlatWithEdges
350
2B91
  3
Gouraud
350
2B92
  3
GouraudWithEdges
350
2B93
  3
Linepattern
350
2B9D
  3
Phong
350
2BDF
  3
PhongWithEdges
350
2BE0
  3
Realistic
350
2B99
  3
Thicken
350
2B9C
  0
DICTIONARY
  5
2B60
102
{ACAD_REACTORS
330
7
102
}
330
7
100
AcDbDictionary
281
     1
  3
AcAecLayerManager
350
2B61
  0
XRECORD
  5
330B
102
{ACAD_REACTORS
330
7
102
}
330
7
100
AcDbXrecord
280
     1
 90
        1
330
2BA1
  0
DICTIONARY
  5
3301
102
{ACAD_REACTORS
330
7
102
}
330
7
100
AcDbDictionary
281
     1
  3
CANNOSCALE
350
3304
  3
CMLEADERSTYLE
350
3303
  3
CTABLESTYLE
350
3302
  3
DIMASSOC
350
3308
  3
HIDETEXT
350
3307
  3
INDEXCTL
350
3306
  3
SORTENTS
350
3305
  0
DICTIONARY
  5
3C3
102
{ACAD_REACTORS
330
7
102
}
330
7
100
AcDbDictionary
281
     1
  0
DICTIONARY
  5
2A1B
102
{ACAD_REACTORS
330
7
102
}
330
7
100
AcDbDictionary
281
     1
  3
Medium Detail
350
2A1C
  3
Standard
350
2BDC
1001
AECBASE
1070
 10000
1005
2A1C
  0
DICTIONARY
  5
2A1D
102
{ACAD_REACTORS
330
7
102
}
330
7
100
AcDbDictionary
281
     1
  3
Elevation
350
2B5B
  3
Model
350
2A1E
  3
Model High Detail
350
2B5F
  3
Model Low Detail
350
2B5E
  3
Plan
350
2A1F
  3
Plan Diagnostic
350
2A20
  3
Plan High Detail
350
2B5D
  3
Plan Low Detail
350
2B5C
  3
Reflected
350
2B5A
  0
DICTIONARY
  5
2A21
102
{ACAD_REACTORS
330
7
102
}
330
7
100
AcDbDictionary
281
     1
  3
AecDbDispRep2dSection
350
2A22
  3
AecDbDispRepAnchor
350
2AC1
  3
AecDbDispRepAnchorBubToGrid
350
2A23
  3
AecDbDispRepAnchorBubToGridMdl
350
2A24
  3
AecDbDispRepAnchorBubToGridRcp
350
2AEA
  3
AecDbDispRepAnchorEntToNode
350
2A25
  3
AecDbDispRepAnchorExtendedTagToEnt
350
2BD2
  3
AecDbDispRepAnchorTagToEnt
350
2A26
  3
AecDbDispRepBdgElevLineModel
350
2A2A
  3
AecDbDispRepBdgElevLinePlan
350
2A2B
  3
AecDbDispRepBdgElevLinePlan100
350
2AFC
  3
AecDbDispRepBdgElevLinePlan50
350
2B19
  3
AecDbDispRepBdgElevLineRcp
350
2AC4
  3
AecDbDispRepBdgSectionLineModel
350
2A2C
  3
AecDbDispRepBdgSectionLinePlan
350
2A2D
  3
AecDbDispRepBdgSectionLinePlan100
350
2AFE
  3
AecDbDispRepBdgSectionLinePlan50
350
2B1B
  3
AecDbDispRepBdgSectionLineRcp
350
2AC6
  3
AecDbDispRepBdgSectionModel
350
2AC8
  3
AecDbDispRepBdgSectionSubDiv
350
2A2E
  3
AecDbDispRepCeilingGrid
350
2A30
  3
AecDbDispRepCeilingGridModel
350
2A31
  3
AecDbDispRepCeilingGridPlan100
350
2B00
  3
AecDbDispRepCeilingGridPlan50
350
2B1D
  3
AecDbDispRepCeilingGridRcp
350
2A32
  3
AecDbDispRepClipVolModel
350
2A33
  3
AecDbDispRepClipVolPlan
350
2A34
  3
AecDbDispRepClipVolResSubDiv
350
2A35
  3
AecDbDispRepClipVolResult
350
2A36
  3
AecDbDispRepColumnGrid
350
2A37
  3
AecDbDispRepColumnGridModel
350
2A38
  3
AecDbDispRepColumnGridPlan100
350
2B02
  3
AecDbDispRepColumnGridPlan50
350
2B1F
  3
AecDbDispRepColumnGridRcp
350
2AEC
  3
AecDbDispRepCurtainWallLayoutModel
350
2A39
  3
AecDbDispRepCurtainWallLayoutPlan
350
2A3A
  3
AecDbDispRepCurtainWallLayoutPlan100
350
2B04
  3
AecDbDispRepCurtainWallLayoutPlan50
350
2B21
  3
AecDbDispRepCurtainWallUnitModel
350
2A3B
  3
AecDbDispRepCurtainWallUnitPlan
350
2A3C
  3
AecDbDispRepCurtainWallUnitPlan100
350
2B06
  3
AecDbDispRepCurtainWallUnitPlan50
350
2B23
  3
AecDbDispRepDimGroupPlan
350
2A3D
  3
AecDbDispRepDimGroupPlan100
350
2B34
  3
AecDbDispRepDimGroupPlan50
350
2B36
  3
AecDbDispRepDisplayTheme
350
2BD0
  3
AecDbDispRepDoorElev
350
2AC9
  3
AecDbDispRepDoorModel
350
2A3E
  3
AecDbDispRepDoorNominal
350
2A3F
  3
AecDbDispRepDoorPlan
350
2A40
  3
AecDbDispRepDoorPlan50
350
2B38
  3
AecDbDispRepDoorPlanHekto
350
2B3A
  3
AecDbDispRepDoorRcp
350
2ACB
  3
AecDbDispRepDoorThresholdPlan
350
2ACD
  3
AecDbDispRepDoorThresholdSymbolPlan
350
2B3C
  3
AecDbDispRepEditInPlaceProfile
350
2A41
  3
AecDbDispRepEntRef
350
2A42
  3
AecDbDispRepLayoutCurve
350
2A43
  3
AecDbDispRepLayoutGrid2d
350
2A44
  3
AecDbDispRepLayoutGrid3d
350
2A45
  3
AecDbDispRepMaskBlockRef
350
2A46
  3
AecDbDispRepMaskBlockRefRcp
350
2A47
  3
AecDbDispRepMassElemModel
350
2A48
  3
AecDbDispRepMassElemPlan100
350
2B3E
  3
AecDbDispRepMassElemPlan50
350
2B40
  3
AecDbDispRepMassElemRcp
350
2ACF
  3
AecDbDispRepMassElemSchem
350
2A49
  3
AecDbDispRepMassGroupModel
350
2A4A
  3
AecDbDispRepMassGroupPlan
350
2A4B
  3
AecDbDispRepMassGroupPlan100
350
2B42
  3
AecDbDispRepMassGroupPlan50
350
2B44
  3
AecDbDispRepMassGroupRcp
350
2AD1
  3
AecDbDispRepMaterial
350
2A4C
  3
AecDbDispRepMvBlockRef
350
2A4D
  3
AecDbDispRepMvBlockRef$Plan
350
2A4E
  3
AecDbDispRepMvBlockRefModel
350
2A4F
  3
AecDbDispRepMvBlockRefPlan100
350
2B08
  3
AecDbDispRepMvBlockRefPlan50
350
2B25
  3
AecDbDispRepMvBlockRefRcp
350
2AD3
  3
AecDbDispRepOpening
350
2A50
  3
AecDbDispRepOpeningModel
350
2A51
  3
AecDbDispRepOpeningPlan100
350
2B46
  3
AecDbDispRepOpeningPlan50
350
2B48
  3
AecDbDispRepOpeningPlanReflected
350
2B4A
  3
AecDbDispRepOpeningSillPlan
350
2B4C
  3
AecDbDispRepPolygonModel
350
2A52
  3
AecDbDispRepPolygonTrueColour
350
2AC2
  3
AecDbDispRepRailingModel
350
2A53
  3
AecDbDispRepRailingPlan
350
2A54
  3
AecDbDispRepRailingPlan100
350
2B4E
  3
AecDbDispRepRailingPlan50
350
2B50
  3
AecDbDispRepRoofModel
350
2A55
  3
AecDbDispRepRoofPlan
350
2A56
  3
AecDbDispRepRoofPlan100
350
2B09
  3
AecDbDispRepRoofPlan50
350
2B26
  3
AecDbDispRepRoofRcp
350
2AD4
  3
AecDbDispRepRoofSlabModel
350
2A57
  3
AecDbDispRepRoofSlabPlan
350
2A58
  3
AecDbDispRepRoofSlabPlan100
350
2B0B
  3
AecDbDispRepRoofSlabPlan50
350
2B28
  3
AecDbDispRepScheduleTable
350
2A59
  3
AecDbDispRepSlabModel
350
2A5A
  3
AecDbDispRepSlabPlan
350
2A5B
  3
AecDbDispRepSlabPlan100
350
2B0D
  3
AecDbDispRepSlabPlan50
350
2B2A
  3
AecDbDispRepSlice
350
2A5C
  3
AecDbDispRepSpaceDecomposed
350
2BD4
  3
AecDbDispRepSpaceModel
350
2A60
  3
AecDbDispRepSpacePlan
350
2A61
  3
AecDbDispRepSpacePlan100
350
2B11
  3
AecDbDispRepSpacePlan50
350
2B2E
  3
AecDbDispRepSpaceRcp
350
2AD8
  3
AecDbDispRepSpaceVolume
350
2ADA
  3
AecDbDispRepStairModel
350
2A62
  3
AecDbDispRepStairPlan
350
2A63
  3
AecDbDispRepStairPlan100
350
2B52
  3
AecDbDispRepStairPlan50
350
2B54
  3
AecDbDispRepStairPlanOverlapping
350
2ADC
  3
AecDbDispRepStairRcp
350
2ADE
  3
AecDbDispRepWallGraph
350
2A64
  3
AecDbDispRepWallModel
350
2A65
  3
AecDbDispRepWallPlan
350
2A66
  3
AecDbDispRepWallPlan100
350
2B13
  3
AecDbDispRepWallPlan50
350
2B30
  3
AecDbDispRepWallRcp
350
2AE0
  3
AecDbDispRepWallSchem
350
2A67
  3
AecDbDispRepWindowAssemblyModel
350
2A68
  3
AecDbDispRepWindowAssemblyPlan
350
2A69
  3
AecDbDispRepWindowAssemblyPlan100
350
2A6A
  3
AecDbDispRepWindowAssemblyPlan50
350
2B32
  3
AecDbDispRepWindowAssemblySillPlan
350
2AE2
  3
AecDbDispRepWindowElev
350
2AE4
  3
AecDbDispRepWindowModel
350
2A6B
  3
AecDbDispRepWindowNominal
350
2A6C
  3
AecDbDispRepWindowPlan
350
2A6D
  3
AecDbDispRepWindowPlan100
350
2B56
  3
AecDbDispRepWindowPlan50
350
2B58
  3
AecDbDispRepWindowRcp
350
2AE6
  3
AecDbDispRepWindowSillPlan
350
2AE8
  3
AecDbDispRepZone
350
2BD6
  3
AecDbDispRepZonePlan100
350
2BD8
  3
AecDbDispRepZonePlan50
350
2BDA
  3
AecsDbDispRepMemberElevationDesign
350
2AEE
  3
AecsDbDispRepMemberElevationDetail
350
2AF0
  3
AecsDbDispRepMemberLogical
350
2A6E
  3
AecsDbDispRepMemberModelDesign
350
2A6F
  3
AecsDbDispRepMemberModelDetail
350
2AF2
  3
AecsDbDispRepMemberPlanDesign
350
2A70
  3
AecsDbDispRepMemberPlanDetail
350
2AF4
  3
AecsDbDispRepMemberPlanSketch
350
2AF6
  0
DICTIONARY
  5
2A71
102
{ACAD_REACTORS
330
7
102
}
330
7
100
AcDbDictionary
281
     1
  3
*A1
350
2A72
  3
*A100
350
2ABA
  3
*A102
350
2ABC
  3
*A103
350
2A80
  3
*A104
350
2A81
  3
*A105
350
2A82
  3
*A106
350
2B4F
  3
*A107
350
2A83
  3
*A108
350
2A84
  3
*A109
350
2A73
  3
*A110
350
2A85
  3
*A111
350
2A86
  3
*A112
350
2A87
  3
*A113
350
2A88
  3
*A114
350
2A89
  3
*A115
350
2A8A
  3
*A116
350
2A8B
  3
*A117
350
2A94
  3
*A118
350
2A8C
  3
*A119
350
2A8D
  3
*A12
350
2AFD
  3
*A120
350
2A8E
  3
*A121
350
2A74
  3
*A122
350
2A8F
  3
*A123
350
2A90
  3
*A124
350
2A91
  3
*A125
350
2A92
  3
*A126
350
2AC3
  3
*A127
350
2AC5
  3
*A128
350
2B51
  3
*A129
350
2AC7
  3
*A13
350
2B57
  3
*A130
350
2ACA
  3
*A131
350
2ACC
  3
*A132
350
2ACE
  3
*A133
350
2A75
  3
*A134
350
2AD0
  3
*A135
350
2AD2
  3
*A136
350
2AD5
  3
*A138
350
2AD9
  3
*A139
350
2B53
  3
*A14
350
2AFF
  3
*A140
350
2ADB
  3
*A141
350
2ADD
  3
*A142
350
2ADF
  3
*A143
350
2AE1
  3
*A144
350
2AE3
  3
*A145
350
2A76
  3
*A146
350
2AE5
  3
*A147
350
2AE7
  3
*A148
350
2AE9
  3
*A149
350
2AEB
  3
*A15
350
2B01
  3
*A150
350
2BD1
  3
*A151
350
2BD3
  3
*A152
350
2BD5
  3
*A153
350
2BD7
  3
*A154
350
2BD9
  3
*A155
350
2BDB
  3
*A16
350
2B03
  3
*A17
350
2B05
  3
*A18
350
2B07
  3
*A19
350
2B0A
  3
*A2
350
2B55
  3
*A20
350
2B0C
  3
*A21
350
2A78
  3
*A22
350
2B0E
  3
*A24
350
2B59
  3
*A25
350
2B12
  3
*A26
350
2B14
  3
*A29
350
2B1A
  3
*A3
350
2AED
  3
*A30
350
2B1C
  3
*A31
350
2B1E
  3
*A32
350
2B20
  3
*A33
350
2A79
  3
*A34
350
2B22
  3
*A35
350
2A7C
  3
*A36
350
2B24
  3
*A37
350
2B27
  3
*A38
350
2A93
  3
*A39
350
2B29
  3
*A4
350
2AEF
  3
*A40
350
2B2B
  3
*A42
350
2B2F
  3
*A43
350
2B31
  3
*A44
350
2B33
  3
*A45
350
2A7A
  3
*A46
350
2A95
  3
*A47
350
2B35
  3
*A48
350
2B37
  3
*A49
350
2B39
  3
*A5
350
2AF1
  3
*A50
350
2B3B
  3
*A51
350
2B3D
  3
*A52
350
2B3F
  3
*A53
350
2B41
  3
*A54
350
2B43
  3
*A55
350
2B45
  3
*A56
350
2B47
  3
*A57
350
2A96
  3
*A58
350
2A97
  3
*A59
350
2A98
  3
*A6
350
2AF3
  3
*A60
350
2A99
  3
*A61
350
2A9A
  3
*A62
350
2A7B
  3
*A63
350
2A9B
  3
*A65
350
2A9D
  3
*A66
350
2A9E
  3
*A67
350
2A7D
  3
*A68
350
2A9F
  3
*A69
350
2AA0
  3
*A7
350
2AF5
  3
*A70
350
2AA1
  3
*A71
350
2AA2
  3
*A72
350
2AA3
  3
*A73
350
2B49
  3
*A74
350
2AA4
  3
*A75
350
2AA5
  3
*A76
350
2AA6
  3
*A77
350
2AA7
  3
*A78
350
2AA8
  3
*A79
350
2A7E
  3
*A8
350
2AF7
  3
*A80
350
2AA9
  3
*A81
350
2AAA
  3
*A82
350
2AAB
  3
*A83
350
2AAC
  3
*A84
350
2B4B
  3
*A87
350
2AAF
  3
*A88
350
2AB0
  3
*A89
350
2AB1
  3
*A9
350
2A77
  3
*A91
350
2A7F
  3
*A92
350
2AB3
  3
*A93
350
2AB4
  3
*A95
350
2B4D
  3
*A96
350
2AB6
  3
*A97
350
2AB7
  3
*A99
350
2AB9
  0
DICTIONARY
  5
2A19
102
{ACAD_REACTORS
330
7
102
}
330
7
100
AcDbDictionary
281
     1
  3
AIA (256 Color)
350
2ABD
  0
DICTIONARY
  5
3C4
102
{ACAD_REACTORS
330
7
102
}
330
7
100
AcDbDictionary
281
     1
  0
DICTIONARY
  5
2A17
102
{ACAD_REACTORS
330
7
102
}
330
7
100
AcDbDictionary
281
     1
  3
AEC_VARS_ARCHBASE
350
2ABE
  3
AEC_VARS_DWG_SETUP
350
2A18
  3
AECMX_VARS_MUNICH
350
2ABF
  0
DICTIONARY
  5
250E
102
{ACAD_REACTORS
330
7
102
}
330
7
100
AcDbDictionary
281
     1
  3
ALFABETLink1
350
250F
  3
ASEBlockHierarchyIndexRecord
350
2510
1001
DCO15
1040
1547898899.093
  0
DICTIONARY
  5
2282
102
{ACAD_REACTORS
330
7
102
}
330
7
100
AcDbDictionary
281
     1
  3
ALFABET-Arial37
350
2283
  0
DICTIONARY
  5
2280
102
{ACAD_REACTORS
330
7
102
}
330
7
100
AcDbDictionary
281
     1
  3
ALFABETLink1
350
2281
  0
XRECORD
  5
330C
102
{ACAD_REACTORS
330
7
102
}
330
7
100
AcDbXrecord
280
     1
  1
DWGPROPS COOKIE
  2

  3

  4

  6

  7

  8
beata.rzonca
  9

300
=
301
=
302
=
303
=
304
=
305
=
306
=
307
=
308
=
309
=
 40
7.72338537037037
 41
2452027.670547454
 42
2454951.662345914
  1

 90
        0
  0
DICTIONARY
  5
13
102
{ACAD_REACTORS
330
12
102
}
330
12
100
AcDbDictionary
281
     1
  0
XRECORD
  5
2BE2
102
{ACAD_REACTORS
330
2BE1
102
}
330
2BE1
100
AcDbXrecord
280
     1
290
     1
  0
XRECORD
  5
2BEA
102
{ACAD_REACTORS
330
2BE9
102
}
330
2BE9
100
AcDbXrecord
280
     1
290
     1
  0
XRECORD
  5
2BEC
102
{ACAD_REACTORS
330
2BEB
102
}
330
2BEB
100
AcDbXrecord
280
     1
290
     1
  0
XRECORD
  5
2BEE
102
{ACAD_REACTORS
330
2BED
102
}
330
2BED
100
AcDbXrecord
280
     1
290
     1
  0
SORTENTSTABLE
  5
2F28
102
{ACAD_REACTORS
330
2F27
102
}
330
2F27
100
AcDbSortentsTable
330
2
331
2947
  5
294B
331
27A6
  5
27AA
331
2958
  5
295C
331
1A42
  5
1A42
331
2945
  5
2949
331
27A4
  5
27A8
331
27BE
  5
2822
331
2956
  5
295A
331
2943
  5
2947
331
27A2
  5
27A6
331
2954
  5
2958
331
27B3
  5
2817
331
2817
  5
2931
331
2941
  5
2945
331
27A0
  5
27A3
331
2952
  5
2956
331
2F4B
  5
27A4
331
27B1
  5
27C9
331
2950
  5
2954
331
27AF
  5
27B3
331
27C9
  5
282D
331
293F
  5
2943
331
279E
  5
27A1
331
2822
  5
293E
331
294E
  5
2952
331
27AD
  5
27B1
331
295F
  5
2DB6
331
279C
  5
279E
331
294C
  5
2950
331
27AB
  5
27AF
331
295D
  5
2DB4
331
279A
  5
279C
331
1A2E
  5
1A2E
331
294A
  5
294E
331
27A9
  5
27AD
331
295B
  5
295F
331
1A2C
  5
1A2C
331
2948
  5
294C
331
27A7
  5
27AB
331
282D
  5
293F
331
2959
  5
295D
331
1A2A
  5
1A2A
331
2946
  5
294A
331
27A5
  5
27A9
331
2957
  5
295B
331
2944
  5
2948
331
27A3
  5
27A7
331
2955
  5
2959
331
2942
  5
2946
331
27A1
  5
27A5
331
27ED
  5
2838
331
2931
  5
2941
331
2953
  5
2957
331
27B2
  5
27ED
331
2838
  5
2940
331
2940
  5
2944
331
2951
  5
2955
331
27B0
  5
27BE
331
279F
  5
27A2
331
294F
  5
2953
331
27AE
  5
27B2
331
293E
  5
2942
331
279D
  5
279F
331
294D
  5
2951
331
27AC
  5
27B0
331
295E
  5
2DB5
331
279B
  5
279D
331
1A2F
  5
1A2F
331
294B
  5
294F
331
27AA
  5
27AE
331
295C
  5
2960
331
2949
  5
294D
331
27A8
  5
27AC
331
295A
  5
295E
331
1A2B
  5
1A2B
  0
SORTENTSTABLE
  5
2570
102
{ACAD_REACTORS
330
24
102
}
330
24
100
AcDbSortentsTable
330
23
  0
LAYOUT
  5
10
102
{ACAD_XDICTIONARY
360
330F
102
}
102
{ACAD_REACTORS
330
B
102
}
330
B
100
AcDbPlotSettings
  1

  2
C:\PROGRAM FILES\AUTOCAD LT 2000\plotters\DWF ePlot.pc3
  4

  6

 40
0.0
 41
0.0
 42
0.0
 43
0.0
 44
0.0
 45
0.0
 46
0.0
 47
0.0
 48
0.0
 49
0.0
140
0.0
141
0.0
142
1.0
143
1.0
 70
   688
 72
     0
 73
     0
 74
     5
  7
monochrome_140.ctb
 75
    16
147
1.0
148
0.0
149
0.0
100
AcDbLayout
  1
Layout1
 70
     1
 71
     1
 10
0.0
 20
0.0
 11
420.0
 21
297.0
 12
0.0
 22
0.0
 32
0.0
 14
1.000000000000000E+20
 24
1.000000000000000E+20
 34
1.000000000000000E+20
 15
-1.000000000000000E+20
 25
-1.000000000000000E+20
 35
-1.000000000000000E+20
146
0.0
 13
0.0
 23
0.0
 33
0.0
 16
1.0
 26
0.0
 36
0.0
 17
0.0
 27
1.0
 37
0.0
 76
     0
330
D
  0
LAYOUT
  5
A
102
{ACAD_XDICTIONARY
360
330D
102
}
102
{ACAD_REACTORS
330
B
102
}
330
B
100
AcDbPlotSettings
  1

  2
\\KOMP-NR-31\HP LaserJet 1200 Series PCL
  4
A4
  6
RODODENDRON 5
 40
6.805083274841308
 41
5.027085304260253
 42
6.805084228515625
 43
5.027069091796875
 44
209.9733276367187
 45
296.9683227539062
 46
0.0
 47
4.0
 48
201611.1256215136
 49
124387.6604017192
140
211811.1256215136
141
138407.6604017192
142
1.0
143
50.0
 70
 11952
 72
     1
 73
     0
 74
     4
  7
monochrome_140.ctb
 75
    25
147
0.02
148
-201611.1256215136
149
-124387.6604017192
100
AcDbLayout
  1
Model
 70
     1
 71
     0
 10
0.0
 20
0.0
 11
12.0
 21
9.0
 12
0.0
 22
0.0
 32
0.0
 14
0.0
 24
0.0
 34
0.0
 15
0.0
 25
0.0
 35
0.0
146
0.0
 13
0.0
 23
0.0
 33
0.0
 16
1.0
 26
0.0
 36
0.0
 17
0.0
 27
1.0
 37
0.0
 76
     0
330
2
331
2B75
  0
MATERIAL
  5
2B7F
102
{ACAD_XDICTIONARY
360
2B80
102
}
102
{ACAD_REACTORS
330
30
102
}
330
30
100
AcDbMaterial
  1
ByBlock
 72
     0
 43
0.0208333333333333
 43
0.0
 43
0.0
 43
0.0
 43
0.0
 43
0.0208333333333333
 43
0.0
 43
0.0
 43
0.0
 43
0.0
 43
1.0
 43
0.0
 43
0.0
 43
0.0
 43
0.0
 43
1.0
 77
     0
 47
0.0208333333333333
 47
0.0
 47
0.0
 47
0.0
 47
0.0
 47
0.0208333333333333
 47
0.0
 47
0.0
 47
0.0
 47
0.0
 47
1.0
 47
0.0
 47
0.0
 47
0.0
 47
0.0
 47
1.0
171
     0
 49
0.0208333333333333
 49
0.0
 49
0.0
 49
0.0
 49
0.0
 49
0.0208333333333333
 49
0.0
 49
0.0
 49
0.0
 49
0.0
 49
1.0
 49
0.0
 49
0.0
 49
0.0
 49
0.0
 49
1.0
175
     0
142
0.0208333333333333
142
0.0
142
0.0
142
0.0
142
0.0
142
0.0208333333333333
142
0.0
142
0.0
142
0.0
142
0.0
142
1.0
142
0.0
142
0.0
142
0.0
142
0.0
142
1.0
179
     0
144
0.0208333333333333
144
0.0
144
0.0
144
0.0
144
0.0
144
0.0208333333333333
144
0.0
144
0.0
144
0.0
144
0.0
144
1.0
144
0.0
144
0.0
144
0.0
144
0.0
144
1.0
147
0.0208333333333333
147
0.0
147
0.0
147
0.0
147
0.0
147
0.0208333333333333
147
0.0
147
0.0
147
0.0
147
0.0
147
1.0
147
0.0
147
0.0
147
0.0
147
0.0
147
1.0
  0
MATERIAL
  5
2B77
102
{ACAD_XDICTIONARY
360
2B78
102
}
102
{ACAD_REACTORS
330
30
102
}
330
30
100
AcDbMaterial
  1
ByLayer
 72
     0
 43
0.0208333333333333
 43
0.0
 43
0.0
 43
0.0
 43
0.0
 43
0.0208333333333333
 43
0.0
 43
0.0
 43
0.0
 43
0.0
 43
1.0
 43
0.0
 43
0.0
 43
0.0
 43
0.0
 43
1.0
 77
     0
 47
0.0208333333333333
 47
0.0
 47
0.0
 47
0.0
 47
0.0
 47
0.0208333333333333
 47
0.0
 47
0.0
 47
0.0
 47
0.0
 47
1.0
 47
0.0
 47
0.0
 47
0.0
 47
0.0
 47
1.0
171
     0
 49
0.0208333333333333
 49
0.0
 49
0.0
 49
0.0
 49
0.0
 49
0.0208333333333333
 49
0.0
 49
0.0
 49
0.0
 49
0.0
 49
1.0
 49
0.0
 49
0.0
 49
0.0
 49
0.0
 49
1.0
175
     0
142
0.0208333333333333
142
0.0
142
0.0
142
0.0
142
0.0
142
0.0208333333333333
142
0.0
142
0.0
142
0.0
142
0.0
142
1.0
142
0.0
142
0.0
142
0.0
142
0.0
142
1.0
179
     0
144
0.0208333333333333
144
0.0
144
0.0
144
0.0
144
0.0
144
0.0208333333333333
144
0.0
144
0.0
144
0.0
144
0.0
144
1.0
144
0.0
144
0.0
144
0.0
144
0.0
144
1.0
147
0.0208333333333333
147
0.0
147
0.0
147
0.0
147
0.0
147
0.0208333333333333
147
0.0
147
0.0
147
0.0
147
0.0
147
1.0
147
0.0
147
0.0
147
0.0
147
0.0
147
1.0
  0
MATERIAL
  5
2B87
102
{ACAD_XDICTIONARY
360
2B88
102
}
102
{ACAD_REACTORS
330
30
102
}
330
30
100
AcDbMaterial
  1
Global
 72
     0
 43
0.0208333333333333
 43
0.0
 43
0.0
 43
0.0
 43
0.0
 43
0.0208333333333333
 43
0.0
 43
0.0
 43
0.0
 43
0.0
 43
1.0
 43
0.0
 43
0.0
 43
0.0
 43
0.0
 43
1.0
 77
     0
 47
0.0208333333333333
 47
0.0
 47
0.0
 47
0.0
 47
0.0
 47
0.0208333333333333
 47
0.0
 47
0.0
 47
0.0
 47
0.0
 47
1.0
 47
0.0
 47
0.0
 47
0.0
 47
0.0
 47
1.0
171
     0
 49
0.0208333333333333
 49
0.0
 49
0.0
 49
0.0
 49
0.0
 49
0.0208333333333333
 49
0.0
 49
0.0
 49
0.0
 49
0.0
 49
1.0
 49
0.0
 49
0.0
 49
0.0
 49
0.0
 49
1.0
175
     0
142
0.0208333333333333
142
0.0
142
0.0
142
0.0
142
0.0
142
0.0208333333333333
142
0.0
142
0.0
142
0.0
142
0.0
142
1.0
142
0.0
142
0.0
142
0.0
142
0.0
142
1.0
179
     0
144
0.0208333333333333
144
0.0
144
0.0
144
0.0
144
0.0
144
0.0208333333333333
144
0.0
144
0.0
144
0.0
144
0.0
144
1.0
144
0.0
144
0.0
144
0.0
144
0.0
144
1.0
147
0.0208333333333333
147
0.0
147
0.0
147
0.0
147
0.0
147
0.0208333333333333
147
0.0
147
0.0
147
0.0
147
0.0
147
1.0
147
0.0
147
0.0
147
0.0
147
0.0
147
1.0
  0
MLEADERSTYLE
  5
2BC5
102
{ACAD_REACTORS
330
2BC4
102
}
330
2BC4
100
AcDbMLeaderStyle
170
     2
171
     1
172
     0
 90
        2
 40
0.0
 41
0.0
173
     1
 91
-1056964608
340
18
 92
       -2
290
     1
 42
0.09
291
     1
 43
0.36
  3
Standard
 44
0.18
300

342
15
174
     1
178
     6
175
     1
176
     0
 93
-1056964608
 45
0.18
292
     0
297
     0
 46
0.18
 94
-1056964608
 47
1.0
 49
1.0
140
1.0
293
     1
141
0.0
294
     1
177
     0
142
1.0
295
     0
296
     0
143
0.125
1001
ACAD_MLEADERVER
1070
     2
  0
MLINESTYLE
  5
33
102
{ACAD_REACTORS
330
2E
102
}
330
2E
100
AcDbMlineStyle
  2
STANDARD
 70
     0
  3

 62
   256
 51
90.0
 52
90.0
 71
     2
 49
0.5
 62
   256
  6
BYLAYER
 49
-0.5
 62
   256
  6
BYLAYER
  0
ACDBPLACEHOLDER
  5
5
102
{ACAD_REACTORS
330
6
102
}
330
6
  0
SCALE
  5
2CCB
102
{ACAD_REACTORS
330
2BA2
102
}
330
2BA2
100
AcDbScale
 70
     0
300
1:10_1
140
1.0
141
1.0
290
     0
  0
SCALE
  5
2CD4
102
{ACAD_REACTORS
330
2BA2
102
}
330
2BA2
100
AcDbScale
 70
     0
300
1:10_2
140
1.0
141
10.0
290
     0
  0
SCALE
  5
2CD5
102
{ACAD_REACTORS
330
2BA2
102
}
330
2BA2
100
AcDbScale
 70
     0
300
1:20_2
140
1.0
141
20.0
290
     0
  0
SCALE
  5
2CD6
102
{ACAD_REACTORS
330
2BA2
102
}
330
2BA2
100
AcDbScale
 70
     0
300
1:50_2
140
1.0
141
50.0
290
     0
  0
SCALE
  5
2CD7
102
{ACAD_REACTORS
330
2BA2
102
}
330
2BA2
100
AcDbScale
 70
     0
300
1:100_2
140
1.0
141
100.0
290
     0
  0
SCALE
  5
2CD8
102
{ACAD_REACTORS
330
2BA2
102
}
330
2BA2
100
AcDbScale
 70
     0
300
1:1_1
140
1.0
141
0.1
290
     0
  0
SCALE
  5
2CD9
102
{ACAD_REACTORS
330
2BA2
102
}
330
2BA2
100
AcDbScale
 70
     0
300
1:1_1_1
140
1.0
141
1.0
290
     0
  0
SCALE
  5
2CDA
102
{ACAD_REACTORS
330
2BA2
102
}
330
2BA2
100
AcDbScale
 70
     0
300
1:2_1_1
140
1.0
141
2.0
290
     0
  0
SCALE
  5
2CDB
102
{ACAD_REACTORS
330
2BA2
102
}
330
2BA2
100
AcDbScale
 70
     0
300
1:5_1_1
140
1.0
141
5.0
290
     0
  0
SCALE
  5
2CDC
102
{ACAD_REACTORS
330
2BA2
102
}
330
2BA2
100
AcDbScale
 70
     0
300
1:10_1_1
140
1.0
141
10.0
290
     0
  0
SCALE
  5
2CDD
102
{ACAD_REACTORS
330
2BA2
102
}
330
2BA2
100
AcDbScale
 70
     0
300
1:20_1_1
140
1.0
141
20.0
290
     0
  0
SCALE
  5
2CCC
102
{ACAD_REACTORS
330
2BA2
102
}
330
2BA2
100
AcDbScale
 70
     0
300
1:2_1
140
1.0
141
0.2
290
     0
  0
SCALE
  5
2CDE
102
{ACAD_REACTORS
330
2BA2
102
}
330
2BA2
100
AcDbScale
 70
     0
300
1:50_1_1
140
1.0
141
50.0
290
     0
  0
SCALE
  5
2CDF
102
{ACAD_REACTORS
330
2BA2
102
}
330
2BA2
100
AcDbScale
 70
     0
300
1:100_1_1
140
1.0
141
100.0
290
     0
  0
SCALE
  5
3016
102
{ACAD_REACTORS
330
2BA2
102
}
330
2BA2
100
AcDbScale
 70
     0
300
1:10_3
140
1.0
141
1.0
290
     0
  0
SCALE
  5
3017
102
{ACAD_REACTORS
330
2BA2
102
}
330
2BA2
100
AcDbScale
 70
     0
300
1:2_3
140
1.0
141
0.2
290
     0
  0
SCALE
  5
3018
102
{ACAD_REACTORS
330
2BA2
102
}
330
2BA2
100
AcDbScale
 70
     0
300
1:5_3
140
1.0
141
0.5
290
     0
  0
SCALE
  5
3019
102
{ACAD_REACTORS
330
2BA2
102
}
330
2BA2
100
AcDbScale
 70
     0
300
1:20_3
140
1.0
141
2.0
290
     0
  0
SCALE
  5
301A
102
{ACAD_REACTORS
330
2BA2
102
}
330
2BA2
100
AcDbScale
 70
     0
300
1:50_3
140
1.0
141
5.0
290
     0
  0
SCALE
  5
301B
102
{ACAD_REACTORS
330
2BA2
102
}
330
2BA2
100
AcDbScale
 70
     0
300
1:100_3
140
1.0
141
10.0
290
     0
  0
SCALE
  5
301C
102
{ACAD_REACTORS
330
2BA2
102
}
330
2BA2
100
AcDbScale
 70
     0
300
1:1_3
140
1.0
141
0.1
290
     0
  0
SCALE
  5
301D
102
{ACAD_REACTORS
330
2BA2
102
}
330
2BA2
100
AcDbScale
 70
     0
300
1:1_1_2
140
1.0
141
1.0
290
     0
  0
SCALE
  5
2CCD
102
{ACAD_REACTORS
330
2BA2
102
}
330
2BA2
100
AcDbScale
 70
     0
300
1:5_1
140
1.0
141
0.5
290
     0
  0
SCALE
  5
301E
102
{ACAD_REACTORS
330
2BA2
102
}
330
2BA2
100
AcDbScale
 70
     0
300
1:2_1_2
140
1.0
141
2.0
290
     0
  0
SCALE
  5
301F
102
{ACAD_REACTORS
330
2BA2
102
}
330
2BA2
100
AcDbScale
 70
     0
300
1:5_1_2
140
1.0
141
5.0
290
     0
  0
SCALE
  5
3020
102
{ACAD_REACTORS
330
2BA2
102
}
330
2BA2
100
AcDbScale
 70
     0
300
1:10_1_2
140
1.0
141
10.0
290
     0
  0
SCALE
  5
3021
102
{ACAD_REACTORS
330
2BA2
102
}
330
2BA2
100
AcDbScale
 70
     0
300
1:20_1_2
140
1.0
141
20.0
290
     0
  0
SCALE
  5
3022
102
{ACAD_REACTORS
330
2BA2
102
}
330
2BA2
100
AcDbScale
 70
     0
300
1:50_1_2
140
1.0
141
50.0
290
     0
  0
SCALE
  5
3023
102
{ACAD_REACTORS
330
2BA2
102
}
330
2BA2
100
AcDbScale
 70
     0
300
1:100_1_2
140
1.0
141
100.0
290
     0
  0
SCALE
  5
2CCE
102
{ACAD_REACTORS
330
2BA2
102
}
330
2BA2
100
AcDbScale
 70
     0
300
1:20_1
140
1.0
141
2.0
290
     0
  0
SCALE
  5
2CCF
102
{ACAD_REACTORS
330
2BA2
102
}
330
2BA2
100
AcDbScale
 70
     0
300
1:50_1
140
1.0
141
5.0
290
     0
  0
SCALE
  5
2CD0
102
{ACAD_REACTORS
330
2BA2
102
}
330
2BA2
100
AcDbScale
 70
     0
300
1:100_1
140
1.0
141
10.0
290
     0
  0
SCALE
  5
2CD1
102
{ACAD_REACTORS
330
2BA2
102
}
330
2BA2
100
AcDbScale
 70
     0
300
1:1_2
140
1.0
141
1.0
290
     0
  0
SCALE
  5
2CD2
102
{ACAD_REACTORS
330
2BA2
102
}
330
2BA2
100
AcDbScale
 70
     0
300
1:2_2
140
1.0
141
2.0
290
     0
  0
SCALE
  5
2CD3
102
{ACAD_REACTORS
330
2BA2
102
}
330
2BA2
100
AcDbScale
 70
     0
300
1:5_2
140
1.0
141
5.0
290
     0
  0
SCALE
  5
2BA3
102
{ACAD_REACTORS
330
2BA2
102
}
330
2BA2
100
AcDbScale
 70
     0
300
1:1
140
1.0
141
1.0
290
     0
  0
SCALE
  5
2BA4
102
{ACAD_REACTORS
330
2BA2
102
}
330
2BA2
100
AcDbScale
 70
     0
300
1:2
140
1.0
141
2.0
290
     0
  0
SCALE
  5
2BA5
102
{ACAD_REACTORS
330
2BA2
102
}
330
2BA2
100
AcDbScale
 70
     0
300
1:4
140
1.0
141
4.0
290
     0
  0
SCALE
  5
2BA6
102
{ACAD_REACTORS
330
2BA2
102
}
330
2BA2
100
AcDbScale
 70
     0
300
1:5
140
1.0
141
5.0
290
     0
  0
SCALE
  5
2BA7
102
{ACAD_REACTORS
330
2BA2
102
}
330
2BA2
100
AcDbScale
 70
     0
300
1:8
140
1.0
141
8.0
290
     0
  0
SCALE
  5
2BA8
102
{ACAD_REACTORS
330
2BA2
102
}
330
2BA2
100
AcDbScale
 70
     0
300
1:10
140
1.0
141
10.0
290
     0
  0
SCALE
  5
2BA9
102
{ACAD_REACTORS
330
2BA2
102
}
330
2BA2
100
AcDbScale
 70
     0
300
1:16
140
1.0
141
16.0
290
     0
  0
SCALE
  5
2BAA
102
{ACAD_REACTORS
330
2BA2
102
}
330
2BA2
100
AcDbScale
 70
     0
300
1:20
140
1.0
141
20.0
290
     0
  0
SCALE
  5
2BAB
102
{ACAD_REACTORS
330
2BA2
102
}
330
2BA2
100
AcDbScale
 70
     0
300
1:30
140
1.0
141
30.0
290
     0
  0
SCALE
  5
2BAC
102
{ACAD_REACTORS
330
2BA2
102
}
330
2BA2
100
AcDbScale
 70
     0
300
1:40
140
1.0
141
40.0
290
     0
  0
SCALE
  5
2BAD
102
{ACAD_REACTORS
330
2BA2
102
}
330
2BA2
100
AcDbScale
 70
     0
300
1:50
140
1.0
141
50.0
290
     0
  0
SCALE
  5
2BAE
102
{ACAD_REACTORS
330
2BA2
102
}
330
2BA2
100
AcDbScale
 70
     0
300
1:100
140
1.0
141
100.0
290
     0
  0
SCALE
  5
2BAF
102
{ACAD_REACTORS
330
2BA2
102
}
330
2BA2
100
AcDbScale
 70
     0
300
2:1
140
2.0
141
1.0
290
     0
  0
SCALE
  5
2BB0
102
{ACAD_REACTORS
330
2BA2
102
}
330
2BA2
100
AcDbScale
 70
     0
300
4:1
140
4.0
141
1.0
290
     0
  0
SCALE
  5
2BB1
102
{ACAD_REACTORS
330
2BA2
102
}
330
2BA2
100
AcDbScale
 70
     0
300
8:1
140
8.0
141
1.0
290
     0
  0
SCALE
  5
2BB2
102
{ACAD_REACTORS
330
2BA2
102
}
330
2BA2
100
AcDbScale
 70
     0
300
10:1
140
10.0
141
1.0
290
     0
  0
SCALE
  5
2BB3
102
{ACAD_REACTORS
330
2BA2
102
}
330
2BA2
100
AcDbScale
 70
     0
300
100:1
140
100.0
141
1.0
290
     0
  0
SCALE
  5
2BB4
102
{ACAD_REACTORS
330
2BA2
102
}
330
2BA2
100
AcDbScale
 70
     0
300
1/128" = 1'-0"
140
0.0078125
141
12.0
290
     0
  0
SCALE
  5
2BB5
102
{ACAD_REACTORS
330
2BA2
102
}
330
2BA2
100
AcDbScale
 70
     0
300
1/64" = 1'-0"
140
0.015625
141
12.0
290
     0
  0
SCALE
  5
2BB6
102
{ACAD_REACTORS
330
2BA2
102
}
330
2BA2
100
AcDbScale
 70
     0
300
1/32" = 1'-0"
140
0.03125
141
12.0
290
     0
  0
SCALE
  5
2BB7
102
{ACAD_REACTORS
330
2BA2
102
}
330
2BA2
100
AcDbScale
 70
     0
300
1/16" = 1'-0"
140
0.0625
141
12.0
290
     0
  0
SCALE
  5
2BB8
102
{ACAD_REACTORS
330
2BA2
102
}
330
2BA2
100
AcDbScale
 70
     0
300
3/32" = 1'-0"
140
0.09375
141
12.0
290
     0
  0
SCALE
  5
2BB9
102
{ACAD_REACTORS
330
2BA2
102
}
330
2BA2
100
AcDbScale
 70
     0
300
1/8" = 1'-0"
140
0.125
141
12.0
290
     0
  0
SCALE
  5
2BBA
102
{ACAD_REACTORS
330
2BA2
102
}
330
2BA2
100
AcDbScale
 70
     0
300
3/16" = 1'-0"
140
0.1875
141
12.0
290
     0
  0
SCALE
  5
2BBB
102
{ACAD_REACTORS
330
2BA2
102
}
330
2BA2
100
AcDbScale
 70
     0
300
1/4" = 1'-0"
140
0.25
141
12.0
290
     0
  0
SCALE
  5
2BBC
102
{ACAD_REACTORS
330
2BA2
102
}
330
2BA2
100
AcDbScale
 70
     0
300
3/8" = 1'-0"
140
0.375
141
12.0
290
     0
  0
SCALE
  5
2BBD
102
{ACAD_REACTORS
330
2BA2
102
}
330
2BA2
100
AcDbScale
 70
     0
300
1/2" = 1'-0"
140
0.5
141
12.0
290
     0
  0
SCALE
  5
2BBE
102
{ACAD_REACTORS
330
2BA2
102
}
330
2BA2
100
AcDbScale
 70
     0
300
3/4" = 1'-0"
140
0.75
141
12.0
290
     0
  0
SCALE
  5
2BBF
102
{ACAD_REACTORS
330
2BA2
102
}
330
2BA2
100
AcDbScale
 70
     0
300
1" = 1'-0"
140
1.0
141
12.0
290
     0
  0
SCALE
  5
2BC0
102
{ACAD_REACTORS
330
2BA2
102
}
330
2BA2
100
AcDbScale
 70
     0
300
1-1/2" = 1'-0"
140
1.5
141
12.0
290
     0
  0
SCALE
  5
2BC1
102
{ACAD_REACTORS
330
2BA2
102
}
330
2BA2
100
AcDbScale
 70
     0
300
3" = 1'-0"
140
3.0
141
12.0
290
     0
  0
SCALE
  5
2BC2
102
{ACAD_REACTORS
330
2BA2
102
}
330
2BA2
100
AcDbScale
 70
     0
300
6" = 1'-0"
140
6.0
141
12.0
290
     0
  0
SCALE
  5
2BC3
102
{ACAD_REACTORS
330
2BA2
102
}
330
2BA2
100
AcDbScale
 70
     0
300
1'-0" = 1'-0"
140
12.0
141
12.0
290
     1
  0
TABLESTYLE
  5
2BA1
102
{ACAD_XDICTIONARY
360
3309
102
}
102
{ACAD_REACTORS
330
2BA0
102
}
330
2BA0
100
AcDbTableStyle
  3
Standard
 70
     0
 71
     0
 40
0.06
 41
0.06
280
     0
281
     0
  7
Standard
140
0.18
170
     2
 62
     0
 63
     7
283
     0
274
    -2
284
     1
 64
     0
275
    -2
285
     1
 65
     0
276
    -2
286
     1
 66
     0
277
    -2
287
     1
 67
     0
278
    -2
288
     1
 68
     0
279
    -2
289
     1
 69
     0
  7
Standard
140
0.25
170
     5
 62
     0
 63
     7
283
     0
274
    -2
284
     1
 64
     0
275
    -2
285
     1
 65
     0
276
    -2
286
     1
 66
     0
277
    -2
287
     1
 67
     0
278
    -2
288
     1
 68
     0
279
    -2
289
     1
 69
     0
  7
Standard
140
0.18
170
     5
 62
     0
 63
     7
283
     0
274
    -2
284
     1
 64
     0
275
    -2
285
     1
 65
     0
276
    -2
286
     1
 66
     0
277
    -2
287
     1
 67
     0
278
    -2
288
     1
 68
     0
279
    -2
289
     1
 69
     0
  0
VISUALSTYLE
  5
2B95
102
{ACAD_REACTORS
330
2B8F
102
}
330
2B8F
100
AcDbVisualStyle
  2
2dWireframe
 70
     4
 71
     0
 72
     2
 73
     0
 90
        0
 40
-0.6
 41
-30.0
 62
     5
 63
     7
 74
     1
 91
        4
 64
     7
 65
   257
 75
     1
175
     1
 42
1.0
 92
        0
 66
   257
 43
1.0
 76
     1
 77
     6
 78
     2
 67
     7
 79
     5
170
     0
171
     0
290
     0
174
     0
 93
        1
 44
0.0
173
     0
291
     0
 45
0.0
1001
ACAD
1000
AcDbSavedByObjectVersion
1070
     0
  0
VISUALSTYLE
  5
2B97
102
{ACAD_REACTORS
330
2B8F
102
}
330
2B8F
100
AcDbVisualStyle
  2
3D Hidden
 70
     6
 71
     1
 72
     2
 73
     2
 90
        0
 40
-0.6
 41
-30.0
 62
     5
 63
     7
 74
     2
 91
        2
 64
     7
 65
   257
 75
     2
175
     1
 42
40.0
 92
        0
 66
   257
 43
1.0
 76
     1
 77
     6
 78
     2
 67
     7
 79
     3
170
     0
171
     0
290
     0
174
     0
 93
        1
 44
0.0
173
     0
291
     0
 45
0.0
1001
ACAD
1000
AcDbSavedByObjectVersion
1070
     0
  0
VISUALSTYLE
  5
2B96
102
{ACAD_REACTORS
330
2B8F
102
}
330
2B8F
100
AcDbVisualStyle
  2
3dWireframe
 70
     5
 71
     0
 72
     2
 73
     0
 90
        0
 40
-0.6
 41
-30.0
 62
     5
 63
     7
 74
     1
 91
        4
 64
     7
 65
   257
 75
     1
175
     1
 42
1.0
 92
        0
 66
   257
 43
1.0
 76
     1
 77
     6
 78
     2
 67
     7
 79
     5
170
     0
171
     0
290
     0
174
     0
 93
        1
 44
0.0
173
     0
291
     0
 45
0.0
1001
ACAD
1000
AcDbSavedByObjectVersion
1070
     0
  0
VISUALSTYLE
  5
2B94
102
{ACAD_REACTORS
330
2B8F
102
}
330
2B8F
100
AcDbVisualStyle
  2
Basic
 70
     7
 71
     1
 72
     0
 73
     1
 90
        0
 40
-0.6
 41
-30.0
 62
     5
 63
     7
 74
     0
 91
        4
 64
     7
 65
   257
 75
     1
175
     1
 42
1.0
 92
        8
 66
     7
 43
1.0
 76
     1
 77
     6
 78
     2
 67
     7
 79
     5
170
     0
171
     0
290
     0
174
     0
 93
        1
 44
0.0
173
     0
291
     1
 45
0.0
1001
ACAD
1000
AcDbSavedByObjectVersion
1070
     0
  0
VISUALSTYLE
  5
2B9B
102
{ACAD_REACTORS
330
2B8F
102
}
330
2B8F
100
AcDbVisualStyle
  2
Brighten
 70
    12
 71
     2
 72
     2
 73
     0
 90
        0
 40
-0.6
 41
-30.0
 62
     5
 63
     7
 74
     1
 91
        4
 64
     7
 65
   257
 75
     1
175
     1
 42
1.0
 92
        8
 66
     7
 43
1.0
 76
     1
 77
     6
 78
     2
 67
     7
 79
     5
170
     0
171
     0
290
     0
174
     0
 93
        1
 44
50.0
173
     0
291
     1
 45
0.0
1001
ACAD
1000
AcDbSavedByObjectVersion
1070
     0
  0
VISUALSTYLE
  5
2B9F
102
{ACAD_REACTORS
330
2B8F
102
}
330
2B8F
100
AcDbVisualStyle
  2
ColorChange
 70
    16
 71
     2
 72
     2
 73
     3
 90
        0
 40
-0.6
 41
-30.0
 62
     5
 63
     8
 74
     1
 91
        4
 64
     7
 65
   257
 75
     1
175
     1
 42
1.0
 92
        8
 66
     8
 43
1.0
 76
     1
 77
     6
 78
     2
 67
     7
 79
     5
170
     0
171
     0
290
     0
174
     0
 93
        1
 44
0.0
173
     0
291
     1
 45
0.0
1001
ACAD
1000
AcDbSavedByObjectVersion
1070
     0
  0
VISUALSTYLE
  5
2B98
102
{ACAD_REACTORS
330
2B8F
102
}
330
2B8F
100
AcDbVisualStyle
  2
Conceptual
 70
     9
 71
     3
 72
     2
 73
     0
 90
        0
 40
-0.6
 41
-30.0
 62
     5
 63
     7
 74
     2
 91
        2
 64
     7
 65
   257
 75
     1
175
     1
 42
40.0
 92
        8
 66
     7
 43
1.0
 76
     1
 77
     6
 78
     2
 67
     7
 79
     3
170
     0
171
     0
290
     0
174
     0
 93
        1
 44
0.0
173
     0
291
     0
 45
0.0
1001
ACAD
1000
AcDbSavedByObjectVersion
1070
     0
  0
VISUALSTYLE
  5
2B9A
102
{ACAD_REACTORS
330
2B8F
102
}
330
2B8F
100
AcDbVisualStyle
  2
Dim
 70
    11
 71
     2
 72
     2
 73
     0
 90
        0
 40
-0.6
 41
-30.0
 62
     5
 63
     7
 74
     1
 91
        4
 64
     7
 65
   257
 75
     1
175
     1
 42
1.0
 92
        8
 66
     7
 43
1.0
 76
     1
 77
     6
 78
     2
 67
     7
 79
     5
170
     0
171
     0
290
     0
174
     0
 93
        1
 44
-50.0
173
     0
291
     1
 45
0.0
1001
ACAD
1000
AcDbSavedByObjectVersion
1070
     0
  0
VISUALSTYLE
  5
2B9E
102
{ACAD_REACTORS
330
2B8F
102
}
330
2B8F
100
AcDbVisualStyle
  2
Facepattern
 70
    15
 71
     2
 72
     2
 73
     0
 90
        0
 40
-0.6
 41
-30.0
 62
     5
 63
     7
 74
     1
 91
        4
 64
     7
 65
   257
 75
     1
175
     1
 42
1.0
 92
        8
 66
     7
 43
1.0
 76
     1
 77
     6
 78
     2
 67
     7
 79
     5
170
     0
171
     0
290
     0
174
     0
 93
        1
 44
0.0
173
     0
291
     1
 45
0.0
1001
ACAD
1000
AcDbSavedByObjectVersion
1070
     0
  0
VISUALSTYLE
  5
2B90
102
{ACAD_REACTORS
330
2B8F
102
}
330
2B8F
100
AcDbVisualStyle
  2
Flat
 70
     0
 71
     2
 72
     1
 73
     1
 90
        2
 40
-0.6
 41
30.0
 62
     5
 63
     7
 74
     0
 91
        4
 64
     7
 65
   257
 75
     1
175
     1
 42
1.0
 92
        8
 66
     7
 43
1.0
 76
     1
 77
     6
 78
     2
 67
     7
 79
     5
170
     0
171
     0
290
     0
174
     0
 93
       13
 44
0.0
173
     0
291
     0
 45
0.0
1001
ACAD
1000
AcDbSavedByObjectVersion
1070
     0
  0
VISUALSTYLE
  5
2B91
102
{ACAD_REACTORS
330
2B8F
102
}
330
2B8F
100
AcDbVisualStyle
  2
FlatWithEdges
 70
     1
 71
     2
 72
     1
 73
     1
 90
        2
 40
-0.6
 41
30.0
 62
     5
 63
     7
 74
     1
 91
        4
 64
     7
 65
   257
 75
     1
175
     1
 42
1.0
 92
        0
 66
   257
 43
1.0
 76
     1
 77
     6
 78
     2
 67
     7
 79
     5
170
     0
171
     0
290
     0
174
     0
 93
       13
 44
0.0
173
     0
291
     0
 45
0.0
1001
ACAD
1000
AcDbSavedByObjectVersion
1070
     0
  0
VISUALSTYLE
  5
2B92
102
{ACAD_REACTORS
330
2B8F
102
}
330
2B8F
100
AcDbVisualStyle
  2
Gouraud
 70
     2
 71
     2
 72
     2
 73
     1
 90
        2
 40
-0.6
 41
30.0
 62
     5
 63
     7
 74
     0
 91
        4
 64
     7
 65
   257
 75
     1
175
     1
 42
1.0
 92
        0
 66
     7
 43
1.0
 76
     1
 77
     6
 78
     2
 67
     7
 79
     5
170
     0
171
     0
290
     0
174
     0
 93
       13
 44
0.0
173
     0
291
     0
 45
0.0
1001
ACAD
1000
AcDbSavedByObjectVersion
1070
     0
  0
VISUALSTYLE
  5
2B93
102
{ACAD_REACTORS
330
2B8F
102
}
330
2B8F
100
AcDbVisualStyle
  2
GouraudWithEdges
 70
     3
 71
     2
 72
     2
 73
     1
 90
        2
 40
-0.6
 41
30.0
 62
     5
 63
     7
 74
     1
 91
        4
 64
     7
 65
   257
 75
     1
175
     1
 42
1.0
 92
        0
 66
   257
 43
1.0
 76
     1
 77
     6
 78
     2
 67
     7
 79
     5
170
     0
171
     0
290
     0
174
     0
 93
       13
 44
0.0
173
     0
291
     0
 45
0.0
1001
ACAD
1000
AcDbSavedByObjectVersion
1070
     0
  0
VISUALSTYLE
  5
2B9D
102
{ACAD_REACTORS
330
2B8F
102
}
330
2B8F
100
AcDbVisualStyle
  2
Linepattern
 70
    14
 71
     2
 72
     2
 73
     0
 90
        0
 40
-0.6
 41
-30.0
 62
     5
 63
     7
 74
     1
 91
        4
 64
     7
 65
   257
 75
     7
175
     7
 42
1.0
 92
        8
 66
     7
 43
1.0
 76
     1
 77
     6
 78
     2
 67
     7
 79
     5
170
     0
171
     0
290
     0
174
     0
 93
        1
 44
0.0
173
     0
291
     1
 45
0.0
1001
ACAD
1000
AcDbSavedByObjectVersion
1070
     0
  0
VISUALSTYLE
  5
2BDF
102
{ACAD_REACTORS
330
2B8F
102
}
330
2B8F
100
AcDbVisualStyle
  2

 70
     8
 71
     2
 72
     2
 73
     0
 90
        0
 40
-0.6
 41
-30.0
 62
     5
 63
     7
 74
     0
 91
        0
 64
     7
 65
   257
 75
     1
175
     1
 42
1.0
 92
        8
 66
     8
 43
1.0
 76
     1
 77
     6
 78
     2
 67
     7
 79
     5
170
     0
171
     0
290
     0
174
     0
 93
       13
 44
0.0
173
     0
291
     0
 45
0.0
1001
ACAD
1000
AcDbSavedByObjectVersion
1070
     0
  0
VISUALSTYLE
  5
2BE0
102
{ACAD_REACTORS
330
2B8F
102
}
330
2B8F
100
AcDbVisualStyle
  2

 70
     8
 71
     2
 72
     2
 73
     0
 90
        0
 40
-0.6
 41
-30.0
 62
     5
 63
     7
 74
     1
 91
        0
 64
     7
 65
   257
 75
     1
175
     1
 42
1.0
 92
        8
 66
     8
 43
1.0
 76
     1
 77
     6
 78
     2
 67
     7
 79
     5
170
     0
171
     0
290
     0
174
     0
 93
       13
 44
0.0
173
     0
291
     0
 45
0.0
1001
ACAD
1000
AcDbSavedByObjectVersion
1070
     0
  0
VISUALSTYLE
  5
2B99
102
{ACAD_REACTORS
330
2B8F
102
}
330
2B8F
100
AcDbVisualStyle
  2
Realistic
 70
     8
 71
     2
 72
     2
 73
     0
 90
        0
 40
-0.6
 41
-30.0
 62
     5
 63
     7
 74
     1
 91
        0
 64
     7
 65
   257
 75
     1
175
     1
 42
1.0
 92
        8
 66
     8
 43
1.0
 76
     1
 77
     6
 78
     2
 67
     7
 79
     5
170
     0
171
     0
290
     0
174
     0
 93
       13
 44
0.0
173
     0
291
     0
 45
0.0
1001
ACAD
1000
AcDbSavedByObjectVersion
1070
     0
  0
VISUALSTYLE
  5
2B9C
102
{ACAD_REACTORS
330
2B8F
102
}
330
2B8F
100
AcDbVisualStyle
  2
Thicken
 70
    13
 71
     2
 72
     2
 73
     0
 90
        0
 40
-0.6
 41
-30.0
 62
     5
 63
     7
 74
     1
 91
        4
 64
     7
 65
   257
 75
     1
175
     1
 42
1.0
 92
       12
 66
     7
 43
1.0
 76
     1
 77
     6
 78
     2
 67
     7
 79
     5
170
     0
171
     0
290
     0
174
     0
 93
        1
 44
0.0
173
     0
291
     1
 45
0.0
1001
ACAD
1000
AcDbSavedByObjectVersion
1070
     0
  0
DICTIONARY
  5
2B61
102
{ACAD_REACTORS
330
2B60
102
}
330
2B60
100
AcDbDictionary
280
     1
281
     1
  3
Standards
360
2B62
  0
DICTIONARYVAR
  5
3304
102
{ACAD_REACTORS
330
3301
102
}
330
3301
100
DictionaryVariables
280
     0
  1
1/8" = 1'-0"
  0
DICTIONARYVAR
  5
3303
102
{ACAD_REACTORS
330
3301
102
}
330
3301
100
DictionaryVariables
280
     0
  1
STANDARD
  0
DICTIONARYVAR
  5
3302
102
{ACAD_REACTORS
330
3301
102
}
330
3301
100
DictionaryVariables
280
     0
  1
STANDARD
  0
DICTIONARYVAR
  5
3308
102
{ACAD_REACTORS
330
3301
102
}
330
3301
100
DictionaryVariables
280
     0
  1
1
  0
DICTIONARYVAR
  5
3307
102
{ACAD_REACTORS
330
3301
102
}
330
3301
100
DictionaryVariables
280
     0
  1
1
  0
DICTIONARYVAR
  5
3306
102
{ACAD_REACTORS
330
3301
102
}
330
3301
100
DictionaryVariables
280
     0
  1
0
  0
DICTIONARYVAR
  5
3305
102
{ACAD_REACTORS
330
3301
102
}
330
3301
100
DictionaryVariables
280
     0
  1
127
  0
XRECORD
  5
250F
102
{ACAD_REACTORS
330
250E
102
}
330
250E
100
AcDbXrecord
280
     1
330
2288
1004
01000000360000000000000001000000
1000
ALFABET-Arial37
330
2289
1004
360000000000000001000000
1000
ALFABET-Arial37
  0
XRECORD
  5
2510
102
{ACAD_REACTORS
330
250E
102
}
330
250E
100
AcDbXrecord
280
     1
330
182
330
183
330
292B
330
292C
330
2924
330
2925
330
291D
330
291E
330
2914
330
2915
330
2906
330
2907
330
28FF
330
2900
330
28F8
330
28F9
330
28F1
330
28F2
330
2936
330
2937
330
29C2
330
29C3
330
29C9
330
29CA
330
29D2
330
29D3
330
29D9
330
29DA
330
29E0
330
29E1
330
29E7
330
29E8
330
29EE
330
29EF
330
29F5
330
29F6
330
29FE
330
29FF
  0
ACAD_PROXY_OBJECT
  5
2283
102
{ACAD_REACTORS
330
2282
102
}
330
2282
100
AcDbProxyObject
 90
      499
 91
      741
 95
  2555929
 70
     0
 93
        0
 94
        0
1001
DCO15
1000
jet_dbsamples...ALFABET(ALFABET-Arial37)
1000
liter_alf
1040
1.0
1040
1.0
1040
0.0
1040
0.0
1040
0.0
1040
0.0
1040
0.0
1040
37.0
1071
        0
1071
      256
1071
        7
1071
        5
1071
        1
1000

1000
ByLayer
1000
{\fArial|b0|i0|c238|p34;#(liter_alf)}
1001
ACAD
1000
AcRTDxfName
1000
OBJECT_PTR
  0
ACAD_PROXY_OBJECT
  5
2281
102
{ACAD_REACTORS
330
2280
102
}
330
2280
100
AcDbProxyObject
 90
      499
 91
      741
 95
  2555929
 70
     0
 93
        0
 94
        0
1001
DCO15
1000
jet_dbsamples...ALFABET(ALFABETLink1)
1000
IDENTYFIKATOR
1000

1000

1070
     4
1070
     0
1070
     0
1070
     0
1070
  1024
1001
ACAD
1000
AcRTDxfName
1000
OBJECT_PTR
  0
DICTIONARY
  5
330F
330
10
100
AcDbDictionary
280
     1
281
     1
  3
ACAD_XREC_ROUNDTRIP
360
3310
  0
DICTIONARY
  5
330D
330
A
100
AcDbDictionary
280
     1
281
     1
  3
ACAD_XREC_ROUNDTRIP
360
330E
  0
DICTIONARY
  5
2B80
330
2B7F
100
AcDbDictionary
280
     1
281
     1
  3
ACAD_XREC_ROUNDTRIP
360
3312
  3
BUMPTILE
360
2B82
  3
DIFFUSETILE
360
2B81
  3
OPACITYTILE
360
2B85
  3
REFLECTIONTILE
360
2B84
  3
REFRACTIONTILE
360
2B86
  3
SPECULARTILE
360
2B83
  0
DICTIONARY
  5
2B78
330
2B77
100
AcDbDictionary
280
     1
281
     1
  3
ACAD_XREC_ROUNDTRIP
360
3311
  3
BUMPTILE
360
2B7A
  3
DIFFUSETILE
360
2B79
  3
OPACITYTILE
360
2B7D
  3
REFLECTIONTILE
360
2B7C
  3
REFRACTIONTILE
360
2B7E
  3
SPECULARTILE
360
2B7B
  0
DICTIONARY
  5
2B88
330
2B87
100
AcDbDictionary
280
     1
281
     1
  3
ACAD_XREC_ROUNDTRIP
360
3313
  3
BUMPTILE
360
2B8A
  3
DIFFUSETILE
360
2B89
  3
OPACITYTILE
360
2B8D
  3
REFLECTIONTILE
360
2B8C
  3
REFRACTIONTILE
360
2B8E
  3
SPECULARTILE
360
2B8B
  0
DICTIONARY
  5
3309
330
2BA1
100
AcDbDictionary
280
     1
281
     1
  3
ACAD_ROUNDTRIP_2008_TABLESTYLE_CELLSTYLEMAP
360
330A
  3
ACAD_XREC_ROUNDTRIP
360
3314
  0
BINRECORD
  5
2B62
102
{ACAD_REACTORS
330
2B61
102
}
330
2B61
100
AcAecBinRecord
 90
        0
 91
    10761
 70
     0
310
01000F41494120326E642045646974696F6E0500FFFF01001C004163416563556B4C6179657244657363726970746976654669656C64154469736369706C696E652044657369676E61746F720102000000007B33363735454146100100002100000070BA406CD0EA76040B000015000144020000000750726F636573730E00
310
0144020000001250726F636573732044656D6F6C6974696F6E0000000000000145020000001250726F6365737320456C656374726963616C0000000000000156020000000E50726F636573732056616375756D0000000000000157020000000E50726F63657373205761746572730000000000000147020000000D50726F63
310
6573732047617365730000000000000158020000000F50726F636573732045786861757374000000000000014F020000000B50726F63657373204F696C0000000000000150020000000E50726F6365737320506970696E670000000000000151020000001150726F636573732045717569706D656E74000000000000014102
310
0000000C50726F6365737320416972730000000000000152020000001950726F6365737320447261696E732026205265636C61696D730000000000000153020000000C50726F6365737320536974650000000000000143020000001150726F63657373204368656D6963616C730000000000000154020000001850726F6365
310
737320456E747261696E656420536F6C696473000000000000000000000145020000000A456C656374726963616C090001440200000015456C656374726963616C2044656D6F6C6974696F6E0000000000000159020000001C456C656374726963616C20417578696C696172792053797374656D7300000000000001490200
310
00001A456C656374726963616C20496E737472756D656E746174696F6E000000000000014A0200000019456C656374726963616C20285573657220446566696E656429000000000000014B0200000019456C656374726963616C20285573657220446566696E656429000000000000014C0200000013456C65637472696361
310
6C204C69676874696E6700000000000001500200000010456C656374726963616C20506F7765720000000000000153020000000F456C656374726963616C20536974650000000000000154020000001D456C656374726963616C2054656C65636F6D6D756E69636174696F6E73000000000000000000000156020000001053
310
7572766579202F204D617070696E6705000146020000000C4669656C64205375727665790000000000000149020000000E4469676974616C20537572766579000000000000014A020000001F537572766579202F204D617070696E6720285573657220446566696E656429000000000000014B020000001F53757276657920
310
2F204D617070696E6720285573657220446566696E6564290000000000000141020000000D41657269616C20537572766579000000000000000000000146020000000F466972652050726F74656374696F6E0400014A02000000134669726520285573657220446566696E656429000000000000014B020000001346697265
310
20285573657220446566696E656429000000000000014102000000184669726520446574656374696F6E20616E6420416C61726D0000000000000153020000001046697265205375707072657373696F6E000000000000000000000157020000000B436976696C20576F726B730200014A020000001A436976696C20576F72
310
6B7320285573657220446566696E656429000000000000014B020000001A436976696C20576F726B7320285573657220446566696E65642900000000000000000000015802000000114F74686572204469736369706C696E65730200014A02000000204F74686572204469736369706C696E65732028557365722044656669
310
6E656429000000000000014B02000000204F74686572204469736369706C696E657320285573657220446566696E656429000000000000000000000147020000000747656E6572616C05000149020000001347656E6572616C20496E666F726D6174696F6E000000000000014A020000001647656E6572616C202855736572
310
20446566696E656429000000000000014B020000001647656E6572616C20285573657220446566696E6564290000000000000152020000001047656E6572616C205265736F757263650000000000000143020000001347656E6572616C20436F6E747261637475616C000000000000000000000148020000001348617A6172
310
646F7573204D6174657269616C730700014A020000002248617A6172646F7573204D6174657269616C7320285573657220446566696E656429000000000000014B020000002248617A6172646F7573204D6174657269616C7320285573657220446566696E656429000000000000014C02000000044C656164000000000000
310
01500200000003504342000000000000014102000000084173626573746F730000000000000152020000000C5265667269676572616E7473000000000000014302000000094368656D6963616C7300000000000000000000015A020000001A436F6E74726163746F72202F2053686F702044726177696E67730200014A0200
310
000029436F6E74726163746F72202F2053686F702044726177696E677320285573657220446566696E656429000000000000014B0200000029436F6E74726163746F72202F2053686F702044726177696E677320285573657220446566696E6564290000000000000000000001490200000009496E746572696F7273060001
310
440200000013496E746572696F722044656D6F6C6974696F6E00000000000001460200000011496E746572696F722046696E697368657300000000000001470200000012496E746572696F7273204772617068696373000000000000014A0200000018496E746572696F727320285573657220446566696E65642900000000
310
0000014B0200000018496E746572696F727320285573657220446566696E656429000000000000014E020000000F496E746572696F722044657369676E00000000000000000000014C02000000094C616E6473636170650500014402000000144C616E6473636170652044656D6F6C6974696F6E0000000000000149020000
310
00144C616E6473636170652049727269676174696F6E000000000000014A02000000184C616E64736361706520285573657220446566696E656429000000000000014B02000000184C616E64736361706520285573657220446566696E656429000000000000015002000000124C616E64736361706520506C616E74696E67
310
00000000000000000000014D020000000A4D656368616E6963616C0700014402000000154D656368616E6963616C2044656D6F6C6974696F6E0000000000000148020000000F4D656368616E6963616C20485641430000000000000149020000001A4D656368616E6963616C20496E737472756D656E746174696F6E000000
310
000000014A02000000194D656368616E6963616C20285573657220446566696E656429000000000000014B02000000194D656368616E6963616C20285573657220446566696E656429000000000000015002000000114D656368616E6963616C20506970696E670000000000000153020000000F4D656368616E6963616C20
310
5369746500000000000000000000014F020000000A4F7065726174696F6E730200014A02000000194F7065726174696F6E7320285573657220446566696E656429000000000000014B02000000194F7065726174696F6E7320285573657220446566696E6564290000000000000000000001500200000008506C756D62696E
310
67060001440200000013506C756D62696E672044656D6F6C6974696F6E000000000000014A0200000017506C756D62696E6720285573657220446566696E656429000000000000014B0200000017506C756D62696E6720285573657220446566696E6564290000000000000150020000000F506C756D62696E672050697069
310
6E6700000000000001510200000012506C756D62696E672045717569706D656E740000000000000153020000000D506C756D62696E672053697465000000000000000000000151020000000945717569706D656E74110001440200000013446574656E74696F6E2045717569706D656E740000000000000145020000001545
310
6475636174696F6E616C2045717569706D656E740000000000000156020000001C566964656F2F50686F746F677261706869632045717569706D656E7400000000000001460200000016466F6F6420536572766963652045717569706D656E7400000000000001480200000012486F73706974616C2045717569706D656E74
310
0000000000000159020000001253656375726974792045717569706D656E74000000000000014A020000001845717569706D656E7420285573657220446566696E656429000000000000014B020000001845717569706D656E7420285573657220446566696E656429000000000000014C02000000144C61626F7261746F72
310
792045717569706D656E74000000000000014D02000000154D61696E74656E616E63652045717569706D656E74000000000000015002000000155061726B696E67204C6F742045717569706D656E74000000000000014102000000124174686C657469632045717569706D656E740000000000000152020000001052657461
310
696C2045717569706D656E740000000000000142020000000E42616E6B2045717569706D656E740000000000000153020000000E536974652045717569706D656E740000000000000143020000001644727920436C65616E696E672045717569706D656E74000000000000015402000000145468656174726963616C204571
310
7569706D656E7400000000000000000000015202000000085265736F757263650700014502000000135265736F7572636520456C656374726963616C000000000000014A02000000175265736F7572636520285573657220446566696E656429000000000000014B02000000175265736F7572636520285573657220446566
310
696E656429000000000000014D02000000135265736F75726365204D656368616E6963616C000000000000014102000000165265736F75726365204172636869746563747572616C000000000000015302000000135265736F75726365205374727563747572616C0000000000000143020000000E5265736F757263652043
310
6976696C000000000000000000000141020000000D4172636869746563747572616C0A00014402000000184172636869746563747572616C2044656D6F6C6974696F6E000000000000014502000000164172636869746563747572616C20456C656D656E747300000000000001460200000016417263686974656374757261
310
6C2046696E6973686573000000000000014702000000164172636869746563747572616C204772617068696373000000000000014902000000164172636869746563747572616C20496E746572696F72000000000000014A020000001C4172636869746563747572616C20285573657220446566696E656429000000000000
310
014B020000001C4172636869746563747572616C20285573657220446566696E656429000000000000015002000000144172636869746563747572616C20506176696E67000000000000015302000000124172636869746563747572616C20536974650000000000000154020000001C4172636869746563747572616C2054
310
72616E73706F72746174696F6E000000000000000000000153020000000A5374727563747572616C0600014402000000155374727563747572616C2044656D6F6C6974696F6E000000000000014602000000125374727563747572616C204672616D696E67000000000000014A02000000195374727563747572616C202855
310
73657220446566696E656429000000000000014B02000000195374727563747572616C20285573657220446566696E656429000000000000014202000000175374727563747572616C205375627374727563747572650000000000000153020000000F5374727563747572616C205369746500000000000000000000014202
310
0000000C47656F746563686E6963616C0200014A020000001B47656F746563686E6963616C20285573657220446566696E656429000000000000014B020000001B47656F746563686E6963616C20285573657220446566696E656429000000000000000000000154020000001254656C65636F6D6D756E69636174696F6E73
310
090001590200000008536563757269747900000000000001490200000008496E746572636F6D000000000000014A020000002154656C65636F6D6D756E69636174696F6E7320285573657220446566696E656429000000000000014B020000002154656C65636F6D6D756E69636174696F6E7320285573657220446566696E
310
656429000000000000014D020000000A4D6F6E69746F72696E67000000000000014E020000000D44617461204E6574776F726B730000000000000141020000000E417564696F202F2056697375616C00000000000001430200000011436C6F636B20616E642050726F6772616D0000000000000154020000000954656C6570
310
686F6E650000000000000000000001430200000005436976696C09000155020000000F436976696C205574696C697469657300000000000001440200000010436976696C2044656D6F6C6974696F6E0000000000000147020000000D436976696C2047726164696E6700000000000001490200000012436976696C20496D70
310
726F76656D656E7473000000000000014A0200000014436976696C20285573657220446566696E656429000000000000014B0200000014436976696C20285573657220446566696E6564290000000000000150020000000C436976696C20506176696E670000000000000153020000000A436976696C205369746500000000
310
000001540200000014436976696C205472616E73706F72746174696F6E000000000000000000000180054D616A6F720300000000000000000000000000000000000000000000000000000000000000002000052D506C616E02000000154B657920706C616E2028666C6F6F7220706C616E29000000000000052D5369746502
310
000000095369746520706C616E000000000000052D4571706D020000000945717569706D656E74000000000000052D466C6F720200000005466C6F6F72000000000000052D4465746C020000000644657461696C000000000000052D536C61620200000005536C616273000000000000052D4675726E020000000B4675726E
310
697368696E6773000000000000052D4374726C020000000F436F6E74726F6C2053797374656D73000000000000052D57616C6C020000000557616C6C73000000000000052D436F6D6D020000001254656C65636F6D6D756E69636174696F6E73000000000000052D506F6C790200000008506F6C79676F6E73000000000000
310
052D5374726D0200000008447261696E616765000000000000052D436F64650200000014436F646520636F6D706C69616E636520706C616E000000000000052D41726561020000000441726561000000000000052D476C617A0200000007476C617A696E67000000000000052D416E6E6F020000000A416E6E6F746174696F
310
6E000000000000052D446F6F720200000005446F6F7273000000000000052D4265616D02000000054265616D73000000000000052D4C69746502000000114C69676874696E67206669787475726573000000000000052D41636373020000000B41636365737320706C616E000000000000052D485641430200000004485641
310
43000000000000052D45766163020000000F45766163756174696F6E20706C616E000000000000052D436C6E6702000000074365696C696E67000000000000052D436F6C730200000007436F6C756D6E73000000000000052D53656374020000000753656374696F6E000000000000052D436F6E760200000011436F6E7665
310
79696E672073797374656D73000000000000052D456C6563020000000A456C656374726963616C000000000000052D526F6F660200000004526F6F66000000000000052D47726964020000000A47726964206C696E6573000000000000052D456C65760200000009456C65766174696F6E000000000000052D466972650200
310
000014466972652070726F74656374696F6E20706C616E000000000000052D50726F740200000016466972652070726F74656374696F6E2073797374656D0000000000000180074D696E6F722031040000000000000000F00E770400000000000000000000000000000000F00000006A00052D5461626C020000000B446174
310
61207461626C6573000000000000052D41626F76020000000E456C656D656E74732061626F7665000000000000052D5377636802000000085377697463686573000000000000052D42726E67020000001A42656172696E677320262064697374616E6365206C6162656C73000000000000052D576B7366020000001E537973
310
74656D20776F726B207375726661636520636F6D706F6E656E7473000000000000052D436E7472020000000A43656E7465726C696E65000000000000052D4571706D020000000945717569706D656E74000000000000052D426472790200000008426F756E64617279000000000000052D5265666C020000000E5265666C65
310
6374656420506C616E000000000000052D50726F66020000000850726F66696C6573000000000000052D4E706C7402000000204E6F6E2D706C6F7474696E67206772617068696320696E666F726D6174696F6E000000000000052D4F70656E02000000084F70656E696E6773000000000000052D5261697302000000065261
310
69736564000000000000052D5468696E02000000195468696E207765696768742067726170686963206C696E6573000000000000052D536C61620200000005536C616273000000000000052D506F77720200000005506F776572000000000000052D44696D73020000000A44696D656E73696F6E73000000000000052D4170
310
706C020000000A4170706C69616E636573000000000000052D46696E65020000001946696E65207765696768742067726170686963206C696E6573000000000000052D536C63650200000006536C69636573000000000000052D52646D65020000001B526561642D6D65206C6179657220286E6F7420706C6F747465642900
310
0000000000052D53796D62020000000753796D626F6C73000000000000052D46726565020000000C467265657374616E64696E67000000000000052D436F6D6D020000001A54656C6570686F6E652C20636F6D6D756E69636174696F6E7320000000000000052D5668636C020000000856656869636C657300000000000005
310
2D4173736D020000000A417373656D626C696573000000000000052D57616C6C020000000557616C6C73000000000000052D436F6E6E020000000B436F6E6E656374696F6E73000000000000052D46696C65020000000D46696C6520636162696E657473000000000000052D46617363020000000746617363696173000000
310
000000052D5363726E020000001453637265656E6564204261636B67726F756E6473000000000000052D54686C64020000000A5468726573686F6C6473000000000000052D47727073020000000647726F757073000000000000052D50726874020000000E5061727469616C20686569676874000000000000052D53636864
310
02000000095363686564756C6573000000000000052D466E7368020000000846696E6973686573000000000000052D5369676E02000000055369676E73000000000000052D4A616D620200000015446F6F7220616E642077696E646F77206A616D6273000000000000052D4D61736B0200000012414454204D61736B696E67
310
204F626A656374000000000000052D45767472020000001B456C657661746F72206361727320616E642065717569706D656E74000000000000052D46756C6C020000000B46756C6C2D686569676874000000000000052D4D61726B020000001D4D61726B6572732C20627265616B206D61726B732C206C6561646572730000
310
00000000052D54657874020000000454657874000000000000052D5469746C020000001844726177696E67206F722064657461696C207469746C6573000000000000052D436F6D700200000013496E7465726E616C20636F6D706F6E656E7473000000000000052D4C69746502000000084C69676874696E67000000000000
310
052D4C61626C02000000064C6162656C73000000000000052D5265667202000000195265666572656E63652C2065787465726E616C2066696C6573000000000000052D466978740200000011706C756D62696E67206669787475726573000000000000052D5465657302000000094D61696E2074656573000000000000052D
310
53757370020000001253757370656E64656420656C656D656E7473000000000000052D5370636502000000055370616365000000000000052D4C65766C02000000274C6576656C206368616E6765732C2072616D70732C20706974732C2064657072657373696F6E73000000000000052D46697864020000000F4669786564
310
2065717569706D656E74000000000000052D4B65796E02000000084B65796E6F746573000000000000052D4C65676E02000000144C6567656E64732C2053796D626F6C206B657973000000000000052D486561640200000017446F6F7220616E642077696E646F772068656164657273000000000000052D48657679020000
310
001A4865617679207765696768742067726170686963206C696E6573000000000000052D427263650200000006427261636573000000000000052D5265767302000000095265766973696F6E73000000000000052D43617365020000000843617365776F726B000000000000052D4F636370020000001A4F63637570616E74
310
206F7220656D706C6F796565206E616D6573000000000000052D416363730200000006416363657373000000000000052D426C6F77020000000E456C656D656E74732062656C6F77000000000000052D4D65646D020000001B4D656469756D207765696768742067726170686963206C696E6573000000000000052D506570
310
6C020000000650656F706C65000000000000052D4D6F766502000000124D6F766561626C652065717569706D656E74000000000000052D52657663020000000F5265766973696F6E20636C6F756473000000000000052D5374727302000000215374616972207472656164732C20657363616C61746F72732C206C61646465
310
7273000000000000052D506C6E740200000006506C616E7473000000000000052D436176690200000006436176697479000000000000052D50617474020000001954657874757265206F72206861746368207061747465726E73000000000000052D5574696C02000000095574696C6974696573000000000000052D436C6E
310
6702000000074365696C696E67000000000000052D48696465020000000E48696464656E206F626A65637473000000000000052D537562740200000014537562747261637469766520656C656D656E7473000000000000052D4F76686402000000084F76657268656164000000000000052D4E6F746502000000054E6F7465
310
73000000000000052D5764776B02000000164172636869746563747572616C20776F6F64776F726B000000000000052D43757274020000000C4375727461696E2057616C6C000000000000052D44656D6F020000000A44656D6F6C6974696F6E000000000000052D5769646502000000195769646520776569676874206772
310
6170686963206C696E6573000000000000052D4872616C020000001648616E647261696C732C206775617264207261696C73000000000000052D4964656E02000000134964656E74696669636174696F6E2054616773000000000000052D53746F72020000001953797374656D2073746F7261676520636F6D706F6E656E74
310
73000000000000052D534446460200000010537570706C7920646966667573657273000000000000052D416474760200000011416464697469766520656C656D656E7473000000000000052D4D617463020000000B4D61746368206C696E6573000000000000052D506E6C73020000000D53797374656D2070616E656C7300
310
0000000000052D53656174020000000753656174696E67000000000000052D52444646020000001452657475726E2061697220646966667573657273000000000000052D506B6E6702000000075061726B696E67000000000000052D56696577020000001356696577706F727420446566696E6974696F6E00000000000005
310
2D4C696E65020000000D446566696E696E67204C696E65000000000000052D4D61737302000000104D617373696E6720456C656D656E7473000000000000052D4D63757402000000164D61696E20637574206C696E6520656C656D656E7473000000000000052D4E69636E020000000F4E6F7420696E20636F6E7472616374
310
000000000000052D47726964020000000447726964000000000000052D5370636C020000000B5370656369616C74696573000000000000052D4368617302000000054368617365000000000000052D54746C620200000016426F7264657220616E64207469746C6520626C6F636B000000000000052D4F746C6E0200000007
310
4F75746C696E65000000000000052D52697372020000000C537461697220726973657273000000000000052D5470746E0200000011546F696C657420706172746974696F6E73000000000000052D53696C6C020000000C57696E646F772073696C6C73000000000000052D46697265020000000A466972652077616C6C7300
310
00000000000180074D696E6F72203205000000004164642062656C6F77207468652073656C6563746564206974656D001600052D41626F76020000000E456C656D656E74732061626F7665000000000000052D42647279020000000D4564676520626F756E64617279000000000000052D5265666C020000000F5265666C65
310
6374656420506C616E73000000000000052D4E706C7402000000154E6F6E2D706C6F7474696E6720656C656D656E7473000000000000052D5468696E020000000E4D696E6F72206C696E65776F726B000000000000052D44696D73020000000A44696D656E73696F6E73000000000000052D536C63650200000006536C6963
310
6573000000000000052D5363616C020000001047726170686963616C205363616C6573000000000000052D466173630200000006466173636961000000000000052D476C617A0200000007476C617A696E67000000000000052D47727073020000000647726F757073000000000000052D536669740200000006536F666669
310
74000000000000052D5469746C02000000065469746C6573000000000000052D48696465020000000F48696464656E20656C656D656E7473000000000000052D50617474020000000E4861746368207061747465726E73000000000000052D4E6F7465020000001647656E6572616C205465787420616E64204E6F74657300
310
0000000000052D4964656E020000000A4964656E746966696572000000000000052D556E69740200000004556E6974000000000000052D4C696E65020000001047656E6572616C206C696E65776F726B000000000000052D4F746C6E02000000074F75746C696E65000000000000052D526973720200000006526973657273
310
000000000000052D53696C6C020000000553696C6C73000000000000018006537461747573060000000000000000A434770470040000B10000005073770400000000050000000F00022D31020000000750686173652031000000000000022D54020000000E54656D706F7261727920776F726B000000000000022D32020000
310
000750686173652032000000000000022D4402000000144578697374696E6720746F2064656D6F6C697368000000000000022D33020000000750686173652033000000000000022D4502000000124578697374696E6720746F2072656D61696E000000000000022D34020000000750686173652034000000000000022D4602
310
0000000B46757475726520776F726B000000000000022D35020000000750686173652035000000000000022D36020000000750686173652036000000000000022D37020000000750686173652037000000000000022D38020000000750686173652038000000000000022D3902000000075068617365203900000000000002
310
2D4D02000000114974656D7320746F206265206D6F766564000000000000022D4E02000000084E657720776F726B0000000000000600FFFF04001A004163416563556B4C61796572436F6D706F6E656E744669656C64174469736369706C696E652044657369676E61746F7220310100000004402C40400000000001000000
310
000141000000000780174469736369706C696E652044657369676E61746F7220320100000004402C40400100000001000000000144000000000780054D616A6F7205000000052D4040404000000000010000002D052D57616C6C000000000780064D696E6F723105000000022D2A01000000010000002D052D4964656E0000
310
00000780064D696E6F723205000000022D2A01000000010000002D052D546578740000000007800653746174757302000000022D2A01000000010000002D022D4E000000000500000102030405000003202D20022C20012003202D2000
  0
XRECORD
  5
3310
102
{ACAD_REACTORS
330
330F
102
}
330
330F
100
AcDbXrecord
280
     1
102
SHADEPLOT
 70
     0
102
SHADEPLOTRESLEVEL
 70
     2
102
SHADEPLOTCUSTOMDPI
 70
   300
  0
XRECORD
  5
330E
102
{ACAD_REACTORS
330
330D
102
}
330
330D
100
AcDbXrecord
280
     1
102
SHADEPLOT
 70
     1
102
SHADEPLOTRESLEVEL
 70
     2
102
SHADEPLOTCUSTOMDPI
 70
   300
  0
XRECORD
  5
3312
102
{ACAD_REACTORS
330
2B80
102
}
330
2B80
100
AcDbXrecord
280
     1
102
MATERIAL
148
0.0
149
0.0
149
0.0
 93
        0
 94
      127
282
     0
 72
     0
 77
     0
171
     0
175
     0
179
     0
273
     0
  0
XRECORD
  5
2B82
102
{ACAD_REACTORS
330
2B80
102
}
330
2B80
100
AcDbXrecord
280
     1
270
     1
271
     1
  0
XRECORD
  5
2B81
102
{ACAD_REACTORS
330
2B80
102
}
330
2B80
100
AcDbXrecord
280
     1
270
     1
271
     1
  0
XRECORD
  5
2B85
102
{ACAD_REACTORS
330
2B80
102
}
330
2B80
100
AcDbXrecord
280
     1
270
     1
271
     1
  0
XRECORD
  5
2B84
102
{ACAD_REACTORS
330
2B80
102
}
330
2B80
100
AcDbXrecord
280
     1
270
     1
271
     1
  0
XRECORD
  5
2B86
102
{ACAD_REACTORS
330
2B80
102
}
330
2B80
100
AcDbXrecord
280
     1
270
     1
271
     1
  0
XRECORD
  5
2B83
102
{ACAD_REACTORS
330
2B80
102
}
330
2B80
100
AcDbXrecord
280
     1
270
     1
271
     1
  0
XRECORD
  5
3311
102
{ACAD_REACTORS
330
2B78
102
}
330
2B78
100
AcDbXrecord
280
     1
102
MATERIAL
148
0.0
149
0.0
149
0.0
 93
        0
 94
      127
282
     0
 72
     0
 77
     0
171
     0
175
     0
179
     0
273
     0
  0
XRECORD
  5
2B7A
102
{ACAD_REACTORS
330
2B78
102
}
330
2B78
100
AcDbXrecord
280
     1
270
     1
271
     1
  0
XRECORD
  5
2B79
102
{ACAD_REACTORS
330
2B78
102
}
330
2B78
100
AcDbXrecord
280
     1
270
     1
271
     1
  0
XRECORD
  5
2B7D
102
{ACAD_REACTORS
330
2B78
102
}
330
2B78
100
AcDbXrecord
280
     1
270
     1
271
     1
  0
XRECORD
  5
2B7C
102
{ACAD_REACTORS
330
2B78
102
}
330
2B78
100
AcDbXrecord
280
     1
270
     1
271
     1
  0
XRECORD
  5
2B7E
102
{ACAD_REACTORS
330
2B78
102
}
330
2B78
100
AcDbXrecord
280
     1
270
     1
271
     1
  0
XRECORD
  5
2B7B
102
{ACAD_REACTORS
330
2B78
102
}
330
2B78
100
AcDbXrecord
280
     1
270
     1
271
     1
  0
XRECORD
  5
3313
102
{ACAD_REACTORS
330
2B88
102
}
330
2B88
100
AcDbXrecord
280
     1
102
MATERIAL
148
0.0
149
0.0
149
0.0
 93
        0
 94
      127
282
     0
 72
     0
 77
     0
171
     0
175
     0
179
     0
273
     0
  0
XRECORD
  5
2B8A
102
{ACAD_REACTORS
330
2B88
102
}
330
2B88
100
AcDbXrecord
280
     1
270
     1
271
     1
  0
XRECORD
  5
2B89
102
{ACAD_REACTORS
330
2B88
102
}
330
2B88
100
AcDbXrecord
280
     1
270
     1
271
     1
  0
XRECORD
  5
2B8D
102
{ACAD_REACTORS
330
2B88
102
}
330
2B88
100
AcDbXrecord
280
     1
270
     1
271
     1
  0
XRECORD
  5
2B8C
102
{ACAD_REACTORS
330
2B88
102
}
330
2B88
100
AcDbXrecord
280
     1
270
     1
271
     1
  0
XRECORD
  5
2B8E
102
{ACAD_REACTORS
330
2B88
102
}
330
2B88
100
AcDbXrecord
280
     1
270
     1
271
     1
  0
XRECORD
  5
2B8B
102
{ACAD_REACTORS
330
2B88
102
}
330
2B88
100
AcDbXrecord
280
     1
270
     1
271
     1
  0
CELLSTYLEMAP
  5
330A
102
{ACAD_REACTORS
330
3309
102
}
330
3309
100
AcDbCellStyleMap
 90
        3
300
CELLSTYLE
  1
TABLEFORMAT_BEGIN
 90
        5
170
     1
 91
        0
 92
    32768
 62
   257
 93
        1
300
CONTENTFORMAT
  1
CONTENTFORMAT_BEGIN
 90
        0
 91
        0
 92
      512
 93
        0
300

 40
0.0
140
1.0
 94
        5
 62
     0
340
15
144
0.25
309
CONTENTFORMAT_END
171
     0
 94
        0
309
TABLEFORMAT_END
  1
CELLSTYLE_BEGIN
 90
        1
 91
        1
300
_TITLE
309
CELLSTYLE_END
300
CELLSTYLE
  1
TABLEFORMAT_BEGIN
 90
        5
170
     1
 91
        0
 92
        0
 62
   257
 93
        1
300
CONTENTFORMAT
  1
CONTENTFORMAT_BEGIN
 90
        0
 91
        0
 92
      512
 93
        0
300

 40
0.0
140
1.0
 94
        5
 62
     0
340
15
144
0.18
309
CONTENTFORMAT_END
171
     0
 94
        0
309
TABLEFORMAT_END
  1
CELLSTYLE_BEGIN
 90
        2
 91
        1
300
_HEADER
309
CELLSTYLE_END
300
CELLSTYLE
  1
TABLEFORMAT_BEGIN
 90
        5
170
     1
 91
        0
 92
        0
 62
   257
 93
        1
300
CONTENTFORMAT
  1
CONTENTFORMAT_BEGIN
 90
        0
 91
        0
 92
      512
 93
        0
300

 40
0.0
140
1.0
 94
        2
 62
     0
340
15
144
0.18
309
CONTENTFORMAT_END
171
     0
 94
        0
309
TABLEFORMAT_END
  1
CELLSTYLE_BEGIN
 90
        3
 91
        2
300
_DATA
309
CELLSTYLE_END
  0
XRECORD
  5
3314
102
{ACAD_REACTORS
330
3309
102
}
330
3309
100
AcDbXrecord
280
     1
102
ACAD_ROUNDTRIP_PRE2007_TABLESTYLE
 90
      512
 91
        0
  1

 92
      512
 93
        0
  2

 94
      512
 95
        0
  3

  0
ENDSEC
  0
EOF
