  0
SECTION
  2
HEADER
  9
$ACADVER
  1
AC1015
  9
$ACADMAINTVER
 70
    20
  9
$DWGCODEPAGE
  3
ANSI_1250
  9
$INSBASE
 10
215187.2000545948
 20
141677.5157057546
 30
0.0
  9
$EXTMIN
 10
215179.8459445826
 20
127651.5804863085
 30
-0.0015258207003583
  9
$EXTMAX
 10
225394.0788508593
 20
141681.8396902825
 30
0.0000000349246037
  9
$LIMMIN
 10
0.0
 20
0.0
  9
$LIMMAX
 10
420.0
 20
297.0
  9
$ORTHOMODE
 70
     0
  9
$REGENMODE
 70
     1
  9
$FILLMODE
 70
     1
  9
$QTEXTMODE
 70
     0
  9
$MIRRTEXT
 70
     0
  9
$LTSCALE
 40
75.0
  9
$ATTMODE
 70
     1
  9
$TEXTSIZE
 40
20.0
  9
$TRACEWID
 40
1.0
  9
$TEXTSTYLE
  7
ROMANS
  9
$CLAYER
  8
WYMIARY
  9
$CELTYPE
  6
ByLayer
  9
$CECOLOR
 62
   256
  9
$CELTSCALE
 40
1.0
  9
$DISPSILH
 70
     0
  9
$DIMSCALE
 40
1.0
  9
$DIMASZ
 40
30.0
  9
$DIMEXO
 40
43.0
  9
$DIMDLI
 40
0.0
  9
$DIMRND
 40
0.5
  9
$DIMDLE
 40
12.0
  9
$DIMEXE
 40
13.0
  9
$DIMTP
 40
0.0
  9
$DIMTM
 40
0.0
  9
$DIMTXT
 40
80.0
  9
$DIMCEN
 40
0.0
  9
$DIMTSZ
 40
0.0
  9
$DIMTOL
 70
     0
  9
$DIMLIM
 70
     0
  9
$DIMTIH
 70
     0
  9
$DIMTOH
 70
     0
  9
$DIMSE1
 70
     1
  9
$DIMSE2
 70
     1
  9
$DIMTAD
 70
     0
  9
$DIMZIN
 70
    12
  9
$DIMBLK
  1
B-DIM
  9
$DIMASO
 70
     1
  9
$DIMSHO
 70
     1
  9
$DIMPOST
  1

  9
$DIMAPOST
  1

  9
$DIMALT
 70
     0
  9
$DIMALTD
 70
     2
  9
$DIMALTF
 40
25.4
  9
$DIMLFAC
 40
1.0
  9
$DIMTOFL
 70
     1
  9
$DIMTVP
 40
1.0
  9
$DIMTIX
 70
     1
  9
$DIMSOXD
 70
     0
  9
$DIMSAH
 70
     0
  9
$DIMBLK1
  1

  9
$DIMBLK2
  1

  9
$DIMSTYLE
  2
500
  9
$DIMCLRD
 70
     1
  9
$DIMCLRE
 70
     1
  9
$DIMCLRT
 70
    10
  9
$DIMTFAC
 40
1.0
  9
$DIMGAP
 40
0.0
  9
$DIMJUST
 70
     0
  9
$DIMSD1
 70
     0
  9
$DIMSD2
 70
     0
  9
$DIMTOLJ
 70
     1
  9
$DIMTZIN
 70
     0
  9
$DIMALTZ
 70
     0
  9
$DIMALTTZ
 70
     0
  9
$DIMUPT
 70
     0
  9
$DIMDEC
 70
     1
  9
$DIMTDEC
 70
     1
  9
$DIMALTU
 70
     2
  9
$DIMALTTD
 70
     2
  9
$DIMTXSTY
  7
ROMANS
  9
$DIMAUNIT
 70
     0
  9
$DIMADEC
 70
     0
  9
$DIMALTRND
 40
0.0
  9
$DIMAZIN
 70
     0
  9
$DIMDSEP
 70
    46
  9
$DIMATFIT
 70
     3
  9
$DIMFRAC
 70
     0
  9
$DIMLDRBLK
  1
B-DIM
  9
$DIMLUNIT
 70
     2
  9
$DIMLWD
 70
    -2
  9
$DIMLWE
 70
    -2
  9
$DIMTMOVE
 70
     2
  9
$LUNITS
 70
     2
  9
$LUPREC
 70
     1
  9
$SKETCHINC
 40
1.0
  9
$FILLETRAD
 40
0.0
  9
$AUNITS
 70
     0
  9
$AUPREC
 70
     0
  9
$MENU
  1
.
  9
$ELEVATION
 40
0.0
  9
$PELEVATION
 40
0.0
  9
$THICKNESS
 40
0.0
  9
$LIMCHECK
 70
     0
  9
$CHAMFERA
 40
0.0
  9
$CHAMFERB
 40
0.0
  9
$CHAMFERC
 40
20.0
  9
$CHAMFERD
 40
0.0
  9
$SKPOLY
 70
     0
  9
$TDCREATE
 40
2452027.670547454
  9
$TDUCREATE
 40
2452027.587214121
  9
$TDUPDATE
 40
2454950.554546979
  9
$TDUUPDATE
 40
2454950.471213646
  9
$TDINDWG
 40
7.7897733912
  9
$TDUSRTIMER
 40
7.7897733912
  9
$USRTIMER
 70
     1
  9
$ANGBASE
 50
0.0
  9
$ANGDIR
 70
     0
  9
$PDMODE
 70
     0
  9
$PDSIZE
 40
0.0
  9
$PLINEWID
 40
60.0
  9
$SPLFRAME
 70
     0
  9
$SPLINETYPE
 70
     6
  9
$SPLINESEGS
 70
     8
  9
$HANDSEED
  5
87F
  9
$SURFTAB1
 70
     6
  9
$SURFTAB2
 70
     6
  9
$SURFTYPE
 70
     6
  9
$SURFU
 70
     6
  9
$SURFV
 70
     6
  9
$UCSBASE
  2

  9
$UCSNAME
  2

  9
$UCSORG
 10
0.0
 20
0.0
 30
0.0
  9
$UCSXDIR
 10
1.0
 20
0.0
 30
0.0
  9
$UCSYDIR
 10
0.0
 20
1.0
 30
0.0
  9
$UCSORTHOREF
  2

  9
$UCSORTHOVIEW
 70
     0
  9
$UCSORGTOP
 10
0.0
 20
0.0
 30
0.0
  9
$UCSORGBOTTOM
 10
0.0
 20
0.0
 30
0.0
  9
$UCSORGLEFT
 10
0.0
 20
0.0
 30
0.0
  9
$UCSORGRIGHT
 10
0.0
 20
0.0
 30
0.0
  9
$UCSORGFRONT
 10
0.0
 20
0.0
 30
0.0
  9
$UCSORGBACK
 10
0.0
 20
0.0
 30
0.0
  9
$PUCSBASE
  2

  9
$PUCSNAME
  2

  9
$PUCSORG
 10
0.0
 20
0.0
 30
0.0
  9
$PUCSXDIR
 10
1.0
 20
0.0
 30
0.0
  9
$PUCSYDIR
 10
0.0
 20
1.0
 30
0.0
  9
$PUCSORTHOREF
  2

  9
$PUCSORTHOVIEW
 70
     0
  9
$PUCSORGTOP
 10
0.0
 20
0.0
 30
0.0
  9
$PUCSORGBOTTOM
 10
0.0
 20
0.0
 30
0.0
  9
$PUCSORGLEFT
 10
0.0
 20
0.0
 30
0.0
  9
$PUCSORGRIGHT
 10
0.0
 20
0.0
 30
0.0
  9
$PUCSORGFRONT
 10
0.0
 20
0.0
 30
0.0
  9
$PUCSORGBACK
 10
0.0
 20
0.0
 30
0.0
  9
$USERI1
 70
     0
  9
$USERI2
 70
     0
  9
$USERI3
 70
     0
  9
$USERI4
 70
     0
  9
$USERI5
 70
     0
  9
$USERR1
 40
0.0
  9
$USERR2
 40
0.0
  9
$USERR3
 40
0.0
  9
$USERR4
 40
0.0
  9
$USERR5
 40
0.0
  9
$WORLDVIEW
 70
     1
  9
$SHADEDGE
 70
     3
  9
$SHADEDIF
 70
    70
  9
$TILEMODE
 70
     1
  9
$MAXACTVP
 70
    64
  9
$PINSBASE
 10
0.0
 20
0.0
 30
0.0
  9
$PLIMCHECK
 70
     0
  9
$PEXTMIN
 10
1.000000000000000E+20
 20
1.000000000000000E+20
 30
1.000000000000000E+20
  9
$PEXTMAX
 10
-1.000000000000000E+20
 20
-1.000000000000000E+20
 30
-1.000000000000000E+20
  9
$PLIMMIN
 10
0.0
 20
0.0
  9
$PLIMMAX
 10
420.0
 20
297.0
  9
$UNITMODE
 70
     0
  9
$VISRETAIN
 70
     1
  9
$PLINEGEN
 70
     0
  9
$PSLTSCALE
 70
     1
  9
$TREEDEPTH
 70
  3020
  9
$CMLSTYLE
  2
Standard
  9
$CMLJUST
 70
     0
  9
$CMLSCALE
 40
20.0
  9
$PROXYGRAPHICS
 70
     1
  9
$MEASUREMENT
 70
     0
  9
$CELWEIGHT
370
    -1
  9
$ENDCAPS
280
     0
  9
$JOINSTYLE
280
     0
  9
$LWDISPLAY
290
     0
  9
$INSUNITS
 70
     5
  9
$HYPERLINKBASE
  1

  9
$STYLESHEET
  1
100.ctb
  9
$XEDIT
290
     1
  9
$CEPSNTYPE
380
     0
  9
$PSTYLEMODE
290
     1
  9
$FINGERPRINTGUID
  2
{5D44EB77-371A-49EF-813C-E71A3DF5F915}
  9
$VERSIONGUID
  2
{A5E366C8-832A-46B0-B08C-68266AFA1BA7}
  9
$EXTNAMES
290
     1
  9
$PSVPSCALE
 40
0.0
  9
$OLESTARTUP
290
     0
  0
ENDSEC
  0
SECTION
  2
CLASSES
  0
CLASS
  1
ACDBDICTIONARYWDFLT
  2
AcDbDictionaryWithDefault
  3
ObjectDBX Classes
 90
        0
280
     0
281
     0
  0
CLASS
  1
ACDBPLACEHOLDER
  2
AcDbPlaceHolder
  3
ObjectDBX Classes
 90
        0
280
     0
281
     0
  0
CLASS
  1
LAYOUT
  2
AcDbLayout
  3
ObjectDBX Classes
 90
        0
280
     0
281
     0
  0
CLASS
  1
DICTIONARYVAR
  2
AcDbDictionaryVar
  3
ObjectDBX Classes
 90
        0
280
     0
281
     0
  0
CLASS
  1
SORTENTSTABLE
  2
AcDbSortentsTable
  3
ObjectDBX Classes
 90
        0
280
     0
281
     0
  0
CLASS
  1
AEC_VARS_DWG_SETUP
  2
AecDbVarsDwgSetup
  3
AecBase50|Product Desc: Autodesk Architectural Desktop 2007 |Company: Autodesk,Inc. |WEB Address: www.autodesk.com
 90
    32897
280
     0
281
     0
  0
CLASS
  1
AEC_DISP_REP_CONFIG
  2
AecDbDispRepConfig
  3
AecBase50|Product Desc: Autodesk Architectural Desktop 2007 |Company: Autodesk,Inc. |WEB Address: www.autodesk.com
 90
    32897
280
     0
281
     0
  0
CLASS
  1
AEC_DISP_REP_SET
  2
AecDbDispRepSet
  3
AecBase50|Product Desc: Autodesk Architectural Desktop 2007 |Company: Autodesk,Inc. |WEB Address: www.autodesk.com
 90
    32897
280
     0
281
     0
  0
CLASS
  1
AEC_DISP_REP_2D_SECTION
  2
AecDbDispRep2dSection
  3
AecBase50|Product Desc: Autodesk Architectural Desktop 2007 |Company: Autodesk,Inc. |WEB Address: www.autodesk.com
 90
    32897
280
     0
281
     0
  0
CLASS
  1
AEC_DISP_REP_ANCHOR_BUB_TO_GRID
  2
AecDbDispRepAnchorBubToGrid
  3
AecStructureBase50|Product Desc: Autodesk Architectural Desktop 2007 |Company: Autodesk,Inc. |WEB Address: www.autodesk.com
 90
    32897
280
     0
281
     0
  0
CLASS
  1
AEC_DISP_REP_ANCHOR_BUB_TO_GRID_MODEL
  2
AecDbDispRepAnchorBubToGridMdl
  3
AecStructureBase50|Product Desc: Autodesk Architectural Desktop 2007 |Company: Autodesk,Inc. |WEB Address: www.autodesk.com
 90
    32897
280
     0
281
     0
  0
CLASS
  1
AEC_DISP_REP_ANCHOR_ENT_TO_NODE
  2
AecDbDispRepAnchorEntToNode
  3
AecBase50|Product Desc: Autodesk Architectural Desktop 2007 |Company: Autodesk,Inc. |WEB Address: www.autodesk.com
 90
    32897
280
     0
281
     0
  0
CLASS
  1
AEC_DISP_REP_ANCHOR_TAG_TO_ENT
  2
AecDbDispRepAnchorTagToEnt
  3
AecScheduleData50|Product Desc: Autodesk Architectural Desktop 2007 |Company: Autodesk,Inc. |WEB Address: www.autodesk.com
 90
    32897
280
     0
281
     0
  0
CLASS
  1
AEC_DISP_REP_AREA
  2
AecDbDispRepArea
  3
AecAreaCalculationBase50|Product Desc: Autodesk Architectural Desktop 2007 |Company: Autodesk,Inc. |WEB Address: www.autodesk.com
 90
    32897
280
     0
281
     0
  0
CLASS
  1
AEC_DISP_REP_AREA_DECOMPOSED
  2
AecDbDispRepAreaDecomposed
  3
AecAreaCalculationBase50|Product Desc: Autodesk Architectural Desktop 2007 |Company: Autodesk,Inc. |WEB Address: www.autodesk.com
 90
    32897
280
     0
281
     0
  0
CLASS
  1
AEC_DISP_REP_AREAGROUP
  2
AecDbDispRepAreaGroup
  3
AecAreaCalculationBase50|Product Desc: Autodesk Architectural Desktop 2007 |Company: Autodesk,Inc. |WEB Address: www.autodesk.com
 90
    32897
280
     0
281
     0
  0
CLASS
  1
AEC_DISP_REP_BDG_ELEVLINE_MODEL
  2
AecDbDispRepBdgElevLineModel
  3
AecArchBase50|Product Desc: Autodesk Architectural Desktop 2007 |Company: Autodesk,Inc. |WEB Address: www.autodesk.com
 90
    32897
280
     0
281
     0
  0
CLASS
  1
AEC_DISP_REP_BDG_SECTIONLINE_PLAN
  2
AecDbDispRepBdgElevLinePlan
  3
AecArchBase50|Product Desc: Autodesk Architectural Desktop 2007 |Company: Autodesk,Inc. |WEB Address: www.autodesk.com
 90
    32897
280
     0
281
     0
  0
CLASS
  1
AEC_DISP_REP_BDG_SECTIONLINE_MODEL
  2
AecDbDispRepBdgSectionLineModel
  3
AecArchBase50|Product Desc: Autodesk Architectural Desktop 2007 |Company: Autodesk,Inc. |WEB Address: www.autodesk.com
 90
    32897
280
     0
281
     0
  0
CLASS
  1
AEC_DISP_REP_BDG_SECTIONLINE_PLAN
  2
AecDbDispRepBdgSectionLinePlan
  3
AecArchBase50|Product Desc: Autodesk Architectural Desktop 2007 |Company: Autodesk,Inc. |WEB Address: www.autodesk.com
 90
    32897
280
     0
281
     0
  0
CLASS
  1
AEC_DISP_REP_BDG_SECTION_SUBDIV
  2
AecDbDispRepBdgSectionSubDiv
  3
AecArchBase50|Product Desc: Autodesk Architectural Desktop 2007 |Company: Autodesk,Inc. |WEB Address: www.autodesk.com
 90
    32897
280
     0
281
     0
  0
CLASS
  1
AEC_DISP_REP_CAMERA
  2
AecDbDispRepCamera
  3
AecBase50|Product Desc: Autodesk Architectural Desktop 2007 |Company: Autodesk,Inc. |WEB Address: www.autodesk.com
 90
    32897
280
     0
281
     0
  0
CLASS
  1
AEC_DISP_REP_CEILING_GRID
  2
AecDbDispRepCeilingGrid
  3
AecArchBase50|Product Desc: Autodesk Architectural Desktop 2007 |Company: Autodesk,Inc. |WEB Address: www.autodesk.com
 90
    33661
280
     0
281
     0
  0
CLASS
  1
AEC_DISP_REP_CEILING_GRID_MODEL
  2
AecDbDispRepCeilingGridModel
  3
AecArchBase50|Product Desc: Autodesk Architectural Desktop 2007 |Company: Autodesk,Inc. |WEB Address: www.autodesk.com
 90
    32897
280
     0
281
     0
  0
CLASS
  1
AEC_DISP_REP_CEILING_GRID_RCP
  2
AecDbDispRepCeilingGridRcp
  3
AecArchBase50|Product Desc: Autodesk Architectural Desktop 2007 |Company: Autodesk,Inc. |WEB Address: www.autodesk.com
 90
    32897
280
     0
281
     0
  0
CLASS
  1
AEC_DISP_REP_CLIP_VOLUME_MODEL
  2
AecDbDispRepClipVolModel
  3
AecBase50|Product Desc: Autodesk Architectural Desktop 2007 |Company: Autodesk,Inc. |WEB Address: www.autodesk.com
 90
    32897
280
     0
281
     0
  0
CLASS
  1
AEC_DISP_REP_CLIP_VOLUME_PLAN
  2
AecDbDispRepClipVolPlan
  3
AecBase50|Product Desc: Autodesk Architectural Desktop 2007 |Company: Autodesk,Inc. |WEB Address: www.autodesk.com
 90
    32897
280
     0
281
     0
  0
CLASS
  1
AEC_DISP_REP_CLIP_VOLUME_RESULT_SUBDIV
  2
AecDbDispRepClipVolResSubDiv
  3
AecBase50|Product Desc: Autodesk Architectural Desktop 2007 |Company: Autodesk,Inc. |WEB Address: www.autodesk.com
 90
    32897
280
     0
281
     0
  0
CLASS
  1
AEC_DISP_REP_CLIP_VOLUME_RESULT
  2
AecDbDispRepClipVolResult
  3
AecBase50|Product Desc: Autodesk Architectural Desktop 2007 |Company: Autodesk,Inc. |WEB Address: www.autodesk.com
 90
    32897
280
     0
281
     0
  0
CLASS
  1
AEC_DISP_REP_COLUMN_GRID
  2
AecDbDispRepColumnGrid
  3
AecStructureBase50|Product Desc: Autodesk Architectural Desktop 2007 |Company: Autodesk,Inc. |WEB Address: www.autodesk.com
 90
    32897
280
     0
281
     0
  0
CLASS
  1
AEC_DISP_REP_COLUMN_GRID_MODEL
  2
AecDbDispRepColumnGridModel
  3
AecStructureBase50|Product Desc: Autodesk Architectural Desktop 2007 |Company: Autodesk,Inc. |WEB Address: www.autodesk.com
 90
    32897
280
     0
281
     0
  0
CLASS
  1
AEC_DISP_REP_CURTAIN_WALL_LAYOUT_MODEL
  2
AecDbDispRepCurtainWallLayoutModel
  3
AecArchBase50|Product Desc: Autodesk Architectural Desktop 2007 |Company: Autodesk,Inc. |WEB Address: www.autodesk.com
 90
    32897
280
     0
281
     0
  0
CLASS
  1
AEC_DISP_REP_CURTAIN_WALL_LAYOUT_PLAN
  2
AecDbDispRepCurtainWallLayoutPlan
  3
AecArchBase50|Product Desc: Autodesk Architectural Desktop 2007 |Company: Autodesk,Inc. |WEB Address: www.autodesk.com
 90
    32897
280
     0
281
     0
  0
CLASS
  1
AEC_DISP_REP_CURTAIN_WALL_UNIT_MODEL
  2
AecDbDispRepCurtainWallUnitModel
  3
AecArchBase50|Product Desc: Autodesk Architectural Desktop 2007 |Company: Autodesk,Inc. |WEB Address: www.autodesk.com
 90
    32897
280
     0
281
     0
  0
CLASS
  1
AEC_DISP_REP_CURTAIN_WALL_UNIT_PLAN
  2
AecDbDispRepCurtainWallUnitPlan
  3
AecArchBase50|Product Desc: Autodesk Architectural Desktop 2007 |Company: Autodesk,Inc. |WEB Address: www.autodesk.com
 90
    32897
280
     0
281
     0
  0
CLASS
  1
AEC_DB_DISP_REP_DIM_GROUP_PLAN
  2
AecDbDispRepDimGroupPlan
  3
AecArchDACHBase50|Product Desc: Autodesk Architectural Desktop 2007 |Company: Autodesk,Inc. |WEB Address: www.autodesk.com
 90
    32897
280
     0
281
     0
  0
CLASS
  1
AEC_DISP_REP_DOOR_MODEL
  2
AecDbDispRepDoorModel
  3
AecArchBase50|Product Desc: Autodesk Architectural Desktop 2007 |Company: Autodesk,Inc. |WEB Address: www.autodesk.com
 90
    32897
280
     0
281
     0
  0
CLASS
  1
AEC_DISP_REP_DOOR_NOMINAL
  2
AecDbDispRepDoorNominal
  3
AecArchBase50|Product Desc: Autodesk Architectural Desktop 2007 |Company: Autodesk,Inc. |WEB Address: www.autodesk.com
 90
    32897
280
     0
281
     0
  0
CLASS
  1
AEC_DISP_REP_DOOR_PLAN
  2
AecDbDispRepDoorPlan
  3
AecArchBase50|Product Desc: Autodesk Architectural Desktop 2007 |Company: Autodesk,Inc. |WEB Address: www.autodesk.com
 90
    32897
280
     0
281
     0
  0
CLASS
  1
AEC_DISP_REP_EDITINPLACEPROFILE
  2
AecDbDispRepEditInPlaceProfile
  3
AecBase50|Product Desc: Autodesk Architectural Desktop 2007 |Company: Autodesk,Inc. |WEB Address: www.autodesk.com
 90
    32897
280
     0
281
     0
  0
CLASS
  1
AEC_DISP_REP_ENT_REF
  2
AecDbDispRepEntRef
  3
AecBase50|Product Desc: Autodesk Architectural Desktop 2007 |Company: Autodesk,Inc. |WEB Address: www.autodesk.com
 90
    32897
280
     0
281
     0
  0
CLASS
  1
AEC_DISP_REP_LAYOUT_CURVE
  2
AecDbDispRepLayoutCurve
  3
AecBase50|Product Desc: Autodesk Architectural Desktop 2007 |Company: Autodesk,Inc. |WEB Address: www.autodesk.com
 90
    32897
280
     0
281
     0
  0
CLASS
  1
AEC_DISP_REP_LAYOUT_GRID2D
  2
AecDbDispRepLayoutGrid2d
  3
AecBase50|Product Desc: Autodesk Architectural Desktop 2007 |Company: Autodesk,Inc. |WEB Address: www.autodesk.com
 90
    32897
280
     0
281
     0
  0
CLASS
  1
AEC_DISP_REP_LAYOUT_GRID3D
  2
AecDbDispRepLayoutGrid3d
  3
AecBase50|Product Desc: Autodesk Architectural Desktop 2007 |Company: Autodesk,Inc. |WEB Address: www.autodesk.com
 90
    32897
280
     0
281
     0
  0
CLASS
  1
AEC_DISP_REP_MASKBLOCK_REF
  2
AecDbDispRepMaskBlockRef
  3
AecBase50|Product Desc: Autodesk Architectural Desktop 2007 |Company: Autodesk,Inc. |WEB Address: www.autodesk.com
 90
    32897
280
     0
281
     0
  0
CLASS
  1
AEC_DISP_REP_MASKBLOCK_REF_RCP
  2
AecDbDispRepMaskBlockRefRcp
  3
AecArchBase50|Product Desc: Autodesk Architectural Desktop 2007 |Company: Autodesk,Inc. |WEB Address: www.autodesk.com
 90
    32897
280
     0
281
     0
  0
CLASS
  1
AEC_DISP_REP_MASS_ELEM_MODEL
  2
AecDbDispRepMassElemModel
  3
AecBaseEx50|Product Desc: Autodesk Architectural Desktop 2007 |Company: Autodesk,Inc. |WEB Address: www.autodesk.com
 90
    32897
280
     0
281
     0
  0
CLASS
  1
AEC_DISP_REP_MASS_ELEM_SCHEM
  2
AecDbDispRepMassElemSchem
  3
AecBaseEx50|Product Desc: Autodesk Architectural Desktop 2007 |Company: Autodesk,Inc. |WEB Address: www.autodesk.com
 90
    32897
280
     0
281
     0
  0
CLASS
  1
AEC_DISP_REP_MASS_GROUP_MODEL
  2
AecDbDispRepMassGroupModel
  3
AecBaseEx50|Product Desc: Autodesk Architectural Desktop 2007 |Company: Autodesk,Inc. |WEB Address: www.autodesk.com
 90
    32897
280
     0
281
     0
  0
CLASS
  1
AEC_DISP_REP_MASS_GROUP_PLAN
  2
AecDbDispRepMassGroupPlan
  3
AecBaseEx50|Product Desc: Autodesk Architectural Desktop 2007 |Company: Autodesk,Inc. |WEB Address: www.autodesk.com
 90
    32897
280
     0
281
     0
  0
CLASS
  1
AEC_DISP_REP_MATERIAL
  2
AecDbDispRepMaterial
  3
AecBase50|Product Desc: Autodesk Architectural Desktop 2007 |Company: Autodesk,Inc. |WEB Address: www.autodesk.com
 90
    32897
280
     0
281
     0
  0
CLASS
  1
AEC_DISP_REP_MVBLOCK_REF
  2
AecDbDispRepMvBlockRef
  3
AecBase50|Product Desc: Autodesk Architectural Desktop 2007 |Company: Autodesk,Inc. |WEB Address: www.autodesk.com
 90
    32897
280
     0
281
     0
  0
CLASS
  1
AEC_DISP_REP_MVBLOCK_REF_MODEL
  2
AecDbDispRepMvBlockRefModel
  3
AecBase50|Product Desc: Autodesk Architectural Desktop 2007 |Company: Autodesk,Inc. |WEB Address: www.autodesk.com
 90
    32897
280
     0
281
     0
  0
CLASS
  1
AEC_DISP_REP_OPENING
  2
AecDbDispRepOpening
  3
AecArchBase50|Product Desc: Autodesk Architectural Desktop 2007 |Company: Autodesk,Inc. |WEB Address: www.autodesk.com
 90
    32897
280
     0
281
     0
  0
CLASS
  1
AEC_DISP_REP_OPENING_MODEL
  2
AecDbDispRepOpeningModel
  3
AecArchBase50|Product Desc: Autodesk Architectural Desktop 2007 |Company: Autodesk,Inc. |WEB Address: www.autodesk.com
 90
    32897
280
     0
281
     0
  0
CLASS
  1
AEC_DISP_REP_POLYGON_MODEL
  2
AecDbDispRepPolygonModel
  3
AecBase50|Product Desc: Autodesk Architectural Desktop 2007 |Company: Autodesk,Inc. |WEB Address: www.autodesk.com
 90
    32897
280
     0
281
     0
  0
CLASS
  1
AEC_DISP_REP_RAILING_MODEL
  2
AecDbDispRepRailingModel
  3
AecArchBase50|Product Desc: Autodesk Architectural Desktop 2007 |Company: Autodesk,Inc. |WEB Address: www.autodesk.com
 90
    32897
280
     0
281
     0
  0
CLASS
  1
AEC_DISP_REP_RAILING_PLAN
  2
AecDbDispRepRailingPlan
  3
AecArchBase50|Product Desc: Autodesk Architectural Desktop 2007 |Company: Autodesk,Inc. |WEB Address: www.autodesk.com
 90
    32897
280
     0
281
     0
  0
CLASS
  1
AEC_DISP_REP_ROOF_MODEL
  2
AecDbDispRepRoofModel
  3
AecArchBase50|Product Desc: Autodesk Architectural Desktop 2007 |Company: Autodesk,Inc. |WEB Address: www.autodesk.com
 90
    32897
280
     0
281
     0
  0
CLASS
  1
AEC_DISP_REP_ROOF_PLAN
  2
AecDbDispRepRoofPlan
  3
AecArchBase50|Product Desc: Autodesk Architectural Desktop 2007 |Company: Autodesk,Inc. |WEB Address: www.autodesk.com
 90
    32897
280
     0
281
     0
  0
CLASS
  1
AEC_DISP_REP_ROOFSLAB_MODEL
  2
AecDbDispRepRoofSlabModel
  3
AecArchBase50|Product Desc: Autodesk Architectural Desktop 2007 |Company: Autodesk,Inc. |WEB Address: www.autodesk.com
 90
    32897
280
     0
281
     0
  0
CLASS
  1
AEC_DISP_REP_ROOFSLAB_PLAN
  2
AecDbDispRepRoofSlabPlan
  3
AecArchBase50|Product Desc: Autodesk Architectural Desktop 2007 |Company: Autodesk,Inc. |WEB Address: www.autodesk.com
 90
    32897
280
     0
281
     0
  0
CLASS
  1
AEC_DISP_REP_SCHEDULE_TABLE
  2
AecDbDispRepScheduleTable
  3
AecSchedule50|Product Desc: Autodesk Architectural Desktop 2007 |Company: Autodesk,Inc. |WEB Address: www.autodesk.com
 90
    32897
280
     0
281
     0
  0
CLASS
  1
AEC_DISP_REP_SLAB_MODEL
  2
AecDbDispRepSlabModel
  3
AecArchBase50|Product Desc: Autodesk Architectural Desktop 2007 |Company: Autodesk,Inc. |WEB Address: www.autodesk.com
 90
    32897
280
     0
281
     0
  0
CLASS
  1
AEC_DISP_REP_SLAB_PLAN
  2
AecDbDispRepSlabPlan
  3
AecArchBase50|Product Desc: Autodesk Architectural Desktop 2007 |Company: Autodesk,Inc. |WEB Address: www.autodesk.com
 90
    32897
280
     0
281
     0
  0
CLASS
  1
AEC_DISP_REP_SLICE
  2
AecDbDispRepSlice
  3
AecBase50|Product Desc: Autodesk Architectural Desktop 2007 |Company: Autodesk,Inc. |WEB Address: www.autodesk.com
 90
    32897
280
     0
281
     0
  0
CLASS
  1
AEC_DISP_REP_SPACE_BOUNDARY_MODEL
  2
AecDbDispRepSpaceBoundaryModel
  3
AecArchBase50|Product Desc: Autodesk Architectural Desktop 2007 |Company: Autodesk,Inc. |WEB Address: www.autodesk.com
 90
    32897
280
     0
281
     0
  0
CLASS
  1
AEC_DISP_REP_SPACE_BOUNDARY_PLAN
  2
AecDbDispRepSpaceBoundaryPlan
  3
AecArchBase50|Product Desc: Autodesk Architectural Desktop 2007 |Company: Autodesk,Inc. |WEB Address: www.autodesk.com
 90
    32897
280
     0
281
     0
  0
CLASS
  1
AEC_DISP_REP_SPACE_BOUNDARY_SCHEM
  2
AecDbDispRepSpaceBoundarySketch
  3
AecArchBase50|Product Desc: Autodesk Architectural Desktop 2007 |Company: Autodesk,Inc. |WEB Address: www.autodesk.com
 90
    32897
280
     0
281
     0
  0
CLASS
  1
AEC_DISP_REP_SPACE_MODEL
  2
AecDbDispRepSpaceModel
  3
AecArchBase50|Product Desc: Autodesk Architectural Desktop 2007 |Company: Autodesk,Inc. |WEB Address: www.autodesk.com
 90
    32897
280
     0
281
     0
  0
CLASS
  1
AEC_DISP_REP_SPACE_PLAN
  2
AecDbDispRepSpacePlan
  3
AecArchBase50|Product Desc: Autodesk Architectural Desktop 2007 |Company: Autodesk,Inc. |WEB Address: www.autodesk.com
 90
    32897
280
     0
281
     0
  0
CLASS
  1
AEC_DISP_REP_STAIR_MODEL
  2
AecDbDispRepStairModel
  3
AecArchBase50|Product Desc: Autodesk Architectural Desktop 2007 |Company: Autodesk,Inc. |WEB Address: www.autodesk.com
 90
    32897
280
     0
281
     0
  0
CLASS
  1
AEC_DISP_REP_STAIR_PLAN
  2
AecDbDispRepStairPlan
  3
AecArchBase50|Product Desc: Autodesk Architectural Desktop 2007 |Company: Autodesk,Inc. |WEB Address: www.autodesk.com
 90
    32897
280
     0
281
     0
  0
CLASS
  1
AEC_DISP_REP_WALL_GRAPH
  2
AecDbDispRepWallGraph
  3
AecArchBase50|Product Desc: Autodesk Architectural Desktop 2007 |Company: Autodesk,Inc. |WEB Address: www.autodesk.com
 90
    32897
280
     0
281
     0
  0
CLASS
  1
AEC_DISP_REP_WALL_MODEL
  2
AecDbDispRepWallModel
  3
AecArchBase50|Product Desc: Autodesk Architectural Desktop 2007 |Company: Autodesk,Inc. |WEB Address: www.autodesk.com
 90
    32897
280
     0
281
     0
  0
CLASS
  1
AEC_DISP_REP_WALL_PLAN
  2
AecDbDispRepWallPlan
  3
AecArchBase50|Product Desc: Autodesk Architectural Desktop 2007 |Company: Autodesk,Inc. |WEB Address: www.autodesk.com
 90
    32897
280
     0
281
     0
  0
CLASS
  1
AEC_DISP_REP_WALL_SCHEM
  2
AecDbDispRepWallSchem
  3
AecArchBase50|Product Desc: Autodesk Architectural Desktop 2007 |Company: Autodesk,Inc. |WEB Address: www.autodesk.com
 90
    32897
280
     0
281
     0
  0
CLASS
  1
AEC_DISP_REP_WINDOW_ASSEMBLY_MODEL
  2
AecDbDispRepWindowAssemblyModel
  3
AecArchBase50|Product Desc: Autodesk Architectural Desktop 2007 |Company: Autodesk,Inc. |WEB Address: www.autodesk.com
 90
    32897
280
     0
281
     0
  0
CLASS
  1
AEC_DISP_REP_WINDOW_ASSEMBLY_PLAN
  2
AecDbDispRepWindowAssemblyPlan
  3
AecArchBase50|Product Desc: Autodesk Architectural Desktop 2007 |Company: Autodesk,Inc. |WEB Address: www.autodesk.com
 90
    32897
280
     0
281
     0
  0
CLASS
  1
AEC_AECDBDISPREPWINDOWASSEMBLYPLAN100
  2
AecDbDispRepWindowAssemblyPlan100
  3
AecArchDACHBase50|Product Desc: Autodesk Architectural Desktop 2007 |Company: Autodesk,Inc. |WEB Address: www.autodesk.com
 90
    32897
280
     0
281
     0
  0
CLASS
  1
AEC_DISP_REP_WINDOW_MODEL
  2
AecDbDispRepWindowModel
  3
AecArchBase50|Product Desc: Autodesk Architectural Desktop 2007 |Company: Autodesk,Inc. |WEB Address: www.autodesk.com
 90
    32897
280
     0
281
     0
  0
CLASS
  1
AEC_DISP_REP_WINDOW_NOMINAL
  2
AecDbDispRepWindowNominal
  3
AecArchBase50|Product Desc: Autodesk Architectural Desktop 2007 |Company: Autodesk,Inc. |WEB Address: www.autodesk.com
 90
    32897
280
     0
281
     0
  0
CLASS
  1
AEC_DISP_REP_WINDOW_PLAN
  2
AecDbDispRepWindowPlan
  3
AecArchBase50|Product Desc: Autodesk Architectural Desktop 2007 |Company: Autodesk,Inc. |WEB Address: www.autodesk.com
 90
    32897
280
     0
281
     0
  0
CLASS
  1
AECS_DISP_REP_MEMBER_LOGICAL
  2
AecsDbDispRepMemberLogical
  3
AecStructureBase50|Product Desc: Autodesk Architectural Desktop 2007 |Company: Autodesk,Inc. |WEB Address: www.autodesk.com
 90
    32897
280
     0
281
     0
  0
CLASS
  1
AECS_DISP_REP_MEMBER_MODEL_DESIGN
  2
AecsDbDispRepMemberModelDesign
  3
AecStructureBase50|Product Desc: Autodesk Architectural Desktop 2007 |Company: Autodesk,Inc. |WEB Address: www.autodesk.com
 90
    32897
280
     0
281
     0
  0
CLASS
  1
AECS_DISP_REP_MEMBER_PLAN_DESIGN
  2
AecsDbDispRepMemberPlanDesign
  3
AecStructureBase50|Product Desc: Autodesk Architectural Desktop 2007 |Company: Autodesk,Inc. |WEB Address: www.autodesk.com
 90
    32897
280
     0
281
     0
  0
CLASS
  1
AEC_DISP_PROPS_ENT
  2
AecDbDispPropsEnt
  3
AecBase50|Product Desc: Autodesk Architectural Desktop 2007 |Company: Autodesk,Inc. |WEB Address: www.autodesk.com
 90
    32897
280
     0
281
     0
  0
CLASS
  1
AEC_DISP_PROPS_CLIP_VOLUME
  2
AecDbDispPropsClipVol
  3
AecBase50|Product Desc: Autodesk Architectural Desktop 2007 |Company: Autodesk,Inc. |WEB Address: www.autodesk.com
 90
    32897
280
     0
281
     0
  0
CLASS
  1
AEC_DISP_PROPS_SLICE
  2
AecDbDispPropsSlice
  3
AecBase50|Product Desc: Autodesk Architectural Desktop 2007 |Company: Autodesk,Inc. |WEB Address: www.autodesk.com
 90
    32897
280
     0
281
     0
  0
CLASS
  1
AEC_DISP_PROPS_ROOFSLAB_PLAN
  2
AecDbDispPropsRoofSlabPlan
  3
AecArchBase50|Product Desc: Autodesk Architectural Desktop 2007 |Company: Autodesk,Inc. |WEB Address: www.autodesk.com
 90
    32897
280
     0
281
     0
  0
CLASS
  1
AEC_DISP_PROPS_GRID_ASSEMBLY_MODEL
  2
AecDbDispPropsGridAssemblyModel
  3
AecArchBase50|Product Desc: Autodesk Architectural Desktop 2007 |Company: Autodesk,Inc. |WEB Address: www.autodesk.com
 90
    32897
280
     0
281
     0
  0
CLASS
  1
AEC_DISP_PROPS_ROOF
  2
AecDbDispPropsRoof
  3
AecArchBase50|Product Desc: Autodesk Architectural Desktop 2007 |Company: Autodesk,Inc. |WEB Address: www.autodesk.com
 90
    32897
280
     0
281
     0
  0
CLASS
  1
AEC_DISP_PROPS_SPACE_MODEL
  2
AecDbDispPropsSpaceModel
  3
AecArchBase50|Product Desc: Autodesk Architectural Desktop 2007 |Company: Autodesk,Inc. |WEB Address: www.autodesk.com
 90
    32897
280
     0
281
     0
  0
CLASS
  1
AEC_DISP_PROPS_EDITINPLACEPROFILE_MODEL
  2
AecDbDispPropsEditInPlaceProfile
  3
AecBase50|Product Desc: Autodesk Architectural Desktop 2007 |Company: Autodesk,Inc. |WEB Address: www.autodesk.com
 90
    32897
280
     0
281
     0
  0
CLASS
  1
AEC_DISP_PROPS_DOOR
  2
AecDbDispPropsDoor
  3
AecArchBase50|Product Desc: Autodesk Architectural Desktop 2007 |Company: Autodesk,Inc. |WEB Address: www.autodesk.com
 90
    32897
280
     0
281
     0
  0
CLASS
  1
AEC_DISP_PROPS_MASKBLOCK
  2
AecDbDispPropsMaskBlock
  3
AecBase50|Product Desc: Autodesk Architectural Desktop 2007 |Company: Autodesk,Inc. |WEB Address: www.autodesk.com
 90
    32897
280
     0
281
     0
  0
CLASS
  1
AEC_DISP_PROPS_SPACE_PLAN
  2
AecDbDispPropsSpacePlan
  3
AecArchBase50|Product Desc: Autodesk Architectural Desktop 2007 |Company: Autodesk,Inc. |WEB Address: www.autodesk.com
 90
    32897
280
     0
281
     0
  0
CLASS
  1
AEC_DISP_PROPS_RAILING_PLAN
  2
AecDbDispPropsRailingPlan
  3
AecArchBase50|Product Desc: Autodesk Architectural Desktop 2007 |Company: Autodesk,Inc. |WEB Address: www.autodesk.com
 90
    32897
280
     0
281
     0
  0
CLASS
  1
AEC_DISP_PROPS_LAYOUT_GRID2D
  2
AecDbDispPropsLayoutGrid2d
  3
AecBase50|Product Desc: Autodesk Architectural Desktop 2007 |Company: Autodesk,Inc. |WEB Address: www.autodesk.com
 90
    32897
280
     0
281
     0
  0
CLASS
  1
AEC_DISP_PROPS_CLIP_VOLUME_RESULT
  2
AecDbDispPropsClipVolResSubDiv
  3
AecBase50|Product Desc: Autodesk Architectural Desktop 2007 |Company: Autodesk,Inc. |WEB Address: www.autodesk.com
 90
    32897
280
     0
281
     0
  0
CLASS
  1
AEC_DISP_PROPS_STAIR_MODEL
  2
AecDbDispPropsStairModel
  3
AecArchBase50|Product Desc: Autodesk Architectural Desktop 2007 |Company: Autodesk,Inc. |WEB Address: www.autodesk.com
 90
    32897
280
     0
281
     0
  0
CLASS
  1
AEC_DISP_PROPS_LAYOUT_CURVE
  2
AecDbDispPropsLayoutCurve
  3
AecBase50|Product Desc: Autodesk Architectural Desktop 2007 |Company: Autodesk,Inc. |WEB Address: www.autodesk.com
 90
    32897
280
     0
281
     0
  0
CLASS
  1
AEC_DISP_PROPS_POLYGON_MODEL
  2
AecDbDispPropsPolygonModel
  3
AecBase50|Product Desc: Autodesk Architectural Desktop 2007 |Company: Autodesk,Inc. |WEB Address: www.autodesk.com
 90
    32897
280
     0
281
     0
  0
CLASS
  1
AEC_DISP_PROPS_MASS_GROUP
  2
AecDbDispPropsMassGroup
  3
AecBaseEx50|Product Desc: Autodesk Architectural Desktop 2007 |Company: Autodesk,Inc. |WEB Address: www.autodesk.com
 90
    32897
280
     0
281
     0
  0
CLASS
  1
AEC_DISP_PROPS_STAIR_PLAN
  2
AecDbDispPropsStairPlan
  3
AecArchBase50|Product Desc: Autodesk Architectural Desktop 2007 |Company: Autodesk,Inc. |WEB Address: www.autodesk.com
 90
    32897
280
     0
281
     0
  0
CLASS
  1
AEC_DISP_PROPS_OPENING
  2
AecDbDispPropsOpening
  3
AecArchBase50|Product Desc: Autodesk Architectural Desktop 2007 |Company: Autodesk,Inc. |WEB Address: www.autodesk.com
 90
    32897
280
     0
281
     0
  0
CLASS
  1
AEC_DISP_PROPS_WALL_GRAPH
  2
AecDbDispPropsWallGraph
  3
AecArchBase50|Product Desc: Autodesk Architectural Desktop 2007 |Company: Autodesk,Inc. |WEB Address: www.autodesk.com
 90
    32897
280
     0
281
     0
  0
CLASS
  1
AEC_DISP_PROPS_DOOR_NOMINAL
  2
AecDbDispPropsDoorNominal
  3
AecArchBase50|Product Desc: Autodesk Architectural Desktop 2007 |Company: Autodesk,Inc. |WEB Address: www.autodesk.com
 90
    32897
280
     0
281
     0
  0
CLASS
  1
AEC_DISP_PROPS_SLAB
  2
AecDbDispPropsSlab
  3
AecArchBase50|Product Desc: Autodesk Architectural Desktop 2007 |Company: Autodesk,Inc. |WEB Address: www.autodesk.com
 90
    32897
280
     0
281
     0
  0
CLASS
  1
AEC_DISP_PROPS_WALL_MODEL
  2
AecDbDispPropsWallModel
  3
AecArchBase50|Product Desc: Autodesk Architectural Desktop 2007 |Company: Autodesk,Inc. |WEB Address: www.autodesk.com
 90
    32897
280
     0
281
     0
  0
CLASS
  1
AEC_DISP_PROPS_MATERIAL
  2
AecDbDispPropsMaterial
  3
AecBase50|Product Desc: Autodesk Architectural Desktop 2007 |Company: Autodesk,Inc. |WEB Address: www.autodesk.com
 90
    32897
280
     0
281
     0
  0
CLASS
  1
AEC_DISP_PROPS_WINDOW
  2
AecDbDispPropsWindow
  3
AecArchBase50|Product Desc: Autodesk Architectural Desktop 2007 |Company: Autodesk,Inc. |WEB Address: www.autodesk.com
 90
    32897
280
     0
281
     0
  0
CLASS
  1
AEC_DISP_PROPS_LAYOUT_GRID3D
  2
AecDbDispPropsLayoutGrid3d
  3
AecBase50|Product Desc: Autodesk Architectural Desktop 2007 |Company: Autodesk,Inc. |WEB Address: www.autodesk.com
 90
    32897
280
     0
281
     0
  0
CLASS
  1
AEC_DISP_PROPS_GRID_ASSEMBLY_PLAN
  2
AecDbDispPropsGridAssemblyPlan
  3
AecArchBase50|Product Desc: Autodesk Architectural Desktop 2007 |Company: Autodesk,Inc. |WEB Address: www.autodesk.com
 90
    32897
280
     0
281
     0
  0
CLASS
  1
AEC_DISP_PROPS_WALL_SCHEM
  2
AecDbDispPropsWallSchem
  3
AecArchBase50|Product Desc: Autodesk Architectural Desktop 2007 |Company: Autodesk,Inc. |WEB Address: www.autodesk.com
 90
    32897
280
     0
281
     0
  0
CLASS
  1
AEC_DISP_PROPS_WALL_PLAN
  2
AecDbDispPropsWallPlan
  3
AecArchBase50|Product Desc: Autodesk Architectural Desktop 2007 |Company: Autodesk,Inc. |WEB Address: www.autodesk.com
 90
    32897
280
     0
281
     0
  0
CLASS
  1
AEC_DISP_PROPS_SPACE_BOUNDARY
  2
AecDbDispPropsSpaceBoundary
  3
AecArchBase50|Product Desc: Autodesk Architectural Desktop 2007 |Company: Autodesk,Inc. |WEB Address: www.autodesk.com
 90
    32897
280
     0
281
     0
  0
CLASS
  1
AEC_DISP_PROPS_SLAB_PLAN
  2
AecDbDispPropsSlabPlan
  3
AecArchBase50|Product Desc: Autodesk Architectural Desktop 2007 |Company: Autodesk,Inc. |WEB Address: www.autodesk.com
 90
    32897
280
     0
281
     0
  0
CLASS
  1
AEC_DISP_PROPS_RAILING_MODEL
  2
AecDbDispPropsRailingModel
  3
AecArchBase50|Product Desc: Autodesk Architectural Desktop 2007 |Company: Autodesk,Inc. |WEB Address: www.autodesk.com
 90
    32897
280
     0
281
     0
  0
CLASS
  1
AEC_DISP_PROPS_MASS_ELEM_MODEL
  2
AecDbDispPropsMassElem
  3
AecBaseEx50|Product Desc: Autodesk Architectural Desktop 2007 |Company: Autodesk,Inc. |WEB Address: www.autodesk.com
 90
    32897
280
     0
281
     0
  0
CLASS
  1
AEC_DISP_PROPS_DIM
  2
AecDbDispPropsDimGroup
  3
AecArchDACHBase50|Product Desc: Autodesk Architectural Desktop 2007 |Company: Autodesk,Inc. |WEB Address: www.autodesk.com
 90
    32897
280
     0
281
     0
  0
CLASS
  1
AEC_DISP_PROPS_ROOFSLAB
  2
AecDbDispPropsRoofSlab
  3
AecArchBase50|Product Desc: Autodesk Architectural Desktop 2007 |Company: Autodesk,Inc. |WEB Address: www.autodesk.com
 90
    32897
280
     0
281
     0
  0
CLASS
  1
AEC_DISP_PROPS_ENT_REF
  2
AecDbDispPropsEntRef
  3
AecBase50|Product Desc: Autodesk Architectural Desktop 2007 |Company: Autodesk,Inc. |WEB Address: www.autodesk.com
 90
    32897
280
     0
281
     0
  0
CLASS
  1
AEC_DISP_PROPS_2D_SECTION
  2
AecDbDispProps2dSection
  3
AecBase50|Product Desc: Autodesk Architectural Desktop 2007 |Company: Autodesk,Inc. |WEB Address: www.autodesk.com
 90
    32897
280
     0
281
     0
  0
CLASS
  1
AECS_DISP_PROPS_MEMBER_LOGICAL
  2
AecsDbDispPropsMemberLogical
  3
AecStructureBase50|Product Desc: Autodesk Architectural Desktop 2007 |Company: Autodesk,Inc. |WEB Address: www.autodesk.com
 90
    32897
280
     0
281
     0
  0
CLASS
  1
AEC_DISP_PROPS_AREA_DECOMPOSED
  2
AecDbDispPropsAreaDecomposed
  3
AecAreaCalculationBase50|Product Desc: Autodesk Architectural Desktop 2007 |Company: Autodesk,Inc. |WEB Address: www.autodesk.com
 90
    32897
280
     0
281
     0
  0
CLASS
  1
AEC_DISP_PROPS_CAMERA
  2
AecDbDispPropsCamera
  3
AecBase50|Product Desc: Autodesk Architectural Desktop 2007 |Company: Autodesk,Inc. |WEB Address: www.autodesk.com
 90
    32897
280
     0
281
     0
  0
CLASS
  1
AECS_DISP_PROPS_MEMBER
  2
AecsDbDispPropsMember
  3
AecStructureBase50|Product Desc: Autodesk Architectural Desktop 2007 |Company: Autodesk,Inc. |WEB Address: www.autodesk.com
 90
    32897
280
     0
281
     0
  0
CLASS
  1
AECS_DISP_PROPS_MEMBER_PLAN
  2
AecsDbDispPropsMemberPlan
  3
AecStructureBase50|Product Desc: Autodesk Architectural Desktop 2007 |Company: Autodesk,Inc. |WEB Address: www.autodesk.com
 90
    32897
280
     0
281
     0
  0
CLASS
  1
AEC_DISP_PROPS_AREAGROUP
  2
AecDbDispPropsAreaGroup
  3
AecAreaCalculationBase50|Product Desc: Autodesk Architectural Desktop 2007 |Company: Autodesk,Inc. |WEB Address: www.autodesk.com
 90
    32897
280
     0
281
     0
  0
CLASS
  1
AEC_DISP_PROPS_WINDOW_NOMINAL
  2
AecDbDispPropsWindowNominal
  3
AecArchBase50|Product Desc: Autodesk Architectural Desktop 2007 |Company: Autodesk,Inc. |WEB Address: www.autodesk.com
 90
    32897
280
     0
281
     0
  0
CLASS
  1
AEC_DISP_PROPS_AREA
  2
AecDbDispPropsArea
  3
AecAreaCalculationBase50|Product Desc: Autodesk Architectural Desktop 2007 |Company: Autodesk,Inc. |WEB Address: www.autodesk.com
 90
    32897
280
     0
281
     0
  0
CLASS
  1
AEC_DISP_PROPS_SCHEDULE_TABLE
  2
AecDbDispPropsScheduleTable
  3
AecSchedule50|Product Desc: Autodesk Architectural Desktop 2007 |Company: Autodesk,Inc. |WEB Address: www.autodesk.com
 90
    32897
280
     0
281
     0
  0
CLASS
  1
AEC_LAYERKEY_STYLE
  2
AecDbLayerKeyStyle
  3
AecBase50|Product Desc: Autodesk Architectural Desktop 2007 |Company: Autodesk,Inc. |WEB Address: www.autodesk.com
 90
    32897
280
     0
281
     0
  0
CLASS
  1
AEC_VARS_ARCHBASE
  2
AecDbVarsArchBase
  3
AecArchBase50|Product Desc: Autodesk Architectural Desktop 2007 |Company: Autodesk,Inc. |WEB Address: www.autodesk.com
 90
    32897
280
     0
281
     0
  0
CLASS
  1
AEC_VARS_MUNICH
  2
AecDbVarsMunich
  3
AecArchDACHBase50|Product Desc: Autodesk Architectural Desktop 2007 |Company: Autodesk,Inc. |WEB Address: www.autodesk.com
 90
    32897
280
     0
281
     0
  0
CLASS
  1
AEC_NOTIFICATION_TRACKER
  2
AecDbNotificationTracker
  3
AecBase50|Product Desc: Autodesk Architectural Desktop 2007 |Company: Autodesk,Inc. |WEB Address: www.autodesk.com
 90
    32897
280
     0
281
     0
  0
CLASS
  1
AEC_DISP_REP_ANCHOR
  2
AecDbDispRepAnchor
  3
AecBase50|Product Desc: Autodesk Architectural Desktop 2007 |Company: Autodesk,Inc. |WEB Address: www.autodesk.com
 90
    32897
280
     0
281
     0
  0
CLASS
  1
AEC_DISP_REP_POLYGON_TRUECOLOUR
  2
AecDbDispRepPolygonTrueColour
  3
AecBase50|Product Desc: Autodesk Architectural Desktop 2007 |Company: Autodesk,Inc. |WEB Address: www.autodesk.com
 90
    32897
280
     0
281
     0
  0
CLASS
  1
AEC_DISP_PROPS_POLYGON_TRUECOLOUR
  2
AecDbDispPropsPolygonTrueColour
  3
AecBase50|Product Desc: Autodesk Architectural Desktop 2007 |Company: Autodesk,Inc. |WEB Address: www.autodesk.com
 90
    32897
280
     0
281
     0
  0
CLASS
  1
AEC_DISP_REP_BDG_ELEVLINE_RCP
  2
AecDbDispRepBdgElevLineRcp
  3
AecArchBase50|Product Desc: Autodesk Architectural Desktop 2007 |Company: Autodesk,Inc. |WEB Address: www.autodesk.com
 90
    32897
280
     0
281
     0
  0
CLASS
  1
AEC_DISP_REP_BDG_SECTIONLINE_RCP
  2
AecDbDispRepBdgSectionLineRcp
  3
AecArchBase50|Product Desc: Autodesk Architectural Desktop 2007 |Company: Autodesk,Inc. |WEB Address: www.autodesk.com
 90
    32897
280
     0
281
     0
  0
CLASS
  1
AEC_DISP_REP_BDG_SECTION_MODEL
  2
AecDbDispRepBdgSectionModel
  3
AecArchBase50|Product Desc: Autodesk Architectural Desktop 2007 |Company: Autodesk,Inc. |WEB Address: www.autodesk.com
 90
    32897
280
     0
281
     0
  0
CLASS
  1
AEC_DISP_REP_DOOR_ELEV
  2
AecDbDispRepDoorElev
  3
AecArchBase50|Product Desc: Autodesk Architectural Desktop 2007 |Company: Autodesk,Inc. |WEB Address: www.autodesk.com
 90
    32897
280
     0
281
     0
  0
CLASS
  1
AEC_DISP_REP_DOOR_RCP
  2
AecDbDispRepDoorRcp
  3
AecArchBase50|Product Desc: Autodesk Architectural Desktop 2007 |Company: Autodesk,Inc. |WEB Address: www.autodesk.com
 90
    32897
280
     0
281
     0
  0
CLASS
  1
AEC_DISP_REP_DOOR_THRESHOLD_PLAN
  2
AecDbDispRepDoorThresholdPlan
  3
AecArchBase50|Product Desc: Autodesk Architectural Desktop 2007 |Company: Autodesk,Inc. |WEB Address: www.autodesk.com
 90
    32897
280
     0
281
     0
  0
CLASS
  1
AEC_DISP_PROPS_DOOR_THRESHOLD_PLAN
  2
AecDbDispPropsDoorThresholdPlan
  3
AecArchBase50|Product Desc: Autodesk Architectural Desktop 2007 |Company: Autodesk,Inc. |WEB Address: www.autodesk.com
 90
    32897
280
     0
281
     0
  0
CLASS
  1
AEC_DISP_REP_MASS_ELEM_RCP
  2
AecDbDispRepMassElemRcp
  3
AecArchBase50|Product Desc: Autodesk Architectural Desktop 2007 |Company: Autodesk,Inc. |WEB Address: www.autodesk.com
 90
    32897
280
     0
281
     0
  0
CLASS
  1
AEC_DISP_REP_MASS_GROUP_RCP
  2
AecDbDispRepMassGroupRcp
  3
AecArchBase50|Product Desc: Autodesk Architectural Desktop 2007 |Company: Autodesk,Inc. |WEB Address: www.autodesk.com
 90
    32897
280
     0
281
     0
  0
CLASS
  1
AEC_DISP_REP_MVBLOCK_REF_RCP
  2
AecDbDispRepMvBlockRefRcp
  3
AecArchBase50|Product Desc: Autodesk Architectural Desktop 2007 |Company: Autodesk,Inc. |WEB Address: www.autodesk.com
 90
    32897
280
     0
281
     0
  0
CLASS
  1
AEC_DISP_REP_ROOF_RCP
  2
AecDbDispRepRoofRcp
  3
AecArchBase50|Product Desc: Autodesk Architectural Desktop 2007 |Company: Autodesk,Inc. |WEB Address: www.autodesk.com
 90
    32897
280
     0
281
     0
  0
CLASS
  1
AEC_DISP_REP_SPACE_BOUNDARY_DIAGRAM
  2
AecDbDispRepSpaceBoundaryDgrm
  3
AecArchBase50|Product Desc: Autodesk Architectural Desktop 2007 |Company: Autodesk,Inc. |WEB Address: www.autodesk.com
 90
    32897
280
     0
281
     0
  0
CLASS
  1
AEC_DISP_REP_SPACE_RCP
  2
AecDbDispRepSpaceRcp
  3
AecArchBase50|Product Desc: Autodesk Architectural Desktop 2007 |Company: Autodesk,Inc. |WEB Address: www.autodesk.com
 90
    32897
280
     0
281
     0
  0
CLASS
  1
AEC_DISP_REP_SPACE_VOLUME
  2
AecDbDispRepSpaceVolume
  3
AecArchBase50|Product Desc: Autodesk Architectural Desktop 2007 |Company: Autodesk,Inc. |WEB Address: www.autodesk.com
 90
    32897
280
     0
281
     0
  0
CLASS
  1
AEC_DISP_REP_STAIR_PLAN_OVERLAPPING
  2
AecDbDispRepStairPlanOverlapping
  3
AecArchBase50|Product Desc: Autodesk Architectural Desktop 2007 |Company: Autodesk,Inc. |WEB Address: www.autodesk.com
 90
    32897
280
     0
281
     0
  0
CLASS
  1
AEC_DISP_PROPS_STAIR_PLAN_OVERLAPPING
  2
AecDbDispPropsStairPlanOverlapping
  3
AecArchBase50|Product Desc: Autodesk Architectural Desktop 2007 |Company: Autodesk,Inc. |WEB Address: www.autodesk.com
 90
    32897
280
     0
281
     0
  0
CLASS
  1
AEC_DISP_REP_STAIR_RCP
  2
AecDbDispRepStairRcp
  3
AecArchBase50|Product Desc: Autodesk Architectural Desktop 2007 |Company: Autodesk,Inc. |WEB Address: www.autodesk.com
 90
    32897
280
     0
281
     0
  0
CLASS
  1
AEC_DISP_REP_WALL_RCP
  2
AecDbDispRepWallRcp
  3
AecArchBase50|Product Desc: Autodesk Architectural Desktop 2007 |Company: Autodesk,Inc. |WEB Address: www.autodesk.com
 90
    32897
280
     0
281
     0
  0
CLASS
  1
AEC_DISP_REP_WINDOWASSEMBLY_SILL_PLAN
  2
AecDbDispRepWindowAssemblySillPlan
  3
AecArchBase50|Product Desc: Autodesk Architectural Desktop 2007 |Company: Autodesk,Inc. |WEB Address: www.autodesk.com
 90
    32897
280
     0
281
     0
  0
CLASS
  1
AEC_DISP_PROPS_WINDOW_ASSEMBLY_SILL_PLAN
  2
AecDbDispPropsWindowAssemblySillPlan
  3
AecArchBase50|Product Desc: Autodesk Architectural Desktop 2007 |Company: Autodesk,Inc. |WEB Address: www.autodesk.com
 90
    32897
280
     0
281
     0
  0
CLASS
  1
AEC_DISP_REP_WINDOW_ELEV
  2
AecDbDispRepWindowElev
  3
AecArchBase50|Product Desc: Autodesk Architectural Desktop 2007 |Company: Autodesk,Inc. |WEB Address: www.autodesk.com
 90
    32897
280
     0
281
     0
  0
CLASS
  1
AEC_DISP_REP_WINDOW_RCP
  2
AecDbDispRepWindowRcp
  3
AecArchBase50|Product Desc: Autodesk Architectural Desktop 2007 |Company: Autodesk,Inc. |WEB Address: www.autodesk.com
 90
    32897
280
     0
281
     0
  0
CLASS
  1
AEC_DISP_REP_WINDOW_SILL_PLAN
  2
AecDbDispRepWindowSillPlan
  3
AecArchBase50|Product Desc: Autodesk Architectural Desktop 2007 |Company: Autodesk,Inc. |WEB Address: www.autodesk.com
 90
    32897
280
     0
281
     0
  0
CLASS
  1
AEC_DISP_PROPS_WINDOW_SILL_PLAN
  2
AecDbDispPropsWindowSillPlan
  3
AecArchBase50|Product Desc: Autodesk Architectural Desktop 2007 |Company: Autodesk,Inc. |WEB Address: www.autodesk.com
 90
    32897
280
     0
281
     0
  0
CLASS
  1
AEC_DISP_REP_ANCHOR_BUB_TO_GRID_RCP
  2
AecDbDispRepAnchorBubToGridRcp
  3
AecStructureBase50|Product Desc: Autodesk Architectural Desktop 2007 |Company: Autodesk,Inc. |WEB Address: www.autodesk.com
 90
    32897
280
     0
281
     0
  0
CLASS
  1
AEC_DISP_REP_COLUMN_GRID_RCP
  2
AecDbDispRepColumnGridRcp
  3
AecStructureBase50|Product Desc: Autodesk Architectural Desktop 2007 |Company: Autodesk,Inc. |WEB Address: www.autodesk.com
 90
    32897
280
     0
281
     0
  0
CLASS
  1
AECS_DISP_REP_MEMBER_ELEVATION_DESIGN
  2
AecsDbDispRepMemberElevationDesign
  3
AecStructureBase50|Product Desc: Autodesk Architectural Desktop 2007 |Company: Autodesk,Inc. |WEB Address: www.autodesk.com
 90
    32897
280
     0
281
     0
  0
CLASS
  1
AECS_DISP_PROPS_MEMBER_PROJECTED
  2
AecsDbDispPropsMemberProjected
  3
AecStructureBase50|Product Desc: Autodesk Architectural Desktop 2007 |Company: Autodesk,Inc. |WEB Address: www.autodesk.com
 90
    32897
280
     0
281
     0
  0
CLASS
  1
AECS_DISP_REP_MEMBER_ELEVATION_DETAIL
  2
AecsDbDispRepMemberElevationDetail
  3
AecStructureBase50|Product Desc: Autodesk Architectural Desktop 2007 |Company: Autodesk,Inc. |WEB Address: www.autodesk.com
 90
    32897
280
     0
281
     0
  0
CLASS
  1
AECS_DISP_REP_MEMBER_MODEL_DETAIL
  2
AecsDbDispRepMemberModelDetail
  3
AecStructureBase50|Product Desc: Autodesk Architectural Desktop 2007 |Company: Autodesk,Inc. |WEB Address: www.autodesk.com
 90
    32897
280
     0
281
     0
  0
CLASS
  1
AECS_DISP_REP_MEMBER_PLAN_DETAIL
  2
AecsDbDispRepMemberPlanDetail
  3
AecStructureBase50|Product Desc: Autodesk Architectural Desktop 2007 |Company: Autodesk,Inc. |WEB Address: www.autodesk.com
 90
    32897
280
     0
281
     0
  0
CLASS
  1
AECS_DISP_REP_MEMBER_PLAN_SKETCH
  2
AecsDbDispRepMemberPlanSketch
  3
AecStructureBase50|Product Desc: Autodesk Architectural Desktop 2007 |Company: Autodesk,Inc. |WEB Address: www.autodesk.com
 90
    32897
280
     0
281
     0
  0
CLASS
  1
AECS_DISP_PROPS_MEMBER_PLAN_SKETCH
  2
AecsDbDispPropsMemberPlanSketch
  3
AecStructureBase50|Product Desc: Autodesk Architectural Desktop 2007 |Company: Autodesk,Inc. |WEB Address: www.autodesk.com
 90
    32897
280
     0
281
     0
  0
CLASS
  1
AEC_AECDBDISPREPAREA100
  2
AecDbDispRepArea100
  3
AecArchDACHBase50|Product Desc: Autodesk Architectural Desktop 2007 |Company: Autodesk,Inc. |WEB Address: www.autodesk.com
 90
    32897
280
     0
281
     0
  0
CLASS
  1
AEC_AECDBDISPREPAREAGROUP100
  2
AecDbDispRepAreaGroup100
  3
AecArchDACHBase50|Product Desc: Autodesk Architectural Desktop 2007 |Company: Autodesk,Inc. |WEB Address: www.autodesk.com
 90
    32897
280
     0
281
     0
  0
CLASS
  1
AEC_AECDBDISPREPBDGELEVLINEPLAN100
  2
AecDbDispRepBdgElevLinePlan100
  3
AecArchDACHBase50|Product Desc: Autodesk Architectural Desktop 2007 |Company: Autodesk,Inc. |WEB Address: www.autodesk.com
 90
    32897
280
     0
281
     0
  0
CLASS
  1
AEC_AECDBDISPREPBDGSECTIONLINEPLAN100
  2
AecDbDispRepBdgSectionLinePlan100
  3
AecArchDACHBase50|Product Desc: Autodesk Architectural Desktop 2007 |Company: Autodesk,Inc. |WEB Address: www.autodesk.com
 90
    32897
280
     0
281
     0
  0
CLASS
  1
AEC_AECDBDISPREPCEILINGGRIDPLAN100
  2
AecDbDispRepCeilingGridPlan100
  3
AecArchDACHBase50|Product Desc: Autodesk Architectural Desktop 2007 |Company: Autodesk,Inc. |WEB Address: www.autodesk.com
 90
    32897
280
     0
281
     0
  0
CLASS
  1
AEC_AECDBDISPREPCOLUMNGRIDPLAN100
  2
AecDbDispRepColumnGridPlan100
  3
AecArchDACHBase50|Product Desc: Autodesk Architectural Desktop 2007 |Company: Autodesk,Inc. |WEB Address: www.autodesk.com
 90
    32897
280
     0
281
     0
  0
CLASS
  1
AEC_AECDBDISPREPCURTAINWALLLAYOUTPLAN100
  2
AecDbDispRepCurtainWallLayoutPlan100
  3
AecArchDACHBase50|Product Desc: Autodesk Architectural Desktop 2007 |Company: Autodesk,Inc. |WEB Address: www.autodesk.com
 90
    32897
280
     0
281
     0
  0
CLASS
  1
AEC_AECDBDISPREPCURTAINWALLUNITPLAN100
  2
AecDbDispRepCurtainWallUnitPlan100
  3
AecArchDACHBase50|Product Desc: Autodesk Architectural Desktop 2007 |Company: Autodesk,Inc. |WEB Address: www.autodesk.com
 90
    32897
280
     0
281
     0
  0
CLASS
  1
AEC_AECDBDISPREPMVBLOCKREFPLAN100
  2
AecDbDispRepMvBlockRefPlan100
  3
AecArchDACHBase50|Product Desc: Autodesk Architectural Desktop 2007 |Company: Autodesk,Inc. |WEB Address: www.autodesk.com
 90
    32897
280
     0
281
     0
  0
CLASS
  1
AEC_AECDBDISPREPROOFPLAN100
  2
AecDbDispRepRoofPlan100
  3
AecArchDACHBase50|Product Desc: Autodesk Architectural Desktop 2007 |Company: Autodesk,Inc. |WEB Address: www.autodesk.com
 90
    32897
280
     0
281
     0
  0
CLASS
  1
AEC_AECDBDISPREPROOFSLABPLAN100
  2
AecDbDispRepRoofSlabPlan100
  3
AecArchDACHBase50|Product Desc: Autodesk Architectural Desktop 2007 |Company: Autodesk,Inc. |WEB Address: www.autodesk.com
 90
    32897
280
     0
281
     0
  0
CLASS
  1
AEC_AECDBDISPREPSLABPLAN100
  2
AecDbDispRepSlabPlan100
  3
AecArchDACHBase50|Product Desc: Autodesk Architectural Desktop 2007 |Company: Autodesk,Inc. |WEB Address: www.autodesk.com
 90
    32897
280
     0
281
     0
  0
CLASS
  1
AEC_AECDBDISPREPSPACEBOUNDARYPLAN100
  2
AecDbDispRepSpaceBoundaryPlan100
  3
AecArchDACHBase50|Product Desc: Autodesk Architectural Desktop 2007 |Company: Autodesk,Inc. |WEB Address: www.autodesk.com
 90
    32897
280
     0
281
     0
  0
CLASS
  1
AEC_AECDBDISPREPSPACEPLAN100
  2
AecDbDispRepSpacePlan100
  3
AecArchDACHBase50|Product Desc: Autodesk Architectural Desktop 2007 |Company: Autodesk,Inc. |WEB Address: www.autodesk.com
 90
    32897
280
     0
281
     0
  0
CLASS
  1
AEC_AECDBDISPREPWALLPLAN100
  2
AecDbDispRepWallPlan100
  3
AecArchDACHBase50|Product Desc: Autodesk Architectural Desktop 2007 |Company: Autodesk,Inc. |WEB Address: www.autodesk.com
 90
    32897
280
     0
281
     0
  0
CLASS
  1
AEC_AECDBDISPREPAREA50
  2
AecDbDispRepArea50
  3
AecArchDACHBase50|Product Desc: Autodesk Architectural Desktop 2007 |Company: Autodesk,Inc. |WEB Address: www.autodesk.com
 90
    32897
280
     0
281
     0
  0
CLASS
  1
AEC_AECDBDISPREPAREAGROUP50
  2
AecDbDispRepAreaGroup50
  3
AecArchDACHBase50|Product Desc: Autodesk Architectural Desktop 2007 |Company: Autodesk,Inc. |WEB Address: www.autodesk.com
 90
    32897
280
     0
281
     0
  0
CLASS
  1
AEC_AECDBDISPREPBDGELEVLINEPLAN50
  2
AecDbDispRepBdgElevLinePlan50
  3
AecArchDACHBase50|Product Desc: Autodesk Architectural Desktop 2007 |Company: Autodesk,Inc. |WEB Address: www.autodesk.com
 90
    32897
280
     0
281
     0
  0
CLASS
  1
AEC_AECDBDISPREPBDGSECTIONLINEPLAN50
  2
AecDbDispRepBdgSectionLinePlan50
  3
AecArchDACHBase50|Product Desc: Autodesk Architectural Desktop 2007 |Company: Autodesk,Inc. |WEB Address: www.autodesk.com
 90
    32897
280
     0
281
     0
  0
CLASS
  1
AEC_AECDBDISPREPCEILINGGRIDPLAN50
  2
AecDbDispRepCeilingGridPlan50
  3
AecArchDACHBase50|Product Desc: Autodesk Architectural Desktop 2007 |Company: Autodesk,Inc. |WEB Address: www.autodesk.com
 90
    32897
280
     0
281
     0
  0
CLASS
  1
AEC_AECDBDISPREPCOLUMNGRIDPLAN50
  2
AecDbDispRepColumnGridPlan50
  3
AecArchDACHBase50|Product Desc: Autodesk Architectural Desktop 2007 |Company: Autodesk,Inc. |WEB Address: www.autodesk.com
 90
    32897
280
     0
281
     0
  0
CLASS
  1
AEC_AECDBDISPREPCURTAINWALLLAYOUTPLAN50
  2
AecDbDispRepCurtainWallLayoutPlan50
  3
AecArchDACHBase50|Product Desc: Autodesk Architectural Desktop 2007 |Company: Autodesk,Inc. |WEB Address: www.autodesk.com
 90
    32897
280
     0
281
     0
  0
CLASS
  1
AEC_AECDBDISPREPCURTAINWALLUNITPLAN50
  2
AecDbDispRepCurtainWallUnitPlan50
  3
AecArchDACHBase50|Product Desc: Autodesk Architectural Desktop 2007 |Company: Autodesk,Inc. |WEB Address: www.autodesk.com
 90
    32897
280
     0
281
     0
  0
CLASS
  1
AEC_AECDBDISPREPMVBLOCKREFPLAN50
  2
AecDbDispRepMvBlockRefPlan50
  3
AecArchDACHBase50|Product Desc: Autodesk Architectural Desktop 2007 |Company: Autodesk,Inc. |WEB Address: www.autodesk.com
 90
    32897
280
     0
281
     0
  0
CLASS
  1
AEC_AECDBDISPREPROOFPLAN50
  2
AecDbDispRepRoofPlan50
  3
AecArchDACHBase50|Product Desc: Autodesk Architectural Desktop 2007 |Company: Autodesk,Inc. |WEB Address: www.autodesk.com
 90
    32897
280
     0
281
     0
  0
CLASS
  1
AEC_AECDBDISPREPROOFSLABPLAN50
  2
AecDbDispRepRoofSlabPlan50
  3
AecArchDACHBase50|Product Desc: Autodesk Architectural Desktop 2007 |Company: Autodesk,Inc. |WEB Address: www.autodesk.com
 90
    32897
280
     0
281
     0
  0
CLASS
  1
AEC_AECDBDISPREPSLABPLAN50
  2
AecDbDispRepSlabPlan50
  3
AecArchDACHBase50|Product Desc: Autodesk Architectural Desktop 2007 |Company: Autodesk,Inc. |WEB Address: www.autodesk.com
 90
    32897
280
     0
281
     0
  0
CLASS
  1
AEC_AECDBDISPREPSPACEBOUNDARYPLAN50
  2
AecDbDispRepSpaceBoundaryPlan50
  3
AecArchDACHBase50|Product Desc: Autodesk Architectural Desktop 2007 |Company: Autodesk,Inc. |WEB Address: www.autodesk.com
 90
    32897
280
     0
281
     0
  0
CLASS
  1
AEC_AECDBDISPREPSPACEPLAN50
  2
AecDbDispRepSpacePlan50
  3
AecArchDACHBase50|Product Desc: Autodesk Architectural Desktop 2007 |Company: Autodesk,Inc. |WEB Address: www.autodesk.com
 90
    32897
280
     0
281
     0
  0
CLASS
  1
AEC_AECDBDISPREPWALLPLAN50
  2
AecDbDispRepWallPlan50
  3
AecArchDACHBase50|Product Desc: Autodesk Architectural Desktop 2007 |Company: Autodesk,Inc. |WEB Address: www.autodesk.com
 90
    32897
280
     0
281
     0
  0
CLASS
  1
AEC_AECDBDISPREPWINDOWASSEMBLYPLAN50
  2
AecDbDispRepWindowAssemblyPlan50
  3
AecArchDACHBase50|Product Desc: Autodesk Architectural Desktop 2007 |Company: Autodesk,Inc. |WEB Address: www.autodesk.com
 90
    32897
280
     0
281
     0
  0
CLASS
  1
AEC_DB_DISP_REP_DIM_GROUP_PLAN100
  2
AecDbDispRepDimGroupPlan100
  3
AecArchDACHBase50|Product Desc: Autodesk Architectural Desktop 2007 |Company: Autodesk,Inc. |WEB Address: www.autodesk.com
 90
    32897
280
     0
281
     0
  0
CLASS
  1
AEC_DB_DISP_REP_DIM_GROUP_PLAN50
  2
AecDbDispRepDimGroupPlan50
  3
AecArchDACHBase50|Product Desc: Autodesk Architectural Desktop 2007 |Company: Autodesk,Inc. |WEB Address: www.autodesk.com
 90
    32897
280
     0
281
     0
  0
CLASS
  1
AEC_DISP_REP_DOOR_PLAN_50
  2
AecDbDispRepDoorPlan50
  3
AecArchDACHBase50|Product Desc: Autodesk Architectural Desktop 2007 |Company: Autodesk,Inc. |WEB Address: www.autodesk.com
 90
    32897
280
     0
281
     0
  0
CLASS
  1
AEC_DISP_PROPS_DOOR_PLAN_50
  2
AecDbDispPropsDoorPlan50
  3
AecArchDACHBase50|Product Desc: Autodesk Architectural Desktop 2007 |Company: Autodesk,Inc. |WEB Address: www.autodesk.com
 90
    32897
280
     0
281
     0
  0
CLASS
  1
AEC_DISP_REP_DOOR_PLAN_HEKTO
  2
AecDbDispRepDoorPlanHekto
  3
AecArchDACHBase50|Product Desc: Autodesk Architectural Desktop 2007 |Company: Autodesk,Inc. |WEB Address: www.autodesk.com
 90
    32897
280
     0
281
     0
  0
CLASS
  1
AEC_DISP_PROPS_DOOR_PLAN_100
  2
AecDbDispPropsDoorPlan100
  3
AecArchDACHBase50|Product Desc: Autodesk Architectural Desktop 2007 |Company: Autodesk,Inc. |WEB Address: www.autodesk.com
 90
    32897
280
     0
281
     0
  0
CLASS
  1
AEC_DISP_REP_DOOR_THRESHOLD_SYMBOL_PLAN
  2
AecDbDispRepDoorThresholdSymbolPlan
  3
AecArchDACHBase50|Product Desc: Autodesk Architectural Desktop 2007 |Company: Autodesk,Inc. |WEB Address: www.autodesk.com
 90
    32897
280
     0
281
     0
  0
CLASS
  1
AEC_DISP_PROPS_DOOR_THRESHOLD_SYMBOL_PLAN
  2
AecDbDispPropsDoorThresholdSymbolPlan
  3
AecArchDACHBase50|Product Desc: Autodesk Architectural Desktop 2007 |Company: Autodesk,Inc. |WEB Address: www.autodesk.com
 90
    32897
280
     0
281
     0
  0
CLASS
  1
AEC_DISPREPAECDBDISPREPMASSELEMPLAN100
  2
AecDbDispRepMassElemPlan100
  3
AecArchDACHBase50|Product Desc: Autodesk Architectural Desktop 2007 |Company: Autodesk,Inc. |WEB Address: www.autodesk.com
 90
    32897
280
     0
281
     0
  0
CLASS
  1
AEC_DISPROPSMASSELEMPLANCOMMON
  2
AecDbDispPropsMassElemPlanCommon
  3
AecArchDACHBase50|Product Desc: Autodesk Architectural Desktop 2007 |Company: Autodesk,Inc. |WEB Address: www.autodesk.com
 90
    32897
280
     0
281
     0
  0
CLASS
  1
AEC_DISPREPAECDBDISPREPMASSELEMPLAN50
  2
AecDbDispRepMassElemPlan50
  3
AecArchDACHBase50|Product Desc: Autodesk Architectural Desktop 2007 |Company: Autodesk,Inc. |WEB Address: www.autodesk.com
 90
    32897
280
     0
281
     0
  0
CLASS
  1
AEC_DISPREPAECDBDISPREPMASSGROUPPLAN100
  2
AecDbDispRepMassGroupPlan100
  3
AecArchDACHBase50|Product Desc: Autodesk Architectural Desktop 2007 |Company: Autodesk,Inc. |WEB Address: www.autodesk.com
 90
    32897
280
     0
281
     0
  0
CLASS
  1
AEC_DISPROPSMASSGROUPPLANCOMMON
  2
AecDbDispPropsMassGroupPlanCommon
  3
AecArchDACHBase50|Product Desc: Autodesk Architectural Desktop 2007 |Company: Autodesk,Inc. |WEB Address: www.autodesk.com
 90
    32897
280
     0
281
     0
  0
CLASS
  1
AEC_DISPREPAECDBDISPREPMASSGROUPPLAN50
  2
AecDbDispRepMassGroupPlan50
  3
AecArchDACHBase50|Product Desc: Autodesk Architectural Desktop 2007 |Company: Autodesk,Inc. |WEB Address: www.autodesk.com
 90
    32897
280
     0
281
     0
  0
CLASS
  1
AEC_DISPREPAECDBDISPREPOPENINGPLAN100
  2
AecDbDispRepOpeningPlan100
  3
AecArchDACHBase50|Product Desc: Autodesk Architectural Desktop 2007 |Company: Autodesk,Inc. |WEB Address: www.autodesk.com
 90
    32897
280
     0
281
     0
  0
CLASS
  1
AEC_DISPROPSOPENINGPLANCOMMONHATCHED
  2
AecDbDispPropsOpeningPlanCommonHatched
  3
AecArchDACHBase50|Product Desc: Autodesk Architectural Desktop 2007 |Company: Autodesk,Inc. |WEB Address: www.autodesk.com
 90
    32897
280
     0
281
     0
  0
CLASS
  1
AEC_DISPREPAECDBDISPREPOPENINGPLAN50
  2
AecDbDispRepOpeningPlan50
  3
AecArchDACHBase50|Product Desc: Autodesk Architectural Desktop 2007 |Company: Autodesk,Inc. |WEB Address: www.autodesk.com
 90
    32897
280
     0
281
     0
  0
CLASS
  1
AEC_DISPREPAECDBDISPREPOPENINGPLANREFLECTED
  2
AecDbDispRepOpeningPlanReflected
  3
AecArchDACHBase50|Product Desc: Autodesk Architectural Desktop 2007 |Company: Autodesk,Inc. |WEB Address: www.autodesk.com
 90
    32897
280
     0
281
     0
  0
CLASS
  1
AEC_DISPROPSOPENINGPLANCOMMON
  2
AecDbDispPropsOpeningPlanCommon
  3
AecArchDACHBase50|Product Desc: Autodesk Architectural Desktop 2007 |Company: Autodesk,Inc. |WEB Address: www.autodesk.com
 90
    32897
280
     0
281
     0
  0
CLASS
  1
AEC_DISPREPAECDBDISPREPOPENINGSILLPLAN
  2
AecDbDispRepOpeningSillPlan
  3
AecArchDACHBase50|Product Desc: Autodesk Architectural Desktop 2007 |Company: Autodesk,Inc. |WEB Address: www.autodesk.com
 90
    32897
280
     0
281
     0
  0
CLASS
  1
AEC_DISPROPSOPENINGSILLPLAN
  2
AecDbDispPropsOpeningSillPlan
  3
AecArchDACHBase50|Product Desc: Autodesk Architectural Desktop 2007 |Company: Autodesk,Inc. |WEB Address: www.autodesk.com
 90
    32897
280
     0
281
     0
  0
CLASS
  1
AEC_DISP_REP_RAILING_PLAN_100
  2
AecDbDispRepRailingPlan100
  3
AecArchDACHBase50|Product Desc: Autodesk Architectural Desktop 2007 |Company: Autodesk,Inc. |WEB Address: www.autodesk.com
 90
    32897
280
     0
281
     0
  0
CLASS
  1
AEC_DISP_ROPS_RAILING_PLAN_100
  2
AecDbDispPropsRailingPlan100
  3
AecArchDACHBase50|Product Desc: Autodesk Architectural Desktop 2007 |Company: Autodesk,Inc. |WEB Address: www.autodesk.com
 90
    32897
280
     0
281
     0
  0
CLASS
  1
AEC_DISP_REP_RAILING_PLAN_50
  2
AecDbDispRepRailingPlan50
  3
AecArchDACHBase50|Product Desc: Autodesk Architectural Desktop 2007 |Company: Autodesk,Inc. |WEB Address: www.autodesk.com
 90
    32897
280
     0
281
     0
  0
CLASS
  1
AEC_DISP_ROPS_RAILING_PLAN_50
  2
AecDbDispPropsRailingPlan50
  3
AecArchDACHBase50|Product Desc: Autodesk Architectural Desktop 2007 |Company: Autodesk,Inc. |WEB Address: www.autodesk.com
 90
    32897
280
     0
281
     0
  0
CLASS
  1
AEC_DISP_REP_STAIR_PLAN_100
  2
AecDbDispRepStairPlan100
  3
AecArchDACHBase50|Product Desc: Autodesk Architectural Desktop 2007 |Company: Autodesk,Inc. |WEB Address: www.autodesk.com
 90
    32897
280
     0
281
     0
  0
CLASS
  1
AEC_DISP_ROPS_STAIR_PLAN_100
  2
AecDbDispPropsStairPlan100
  3
AecArchDACHBase50|Product Desc: Autodesk Architectural Desktop 2007 |Company: Autodesk,Inc. |WEB Address: www.autodesk.com
 90
    32897
280
     0
281
     0
  0
CLASS
  1
AEC_DISP_REP_STAIR_PLAN_50
  2
AecDbDispRepStairPlan50
  3
AecArchDACHBase50|Product Desc: Autodesk Architectural Desktop 2007 |Company: Autodesk,Inc. |WEB Address: www.autodesk.com
 90
    32897
280
     0
281
     0
  0
CLASS
  1
AEC_DISP_ROPS_STAIR_PLAN_50
  2
AecDbDispPropsStairPlan50
  3
AecArchDACHBase50|Product Desc: Autodesk Architectural Desktop 2007 |Company: Autodesk,Inc. |WEB Address: www.autodesk.com
 90
    32897
280
     0
281
     0
  0
CLASS
  1
AEC_DISP_REP_WINDOW_PLAN_100
  2
AecDbDispRepWindowPlan100
  3
AecArchDACHBase50|Product Desc: Autodesk Architectural Desktop 2007 |Company: Autodesk,Inc. |WEB Address: www.autodesk.com
 90
    32897
280
     0
281
     0
  0
CLASS
  1
AEC_DISP_PROPS_WINDOW_PLAN_100
  2
AecDbDispPropsWindowPlan100
  3
AecArchDACHBase50|Product Desc: Autodesk Architectural Desktop 2007 |Company: Autodesk,Inc. |WEB Address: www.autodesk.com
 90
    32897
280
     0
281
     0
  0
CLASS
  1
AEC_DISP_REP_WINDOW_PLAN_50
  2
AecDbDispRepWindowPlan50
  3
AecArchDACHBase50|Product Desc: Autodesk Architectural Desktop 2007 |Company: Autodesk,Inc. |WEB Address: www.autodesk.com
 90
    32897
280
     0
281
     0
  0
CLASS
  1
AEC_DISP_PROPS_WINDOW_PLAN_50
  2
AecDbDispPropsWindowPlan50
  3
AecArchDACHBase50|Product Desc: Autodesk Architectural Desktop 2007 |Company: Autodesk,Inc. |WEB Address: www.autodesk.com
 90
    32897
280
     0
281
     0
  0
CLASS
  1
BINRECORD
  2
AcAecBinRecord
  3
AecBase50|Product Desc: Autodesk Architectural Desktop 2007 |Company: Autodesk,Inc. |WEB Address: www.autodesk.com
 90
    32897
280
     0
281
     0
  0
CLASS
  1
SPATIAL_FILTER
  2
AcDbSpatialFilter
  3
ObjectDBX Classes
 90
    32768
280
     0
281
     0
  0
CLASS
  1
AEC_VARS_STRUCTUREBASE
  2
AecsDbVarsStructureBase
  3
AecStructureBase50|Product Desc: Autodesk Architectural Desktop 2007 |Company: Autodesk,Inc. |WEB Address: www.autodesk.com
 90
    32897
280
     0
281
     0
  0
CLASS
  1
DIMASSOC
  2
AcDbDimAssoc
  3
"AcDbDimAssoc|Product Desc:     AcDim ARX App For Dimension|Company:          Autodesk, Inc.|WEB Address:      www.autodesk.com"
 90
        0
280
     0
281
     0
  0
CLASS
  1
TABLESTYLE
  2
AcDbTableStyle
  3
ObjectDBX Classes
 90
     4095
280
     0
281
     0
  0
CLASS
  1
MATERIAL
  2
AcDbMaterial
  3
ObjectDBX Classes
 90
     1153
280
     0
281
     0
  0
CLASS
  1
VISUALSTYLE
  2
AcDbVisualStyle
  3
ObjectDBX Classes
 90
     4095
280
     0
281
     0
  0
CLASS
  1
SCALE
  2
AcDbScale
  3
ObjectDBX Classes
 90
     1153
280
     0
281
     0
  0
CLASS
  1
MLEADERSTYLE
  2
AcDbMLeaderStyle
  3
ACDB_MLEADERSTYLE_CLASS
 90
     4095
280
     0
281
     0
  0
CLASS
  1
CELLSTYLEMAP
  2
AcDbCellStyleMap
  3
ObjectDBX Classes
 90
     1152
280
     0
281
     0
  0
ENDSEC
  0
SECTION
  2
TABLES
  0
TABLE
  2
VPORT
  5
28
330
0
100
AcDbSymbolTable
 70
     1
  0
VPORT
  5
29
330
28
100
AcDbSymbolTableRecord
100
AcDbViewportTableRecord
  2
*Active
 70
     0
 10
0.0
 20
0.0
 11
1.0
 21
1.0
 12
221721.7622728775
 22
133078.0381078095
 13
0.0
 23
0.0
 14
10.0
 24
10.0
 15
10.0
 25
10.0
 16
0.0
 26
0.0
 36
1.0
 17
0.0
 27
0.0
 37
0.0
 40
24737.87285410607
 41
1.561333333333333
 42
50.0
 43
0.0
 44
0.0
 50
0.0
 51
0.0
 71
     0
 72
  1000
 73
     1
 74
     1
 75
     0
 76
     0
 77
     0
 78
     0
281
     0
 65
     1
110
0.0
120
0.0
130
0.0
111
1.0
121
0.0
131
0.0
112
0.0
122
1.0
132
0.0
 79
     0
146
0.0
  0
ENDTAB
  0
TABLE
  2
LTYPE
  5
23
330
0
100
AcDbSymbolTable
 70
     3
  0
LTYPE
  5
24
330
23
100
AcDbSymbolTableRecord
100
AcDbLinetypeTableRecord
  2
ByBlock
 70
     0
  3

 72
    65
 73
     0
 40
0.0
  0
LTYPE
  5
25
330
23
100
AcDbSymbolTableRecord
100
AcDbLinetypeTableRecord
  2
ByLayer
 70
     0
  3

 72
    65
 73
     0
 40
0.0
  0
LTYPE
  5
11
330
23
100
AcDbSymbolTableRecord
100
AcDbLinetypeTableRecord
  2
Continuous
 70
     0
  3
Solid line
 72
    65
 73
     0
 40
0.0
  0
LTYPE
  5
83
330
23
100
AcDbSymbolTableRecord
100
AcDbLinetypeTableRecord
  2
HIDDEN
 70
     0
  3
Hidden __ __ __ __ __ __ __ __ __ __ __ __ __ _
 72
    65
 73
     2
 40
0.375
 49
0.25
 74
     0
 49
-0.125
 74
     0
  0
ENDTAB
  0
TABLE
  2
LAYER
  5
1D
102
{ACAD_XDICTIONARY
360
1E
102
}
330
0
100
AcDbSymbolTable
 70
    10
  0
LAYER
  5
4
102
{ACAD_XDICTIONARY
360
2C9
102
}
330
1D
100
AcDbSymbolTableRecord
100
AcDbLayerTableRecord
  2
0
 70
     0
 62
     7
  6
Continuous
370
    -3
390
5
1001
RAK
1000
{ACET-LAYISO
1070
     0
1070
     7
1000
Continuous
1071
       -3
1071
        1
1005
5
1000
ACET-LAYISO}
  0
LAYER
  5
4F
102
{ACAD_XDICTIONARY
360
2CF
102
}
330
1D
100
AcDbSymbolTableRecord
100
AcDbLayerTableRecord
  2
WYMIARY
 70
     0
 62
     1
  6
Continuous
370
    -3
390
5
1001
RAK
1000
{ACET-LAYISO
1070
     0
1070
     1
1000
Continuous
1071
       -3
1071
        1
1005
5
1000
ACET-LAYISO}
  0
LAYER
  5
10D
330
1D
100
AcDbSymbolTableRecord
100
AcDbLayerTableRecord
  2
DEFPOINTS
 70
     0
 62
     7
  6
Continuous
290
     0
370
    -3
390
5
1001
RAK
1000
{ACET-LAYISO
1070
     0
1070
     7
1000
Continuous
1071
       -3
1071
        0
1005
5
1000
ACET-LAYISO}
  0
LAYER
  5
89
102
{ACAD_XDICTIONARY
360
2D1
102
}
330
1D
100
AcDbSymbolTableRecord
100
AcDbLayerTableRecord
  2
RAMKI-A4
 70
     0
 62
     2
  6
Continuous
290
     0
370
    -3
390
5
1001
RAK
1000
{ACET-LAYISO
1070
     0
1070
     2
1000
Continuous
1071
       -3
1071
        0
1005
5
1000
ACET-LAYISO}
  0
LAYER
  5
76
102
{ACAD_XDICTIONARY
360
2D5
102
}
330
1D
100
AcDbSymbolTableRecord
100
AcDbLayerTableRecord
  2
NAPISY
 70
     0
 62
   140
  6
Continuous
370
    -3
390
5
1001
RAK
1000
{ACET-LAYISO
1070
     0
1070
   140
1000
Continuous
1071
       -3
1071
        1
1005
5
1000
ACET-LAYISO}
  0
LAYER
  5
38D
102
{ACAD_XDICTIONARY
360
38E
102
}
330
1D
100
AcDbSymbolTableRecord
100
AcDbLayerTableRecord
  2
0Wymiary-PL
 70
     0
 62
     1
  6
Continuous
370
    -3
390
5
1001
RAK
1000
{ACET-LAYISO
1070
     0
1070
     1
1000
Continuous
1071
       -3
1071
        1
1005
5
1000
ACET-LAYISO}
  0
LAYER
  5
38F
102
{ACAD_XDICTIONARY
360
390
102
}
330
1D
100
AcDbSymbolTableRecord
100
AcDbLayerTableRecord
  2
0Hatch
 70
     0
 62
   122
  6
Continuous
370
     5
390
5
  0
ENDTAB
  0
TABLE
  2
STYLE
  5
20
330
0
100
AcDbSymbolTable
 70
     5
  0
STYLE
  5
21
330
20
100
AcDbSymbolTableRecord
100
AcDbTextStyleTableRecord
  2
Standard
 70
     0
 40
0.0
 41
1.0
 50
0.0
 71
     0
 42
2.5
  3
txt
  4

  0
STYLE
  5
2E
330
20
100
AcDbSymbolTableRecord
100
AcDbTextStyleTableRecord
  2
ROMANS
 70
     0
 40
0.0
 41
0.9
 50
0.0
 71
     0
 42
20.0
  3
romans.shx
  4

  0
STYLE
  5
77
330
20
100
AcDbSymbolTableRecord
100
AcDbTextStyleTableRecord
  2
AVA
 70
     0
 40
0.0
 41
1.0
 50
0.0
 71
     0
 42
158.5644099714409
  3
ARIAL.TTF
  4

1001
ACAD
1000
Arial CE
1071
    60962
  0
STYLE
  5
391
330
20
100
AcDbSymbolTableRecord
100
AcDbTextStyleTableRecord
  2
ARIAL
 70
     0
 40
0.0
 41
1.0
 50
0.0
 71
     0
 42
15.0
  3
ARIAL.TTF
  4

1001
ACAD
1000
Arial CE
1071
    60962
  0
ENDTAB
  0
TABLE
  2
VIEW
  5
26
330
0
100
AcDbSymbolTable
 70
     1
  0
VIEW
  5
16
330
26
100
AcDbSymbolTableRecord
100
AcDbViewTableRecord
  2
RODODENDRON 5
 70
     0
 40
14020.0
 10
220287.1664355166
 20
148687.514558954
 41
10200.00000000003
 11
0.0
 21
0.0
 31
1.0
 12
0.0
 22
0.0
 32
0.0
 42
50.0
 43
0.0
 44
0.0
 50
0.0
 71
     0
281
     0
 72
     1
110
0.0
120
0.0
130
0.0
111
1.0
121
0.0
131
0.0
112
0.0
122
1.0
132
0.0
 79
     0
146
0.0
  0
ENDTAB
  0
TABLE
  2
UCS
  5
27
330
0
100
AcDbSymbolTable
 70
     0
  0
ENDTAB
  0
TABLE
  2
APPID
  5
2A
330
0
100
AcDbSymbolTable
 70
     4
  0
APPID
  5
2B
330
2A
100
AcDbSymbolTableRecord
100
AcDbRegAppTableRecord
  2
ACAD
 70
     0
  0
APPID
  5
12
330
2A
100
AcDbSymbolTableRecord
100
AcDbRegAppTableRecord
  2
RAK
 70
     0
  0
APPID
  5
2C0
330
2A
100
AcDbSymbolTableRecord
100
AcDbRegAppTableRecord
  2
ACAD_MLEADERVER
 70
     0
  0
APPID
  5
393
330
2A
100
AcDbSymbolTableRecord
100
AcDbRegAppTableRecord
  2
ACAD_PSEXT
 70
     0
  0
ENDTAB
  0
TABLE
  2
DIMSTYLE
  5
2C
330
0
100
AcDbSymbolTable
 70
     4
100
AcDbDimStyleTable
 71
     2
340
2D
340
37
  0
DIMSTYLE
105
2D
102
{ACAD_REACTORS
330
11C
330
129
330
111
330
105
330
22D
330
222
330
215
330
20A
330
190
330
185
330
17A
330
13F
330
134
330
16F
330
162
330
157
330
14A
330
1B9
330
1AE
330
1A3
330
1FF
330
1F4
330
1E7
330
1DC
330
1CF
330
1C4
102
}
330
2C
100
AcDbSymbolTableRecord
100
AcDbDimStyleTableRecord
  2
500
 70
     0
 41
30.0
 42
43.0
 43
0.0
 44
13.0
 45
0.5
 46
12.0
 73
     0
 74
     0
 75
     1
 76
     1
 78
    12
140
80.0
141
0.0
145
1.0
147
0.0
172
     1
174
     1
176
     1
177
     1
178
    10
271
     1
272
     1
279
     2
340
2E
341
2F
342
2F
  0
DIMSTYLE
105
37
330
2C
100
AcDbSymbolTableRecord
100
AcDbDimStyleTableRecord
  2
Standard
 70
     0
340
21
  0
ENDTAB
  0
TABLE
  2
BLOCK_RECORD
  5
1
330
0
100
AcDbSymbolTable
 70
    89
  0
BLOCK_RECORD
  5
2
330
1
100
AcDbSymbolTableRecord
100
AcDbBlockTableRecord
  2
*Model_Space
340
14
  0
BLOCK_RECORD
  5
19
330
1
100
AcDbSymbolTableRecord
100
AcDbBlockTableRecord
  2
*Paper_Space
340
1C
  0
BLOCK_RECORD
  5
2F
102
{ACAD_XDICTIONARY
360
30
102
}
330
1
100
AcDbSymbolTableRecord
100
AcDbBlockTableRecord
  2
B-DIM
340
0
102
{BLKREFS
331
168
331
169
331
15B
331
15C
331
150
331
151
331
173
331
174
331
194
331
195
331
189
331
18A
331
17E
331
17F
331
138
331
139
331
143
331
144
331
109
331
10A
331
115
331
116
331
12D
331
12E
331
122
331
123
331
231
331
232
331
226
331
227
331
21B
331
21C
331
20E
331
20F
331
203
331
204
331
1F8
331
1F9
331
1ED
331
1EE
331
1E0
331
1E1
331
1D5
331
1D6
331
1C8
331
1C9
331
1BD
331
1BE
331
1B2
331
1B3
331
1A7
331
1A8
331
2EB
331
2EC
331
2F5
331
2F6
331
2FF
331
300
331
309
331
30A
331
315
331
316
331
31F
331
320
331
329
331
32A
331
333
331
334
331
33D
331
33E
331
347
331
348
331
351
331
352
331
35B
331
35C
331
367
331
368
331
371
331
372
331
37B
331
37C
331
385
331
386
331
543
331
544
331
54D
331
54E
331
559
331
55A
331
563
331
564
331
56F
331
570
331
579
331
57A
331
583
331
584
331
58D
331
58E
331
599
331
59A
331
5A3
331
5A4
331
5AF
331
5B0
331
5B9
331
5BA
331
5C5
331
5C6
331
5CF
331
5D0
331
5D9
331
5DA
331
5E3
331
5E4
331
78B
331
78C
331
799
331
79A
331
7A0
331
7A1
331
7A7
331
7A8
331
7AE
331
7AF
331
7B5
331
7B6
331
7BE
331
7BF
331
7C5
331
7C6
331
7E1
331
7E2
331
7E8
331
7E9
331
7EF
331
7F0
331
7F6
331
7F7
331
7FD
331
7FE
331
804
331
805
331
80D
331
80E
331
814
331
815
331
81D
331
81E
331
824
331
825
331
82B
331
82C
331
832
331
833
331
839
331
83A
331
840
331
841
331
849
331
84A
331
850
331
851
331
859
331
85A
331
860
331
861
102
}
  0
BLOCK_RECORD
  5
5EB
330
1
100
AcDbSymbolTableRecord
100
AcDbBlockTableRecord
  2
*D62
340
0
  0
BLOCK_RECORD
  5
5F5
330
1
100
AcDbSymbolTableRecord
100
AcDbBlockTableRecord
  2
*D63
340
0
  0
BLOCK_RECORD
  5
5FF
330
1
100
AcDbSymbolTableRecord
100
AcDbBlockTableRecord
  2
*D64
340
0
  0
BLOCK_RECORD
  5
609
330
1
100
AcDbSymbolTableRecord
100
AcDbBlockTableRecord
  2
*D65
340
0
  0
BLOCK_RECORD
  5
613
330
1
100
AcDbSymbolTableRecord
100
AcDbBlockTableRecord
  2
*D66
340
0
  0
BLOCK_RECORD
  5
61F
330
1
100
AcDbSymbolTableRecord
100
AcDbBlockTableRecord
  2
*D67
340
0
  0
BLOCK_RECORD
  5
629
330
1
100
AcDbSymbolTableRecord
100
AcDbBlockTableRecord
  2
*D68
340
0
  0
BLOCK_RECORD
  5
635
330
1
100
AcDbSymbolTableRecord
100
AcDbBlockTableRecord
  2
*D69
340
0
  0
BLOCK_RECORD
  5
63F
330
1
100
AcDbSymbolTableRecord
100
AcDbBlockTableRecord
  2
*D70
340
0
  0
BLOCK_RECORD
  5
649
330
1
100
AcDbSymbolTableRecord
100
AcDbBlockTableRecord
  2
*D71
340
0
  0
BLOCK_RECORD
  5
653
330
1
100
AcDbSymbolTableRecord
100
AcDbBlockTableRecord
  2
*D72
340
0
  0
BLOCK_RECORD
  5
65F
330
1
100
AcDbSymbolTableRecord
100
AcDbBlockTableRecord
  2
*D73
340
0
  0
BLOCK_RECORD
  5
669
330
1
100
AcDbSymbolTableRecord
100
AcDbBlockTableRecord
  2
*D74
340
0
  0
BLOCK_RECORD
  5
698
330
1
100
AcDbSymbolTableRecord
100
AcDbBlockTableRecord
  2
*D75
340
0
  0
BLOCK_RECORD
  5
6A2
330
1
100
AcDbSymbolTableRecord
100
AcDbBlockTableRecord
  2
*D76
340
0
  0
BLOCK_RECORD
  5
6AC
330
1
100
AcDbSymbolTableRecord
100
AcDbBlockTableRecord
  2
*D77
340
0
  0
BLOCK_RECORD
  5
6B8
330
1
100
AcDbSymbolTableRecord
100
AcDbBlockTableRecord
  2
*D78
340
0
  0
BLOCK_RECORD
  5
6C2
330
1
100
AcDbSymbolTableRecord
100
AcDbBlockTableRecord
  2
*D79
340
0
  0
BLOCK_RECORD
  5
6CC
330
1
100
AcDbSymbolTableRecord
100
AcDbBlockTableRecord
  2
*D80
340
0
  0
BLOCK_RECORD
  5
6D6
330
1
100
AcDbSymbolTableRecord
100
AcDbBlockTableRecord
  2
*D81
340
0
  0
BLOCK_RECORD
  5
6E2
330
1
100
AcDbSymbolTableRecord
100
AcDbBlockTableRecord
  2
*D82
340
0
  0
BLOCK_RECORD
  5
6EC
330
1
100
AcDbSymbolTableRecord
100
AcDbBlockTableRecord
  2
*D83
340
0
  0
BLOCK_RECORD
  5
6F8
330
1
100
AcDbSymbolTableRecord
100
AcDbBlockTableRecord
  2
*D84
340
0
  0
BLOCK_RECORD
  5
702
330
1
100
AcDbSymbolTableRecord
100
AcDbBlockTableRecord
  2
*D85
340
0
  0
BLOCK_RECORD
  5
70C
330
1
100
AcDbSymbolTableRecord
100
AcDbBlockTableRecord
  2
*D86
340
0
  0
BLOCK_RECORD
  5
716
330
1
100
AcDbSymbolTableRecord
100
AcDbBlockTableRecord
  2
*D87
340
0
  0
ENDTAB
  0
ENDSEC
  0
SECTION
  2
BLOCKS
  0
BLOCK
  5
3
330
2
100
AcDbEntity
  8
0
100
AcDbBlockBegin
  2
*Model_Space
 70
     0
 10
0.0
 20
0.0
 30
0.0
  3
*Model_Space
  1

  0
ENDBLK
  5
13
330
2
100
AcDbEntity
  8
0
100
AcDbBlockEnd
  0
BLOCK
  5
1A
330
19
100
AcDbEntity
 67
     1
  8
0
100
AcDbBlockBegin
  2
*Paper_Space
 70
     0
 10
0.0
 20
0.0
 30
0.0
  3
*Paper_Space
  1

  0
ENDBLK
  5
1B
330
19
100
AcDbEntity
 67
     1
  8
0
100
AcDbBlockEnd
  0
BLOCK
  5
32
330
2F
100
AcDbEntity
  8
0
100
AcDbBlockBegin
  2
B-DIM
 70
     0
 10
0.0
 20
0.0
 30
0.0
  3
B-DIM
  1

  0
LINE
  5
33
330
2F
100
AcDbEntity
  8
0
 62
     1
100
AcDbLine
 10
0.000000000000091
 20
-1.1
 30
0.0
 11
0.000000000000091
 21
1.1
 31
0.0
  0
LWPOLYLINE
  5
34
330
2F
100
AcDbEntity
  8
0
 62
     1
100
AcDbPolyline
 90
        2
 70
     0
 43
0.3
 10
-0.7071067811864851
 20
-0.7071067811864851
 10
0.707106781186576
 20
0.707106781186576
  0
LINE
  5
35
330
2F
100
AcDbEntity
  8
0
 62
     1
100
AcDbLine
 10
1.20000000000009
 20
0.0
 30
0.0
 11
-1.199999999999909
 21
0.0
 31
0.0
  0
ENDBLK
  5
36
330
2F
100
AcDbEntity
  8
0
100
AcDbBlockEnd
  0
BLOCK
  5
5EC
330
5EB
100
AcDbEntity
  8
0
100
AcDbBlockBegin
  2
*D62
 70
     1
 10
0.0
 20
0.0
 30
0.0
  3
*D62
  1

  0
LINE
  5
7E0
330
5EB
100
AcDbEntity
  8
0Wymiary-PL
 62
     1
370
    -2
100
AcDbLine
 10
219456.3925133266
 20
135763.0961683543
 30
0.0
 11
219456.3925133266
 21
135440.1215650689
 31
0.0
  0
INSERT
  5
7E1
330
5EB
100
AcDbEntity
  8
0Wymiary-PL
 62
     1
370
    -2
100
AcDbBlockReference
  2
B-DIM
 10
219456.3925133266
 20
135793.0961683543
 30
0.0
 41
30.0
 42
30.0
 43
30.0
 50
90.0
  0
INSERT
  5
7E2
330
5EB
100
AcDbEntity
  8
0Wymiary-PL
 62
     1
370
    -2
100
AcDbBlockReference
  2
B-DIM
 10
219456.3925133266
 20
135410.1215650689
 30
0.0
 41
30.0
 42
30.0
 43
30.0
 50
270.0
  0
MTEXT
  5
7E3
330
5EB
100
AcDbEntity
  8
0Wymiary-PL
 62
    10
100
AcDbMText
 10
219376.3925133265
 20
135601.6088667116
 30
0.0
 40
80.0
 41
0.0
 71
     5
 72
     1
  1
\A1;383
  7
ROMANS
 11
0.0000000000000001
 21
1.0
 31
0.0
 73
     1
 44
1.0
1001
ACAD
1000
MTEXTBEGIN
1070
    73
1070
     1
1070
    44
1040
1.0
1070
    74
1070
     0
1000
MTEXTEND
  0
POINT
  5
7E4
330
5EB
100
AcDbEntity
  8
DEFPOINTS
 62
     0
100
AcDbPoint
 10
218735.3436482076
 20
135793.0961683543
 30
0.0
  0
POINT
  5
7E5
330
5EB
100
AcDbEntity
  8
DEFPOINTS
 62
     0
100
AcDbPoint
 10
218735.3436482076
 20
135410.1215650689
 30
0.0
  0
POINT
  5
7E6
330
5EB
100
AcDbEntity
  8
DEFPOINTS
 62
     0
100
AcDbPoint
 10
219456.3925133266
 20
135410.1215650689
 30
0.0
  0
ENDBLK
  5
5ED
330
5EB
100
AcDbEntity
  8
0
100
AcDbBlockEnd
  0
BLOCK
  5
5F6
330
5F5
100
AcDbEntity
  8
0
100
AcDbBlockBegin
  2
*D63
 70
     1
 10
0.0
 20
0.0
 30
0.0
  3
*D63
  1

  0
LINE
  5
7E7
330
5F5
100
AcDbEntity
  8
0Wymiary-PL
 62
     1
370
    -2
100
AcDbLine
 10
219456.3925133266
 20
136107.1466662284
 30
0.0
 11
219456.3925133266
 21
135823.0961683543
 31
0.0
  0
INSERT
  5
7E8
330
5F5
100
AcDbEntity
  8
0Wymiary-PL
 62
     1
370
    -2
100
AcDbBlockReference
  2
B-DIM
 10
219456.3925133266
 20
136137.1466662284
 30
0.0
 41
30.0
 42
30.0
 43
30.0
 50
90.0
  0
INSERT
  5
7E9
330
5F5
100
AcDbEntity
  8
0Wymiary-PL
 62
     1
370
    -2
100
AcDbBlockReference
  2
B-DIM
 10
219456.3925133266
 20
135793.0961683543
 30
0.0
 41
30.0
 42
30.0
 43
30.0
 50
270.0
  0
MTEXT
  5
7EA
330
5F5
100
AcDbEntity
  8
0Wymiary-PL
 62
    10
100
AcDbMText
 10
219376.3925133265
 20
135965.1214172914
 30
0.0
 40
80.0
 41
0.0
 71
     5
 72
     1
  1
\A1;344
  7
ROMANS
 11
0.0000000000000001
 21
1.0
 31
0.0
 73
     1
 44
1.0
1001
ACAD
1000
MTEXTBEGIN
1070
    73
1070
     1
1070
    44
1040
1.0
1070
    74
1070
     0
1000
MTEXTEND
  0
POINT
  5
7EB
330
5F5
100
AcDbEntity
  8
DEFPOINTS
 62
     0
100
AcDbPoint
 10
218733.3652539046
 20
136137.1466662284
 30
0.0
  0
POINT
  5
7EC
330
5F5
100
AcDbEntity
  8
DEFPOINTS
 62
     0
100
AcDbPoint
 10
218735.3436482076
 20
135793.0961683543
 30
0.0
  0
POINT
  5
7ED
330
5F5
100
AcDbEntity
  8
DEFPOINTS
 62
     0
100
AcDbPoint
 10
219456.3925133266
 20
135793.0961683543
 30
0.0
  0
ENDBLK
  5
5F7
330
5F5
100
AcDbEntity
  8
0
100
AcDbBlockEnd
  0
BLOCK
  5
600
330
5FF
100
AcDbEntity
  8
0
100
AcDbBlockBegin
  2
*D64
 70
     1
 10
0.0
 20
0.0
 30
0.0
  3
*D64
  1

  0
LINE
  5
7EE
330
5FF
100
AcDbEntity
  8
0Wymiary-PL
 62
     1
370
    -2
100
AcDbLine
 10
219456.3925133266
 20
136490.1215650689
 30
0.0
 11
219456.3925133266
 21
136167.1466662284
 31
0.0
  0
INSERT
  5
7EF
330
5FF
100
AcDbEntity
  8
0Wymiary-PL
 62
     1
370
    -2
100
AcDbBlockReference
  2
B-DIM
 10
219456.3925133266
 20
136520.1215650688
 30
0.0
 41
30.0
 42
30.0
 43
30.0
 50
90.0
  0
INSERT
  5
7F0
330
5FF
100
AcDbEntity
  8
0Wymiary-PL
 62
     1
370
    -2
100
AcDbBlockReference
  2
B-DIM
 10
219456.3925133266
 20
136137.1466662284
 30
0.0
 41
30.0
 42
30.0
 43
30.0
 50
270.0
  0
MTEXT
  5
7F1
330
5FF
100
AcDbEntity
  8
0Wymiary-PL
 62
    10
100
AcDbMText
 10
219376.3925133265
 20
136328.6341156487
 30
0.0
 40
80.0
 41
0.0
 71
     5
 72
     1
  1
\A1;383
  7
ROMANS
 11
0.0000000000000001
 21
1.0
 31
0.0
 73
     1
 44
1.0
1001
ACAD
1000
MTEXTBEGIN
1070
    73
1070
     1
1070
    44
1040
1.0
1070
    74
1070
     0
1000
MTEXTEND
  0
POINT
  5
7F2
330
5FF
100
AcDbEntity
  8
DEFPOINTS
 62
     0
100
AcDbPoint
 10
218637.425060295
 20
136520.1215650688
 30
0.0
  0
POINT
  5
7F3
330
5FF
100
AcDbEntity
  8
DEFPOINTS
 62
     0
100
AcDbPoint
 10
218733.3652539046
 20
136137.1466662284
 30
0.0
  0
POINT
  5
7F4
330
5FF
100
AcDbEntity
  8
DEFPOINTS
 62
     0
100
AcDbPoint
 10
219456.3925133266
 20
136137.1466662284
 30
0.0
  0
ENDBLK
  5
601
330
5FF
100
AcDbEntity
  8
0
100
AcDbBlockEnd
  0
BLOCK
  5
60A
330
609
100
AcDbEntity
  8
0
100
AcDbBlockBegin
  2
*D65
 70
     1
 10
0.0
 20
0.0
 30
0.0
  3
*D65
  1

  0
LINE
  5
803
330
609
100
AcDbEntity
  8
0Wymiary-PL
 62
     1
370
    -2
100
AcDbLine
 10
216969.4267770202
 20
136490.1215650689
 30
0.0
 11
216969.4267770202
 21
135440.1215650689
 31
0.0
  0
INSERT
  5
804
330
609
100
AcDbEntity
  8
0Wymiary-PL
 62
     1
370
    -2
100
AcDbBlockReference
  2
B-DIM
 10
216969.4267770202
 20
136520.1215650688
 30
0.0
 41
30.0
 42
30.0
 43
30.0
 50
90.0
  0
INSERT
  5
805
330
609
100
AcDbEntity
  8
0Wymiary-PL
 62
     1
370
    -2
100
AcDbBlockReference
  2
B-DIM
 10
216969.4267770202
 20
135410.1215650689
 30
0.0
 41
30.0
 42
30.0
 43
30.0
 50
270.0
  0
MTEXT
  5
806
330
609
100
AcDbEntity
  8
0Wymiary-PL
 62
    10
100
AcDbMText
 10
216889.4267770202
 20
135965.1215650689
 30
0.0
 40
80.0
 41
0.0
 71
     5
 72
     1
  1
\A1;1110
  7
ROMANS
 11
0.0000000000000001
 21
1.0
 31
0.0
 73
     1
 44
1.0
1001
ACAD
1000
MTEXTBEGIN
1070
    73
1070
     1
1070
    44
1040
1.0
1070
    74
1070
     0
1000
MTEXTEND
  0
POINT
  5
807
330
609
100
AcDbEntity
  8
DEFPOINTS
 62
     0
100
AcDbPoint
 10
217871.6009111948
 20
136520.1215650688
 30
0.0
  0
POINT
  5
808
330
609
100
AcDbEntity
  8
DEFPOINTS
 62
     0
100
AcDbPoint
 10
218162.1106404707
 20
135410.1215650689
 30
0.0
  0
POINT
  5
809
330
609
100
AcDbEntity
  8
DEFPOINTS
 62
     0
100
AcDbPoint
 10
216969.4267770202
 20
135410.1215650689
 30
0.0
  0
ENDBLK
  5
60B
330
609
100
AcDbEntity
  8
0
100
AcDbBlockEnd
  0
BLOCK
  5
614
330
613
100
AcDbEntity
  8
0
100
AcDbBlockBegin
  2
*D66
 70
     1
 10
0.0
 20
0.0
 30
0.0
  3
*D66
  1

  0
LINE
  5
80A
330
613
100
AcDbEntity
  8
0Wymiary-PL
 62
     1
370
    -2
100
AcDbLine
 10
217185.1079052635
 20
135550.1215650688
 30
0.0
 11
217185.1079052635
 21
135580.1215650688
 31
0.0
  0
LINE
  5
80B
330
613
100
AcDbEntity
  8
0Wymiary-PL
 62
     1
370
    -2
100
AcDbLine
 10
217185.1079052635
 20
135380.1215650689
 30
0.0
 11
217185.1079052635
 21
135350.1215650689
 31
0.0
  0
LINE
  5
80C
330
613
100
AcDbEntity
  8
0Wymiary-PL
 62
     1
370
    -2
100
AcDbLine
 10
217185.1079052635
 20
135520.1215650688
 30
0.0
 11
217185.1079052635
 21
135410.1215650689
 31
0.0
  0
INSERT
  5
80D
330
613
100
AcDbEntity
  8
0Wymiary-PL
 62
     1
370
    -2
100
AcDbBlockReference
  2
B-DIM
 10
217185.1079052635
 20
135520.1215650688
 30
0.0
 41
30.0
 42
30.0
 43
30.0
 50
270.0
  0
INSERT
  5
80E
330
613
100
AcDbEntity
  8
0Wymiary-PL
 62
     1
370
    -2
100
AcDbBlockReference
  2
B-DIM
 10
217185.1079052635
 20
135410.1215650689
 30
0.0
 41
30.0
 42
30.0
 43
30.0
 50
90.0
  0
MTEXT
  5
80F
330
613
100
AcDbEntity
  8
0Wymiary-PL
 62
    10
100
AcDbMText
 10
217105.1079052634
 20
135465.1215650689
 30
0.0
 40
80.0
 41
0.0
 71
     5
 72
     1
  1
\A1;110
  7
ROMANS
 11
0.0000000000000001
 21
1.0
 31
0.0
 73
     1
 44
1.0
1001
ACAD
1000
MTEXTBEGIN
1070
    73
1070
     1
1070
    44
1040
1.0
1070
    74
1070
     0
1000
MTEXTEND
  0
POINT
  5
810
330
613
100
AcDbEntity
  8
DEFPOINTS
 62
     0
100
AcDbPoint
 10
217500.3436482075
 20
135520.1215650688
 30
0.0
  0
POINT
  5
811
330
613
100
AcDbEntity
  8
DEFPOINTS
 62
     0
100
AcDbPoint
 10
218146.3436482075
 20
135410.1215650689
 30
0.0
  0
POINT
  5
812
330
613
100
AcDbEntity
  8
DEFPOINTS
 62
     0
100
AcDbPoint
 10
217185.1079052635
 20
135410.1215650689
 30
0.0
  0
ENDBLK
  5
615
330
613
100
AcDbEntity
  8
0
100
AcDbBlockEnd
  0
BLOCK
  5
620
330
61F
100
AcDbEntity
  8
0
100
AcDbBlockBegin
  2
*D67
 70
     1
 10
0.0
 20
0.0
 30
0.0
  3
*D67
  1

  0
LINE
  5
813
330
61F
100
AcDbEntity
  8
0Wymiary-PL
 62
     1
370
    -2
100
AcDbLine
 10
217185.1079052635
 20
136365.1215650689
 30
0.0
 11
217185.1079052635
 21
135550.1215650688
 31
0.0
  0
INSERT
  5
814
330
61F
100
AcDbEntity
  8
0Wymiary-PL
 62
     1
370
    -2
100
AcDbBlockReference
  2
B-DIM
 10
217185.1079052635
 20
136395.1215650688
 30
0.0
 41
30.0
 42
30.0
 43
30.0
 50
90.0
  0
INSERT
  5
815
330
61F
100
AcDbEntity
  8
0Wymiary-PL
 62
     1
370
    -2
100
AcDbBlockReference
  2
B-DIM
 10
217185.1079052635
 20
135520.1215650688
 30
0.0
 41
30.0
 42
30.0
 43
30.0
 50
270.0
  0
MTEXT
  5
816
330
61F
100
AcDbEntity
  8
0Wymiary-PL
 62
    10
100
AcDbMText
 10
217105.1079052634
 20
135957.6215650689
 30
0.0
 40
80.0
 41
0.0
 71
     5
 72
     1
  1
\A1;875
  7
ROMANS
 11
0.0000000000000001
 21
1.0
 31
0.0
 73
     1
 44
1.0
1001
ACAD
1000
MTEXTBEGIN
1070
    73
1070
     1
1070
    44
1040
1.0
1070
    74
1070
     0
1000
MTEXTEND
  0
POINT
  5
817
330
61F
100
AcDbEntity
  8
DEFPOINTS
 62
     0
100
AcDbPoint
 10
217821.869216597
 20
136395.1215650688
 30
0.0
  0
POINT
  5
818
330
61F
100
AcDbEntity
  8
DEFPOINTS
 62
     0
100
AcDbPoint
 10
217500.3436482075
 20
135520.1215650688
 30
0.0
  0
POINT
  5
819
330
61F
100
AcDbEntity
  8
DEFPOINTS
 62
     0
100
AcDbPoint
 10
217185.1079052635
 20
135520.1215650688
 30
0.0
  0
ENDBLK
  5
621
330
61F
100
AcDbEntity
  8
0
100
AcDbBlockEnd
  0
BLOCK
  5
62A
330
629
100
AcDbEntity
  8
0
100
AcDbBlockBegin
  2
*D68
 70
     1
 10
0.0
 20
0.0
 30
0.0
  3
*D68
  1

  0
LINE
  5
81A
330
629
100
AcDbEntity
  8
0Wymiary-PL
 62
     1
370
    -2
100
AcDbLine
 10
217185.1079052635
 20
136550.1215650688
 30
0.0
 11
217185.1079052635
 21
136580.1215650688
 31
0.0
  0
LINE
  5
81B
330
629
100
AcDbEntity
  8
0Wymiary-PL
 62
     1
370
    -2
100
AcDbLine
 10
217185.1079052635
 20
136365.1215650689
 30
0.0
 11
217185.1079052635
 21
136335.1215650689
 31
0.0
  0
LINE
  5
81C
330
629
100
AcDbEntity
  8
0Wymiary-PL
 62
     1
370
    -2
100
AcDbLine
 10
217185.1079052635
 20
136520.1215650688
 30
0.0
 11
217185.1079052635
 21
136395.1215650688
 31
0.0
  0
INSERT
  5
81D
330
629
100
AcDbEntity
  8
0Wymiary-PL
 62
     1
370
    -2
100
AcDbBlockReference
  2
B-DIM
 10
217185.1079052635
 20
136520.1215650688
 30
0.0
 41
30.0
 42
30.0
 43
30.0
 50
270.0
  0
INSERT
  5
81E
330
629
100
AcDbEntity
  8
0Wymiary-PL
 62
     1
370
    -2
100
AcDbBlockReference
  2
B-DIM
 10
217185.1079052635
 20
136395.1215650688
 30
0.0
 41
30.0
 42
30.0
 43
30.0
 50
90.0
  0
MTEXT
  5
81F
330
629
100
AcDbEntity
  8
0Wymiary-PL
 62
    10
100
AcDbMText
 10
217105.1079052634
 20
136457.6215650689
 30
0.0
 40
80.0
 41
0.0
 71
     5
 72
     1
  1
\A1;125
  7
ROMANS
 11
0.0000000000000001
 21
1.0
 31
0.0
 73
     1
 44
1.0
1001
ACAD
1000
MTEXTBEGIN
1070
    73
1070
     1
1070
    44
1040
1.0
1070
    74
1070
     0
1000
MTEXTEND
  0
POINT
  5
820
330
629
100
AcDbEntity
  8
DEFPOINTS
 62
     0
100
AcDbPoint
 10
217850.3436482076
 20
136520.1215650688
 30
0.0
  0
POINT
  5
821
330
629
100
AcDbEntity
  8
DEFPOINTS
 62
     0
100
AcDbPoint
 10
217821.869216597
 20
136395.1215650688
 30
0.0
  0
POINT
  5
822
330
629
100
AcDbEntity
  8
DEFPOINTS
 62
     0
100
AcDbPoint
 10
217185.1079052635
 20
136395.1215650688
 30
0.0
  0
ENDBLK
  5
62B
330
629
100
AcDbEntity
  8
0
100
AcDbBlockEnd
  0
BLOCK
  5
636
330
635
100
AcDbEntity
  8
0
100
AcDbBlockBegin
  2
*D69
 70
     1
 10
0.0
 20
0.0
 30
0.0
  3
*D69
  1

  0
LINE
  5
7F5
330
635
100
AcDbEntity
  8
0Wymiary-PL
 62
     1
370
    -2
100
AcDbLine
 10
218176.3436482075
 20
135022.5831202519
 30
0.0
 11
218705.3436482075
 21
135022.5831202519
 31
0.0
  0
INSERT
  5
7F6
330
635
100
AcDbEntity
  8
0Wymiary-PL
 62
     1
370
    -2
100
AcDbBlockReference
  2
B-DIM
 10
218146.3436482075
 20
135022.5831202519
 30
0.0
 41
30.0
 42
30.0
 43
30.0
 50
180.0
  0
INSERT
  5
7F7
330
635
100
AcDbEntity
  8
0Wymiary-PL
 62
     1
370
    -2
100
AcDbBlockReference
  2
B-DIM
 10
218735.3436482076
 20
135022.5831202519
 30
0.0
 41
30.0
 42
30.0
 43
30.0
  0
MTEXT
  5
7F8
330
635
100
AcDbEntity
  8
0Wymiary-PL
 62
    10
100
AcDbMText
 10
218440.8436482076
 20
135102.5831202519
 30
0.0
 40
80.0
 41
0.0
 71
     5
 72
     1
  1
\A1;589
  7
ROMANS
 73
     1
 44
1.0
1001
ACAD
1000
MTEXTBEGIN
1070
    73
1070
     1
1070
    44
1040
1.0
1070
    74
1070
     0
1000
MTEXTEND
  0
POINT
  5
7F9
330
635
100
AcDbEntity
  8
DEFPOINTS
 62
     0
100
AcDbPoint
 10
218146.3436482075
 20
135510.5184971947
 30
0.0
  0
POINT
  5
7FA
330
635
100
AcDbEntity
  8
DEFPOINTS
 62
     0
100
AcDbPoint
 10
218735.3436482076
 20
135448.8711247705
 30
0.0
  0
POINT
  5
7FB
330
635
100
AcDbEntity
  8
DEFPOINTS
 62
     0
100
AcDbPoint
 10
218735.3436482076
 20
135022.5831202519
 30
0.0
  0
ENDBLK
  5
637
330
635
100
AcDbEntity
  8
0
100
AcDbBlockEnd
  0
BLOCK
  5
640
330
63F
100
AcDbEntity
  8
0
100
AcDbBlockBegin
  2
*D70
 70
     1
 10
0.0
 20
0.0
 30
0.0
  3
*D70
  1

  0
LINE
  5
7FC
330
63F
100
AcDbEntity
  8
0Wymiary-PL
 62
     1
370
    -2
100
AcDbLine
 10
217520.3436482075
 20
135022.5831202519
 30
0.0
 11
218116.3436482076
 21
135022.5831202519
 31
0.0
  0
INSERT
  5
7FD
330
63F
100
AcDbEntity
  8
0Wymiary-PL
 62
     1
370
    -2
100
AcDbBlockReference
  2
B-DIM
 10
217490.3436482075
 20
135022.5831202519
 30
0.0
 41
30.0
 42
30.0
 43
30.0
 50
180.0
  0
INSERT
  5
7FE
330
63F
100
AcDbEntity
  8
0Wymiary-PL
 62
     1
370
    -2
100
AcDbBlockReference
  2
B-DIM
 10
218146.3436482075
 20
135022.5831202519
 30
0.0
 41
30.0
 42
30.0
 43
30.0
  0
MTEXT
  5
7FF
330
63F
100
AcDbEntity
  8
0Wymiary-PL
 62
    10
100
AcDbMText
 10
217818.3436482076
 20
135102.5831202519
 30
0.0
 40
80.0
 41
0.0
 71
     5
 72
     1
  1
\A1;656
  7
ROMANS
 73
     1
 44
1.0
1001
ACAD
1000
MTEXTBEGIN
1070
    73
1070
     1
1070
    44
1040
1.0
1070
    74
1070
     0
1000
MTEXTEND
  0
POINT
  5
800
330
63F
100
AcDbEntity
  8
DEFPOINTS
 62
     0
100
AcDbPoint
 10
217490.3436482075
 20
135552.4265712179
 30
0.0
  0
POINT
  5
801
330
63F
100
AcDbEntity
  8
DEFPOINTS
 62
     0
100
AcDbPoint
 10
218146.3436482075
 20
135510.5184971947
 30
0.0
  0
POINT
  5
802
330
63F
100
AcDbEntity
  8
DEFPOINTS
 62
     0
100
AcDbPoint
 10
218146.3436482075
 20
135022.5831202519
 30
0.0
  0
ENDBLK
  5
641
330
63F
100
AcDbEntity
  8
0
100
AcDbBlockEnd
  0
BLOCK
  5
64A
330
649
100
AcDbEntity
  8
0
100
AcDbBlockBegin
  2
*D71
 70
     1
 10
0.0
 20
0.0
 30
0.0
  3
*D71
  1

  0
LINE
  5
798
330
649
100
AcDbEntity
  8
0Wymiary-PL
 62
     1
370
    -2
100
AcDbLine
 10
217520.3436482076
 20
137344.3407412846
 30
0.0
 11
218877.55151423
 21
137344.3407412846
 31
0.0
  0
INSERT
  5
799
330
649
100
AcDbEntity
  8
0Wymiary-PL
 62
     1
370
    -2
100
AcDbBlockReference
  2
B-DIM
 10
217490.3436482075
 20
137344.3407412846
 30
0.0
 41
30.0
 42
30.0
 43
30.0
 50
180.0
  0
INSERT
  5
79A
330
649
100
AcDbEntity
  8
0Wymiary-PL
 62
     1
370
    -2
100
AcDbBlockReference
  2
B-DIM
 10
218907.55151423
 20
137344.3407412846
 30
0.0
 41
30.0
 42
30.0
 43
30.0
  0
MTEXT
  5
79B
330
649
100
AcDbEntity
  8
0Wymiary-PL
 62
    10
100
AcDbMText
 10
218198.9475812188
 20
137424.3407412846
 30
0.0
 40
80.0
 41
0.0
 71
     5
 72
     1
  1
\A1;1417
  7
ROMANS
 73
     1
 44
1.0
1001
ACAD
1000
MTEXTBEGIN
1070
    73
1070
     1
1070
    44
1040
1.0
1070
    74
1070
     0
1000
MTEXTEND
  0
POINT
  5
79C
330
649
100
AcDbEntity
  8
DEFPOINTS
 62
     0
100
AcDbPoint
 10
217490.3436482075
 20
136340.3838654005
 30
0.0
  0
POINT
  5
79D
330
649
100
AcDbEntity
  8
DEFPOINTS
 62
     0
100
AcDbPoint
 10
218907.55151423
 20
135965.104037885
 30
0.0
  0
POINT
  5
79E
330
649
100
AcDbEntity
  8
DEFPOINTS
 62
     0
100
AcDbPoint
 10
218907.55151423
 20
137344.3407412846
 30
0.0
  0
ENDBLK
  5
64B
330
649
100
AcDbEntity
  8
0
100
AcDbBlockEnd
  0
BLOCK
  5
654
330
653
100
AcDbEntity
  8
0
100
AcDbBlockBegin
  2
*D72
 70
     1
 10
0.0
 20
0.0
 30
0.0
  3
*D72
  1

  0
LINE
  5
788
330
653
100
AcDbEntity
  8
0Wymiary-PL
 62
     1
370
    -2
100
AcDbLine
 10
218705.3436482075
 20
137136.5899670858
 30
0.0
 11
218675.3436482076
 21
137136.5899670858
 31
0.0
  0
LINE
  5
789
330
653
100
AcDbEntity
  8
0Wymiary-PL
 62
     1
370
    -2
100
AcDbLine
 10
218937.55151423
 20
137136.5899670858
 30
0.0
 11
218967.55151423
 21
137136.5899670858
 31
0.0
  0
LINE
  5
78A
330
653
100
AcDbEntity
  8
0Wymiary-PL
 62
     1
370
    -2
100
AcDbLine
 10
218735.3436482076
 20
137136.5899670858
 30
0.0
 11
218907.55151423
 21
137136.5899670858
 31
0.0
  0
INSERT
  5
78B
330
653
100
AcDbEntity
  8
0Wymiary-PL
 62
     1
370
    -2
100
AcDbBlockReference
  2
B-DIM
 10
218735.3436482076
 20
137136.5899670858
 30
0.0
 41
30.0
 42
30.0
 43
30.0
  0
INSERT
  5
78C
330
653
100
AcDbEntity
  8
0Wymiary-PL
 62
     1
370
    -2
100
AcDbBlockReference
  2
B-DIM
 10
218907.55151423
 20
137136.5899670858
 30
0.0
 41
30.0
 42
30.0
 43
30.0
 50
180.0
  0
MTEXT
  5
78D
330
653
100
AcDbEntity
  8
0Wymiary-PL
 62
    10
100
AcDbMText
 10
218821.4475812188
 20
137216.5899670858
 30
0.0
 40
80.0
 41
0.0
 71
     5
 72
     1
  1
\A1;172
  7
ROMANS
 73
     1
 44
1.0
1001
ACAD
1000
MTEXTBEGIN
1070
    73
1070
     1
1070
    44
1040
1.0
1070
    74
1070
     0
1000
MTEXTEND
  0
POINT
  5
78E
330
653
100
AcDbEntity
  8
DEFPOINTS
 62
     0
100
AcDbPoint
 10
218735.3436482076
 20
136430.464562205
 30
0.0
  0
POINT
  5
78F
330
653
100
AcDbEntity
  8
DEFPOINTS
 62
     0
100
AcDbPoint
 10
218907.55151423
 20
135965.104037885
 30
0.0
  0
POINT
  5
790
330
653
100
AcDbEntity
  8
DEFPOINTS
 62
     0
100
AcDbPoint
 10
218907.55151423
 20
137136.5899670858
 30
0.0
  0
ENDBLK
  5
655
330
653
100
AcDbEntity
  8
0
100
AcDbBlockEnd
  0
BLOCK
  5
660
330
65F
100
AcDbEntity
  8
0
100
AcDbBlockBegin
  2
*D73
 70
     1
 10
0.0
 20
0.0
 30
0.0
  3
*D73
  1

  0
LINE
  5
79F
330
65F
100
AcDbEntity
  8
0Wymiary-PL
 62
     1
370
    -2
100
AcDbLine
 10
217875.3436482076
 20
137136.5899670858
 30
0.0
 11
218705.3436482075
 21
137136.5899670858
 31
0.0
  0
INSERT
  5
7A0
330
65F
100
AcDbEntity
  8
0Wymiary-PL
 62
     1
370
    -2
100
AcDbBlockReference
  2
B-DIM
 10
217845.3436482076
 20
137136.5899670858
 30
0.0
 41
30.0
 42
30.0
 43
30.0
 50
180.0
  0
INSERT
  5
7A1
330
65F
100
AcDbEntity
  8
0Wymiary-PL
 62
     1
370
    -2
100
AcDbBlockReference
  2
B-DIM
 10
218735.3436482076
 20
137136.5899670858
 30
0.0
 41
30.0
 42
30.0
 43
30.0
  0
MTEXT
  5
7A2
330
65F
100
AcDbEntity
  8
0Wymiary-PL
 62
    10
100
AcDbMText
 10
218290.3436482076
 20
137216.5899670858
 30
0.0
 40
80.0
 41
0.0
 71
     5
 72
     1
  1
\A1;890
  7
ROMANS
 73
     1
 44
1.0
1001
ACAD
1000
MTEXTBEGIN
1070
    73
1070
     1
1070
    44
1040
1.0
1070
    74
1070
     0
1000
MTEXTEND
  0
POINT
  5
7A3
330
65F
100
AcDbEntity
  8
DEFPOINTS
 62
     0
100
AcDbPoint
 10
217845.3436482076
 20
136430.464562205
 30
0.0
  0
POINT
  5
7A4
330
65F
100
AcDbEntity
  8
DEFPOINTS
 62
     0
100
AcDbPoint
 10
218735.3436482076
 20
136430.464562205
 30
0.0
  0
POINT
  5
7A5
330
65F
100
AcDbEntity
  8
DEFPOINTS
 62
     0
100
AcDbPoint
 10
218735.3436482076
 20
137136.5899670858
 30
0.0
  0
ENDBLK
  5
661
330
65F
100
AcDbEntity
  8
0
100
AcDbBlockEnd
  0
BLOCK
  5
66A
330
669
100
AcDbEntity
  8
0
100
AcDbBlockBegin
  2
*D74
 70
     1
 10
0.0
 20
0.0
 30
0.0
  3
*D74
  1

  0
LINE
  5
7A6
330
669
100
AcDbEntity
  8
0Wymiary-PL
 62
     1
370
    -2
100
AcDbLine
 10
217520.3436482076
 20
137136.5899670858
 30
0.0
 11
217815.3436482076
 21
137136.5899670858
 31
0.0
  0
INSERT
  5
7A7
330
669
100
AcDbEntity
  8
0Wymiary-PL
 62
     1
370
    -2
100
AcDbBlockReference
  2
B-DIM
 10
217490.3436482075
 20
137136.5899670858
 30
0.0
 41
30.0
 42
30.0
 43
30.0
 50
180.0
  0
INSERT
  5
7A8
330
669
100
AcDbEntity
  8
0Wymiary-PL
 62
     1
370
    -2
100
AcDbBlockReference
  2
B-DIM
 10
217845.3436482076
 20
137136.5899670858
 30
0.0
 41
30.0
 42
30.0
 43
30.0
  0
MTEXT
  5
7A9
330
669
100
AcDbEntity
  8
0Wymiary-PL
 62
    10
100
AcDbMText
 10
217667.8436482076
 20
137216.5899670858
 30
0.0
 40
80.0
 41
0.0
 71
     5
 72
     1
  1
\A1;355
  7
ROMANS
 73
     1
 44
1.0
1001
ACAD
1000
MTEXTBEGIN
1070
    73
1070
     1
1070
    44
1040
1.0
1070
    74
1070
     0
1000
MTEXTEND
  0
POINT
  5
7AA
330
669
100
AcDbEntity
  8
DEFPOINTS
 62
     0
100
AcDbPoint
 10
217490.3436482075
 20
136271.0169852908
 30
0.0
  0
POINT
  5
7AB
330
669
100
AcDbEntity
  8
DEFPOINTS
 62
     0
100
AcDbPoint
 10
217845.3436482076
 20
136430.464562205
 30
0.0
  0
POINT
  5
7AC
330
669
100
AcDbEntity
  8
DEFPOINTS
 62
     0
100
AcDbPoint
 10
217845.3436482076
 20
137136.5899670858
 30
0.0
  0
ENDBLK
  5
66B
330
669
100
AcDbEntity
  8
0
100
AcDbBlockEnd
  0
BLOCK
  5
699
330
698
100
AcDbEntity
  8
0
100
AcDbBlockBegin
  2
*D75
 70
     1
 10
0.0
 20
0.0
 30
0.0
  3
*D75
  1

  0
LINE
  5
7AD
330
698
100
AcDbEntity
  8
0Wymiary-PL
 62
     1
370
    -2
100
AcDbLine
 10
223279.4348415375
 20
137136.5899670858
 30
0.0
 11
222984.4348415375
 21
137136.5899670858
 31
0.0
  0
INSERT
  5
7AE
330
698
100
AcDbEntity
  8
0Wymiary-PL
 62
     1
370
    -2
100
AcDbBlockReference
  2
B-DIM
 10
223309.4348415375
 20
137136.5899670858
 30
0.0
 41
30.0
 42
30.0
 43
30.0
  0
INSERT
  5
7AF
330
698
100
AcDbEntity
  8
0Wymiary-PL
 62
     1
370
    -2
100
AcDbBlockReference
  2
B-DIM
 10
222954.4348415375
 20
137136.5899670858
 30
0.0
 41
30.0
 42
30.0
 43
30.0
 50
180.0
  0
MTEXT
  5
7B0
330
698
100
AcDbEntity
  8
0Wymiary-PL
 62
    10
100
AcDbMText
 10
223131.9348415375
 20
137216.5899670858
 30
0.0
 40
80.0
 41
0.0
 71
     5
 72
     1
  1
\A1;355
  7
ROMANS
 73
     1
 44
1.0
1001
ACAD
1000
MTEXTBEGIN
1070
    73
1070
     1
1070
    44
1040
1.0
1070
    74
1070
     0
1000
MTEXTEND
  0
POINT
  5
7B1
330
698
100
AcDbEntity
  8
DEFPOINTS
 62
     0
100
AcDbPoint
 10
223309.4348415375
 20
136271.0169852908
 30
0.0
  0
POINT
  5
7B2
330
698
100
AcDbEntity
  8
DEFPOINTS
 62
     0
100
AcDbPoint
 10
222954.4348415375
 20
136430.464562205
 30
0.0
  0
POINT
  5
7B3
330
698
100
AcDbEntity
  8
DEFPOINTS
 62
     0
100
AcDbPoint
 10
222954.4348415375
 20
137136.5899670858
 30
0.0
  0
ENDBLK
  5
69A
330
698
100
AcDbEntity
  8
0
100
AcDbBlockEnd
  0
BLOCK
  5
6A3
330
6A2
100
AcDbEntity
  8
0
100
AcDbBlockBegin
  2
*D76
 70
     1
 10
0.0
 20
0.0
 30
0.0
  3
*D76
  1

  0
LINE
  5
7B4
330
6A2
100
AcDbEntity
  8
0Wymiary-PL
 62
     1
370
    -2
100
AcDbLine
 10
222924.4348415375
 20
137136.5899670858
 30
0.0
 11
222094.4348415375
 21
137136.5899670858
 31
0.0
  0
INSERT
  5
7B5
330
6A2
100
AcDbEntity
  8
0Wymiary-PL
 62
     1
370
    -2
100
AcDbBlockReference
  2
B-DIM
 10
222954.4348415375
 20
137136.5899670858
 30
0.0
 41
30.0
 42
30.0
 43
30.0
  0
INSERT
  5
7B6
330
6A2
100
AcDbEntity
  8
0Wymiary-PL
 62
     1
370
    -2
100
AcDbBlockReference
  2
B-DIM
 10
222064.4348415375
 20
137136.5899670858
 30
0.0
 41
30.0
 42
30.0
 43
30.0
 50
180.0
  0
MTEXT
  5
7B7
330
6A2
100
AcDbEntity
  8
0Wymiary-PL
 62
    10
100
AcDbMText
 10
222509.4348415375
 20
137216.5899670858
 30
0.0
 40
80.0
 41
0.0
 71
     5
 72
     1
  1
\A1;890
  7
ROMANS
 73
     1
 44
1.0
1001
ACAD
1000
MTEXTBEGIN
1070
    73
1070
     1
1070
    44
1040
1.0
1070
    74
1070
     0
1000
MTEXTEND
  0
POINT
  5
7B8
330
6A2
100
AcDbEntity
  8
DEFPOINTS
 62
     0
100
AcDbPoint
 10
222954.4348415375
 20
136430.464562205
 30
0.0
  0
POINT
  5
7B9
330
6A2
100
AcDbEntity
  8
DEFPOINTS
 62
     0
100
AcDbPoint
 10
222064.4348415375
 20
136430.464562205
 30
0.0
  0
POINT
  5
7BA
330
6A2
100
AcDbEntity
  8
DEFPOINTS
 62
     0
100
AcDbPoint
 10
222064.4348415375
 20
137136.5899670858
 30
0.0
  0
ENDBLK
  5
6A4
330
6A2
100
AcDbEntity
  8
0
100
AcDbBlockEnd
  0
BLOCK
  5
6AD
330
6AC
100
AcDbEntity
  8
0
100
AcDbBlockBegin
  2
*D77
 70
     1
 10
0.0
 20
0.0
 30
0.0
  3
*D77
  1

  0
LINE
  5
7BB
330
6AC
100
AcDbEntity
  8
0Wymiary-PL
 62
     1
370
    -2
100
AcDbLine
 10
222094.4348415375
 20
137136.5899670858
 30
0.0
 11
222124.4348415375
 21
137136.5899670858
 31
0.0
  0
LINE
  5
7BC
330
6AC
100
AcDbEntity
  8
0Wymiary-PL
 62
     1
370
    -2
100
AcDbLine
 10
221862.2269755151
 20
137136.5899670858
 30
0.0
 11
221832.2269755151
 21
137136.5899670858
 31
0.0
  0
LINE
  5
7BD
330
6AC
100
AcDbEntity
  8
0Wymiary-PL
 62
     1
370
    -2
100
AcDbLine
 10
222064.4348415375
 20
137136.5899670858
 30
0.0
 11
221892.2269755151
 21
137136.5899670858
 31
0.0
  0
INSERT
  5
7BE
330
6AC
100
AcDbEntity
  8
0Wymiary-PL
 62
     1
370
    -2
100
AcDbBlockReference
  2
B-DIM
 10
222064.4348415375
 20
137136.5899670858
 30
0.0
 41
30.0
 42
30.0
 43
30.0
 50
180.0
  0
INSERT
  5
7BF
330
6AC
100
AcDbEntity
  8
0Wymiary-PL
 62
     1
370
    -2
100
AcDbBlockReference
  2
B-DIM
 10
221892.2269755151
 20
137136.5899670858
 30
0.0
 41
30.0
 42
30.0
 43
30.0
  0
MTEXT
  5
7C0
330
6AC
100
AcDbEntity
  8
0Wymiary-PL
 62
    10
100
AcDbMText
 10
221978.3309085263
 20
137216.5899670858
 30
0.0
 40
80.0
 41
0.0
 71
     5
 72
     1
  1
\A1;172
  7
ROMANS
 73
     1
 44
1.0
1001
ACAD
1000
MTEXTBEGIN
1070
    73
1070
     1
1070
    44
1040
1.0
1070
    74
1070
     0
1000
MTEXTEND
  0
POINT
  5
7C1
330
6AC
100
AcDbEntity
  8
DEFPOINTS
 62
     0
100
AcDbPoint
 10
222064.4348415375
 20
136430.464562205
 30
0.0
  0
POINT
  5
7C2
330
6AC
100
AcDbEntity
  8
DEFPOINTS
 62
     0
100
AcDbPoint
 10
221892.2269755151
 20
135965.104037885
 30
0.0
  0
POINT
  5
7C3
330
6AC
100
AcDbEntity
  8
DEFPOINTS
 62
     0
100
AcDbPoint
 10
221892.2269755151
 20
137136.5899670858
 30
0.0
  0
ENDBLK
  5
6AE
330
6AC
100
AcDbEntity
  8
0
100
AcDbBlockEnd
  0
BLOCK
  5
6B9
330
6B8
100
AcDbEntity
  8
0
100
AcDbBlockBegin
  2
*D78
 70
     1
 10
0.0
 20
0.0
 30
0.0
  3
*D78
  1

  0
LINE
  5
7C4
330
6B8
100
AcDbEntity
  8
0Wymiary-PL
 62
     1
370
    -2
100
AcDbLine
 10
223279.4348415375
 20
137344.3407412846
 30
0.0
 11
221922.2269755151
 21
137344.3407412846
 31
0.0
  0
INSERT
  5
7C5
330
6B8
100
AcDbEntity
  8
0Wymiary-PL
 62
     1
370
    -2
100
AcDbBlockReference
  2
B-DIM
 10
223309.4348415375
 20
137344.3407412846
 30
0.0
 41
30.0
 42
30.0
 43
30.0
  0
INSERT
  5
7C6
330
6B8
100
AcDbEntity
  8
0Wymiary-PL
 62
     1
370
    -2
100
AcDbBlockReference
  2
B-DIM
 10
221892.2269755151
 20
137344.3407412846
 30
0.0
 41
30.0
 42
30.0
 43
30.0
 50
180.0
  0
MTEXT
  5
7C7
330
6B8
100
AcDbEntity
  8
0Wymiary-PL
 62
    10
100
AcDbMText
 10
222600.8309085263
 20
137424.3407412846
 30
0.0
 40
80.0
 41
0.0
 71
     5
 72
     1
  1
\A1;1417
  7
ROMANS
 73
     1
 44
1.0
1001
ACAD
1000
MTEXTBEGIN
1070
    73
1070
     1
1070
    44
1040
1.0
1070
    74
1070
     0
1000
MTEXTEND
  0
POINT
  5
7C8
330
6B8
100
AcDbEntity
  8
DEFPOINTS
 62
     0
100
AcDbPoint
 10
223309.4348415375
 20
136340.3838654005
 30
0.0
  0
POINT
  5
7C9
330
6B8
100
AcDbEntity
  8
DEFPOINTS
 62
     0
100
AcDbPoint
 10
221892.2269755151
 20
135965.104037885
 30
0.0
  0
POINT
  5
7CA
330
6B8
100
AcDbEntity
  8
DEFPOINTS
 62
     0
100
AcDbPoint
 10
221892.2269755151
 20
137344.3407412846
 30
0.0
  0
ENDBLK
  5
6BA
330
6B8
100
AcDbEntity
  8
0
100
AcDbBlockEnd
  0
BLOCK
  5
6C3
330
6C2
100
AcDbEntity
  8
0
100
AcDbBlockBegin
  2
*D79
 70
     1
 10
0.0
 20
0.0
 30
0.0
  3
*D79
  1

  0
LINE
  5
838
330
6C2
100
AcDbEntity
  8
0Wymiary-PL
 62
     1
370
    -2
100
AcDbLine
 10
223279.4348415375
 20
135022.5831202519
 30
0.0
 11
222683.4348415375
 21
135022.5831202519
 31
0.0
  0
INSERT
  5
839
330
6C2
100
AcDbEntity
  8
0Wymiary-PL
 62
     1
370
    -2
100
AcDbBlockReference
  2
B-DIM
 10
223309.4348415376
 20
135022.5831202519
 30
0.0
 41
30.0
 42
30.0
 43
30.0
  0
INSERT
  5
83A
330
6C2
100
AcDbEntity
  8
0Wymiary-PL
 62
     1
370
    -2
100
AcDbBlockReference
  2
B-DIM
 10
222653.4348415375
 20
135022.5831202519
 30
0.0
 41
30.0
 42
30.0
 43
30.0
 50
180.0
  0
MTEXT
  5
83B
330
6C2
100
AcDbEntity
  8
0Wymiary-PL
 62
    10
100
AcDbMText
 10
222981.4348415375
 20
135102.5831202519
 30
0.0
 40
80.0
 41
0.0
 71
     5
 72
     1
  1
\A1;656
  7
ROMANS
 73
     1
 44
1.0
1001
ACAD
1000
MTEXTBEGIN
1070
    73
1070
     1
1070
    44
1040
1.0
1070
    74
1070
     0
1000
MTEXTEND
  0
POINT
  5
83C
330
6C2
100
AcDbEntity
  8
DEFPOINTS
 62
     0
100
AcDbPoint
 10
223309.4348415376
 20
135552.4265712179
 30
0.0
  0
POINT
  5
83D
330
6C2
100
AcDbEntity
  8
DEFPOINTS
 62
     0
100
AcDbPoint
 10
222653.4348415375
 20
135510.5184971947
 30
0.0
  0
POINT
  5
83E
330
6C2
100
AcDbEntity
  8
DEFPOINTS
 62
     0
100
AcDbPoint
 10
222653.4348415375
 20
135022.5831202519
 30
0.0
  0
ENDBLK
  5
6C4
330
6C2
100
AcDbEntity
  8
0
100
AcDbBlockEnd
  0
BLOCK
  5
6CD
330
6CC
100
AcDbEntity
  8
0
100
AcDbBlockBegin
  2
*D80
 70
     1
 10
0.0
 20
0.0
 30
0.0
  3
*D80
  1

  0
LINE
  5
83F
330
6CC
100
AcDbEntity
  8
0Wymiary-PL
 62
     1
370
    -2
100
AcDbLine
 10
222623.4348415375
 20
135022.5831202519
 30
0.0
 11
222094.4348415375
 21
135022.5831202519
 31
0.0
  0
INSERT
  5
840
330
6CC
100
AcDbEntity
  8
0Wymiary-PL
 62
     1
370
    -2
100
AcDbBlockReference
  2
B-DIM
 10
222653.4348415375
 20
135022.5831202519
 30
0.0
 41
30.0
 42
30.0
 43
30.0
  0
INSERT
  5
841
330
6CC
100
AcDbEntity
  8
0Wymiary-PL
 62
     1
370
    -2
100
AcDbBlockReference
  2
B-DIM
 10
222064.4348415375
 20
135022.5831202519
 30
0.0
 41
30.0
 42
30.0
 43
30.0
 50
180.0
  0
MTEXT
  5
842
330
6CC
100
AcDbEntity
  8
0Wymiary-PL
 62
    10
100
AcDbMText
 10
222358.9348415375
 20
135102.5831202519
 30
0.0
 40
80.0
 41
0.0
 71
     5
 72
     1
  1
\A1;589
  7
ROMANS
 73
     1
 44
1.0
1001
ACAD
1000
MTEXTBEGIN
1070
    73
1070
     1
1070
    44
1040
1.0
1070
    74
1070
     0
1000
MTEXTEND
  0
POINT
  5
843
330
6CC
100
AcDbEntity
  8
DEFPOINTS
 62
     0
100
AcDbPoint
 10
222653.4348415375
 20
135510.5184971947
 30
0.0
  0
POINT
  5
844
330
6CC
100
AcDbEntity
  8
DEFPOINTS
 62
     0
100
AcDbPoint
 10
222064.4348415375
 20
135448.8711247705
 30
0.0
  0
POINT
  5
845
330
6CC
100
AcDbEntity
  8
DEFPOINTS
 62
     0
100
AcDbPoint
 10
222064.4348415375
 20
135022.5831202519
 30
0.0
  0
ENDBLK
  5
6CE
330
6CC
100
AcDbEntity
  8
0
100
AcDbBlockEnd
  0
BLOCK
  5
6D7
330
6D6
100
AcDbEntity
  8
0
100
AcDbBlockBegin
  2
*D81
 70
     1
 10
0.0
 20
0.0
 30
0.0
  3
*D81
  1

  0
LINE
  5
846
330
6D6
100
AcDbEntity
  8
0Wymiary-PL
 62
     1
370
    -2
100
AcDbLine
 10
223614.6705844816
 20
136550.1215650688
 30
0.0
 11
223614.6705844816
 21
136580.1215650688
 31
0.0
  0
LINE
  5
847
330
6D6
100
AcDbEntity
  8
0Wymiary-PL
 62
     1
370
    -2
100
AcDbLine
 10
223614.6705844816
 20
136365.1215650689
 30
0.0
 11
223614.6705844816
 21
136335.1215650689
 31
0.0
  0
LINE
  5
848
330
6D6
100
AcDbEntity
  8
0Wymiary-PL
 62
     1
370
    -2
100
AcDbLine
 10
223614.6705844816
 20
136520.1215650688
 30
0.0
 11
223614.6705844816
 21
136395.1215650688
 31
0.0
  0
INSERT
  5
849
330
6D6
100
AcDbEntity
  8
0Wymiary-PL
 62
     1
370
    -2
100
AcDbBlockReference
  2
B-DIM
 10
223614.6705844816
 20
136520.1215650688
 30
0.0
 41
30.0
 42
30.0
 43
30.0
 50
270.0
  0
INSERT
  5
84A
330
6D6
100
AcDbEntity
  8
0Wymiary-PL
 62
     1
370
    -2
100
AcDbBlockReference
  2
B-DIM
 10
223614.6705844816
 20
136395.1215650688
 30
0.0
 41
30.0
 42
30.0
 43
30.0
 50
90.0
  0
MTEXT
  5
84B
330
6D6
100
AcDbEntity
  8
0Wymiary-PL
 62
    10
100
AcDbMText
 10
223534.6705844816
 20
136457.6215650689
 30
0.0
 40
80.0
 41
0.0
 71
     5
 72
     1
  1
\A1;125
  7
ROMANS
 11
0.0000000000000001
 21
1.0
 31
0.0
 73
     1
 44
1.0
1001
ACAD
1000
MTEXTBEGIN
1070
    73
1070
     1
1070
    44
1040
1.0
1070
    74
1070
     0
1000
MTEXTEND
  0
POINT
  5
84C
330
6D6
100
AcDbEntity
  8
DEFPOINTS
 62
     0
100
AcDbPoint
 10
222949.4348415375
 20
136520.1215650688
 30
0.0
  0
POINT
  5
84D
330
6D6
100
AcDbEntity
  8
DEFPOINTS
 62
     0
100
AcDbPoint
 10
222977.9092731481
 20
136395.1215650688
 30
0.0
  0
POINT
  5
84E
330
6D6
100
AcDbEntity
  8
DEFPOINTS
 62
     0
100
AcDbPoint
 10
223614.6705844816
 20
136395.1215650688
 30
0.0
  0
ENDBLK
  5
6D8
330
6D6
100
AcDbEntity
  8
0
100
AcDbBlockEnd
  0
BLOCK
  5
6E3
330
6E2
100
AcDbEntity
  8
0
100
AcDbBlockBegin
  2
*D82
 70
     1
 10
0.0
 20
0.0
 30
0.0
  3
*D82
  1

  0
LINE
  5
84F
330
6E2
100
AcDbEntity
  8
0Wymiary-PL
 62
     1
370
    -2
100
AcDbLine
 10
223614.6705844816
 20
136365.1215650689
 30
0.0
 11
223614.6705844816
 21
135550.1215650688
 31
0.0
  0
INSERT
  5
850
330
6E2
100
AcDbEntity
  8
0Wymiary-PL
 62
     1
370
    -2
100
AcDbBlockReference
  2
B-DIM
 10
223614.6705844816
 20
136395.1215650688
 30
0.0
 41
30.0
 42
30.0
 43
30.0
 50
90.0
  0
INSERT
  5
851
330
6E2
100
AcDbEntity
  8
0Wymiary-PL
 62
     1
370
    -2
100
AcDbBlockReference
  2
B-DIM
 10
223614.6705844816
 20
135520.1215650688
 30
0.0
 41
30.0
 42
30.0
 43
30.0
 50
270.0
  0
MTEXT
  5
852
330
6E2
100
AcDbEntity
  8
0Wymiary-PL
 62
    10
100
AcDbMText
 10
223534.6705844816
 20
135957.6215650689
 30
0.0
 40
80.0
 41
0.0
 71
     5
 72
     1
  1
\A1;875
  7
ROMANS
 11
0.0000000000000001
 21
1.0
 31
0.0
 73
     1
 44
1.0
1001
ACAD
1000
MTEXTBEGIN
1070
    73
1070
     1
1070
    44
1040
1.0
1070
    74
1070
     0
1000
MTEXTEND
  0
POINT
  5
853
330
6E2
100
AcDbEntity
  8
DEFPOINTS
 62
     0
100
AcDbPoint
 10
222977.9092731481
 20
136395.1215650688
 30
0.0
  0
POINT
  5
854
330
6E2
100
AcDbEntity
  8
DEFPOINTS
 62
     0
100
AcDbPoint
 10
223299.4348415376
 20
135520.1215650688
 30
0.0
  0
POINT
  5
855
330
6E2
100
AcDbEntity
  8
DEFPOINTS
 62
     0
100
AcDbPoint
 10
223614.6705844816
 20
135520.1215650688
 30
0.0
  0
ENDBLK
  5
6E4
330
6E2
100
AcDbEntity
  8
0
100
AcDbBlockEnd
  0
BLOCK
  5
6ED
330
6EC
100
AcDbEntity
  8
0
100
AcDbBlockBegin
  2
*D83
 70
     1
 10
0.0
 20
0.0
 30
0.0
  3
*D83
  1

  0
LINE
  5
856
330
6EC
100
AcDbEntity
  8
0Wymiary-PL
 62
     1
370
    -2
100
AcDbLine
 10
223614.6705844816
 20
135550.1215650688
 30
0.0
 11
223614.6705844816
 21
135580.1215650688
 31
0.0
  0
LINE
  5
857
330
6EC
100
AcDbEntity
  8
0Wymiary-PL
 62
     1
370
    -2
100
AcDbLine
 10
223614.6705844816
 20
135380.1215650689
 30
0.0
 11
223614.6705844816
 21
135350.1215650689
 31
0.0
  0
LINE
  5
858
330
6EC
100
AcDbEntity
  8
0Wymiary-PL
 62
     1
370
    -2
100
AcDbLine
 10
223614.6705844816
 20
135520.1215650688
 30
0.0
 11
223614.6705844816
 21
135410.1215650689
 31
0.0
  0
INSERT
  5
859
330
6EC
100
AcDbEntity
  8
0Wymiary-PL
 62
     1
370
    -2
100
AcDbBlockReference
  2
B-DIM
 10
223614.6705844816
 20
135520.1215650688
 30
0.0
 41
30.0
 42
30.0
 43
30.0
 50
270.0
  0
INSERT
  5
85A
330
6EC
100
AcDbEntity
  8
0Wymiary-PL
 62
     1
370
    -2
100
AcDbBlockReference
  2
B-DIM
 10
223614.6705844816
 20
135410.1215650689
 30
0.0
 41
30.0
 42
30.0
 43
30.0
 50
90.0
  0
MTEXT
  5
85B
330
6EC
100
AcDbEntity
  8
0Wymiary-PL
 62
    10
100
AcDbMText
 10
223534.6705844816
 20
135465.1215650689
 30
0.0
 40
80.0
 41
0.0
 71
     5
 72
     1
  1
\A1;110
  7
ROMANS
 11
0.0000000000000001
 21
1.0
 31
0.0
 73
     1
 44
1.0
1001
ACAD
1000
MTEXTBEGIN
1070
    73
1070
     1
1070
    44
1040
1.0
1070
    74
1070
     0
1000
MTEXTEND
  0
POINT
  5
85C
330
6EC
100
AcDbEntity
  8
DEFPOINTS
 62
     0
100
AcDbPoint
 10
223299.4348415376
 20
135520.1215650688
 30
0.0
  0
POINT
  5
85D
330
6EC
100
AcDbEntity
  8
DEFPOINTS
 62
     0
100
AcDbPoint
 10
222653.4348415375
 20
135410.1215650689
 30
0.0
  0
POINT
  5
85E
330
6EC
100
AcDbEntity
  8
DEFPOINTS
 62
     0
100
AcDbPoint
 10
223614.6705844816
 20
135410.1215650689
 30
0.0
  0
ENDBLK
  5
6EE
330
6EC
100
AcDbEntity
  8
0
100
AcDbBlockEnd
  0
BLOCK
  5
6F9
330
6F8
100
AcDbEntity
  8
0
100
AcDbBlockBegin
  2
*D84
 70
     1
 10
0.0
 20
0.0
 30
0.0
  3
*D84
  1

  0
LINE
  5
85F
330
6F8
100
AcDbEntity
  8
0Wymiary-PL
 62
     1
370
    -2
100
AcDbLine
 10
223830.3517127249
 20
136490.1215650689
 30
0.0
 11
223830.3517127249
 21
135440.1215650689
 31
0.0
  0
INSERT
  5
860
330
6F8
100
AcDbEntity
  8
0Wymiary-PL
 62
     1
370
    -2
100
AcDbBlockReference
  2
B-DIM
 10
223830.3517127249
 20
136520.1215650688
 30
0.0
 41
30.0
 42
30.0
 43
30.0
 50
90.0
  0
INSERT
  5
861
330
6F8
100
AcDbEntity
  8
0Wymiary-PL
 62
     1
370
    -2
100
AcDbBlockReference
  2
B-DIM
 10
223830.3517127249
 20
135410.1215650689
 30
0.0
 41
30.0
 42
30.0
 43
30.0
 50
270.0
  0
MTEXT
  5
862
330
6F8
100
AcDbEntity
  8
0Wymiary-PL
 62
    10
100
AcDbMText
 10
223750.3517127248
 20
135965.1215650689
 30
0.0
 40
80.0
 41
0.0
 71
     5
 72
     1
  1
\A1;1110
  7
ROMANS
 11
0.0000000000000001
 21
1.0
 31
0.0
 73
     1
 44
1.0
1001
ACAD
1000
MTEXTBEGIN
1070
    73
1070
     1
1070
    44
1040
1.0
1070
    74
1070
     0
1000
MTEXTEND
  0
POINT
  5
863
330
6F8
100
AcDbEntity
  8
DEFPOINTS
 62
     0
100
AcDbPoint
 10
222928.1775785503
 20
136520.1215650688
 30
0.0
  0
POINT
  5
864
330
6F8
100
AcDbEntity
  8
DEFPOINTS
 62
     0
100
AcDbPoint
 10
222637.6678492744
 20
135410.1215650689
 30
0.0
  0
POINT
  5
865
330
6F8
100
AcDbEntity
  8
DEFPOINTS
 62
     0
100
AcDbPoint
 10
223830.3517127249
 20
135410.1215650689
 30
0.0
  0
ENDBLK
  5
6FA
330
6F8
100
AcDbEntity
  8
0
100
AcDbBlockEnd
  0
BLOCK
  5
703
330
702
100
AcDbEntity
  8
0
100
AcDbBlockBegin
  2
*D85
 70
     1
 10
0.0
 20
0.0
 30
0.0
  3
*D85
  1

  0
LINE
  5
823
330
702
100
AcDbEntity
  8
0Wymiary-PL
 62
     1
370
    -2
100
AcDbLine
 10
221343.3859764185
 20
136490.1215650689
 30
0.0
 11
221343.3859764185
 21
136167.1466662284
 31
0.0
  0
INSERT
  5
824
330
702
100
AcDbEntity
  8
0Wymiary-PL
 62
     1
370
    -2
100
AcDbBlockReference
  2
B-DIM
 10
221343.3859764185
 20
136520.1215650688
 30
0.0
 41
30.0
 42
30.0
 43
30.0
 50
90.0
  0
INSERT
  5
825
330
702
100
AcDbEntity
  8
0Wymiary-PL
 62
     1
370
    -2
100
AcDbBlockReference
  2
B-DIM
 10
221343.3859764185
 20
136137.1466662284
 30
0.0
 41
30.0
 42
30.0
 43
30.0
 50
270.0
  0
MTEXT
  5
826
330
702
100
AcDbEntity
  8
0Wymiary-PL
 62
    10
100
AcDbMText
 10
221263.3859764185
 20
136328.6341156487
 30
0.0
 40
80.0
 41
0.0
 71
     5
 72
     1
  1
\A1;383
  7
ROMANS
 11
0.0000000000000001
 21
1.0
 31
0.0
 73
     1
 44
1.0
1001
ACAD
1000
MTEXTBEGIN
1070
    73
1070
     1
1070
    44
1040
1.0
1070
    74
1070
     0
1000
MTEXTEND
  0
POINT
  5
827
330
702
100
AcDbEntity
  8
DEFPOINTS
 62
     0
100
AcDbPoint
 10
222162.35342945
 20
136520.1215650688
 30
0.0
  0
POINT
  5
828
330
702
100
AcDbEntity
  8
DEFPOINTS
 62
     0
100
AcDbPoint
 10
222066.4132358404
 20
136137.1466662284
 30
0.0
  0
POINT
  5
829
330
702
100
AcDbEntity
  8
DEFPOINTS
 62
     0
100
AcDbPoint
 10
221343.3859764185
 20
136137.1466662284
 30
0.0
  0
ENDBLK
  5
704
330
702
100
AcDbEntity
  8
0
100
AcDbBlockEnd
  0
BLOCK
  5
70D
330
70C
100
AcDbEntity
  8
0
100
AcDbBlockBegin
  2
*D86
 70
     1
 10
0.0
 20
0.0
 30
0.0
  3
*D86
  1

  0
LINE
  5
82A
330
70C
100
AcDbEntity
  8
0Wymiary-PL
 62
     1
370
    -2
100
AcDbLine
 10
221343.3859764185
 20
136107.1466662284
 30
0.0
 11
221343.3859764185
 21
135823.0961683543
 31
0.0
  0
INSERT
  5
82B
330
70C
100
AcDbEntity
  8
0Wymiary-PL
 62
     1
370
    -2
100
AcDbBlockReference
  2
B-DIM
 10
221343.3859764185
 20
136137.1466662284
 30
0.0
 41
30.0
 42
30.0
 43
30.0
 50
90.0
  0
INSERT
  5
82C
330
70C
100
AcDbEntity
  8
0Wymiary-PL
 62
     1
370
    -2
100
AcDbBlockReference
  2
B-DIM
 10
221343.3859764185
 20
135793.0961683543
 30
0.0
 41
30.0
 42
30.0
 43
30.0
 50
270.0
  0
MTEXT
  5
82D
330
70C
100
AcDbEntity
  8
0Wymiary-PL
 62
    10
100
AcDbMText
 10
221263.3859764185
 20
135965.1214172914
 30
0.0
 40
80.0
 41
0.0
 71
     5
 72
     1
  1
\A1;344
  7
ROMANS
 11
0.0000000000000001
 21
1.0
 31
0.0
 73
     1
 44
1.0
1001
ACAD
1000
MTEXTBEGIN
1070
    73
1070
     1
1070
    44
1040
1.0
1070
    74
1070
     0
1000
MTEXTEND
  0
POINT
  5
82E
330
70C
100
AcDbEntity
  8
DEFPOINTS
 62
     0
100
AcDbPoint
 10
222066.4132358404
 20
136137.1466662284
 30
0.0
  0
POINT
  5
82F
330
70C
100
AcDbEntity
  8
DEFPOINTS
 62
     0
100
AcDbPoint
 10
222064.4348415375
 20
135793.0961683543
 30
0.0
  0
POINT
  5
830
330
70C
100
AcDbEntity
  8
DEFPOINTS
 62
     0
100
AcDbPoint
 10
221343.3859764185
 20
135793.0961683543
 30
0.0
  0
ENDBLK
  5
70E
330
70C
100
AcDbEntity
  8
0
100
AcDbBlockEnd
  0
BLOCK
  5
717
330
716
100
AcDbEntity
  8
0
100
AcDbBlockBegin
  2
*D87
 70
     1
 10
0.0
 20
0.0
 30
0.0
  3
*D87
  1

  0
LINE
  5
831
330
716
100
AcDbEntity
  8
0Wymiary-PL
 62
     1
370
    -2
100
AcDbLine
 10
221343.3859764185
 20
135763.0961683543
 30
0.0
 11
221343.3859764185
 21
135440.1215650689
 31
0.0
  0
INSERT
  5
832
330
716
100
AcDbEntity
  8
0Wymiary-PL
 62
     1
370
    -2
100
AcDbBlockReference
  2
B-DIM
 10
221343.3859764185
 20
135793.0961683543
 30
0.0
 41
30.0
 42
30.0
 43
30.0
 50
90.0
  0
INSERT
  5
833
330
716
100
AcDbEntity
  8
0Wymiary-PL
 62
     1
370
    -2
100
AcDbBlockReference
  2
B-DIM
 10
221343.3859764185
 20
135410.1215650689
 30
0.0
 41
30.0
 42
30.0
 43
30.0
 50
270.0
  0
MTEXT
  5
834
330
716
100
AcDbEntity
  8
0Wymiary-PL
 62
    10
100
AcDbMText
 10
221263.3859764185
 20
135601.6088667116
 30
0.0
 40
80.0
 41
0.0
 71
     5
 72
     1
  1
\A1;383
  7
ROMANS
 11
0.0000000000000001
 21
1.0
 31
0.0
 73
     1
 44
1.0
1001
ACAD
1000
MTEXTBEGIN
1070
    73
1070
     1
1070
    44
1040
1.0
1070
    74
1070
     0
1000
MTEXTEND
  0
POINT
  5
835
330
716
100
AcDbEntity
  8
DEFPOINTS
 62
     0
100
AcDbPoint
 10
222064.4348415375
 20
135793.0961683543
 30
0.0
  0
POINT
  5
836
330
716
100
AcDbEntity
  8
DEFPOINTS
 62
     0
100
AcDbPoint
 10
222064.4348415375
 20
135410.1215650689
 30
0.0
  0
POINT
  5
837
330
716
100
AcDbEntity
  8
DEFPOINTS
 62
     0
100
AcDbPoint
 10
221343.3859764185
 20
135410.1215650689
 30
0.0
  0
ENDBLK
  5
718
330
716
100
AcDbEntity
  8
0
100
AcDbBlockEnd
  0
ENDSEC
  0
SECTION
  2
ENTITIES
  0
TEXT
  5
75
330
2
100
AcDbEntity
  8
NAPISY
100
AcDbText
 10
216646.5520012698
 20
128323.0717886572
 30
0.0
 40
150.0
  1
   O B R Y S   B U D Y N K U           S K A L A   1 : 5 0 0 
  7
ARIAL
100
AcDbText
  0
LINE
  5
82
330
2
100
AcDbEntity
  8
NAPISY
  6
HIDDEN
 62
     1
 48
5.0
100
AcDbLine
 10
220399.8892448725
 20
133670.6627583035
 30
0.0
 11
220399.8892448725
 21
138473.1198157809
 31
0.0
  0
TEXT
  5
84
330
2
100
AcDbEntity
  8
NAPISY
100
AcDbText
 10
220340.3680678792
 20
134752.3099211241
 30
0.0
 40
100.0
  1
OŚ ODBICIA LUSTRZANEGO
 50
90.0
  7
AVA
100
AcDbText
  0
TEXT
  5
86
330
2
100
AcDbEntity
  8
NAPISY
100
AcDbText
 10
216742.7650523877
 20
140786.437049539
 30
0.0
 40
150.0
  1
MOŻNA WKLEIĆ DO PROJEKTU ZAGOSPODAROWANIA TERENU
  7
ARIAL
100
AcDbText
  0
TEXT
  5
87
330
2
100
AcDbEntity
  8
NAPISY
100
AcDbText
 10
216666.4297817526
 20
141116.3055269018
 30
0.0
 40
150.0
  1
"DOM W CYTRYNKACH"
  7
ARIAL
100
AcDbText
  0
LWPOLYLINE
  5
88
330
2
100
AcDbEntity
  8
RAMKI-A4
100
AcDbPolyline
 90
        4
 70
     1
 43
0.0
 10
215187.2000545948
 20
127657.5157057546
 10
215187.2000545948
 20
141677.5157057546
 10
225387.2000545948
 20
141677.5157057546
 10
225387.2000545948
 20
127657.5157057546
  0
LINE
  5
93
330
2
100
AcDbEntity
  8
0Hatch
390
95
100
AcDbLine
 10
217540.3436482076
 20
136500.1215650688
 30
0.0
 11
217540.3436482076
 21
136395.1215650688
 31
0.0
  0
LINE
  5
96
330
2
100
AcDbEntity
  8
0Hatch
390
95
100
AcDbLine
 10
217550.3436482076
 20
136395.1215650688
 30
0.0
 11
217550.3436482076
 21
136520.1215650688
 31
0.0
  0
LINE
  5
97
330
2
100
AcDbEntity
  8
0Hatch
390
95
100
AcDbLine
 10
217510.3436482076
 20
136500.1215650688
 30
0.0
 11
217540.3436482076
 21
136500.1215650688
 31
0.0
  0
LINE
  5
98
330
2
100
AcDbEntity
  8
0Hatch
100
AcDbLine
 10
217550.3436482076
 20
136520.1215650688
 30
0.0
 11
217550.3436482076
 21
136395.1215650688
 31
0.0
  0
LINE
  5
99
330
2
100
AcDbEntity
  8
0Hatch
390
95
100
AcDbLine
 10
217510.3436482076
 20
136395.1215650688
 30
0.0
 11
217510.3436482076
 21
136500.1215650688
 31
0.0
  0
LINE
  5
9A
330
2
100
AcDbEntity
  8
0Hatch
390
95
100
AcDbLine
 10
217490.3436482075
 20
136520.1215650688
 30
0.0
 11
217490.3436482075
 21
136395.1215650688
 31
0.0
  0
LINE
  5
9B
330
2
100
AcDbEntity
  8
0Hatch
390
95
100
AcDbLine
 10
217550.3436482076
 20
136520.1215650688
 30
0.0
 11
217490.3436482075
 21
136520.1215650688
 31
0.0
  0
LINE
  5
9C
330
2
100
AcDbEntity
  8
0Hatch
100
AcDbLine
 10
217845.3436482076
 20
136520.1215650688
 30
0.0
 11
217550.3436482076
 21
136520.1215650688
 31
0.0
  0
LINE
  5
9D
330
2
100
AcDbEntity
  8
0Hatch
100
AcDbLine
 10
218477.3625351756
 20
136902.4417616278
 30
0.0
 11
218096.0608498722
 21
136521.1400763244
 31
0.0
  0
LINE
  5
9E
330
2
100
AcDbEntity
  8
0Hatch
390
95
100
AcDbLine
 10
218293.492137264
 20
136803.4468122616
 30
0.0
 11
218335.9298615367
 21
136761.0090879889
 31
0.0
  0
LINE
  5
9F
330
2
100
AcDbEntity
  8
0Hatch
100
AcDbLine
 10
218293.492137264
 20
136803.4468122616
 30
0.0
 11
218335.9298615367
 21
136761.0090879889
 31
0.0
  0
LINE
  5
A0
330
2
100
AcDbEntity
  8
0Hatch
100
AcDbLine
 10
218293.492137264
 20
136803.4468122616
 30
0.0
 11
218011.2080361297
 21
136521.1400763244
 31
0.0
  0
LINE
  5
A1
330
2
100
AcDbEntity
  8
0Hatch
100
AcDbLine
 10
218314.7051431495
 20
136782.2338063762
 30
0.0
 11
218053.634443001
 21
136521.1400763244
 31
0.0
  0
LINE
  5
A2
330
2
100
AcDbEntity
  8
0Hatch
390
95
100
AcDbLine
 10
218477.351217774
 20
136987.3058927717
 30
0.0
 11
218293.492137264
 21
136803.4468122616
 31
0.0
  0
LINE
  5
A3
330
2
100
AcDbEntity
  8
0Hatch
390
95
100
AcDbLine
 10
218321.7764085115
 20
136803.4468122616
 30
0.0
 11
218477.351217774
 21
136959.0216215242
 31
0.0
  0
LINE
  5
A4
330
2
100
AcDbEntity
  8
0Hatch
390
95
100
AcDbLine
 10
218343.0009293486
 20
136782.2222914245
 30
0.0
 11
218321.7764085115
 21
136803.4468122616
 31
0.0
  0
LINE
  5
A5
330
2
100
AcDbEntity
  8
0Hatch
390
95
100
AcDbLine
 10
218477.3625351756
 20
136916.5838972515
 30
0.0
 11
218343.0009293486
 21
136782.2222914245
 31
0.0
  0
LINE
  5
A6
330
2
100
AcDbEntity
  8
0Hatch
390
95
100
AcDbLine
 10
218611.7241410026
 20
136782.2222914245
 30
0.0
 11
218477.3625351756
 21
136916.5838972515
 31
0.0
  0
LINE
  5
A7
330
2
100
AcDbEntity
  8
0Hatch
100
AcDbLine
 10
219112.6640503657
 20
136267.1402464376
 30
0.0
 11
218477.3625351756
 21
136902.4417616278
 31
0.0
  0
LINE
  5
A8
330
2
100
AcDbEntity
  8
0Hatch
390
95
100
AcDbLine
 10
218477.3625351756
 20
136902.4417616278
 30
0.0
 11
218618.7952088144
 21
136761.0090879889
 31
0.0
  0
LINE
  5
A9
330
2
100
AcDbEntity
  8
0Hatch
390
95
100
AcDbLine
 10
218661.2216156856
 20
136803.4354948601
 30
0.0
 11
218477.351217774
 21
136987.3058927717
 31
0.0
  0
LINE
  5
AA
330
2
100
AcDbEntity
  8
0Hatch
390
95
100
AcDbLine
 10
218477.351217774
 20
136959.0216215242
 30
0.0
 11
218632.9373444381
 21
136803.4354948601
 31
0.0
  0
LINE
  5
AB
330
2
100
AcDbEntity
  8
0Hatch
100
AcDbLine
 10
219013.6577835981
 20
136450.9993269476
 30
0.0
 11
218661.2329330872
 21
136803.4468122616
 31
0.0
  0
LINE
  5
AC
330
2
100
AcDbEntity
  8
0Hatch
100
AcDbLine
 10
218640.0199272017
 20
136782.2338063762
 30
0.0
 11
218993.111143488
 21
136430.4526868376
 31
0.0
  0
LINE
  5
AD
330
2
100
AcDbEntity
  8
0Hatch
390
95
100
AcDbLine
 10
218617.7764919596
 20
136759.9905767334
 30
0.0
 11
218660.2028988308
 21
136802.4169836046
 31
0.0
  0
LINE
  5
AE
330
2
100
AcDbEntity
  8
0Hatch
100
AcDbLine
 10
218618.7952088144
 20
136761.0090879889
 30
0.0
 11
218661.2329330872
 21
136803.4468122616
 31
0.0
  0
LINE
  5
AF
330
2
100
AcDbEntity
  8
0Hatch
390
95
100
AcDbLine
 10
218992.4445801625
 20
136401.5018522646
 30
0.0
 11
219013.6577835981
 21
136422.7150557002
 31
0.0
  0
LINE
  5
B0
330
2
100
AcDbEntity
  8
0Hatch
390
95
100
AcDbLine
 10
219197.5281815096
 20
136267.128929036
 30
0.0
 11
219013.6577835981
 21
136450.9993269476
 31
0.0
  0
LINE
  5
B1
330
2
100
AcDbEntity
  8
0Hatch
390
95
100
AcDbLine
 10
219013.6577835981
 20
136450.9993269476
 30
0.0
 11
218971.2313767269
 21
136408.5729200765
 31
0.0
  0
LINE
  5
B2
330
2
100
AcDbEntity
  8
0Hatch
100
AcDbLine
 10
218971.2313767269
 20
136408.5729200765
 30
0.0
 11
219013.6577835981
 21
136450.9993269476
 31
0.0
  0
LINE
  5
B3
330
2
100
AcDbEntity
  8
0Hatch
390
95
100
AcDbLine
 10
219013.6577835981
 20
136422.7150557002
 30
0.0
 11
219169.2439102622
 21
136267.128929036
 31
0.0
  0
LINE
  5
B4
330
2
100
AcDbEntity
  8
0Hatch
100
AcDbLine
 10
218859.077396682
 20
136013.5535927538
 30
0.0
 11
219112.6640503657
 21
136267.1402464376
 31
0.0
  0
LINE
  5
B5
330
2
100
AcDbEntity
  8
0Hatch
390
95
100
AcDbLine
 10
218992.4445801625
 20
136132.7786406106
 30
0.0
 11
219126.8061859895
 21
136267.1402464376
 31
0.0
  0
LINE
  5
B6
330
2
100
AcDbEntity
  8
0Hatch
390
95
100
AcDbLine
 10
219126.8061859894
 20
136267.1402464376
 30
0.0
 11
218992.4445801625
 21
136401.5018522646
 31
0.0
  0
LINE
  5
B7
330
2
100
AcDbEntity
  8
0Hatch
390
95
100
AcDbLine
 10
219013.6691009996
 20
136083.269848526
 30
0.0
 11
219197.5281815096
 21
136267.128929036
 31
0.0
  0
LINE
  5
B8
330
2
100
AcDbEntity
  8
0Hatch
390
95
100
AcDbLine
 10
219169.2439102622
 20
136267.128929036
 30
0.0
 11
219013.6691009996
 21
136111.5541197735
 31
0.0
  0
LINE
  5
B9
330
2
100
AcDbEntity
  8
0Hatch
100
AcDbLine
 10
218901.5166939949
 20
135971.1400763244
 30
0.0
 11
219013.6691009996
 21
136083.269848526
 31
0.0
  0
LINE
  5
BA
330
2
100
AcDbEntity
  8
0Hatch
100
AcDbLine
 10
218880.3034905593
 20
135992.35327976
 30
0.0
 11
218992.4445801625
 21
136104.4943693631
 31
0.0
  0
LINE
  5
BB
330
2
100
AcDbEntity
  8
0Hatch
390
95
100
AcDbLine
 10
218971.2313767269
 20
136125.7075727988
 30
0.0
 11
219013.6691009996
 21
136083.269848526
 31
0.0
  0
LINE
  5
BC
330
2
100
AcDbEntity
  8
0Hatch
100
AcDbLine
 10
218971.2313767269
 20
136125.7075727988
 30
0.0
 11
219013.6691009996
 21
136083.269848526
 31
0.0
  0
LINE
  5
BD
330
2
100
AcDbEntity
  8
0Hatch
390
95
100
AcDbLine
 10
219013.6691009996
 20
136111.5541197735
 30
0.0
 11
218992.4445801625
 21
136132.7786406106
 31
0.0
  0
LINE
  5
BE
330
2
100
AcDbEntity
  8
0Hatch
100
AcDbLine
 10
217825.3436482075
 20
135320.1215650688
 30
0.0
 11
218146.3436482075
 21
135320.1215650688
 31
0.0
  0
LINE
  5
BF
330
2
100
AcDbEntity
  8
0Hatch
100
AcDbLine
 10
217845.3436482076
 20
135350.1215650688
 30
0.0
 11
218146.3436482075
 21
135350.1215650688
 31
0.0
  0
LINE
  5
C0
330
2
100
AcDbEntity
  8
0Hatch
100
AcDbLine
 10
217845.3436482076
 20
135380.1215650688
 30
0.0
 11
218146.3436482075
 21
135380.1215650688
 31
0.0
  0
LINE
  5
C1
330
2
100
AcDbEntity
  8
0Hatch
100
AcDbLine
 10
218229.0855651252
 20
135380.2370865582
 30
0.0
 11
218233.8188015285
 21
135410.1215650689
 31
0.0
  0
LINE
  5
C2
330
2
100
AcDbEntity
  8
0Hatch
100
AcDbLine
 10
218216.7281267181
 20
135355.9842481194
 30
0.0
 11
218229.0855651252
 21
135380.2370865582
 31
0.0
  0
LINE
  5
C3
330
2
100
AcDbEntity
  8
0Hatch
100
AcDbLine
 10
218203.4159395763
 20
135407.2485265671
 30
0.0
 11
218199.0674065677
 21
135385.3869748399
 31
0.0
  0
LINE
  5
C4
330
2
100
AcDbEntity
  8
0Hatch
100
AcDbLine
 10
218197.480965157
 20
135336.7370865582
 30
0.0
 11
218216.7281267181
 21
135355.9842481194
 31
0.0
  0
LINE
  5
C5
330
2
100
AcDbEntity
  8
0Hatch
100
AcDbLine
 10
218199.0674065677
 20
135385.3869748399
 30
0.0
 11
218186.6838322728
 21
135366.8536461878
 31
0.0
  0
LINE
  5
C6
330
2
100
AcDbEntity
  8
0Hatch
100
AcDbLine
 10
218173.2281267181
 20
135324.3796481511
 30
0.0
 11
218197.480965157
 21
135336.7370865582
 31
0.0
  0
LINE
  5
C7
330
2
100
AcDbEntity
  8
0Hatch
100
AcDbLine
 10
218186.6838322728
 20
135366.8536461878
 30
0.0
 11
218168.1505036207
 21
135354.4700718929
 31
0.0
  0
LINE
  5
C8
330
2
100
AcDbEntity
  8
0Hatch
100
AcDbLine
 10
218146.3436482075
 20
135320.1215650688
 30
0.0
 11
218173.2281267181
 21
135324.3796481511
 31
0.0
  0
LINE
  5
C9
330
2
100
AcDbEntity
  8
0Hatch
100
AcDbLine
 10
218168.1505036207
 20
135354.4700718929
 30
0.0
 11
218146.3436482075
 21
135350.1215650688
 31
0.0
  0
LINE
  5
CA
330
2
100
AcDbEntity
  8
0Hatch
100
AcDbLine
 10
218199.0047815606
 20
135385.308609424
 30
0.0
 11
218203.9403853096
 21
135410.1215650689
 31
0.0
  0
LINE
  5
CB
330
2
100
AcDbEntity
  8
0Hatch
100
AcDbLine
 10
218186.6487347351
 20
135366.8164785412
 30
0.0
 11
218199.0047815606
 21
135385.308609424
 31
0.0
  0
LINE
  5
CC
330
2
100
AcDbEntity
  8
0Hatch
100
AcDbLine
 10
218168.1566038523
 20
135354.4604317157
 30
0.0
 11
218186.6487347351
 21
135366.8164785412
 31
0.0
  0
LINE
  5
CD
330
2
100
AcDbEntity
  8
0Hatch
100
AcDbLine
 10
218146.3436482075
 20
135350.1215650688
 30
0.0
 11
218168.1566038523
 21
135354.4604317157
 31
0.0
  0
LINE
  5
CE
330
2
100
AcDbEntity
  8
0Hatch
100
AcDbLine
 10
218159.8436482075
 20
135383.7388791667
 30
0.0
 11
218169.7263341097
 21
135393.6215650688
 31
0.0
  0
LINE
  5
CF
330
2
100
AcDbEntity
  8
0Hatch
100
AcDbLine
 10
218146.3436482075
 20
135380.1215650688
 30
0.0
 11
218159.8436482075
 21
135383.7388791667
 31
0.0
  0
LINE
  5
D0
330
2
100
AcDbEntity
  8
0Hatch
100
AcDbLine
 10
217844.0196034038
 20
135330.0754797482
 30
0.0
 11
217845.359349366
 21
135335.0754797482
 31
0.0
  0
LINE
  5
D1
330
2
100
AcDbEntity
  8
0Hatch
100
AcDbLine
 10
217845.359349366
 20
135335.0754797482
 30
0.0
 11
217844.0196034038
 21
135340.0754797482
 31
0.0
  0
LINE
  5
D2
330
2
100
AcDbEntity
  8
0Hatch
100
AcDbLine
 10
217840.359349366
 20
135326.4152257104
 30
0.0
 11
217844.0196034038
 21
135330.0754797482
 31
0.0
  0
LINE
  5
D3
330
2
100
AcDbEntity
  8
0Hatch
100
AcDbLine
 10
217844.0196034038
 20
135340.0754797482
 30
0.0
 11
217840.359349366
 21
135343.735733786
 31
0.0
  0
LINE
  5
D4
330
2
100
AcDbEntity
  8
0Hatch
100
AcDbLine
 10
217835.359349366
 20
135325.0754797482
 30
0.0
 11
217840.359349366
 21
135326.4152257104
 31
0.0
  0
LINE
  5
D5
330
2
100
AcDbEntity
  8
0Hatch
100
AcDbLine
 10
217840.359349366
 20
135343.735733786
 30
0.0
 11
217835.359349366
 21
135345.0754797482
 31
0.0
  0
LINE
  5
D6
330
2
100
AcDbEntity
  8
0Hatch
100
AcDbLine
 10
217830.359349366
 20
135326.4152257104
 30
0.0
 11
217835.359349366
 21
135325.0754797482
 31
0.0
  0
LINE
  5
D7
330
2
100
AcDbEntity
  8
0Hatch
100
AcDbLine
 10
217835.359349366
 20
135345.0754797482
 30
0.0
 11
217830.359349366
 21
135343.735733786
 31
0.0
  0
LINE
  5
D8
330
2
100
AcDbEntity
  8
0Hatch
100
AcDbLine
 10
217826.6990953281
 20
135330.0754797482
 30
0.0
 11
217830.359349366
 21
135326.4152257104
 31
0.0
  0
LINE
  5
D9
330
2
100
AcDbEntity
  8
0Hatch
100
AcDbLine
 10
217830.359349366
 20
135343.735733786
 30
0.0
 11
217826.6990953281
 21
135340.0754797482
 31
0.0
  0
LINE
  5
DA
330
2
100
AcDbEntity
  8
0Hatch
100
AcDbLine
 10
217825.359349366
 20
135335.0754797482
 30
0.0
 11
217826.6990953281
 21
135330.0754797482
 31
0.0
  0
LINE
  5
DB
330
2
100
AcDbEntity
  8
0Hatch
100
AcDbLine
 10
217826.6990953281
 20
135340.0754797482
 30
0.0
 11
217825.359349366
 21
135335.0754797482
 31
0.0
  0
LINE
  5
DC
330
2
100
AcDbEntity
  8
0Hatch
100
AcDbLine
 10
217845.3436482076
 20
135320.1215650688
 30
0.0
 11
217845.3436482076
 21
135520.1215650688
 31
0.0
  0
LINE
  5
DD
330
2
100
AcDbEntity
  8
0Hatch
100
AcDbLine
 10
217825.3436482075
 20
135520.1215650688
 30
0.0
 11
217825.3436482075
 21
135320.1215650688
 31
0.0
  0
LINE
  5
DE
330
2
100
AcDbEntity
  8
0Hatch
390
DF
100
AcDbLine
 10
217877.3436482076
 20
135414.6215650688
 30
0.0
 11
217863.8436482076
 21
135418.2388791667
 31
0.0
  0
CIRCLE
  5
E0
102
{ACAD_REACTORS
330
F8
102
}
330
2
100
AcDbEntity
  8
0Hatch
390
95
100
AcDbCircle
 10
-217877.3436482076
 20
135441.6215650689
 30
0.0
 40
19.99999999999995
210
0.0
220
0.0
230
-1.0
  0
LINE
  5
E1
330
2
100
AcDbEntity
  8
0Hatch
390
DF
100
AcDbLine
 10
217863.8436482076
 20
135418.2388791667
 30
0.0
 11
217853.9609623054
 21
135428.1215650688
 31
0.0
  0
LINE
  5
E2
330
2
100
AcDbEntity
  8
0Hatch
390
DF
100
AcDbLine
 10
217853.9609623054
 20
135455.1215650689
 30
0.0
 11
217863.8436482076
 21
135465.004250971
 31
0.0
  0
LINE
  5
E3
330
2
100
AcDbEntity
  8
0Hatch
100
AcDbLine
 10
217863.8436482076
 20
135465.004250971
 30
0.0
 11
217853.9609623054
 21
135455.1215650689
 31
0.0
  0
LINE
  5
E4
330
2
100
AcDbEntity
  8
0Hatch
100
AcDbLine
 10
217853.9609623054
 20
135428.1215650688
 30
0.0
 11
217863.8436482076
 21
135418.2388791667
 31
0.0
  0
LINE
  5
E5
330
2
100
AcDbEntity
  8
0Hatch
390
DF
100
AcDbLine
 10
217853.9609623054
 20
135428.1215650688
 30
0.0
 11
217850.3436482076
 21
135441.6215650689
 31
0.0
  0
LINE
  5
E6
330
2
100
AcDbEntity
  8
0Hatch
390
DF
100
AcDbLine
 10
217850.3436482076
 20
135441.6215650689
 30
0.0
 11
217853.9609623054
 21
135455.1215650689
 31
0.0
  0
LINE
  5
E7
330
2
100
AcDbEntity
  8
0Hatch
100
AcDbLine
 10
217853.9609623054
 20
135455.1215650689
 30
0.0
 11
217850.3436482076
 21
135441.6215650689
 31
0.0
  0
LINE
  5
E8
330
2
100
AcDbEntity
  8
0Hatch
100
AcDbLine
 10
217850.3436482076
 20
135441.6215650689
 30
0.0
 11
217853.9609623054
 21
135428.1215650688
 31
0.0
  0
LINE
  5
E9
330
2
100
AcDbEntity
  8
0Hatch
390
DF
100
AcDbLine
 10
217863.8436482076
 20
135465.004250971
 30
0.0
 11
217877.3436482076
 21
135468.6215650689
 31
0.0
  0
LINE
  5
EA
330
2
100
AcDbEntity
  8
0Hatch
390
DF
100
AcDbLine
 10
217890.8436482076
 20
135418.2388791667
 30
0.0
 11
217877.3436482076
 21
135414.6215650688
 31
0.0
  0
LINE
  5
EB
330
2
100
AcDbEntity
  8
0Hatch
390
DF
100
AcDbLine
 10
217877.3436482076
 20
135468.6215650689
 30
0.0
 11
217890.8436482076
 21
135465.004250971
 31
0.0
  0
LINE
  5
EC
330
2
100
AcDbEntity
  8
0Hatch
390
DF
100
AcDbLine
 10
217900.7263341098
 20
135428.1215650688
 30
0.0
 11
217890.8436482076
 21
135418.2388791667
 31
0.0
  0
LINE
  5
ED
330
2
100
AcDbEntity
  8
0Hatch
390
DF
100
AcDbLine
 10
217890.8436482076
 20
135465.004250971
 30
0.0
 11
217900.7263341098
 21
135455.1215650689
 31
0.0
  0
LINE
  5
EE
330
2
100
AcDbEntity
  8
0Hatch
390
DF
100
AcDbLine
 10
217900.7263341098
 20
135455.1215650689
 30
0.0
 11
217904.3436482075
 21
135441.6215650689
 31
0.0
  0
LINE
  5
EF
330
2
100
AcDbEntity
  8
0Hatch
390
DF
100
AcDbLine
 10
217904.3436482075
 20
135441.6215650689
 30
0.0
 11
217900.7263341098
 21
135428.1215650688
 31
0.0
  0
LINE
  5
F0
330
2
100
AcDbEntity
  8
0Hatch
100
AcDbLine
 10
217900.7263341098
 20
135428.1215650688
 30
0.0
 11
217904.3436482075
 21
135441.6215650689
 31
0.0
  0
LINE
  5
F1
330
2
100
AcDbEntity
  8
0Hatch
100
AcDbLine
 10
217904.3436482075
 20
135441.6215650689
 30
0.0
 11
217900.7263341098
 21
135455.1215650689
 31
0.0
  0
LINE
  5
F2
330
2
100
AcDbEntity
  8
0Hatch
100
AcDbLine
 10
217900.7263341098
 20
135455.1215650689
 30
0.0
 11
217890.8436482076
 21
135465.004250971
 31
0.0
  0
LINE
  5
F3
330
2
100
AcDbEntity
  8
0Hatch
100
AcDbLine
 10
217890.8436482076
 20
135418.2388791667
 30
0.0
 11
217900.7263341098
 21
135428.1215650688
 31
0.0
  0
LINE
  5
F4
330
2
100
AcDbEntity
  8
0Hatch
100
AcDbLine
 10
217890.8436482076
 20
135465.004250971
 30
0.0
 11
217877.3436482076
 21
135468.6215650689
 31
0.0
  0
LINE
  5
F5
330
2
100
AcDbEntity
  8
0Hatch
100
AcDbLine
 10
217877.3436482076
 20
135414.6215650688
 30
0.0
 11
217890.8436482076
 21
135418.2388791667
 31
0.0
  0
LINE
  5
F6
330
2
100
AcDbEntity
  8
0Hatch
100
AcDbLine
 10
217877.3436482076
 20
135468.6215650689
 30
0.0
 11
217863.8436482076
 21
135465.004250971
 31
0.0
  0
LINE
  5
F7
330
2
100
AcDbEntity
  8
0Hatch
100
AcDbLine
 10
217863.8436482076
 20
135418.2388791667
 30
0.0
 11
217877.3436482076
 21
135414.6215650688
 31
0.0
  0
HATCH
  5
F8
330
2
100
AcDbEntity
  8
0Hatch
100
AcDbHatch
 10
0.0
 20
0.0
 30
0.0
210
0.0
220
0.0
230
1.0
  2
SOLID
 70
     1
 71
     1
 91
        1
 92
        7
 72
     1
 73
     1
 93
        2
 10
217897.3436482076
 20
135441.6215650689
 42
1.0
 10
217857.3436482075
 20
135441.6215650689
 42
1.0
 97
        1
330
E0
 75
     0
 76
     1
 47
1.77806061812186
 98
        1
 10
217878.1130302428
 20
135437.4069098519
  0
LINE
  5
F9
330
2
100
AcDbEntity
  8
0Hatch
100
AcDbLine
 10
217490.3436482075
 20
135410.1215650688
 30
0.0
 11
217825.3436482075
 21
135410.1215650688
 31
0.0
  0
LINE
  5
FA
330
2
100
AcDbEntity
  8
0Hatch
100
AcDbLine
 10
217490.3436482075
 20
135520.1215650688
 30
0.0
 11
217490.3436482075
 21
135410.1215650688
 31
0.0
  0
LINE
  5
FB
102
{ACAD_REACTORS
330
19E
102
}
330
2
100
AcDbEntity
  8
0Hatch
100
AcDbLine
 10
217555.3436482076
 20
135580.1215650688
 30
0.0
 11
217555.3436482076
 21
135520.1215650688
 31
0.0
  0
LINE
  5
FD
102
{ACAD_REACTORS
330
19E
102
}
330
2
100
AcDbEntity
  8
0Hatch
100
AcDbLine
 10
217794.3436482076
 20
135580.1215650688
 30
0.0
 11
217794.3436482076
 21
135520.1215650688
 31
0.0
  0
LINE
  5
FE
102
{ACAD_REACTORS
330
19E
102
}
330
2
100
AcDbEntity
  8
0Hatch
100
AcDbLine
 10
217723.4221104265
 20
136395.1215650688
 30
0.0
 11
217723.4221104265
 21
136335.1215650689
 31
0.0
  0
LINE
  5
FF
102
{ACAD_REACTORS
330
19E
102
}
330
2
100
AcDbEntity
  8
0Hatch
100
AcDbLine
 10
217723.4221104265
 20
136395.1215650688
 30
0.0
 11
217723.4221104265
 21
136335.1215650689
 31
0.0
  0
LINE
  5
100
102
{ACAD_REACTORS
330
19E
102
}
330
2
100
AcDbEntity
  8
0Hatch
100
AcDbLine
 10
218200.3436482076
 20
136520.1215650688
 30
0.0
 11
218200.3436482076
 21
136460.1215650689
 31
0.0
  0
LINE
  5
101
102
{ACAD_REACTORS
330
19E
102
}
330
2
100
AcDbEntity
  8
0Hatch
100
AcDbLine
 10
218200.3436482076
 20
136520.1215650688
 30
0.0
 11
218200.3436482076
 21
136460.1215650689
 31
0.0
  0
LINE
  5
102
102
{ACAD_REACTORS
330
19E
102
}
330
2
100
AcDbEntity
  8
0Hatch
100
AcDbLine
 10
217937.3436482076
 20
135580.1215650688
 30
0.0
 11
217937.3436482076
 21
135520.1215650688
 31
0.0
  0
LINE
  5
103
102
{ACAD_REACTORS
330
19E
102
}
330
2
100
AcDbEntity
  8
0Hatch
100
AcDbLine
 10
218117.3436482076
 20
135580.1215650689
 30
0.0
 11
218117.3436482076
 21
135520.1215650688
 31
0.0
  0
LINE
  5
104
330
2
100
AcDbEntity
  8
0Hatch
100
AcDbLine
 10
218611.7241410026
 20
136782.2222914245
 30
0.0
 11
218632.9373444381
 21
136803.4354948601
 31
0.0
  0
DIMENSION
  5
105
330
2
100
AcDbEntity
  8
0Wymiary-PL
100
AcDbDimension
  2
*D74
 10
217845.3436482076
 20
137136.5899670858
 30
0.0
 11
217667.8436482076
 21
137216.5899670858
 31
0.0
 70
    32
 71
     5
 42
355.0
  3
500
100
AcDbAlignedDimension
 13
217490.3436482075
 23
136271.0169852908
 33
0.0
 14
217845.3436482076
 24
136430.464562205
 34
0.0
100
AcDbRotatedDimension
  0
DIMENSION
  5
111
330
2
100
AcDbEntity
  8
0Wymiary-PL
100
AcDbDimension
  2
*D73
 10
218735.3436482076
 20
137136.5899670858
 30
0.0
 11
218290.3436482076
 21
137216.5899670858
 31
0.0
 70
    32
 71
     5
 42
890.0
  3
500
100
AcDbAlignedDimension
 13
217845.3436482076
 23
136430.464562205
 33
0.0
 14
218735.3436482076
 24
136430.464562205
 34
0.0
100
AcDbRotatedDimension
  0
DIMENSION
  5
11C
330
2
100
AcDbEntity
  8
0Wymiary-PL
100
AcDbDimension
  2
*D72
 10
218907.55151423
 20
137136.5899670858
 30
0.0
 11
218821.4475812188
 21
137216.5899670858
 31
0.0
 70
    32
 71
     5
 42
172.2078660224506
  3
500
100
AcDbAlignedDimension
 13
218735.3436482076
 23
136430.464562205
 33
0.0
 14
218907.55151423
 24
135965.104037885
 34
0.0
100
AcDbRotatedDimension
  0
DIMENSION
  5
129
330
2
100
AcDbEntity
  8
0Wymiary-PL
100
AcDbDimension
  2
*D71
 10
218907.55151423
 20
137344.3407412846
 30
0.0
 11
218198.9475812188
 21
137424.3407412846
 31
0.0
 70
    32
 71
     5
 42
1417.20786602245
  3
500
100
AcDbAlignedDimension
 13
217490.3436482075
 23
136340.3838654005
 33
0.0
 14
218907.55151423
 24
135965.104037885
 34
0.0
100
AcDbRotatedDimension
  0
DIMENSION
  5
134
330
2
100
AcDbEntity
  8
0Wymiary-PL
100
AcDbDimension
  2
*D70
 10
218146.3436482075
 20
135022.5831202519
 30
0.0
 11
217818.3436482076
 21
135102.5831202519
 31
0.0
 70
    32
 71
     5
 42
656.0
  3
500
100
AcDbAlignedDimension
 13
217490.3436482075
 23
135552.4265712179
 33
0.0
 14
218146.3436482075
 24
135510.5184971947
 34
0.0
100
AcDbRotatedDimension
  0
DIMENSION
  5
13F
330
2
100
AcDbEntity
  8
0Wymiary-PL
100
AcDbDimension
  2
*D69
 10
218735.3436482076
 20
135022.5831202519
 30
0.0
 11
218440.8436482076
 21
135102.5831202519
 31
0.0
 70
    32
 71
     5
 42
589.0000000000291
  3
500
100
AcDbAlignedDimension
 13
218146.3436482075
 23
135510.5184971947
 33
0.0
 14
218735.3436482076
 24
135448.8711247705
 34
0.0
100
AcDbRotatedDimension
  0
DIMENSION
  5
14A
330
2
100
AcDbEntity
  8
0Wymiary-PL
100
AcDbDimension
  2
*D68
 10
217185.1079052635
 20
136395.1215650688
 30
0.0
 11
217105.1079052634
 21
136457.6215650689
 31
0.0
 70
    32
 71
     5
 42
125.0
  3
500
100
AcDbAlignedDimension
 13
217850.3436482076
 23
136520.1215650688
 33
0.0
 14
217821.869216597
 24
136395.1215650688
 34
0.0
 50
90.0
100
AcDbRotatedDimension
  0
DIMENSION
  5
157
330
2
100
AcDbEntity
  8
0Wymiary-PL
100
AcDbDimension
  2
*D67
 10
217185.1079052635
 20
135520.1215650688
 30
0.0
 11
217105.1079052634
 21
135957.6215650689
 31
0.0
 70
    32
 71
     5
 42
875.0000000000291
  3
500
100
AcDbAlignedDimension
 13
217821.869216597
 23
136395.1215650688
 33
0.0
 14
217500.3436482075
 24
135520.1215650688
 34
0.0
 50
90.0
100
AcDbRotatedDimension
  0
DIMENSION
  5
162
330
2
100
AcDbEntity
  8
0Wymiary-PL
100
AcDbDimension
  2
*D66
 10
217185.1079052635
 20
135410.1215650689
 30
0.0
 11
217105.1079052634
 21
135465.1215650689
 31
0.0
 70
    32
 71
     5
 42
109.9999999999709
  3
500
100
AcDbAlignedDimension
 13
217500.3436482075
 23
135520.1215650688
 33
0.0
 14
218146.3436482075
 24
135410.1215650689
 34
0.0
 50
90.0
100
AcDbRotatedDimension
  0
DIMENSION
  5
16F
330
2
100
AcDbEntity
  8
0Wymiary-PL
100
AcDbDimension
  2
*D65
 10
216969.4267770202
 20
135410.1215650689
 30
0.0
 11
216889.4267770202
 21
135965.1215650689
 31
0.0
 70
    32
 71
     5
 42
1110.0
  3
500
100
AcDbAlignedDimension
 13
217871.6009111948
 23
136520.1215650688
 33
0.0
 14
218162.1106404707
 24
135410.1215650689
 34
0.0
 50
90.0
100
AcDbRotatedDimension
  0
DIMENSION
  5
17A
330
2
100
AcDbEntity
  8
0Wymiary-PL
100
AcDbDimension
  2
*D64
 10
219456.3925133266
 20
136137.1466662284
 30
0.0
 11
219376.3925133265
 21
136328.6341156487
 31
0.0
 70
    32
 71
     5
 42
382.9748988404463
  3
500
100
AcDbAlignedDimension
 13
218637.425060295
 23
136520.1215650688
 33
0.0
 14
218733.3652539046
 24
136137.1466662284
 34
0.0
 50
90.0
100
AcDbRotatedDimension
  0
DIMENSION
  5
185
330
2
100
AcDbEntity
  8
0Wymiary-PL
100
AcDbDimension
  2
*D63
 10
219456.3925133266
 20
135793.0961683543
 30
0.0
 11
219376.3925133265
 21
135965.1214172914
 31
0.0
 70
    32
 71
     5
 42
344.0504978741228
  3
500
100
AcDbAlignedDimension
 13
218733.3652539046
 23
136137.1466662284
 33
0.0
 14
218735.3436482076
 24
135793.0961683543
 34
0.0
 50
90.0
100
AcDbRotatedDimension
  0
DIMENSION
  5
190
330
2
100
AcDbEntity
  8
0Wymiary-PL
100
AcDbDimension
  2
*D62
 10
219456.3925133266
 20
135410.1215650689
 30
0.0
 11
219376.3925133265
 21
135601.6088667116
 31
0.0
 70
    32
 71
     5
 42
382.9746032854309
  3
500
100
AcDbAlignedDimension
 13
218735.3436482076
 23
135793.0961683543
 33
0.0
 14
218735.3436482076
 24
135410.1215650689
 34
0.0
 50
90.0
100
AcDbRotatedDimension
  0
LWPOLYLINE
  5
19B
102
{ACAD_REACTORS
330
19E
102
}
330
2
100
AcDbEntity
  8
0Hatch
100
AcDbPolyline
 90
       11
 70
     1
 43
0.0
 10
217490.3436482075
 20
136395.1215650688
 10
217490.3436482075
 20
135520.1215650688
 10
218146.3436482075
 20
135520.1215650688
 10
218146.3436482075
 20
135410.1215650689
 10
218735.3436482076
 20
135410.1215650689
 10
218735.3436482076
 20
135792.8961683543
 10
218907.55151423
 20
135965.104037885
 10
218735.3436482076
 20
136137.3466662284
 10
218735.3436482076
 20
136520.1215650688
 10
217845.3436482076
 20
136520.1215650688
 10
217845.3436482076
 20
136395.1215650688
  0
LWPOLYLINE
  5
19C
102
{ACAD_REACTORS
330
19E
102
}
330
2
100
AcDbEntity
  8
0Hatch
100
AcDbPolyline
 90
       11
 70
     1
 43
0.0
 10
217550.3436482076
 20
136335.1215650689
 10
217550.3436482075
 20
135580.1215650688
 10
218206.3436482075
 20
135580.1215650688
 10
218206.3436482075
 20
135470.1215650689
 10
218675.3436482076
 20
135470.1215650689
 10
218675.3436482076
 20
135817.7489817387
 10
218822.7029824231
 20
135965.1083189562
 10
218675.3436482076
 20
136112.4973995044
 10
218675.3436482076
 20
136460.1215650689
 10
217905.3436482076
 20
136460.1215650689
 10
217905.3436482076
 20
136335.1215650689
  0
LINE
  5
19D
330
2
100
AcDbEntity
  8
0Hatch
100
AcDbLine
 10
218169.7263341097
 20
135393.6215650688
 30
0.0
 11
218174.8391886077
 21
135410.1215650689
 31
0.0
  0
HATCH
  5
19E
330
2
100
AcDbEntity
  8
0Hatch
100
AcDbHatch
 10
0.0
 20
0.0
 30
0.0
210
0.0
220
0.0
230
1.0
  2
SOLID
 70
     1
 71
     1
 91
        4
 92
        7
 72
     0
 73
     1
 93
        8
 10
217905.3436482076
 20
136335.1215650689
 10
217905.3436482076
 20
136460.1215650688
 10
218200.3436482076
 20
136460.1215650688
 10
218200.3436482076
 20
136520.1215650688
 10
217845.3436482076
 20
136520.1215650688
 10
217845.3436482076
 20
136395.1215650688
 10
217723.4221104265
 20
136395.1215650688
 10
217723.4221104265
 20
136335.1215650689
 97
        4
330
19C
330
100
330
19B
330
FF
 92
        7
 72
     0
 73
     1
 93
        8
 10
217490.3436482075
 20
135520.1215650688
 10
217555.3436482076
 20
135520.1215650688
 10
217555.3436482076
 20
135580.1215650688
 10
217550.3436482076
 20
135580.1215650688
 10
217550.3436482076
 20
136335.1215650688
 10
217723.4221104265
 20
136335.1215650688
 10
217723.4221104265
 20
136395.1215650688
 10
217490.3436482076
 20
136395.1215650688
 97
        4
330
19C
330
FE
330
19B
330
FB
 92
        7
 72
     0
 73
     1
 93
       18
 10
218146.3436482076
 20
135520.1215650688
 10
218146.3436482075
 20
135410.1215650688
 10
218735.3436482075
 20
135410.1215650689
 10
218735.3436482075
 20
135792.8961683543
 10
218907.5515142299
 20
135965.1040378849
 10
218735.3436482075
 20
136137.3466662284
 10
218735.3436482076
 20
136520.1215650688
 10
218200.3436482076
 20
136520.1215650688
 10
218200.3436482076
 20
136460.1215650689
 10
218675.3436482076
 20
136460.1215650689
 10
218675.3436482075
 20
136112.4973995044
 10
218822.7029824231
 20
135965.1083189562
 10
218675.3436482076
 20
135817.7489817387
 10
218675.3436482076
 20
135470.1215650689
 10
218206.3436482075
 20
135470.1215650689
 10
218206.3436482075
 20
135580.1215650689
 10
218117.3436482076
 20
135580.1215650689
 10
218117.3436482076
 20
135520.1215650688
 97
        4
330
19C
330
103
330
19B
330
101
 92
        7
 72
     0
 73
     1
 93
        4
 10
217794.3436482076
 20
135580.1215650688
 10
217794.3436482076
 20
135520.1215650688
 10
217937.3436482076
 20
135520.1215650688
 10
217937.3436482075
 20
135580.1215650688
 97
        4
330
19C
330
FD
330
19B
330
102
 75
     0
 76
     1
 47
6.865935985490931
 98
        4
 10
217834.8197169902
 20
136356.6440838014
 10
217518.829225669
 20
136178.1297366426
 10
218157.6795542143
 20
135546.4636353772
 10
217862.2971533097
 20
135560.1955057246
  0
HATCH
  5
19F
330
2
100
AcDbEntity
  8
0Hatch
100
AcDbHatch
 10
0.0
 20
0.0
 30
0.0
210
0.0
220
0.0
230
1.0
  2
SOLID
 70
     1
 71
     0
 91
        4
 92
        7
 72
     0
 73
     1
 93
        8
 10
223076.3563793185
 20
136335.1215650688
 10
223076.3563793185
 20
136395.1215650688
 10
222954.4348415375
 20
136395.1215650688
 10
222954.4348415375
 20
136520.1215650688
 10
222599.4348415375
 20
136520.1215650688
 10
222599.4348415375
 20
136460.1215650689
 10
222894.4348415375
 20
136460.1215650689
 10
222894.4348415375
 20
136335.1215650688
 97
        0
 92
        7
 72
     0
 73
     1
 93
        8
 10
223309.4348415375
 20
136395.1215650688
 10
223176.3563793185
 20
136395.1215650688
 10
223176.3563793185
 20
136335.1215650689
 10
223249.4348415375
 20
136335.1215650689
 10
223249.4348415375
 20
135580.1215650688
 10
223244.4348415375
 20
135580.1215650688
 10
223244.4348415375
 20
135520.1215650688
 10
223309.4348415376
 20
135520.1215650688
 97
        0
 92
        7
 72
     0
 73
     1
 93
       18
 10
222653.4348415375
 20
135520.1215650688
 10
222682.4348415375
 20
135520.1215650688
 10
222682.4348415375
 20
135580.1215650688
 10
222593.4348415375
 20
135580.1215650688
 10
222593.4348415375
 20
135470.1215650689
 10
222124.4348415375
 20
135470.1215650689
 10
222124.4348415375
 20
135817.7489817387
 10
221977.075507322
 20
135965.1083189562
 10
222124.4348415375
 20
136112.4973995044
 10
222124.4348415375
 20
136460.1215650689
 10
222599.4348415375
 20
136460.1215650689
 10
222599.4348415375
 20
136520.1215650688
 10
222064.4348415375
 20
136520.1215650688
 10
222064.4348415375
 20
136137.3466662284
 10
221892.226975515
 20
135965.104037885
 10
222064.4348415375
 20
135792.8961683543
 10
222064.4348415375
 20
135410.1215650689
 10
222653.4348415375
 20
135410.1215650689
 97
        0
 92
        7
 72
     0
 73
     1
 93
        4
 10
222862.4348415375
 20
135580.1215650688
 10
222862.4348415376
 20
135520.1215650688
 10
223005.4348415375
 20
135520.1215650688
 10
223005.4348415375
 20
135580.1215650688
 97
        0
 75
     0
 76
     1
 47
6.865935985490931
 98
        4
 10
222964.9587727549
 20
136356.6440838014
 10
223280.9492640761
 20
136178.1297366426
 10
222642.0989355308
 20
135546.4636353772
 10
222937.4813364353
 20
135560.1955057246
  0
LINE
  5
1A0
330
2
100
AcDbEntity
  8
0Hatch
100
AcDbLine
 10
222630.0521556354
 20
135393.6215650688
 30
0.0
 11
222624.9393011374
 21
135410.1215650689
 31
0.0
  0
LWPOLYLINE
  5
1A1
330
2
100
AcDbEntity
  8
0Hatch
100
AcDbPolyline
 90
       11
 70
     1
 43
0.0
 10
223249.4348415375
 20
136335.1215650689
 10
223249.4348415375
 20
135580.1215650688
 10
222593.4348415375
 20
135580.1215650688
 10
222593.4348415375
 20
135470.1215650689
 10
222124.4348415375
 20
135470.1215650689
 10
222124.4348415375
 20
135817.7489817387
 10
221977.075507322
 20
135965.1083189562
 10
222124.4348415375
 20
136112.4973995044
 10
222124.4348415375
 20
136460.1215650689
 10
222894.4348415375
 20
136460.1215650689
 10
222894.4348415375
 20
136335.1215650689
  0
LWPOLYLINE
  5
1A2
330
2
100
AcDbEntity
  8
0Hatch
100
AcDbPolyline
 90
       11
 70
     1
 43
0.0
 10
223309.4348415375
 20
136395.1215650688
 10
223309.4348415376
 20
135520.1215650688
 10
222653.4348415375
 20
135520.1215650688
 10
222653.4348415375
 20
135410.1215650689
 10
222064.4348415375
 20
135410.1215650689
 10
222064.4348415375
 20
135792.8961683543
 10
221892.2269755151
 20
135965.104037885
 10
222064.4348415375
 20
136137.3466662284
 10
222064.4348415375
 20
136520.1215650688
 10
222954.4348415375
 20
136520.1215650688
 10
222954.4348415375
 20
136395.1215650688
  0
DIMENSION
  5
1A3
330
2
100
AcDbEntity
  8
0Wymiary-PL
100
AcDbDimension
  2
*D87
 10
221343.3859764185
 20
135410.1215650689
 30
0.0
 11
221263.3859764185
 21
135601.6088667116
 31
0.0
 70
    32
 71
     5
 42
382.9746032854309
  3
500
100
AcDbAlignedDimension
 13
222064.4348415375
 23
135793.0961683543
 33
0.0
 14
222064.4348415375
 24
135410.1215650689
 34
0.0
 50
90.0
100
AcDbRotatedDimension
  0
DIMENSION
  5
1AE
330
2
100
AcDbEntity
  8
0Wymiary-PL
100
AcDbDimension
  2
*D86
 10
221343.3859764185
 20
135793.0961683543
 30
0.0
 11
221263.3859764185
 21
135965.1214172914
 31
0.0
 70
    32
 71
     5
 42
344.0504978741228
  3
500
100
AcDbAlignedDimension
 13
222066.4132358404
 23
136137.1466662284
 33
0.0
 14
222064.4348415375
 24
135793.0961683543
 34
0.0
 50
90.0
100
AcDbRotatedDimension
  0
DIMENSION
  5
1B9
330
2
100
AcDbEntity
  8
0Wymiary-PL
100
AcDbDimension
  2
*D85
 10
221343.3859764185
 20
136137.1466662284
 30
0.0
 11
221263.3859764185
 21
136328.6341156487
 31
0.0
 70
    32
 71
     5
 42
382.9748988404463
  3
500
100
AcDbAlignedDimension
 13
222162.35342945
 23
136520.1215650688
 33
0.0
 14
222066.4132358404
 24
136137.1466662284
 34
0.0
 50
90.0
100
AcDbRotatedDimension
  0
DIMENSION
  5
1C4
330
2
100
AcDbEntity
  8
0Wymiary-PL
100
AcDbDimension
  2
*D84
 10
223830.3517127249
 20
135410.1215650689
 30
0.0
 11
223750.3517127248
 21
135965.1215650689
 31
0.0
 70
    32
 71
     5
 42
1110.0
  3
500
100
AcDbAlignedDimension
 13
222928.1775785503
 23
136520.1215650688
 33
0.0
 14
222637.6678492744
 24
135410.1215650689
 34
0.0
 50
90.0
100
AcDbRotatedDimension
  0
DIMENSION
  5
1CF
330
2
100
AcDbEntity
  8
0Wymiary-PL
100
AcDbDimension
  2
*D83
 10
223614.6705844816
 20
135410.1215650689
 30
0.0
 11
223534.6705844816
 21
135465.1215650689
 31
0.0
 70
    32
 71
     5
 42
109.9999999999709
  3
500
100
AcDbAlignedDimension
 13
223299.4348415376
 23
135520.1215650688
 33
0.0
 14
222653.4348415375
 24
135410.1215650689
 34
0.0
 50
90.0
100
AcDbRotatedDimension
  0
DIMENSION
  5
1DC
330
2
100
AcDbEntity
  8
0Wymiary-PL
100
AcDbDimension
  2
*D82
 10
223614.6705844816
 20
135520.1215650688
 30
0.0
 11
223534.6705844816
 21
135957.6215650689
 31
0.0
 70
    32
 71
     5
 42
875.0000000000291
  3
500
100
AcDbAlignedDimension
 13
222977.9092731481
 23
136395.1215650688
 33
0.0
 14
223299.4348415376
 24
135520.1215650688
 34
0.0
 50
90.0
100
AcDbRotatedDimension
  0
DIMENSION
  5
1E7
330
2
100
AcDbEntity
  8
0Wymiary-PL
100
AcDbDimension
  2
*D81
 10
223614.6705844816
 20
136395.1215650688
 30
0.0
 11
223534.6705844816
 21
136457.6215650689
 31
0.0
 70
    32
 71
     5
 42
125.0
  3
500
100
AcDbAlignedDimension
 13
222949.4348415375
 23
136520.1215650688
 33
0.0
 14
222977.9092731481
 24
136395.1215650688
 34
0.0
 50
90.0
100
AcDbRotatedDimension
  0
DIMENSION
  5
1F4
330
2
100
AcDbEntity
  8
0Wymiary-PL
100
AcDbDimension
  2
*D80
 10
222064.4348415375
 20
135022.5831202519
 30
0.0
 11
222358.9348415375
 21
135102.5831202519
 31
0.0
 70
    32
 71
     5
 42
589.0000000000291
  3
500
100
AcDbAlignedDimension
 13
222653.4348415375
 23
135510.5184971947
 33
0.0
 14
222064.4348415375
 24
135448.8711247705
 34
0.0
 50
180.0
100
AcDbRotatedDimension
  0
DIMENSION
  5
1FF
330
2
100
AcDbEntity
  8
0Wymiary-PL
100
AcDbDimension
  2
*D79
 10
222653.4348415375
 20
135022.5831202519
 30
0.0
 11
222981.4348415375
 21
135102.5831202519
 31
0.0
 70
    32
 71
     5
 42
656.0
  3
500
100
AcDbAlignedDimension
 13
223309.4348415376
 23
135552.4265712179
 33
0.0
 14
222653.4348415375
 24
135510.5184971947
 34
0.0
 50
180.0
100
AcDbRotatedDimension
  0
DIMENSION
  5
20A
330
2
100
AcDbEntity
  8
0Wymiary-PL
100
AcDbDimension
  2
*D78
 10
221892.2269755151
 20
137344.3407412846
 30
0.0
 11
222600.8309085263
 21
137424.3407412846
 31
0.0
 70
    32
 71
     5
 42
1417.20786602245
  3
500
100
AcDbAlignedDimension
 13
223309.4348415375
 23
136340.3838654005
 33
0.0
 14
221892.2269755151
 24
135965.104037885
 34
0.0
 50
180.0
100
AcDbRotatedDimension
  0
DIMENSION
  5
215
330
2
100
AcDbEntity
  8
0Wymiary-PL
100
AcDbDimension
  2
*D77
 10
221892.2269755151
 20
137136.5899670858
 30
0.0
 11
221978.3309085263
 21
137216.5899670858
 31
0.0
 70
    32
 71
     5
 42
172.2078660224506
  3
500
100
AcDbAlignedDimension
 13
222064.4348415375
 23
136430.464562205
 33
0.0
 14
221892.2269755151
 24
135965.104037885
 34
0.0
 50
180.0
100
AcDbRotatedDimension
  0
DIMENSION
  5
222
330
2
100
AcDbEntity
  8
0Wymiary-PL
100
AcDbDimension
  2
*D76
 10
222064.4348415375
 20
137136.5899670858
 30
0.0
 11
222509.4348415375
 21
137216.5899670858
 31
0.0
 70
    32
 71
     5
 42
890.0
  3
500
100
AcDbAlignedDimension
 13
222954.4348415375
 23
136430.464562205
 33
0.0
 14
222064.4348415375
 24
136430.464562205
 34
0.0
 50
180.0
100
AcDbRotatedDimension
  0
DIMENSION
  5
22D
330
2
100
AcDbEntity
  8
0Wymiary-PL
100
AcDbDimension
  2
*D75
 10
222954.4348415375
 20
137136.5899670858
 30
0.0
 11
223131.9348415375
 21
137216.5899670858
 31
0.0
 70
    32
 71
     5
 42
355.0
  3
500
100
AcDbAlignedDimension
 13
223309.4348415375
 23
136271.0169852908
 33
0.0
 14
222954.4348415375
 24
136430.464562205
 34
0.0
 50
180.0
100
AcDbRotatedDimension
  0
LINE
  5
238
330
2
100
AcDbEntity
  8
0Hatch
100
AcDbLine
 10
222188.0543487425
 20
136782.2222914245
 30
0.0
 11
222166.841145307
 21
136803.4354948601
 31
0.0
  0
LINE
  5
239
330
2
100
AcDbEntity
  8
0Hatch
100
AcDbLine
 10
222682.4348415375
 20
135580.1215650689
 30
0.0
 11
222682.4348415375
 21
135520.1215650688
 31
0.0
  0
LINE
  5
23A
330
2
100
AcDbEntity
  8
0Hatch
100
AcDbLine
 10
222862.4348415375
 20
135580.1215650688
 30
0.0
 11
222862.4348415375
 21
135520.1215650688
 31
0.0
  0
LINE
  5
23D
330
2
100
AcDbEntity
  8
0Hatch
100
AcDbLine
 10
223076.3563793185
 20
136395.1215650688
 30
0.0
 11
223076.3563793185
 21
136335.1215650689
 31
0.0
  0
LINE
  5
23E
330
2
100
AcDbEntity
  8
0Hatch
100
AcDbLine
 10
223176.3563793185
 20
136395.1215650688
 30
0.0
 11
223176.3563793185
 21
136335.1215650689
 31
0.0
  0
LINE
  5
23F
330
2
100
AcDbEntity
  8
0Hatch
100
AcDbLine
 10
223005.4348415375
 20
135580.1215650688
 30
0.0
 11
223005.4348415375
 21
135520.1215650688
 31
0.0
  0
LINE
  5
240
330
2
100
AcDbEntity
  8
0Hatch
100
AcDbLine
 10
223244.4348415375
 20
135580.1215650688
 30
0.0
 11
223244.4348415375
 21
135520.1215650688
 31
0.0
  0
LINE
  5
241
330
2
100
AcDbEntity
  8
0Hatch
100
AcDbLine
 10
223309.4348415376
 20
135520.1215650688
 30
0.0
 11
223309.4348415376
 21
135410.1215650688
 31
0.0
  0
LINE
  5
242
330
2
100
AcDbEntity
  8
0Hatch
100
AcDbLine
 10
223309.4348415376
 20
135410.1215650688
 30
0.0
 11
222974.4348415375
 21
135410.1215650688
 31
0.0
  0
HATCH
  5
243
330
2
100
AcDbEntity
  8
0Hatch
100
AcDbHatch
 10
0.0
 20
0.0
 30
0.0
210
0.0
220
0.0
230
1.0
  2
SOLID
 70
     1
 71
     1
 91
        1
 92
        7
 72
     1
 73
     1
 93
        2
 10
222942.4348415375
 20
135441.6215650689
 42
1.0
 10
222902.4348415375
 20
135441.6215650689
 42
1.0
 97
        1
330
25B
 75
     0
 76
     1
 47
1.77806061812186
 98
        1
 10
222921.6654595023
 20
135437.4069098519
  0
LINE
  5
244
330
2
100
AcDbEntity
  8
0Hatch
100
AcDbLine
 10
222935.9348415375
 20
135418.2388791667
 30
0.0
 11
222922.4348415375
 21
135414.6215650688
 31
0.0
  0
LINE
  5
245
330
2
100
AcDbEntity
  8
0Hatch
100
AcDbLine
 10
222922.4348415375
 20
135468.6215650689
 30
0.0
 11
222935.9348415375
 21
135465.004250971
 31
0.0
  0
LINE
  5
246
330
2
100
AcDbEntity
  8
0Hatch
100
AcDbLine
 10
222922.4348415375
 20
135414.6215650688
 30
0.0
 11
222908.9348415375
 21
135418.2388791667
 31
0.0
  0
LINE
  5
247
330
2
100
AcDbEntity
  8
0Hatch
100
AcDbLine
 10
222908.9348415375
 20
135465.004250971
 30
0.0
 11
222922.4348415375
 21
135468.6215650689
 31
0.0
  0
LINE
  5
248
330
2
100
AcDbEntity
  8
0Hatch
100
AcDbLine
 10
222908.9348415375
 20
135418.2388791667
 30
0.0
 11
222899.0521556353
 21
135428.1215650688
 31
0.0
  0
LINE
  5
249
330
2
100
AcDbEntity
  8
0Hatch
100
AcDbLine
 10
222899.0521556353
 20
135455.1215650689
 30
0.0
 11
222908.9348415375
 21
135465.004250971
 31
0.0
  0
LINE
  5
24A
330
2
100
AcDbEntity
  8
0Hatch
100
AcDbLine
 10
222895.4348415375
 20
135441.6215650689
 30
0.0
 11
222899.0521556353
 21
135455.1215650689
 31
0.0
  0
LINE
  5
24B
330
2
100
AcDbEntity
  8
0Hatch
100
AcDbLine
 10
222899.0521556353
 20
135428.1215650688
 30
0.0
 11
222895.4348415375
 21
135441.6215650689
 31
0.0
  0
LINE
  5
24C
330
2
100
AcDbEntity
  8
0Hatch
390
DF
100
AcDbLine
 10
222895.4348415375
 20
135441.6215650689
 30
0.0
 11
222899.0521556353
 21
135428.1215650688
 31
0.0
  0
LINE
  5
24D
330
2
100
AcDbEntity
  8
0Hatch
390
DF
100
AcDbLine
 10
222899.0521556353
 20
135455.1215650689
 30
0.0
 11
222895.4348415375
 21
135441.6215650689
 31
0.0
  0
LINE
  5
24E
330
2
100
AcDbEntity
  8
0Hatch
390
DF
100
AcDbLine
 10
222908.9348415375
 20
135465.004250971
 30
0.0
 11
222899.0521556353
 21
135455.1215650689
 31
0.0
  0
LINE
  5
24F
330
2
100
AcDbEntity
  8
0Hatch
390
DF
100
AcDbLine
 10
222899.0521556353
 20
135428.1215650688
 30
0.0
 11
222908.9348415375
 21
135418.2388791667
 31
0.0
  0
LINE
  5
250
330
2
100
AcDbEntity
  8
0Hatch
390
DF
100
AcDbLine
 10
222922.4348415375
 20
135468.6215650689
 30
0.0
 11
222908.9348415375
 21
135465.004250971
 31
0.0
  0
LINE
  5
251
330
2
100
AcDbEntity
  8
0Hatch
390
DF
100
AcDbLine
 10
222908.9348415375
 20
135418.2388791667
 30
0.0
 11
222922.4348415375
 21
135414.6215650688
 31
0.0
  0
LINE
  5
252
330
2
100
AcDbEntity
  8
0Hatch
390
DF
100
AcDbLine
 10
222935.9348415375
 20
135465.004250971
 30
0.0
 11
222922.4348415375
 21
135468.6215650689
 31
0.0
  0
LINE
  5
253
330
2
100
AcDbEntity
  8
0Hatch
100
AcDbLine
 10
222949.4348415375
 20
135441.6215650689
 30
0.0
 11
222945.8175274397
 21
135428.1215650688
 31
0.0
  0
LINE
  5
254
330
2
100
AcDbEntity
  8
0Hatch
100
AcDbLine
 10
222945.8175274397
 20
135455.1215650689
 30
0.0
 11
222949.4348415375
 21
135441.6215650689
 31
0.0
  0
LINE
  5
255
330
2
100
AcDbEntity
  8
0Hatch
390
DF
100
AcDbLine
 10
222949.4348415375
 20
135441.6215650689
 30
0.0
 11
222945.8175274397
 21
135455.1215650689
 31
0.0
  0
LINE
  5
256
330
2
100
AcDbEntity
  8
0Hatch
390
DF
100
AcDbLine
 10
222945.8175274397
 20
135428.1215650688
 30
0.0
 11
222949.4348415375
 21
135441.6215650689
 31
0.0
  0
LINE
  5
257
330
2
100
AcDbEntity
  8
0Hatch
100
AcDbLine
 10
222945.8175274397
 20
135428.1215650688
 30
0.0
 11
222935.9348415375
 21
135418.2388791667
 31
0.0
  0
LINE
  5
258
330
2
100
AcDbEntity
  8
0Hatch
100
AcDbLine
 10
222935.9348415375
 20
135465.004250971
 30
0.0
 11
222945.8175274397
 21
135455.1215650689
 31
0.0
  0
LINE
  5
259
330
2
100
AcDbEntity
  8
0Hatch
390
DF
100
AcDbLine
 10
222945.8175274397
 20
135455.1215650689
 30
0.0
 11
222935.9348415375
 21
135465.004250971
 31
0.0
  0
LINE
  5
25A
330
2
100
AcDbEntity
  8
0Hatch
390
DF
100
AcDbLine
 10
222935.9348415375
 20
135418.2388791667
 30
0.0
 11
222945.8175274397
 21
135428.1215650688
 31
0.0
  0
CIRCLE
  5
25B
102
{ACAD_REACTORS
330
243
102
}
330
2
100
AcDbEntity
  8
0Hatch
390
95
100
AcDbCircle
 10
-222922.4348415375
 20
135441.6215650689
 30
0.0
 40
19.99999999999995
210
0.0
220
0.0
230
-1.0
  0
LINE
  5
25C
330
2
100
AcDbEntity
  8
0Hatch
390
DF
100
AcDbLine
 10
222922.4348415375
 20
135414.6215650688
 30
0.0
 11
222935.9348415375
 21
135418.2388791667
 31
0.0
  0
LINE
  5
25D
330
2
100
AcDbEntity
  8
0Hatch
100
AcDbLine
 10
222974.4348415375
 20
135520.1215650688
 30
0.0
 11
222974.4348415375
 21
135320.1215650688
 31
0.0
  0
LINE
  5
25E
330
2
100
AcDbEntity
  8
0Hatch
100
AcDbLine
 10
222954.4348415375
 20
135320.1215650688
 30
0.0
 11
222954.4348415375
 21
135520.1215650688
 31
0.0
  0
LINE
  5
25F
330
2
100
AcDbEntity
  8
0Hatch
100
AcDbLine
 10
222973.0793944169
 20
135340.0754797482
 30
0.0
 11
222974.4191403791
 21
135335.0754797482
 31
0.0
  0
LINE
  5
260
330
2
100
AcDbEntity
  8
0Hatch
100
AcDbLine
 10
222974.4191403791
 20
135335.0754797482
 30
0.0
 11
222973.0793944169
 21
135330.0754797482
 31
0.0
  0
LINE
  5
261
330
2
100
AcDbEntity
  8
0Hatch
100
AcDbLine
 10
222969.4191403791
 20
135343.735733786
 30
0.0
 11
222973.0793944169
 21
135340.0754797482
 31
0.0
  0
LINE
  5
262
330
2
100
AcDbEntity
  8
0Hatch
100
AcDbLine
 10
222973.0793944169
 20
135330.0754797482
 30
0.0
 11
222969.4191403791
 21
135326.4152257104
 31
0.0
  0
LINE
  5
263
330
2
100
AcDbEntity
  8
0Hatch
100
AcDbLine
 10
222964.4191403791
 20
135345.0754797482
 30
0.0
 11
222969.4191403791
 21
135343.735733786
 31
0.0
  0
LINE
  5
264
330
2
100
AcDbEntity
  8
0Hatch
100
AcDbLine
 10
222969.4191403791
 20
135326.4152257104
 30
0.0
 11
222964.4191403791
 21
135325.0754797482
 31
0.0
  0
LINE
  5
265
330
2
100
AcDbEntity
  8
0Hatch
100
AcDbLine
 10
222959.4191403791
 20
135343.735733786
 30
0.0
 11
222964.4191403791
 21
135345.0754797482
 31
0.0
  0
LINE
  5
266
330
2
100
AcDbEntity
  8
0Hatch
100
AcDbLine
 10
222964.4191403791
 20
135325.0754797482
 30
0.0
 11
222959.4191403791
 21
135326.4152257104
 31
0.0
  0
LINE
  5
267
330
2
100
AcDbEntity
  8
0Hatch
100
AcDbLine
 10
222955.7588863412
 20
135340.0754797482
 30
0.0
 11
222959.4191403791
 21
135343.735733786
 31
0.0
  0
LINE
  5
268
330
2
100
AcDbEntity
  8
0Hatch
100
AcDbLine
 10
222959.4191403791
 20
135326.4152257104
 30
0.0
 11
222955.7588863412
 21
135330.0754797482
 31
0.0
  0
LINE
  5
269
330
2
100
AcDbEntity
  8
0Hatch
100
AcDbLine
 10
222954.4191403791
 20
135335.0754797482
 30
0.0
 11
222955.7588863412
 21
135340.0754797482
 31
0.0
  0
LINE
  5
26A
330
2
100
AcDbEntity
  8
0Hatch
100
AcDbLine
 10
222955.7588863412
 20
135330.0754797482
 30
0.0
 11
222954.4191403791
 21
135335.0754797482
 31
0.0
  0
LINE
  5
26B
330
2
100
AcDbEntity
  8
0Hatch
100
AcDbLine
 10
222653.4348415376
 20
135380.1215650688
 30
0.0
 11
222639.9348415376
 21
135383.7388791667
 31
0.0
  0
LINE
  5
26C
330
2
100
AcDbEntity
  8
0Hatch
100
AcDbLine
 10
222639.9348415376
 20
135383.7388791667
 30
0.0
 11
222630.0521556354
 21
135393.6215650688
 31
0.0
  0
LINE
  5
26D
330
2
100
AcDbEntity
  8
0Hatch
100
AcDbLine
 10
222653.4348415376
 20
135350.1215650688
 30
0.0
 11
222631.6218858928
 21
135354.4604317157
 31
0.0
  0
LINE
  5
26E
330
2
100
AcDbEntity
  8
0Hatch
100
AcDbLine
 10
222631.6218858928
 20
135354.4604317157
 30
0.0
 11
222613.1297550099
 21
135366.8164785412
 31
0.0
  0
LINE
  5
26F
330
2
100
AcDbEntity
  8
0Hatch
100
AcDbLine
 10
222613.1297550099
 20
135366.8164785412
 30
0.0
 11
222600.7737081844
 21
135385.308609424
 31
0.0
  0
LINE
  5
270
330
2
100
AcDbEntity
  8
0Hatch
100
AcDbLine
 10
222600.7737081844
 20
135385.308609424
 30
0.0
 11
222595.8381044355
 21
135410.1215650689
 31
0.0
  0
LINE
  5
271
330
2
100
AcDbEntity
  8
0Hatch
100
AcDbLine
 10
222631.6279861244
 20
135354.4700718929
 30
0.0
 11
222653.4348415376
 21
135350.1215650688
 31
0.0
  0
LINE
  5
272
330
2
100
AcDbEntity
  8
0Hatch
100
AcDbLine
 10
222653.4348415376
 20
135320.1215650688
 30
0.0
 11
222626.550363027
 21
135324.3796481511
 31
0.0
  0
LINE
  5
273
330
2
100
AcDbEntity
  8
0Hatch
100
AcDbLine
 10
222613.0946574722
 20
135366.8536461878
 30
0.0
 11
222631.6279861244
 21
135354.4700718929
 31
0.0
  0
LINE
  5
274
330
2
100
AcDbEntity
  8
0Hatch
100
AcDbLine
 10
222626.550363027
 20
135324.3796481511
 30
0.0
 11
222602.2975245881
 21
135336.7370865582
 31
0.0
  0
LINE
  5
275
330
2
100
AcDbEntity
  8
0Hatch
100
AcDbLine
 10
222600.7110831774
 20
135385.3869748399
 30
0.0
 11
222613.0946574722
 21
135366.8536461878
 31
0.0
  0
LINE
  5
276
330
2
100
AcDbEntity
  8
0Hatch
100
AcDbLine
 10
222602.2975245881
 20
135336.7370865582
 30
0.0
 11
222583.050363027
 21
135355.9842481194
 31
0.0
  0
LINE
  5
277
330
2
100
AcDbEntity
  8
0Hatch
100
AcDbLine
 10
222596.3625501687
 20
135407.2485265671
 30
0.0
 11
222600.7110831774
 21
135385.3869748399
 31
0.0
  0
LINE
  5
278
330
2
100
AcDbEntity
  8
0Hatch
100
AcDbLine
 10
222583.050363027
 20
135355.9842481194
 30
0.0
 11
222570.6929246199
 21
135380.2370865582
 31
0.0
  0
LINE
  5
279
330
2
100
AcDbEntity
  8
0Hatch
100
AcDbLine
 10
222570.6929246199
 20
135380.2370865582
 30
0.0
 11
222565.9596882166
 21
135410.1215650689
 31
0.0
  0
LINE
  5
27A
330
2
100
AcDbEntity
  8
0Hatch
100
AcDbLine
 10
222954.4348415375
 20
135380.1215650688
 30
0.0
 11
222653.4348415376
 21
135380.1215650688
 31
0.0
  0
LINE
  5
27B
330
2
100
AcDbEntity
  8
0Hatch
100
AcDbLine
 10
222954.4348415375
 20
135350.1215650688
 30
0.0
 11
222653.4348415376
 21
135350.1215650688
 31
0.0
  0
LINE
  5
27C
330
2
100
AcDbEntity
  8
0Hatch
100
AcDbLine
 10
222974.4348415375
 20
135320.1215650688
 30
0.0
 11
222653.4348415376
 21
135320.1215650688
 31
0.0
  0
LINE
  5
27D
330
2
100
AcDbEntity
  8
0Hatch
390
95
100
AcDbLine
 10
221786.1093887455
 20
136111.5541197735
 30
0.0
 11
221807.3339095826
 21
136132.7786406106
 31
0.0
  0
LINE
  5
27E
330
2
100
AcDbEntity
  8
0Hatch
100
AcDbLine
 10
221828.5471130182
 20
136125.7075727988
 30
0.0
 11
221786.1093887455
 21
136083.269848526
 31
0.0
  0
LINE
  5
27F
330
2
100
AcDbEntity
  8
0Hatch
390
95
100
AcDbLine
 10
221828.5471130182
 20
136125.7075727988
 30
0.0
 11
221786.1093887455
 21
136083.269848526
 31
0.0
  0
LINE
  5
280
330
2
100
AcDbEntity
  8
0Hatch
100
AcDbLine
 10
221919.4749991858
 20
135992.35327976
 30
0.0
 11
221807.3339095826
 21
136104.4943693631
 31
0.0
  0
LINE
  5
281
330
2
100
AcDbEntity
  8
0Hatch
100
AcDbLine
 10
221898.2617957502
 20
135971.1400763244
 30
0.0
 11
221786.1093887455
 21
136083.269848526
 31
0.0
  0
LINE
  5
282
330
2
100
AcDbEntity
  8
0Hatch
390
95
100
AcDbLine
 10
221630.5345794829
 20
136267.128929036
 30
0.0
 11
221786.1093887455
 21
136111.5541197735
 31
0.0
  0
LINE
  5
283
330
2
100
AcDbEntity
  8
0Hatch
390
95
100
AcDbLine
 10
221786.1093887455
 20
136083.269848526
 30
0.0
 11
221602.2503082355
 21
136267.128929036
 31
0.0
  0
LINE
  5
284
330
2
100
AcDbEntity
  8
0Hatch
390
95
100
AcDbLine
 10
221672.9723037556
 20
136267.1402464376
 30
0.0
 11
221807.3339095826
 21
136401.5018522646
 31
0.0
  0
LINE
  5
285
330
2
100
AcDbEntity
  8
0Hatch
390
95
100
AcDbLine
 10
221807.3339095826
 20
136132.7786406106
 30
0.0
 11
221672.9723037556
 21
136267.1402464376
 31
0.0
  0
LINE
  5
286
330
2
100
AcDbEntity
  8
0Hatch
100
AcDbLine
 10
221940.7010930631
 20
136013.5535927538
 30
0.0
 11
221687.1144393794
 21
136267.1402464376
 31
0.0
  0
LINE
  5
287
330
2
100
AcDbEntity
  8
0Hatch
390
95
100
AcDbLine
 10
221786.120706147
 20
136422.7150557002
 30
0.0
 11
221630.5345794829
 21
136267.128929036
 31
0.0
  0
LINE
  5
288
330
2
100
AcDbEntity
  8
0Hatch
100
AcDbLine
 10
221828.5471130182
 20
136408.5729200765
 30
0.0
 11
221786.120706147
 21
136450.9993269476
 31
0.0
  0
LINE
  5
289
330
2
100
AcDbEntity
  8
0Hatch
390
95
100
AcDbLine
 10
221786.120706147
 20
136450.9993269476
 30
0.0
 11
221828.5471130182
 21
136408.5729200765
 31
0.0
  0
LINE
  5
28A
330
2
100
AcDbEntity
  8
0Hatch
390
95
100
AcDbLine
 10
221602.2503082355
 20
136267.128929036
 30
0.0
 11
221786.120706147
 21
136450.9993269476
 31
0.0
  0
LINE
  5
28B
330
2
100
AcDbEntity
  8
0Hatch
390
95
100
AcDbLine
 10
221807.3339095826
 20
136401.5018522646
 30
0.0
 11
221786.120706147
 21
136422.7150557002
 31
0.0
  0
LINE
  5
28C
330
2
100
AcDbEntity
  8
0Hatch
100
AcDbLine
 10
222180.9832809306
 20
136761.0090879889
 30
0.0
 11
222138.5455566579
 21
136803.4468122616
 31
0.0
  0
LINE
  5
28D
330
2
100
AcDbEntity
  8
0Hatch
390
95
100
AcDbLine
 10
222182.0019977855
 20
136759.9905767334
 30
0.0
 11
222139.5755909142
 21
136802.4169836046
 31
0.0
  0
LINE
  5
28E
330
2
100
AcDbEntity
  8
0Hatch
100
AcDbLine
 10
222159.7585625434
 20
136782.2338063762
 30
0.0
 11
221806.667346257
 21
136430.4526868376
 31
0.0
  0
LINE
  5
28F
330
2
100
AcDbEntity
  8
0Hatch
100
AcDbLine
 10
221786.120706147
 20
136450.9993269476
 30
0.0
 11
222138.5455566579
 21
136803.4468122616
 31
0.0
  0
LINE
  5
290
330
2
100
AcDbEntity
  8
0Hatch
390
95
100
AcDbLine
 10
222322.427271971
 20
136959.0216215242
 30
0.0
 11
222166.841145307
 21
136803.4354948601
 31
0.0
  0
LINE
  5
291
330
2
100
AcDbEntity
  8
0Hatch
390
95
100
AcDbLine
 10
222138.5568740595
 20
136803.4354948601
 30
0.0
 11
222322.427271971
 21
136987.3058927717
 31
0.0
  0
LINE
  5
292
330
2
100
AcDbEntity
  8
0Hatch
390
95
100
AcDbLine
 10
222322.4159545695
 20
136902.4417616278
 30
0.0
 11
222180.9832809306
 21
136761.0090879889
 31
0.0
  0
LINE
  5
293
330
2
100
AcDbEntity
  8
0Hatch
100
AcDbLine
 10
221687.1144393794
 20
136267.1402464376
 30
0.0
 11
222322.4159545695
 21
136902.4417616278
 31
0.0
  0
LINE
  5
294
330
2
100
AcDbEntity
  8
0Hatch
390
95
100
AcDbLine
 10
222188.0543487425
 20
136782.2222914245
 30
0.0
 11
222322.4159545695
 21
136916.5838972515
 31
0.0
  0
LINE
  5
295
330
2
100
AcDbEntity
  8
0Hatch
390
95
100
AcDbLine
 10
222322.4159545695
 20
136916.5838972515
 30
0.0
 11
222456.7775603965
 21
136782.2222914245
 31
0.0
  0
LINE
  5
296
330
2
100
AcDbEntity
  8
0Hatch
390
95
100
AcDbLine
 10
222456.7775603965
 20
136782.2222914245
 30
0.0
 11
222478.0020812336
 21
136803.4468122616
 31
0.0
  0
LINE
  5
297
330
2
100
AcDbEntity
  8
0Hatch
390
95
100
AcDbLine
 10
222478.0020812336
 20
136803.4468122616
 30
0.0
 11
222322.427271971
 21
136959.0216215242
 31
0.0
  0
LINE
  5
298
330
2
100
AcDbEntity
  8
0Hatch
390
95
100
AcDbLine
 10
222322.427271971
 20
136987.3058927717
 30
0.0
 11
222506.2863524811
 21
136803.4468122616
 31
0.0
  0
LINE
  5
299
330
2
100
AcDbEntity
  8
0Hatch
100
AcDbLine
 10
222485.0733465956
 20
136782.2338063762
 30
0.0
 11
222746.1440467441
 21
136521.1400763244
 31
0.0
  0
LINE
  5
29A
330
2
100
AcDbEntity
  8
0Hatch
100
AcDbLine
 10
222506.2863524811
 20
136803.4468122616
 30
0.0
 11
222788.5704536153
 21
136521.1400763244
 31
0.0
  0
LINE
  5
29B
330
2
100
AcDbEntity
  8
0Hatch
100
AcDbLine
 10
222506.2863524811
 20
136803.4468122616
 30
0.0
 11
222463.8486282084
 21
136761.0090879889
 31
0.0
  0
LINE
  5
29C
330
2
100
AcDbEntity
  8
0Hatch
390
95
100
AcDbLine
 10
222506.2863524811
 20
136803.4468122616
 30
0.0
 11
222463.8486282084
 21
136761.0090879889
 31
0.0
  0
LINE
  5
29D
330
2
100
AcDbEntity
  8
0Hatch
100
AcDbLine
 10
222322.4159545695
 20
136902.4417616278
 30
0.0
 11
222703.7176398729
 21
136521.1400763244
 31
0.0
  0
LINE
  5
29E
330
2
100
AcDbEntity
  8
0Hatch
100
AcDbLine
 10
222954.4348415375
 20
136520.1215650688
 30
0.0
 11
223249.4348415375
 21
136520.1215650688
 31
0.0
  0
LINE
  5
29F
330
2
100
AcDbEntity
  8
0Hatch
390
95
100
AcDbLine
 10
223249.4348415375
 20
136520.1215650688
 30
0.0
 11
223309.4348415375
 21
136520.1215650688
 31
0.0
  0
LINE
  5
2A0
330
2
100
AcDbEntity
  8
0Hatch
390
95
100
AcDbLine
 10
223309.4348415375
 20
136520.1215650688
 30
0.0
 11
223309.4348415375
 21
136395.1215650688
 31
0.0
  0
LINE
  5
2A1
330
2
100
AcDbEntity
  8
0Hatch
390
95
100
AcDbLine
 10
223289.4348415375
 20
136395.1215650688
 30
0.0
 11
223289.4348415375
 21
136500.1215650688
 31
0.0
  0
LINE
  5
2A2
330
2
100
AcDbEntity
  8
0Hatch
100
AcDbLine
 10
223249.4348415375
 20
136520.1215650688
 30
0.0
 11
223249.4348415375
 21
136395.1215650688
 31
0.0
  0
LINE
  5
2A3
330
2
100
AcDbEntity
  8
0Hatch
390
95
100
AcDbLine
 10
223289.4348415375
 20
136500.1215650688
 30
0.0
 11
223259.4348415375
 21
136500.1215650688
 31
0.0
  0
LINE
  5
2A4
330
2
100
AcDbEntity
  8
0Hatch
390
95
100
AcDbLine
 10
223249.4348415375
 20
136395.1215650688
 30
0.0
 11
223249.4348415375
 21
136520.1215650688
 31
0.0
  0
LINE
  5
2A5
330
2
100
AcDbEntity
  8
0Hatch
390
95
100
AcDbLine
 10
223259.4348415375
 20
136500.1215650688
 30
0.0
 11
223259.4348415375
 21
136395.1215650688
 31
0.0
  0
LWPOLYLINE
  5
5EA
330
2
100
AcDbEntity
  8
0Hatch
100
AcDbPolyline
 90
        2
 70
     0
 43
60.0
 10
223076.3563793185
 20
136365.1215650689
 10
223176.3563793185
 20
136365.1215650689
  0
ENDSEC
  0
SECTION
  2
OBJECTS
  0
DICTIONARY
  5
7
330
0
100
AcDbDictionary
281
     1
  3
ACAD_COLOR
350
4C
  3
ACAD_GROUP
350
39
  3
ACAD_LAYOUT
350
15
  3
ACAD_MATERIAL
350
9
  3
ACAD_MLEADERSTYLE
350
2BE
  3
ACAD_MLINESTYLE
350
3A
  3
ACAD_PLOTSETTINGS
350
3B
  3
ACAD_PLOTSTYLENAME
350
6
  3
ACAD_SCALELIST
350
4D
  3
ACAD_TABLESTYLE
350
4E
  3
ACAD_VISUALSTYLE
350
18
  3
ACDB_RECOMPOSE_DATA
350
2AA
  3
AcDbVariableDictionary
350
2AB
  3
AEC_PROPERTY_SET_DEFS
350
471
  3
DWGPROPS
350
876
  0
DICTIONARY
  5
1E
330
1D
100
AcDbDictionary
280
     1
281
     1
  3
ACAD_LAYERSTATES
360
1F
  0
DICTIONARY
  5
2C9
330
4
100
AcDbDictionary
280
     1
281
     1
  3
ADSK_XREC_LAYER_RECONCILED
360
2CA
  0
DICTIONARY
  5
2CF
330
4F
100
AcDbDictionary
280
     1
281
     1
  3
ADSK_XREC_LAYER_RECONCILED
360
2D0
  0
DICTIONARY
  5
2D1
330
89
100
AcDbDictionary
280
     1
281
     1
  3
ADSK_XREC_LAYER_RECONCILED
360
2D2
  0
DICTIONARY
  5
2D5
330
76
100
AcDbDictionary
280
     1
281
     1
  3
ADSK_XREC_LAYER_RECONCILED
360
2D6
  0
DICTIONARY
  5
38E
330
38D
100
AcDbDictionary
280
     1
281
     1
  0
DICTIONARY
  5
390
330
38F
100
AcDbDictionary
280
     1
281
     1
  0
DICTIONARY
  5
30
330
2F
100
AcDbDictionary
280
     1
281
     1
  3
ACAD_SORTENTS
360
31
  0
DICTIONARY
  5
4C
102
{ACAD_REACTORS
330
7
102
}
330
7
100
AcDbDictionary
281
     1
  0
DICTIONARY
  5
39
102
{ACAD_REACTORS
330
7
102
}
330
7
100
AcDbDictionary
281
     1
  0
DICTIONARY
  5
15
102
{ACAD_REACTORS
330
7
102
}
330
7
100
AcDbDictionary
281
     1
  3
Layout1
350
1C
  3
Model
350
14
  0
DICTIONARY
  5
9
102
{ACAD_REACTORS
330
7
102
}
330
7
100
AcDbDictionary
281
     1
  3
ByBlock
350
44
  3
ByLayer
350
3C
  3
Global
350
8
  0
DICTIONARY
  5
2BE
102
{ACAD_REACTORS
330
7
102
}
330
7
100
AcDbDictionary
281
     1
  3
Standard
350
2BF
  0
DICTIONARY
  5
3A
102
{ACAD_REACTORS
330
7
102
}
330
7
100
AcDbDictionary
281
     1
  3
Standard
350
50
  0
DICTIONARY
  5
3B
102
{ACAD_REACTORS
330
7
102
}
330
7
100
AcDbDictionary
281
     1
  0
ACDBDICTIONARYWDFLT
  5
6
102
{ACAD_REACTORS
330
7
102
}
330
7
100
AcDbDictionary
281
     1
  3
Medium
350
95
  3
Normal
350
5
  3
Thin
350
DF
100
AcDbDictionaryWithDefault
340
5
  0
DICTIONARY
  5
4D
102
{ACAD_REACTORS
330
7
102
}
330
7
100
AcDbDictionary
281
     1
  3
*A1
350
394
  3
*A10
350
39D
  3
*A11
350
39E
  3
*A12
350
39F
  3
*A13
350
3A0
  3
*A14
350
3A1
  3
*A2
350
395
  3
*A3
350
396
  3
*A4
350
397
  3
*A5
350
398
  3
*A6
350
399
  3
*A7
350
39A
  3
*A8
350
39B
  3
*A9
350
39C
  3
A0
350
54
  3
A1
350
55
  3
A2
350
56
  3
A3
350
57
  3
A4
350
58
  3
A5
350
59
  3
A6
350
5A
  3
A7
350
5B
  3
A8
350
5C
  3
A9
350
5D
  3
B0
350
5E
  3
B1
350
5F
  3
B2
350
60
  3
B3
350
61
  3
B4
350
62
  3
B5
350
63
  3
B6
350
64
  3
B7
350
65
  3
B8
350
66
  3
B9
350
67
  3
C0
350
68
  3
C1
350
69
  3
C2
350
6A
  3
C3
350
6B
  3
C4
350
6C
  3
C5
350
6D
  3
C6
350
6E
  3
C7
350
6F
  3
C8
350
70
  3
C9
350
71
  3
D0
350
72
  3
D1
350
73
  3
D2
350
74
  0
DICTIONARY
  5
4E
102
{ACAD_REACTORS
330
7
102
}
330
7
100
AcDbDictionary
281
     1
  3
Standard
350
51
  0
DICTIONARY
  5
18
102
{ACAD_REACTORS
330
7
102
}
330
7
100
AcDbDictionary
281
     1
  3
2dWireframe
350
17
  3
3D Hidden
350
2B6
  3
3dWireframe
350
53
  3
Basic
350
2B5
  3
Brighten
350
2B9
  3
ColorChange
350
2BD
  3
Conceptual
350
2B7
  3
Dim
350
2B8
  3
Facepattern
350
2BC
  3
Flat
350
2B1
  3
FlatWithEdges
350
2B2
  3
Gouraud
350
2B3
  3
GouraudWithEdges
350
2B4
  3
Linepattern
350
2BB
  3
Phong
350
2C7
  3
PhongWithEdges
350
2C8
  3
Realistic
350
52
  3
Thicken
350
2BA
  0
XRECORD
  5
2AA
102
{ACAD_REACTORS
330
7
102
}
330
7
100
AcDbXrecord
280
     1
 90
        1
330
51
  0
DICTIONARY
  5
2AB
102
{ACAD_REACTORS
330
7
102
}
330
7
100
AcDbDictionary
281
     1
  3
CANNOSCALE
350
2AE
  3
CMLEADERSTYLE
350
2AD
  3
CTABLESTYLE
350
2AC
  3
DIMASSOC
350
874
  3
HIDETEXT
350
873
  3
INDEXCTL
350
872
  3
LIGHTINGUNITS
350
2AF
  3
MSLTSCALE
350
870
  3
SORTENTS
350
871
  0
DICTIONARY
  5
471
102
{ACAD_REACTORS
330
7
102
}
330
7
100
AcDbDictionary
281
     1
  0
XRECORD
  5
876
102
{ACAD_REACTORS
330
7
102
}
330
7
100
AcDbXrecord
280
     1
  1
DWGPROPS COOKIE
  2

  3

  4

  6

  7

  8
beata.rzonca
  9

300
=
301
=
302
=
303
=
304
=
305
=
306
=
307
=
308
=
309
=
 40
7.789773206018518
 41
2452027.670547454
 42
2454950.554546979
  1

 90
        0
  0
DICTIONARY
  5
1F
102
{ACAD_REACTORS
330
1E
102
}
330
1E
100
AcDbDictionary
281
     1
  0
XRECORD
  5
2CA
102
{ACAD_REACTORS
330
2C9
102
}
330
2C9
100
AcDbXrecord
280
     1
290
     1
  0
XRECORD
  5
2D0
102
{ACAD_REACTORS
330
2CF
102
}
330
2CF
100
AcDbXrecord
280
     1
290
     1
  0
XRECORD
  5
2D2
102
{ACAD_REACTORS
330
2D1
102
}
330
2D1
100
AcDbXrecord
280
     1
290
     1
  0
XRECORD
  5
2D6
102
{ACAD_REACTORS
330
2D5
102
}
330
2D5
100
AcDbXrecord
280
     1
290
     1
  0
SORTENTSTABLE
  5
31
102
{ACAD_REACTORS
330
30
102
}
330
30
100
AcDbSortentsTable
330
2F
  0
LAYOUT
  5
1C
102
{ACAD_XDICTIONARY
360
87A
102
}
102
{ACAD_REACTORS
330
15
102
}
330
15
100
AcDbPlotSettings
  1

  2
C:\PROGRAM FILES\AUTOCAD LT 2000\plotters\DWF ePlot.pc3
  4

  6

 40
0.0
 41
0.0
 42
0.0
 43
0.0
 44
0.0
 45
0.0
 46
0.0
 47
0.0
 48
0.0
 49
0.0
140
0.0
141
0.0
142
1.0
143
1.0
 70
   688
 72
     0
 73
     0
 74
     5
  7
monia.ctb
 75
    16
147
1.0
148
0.0
149
0.0
100
AcDbLayout
  1
Layout1
 70
     1
 71
     1
 10
0.0
 20
0.0
 11
420.0
 21
297.0
 12
0.0
 22
0.0
 32
0.0
 14
1.000000000000000E+20
 24
1.000000000000000E+20
 34
1.000000000000000E+20
 15
-1.000000000000000E+20
 25
-1.000000000000000E+20
 35
-1.000000000000000E+20
146
0.0
 13
0.0
 23
0.0
 33
0.0
 16
1.0
 26
0.0
 36
0.0
 17
0.0
 27
1.0
 37
0.0
 76
     0
330
19
  0
LAYOUT
  5
14
102
{ACAD_XDICTIONARY
360
878
102
}
102
{ACAD_REACTORS
330
15
102
}
330
15
100
AcDbPlotSettings
  1

  2
CutePDF Writer
  4
A4
  6
RODODENDRON 5
 40
3.174999952316284
 41
3.174999952316284
 42
3.175003051757812
 43
3.17498779296875
 44
209.8886566162109
 45
297.0530090332031
 46
0.0
 47
4.0
 48
215187.2000545948
 49
127657.5157057546
140
225387.2000545948
141
141677.5157057546
142
1.0
143
50.0
 70
 11952
 72
     1
 73
     0
 74
     4
  7
100.ctb
 75
    25
147
0.02
148
-215187.2000545948
149
-127657.5157057546
100
AcDbLayout
  1
Model
 70
     1
 71
     0
 10
0.0
 20
0.0
 11
12.0
 21
9.0
 12
0.0
 22
0.0
 32
0.0
 14
0.0
 24
0.0
 34
0.0
 15
0.0
 25
0.0
 35
0.0
146
0.0
 13
0.0
 23
0.0
 33
0.0
 16
1.0
 26
0.0
 36
0.0
 17
0.0
 27
1.0
 37
0.0
 76
     0
330
2
331
29
  0
MATERIAL
  5
44
102
{ACAD_XDICTIONARY
360
45
102
}
102
{ACAD_REACTORS
330
9
102
}
330
9
100
AcDbMaterial
  1
ByBlock
 72
     0
 43
0.0082020997375328
 43
0.0
 43
0.0
 43
0.0
 43
0.0
 43
0.0082020997375328
 43
0.0
 43
0.0
 43
0.0
 43
0.0
 43
1.0
 43
0.0
 43
0.0
 43
0.0
 43
0.0
 43
1.0
 77
     0
 47
0.0082020997375328
 47
0.0
 47
0.0
 47
0.0
 47
0.0
 47
0.0082020997375328
 47
0.0
 47
0.0
 47
0.0
 47
0.0
 47
1.0
 47
0.0
 47
0.0
 47
0.0
 47
0.0
 47
1.0
171
     0
 49
0.0082020997375328
 49
0.0
 49
0.0
 49
0.0
 49
0.0
 49
0.0082020997375328
 49
0.0
 49
0.0
 49
0.0
 49
0.0
 49
1.0
 49
0.0
 49
0.0
 49
0.0
 49
0.0
 49
1.0
175
     0
142
0.0082020997375328
142
0.0
142
0.0
142
0.0
142
0.0
142
0.0082020997375328
142
0.0
142
0.0
142
0.0
142
0.0
142
1.0
142
0.0
142
0.0
142
0.0
142
0.0
142
1.0
179
     0
144
0.0082020997375328
144
0.0
144
0.0
144
0.0
144
0.0
144
0.0082020997375328
144
0.0
144
0.0
144
0.0
144
0.0
144
1.0
144
0.0
144
0.0
144
0.0
144
0.0
144
1.0
147
0.0082020997375328
147
0.0
147
0.0
147
0.0
147
0.0
147
0.0082020997375328
147
0.0
147
0.0
147
0.0
147
0.0
147
1.0
147
0.0
147
0.0
147
0.0
147
0.0
147
1.0
  0
MATERIAL
  5
3C
102
{ACAD_XDICTIONARY
360
3D
102
}
102
{ACAD_REACTORS
330
9
102
}
330
9
100
AcDbMaterial
  1
ByLayer
 72
     0
 43
0.0082020997375328
 43
0.0
 43
0.0
 43
0.0
 43
0.0
 43
0.0082020997375328
 43
0.0
 43
0.0
 43
0.0
 43
0.0
 43
1.0
 43
0.0
 43
0.0
 43
0.0
 43
0.0
 43
1.0
 77
     0
 47
0.0082020997375328
 47
0.0
 47
0.0
 47
0.0
 47
0.0
 47
0.0082020997375328
 47
0.0
 47
0.0
 47
0.0
 47
0.0
 47
1.0
 47
0.0
 47
0.0
 47
0.0
 47
0.0
 47
1.0
171
     0
 49
0.0082020997375328
 49
0.0
 49
0.0
 49
0.0
 49
0.0
 49
0.0082020997375328
 49
0.0
 49
0.0
 49
0.0
 49
0.0
 49
1.0
 49
0.0
 49
0.0
 49
0.0
 49
0.0
 49
1.0
175
     0
142
0.0082020997375328
142
0.0
142
0.0
142
0.0
142
0.0
142
0.0082020997375328
142
0.0
142
0.0
142
0.0
142
0.0
142
1.0
142
0.0
142
0.0
142
0.0
142
0.0
142
1.0
179
     0
144
0.0082020997375328
144
0.0
144
0.0
144
0.0
144
0.0
144
0.0082020997375328
144
0.0
144
0.0
144
0.0
144
0.0
144
1.0
144
0.0
144
0.0
144
0.0
144
0.0
144
1.0
147
0.0082020997375328
147
0.0
147
0.0
147
0.0
147
0.0
147
0.0082020997375328
147
0.0
147
0.0
147
0.0
147
0.0
147
1.0
147
0.0
147
0.0
147
0.0
147
0.0
147
1.0
  0
MATERIAL
  5
8
102
{ACAD_XDICTIONARY
360
A
102
}
102
{ACAD_REACTORS
330
9
102
}
330
9
100
AcDbMaterial
  1
Global
 72
     0
 43
0.0082020997375328
 43
0.0
 43
0.0
 43
0.0
 43
0.0
 43
0.0082020997375328
 43
0.0
 43
0.0
 43
0.0
 43
0.0
 43
1.0
 43
0.0
 43
0.0
 43
0.0
 43
0.0
 43
1.0
 77
     0
 47
0.0082020997375328
 47
0.0
 47
0.0
 47
0.0
 47
0.0
 47
0.0082020997375328
 47
0.0
 47
0.0
 47
0.0
 47
0.0
 47
1.0
 47
0.0
 47
0.0
 47
0.0
 47
0.0
 47
1.0
171
     0
 49
0.0082020997375328
 49
0.0
 49
0.0
 49
0.0
 49
0.0
 49
0.0082020997375328
 49
0.0
 49
0.0
 49
0.0
 49
0.0
 49
1.0
 49
0.0
 49
0.0
 49
0.0
 49
0.0
 49
1.0
175
     0
142
0.0082020997375328
142
0.0
142
0.0
142
0.0
142
0.0
142
0.0082020997375328
142
0.0
142
0.0
142
0.0
142
0.0
142
1.0
142
0.0
142
0.0
142
0.0
142
0.0
142
1.0
179
     0
144
0.0082020997375328
144
0.0
144
0.0
144
0.0
144
0.0
144
0.0082020997375328
144
0.0
144
0.0
144
0.0
144
0.0
144
1.0
144
0.0
144
0.0
144
0.0
144
0.0
144
1.0
147
0.0082020997375328
147
0.0
147
0.0
147
0.0
147
0.0
147
0.0082020997375328
147
0.0
147
0.0
147
0.0
147
0.0
147
1.0
147
0.0
147
0.0
147
0.0
147
0.0
147
1.0
  0
MLEADERSTYLE
  5
2BF
102
{ACAD_REACTORS
330
2BE
102
}
330
2BE
100
AcDbMLeaderStyle
170
     2
171
     1
172
     0
 90
        2
 40
0.0
 41
0.0
173
     1
 91
-1056964608
340
24
 92
       -2
290
     1
 42
0.09
291
     1
 43
0.36
  3
Standard
 44
0.18
300

342
21
174
     1
178
     6
175
     1
176
     0
 93
-1056964608
 45
0.18
292
     0
297
     0
 46
0.18
 94
-1056964608
 47
1.0
 49
1.0
140
1.0
293
     1
141
0.0
294
     1
177
     0
142
1.0
295
     0
296
     0
143
0.125
1001
ACAD_MLEADERVER
1070
     2
  0
MLINESTYLE
  5
50
102
{ACAD_REACTORS
330
3A
102
}
330
3A
100
AcDbMlineStyle
  2
STANDARD
 70
     0
  3

 62
   256
 51
90.0
 52
90.0
 71
     2
 49
0.5
 62
   256
  6
BYLAYER
 49
-0.5
 62
   256
  6
BYLAYER
  0
ACDBPLACEHOLDER
  5
95
102
{ACAD_REACTORS
330
6
102
}
330
6
  0
ACDBPLACEHOLDER
  5
5
102
{ACAD_REACTORS
330
6
102
}
330
6
  0
ACDBPLACEHOLDER
  5
DF
102
{ACAD_REACTORS
330
6
102
}
330
6
  0
SCALE
  5
394
102
{ACAD_REACTORS
330
4D
102
}
330
4D
100
AcDbScale
 70
     0
300
1:10_1
140
1.0
141
1.0
290
     0
  0
SCALE
  5
39D
102
{ACAD_REACTORS
330
4D
102
}
330
4D
100
AcDbScale
 70
     0
300
1:5_1_1
140
1.0
141
5.0
290
     0
  0
SCALE
  5
39E
102
{ACAD_REACTORS
330
4D
102
}
330
4D
100
AcDbScale
 70
     0
300
1:10_1_1
140
1.0
141
10.0
290
     0
  0
SCALE
  5
39F
102
{ACAD_REACTORS
330
4D
102
}
330
4D
100
AcDbScale
 70
     0
300
1:20_1_1
140
1.0
141
20.0
290
     0
  0
SCALE
  5
3A0
102
{ACAD_REACTORS
330
4D
102
}
330
4D
100
AcDbScale
 70
     0
300
1:50_1_1
140
1.0
141
50.0
290
     0
  0
SCALE
  5
3A1
102
{ACAD_REACTORS
330
4D
102
}
330
4D
100
AcDbScale
 70
     0
300
1:100_1_1
140
1.0
141
100.0
290
     0
  0
SCALE
  5
395
102
{ACAD_REACTORS
330
4D
102
}
330
4D
100
AcDbScale
 70
     0
300
1:1_1
140
1.0
141
0.1
290
     0
  0
SCALE
  5
396
102
{ACAD_REACTORS
330
4D
102
}
330
4D
100
AcDbScale
 70
     0
300
1:2_1
140
1.0
141
0.2
290
     0
  0
SCALE
  5
397
102
{ACAD_REACTORS
330
4D
102
}
330
4D
100
AcDbScale
 70
     0
300
1:5_1
140
1.0
141
0.5
290
     0
  0
SCALE
  5
398
102
{ACAD_REACTORS
330
4D
102
}
330
4D
100
AcDbScale
 70
     0
300
1:20_1
140
1.0
141
2.0
290
     0
  0
SCALE
  5
399
102
{ACAD_REACTORS
330
4D
102
}
330
4D
100
AcDbScale
 70
     0
300
1:50_1
140
1.0
141
5.0
290
     0
  0
SCALE
  5
39A
102
{ACAD_REACTORS
330
4D
102
}
330
4D
100
AcDbScale
 70
     0
300
1:100_1
140
1.0
141
10.0
290
     0
  0
SCALE
  5
39B
102
{ACAD_REACTORS
330
4D
102
}
330
4D
100
AcDbScale
 70
     0
300
1:1_1_1
140
1.0
141
1.0
290
     0
  0
SCALE
  5
39C
102
{ACAD_REACTORS
330
4D
102
}
330
4D
100
AcDbScale
 70
     0
300
1:2_1_1
140
1.0
141
2.0
290
     0
  0
SCALE
  5
54
102
{ACAD_REACTORS
330
4D
102
}
330
4D
100
AcDbScale
 70
     0
300
1:1
140
1.0
141
1.0
290
     1
  0
SCALE
  5
55
102
{ACAD_REACTORS
330
4D
102
}
330
4D
100
AcDbScale
 70
     0
300
1:2
140
1.0
141
2.0
290
     0
  0
SCALE
  5
56
102
{ACAD_REACTORS
330
4D
102
}
330
4D
100
AcDbScale
 70
     0
300
1:4
140
1.0
141
4.0
290
     0
  0
SCALE
  5
57
102
{ACAD_REACTORS
330
4D
102
}
330
4D
100
AcDbScale
 70
     0
300
1:5
140
1.0
141
5.0
290
     0
  0
SCALE
  5
58
102
{ACAD_REACTORS
330
4D
102
}
330
4D
100
AcDbScale
 70
     0
300
1:8
140
1.0
141
8.0
290
     0
  0
SCALE
  5
59
102
{ACAD_REACTORS
330
4D
102
}
330
4D
100
AcDbScale
 70
     0
300
1:10
140
1.0
141
10.0
290
     0
  0
SCALE
  5
5A
102
{ACAD_REACTORS
330
4D
102
}
330
4D
100
AcDbScale
 70
     0
300
1:16
140
1.0
141
16.0
290
     0
  0
SCALE
  5
5B
102
{ACAD_REACTORS
330
4D
102
}
330
4D
100
AcDbScale
 70
     0
300
1:20
140
1.0
141
20.0
290
     0
  0
SCALE
  5
5C
102
{ACAD_REACTORS
330
4D
102
}
330
4D
100
AcDbScale
 70
     0
300
1:30
140
1.0
141
30.0
290
     0
  0
SCALE
  5
5D
102
{ACAD_REACTORS
330
4D
102
}
330
4D
100
AcDbScale
 70
     0
300
1:40
140
1.0
141
40.0
290
     0
  0
SCALE
  5
5E
102
{ACAD_REACTORS
330
4D
102
}
330
4D
100
AcDbScale
 70
     0
300
1:50
140
1.0
141
50.0
290
     0
  0
SCALE
  5
5F
102
{ACAD_REACTORS
330
4D
102
}
330
4D
100
AcDbScale
 70
     0
300
1:100
140
1.0
141
100.0
290
     0
  0
SCALE
  5
60
102
{ACAD_REACTORS
330
4D
102
}
330
4D
100
AcDbScale
 70
     0
300
2:1
140
2.0
141
1.0
290
     0
  0
SCALE
  5
61
102
{ACAD_REACTORS
330
4D
102
}
330
4D
100
AcDbScale
 70
     0
300
4:1
140
4.0
141
1.0
290
     0
  0
SCALE
  5
62
102
{ACAD_REACTORS
330
4D
102
}
330
4D
100
AcDbScale
 70
     0
300
8:1
140
8.0
141
1.0
290
     0
  0
SCALE
  5
63
102
{ACAD_REACTORS
330
4D
102
}
330
4D
100
AcDbScale
 70
     0
300
10:1
140
10.0
141
1.0
290
     0
  0
SCALE
  5
64
102
{ACAD_REACTORS
330
4D
102
}
330
4D
100
AcDbScale
 70
     0
300
100:1
140
100.0
141
1.0
290
     0
  0
SCALE
  5
65
102
{ACAD_REACTORS
330
4D
102
}
330
4D
100
AcDbScale
 70
     0
300
1/128" = 1'-0"
140
0.0078125
141
12.0
290
     0
  0
SCALE
  5
66
102
{ACAD_REACTORS
330
4D
102
}
330
4D
100
AcDbScale
 70
     0
300
1/64" = 1'-0"
140
0.015625
141
12.0
290
     0
  0
SCALE
  5
67
102
{ACAD_REACTORS
330
4D
102
}
330
4D
100
AcDbScale
 70
     0
300
1/32" = 1'-0"
140
0.03125
141
12.0
290
     0
  0
SCALE
  5
68
102
{ACAD_REACTORS
330
4D
102
}
330
4D
100
AcDbScale
 70
     0
300
1/16" = 1'-0"
140
0.0625
141
12.0
290
     0
  0
SCALE
  5
69
102
{ACAD_REACTORS
330
4D
102
}
330
4D
100
AcDbScale
 70
     0
300
3/32" = 1'-0"
140
0.09375
141
12.0
290
     0
  0
SCALE
  5
6A
102
{ACAD_REACTORS
330
4D
102
}
330
4D
100
AcDbScale
 70
     0
300
1/8" = 1'-0"
140
0.125
141
12.0
290
     0
  0
SCALE
  5
6B
102
{ACAD_REACTORS
330
4D
102
}
330
4D
100
AcDbScale
 70
     0
300
3/16" = 1'-0"
140
0.1875
141
12.0
290
     0
  0
SCALE
  5
6C
102
{ACAD_REACTORS
330
4D
102
}
330
4D
100
AcDbScale
 70
     0
300
1/4" = 1'-0"
140
0.25
141
12.0
290
     0
  0
SCALE
  5
6D
102
{ACAD_REACTORS
330
4D
102
}
330
4D
100
AcDbScale
 70
     0
300
3/8" = 1'-0"
140
0.375
141
12.0
290
     0
  0
SCALE
  5
6E
102
{ACAD_REACTORS
330
4D
102
}
330
4D
100
AcDbScale
 70
     0
300
1/2" = 1'-0"
140
0.5
141
12.0
290
     0
  0
SCALE
  5
6F
102
{ACAD_REACTORS
330
4D
102
}
330
4D
100
AcDbScale
 70
     0
300
3/4" = 1'-0"
140
0.75
141
12.0
290
     0
  0
SCALE
  5
70
102
{ACAD_REACTORS
330
4D
102
}
330
4D
100
AcDbScale
 70
     0
300
1" = 1'-0"
140
1.0
141
12.0
290
     0
  0
SCALE
  5
71
102
{ACAD_REACTORS
330
4D
102
}
330
4D
100
AcDbScale
 70
     0
300
1-1/2" = 1'-0"
140
1.5
141
12.0
290
     0
  0
SCALE
  5
72
102
{ACAD_REACTORS
330
4D
102
}
330
4D
100
AcDbScale
 70
     0
300
3" = 1'-0"
140
3.0
141
12.0
290
     0
  0
SCALE
  5
73
102
{ACAD_REACTORS
330
4D
102
}
330
4D
100
AcDbScale
 70
     0
300
6" = 1'-0"
140
6.0
141
12.0
290
     0
  0
SCALE
  5
74
102
{ACAD_REACTORS
330
4D
102
}
330
4D
100
AcDbScale
 70
     0
300
1'-0" = 1'-0"
140
12.0
141
12.0
290
     0
  0
TABLESTYLE
  5
51
102
{ACAD_XDICTIONARY
360
2A8
102
}
102
{ACAD_REACTORS
330
4E
102
}
330
4E
100
AcDbTableStyle
  3
Standard
 70
     0
 71
     0
 40
0.06
 41
0.06
280
     0
281
     0
  7
Standard
140
0.18
170
     2
 62
     0
 63
     7
283
     0
274
    -2
284
     1
 64
     0
275
    -2
285
     1
 65
     0
276
    -2
286
     1
 66
     0
277
    -2
287
     1
 67
     0
278
    -2
288
     1
 68
     0
279
    -2
289
     1
 69
     0
  7
Standard
140
0.25
170
     5
 62
     0
 63
     7
283
     0
274
    -2
284
     1
 64
     0
275
    -2
285
     1
 65
     0
276
    -2
286
     1
 66
     0
277
    -2
287
     1
 67
     0
278
    -2
288
     1
 68
     0
279
    -2
289
     1
 69
     0
  7
Standard
140
0.18
170
     5
 62
     0
 63
     7
283
     0
274
    -2
284
     1
 64
     0
275
    -2
285
     1
 65
     0
276
    -2
286
     1
 66
     0
277
    -2
287
     1
 67
     0
278
    -2
288
     1
 68
     0
279
    -2
289
     1
 69
     0
  0
VISUALSTYLE
  5
17
102
{ACAD_REACTORS
330
18
102
}
330
18
100
AcDbVisualStyle
  2
2dWireframe
 70
     4
 71
     0
 72
     2
 73
     0
 90
        0
 40
-0.6
 41
-30.0
 62
     5
 63
     7
 74
     1
 91
        4
 64
     7
 65
   257
 75
     1
175
     1
 42
1.0
 92
        0
 66
   257
 43
1.0
 76
     1
 77
     6
 78
     2
 67
     7
 79
     5
170
     0
171
     0
290
     0
174
     0
 93
        1
 44
0.0
173
     0
291
     0
 45
0.0
1001
ACAD
1000
AcDbSavedByObjectVersion
1070
     0
  0
VISUALSTYLE
  5
2B6
102
{ACAD_REACTORS
330
18
102
}
330
18
100
AcDbVisualStyle
  2
3D Hidden
 70
     6
 71
     1
 72
     2
 73
     2
 90
        0
 40
-0.6
 41
-30.0
 62
     5
 63
     7
 74
     2
 91
        2
 64
     7
 65
   257
 75
     2
175
     1
 42
40.0
 92
        0
 66
   257
 43
1.0
 76
     1
 77
     6
 78
     2
 67
     7
 79
     3
170
     0
171
     0
290
     0
174
     0
 93
        1
 44
0.0
173
     0
291
     0
 45
0.0
1001
ACAD
1000
AcDbSavedByObjectVersion
1070
     0
  0
VISUALSTYLE
  5
53
102
{ACAD_REACTORS
330
18
102
}
330
18
100
AcDbVisualStyle
  2
3dWireframe
 70
     5
 71
     0
 72
     2
 73
     0
 90
        0
 40
-0.6
 41
-30.0
 62
     5
 63
     7
 74
     1
 91
        4
 64
     7
 65
   257
 75
     1
175
     1
 42
1.0
 92
        0
 66
   257
 43
1.0
 76
     1
 77
     6
 78
     2
 67
     7
 79
     5
170
     0
171
     0
290
     0
174
     0
 93
        1
 44
0.0
173
     0
291
     0
 45
0.0
1001
ACAD
1000
AcDbSavedByObjectVersion
1070
     0
  0
VISUALSTYLE
  5
2B5
102
{ACAD_REACTORS
330
18
102
}
330
18
100
AcDbVisualStyle
  2
Basic
 70
     7
 71
     1
 72
     0
 73
     1
 90
        0
 40
-0.6
 41
-30.0
 62
     5
 63
     7
 74
     0
 91
        4
 64
     7
 65
   257
 75
     1
175
     1
 42
1.0
 92
        8
 66
     7
 43
1.0
 76
     1
 77
     6
 78
     2
 67
     7
 79
     5
170
     0
171
     0
290
     0
174
     0
 93
        1
 44
0.0
173
     0
291
     1
 45
0.0
1001
ACAD
1000
AcDbSavedByObjectVersion
1070
     0
  0
VISUALSTYLE
  5
2B9
102
{ACAD_REACTORS
330
18
102
}
330
18
100
AcDbVisualStyle
  2
Brighten
 70
    12
 71
     2
 72
     2
 73
     0
 90
        0
 40
-0.6
 41
-30.0
 62
     5
 63
     7
 74
     1
 91
        4
 64
     7
 65
   257
 75
     1
175
     1
 42
1.0
 92
        8
 66
     7
 43
1.0
 76
     1
 77
     6
 78
     2
 67
     7
 79
     5
170
     0
171
     0
290
     0
174
     0
 93
        1
 44
50.0
173
     0
291
     1
 45
0.0
1001
ACAD
1000
AcDbSavedByObjectVersion
1070
     0
  0
VISUALSTYLE
  5
2BD
102
{ACAD_REACTORS
330
18
102
}
330
18
100
AcDbVisualStyle
  2
ColorChange
 70
    16
 71
     2
 72
     2
 73
     3
 90
        0
 40
-0.6
 41
-30.0
 62
     5
 63
     8
 74
     1
 91
        4
 64
     7
 65
   257
 75
     1
175
     1
 42
1.0
 92
        8
 66
     8
 43
1.0
 76
     1
 77
     6
 78
     2
 67
     7
 79
     5
170
     0
171
     0
290
     0
174
     0
 93
        1
 44
0.0
173
     0
291
     1
 45
0.0
1001
ACAD
1000
AcDbSavedByObjectVersion
1070
     0
  0
VISUALSTYLE
  5
2B7
102
{ACAD_REACTORS
330
18
102
}
330
18
100
AcDbVisualStyle
  2
Conceptual
 70
     9
 71
     3
 72
     2
 73
     0
 90
        0
 40
-0.6
 41
-30.0
 62
     5
 63
     7
 74
     2
 91
        2
 64
     7
 65
   257
 75
     1
175
     1
 42
40.0
 92
        8
 66
     7
 43
1.0
 76
     1
 77
     6
 78
     2
 67
     7
 79
     3
170
     0
171
     0
290
     0
174
     0
 93
        1
 44
0.0
173
     0
291
     0
 45
0.0
1001
ACAD
1000
AcDbSavedByObjectVersion
1070
     0
  0
VISUALSTYLE
  5
2B8
102
{ACAD_REACTORS
330
18
102
}
330
18
100
AcDbVisualStyle
  2
Dim
 70
    11
 71
     2
 72
     2
 73
     0
 90
        0
 40
-0.6
 41
-30.0
 62
     5
 63
     7
 74
     1
 91
        4
 64
     7
 65
   257
 75
     1
175
     1
 42
1.0
 92
        8
 66
     7
 43
1.0
 76
     1
 77
     6
 78
     2
 67
     7
 79
     5
170
     0
171
     0
290
     0
174
     0
 93
        1
 44
-50.0
173
     0
291
     1
 45
0.0
1001
ACAD
1000
AcDbSavedByObjectVersion
1070
     0
  0
VISUALSTYLE
  5
2BC
102
{ACAD_REACTORS
330
18
102
}
330
18
100
AcDbVisualStyle
  2
Facepattern
 70
    15
 71
     2
 72
     2
 73
     0
 90
        0
 40
-0.6
 41
-30.0
 62
     5
 63
     7
 74
     1
 91
        4
 64
     7
 65
   257
 75
     1
175
     1
 42
1.0
 92
        8
 66
     7
 43
1.0
 76
     1
 77
     6
 78
     2
 67
     7
 79
     5
170
     0
171
     0
290
     0
174
     0
 93
        1
 44
0.0
173
     0
291
     1
 45
0.0
1001
ACAD
1000
AcDbSavedByObjectVersion
1070
     0
  0
VISUALSTYLE
  5
2B1
102
{ACAD_REACTORS
330
18
102
}
330
18
100
AcDbVisualStyle
  2
Flat
 70
     0
 71
     2
 72
     1
 73
     1
 90
        2
 40
-0.6
 41
30.0
 62
     5
 63
     7
 74
     0
 91
        4
 64
     7
 65
   257
 75
     1
175
     1
 42
1.0
 92
        8
 66
     7
 43
1.0
 76
     1
 77
     6
 78
     2
 67
     7
 79
     5
170
     0
171
     0
290
     0
174
     0
 93
       13
 44
0.0
173
     0
291
     0
 45
0.0
1001
ACAD
1000
AcDbSavedByObjectVersion
1070
     0
  0
VISUALSTYLE
  5
2B2
102
{ACAD_REACTORS
330
18
102
}
330
18
100
AcDbVisualStyle
  2
FlatWithEdges
 70
     1
 71
     2
 72
     1
 73
     1
 90
        2
 40
-0.6
 41
30.0
 62
     5
 63
     7
 74
     1
 91
        4
 64
     7
 65
   257
 75
     1
175
     1
 42
1.0
 92
        0
 66
   257
 43
1.0
 76
     1
 77
     6
 78
     2
 67
     7
 79
     5
170
     0
171
     0
290
     0
174
     0
 93
       13
 44
0.0
173
     0
291
     0
 45
0.0
1001
ACAD
1000
AcDbSavedByObjectVersion
1070
     0
  0
VISUALSTYLE
  5
2B3
102
{ACAD_REACTORS
330
18
102
}
330
18
100
AcDbVisualStyle
  2
Gouraud
 70
     2
 71
     2
 72
     2
 73
     1
 90
        2
 40
-0.6
 41
30.0
 62
     5
 63
     7
 74
     0
 91
        4
 64
     7
 65
   257
 75
     1
175
     1
 42
1.0
 92
        0
 66
     7
 43
1.0
 76
     1
 77
     6
 78
     2
 67
     7
 79
     5
170
     0
171
     0
290
     0
174
     0
 93
       13
 44
0.0
173
     0
291
     0
 45
0.0
1001
ACAD
1000
AcDbSavedByObjectVersion
1070
     0
  0
VISUALSTYLE
  5
2B4
102
{ACAD_REACTORS
330
18
102
}
330
18
100
AcDbVisualStyle
  2
GouraudWithEdges
 70
     3
 71
     2
 72
     2
 73
     1
 90
        2
 40
-0.6
 41
30.0
 62
     5
 63
     7
 74
     1
 91
        4
 64
     7
 65
   257
 75
     1
175
     1
 42
1.0
 92
        0
 66
   257
 43
1.0
 76
     1
 77
     6
 78
     2
 67
     7
 79
     5
170
     0
171
     0
290
     0
174
     0
 93
       13
 44
0.0
173
     0
291
     0
 45
0.0
1001
ACAD
1000
AcDbSavedByObjectVersion
1070
     0
  0
VISUALSTYLE
  5
2BB
102
{ACAD_REACTORS
330
18
102
}
330
18
100
AcDbVisualStyle
  2
Linepattern
 70
    14
 71
     2
 72
     2
 73
     0
 90
        0
 40
-0.6
 41
-30.0
 62
     5
 63
     7
 74
     1
 91
        4
 64
     7
 65
   257
 75
     7
175
     7
 42
1.0
 92
        8
 66
     7
 43
1.0
 76
     1
 77
     6
 78
     2
 67
     7
 79
     5
170
     0
171
     0
290
     0
174
     0
 93
        1
 44
0.0
173
     0
291
     1
 45
0.0
1001
ACAD
1000
AcDbSavedByObjectVersion
1070
     0
  0
VISUALSTYLE
  5
2C7
102
{ACAD_REACTORS
330
18
102
}
330
18
100
AcDbVisualStyle
  2

 70
     8
 71
     2
 72
     2
 73
     0
 90
        0
 40
-0.6
 41
-30.0
 62
     5
 63
     7
 74
     0
 91
        0
 64
     7
 65
   257
 75
     1
175
     1
 42
1.0
 92
        8
 66
     8
 43
1.0
 76
     1
 77
     6
 78
     2
 67
     7
 79
     5
170
     0
171
     0
290
     0
174
     0
 93
       13
 44
0.0
173
     0
291
     0
 45
0.0
1001
ACAD
1000
AcDbSavedByObjectVersion
1070
     0
  0
VISUALSTYLE
  5
2C8
102
{ACAD_REACTORS
330
18
102
}
330
18
100
AcDbVisualStyle
  2

 70
     8
 71
     2
 72
     2
 73
     0
 90
        0
 40
-0.6
 41
-30.0
 62
     5
 63
     7
 74
     1
 91
        0
 64
     7
 65
   257
 75
     1
175
     1
 42
1.0
 92
        8
 66
     8
 43
1.0
 76
     1
 77
     6
 78
     2
 67
     7
 79
     5
170
     0
171
     0
290
     0
174
     0
 93
       13
 44
0.0
173
     0
291
     0
 45
0.0
1001
ACAD
1000
AcDbSavedByObjectVersion
1070
     0
  0
VISUALSTYLE
  5
52
102
{ACAD_REACTORS
330
18
102
}
330
18
100
AcDbVisualStyle
  2
Realistic
 70
     8
 71
     2
 72
     2
 73
     0
 90
        0
 40
-0.6
 41
-30.0
 62
     5
 63
     7
 74
     1
 91
        0
 64
     7
 65
   257
 75
     1
175
     1
 42
1.0
 92
        8
 66
     8
 43
1.0
 76
     1
 77
     6
 78
     2
 67
     7
 79
     5
170
     0
171
     0
290
     0
174
     0
 93
       13
 44
0.0
173
     0
291
     0
 45
0.0
1001
ACAD
1000
AcDbSavedByObjectVersion
1070
     0
  0
VISUALSTYLE
  5
2BA
102
{ACAD_REACTORS
330
18
102
}
330
18
100
AcDbVisualStyle
  2
Thicken
 70
    13
 71
     2
 72
     2
 73
     0
 90
        0
 40
-0.6
 41
-30.0
 62
     5
 63
     7
 74
     1
 91
        4
 64
     7
 65
   257
 75
     1
175
     1
 42
1.0
 92
       12
 66
     7
 43
1.0
 76
     1
 77
     6
 78
     2
 67
     7
 79
     5
170
     0
171
     0
290
     0
174
     0
 93
        1
 44
0.0
173
     0
291
     1
 45
0.0
1001
ACAD
1000
AcDbSavedByObjectVersion
1070
     0
  0
DICTIONARYVAR
  5
2AE
102
{ACAD_REACTORS
330
2AB
102
}
330
2AB
100
DictionaryVariables
280
     0
  1
1:1
  0
DICTIONARYVAR
  5
2AD
102
{ACAD_REACTORS
330
2AB
102
}
330
2AB
100
DictionaryVariables
280
     0
  1
STANDARD
  0
DICTIONARYVAR
  5
2AC
102
{ACAD_REACTORS
330
2AB
102
}
330
2AB
100
DictionaryVariables
280
     0
  1
STANDARD
  0
DICTIONARYVAR
  5
874
102
{ACAD_REACTORS
330
2AB
102
}
330
2AB
100
DictionaryVariables
280
     0
  1
1
  0
DICTIONARYVAR
  5
873
102
{ACAD_REACTORS
330
2AB
102
}
330
2AB
100
DictionaryVariables
280
     0
  1
1
  0
DICTIONARYVAR
  5
872
102
{ACAD_REACTORS
330
2AB
102
}
330
2AB
100
DictionaryVariables
280
     0
  1
0
  0
DICTIONARYVAR
  5
2AF
102
{ACAD_REACTORS
330
2AB
102
}
330
2AB
100
DictionaryVariables
280
     0
  1
0
  0
DICTIONARYVAR
  5
870
102
{ACAD_REACTORS
330
2AB
102
}
330
2AB
100
DictionaryVariables
280
     0
  1
1
  0
DICTIONARYVAR
  5
871
102
{ACAD_REACTORS
330
2AB
102
}
330
2AB
100
DictionaryVariables
280
     0
  1
127
  0
DICTIONARY
  5
87A
330
1C
100
AcDbDictionary
280
     1
281
     1
  3
ACAD_XREC_ROUNDTRIP
360
87B
  0
DICTIONARY
  5
878
330
14
100
AcDbDictionary
280
     1
281
     1
  3
ACAD_XREC_ROUNDTRIP
360
879
  0
DICTIONARY
  5
45
330
44
100
AcDbDictionary
280
     1
281
     1
  3
ACAD_XREC_ROUNDTRIP
360
87D
  3
BUMPTILE
360
46
  3
DIFFUSETILE
360
47
  3
OPACITYTILE
360
48
  3
REFLECTIONTILE
360
49
  3
REFRACTIONTILE
360
4A
  3
SPECULARTILE
360
4B
  0
DICTIONARY
  5
3D
330
3C
100
AcDbDictionary
280
     1
281
     1
  3
ACAD_XREC_ROUNDTRIP
360
87C
  3
BUMPTILE
360
3E
  3
DIFFUSETILE
360
3F
  3
OPACITYTILE
360
40
  3
REFLECTIONTILE
360
41
  3
REFRACTIONTILE
360
42
  3
SPECULARTILE
360
43
  0
DICTIONARY
  5
A
330
8
100
AcDbDictionary
280
     1
281
     1
  3
ACAD_XREC_ROUNDTRIP
360
877
  3
BUMPTILE
360
B
  3
DIFFUSETILE
360
C
  3
OPACITYTILE
360
D
  3
REFLECTIONTILE
360
E
  3
REFRACTIONTILE
360
F
  3
SPECULARTILE
360
10
  0
DICTIONARY
  5
2A8
330
51
100
AcDbDictionary
280
     1
281
     1
  3
ACAD_ROUNDTRIP_2008_TABLESTYLE_CELLSTYLEMAP
360
875
  3
ACAD_XREC_ROUNDTRIP
360
87E
  0
XRECORD
  5
87B
102
{ACAD_REACTORS
330
87A
102
}
330
87A
100
AcDbXrecord
280
     1
102
SHADEPLOT
 70
     0
102
SHADEPLOTRESLEVEL
 70
     2
102
SHADEPLOTCUSTOMDPI
 70
   300
  0
XRECORD
  5
879
102
{ACAD_REACTORS
330
878
102
}
330
878
100
AcDbXrecord
280
     1
102
SHADEPLOT
 70
     1
102
SHADEPLOTRESLEVEL
 70
     2
102
SHADEPLOTCUSTOMDPI
 70
   300
  0
XRECORD
  5
87D
102
{ACAD_REACTORS
330
45
102
}
330
45
100
AcDbXrecord
280
     1
102
MATERIAL
148
0.0
149
0.0
149
0.0
 93
        0
 94
      127
282
     0
 72
     0
 77
     0
171
     0
175
     0
179
     0
273
     0
  0
XRECORD
  5
46
102
{ACAD_REACTORS
330
45
102
}
330
45
100
AcDbXrecord
280
     1
270
     1
271
     1
  0
XRECORD
  5
47
102
{ACAD_REACTORS
330
45
102
}
330
45
100
AcDbXrecord
280
     1
270
     1
271
     1
  0
XRECORD
  5
48
102
{ACAD_REACTORS
330
45
102
}
330
45
100
AcDbXrecord
280
     1
270
     1
271
     1
  0
XRECORD
  5
49
102
{ACAD_REACTORS
330
45
102
}
330
45
100
AcDbXrecord
280
     1
270
     1
271
     1
  0
XRECORD
  5
4A
102
{ACAD_REACTORS
330
45
102
}
330
45
100
AcDbXrecord
280
     1
270
     1
271
     1
  0
XRECORD
  5
4B
102
{ACAD_REACTORS
330
45
102
}
330
45
100
AcDbXrecord
280
     1
270
     1
271
     1
  0
XRECORD
  5
87C
102
{ACAD_REACTORS
330
3D
102
}
330
3D
100
AcDbXrecord
280
     1
102
MATERIAL
148
0.0
149
0.0
149
0.0
 93
        0
 94
      127
282
     0
 72
     0
 77
     0
171
     0
175
     0
179
     0
273
     0
  0
XRECORD
  5
3E
102
{ACAD_REACTORS
330
3D
102
}
330
3D
100
AcDbXrecord
280
     1
270
     1
271
     1
  0
XRECORD
  5
3F
102
{ACAD_REACTORS
330
3D
102
}
330
3D
100
AcDbXrecord
280
     1
270
     1
271
     1
  0
XRECORD
  5
40
102
{ACAD_REACTORS
330
3D
102
}
330
3D
100
AcDbXrecord
280
     1
270
     1
271
     1
  0
XRECORD
  5
41
102
{ACAD_REACTORS
330
3D
102
}
330
3D
100
AcDbXrecord
280
     1
270
     1
271
     1
  0
XRECORD
  5
42
102
{ACAD_REACTORS
330
3D
102
}
330
3D
100
AcDbXrecord
280
     1
270
     1
271
     1
  0
XRECORD
  5
43
102
{ACAD_REACTORS
330
3D
102
}
330
3D
100
AcDbXrecord
280
     1
270
     1
271
     1
  0
XRECORD
  5
877
102
{ACAD_REACTORS
330
A
102
}
330
A
100
AcDbXrecord
280
     1
102
MATERIAL
148
0.0
149
0.0
149
0.0
 93
        0
 94
      127
282
     0
 72
     0
 77
     0
171
     0
175
     0
179
     0
273
     0
  0
XRECORD
  5
B
102
{ACAD_REACTORS
330
A
102
}
330
A
100
AcDbXrecord
280
     1
270
     1
271
     1
  0
XRECORD
  5
C
102
{ACAD_REACTORS
330
A
102
}
330
A
100
AcDbXrecord
280
     1
270
     1
271
     1
  0
XRECORD
  5
D
102
{ACAD_REACTORS
330
A
102
}
330
A
100
AcDbXrecord
280
     1
270
     1
271
     1
  0
XRECORD
  5
E
102
{ACAD_REACTORS
330
A
102
}
330
A
100
AcDbXrecord
280
     1
270
     1
271
     1
  0
XRECORD
  5
F
102
{ACAD_REACTORS
330
A
102
}
330
A
100
AcDbXrecord
280
     1
270
     1
271
     1
  0
XRECORD
  5
10
102
{ACAD_REACTORS
330
A
102
}
330
A
100
AcDbXrecord
280
     1
270
     1
271
     1
  0
CELLSTYLEMAP
  5
875
102
{ACAD_REACTORS
330
2A8
102
}
330
2A8
100
AcDbCellStyleMap
 90
        3
300
CELLSTYLE
  1
TABLEFORMAT_BEGIN
 90
        5
170
     1
 91
        0
 92
    32768
 62
   257
 93
        1
300
CONTENTFORMAT
  1
CONTENTFORMAT_BEGIN
 90
        0
 91
        0
 92
        4
 93
        0
300

 40
0.0
140
1.0
 94
        5
 62
     0
340
21
144
0.25
309
CONTENTFORMAT_END
171
     0
 94
        6
 95
        1
302
GRIDFORMAT
  1
GRIDFORMAT_BEGIN
 90
        0
 91
        1
 62
     0
 92
       -2
340
0
 93
        0
 40
0.045
309
GRIDFORMAT_END
 95
        2
302
GRIDFORMAT
  1
GRIDFORMAT_BEGIN
 90
        0
 91
        1
 62
     0
 92
       -2
340
0
 93
        0
 40
0.045
309
GRIDFORMAT_END
 95
        4
302
GRIDFORMAT
  1
GRIDFORMAT_BEGIN
 90
        0
 91
        1
 62
     0
 92
       -2
340
0
 93
        0
 40
0.045
309
GRIDFORMAT_END
 95
        8
302
GRIDFORMAT
  1
GRIDFORMAT_BEGIN
 90
        0
 91
        1
 62
     0
 92
       -2
340
0
 93
        0
 40
0.045
309
GRIDFORMAT_END
 95
       16
302
GRIDFORMAT
  1
GRIDFORMAT_BEGIN
 90
        0
 91
        1
 62
     0
 92
       -2
340
0
 93
        0
 40
0.045
309
GRIDFORMAT_END
 95
       32
302
GRIDFORMAT
  1
GRIDFORMAT_BEGIN
 90
        0
 91
        1
 62
     0
 92
       -2
340
0
 93
        0
 40
0.045
309
GRIDFORMAT_END
309
TABLEFORMAT_END
  1
CELLSTYLE_BEGIN
 90
        1
 91
        1
300
_TITLE
309
CELLSTYLE_END
300
CELLSTYLE
  1
TABLEFORMAT_BEGIN
 90
        5
170
     1
 91
        0
 92
        0
 62
   257
 93
        1
300
CONTENTFORMAT
  1
CONTENTFORMAT_BEGIN
 90
        0
 91
        0
 92
        4
 93
        0
300

 40
0.0
140
1.0
 94
        5
 62
     0
340
21
144
0.18
309
CONTENTFORMAT_END
171
     0
 94
        6
 95
        1
302
GRIDFORMAT
  1
GRIDFORMAT_BEGIN
 90
        0
 91
        1
 62
     0
 92
       -2
340
0
 93
        0
 40
0.045
309
GRIDFORMAT_END
 95
        2
302
GRIDFORMAT
  1
GRIDFORMAT_BEGIN
 90
        0
 91
        1
 62
     0
 92
       -2
340
0
 93
        0
 40
0.045
309
GRIDFORMAT_END
 95
        4
302
GRIDFORMAT
  1
GRIDFORMAT_BEGIN
 90
        0
 91
        1
 62
     0
 92
       -2
340
0
 93
        0
 40
0.045
309
GRIDFORMAT_END
 95
        8
302
GRIDFORMAT
  1
GRIDFORMAT_BEGIN
 90
        0
 91
        1
 62
     0
 92
       -2
340
0
 93
        0
 40
0.045
309
GRIDFORMAT_END
 95
       16
302
GRIDFORMAT
  1
GRIDFORMAT_BEGIN
 90
        0
 91
        1
 62
     0
 92
       -2
340
0
 93
        0
 40
0.045
309
GRIDFORMAT_END
 95
       32
302
GRIDFORMAT
  1
GRIDFORMAT_BEGIN
 90
        0
 91
        1
 62
     0
 92
       -2
340
0
 93
        0
 40
0.045
309
GRIDFORMAT_END
309
TABLEFORMAT_END
  1
CELLSTYLE_BEGIN
 90
        2
 91
        1
300
_HEADER
309
CELLSTYLE_END
300
CELLSTYLE
  1
TABLEFORMAT_BEGIN
 90
        5
170
     1
 91
        0
 92
        0
 62
   257
 93
        1
300
CONTENTFORMAT
  1
CONTENTFORMAT_BEGIN
 90
        0
 91
        0
 92
        4
 93
        0
300

 40
0.0
140
1.0
 94
        2
 62
     0
340
21
144
0.18
309
CONTENTFORMAT_END
171
     0
 94
        6
 95
        1
302
GRIDFORMAT
  1
GRIDFORMAT_BEGIN
 90
        0
 91
        1
 62
     0
 92
       -2
340
0
 93
        0
 40
0.045
309
GRIDFORMAT_END
 95
        2
302
GRIDFORMAT
  1
GRIDFORMAT_BEGIN
 90
        0
 91
        1
 62
     0
 92
       -2
340
0
 93
        0
 40
0.045
309
GRIDFORMAT_END
 95
        4
302
GRIDFORMAT
  1
GRIDFORMAT_BEGIN
 90
        0
 91
        1
 62
     0
 92
       -2
340
0
 93
        0
 40
0.045
309
GRIDFORMAT_END
 95
        8
302
GRIDFORMAT
  1
GRIDFORMAT_BEGIN
 90
        0
 91
        1
 62
     0
 92
       -2
340
0
 93
        0
 40
0.045
309
GRIDFORMAT_END
 95
       16
302
GRIDFORMAT
  1
GRIDFORMAT_BEGIN
 90
        0
 91
        1
 62
     0
 92
       -2
340
0
 93
        0
 40
0.045
309
GRIDFORMAT_END
 95
       32
302
GRIDFORMAT
  1
GRIDFORMAT_BEGIN
 90
        0
 91
        1
 62
     0
 92
       -2
340
0
 93
        0
 40
0.045
309
GRIDFORMAT_END
309
TABLEFORMAT_END
  1
CELLSTYLE_BEGIN
 90
        3
 91
        2
300
_DATA
309
CELLSTYLE_END
  0
XRECORD
  5
87E
102
{ACAD_REACTORS
330
2A8
102
}
330
2A8
100
AcDbXrecord
280
     1
102
ACAD_ROUNDTRIP_PRE2007_TABLESTYLE
 90
        4
 91
        0
  1

 92
        4
 93
        0
  2

 94
        4
 95
        0
  3

  0
ENDSEC
  0
EOF
