  0
SECTION
  2
HEADER
  9
$ACADVER
  1
AC1015
  9
$ACADMAINTVER
 70
    18
  9
$DWGCODEPAGE
  3
ANSI_1250
  9
$INSBASE
 10
0.0
 20
0.0
 30
0.0
  9
$EXTMIN
 10
1.000000000000000E+20
 20
1.000000000000000E+20
 30
1.000000000000000E+20
  9
$EXTMAX
 10
0.0
 20
0.0
 30
0.0
  9
$LIMMIN
 10
0.0
 20
0.0
  9
$LIMMAX
 10
420.0
 20
297.0
  9
$ORTHOMODE
 70
     0
  9
$REGENMODE
 70
     1
  9
$FILLMODE
 70
     1
  9
$QTEXTMODE
 70
     0
  9
$MIRRTEXT
 70
     0
  9
$LTSCALE
 40
1.0
  9
$ATTMODE
 70
     1
  9
$TEXTSIZE
 40
2.5
  9
$TRACEWID
 40
1.0
  9
$TEXTSTYLE
  7
Standard
  9
$CLAYER
  8
0
  9
$CELTYPE
  6
ByLayer
  9
$CECOLOR
 62
   256
  9
$CELTSCALE
 40
1.0
  9
$DISPSILH
 70
     0
  9
$DIMSCALE
 40
1.0
  9
$DIMASZ
 40
2.5
  9
$DIMEXO
 40
0.625
  9
$DIMDLI
 40
3.75
  9
$DIMRND
 40
0.0
  9
$DIMDLE
 40
0.0
  9
$DIMEXE
 40
1.25
  9
$DIMTP
 40
0.0
  9
$DIMTM
 40
0.0
  9
$DIMTXT
 40
2.5
  9
$DIMCEN
 40
2.5
  9
$DIMTSZ
 40
0.0
  9
$DIMTOL
 70
     0
  9
$DIMLIM
 70
     0
  9
$DIMTIH
 70
     0
  9
$DIMTOH
 70
     0
  9
$DIMSE1
 70
     0
  9
$DIMSE2
 70
     0
  9
$DIMTAD
 70
     1
  9
$DIMZIN
 70
     8
  9
$DIMBLK
  1

  9
$DIMASO
 70
     1
  9
$DIMSHO
 70
     1
  9
$DIMPOST
  1

  9
$DIMAPOST
  1

  9
$DIMALT
 70
     0
  9
$DIMALTD
 70
     3
  9
$DIMALTF
 40
0.03937007874016
  9
$DIMLFAC
 40
1.0
  9
$DIMTOFL
 70
     1
  9
$DIMTVP
 40
0.0
  9
$DIMTIX
 70
     0
  9
$DIMSOXD
 70
     0
  9
$DIMSAH
 70
     0
  9
$DIMBLK1
  1

  9
$DIMBLK2
  1

  9
$DIMSTYLE
  2
ISO-25
  9
$DIMCLRD
 70
     0
  9
$DIMCLRE
 70
     0
  9
$DIMCLRT
 70
     0
  9
$DIMTFAC
 40
1.0
  9
$DIMGAP
 40
0.625
  9
$DIMJUST
 70
     0
  9
$DIMSD1
 70
     0
  9
$DIMSD2
 70
     0
  9
$DIMTOLJ
 70
     0
  9
$DIMTZIN
 70
     8
  9
$DIMALTZ
 70
     0
  9
$DIMALTTZ
 70
     0
  9
$DIMUPT
 70
     0
  9
$DIMDEC
 70
     2
  9
$DIMTDEC
 70
     2
  9
$DIMALTU
 70
     2
  9
$DIMALTTD
 70
     3
  9
$DIMTXSTY
  7
Standard
  9
$DIMAUNIT
 70
     0
  9
$DIMADEC
 70
     0
  9
$DIMALTRND
 40
0.0
  9
$DIMAZIN
 70
     0
  9
$DIMDSEP
 70
    44
  9
$DIMATFIT
 70
     3
  9
$DIMFRAC
 70
     0
  9
$DIMLDRBLK
  1

  9
$DIMLUNIT
 70
     2
  9
$DIMLWD
 70
    -2
  9
$DIMLWE
 70
    -2
  9
$DIMTMOVE
 70
     0
  9
$LUNITS
 70
     2
  9
$LUPREC
 70
     4
  9
$SKETCHINC
 40
1.0
  9
$FILLETRAD
 40
0.0
  9
$AUNITS
 70
     0
  9
$AUPREC
 70
     0
  9
$MENU
  1
.
  9
$ELEVATION
 40
0.0
  9
$PELEVATION
 40
0.0
  9
$THICKNESS
 40
0.0
  9
$LIMCHECK
 70
     0
  9
$CHAMFERA
 40
0.0
  9
$CHAMFERB
 40
0.0
  9
$CHAMFERC
 40
0.0
  9
$CHAMFERD
 40
0.0
  9
$SKPOLY
 70
     0
  9
$TDCREATE
 40
2455754.546519098
  9
$TDUCREATE
 40
2455754.463185764
  9
$TDUPDATE
 40
2455754.547120405
  9
$TDUUPDATE
 40
2455754.463787072
  9
$TDINDWG
 40
0.0006043981
  9
$TDUSRTIMER
 40
0.0006043981
  9
$USRTIMER
 70
     1
  9
$ANGBASE
 50
0.0
  9
$ANGDIR
 70
     0
  9
$PDMODE
 70
     0
  9
$PDSIZE
 40
0.0
  9
$PLINEWID
 40
0.0
  9
$SPLFRAME
 70
     0
  9
$SPLINETYPE
 70
     6
  9
$SPLINESEGS
 70
     8
  9
$HANDSEED
  5
219
  9
$SURFTAB1
 70
     6
  9
$SURFTAB2
 70
     6
  9
$SURFTYPE
 70
     6
  9
$SURFU
 70
     6
  9
$SURFV
 70
     6
  9
$UCSBASE
  2

  9
$UCSNAME
  2

  9
$UCSORG
 10
0.0
 20
0.0
 30
0.0
  9
$UCSXDIR
 10
1.0
 20
0.0
 30
0.0
  9
$UCSYDIR
 10
0.0
 20
1.0
 30
0.0
  9
$UCSORTHOREF
  2

  9
$UCSORTHOVIEW
 70
     0
  9
$UCSORGTOP
 10
0.0
 20
0.0
 30
0.0
  9
$UCSORGBOTTOM
 10
0.0
 20
0.0
 30
0.0
  9
$UCSORGLEFT
 10
0.0
 20
0.0
 30
0.0
  9
$UCSORGRIGHT
 10
0.0
 20
0.0
 30
0.0
  9
$UCSORGFRONT
 10
0.0
 20
0.0
 30
0.0
  9
$UCSORGBACK
 10
0.0
 20
0.0
 30
0.0
  9
$PUCSBASE
  2

  9
$PUCSNAME
  2

  9
$PUCSORG
 10
0.0
 20
0.0
 30
0.0
  9
$PUCSXDIR
 10
1.0
 20
0.0
 30
0.0
  9
$PUCSYDIR
 10
0.0
 20
1.0
 30
0.0
  9
$PUCSORTHOREF
  2

  9
$PUCSORTHOVIEW
 70
     0
  9
$PUCSORGTOP
 10
0.0
 20
0.0
 30
0.0
  9
$PUCSORGBOTTOM
 10
0.0
 20
0.0
 30
0.0
  9
$PUCSORGLEFT
 10
0.0
 20
0.0
 30
0.0
  9
$PUCSORGRIGHT
 10
0.0
 20
0.0
 30
0.0
  9
$PUCSORGFRONT
 10
0.0
 20
0.0
 30
0.0
  9
$PUCSORGBACK
 10
0.0
 20
0.0
 30
0.0
  9
$USERI1
 70
     0
  9
$USERI2
 70
     0
  9
$USERI3
 70
     0
  9
$USERI4
 70
     0
  9
$USERI5
 70
     0
  9
$USERR1
 40
0.0
  9
$USERR2
 40
0.0
  9
$USERR3
 40
0.0
  9
$USERR4
 40
0.0
  9
$USERR5
 40
0.0
  9
$WORLDVIEW
 70
     1
  9
$SHADEDGE
 70
     3
  9
$SHADEDIF
 70
    70
  9
$TILEMODE
 70
     1
  9
$MAXACTVP
 70
    64
  9
$PINSBASE
 10
0.0
 20
0.0
 30
0.0
  9
$PLIMCHECK
 70
     0
  9
$PEXTMIN
 10
0.0
 20
0.0
 30
0.0
  9
$PEXTMAX
 10
0.0
 20
0.0
 30
0.0
  9
$PLIMMIN
 10
0.0
 20
0.0
  9
$PLIMMAX
 10
12.0
 20
9.0
  9
$UNITMODE
 70
     0
  9
$VISRETAIN
 70
     1
  9
$PLINEGEN
 70
     0
  9
$PSLTSCALE
 70
     1
  9
$TREEDEPTH
 70
  3020
  9
$CMLSTYLE
  2
Standard
  9
$CMLJUST
 70
     0
  9
$CMLSCALE
 40
20.0
  9
$PROXYGRAPHICS
 70
     1
  9
$MEASUREMENT
 70
     1
  9
$CELWEIGHT
370
    -1
  9
$ENDCAPS
280
     0
  9
$JOINSTYLE
280
     0
  9
$LWDISPLAY
290
     0
  9
$INSUNITS
 70
     4
  9
$HYPERLINKBASE
  1

  9
$STYLESHEET
  1

  9
$XEDIT
290
     1
  9
$CEPSNTYPE
380
     0
  9
$PSTYLEMODE
290
     1
  9
$FINGERPRINTGUID
  2
{0131D82D-2FFC-4488-8C55-F22CC230B020}
  9
$VERSIONGUID
  2
{B58A94F4-4038-4650-B86D-97A6CEA07295}
  9
$EXTNAMES
290
     1
  9
$PSVPSCALE
 40
0.0
  9
$OLESTARTUP
290
     0
  0
ENDSEC
  0
SECTION
  2
CLASSES
  0
CLASS
  1
ACDBDICTIONARYWDFLT
  2
AcDbDictionaryWithDefault
  3
ObjectDBX Classes
 90
        0
280
     0
281
     0
  0
CLASS
  1
ACDBPLACEHOLDER
  2
AcDbPlaceHolder
  3
ObjectDBX Classes
 90
        0
280
     0
281
     0
  0
CLASS
  1
LAYOUT
  2
AcDbLayout
  3
ObjectDBX Classes
 90
        0
280
     0
281
     0
  0
CLASS
  1
DICTIONARYVAR
  2
AcDbDictionaryVar
  3
ObjectDBX Classes
 90
        0
280
     0
281
     0
  0
CLASS
  1
TABLESTYLE
  2
AcDbTableStyle
  3
ObjectDBX Classes
 90
     4095
280
     0
281
     0
  0
CLASS
  1
MATERIAL
  2
AcDbMaterial
  3
ObjectDBX Classes
 90
     1153
280
     0
281
     0
  0
CLASS
  1
VISUALSTYLE
  2
AcDbVisualStyle
  3
ObjectDBX Classes
 90
     4095
280
     0
281
     0
  0
CLASS
  1
SCALE
  2
AcDbScale
  3
ObjectDBX Classes
 90
     1153
280
     0
281
     0
  0
CLASS
  1
MLEADERSTYLE
  2
AcDbMLeaderStyle
  3
ACDB_MLEADERSTYLE_CLASS
 90
    36863
280
     0
281
     0
  0
CLASS
  1
CELLSTYLEMAP
  2
AcDbCellStyleMap
  3
ObjectDBX Classes
 90
     1152
280
     0
281
     0
  0
CLASS
  1
EXACXREFPANELOBJECT
  2
ExAcXREFPanelObject
  3
EXAC_ESW
 90
    33793
280
     0
281
     0
  0
CLASS
  1
NPOCOLLECTION
  2
AcDbImpNonPersistentObjectsCollection
  3
ObjectDBX Classes
 90
    33921
280
     0
281
     0
  0
CLASS
  1
LAYER_INDEX
  2
AcDbLayerIndex
  3
ObjectDBX Classes
 90
    32768
280
     0
281
     0
  0
CLASS
  1
SPATIAL_INDEX
  2
AcDbSpatialIndex
  3
ObjectDBX Classes
 90
    32768
280
     0
281
     0
  0
CLASS
  1
IDBUFFER
  2
AcDbIdBuffer
  3
ObjectDBX Classes
 90
    32768
280
     0
281
     0
  0
CLASS
  1
SORTENTSTABLE
  2
AcDbSortentsTable
  3
ObjectDBX Classes
 90
        0
280
     0
281
     0
  0
CLASS
  1
AEC_REFEDIT_STATUS_TRACKER
  2
AecDbRefEditStatusTracker
  3
AecArchBase50|Product Desc: Autodesk Architectural Desktop 2007 |Company: Autodesk,Inc. |WEB Address: www.autodesk.com
 90
    32897
280
     0
281
     0
  0
ENDSEC
  0
SECTION
  2
TABLES
  0
TABLE
  2
VPORT
  5
1D0
330
0
100
AcDbSymbolTable
 70
     1
  0
VPORT
  5
1D1
330
1D0
100
AcDbSymbolTableRecord
100
AcDbViewportTableRecord
  2
*Active
 70
     0
 10
0.0
 20
0.0
 11
1.0
 21
1.0
 12
9391.38872279426
 22
5845.286927731346
 13
0.0
 23
0.0
 14
10.0
 24
10.0
 15
10.0
 25
10.0
 16
0.0
 26
0.0
 36
1.0
 17
0.0
 27
0.0
 37
0.0
 40
31811.19197542526
 41
2.263513513513513
 42
50.0
 43
0.0
 44
0.0
 50
0.0
 51
0.0
 71
     0
 72
  1000
 73
     1
 74
     3
 75
     0
 76
     0
 77
     0
 78
     0
281
     0
 65
     1
110
0.0
120
0.0
130
0.0
111
1.0
121
0.0
131
0.0
112
0.0
122
1.0
132
0.0
 79
     0
146
0.0
  0
ENDTAB
  0
TABLE
  2
LTYPE
  5
1CB
330
0
100
AcDbSymbolTable
 70
     2
  0
LTYPE
  5
1CC
330
1CB
100
AcDbSymbolTableRecord
100
AcDbLinetypeTableRecord
  2
ByBlock
 70
     0
  3

 72
    65
 73
     0
 40
0.0
  0
LTYPE
  5
1CD
330
1CB
100
AcDbSymbolTableRecord
100
AcDbLinetypeTableRecord
  2
ByLayer
 70
     0
  3

 72
    65
 73
     0
 40
0.0
  0
LTYPE
  5
12
330
1CB
100
AcDbSymbolTableRecord
100
AcDbLinetypeTableRecord
  2
Continuous
 70
     0
  3
Solid line
 72
    65
 73
     0
 40
0.0
  0
LTYPE
  5
19
330
1CB
100
AcDbSymbolTableRecord
100
AcDbLinetypeTableRecord
  2
HIDDEN
 70
     0
  3
__ __ __ __ __ __ __ __ __ __ __ __ __ __ __ __
 72
    65
 73
     2
 40
0.375
 49
0.25
 74
     0
 49
-0.125
 74
     0
  0
ENDTAB
  0
TABLE
  2
LAYER
  5
1C5
102
{ACAD_XDICTIONARY
360
1C6
102
}
330
0
100
AcDbSymbolTable
 70
     5
  0
LAYER
  5
5
102
{ACAD_XDICTIONARY
360
6
102
}
330
1C5
100
AcDbSymbolTableRecord
100
AcDbLayerTableRecord
  2
0
 70
     0
 62
     7
  6
Continuous
370
    -3
390
7
  0
LAYER
  5
9C
330
1C5
100
AcDbSymbolTableRecord
100
AcDbLayerTableRecord
  2
DEFPOINTS
 70
     0
 62
     7
  6
Continuous
290
     0
370
    -3
390
7
1001
RAK
1000
{ACET-LAYISO
1070
     0
1070
    -7
1000
Continuous
1071
       -3
1071
        0
1005
7
1000
ACET-LAYISO}
  0
LAYER
  5
20
330
1C5
100
AcDbSymbolTableRecord
100
AcDbLayerTableRecord
  2
0Hatch
 70
     0
 62
    65
  6
Continuous
370
     5
390
7
  0
LAYER
  5
14
102
{ACAD_XDICTIONARY
360
15
102
}
330
1C5
100
AcDbSymbolTableRecord
100
AcDbLayerTableRecord
  2
NAPISY
 70
     0
 62
   140
  6
Continuous
370
    -3
390
7
1001
RAK
1000
{ACET-LAYISO
1070
     0
1070
   140
1000
CONTINUOUS
1071
       -3
1071
        1
1005
7
1000
ACET-LAYISO}
  0
LAYER
  5
1E
330
1C5
100
AcDbSymbolTableRecord
100
AcDbLayerTableRecord
  2
RAMKI-A4
 70
     0
 62
     2
  6
Continuous
290
     0
370
    -3
390
7
1001
RAK
1000
{ACET-LAYISO
1070
     0
1070
     2
1000
Continuous
1071
       -3
1071
        0
1005
7
1000
ACET-LAYISO}
  0
ENDTAB
  0
TABLE
  2
STYLE
  5
1C8
330
0
100
AcDbSymbolTable
 70
     3
  0
STYLE
  5
1C9
330
1C8
100
AcDbSymbolTableRecord
100
AcDbTextStyleTableRecord
  2
Standard
 70
     0
 40
0.0
 41
1.0
 50
0.0
 71
     0
 42
2.5
  3
ARIAL.TTF
  4

1001
ACAD
1000
Arial
1071
       34
  0
STYLE
  5
9A
330
1C8
100
AcDbSymbolTableRecord
100
AcDbTextStyleTableRecord
  2
ROMANS
 70
     0
 40
0.0
 41
0.8
 50
0.0
 71
     0
 42
17.0
  3
romans.shx
  4

  0
STYLE
  5
17
330
1C8
100
AcDbSymbolTableRecord
100
AcDbTextStyleTableRecord
  2
AVA
 70
     0
 40
0.0
 41
1.0
 50
0.0
 71
     0
 42
158.5644099714409
  3
ARIAL.TTF
  4

1001
ACAD
1000
Arial CE
1071
    60962
  0
ENDTAB
  0
TABLE
  2
VIEW
  5
1CE
330
0
100
AcDbSymbolTable
 70
     0
  0
ENDTAB
  0
TABLE
  2
UCS
  5
1CF
330
0
100
AcDbSymbolTable
 70
     0
  0
ENDTAB
  0
TABLE
  2
APPID
  5
1D4
330
0
100
AcDbSymbolTable
 70
     6
  0
APPID
  5
11
330
1D4
100
AcDbSymbolTableRecord
100
AcDbRegAppTableRecord
  2
ACAD
 70
     0
  0
APPID
  5
1BC
330
1D4
100
AcDbSymbolTableRecord
100
AcDbRegAppTableRecord
  2
ACAD_PSEXT
 70
     0
  0
APPID
  5
1D8
330
1D4
100
AcDbSymbolTableRecord
100
AcDbRegAppTableRecord
  2
AcadAnnotative
 70
     0
  0
APPID
  5
1D9
330
1D4
100
AcDbSymbolTableRecord
100
AcDbRegAppTableRecord
  2
ACAD_DSTYLE_DIMJAG
 70
     0
  0
APPID
  5
1DA
330
1D4
100
AcDbSymbolTableRecord
100
AcDbRegAppTableRecord
  2
ACAD_DSTYLE_DIMTALN
 70
     0
  0
APPID
  5
16
330
1D4
100
AcDbSymbolTableRecord
100
AcDbRegAppTableRecord
  2
RAK
 70
     0
  0
ENDTAB
  0
TABLE
  2
DIMSTYLE
  5
1D5
330
0
100
AcDbSymbolTable
 70
     3
100
AcDbDimStyleTable
 71
     2
340
1D6
340
1D7
  0
DIMSTYLE
105
1D7
330
1D5
100
AcDbSymbolTableRecord
100
AcDbDimStyleTableRecord
  2
Annotative
 70
     0
 40
0.0
 41
2.5
 42
0.625
 43
3.75
 44
1.25
 73
     0
 74
     0
 77
     1
 78
     8
140
2.5
141
2.5
143
0.03937007874016
147
0.625
171
     3
172
     1
271
     2
272
     2
274
     3
278
    44
283
     0
284
     8
340
1C9
1001
AcadAnnotative
1000
AnnotativeData
1002
{
1070
     1
1070
     1
1002
}
1001
ACAD_DSTYLE_DIMJAG
1070
   388
1040
1.5
1001
ACAD_DSTYLE_DIMTALN
1070
   392
1070
     0
  0
DIMSTYLE
105
1D6
330
1D5
100
AcDbSymbolTableRecord
100
AcDbDimStyleTableRecord
  2
ISO-25
 70
     0
 41
2.5
 42
0.625
 43
3.75
 44
1.25
 73
     0
 74
     0
 77
     1
 78
     8
140
2.5
141
2.5
143
0.03937007874016
147
0.625
171
     3
172
     1
271
     2
272
     2
274
     3
278
    44
283
     0
284
     8
340
1C9
  0
DIMSTYLE
105
A0
102
{ACAD_REACTORS
330
89
330
A1
330
AC
330
B7
330
C2
330
CF
330
DA
330
E7
330
15B
330
168
330
173
330
17E
330
189
330
196
330
1A1
330
1AE
102
}
330
1D5
100
AcDbSymbolTableRecord
100
AcDbDimStyleTableRecord
  2
500
 70
     0
 41
30.0
 42
43.0
 43
0.0
 44
13.0
 45
0.5
 46
12.0
 73
     0
 74
     0
 75
     1
 76
     1
 78
    12
140
80.0
141
0.0
145
1.0
147
0.0
172
     1
174
     1
176
     1
177
     1
178
   140
271
     1
272
     1
279
     2
340
9A
341
90
342
90
  0
ENDTAB
  0
TABLE
  2
BLOCK_RECORD
  5
1
330
0
100
AcDbSymbolTable
 70
    18
  0
BLOCK_RECORD
  5
2
102
{ACAD_XDICTIONARY
360
3
102
}
330
1
100
AcDbSymbolTableRecord
100
AcDbBlockTableRecord
  2
*Model_Space
340
1BA
  0
BLOCK_RECORD
  5
1BD
330
1
100
AcDbSymbolTableRecord
100
AcDbBlockTableRecord
  2
*Paper_Space
340
1C0
  0
BLOCK_RECORD
  5
1C1
330
1
100
AcDbSymbolTableRecord
100
AcDbBlockTableRecord
  2
*Paper_Space0
340
1C4
  0
BLOCK_RECORD
  5
90
102
{ACAD_XDICTIONARY
360
91
102
}
330
1
100
AcDbSymbolTableRecord
100
AcDbBlockTableRecord
  2
B-DIM
340
0
310
2800000020000000200000000100080000000000000400000000000000000000000000000000000000000000000080000080000000808000800000008000800080800000C0C0C000C0DCC000F0CAA6000020400000206000002080000020A0000020C0000020E00000400000004020000040400000406000004080000040A0
310
000040C0000040E00000600000006020000060400000606000006080000060A0000060C0000060E00000800000008020000080400000806000008080000080A0000080C0000080E00000A0000000A0200000A0400000A0600000A0800000A0A00000A0C00000A0E00000C0000000C0200000C0400000C0600000C0800000C0
310
A00000C0C00000C0E00000E0000000E0200000E0400000E0600000E0800000E0A00000E0C00000E0E00040000000400020004000400040006000400080004000A0004000C0004000E00040200000402020004020400040206000402080004020A0004020C0004020E000404000004040200040404000404060004040800040
310
40A0004040C0004040E00040600000406020004060400040606000406080004060A0004060C0004060E00040800000408020004080400040806000408080004080A0004080C0004080E00040A0000040A0200040A0400040A0600040A0800040A0A00040A0C00040A0E00040C0000040C0200040C0400040C0600040C08000
310
40C0A00040C0C00040C0E00040E0000040E0200040E0400040E0600040E0800040E0A00040E0C00040E0E00080000000800020008000400080006000800080008000A0008000C0008000E00080200000802020008020400080206000802080008020A0008020C0008020E00080400000804020008040400080406000804080
310
008040A0008040C0008040E00080600000806020008060400080606000806080008060A0008060C0008060E00080800000808020008080400080806000808080008080A0008080C0008080E00080A0000080A0200080A0400080A0600080A0800080A0A00080A0C00080A0E00080C0000080C0200080C0400080C0600080C0
310
800080C0A00080C0C00080C0E00080E0000080E0200080E0400080E0600080E0800080E0A00080E0C00080E0E000C0000000C0002000C0004000C0006000C0008000C000A000C000C000C000E000C0200000C0202000C0204000C0206000C0208000C020A000C020C000C020E000C0400000C0402000C0404000C0406000C0
310
408000C040A000C040C000C040E000C0600000C0602000C0604000C0606000C0608000C060A000C060C000C060E000C0800000C0802000C0804000C0806000C0808000C080A000C080C000C080E000C0A00000C0A02000C0A04000C0A06000C0A08000C0A0A000C0A0C000C0A0E000C0C00000C0C02000C0C04000C0C06000
310
C0C08000C0C0A000F0FBFF00A4A0A000808080000000FF0000FF000000FFFF00FF000000FF00FF00FFFF0000FFFFFF0000000000000000000000000000000000000000000000000000000000000000000000000000000000000000000000000000000000000000000000000000000000000000000000000000000000000000
310
000000000000000000000000000000000000000000000000000000000000000000F900000000000000000000000000000000000000000000000000000000000000F900000000000000000000000000000000000000000000000000000000000000F90000000000000000000000000000000000000000000000F90000000000
310
0000F900000000000000000000000000000000000000000000F900F9000000000000F9000000000000000000000000000000000000000000F9000000F90000000000F900000000000000000000000000000000000000000000F9000000F900000000F90000000000000000000000000000000000000000000000F9000000F9
310
000000F9000000000000000000000000000000000000000000000000F9000000F90000F900000000000000000000000000000000000000000000000000F9000000F900F90000000000000000000000000000000000000000000000000000F9000000F9F9000000000000000000000000000000000000000000000000000000
310
F9000000F900000000000000000000000000000000000000000000000000000000F90000F9F9000000000000000000000000000000F9F9F9F9F9F9F9F9F9F9F9F9F9F9F9F9F9F9F9F9F9F9F9F9F9F9F9F9F9F900000000000000000000000000000000F9F90000F90000000000000000000000000000000000000000000000
310
0000000000F9000000F9000000000000000000000000000000000000000000000000000000F9F9000000F90000000000000000000000000000000000000000000000000000F900F9000000F900000000000000000000000000000000000000000000000000F90000F9000000F9000000000000000000000000000000000000
310
000000000000F9000000F9000000F90000000000000000000000000000000000000000000000F900000000F9000000F900000000000000000000000000000000000000000000F90000000000F900F90000000000000000000000000000000000000000000000F9000000000000F90000000000000000000000000000000000
310
00000000000000F900000000000000000000000000000000000000000000000000000000000000F900000000000000000000000000000000000000000000000000000000000000F900000000000000000000000000000000000000000000000000000000000000000000000000000000000000000000000000000000000000
310
0000000000000000000000000000000000000000000000000000000000000000000000000000000000000000000000000000000000000000
102
{BLKREFS
331
8F
331
98
331
A5
331
A6
331
B0
331
B1
331
BB
331
BC
331
C8
331
C9
331
D3
331
D4
331
E0
331
E1
331
EB
331
EC
331
161
331
162
331
16C
331
16D
331
177
331
178
331
182
331
183
331
18F
331
190
331
19A
331
19B
331
1A7
331
1A8
331
1B2
331
1B3
102
}
  0
BLOCK_RECORD
  5
8A
330
1
100
AcDbSymbolTableRecord
100
AcDbBlockTableRecord
  2
*D2
340
0
  0
BLOCK_RECORD
  5
A2
330
1
100
AcDbSymbolTableRecord
100
AcDbBlockTableRecord
  2
*D3
340
0
  0
BLOCK_RECORD
  5
AD
330
1
100
AcDbSymbolTableRecord
100
AcDbBlockTableRecord
  2
*D4
340
0
  0
BLOCK_RECORD
  5
B8
330
1
100
AcDbSymbolTableRecord
100
AcDbBlockTableRecord
  2
*D5
340
0
  0
BLOCK_RECORD
  5
C3
330
1
100
AcDbSymbolTableRecord
100
AcDbBlockTableRecord
  2
*D6
340
0
  0
BLOCK_RECORD
  5
D0
330
1
100
AcDbSymbolTableRecord
100
AcDbBlockTableRecord
  2
*D7
340
0
  0
BLOCK_RECORD
  5
DB
330
1
100
AcDbSymbolTableRecord
100
AcDbBlockTableRecord
  2
*D8
340
0
  0
BLOCK_RECORD
  5
E8
330
1
100
AcDbSymbolTableRecord
100
AcDbBlockTableRecord
  2
*D9
340
0
  0
BLOCK_RECORD
  5
15C
330
1
100
AcDbSymbolTableRecord
100
AcDbBlockTableRecord
  2
*D10
340
0
  0
BLOCK_RECORD
  5
169
330
1
100
AcDbSymbolTableRecord
100
AcDbBlockTableRecord
  2
*D11
340
0
  0
BLOCK_RECORD
  5
174
330
1
100
AcDbSymbolTableRecord
100
AcDbBlockTableRecord
  2
*D12
340
0
  0
BLOCK_RECORD
  5
17F
330
1
100
AcDbSymbolTableRecord
100
AcDbBlockTableRecord
  2
*D13
340
0
  0
BLOCK_RECORD
  5
18A
330
1
100
AcDbSymbolTableRecord
100
AcDbBlockTableRecord
  2
*D14
340
0
  0
BLOCK_RECORD
  5
197
330
1
100
AcDbSymbolTableRecord
100
AcDbBlockTableRecord
  2
*D15
340
0
  0
BLOCK_RECORD
  5
1A2
330
1
100
AcDbSymbolTableRecord
100
AcDbBlockTableRecord
  2
*D16
340
0
  0
BLOCK_RECORD
  5
1AF
330
1
100
AcDbSymbolTableRecord
100
AcDbBlockTableRecord
  2
*D17
340
0
  0
ENDTAB
  0
ENDSEC
  0
SECTION
  2
BLOCKS
  0
BLOCK
  5
4
330
2
100
AcDbEntity
  8
0
100
AcDbBlockBegin
  2
*Model_Space
 70
     0
 10
0.0
 20
0.0
 30
0.0
  3
*Model_Space
  1

  0
ENDBLK
  5
1B9
330
2
100
AcDbEntity
  8
0
100
AcDbBlockEnd
  0
BLOCK
  5
1BE
330
1BD
100
AcDbEntity
 67
     1
  8
0
100
AcDbBlockBegin
  2
*Paper_Space
 70
     0
 10
0.0
 20
0.0
 30
0.0
  3
*Paper_Space
  1

  0
ENDBLK
  5
1BF
330
1BD
100
AcDbEntity
 67
     1
  8
0
100
AcDbBlockEnd
  0
BLOCK
  5
1C2
330
1C1
100
AcDbEntity
 67
     1
  8
0
100
AcDbBlockBegin
  2
*Paper_Space0
 70
     0
 10
0.0
 20
0.0
 30
0.0
  3
*Paper_Space0
  1

  0
ENDBLK
  5
1C3
330
1C1
100
AcDbEntity
 67
     1
  8
0
100
AcDbBlockEnd
  0
BLOCK
  5
93
330
90
100
AcDbEntity
  8
0
100
AcDbBlockBegin
  2
B-DIM
 70
     0
 10
0.0
 20
0.0
 30
0.0
  3
B-DIM
  1

  0
LINE
  5
94
330
90
100
AcDbEntity
  8
0
 62
     1
100
AcDbLine
 10
0.000000000000091
 20
-1.1
 30
0.0
 11
0.000000000000091
 21
1.1
 31
0.0
  0
LWPOLYLINE
  5
95
330
90
100
AcDbEntity
  8
0
 62
     1
100
AcDbPolyline
 90
        2
 70
     0
 43
0.3
 10
-0.7071067811864851
 20
-0.7071067811864851
 10
0.707106781186576
 20
0.707106781186576
  0
LINE
  5
96
330
90
100
AcDbEntity
  8
0
 62
     1
100
AcDbLine
 10
1.20000000000009
 20
0.0
 30
0.0
 11
-1.199999999999909
 21
0.0
 31
0.0
  0
ENDBLK
  5
97
330
90
100
AcDbEntity
  8
0
100
AcDbBlockEnd
  0
BLOCK
  5
8B
330
8A
100
AcDbEntity
  8
0
100
AcDbBlockBegin
  2
*D2
 70
     1
 10
0.0
 20
0.0
 30
0.0
  3
*D2
  1

  0
LINE
  5
8C
330
8A
100
AcDbEntity
  8
0Hatch
 62
     1
370
    -2
100
AcDbLine
 10
4375.269042867854
 20
10015.38695551141
 30
0.0
 11
4345.269042867854
 21
10015.38695551141
 31
0.0
  0
LINE
  5
8D
330
8A
100
AcDbEntity
  8
0Hatch
 62
     1
370
    -2
100
AcDbLine
 10
4535.269042867854
 20
10015.38695551141
 30
0.0
 11
4565.269042867854
 21
10015.38695551141
 31
0.0
  0
LINE
  5
8E
330
8A
100
AcDbEntity
  8
0Hatch
 62
     1
370
    -2
100
AcDbLine
 10
4405.269042867854
 20
10015.38695551141
 30
0.0
 11
4505.269042867854
 21
10015.38695551141
 31
0.0
  0
INSERT
  5
8F
330
8A
100
AcDbEntity
  8
0Hatch
 62
     1
370
    -2
100
AcDbBlockReference
  2
B-DIM
 10
4405.269042867854
 20
10015.38695551141
 30
0.0
 41
30.0
 42
30.0
 43
30.0
  0
INSERT
  5
98
330
8A
100
AcDbEntity
  8
0Hatch
 62
     1
370
    -2
100
AcDbBlockReference
  2
B-DIM
 10
4505.269042867854
 20
10015.38695551141
 30
0.0
 41
30.0
 42
30.0
 43
30.0
 50
180.0
  0
MTEXT
  5
99
330
8A
100
AcDbEntity
  8
0Hatch
 62
   140
100
AcDbMText
 10
4455.269042867854
 20
10095.38695551141
 30
0.0
 40
80.0
 41
0.0
 71
     5
 72
     1
  1
\A1;100
  7
ROMANS
 73
     1
 44
1.0
1001
ACAD
1000
MTEXTBEGIN
1070
    73
1070
     1
1070
    44
1040
1.0
1070
    74
1070
     0
1000
MTEXTEND
  0
POINT
  5
9B
330
8A
100
AcDbEntity
  8
DEFPOINTS
 62
     0
100
AcDbPoint
 10
4405.269042867854
 20
9158.931403246105
 30
0.0
  0
POINT
  5
9D
330
8A
100
AcDbEntity
  8
DEFPOINTS
 62
     0
100
AcDbPoint
 10
4505.269042867854
 20
9519.931403246104
 30
0.0
  0
POINT
  5
9E
330
8A
100
AcDbEntity
  8
DEFPOINTS
 62
     0
100
AcDbPoint
 10
4505.269042867854
 20
10015.38695551141
 30
0.0
  0
ENDBLK
  5
9F
330
8A
100
AcDbEntity
  8
0
100
AcDbBlockEnd
  0
BLOCK
  5
A3
330
A2
100
AcDbEntity
  8
0
100
AcDbBlockBegin
  2
*D3
 70
     1
 10
0.0
 20
0.0
 30
0.0
  3
*D3
  1

  0
LINE
  5
A4
330
A2
100
AcDbEntity
  8
0Hatch
 62
     1
370
    -2
100
AcDbLine
 10
4535.269042867854
 20
10015.38695551141
 30
0.0
 11
5356.269042867854
 21
10015.38695551141
 31
0.0
  0
INSERT
  5
A5
330
A2
100
AcDbEntity
  8
0Hatch
 62
     1
370
    -2
100
AcDbBlockReference
  2
B-DIM
 10
4505.269042867854
 20
10015.38695551141
 30
0.0
 41
30.0
 42
30.0
 43
30.0
 50
180.0
  0
INSERT
  5
A6
330
A2
100
AcDbEntity
  8
0Hatch
 62
     1
370
    -2
100
AcDbBlockReference
  2
B-DIM
 10
5386.269042867855
 20
10015.38695551141
 30
0.0
 41
30.0
 42
30.0
 43
30.0
  0
MTEXT
  5
A7
330
A2
100
AcDbEntity
  8
0Hatch
 62
   140
100
AcDbMText
 10
4945.769042867855
 20
10095.38695551141
 30
0.0
 40
80.0
 41
0.0
 71
     5
 72
     1
  1
\A1;881
  7
ROMANS
 73
     1
 44
1.0
1001
ACAD
1000
MTEXTBEGIN
1070
    73
1070
     1
1070
    44
1040
1.0
1070
    74
1070
     0
1000
MTEXTEND
  0
POINT
  5
A8
330
A2
100
AcDbEntity
  8
DEFPOINTS
 62
     0
100
AcDbPoint
 10
4505.269042867854
 20
9519.931403246104
 30
0.0
  0
POINT
  5
A9
330
A2
100
AcDbEntity
  8
DEFPOINTS
 62
     0
100
AcDbPoint
 10
5386.269042867855
 20
9519.931403246104
 30
0.0
  0
POINT
  5
AA
330
A2
100
AcDbEntity
  8
DEFPOINTS
 62
     0
100
AcDbPoint
 10
5386.269042867855
 20
10015.38695551141
 30
0.0
  0
ENDBLK
  5
AB
330
A2
100
AcDbEntity
  8
0
100
AcDbBlockEnd
  0
BLOCK
  5
AE
330
AD
100
AcDbEntity
  8
0
100
AcDbBlockBegin
  2
*D4
 70
     1
 10
0.0
 20
0.0
 30
0.0
  3
*D4
  1

  0
LINE
  5
AF
330
AD
100
AcDbEntity
  8
0Hatch
 62
     1
370
    -2
100
AcDbLine
 10
5416.269042867854
 20
10015.38695551141
 30
0.0
 11
6055.269042867855
 21
10015.38695551141
 31
0.0
  0
INSERT
  5
B0
330
AD
100
AcDbEntity
  8
0Hatch
 62
     1
370
    -2
100
AcDbBlockReference
  2
B-DIM
 10
5386.269042867855
 20
10015.38695551141
 30
0.0
 41
30.0
 42
30.0
 43
30.0
 50
180.0
  0
INSERT
  5
B1
330
AD
100
AcDbEntity
  8
0Hatch
 62
     1
370
    -2
100
AcDbBlockReference
  2
B-DIM
 10
6085.269042867854
 20
10015.38695551141
 30
0.0
 41
30.0
 42
30.0
 43
30.0
  0
MTEXT
  5
B2
330
AD
100
AcDbEntity
  8
0Hatch
 62
   140
100
AcDbMText
 10
5735.769042867854
 20
10095.38695551141
 30
0.0
 40
80.0
 41
0.0
 71
     5
 72
     1
  1
\A1;699
  7
ROMANS
 73
     1
 44
1.0
1001
ACAD
1000
MTEXTBEGIN
1070
    73
1070
     1
1070
    44
1040
1.0
1070
    74
1070
     0
1000
MTEXTEND
  0
POINT
  5
B3
330
AD
100
AcDbEntity
  8
DEFPOINTS
 62
     0
100
AcDbPoint
 10
5386.269042867855
 20
9519.931403246104
 30
0.0
  0
POINT
  5
B4
330
AD
100
AcDbEntity
  8
DEFPOINTS
 62
     0
100
AcDbPoint
 10
6085.269042867854
 20
9399.931403246105
 30
0.0
  0
POINT
  5
B5
330
AD
100
AcDbEntity
  8
DEFPOINTS
 62
     0
100
AcDbPoint
 10
6085.269042867854
 20
10015.38695551141
 30
0.0
  0
ENDBLK
  5
B6
330
AD
100
AcDbEntity
  8
0
100
AcDbBlockEnd
  0
BLOCK
  5
B9
330
B8
100
AcDbEntity
  8
0
100
AcDbBlockBegin
  2
*D5
 70
     1
 10
0.0
 20
0.0
 30
0.0
  3
*D5
  1

  0
LINE
  5
BA
330
B8
100
AcDbEntity
  8
0Hatch
 62
     1
370
    -2
100
AcDbLine
 10
4435.269042867854
 20
10260.68659847731
 30
0.0
 11
6055.269042867855
 21
10260.68659847731
 31
0.0
  0
INSERT
  5
BB
330
B8
100
AcDbEntity
  8
0Hatch
 62
     1
370
    -2
100
AcDbBlockReference
  2
B-DIM
 10
4405.269042867854
 20
10260.68659847731
 30
0.0
 41
30.0
 42
30.0
 43
30.0
 50
180.0
  0
INSERT
  5
BC
330
B8
100
AcDbEntity
  8
0Hatch
 62
     1
370
    -2
100
AcDbBlockReference
  2
B-DIM
 10
6085.269042867854
 20
10260.68659847731
 30
0.0
 41
30.0
 42
30.0
 43
30.0
  0
MTEXT
  5
BD
330
B8
100
AcDbEntity
  8
0Hatch
 62
   140
100
AcDbMText
 10
5245.269042867854
 20
10340.68659847731
 30
0.0
 40
80.0
 41
0.0
 71
     5
 72
     1
  1
\A1;1680
  7
ROMANS
 73
     1
 44
1.0
1001
ACAD
1000
MTEXTBEGIN
1070
    73
1070
     1
1070
    44
1040
1.0
1070
    74
1070
     0
1000
MTEXTEND
  0
POINT
  5
BE
330
B8
100
AcDbEntity
  8
DEFPOINTS
 62
     0
100
AcDbPoint
 10
4405.269042867854
 20
9158.931403246105
 30
0.0
  0
POINT
  5
BF
330
B8
100
AcDbEntity
  8
DEFPOINTS
 62
     0
100
AcDbPoint
 10
6085.269042867854
 20
9399.931403246105
 30
0.0
  0
POINT
  5
C0
330
B8
100
AcDbEntity
  8
DEFPOINTS
 62
     0
100
AcDbPoint
 10
6085.269042867854
 20
10260.68659847731
 30
0.0
  0
ENDBLK
  5
C1
330
B8
100
AcDbEntity
  8
0
100
AcDbBlockEnd
  0
BLOCK
  5
C4
330
C3
100
AcDbEntity
  8
0
100
AcDbBlockBegin
  2
*D6
 70
     1
 10
0.0
 20
0.0
 30
0.0
  3
*D6
  1

  0
LINE
  5
C5
330
C3
100
AcDbEntity
  8
0Hatch
 62
     1
370
    -2
100
AcDbLine
 10
6367.945200124555
 20
9549.931403246104
 30
0.0
 11
6367.945200124555
 21
9579.931403246105
 31
0.0
  0
LINE
  5
C6
330
C3
100
AcDbEntity
  8
0Hatch
 62
     1
370
    -2
100
AcDbLine
 10
6367.945200124555
 20
9369.931403246104
 30
0.0
 11
6367.945200124555
 21
9339.931403246104
 31
0.0
  0
LINE
  5
C7
330
C3
100
AcDbEntity
  8
0Hatch
 62
     1
370
    -2
100
AcDbLine
 10
6367.945200124555
 20
9519.931403246104
 30
0.0
 11
6367.945200124555
 21
9399.931403246105
 31
0.0
  0
INSERT
  5
C8
330
C3
100
AcDbEntity
  8
0Hatch
 62
     1
370
    -2
100
AcDbBlockReference
  2
B-DIM
 10
6367.945200124555
 20
9519.931403246104
 30
0.0
 41
30.0
 42
30.0
 43
30.0
 50
270.0
  0
INSERT
  5
C9
330
C3
100
AcDbEntity
  8
0Hatch
 62
     1
370
    -2
100
AcDbBlockReference
  2
B-DIM
 10
6367.945200124555
 20
9399.931403246105
 30
0.0
 41
30.0
 42
30.0
 43
30.0
 50
90.0
  0
MTEXT
  5
CA
330
C3
100
AcDbEntity
  8
0Hatch
 62
   140
100
AcDbMText
 10
6287.945200124554
 20
9459.931403246107
 30
0.0
 40
80.0
 41
0.0
 71
     5
 72
     1
  1
\A1;120
  7
ROMANS
 11
0.0000000000000001
 21
1.0
 31
0.0
 73
     1
 44
1.0
1001
ACAD
1000
MTEXTBEGIN
1070
    73
1070
     1
1070
    44
1040
1.0
1070
    74
1070
     0
1000
MTEXTEND
  0
POINT
  5
CB
330
C3
100
AcDbEntity
  8
DEFPOINTS
 62
     0
100
AcDbPoint
 10
5386.269042867855
 20
9519.931403246104
 30
0.0
  0
POINT
  5
CC
330
C3
100
AcDbEntity
  8
DEFPOINTS
 62
     0
100
AcDbPoint
 10
6085.269042867854
 20
9399.931403246105
 30
0.0
  0
POINT
  5
CD
330
C3
100
AcDbEntity
  8
DEFPOINTS
 62
     0
100
AcDbPoint
 10
6367.945200124555
 20
9399.931403246105
 30
0.0
  0
ENDBLK
  5
CE
330
C3
100
AcDbEntity
  8
0
100
AcDbBlockEnd
  0
BLOCK
  5
D1
330
D0
100
AcDbEntity
  8
0
100
AcDbBlockBegin
  2
*D7
 70
     1
 10
0.0
 20
0.0
 30
0.0
  3
*D7
  1

  0
LINE
  5
D2
330
D0
100
AcDbEntity
  8
0Hatch
 62
     1
370
    -2
100
AcDbLine
 10
6367.945200124554
 20
9369.931403246104
 30
0.0
 11
6367.945200124554
 21
8569.931403246105
 31
0.0
  0
INSERT
  5
D3
330
D0
100
AcDbEntity
  8
0Hatch
 62
     1
370
    -2
100
AcDbBlockReference
  2
B-DIM
 10
6367.945200124554
 20
9399.931403246105
 30
0.0
 41
30.0
 42
30.0
 43
30.0
 50
90.0
  0
INSERT
  5
D4
330
D0
100
AcDbEntity
  8
0Hatch
 62
     1
370
    -2
100
AcDbBlockReference
  2
B-DIM
 10
6367.945200124554
 20
8539.931403246106
 30
0.0
 41
30.0
 42
30.0
 43
30.0
 50
270.0
  0
MTEXT
  5
D5
330
D0
100
AcDbEntity
  8
0Hatch
 62
   140
100
AcDbMText
 10
6287.945200124553
 20
8969.931403246105
 30
0.0
 40
80.0
 41
0.0
 71
     5
 72
     1
  1
\A1;860
  7
ROMANS
 11
0.0000000000000001
 21
1.0
 31
0.0
 73
     1
 44
1.0
1001
ACAD
1000
MTEXTBEGIN
1070
    73
1070
     1
1070
    44
1040
1.0
1070
    74
1070
     0
1000
MTEXTEND
  0
POINT
  5
D6
330
D0
100
AcDbEntity
  8
DEFPOINTS
 62
     0
100
AcDbPoint
 10
6085.269042867854
 20
9399.931403246105
 30
0.0
  0
POINT
  5
D7
330
D0
100
AcDbEntity
  8
DEFPOINTS
 62
     0
100
AcDbPoint
 10
6085.269042867854
 20
8539.931403246106
 30
0.0
  0
POINT
  5
D8
330
D0
100
AcDbEntity
  8
DEFPOINTS
 62
     0
100
AcDbPoint
 10
6367.945200124554
 20
8539.931403246106
 30
0.0
  0
ENDBLK
  5
D9
330
D0
100
AcDbEntity
  8
0
100
AcDbBlockEnd
  0
BLOCK
  5
DC
330
DB
100
AcDbEntity
  8
0
100
AcDbBlockBegin
  2
*D8
 70
     1
 10
0.0
 20
0.0
 30
0.0
  3
*D8
  1

  0
LINE
  5
DD
330
DB
100
AcDbEntity
  8
0Hatch
 62
     1
370
    -2
100
AcDbLine
 10
6367.945200124554
 20
8569.931403246105
 30
0.0
 11
6367.945200124554
 21
8599.931403246104
 31
0.0
  0
LINE
  5
DE
330
DB
100
AcDbEntity
  8
0Hatch
 62
     1
370
    -2
100
AcDbLine
 10
6367.945200124554
 20
8389.931403246105
 30
0.0
 11
6367.945200124554
 21
8359.931403246104
 31
0.0
  0
LINE
  5
DF
330
DB
100
AcDbEntity
  8
0Hatch
 62
     1
370
    -2
100
AcDbLine
 10
6367.945200124554
 20
8539.931403246106
 30
0.0
 11
6367.945200124554
 21
8419.931403246105
 31
0.0
  0
INSERT
  5
E0
330
DB
100
AcDbEntity
  8
0Hatch
 62
     1
370
    -2
100
AcDbBlockReference
  2
B-DIM
 10
6367.945200124554
 20
8539.931403246106
 30
0.0
 41
30.0
 42
30.0
 43
30.0
 50
270.0
  0
INSERT
  5
E1
330
DB
100
AcDbEntity
  8
0Hatch
 62
     1
370
    -2
100
AcDbBlockReference
  2
B-DIM
 10
6367.945200124554
 20
8419.931403246105
 30
0.0
 41
30.0
 42
30.0
 43
30.0
 50
90.0
  0
MTEXT
  5
E2
330
DB
100
AcDbEntity
  8
0Hatch
 62
   140
100
AcDbMText
 10
6287.945200124553
 20
8479.931403246107
 30
0.0
 40
80.0
 41
0.0
 71
     5
 72
     1
  1
\A1;120
  7
ROMANS
 11
0.0000000000000001
 21
1.0
 31
0.0
 73
     1
 44
1.0
1001
ACAD
1000
MTEXTBEGIN
1070
    73
1070
     1
1070
    44
1040
1.0
1070
    74
1070
     0
1000
MTEXTEND
  0
POINT
  5
E3
330
DB
100
AcDbEntity
  8
DEFPOINTS
 62
     0
100
AcDbPoint
 10
6085.269042867854
 20
8539.931403246106
 30
0.0
  0
POINT
  5
E4
330
DB
100
AcDbEntity
  8
DEFPOINTS
 62
     0
100
AcDbPoint
 10
5005.269042867855
 20
8419.931403246105
 30
0.0
  0
POINT
  5
E5
330
DB
100
AcDbEntity
  8
DEFPOINTS
 62
     0
100
AcDbPoint
 10
6367.945200124554
 20
8419.931403246105
 30
0.0
  0
ENDBLK
  5
E6
330
DB
100
AcDbEntity
  8
0
100
AcDbBlockEnd
  0
BLOCK
  5
E9
330
E8
100
AcDbEntity
  8
0
100
AcDbBlockBegin
  2
*D9
 70
     1
 10
0.0
 20
0.0
 30
0.0
  3
*D9
  1

  0
LINE
  5
EA
330
E8
100
AcDbEntity
  8
0Hatch
 62
     1
370
    -2
100
AcDbLine
 10
6571.521141391952
 20
8449.931403246104
 30
0.0
 11
6571.521141391952
 21
9489.931403246105
 31
0.0
  0
INSERT
  5
EB
330
E8
100
AcDbEntity
  8
0Hatch
 62
     1
370
    -2
100
AcDbBlockReference
  2
B-DIM
 10
6571.521141391952
 20
8419.931403246105
 30
0.0
 41
30.0
 42
30.0
 43
30.0
 50
270.0
  0
INSERT
  5
EC
330
E8
100
AcDbEntity
  8
0Hatch
 62
     1
370
    -2
100
AcDbBlockReference
  2
B-DIM
 10
6571.521141391952
 20
9519.931403246104
 30
0.0
 41
30.0
 42
30.0
 43
30.0
 50
90.0
  0
MTEXT
  5
ED
330
E8
100
AcDbEntity
  8
0Hatch
 62
   140
100
AcDbMText
 10
6491.521141391951
 20
8969.931403246105
 30
0.0
 40
80.0
 41
0.0
 71
     5
 72
     1
  1
\A1;1100
  7
ROMANS
 11
0.0000000000000001
 21
1.0
 31
0.0
 73
     1
 44
1.0
1001
ACAD
1000
MTEXTBEGIN
1070
    73
1070
     1
1070
    44
1040
1.0
1070
    74
1070
     0
1000
MTEXTEND
  0
POINT
  5
EE
330
E8
100
AcDbEntity
  8
DEFPOINTS
 62
     0
100
AcDbPoint
 10
5005.269042867855
 20
8419.931403246105
 30
0.0
  0
POINT
  5
EF
330
E8
100
AcDbEntity
  8
DEFPOINTS
 62
     0
100
AcDbPoint
 10
5386.269042867855
 20
9519.931403246104
 30
0.0
  0
POINT
  5
F0
330
E8
100
AcDbEntity
  8
DEFPOINTS
 62
     0
100
AcDbPoint
 10
6571.521141391952
 20
9519.931403246104
 30
0.0
  0
ENDBLK
  5
F1
330
E8
100
AcDbEntity
  8
0
100
AcDbBlockEnd
  0
BLOCK
  5
15D
330
15C
100
AcDbEntity
  8
0
100
AcDbBlockBegin
  2
*D10
 70
     1
 10
0.0
 20
0.0
 30
0.0
  3
*D10
  1

  0
LINE
  5
15E
330
15C
100
AcDbEntity
  8
0Hatch
 62
     1
370
    -2
100
AcDbLine
 10
10174.28702232092
 20
10015.38695551141
 30
0.0
 11
10204.28702232091
 21
10015.38695551141
 31
0.0
  0
LINE
  5
15F
330
15C
100
AcDbEntity
  8
0Hatch
 62
     1
370
    -2
100
AcDbLine
 10
10014.28702232092
 20
10015.38695551141
 30
0.0
 11
9984.287022320918
 21
10015.38695551141
 31
0.0
  0
LINE
  5
160
330
15C
100
AcDbEntity
  8
0Hatch
 62
     1
370
    -2
100
AcDbLine
 10
10144.28702232091
 20
10015.38695551141
 30
0.0
 11
10044.28702232091
 21
10015.38695551141
 31
0.0
  0
INSERT
  5
161
330
15C
100
AcDbEntity
  8
0Hatch
 62
     1
370
    -2
100
AcDbBlockReference
  2
B-DIM
 10
10144.28702232091
 20
10015.38695551141
 30
0.0
 41
30.0
 42
30.0
 43
30.0
 50
180.0
  0
INSERT
  5
162
330
15C
100
AcDbEntity
  8
0Hatch
 62
     1
370
    -2
100
AcDbBlockReference
  2
B-DIM
 10
10044.28702232091
 20
10015.38695551141
 30
0.0
 41
30.0
 42
30.0
 43
30.0
  0
MTEXT
  5
163
330
15C
100
AcDbEntity
  8
0Hatch
 62
   140
100
AcDbMText
 10
10094.28702232092
 20
10095.38695551141
 30
0.0
 40
80.0
 41
0.0
 71
     5
 72
     1
  1
\A1;100
  7
ROMANS
 73
     1
 44
1.0
1001
ACAD
1000
MTEXTBEGIN
1070
    73
1070
     1
1070
    44
1040
1.0
1070
    74
1070
     0
1000
MTEXTEND
  0
POINT
  5
164
330
15C
100
AcDbEntity
  8
DEFPOINTS
 62
     0
100
AcDbPoint
 10
10144.28702232091
 20
9158.931403246105
 30
0.0
  0
POINT
  5
165
330
15C
100
AcDbEntity
  8
DEFPOINTS
 62
     0
100
AcDbPoint
 10
10044.28702232091
 20
9519.931403246104
 30
0.0
  0
POINT
  5
166
330
15C
100
AcDbEntity
  8
DEFPOINTS
 62
     0
100
AcDbPoint
 10
10044.28702232091
 20
10015.38695551141
 30
0.0
  0
ENDBLK
  5
167
330
15C
100
AcDbEntity
  8
0
100
AcDbBlockEnd
  0
BLOCK
  5
16A
330
169
100
AcDbEntity
  8
0
100
AcDbBlockBegin
  2
*D11
 70
     1
 10
0.0
 20
0.0
 30
0.0
  3
*D11
  1

  0
LINE
  5
16B
330
169
100
AcDbEntity
  8
0Hatch
 62
     1
370
    -2
100
AcDbLine
 10
10014.28702232092
 20
10015.38695551141
 30
0.0
 11
9193.287022320918
 21
10015.38695551141
 31
0.0
  0
INSERT
  5
16C
330
169
100
AcDbEntity
  8
0Hatch
 62
     1
370
    -2
100
AcDbBlockReference
  2
B-DIM
 10
10044.28702232091
 20
10015.38695551141
 30
0.0
 41
30.0
 42
30.0
 43
30.0
  0
INSERT
  5
16D
330
169
100
AcDbEntity
  8
0Hatch
 62
     1
370
    -2
100
AcDbBlockReference
  2
B-DIM
 10
9163.287022320918
 20
10015.38695551141
 30
0.0
 41
30.0
 42
30.0
 43
30.0
 50
180.0
  0
MTEXT
  5
16E
330
169
100
AcDbEntity
  8
0Hatch
 62
   140
100
AcDbMText
 10
9603.787022320918
 20
10095.38695551141
 30
0.0
 40
80.0
 41
0.0
 71
     5
 72
     1
  1
\A1;881
  7
ROMANS
 73
     1
 44
1.0
1001
ACAD
1000
MTEXTBEGIN
1070
    73
1070
     1
1070
    44
1040
1.0
1070
    74
1070
     0
1000
MTEXTEND
  0
POINT
  5
16F
330
169
100
AcDbEntity
  8
DEFPOINTS
 62
     0
100
AcDbPoint
 10
10044.28702232091
 20
9519.931403246104
 30
0.0
  0
POINT
  5
170
330
169
100
AcDbEntity
  8
DEFPOINTS
 62
     0
100
AcDbPoint
 10
9163.287022320918
 20
9519.931403246104
 30
0.0
  0
POINT
  5
171
330
169
100
AcDbEntity
  8
DEFPOINTS
 62
     0
100
AcDbPoint
 10
9163.287022320918
 20
10015.38695551141
 30
0.0
  0
ENDBLK
  5
172
330
169
100
AcDbEntity
  8
0
100
AcDbBlockEnd
  0
BLOCK
  5
175
330
174
100
AcDbEntity
  8
0
100
AcDbBlockBegin
  2
*D12
 70
     1
 10
0.0
 20
0.0
 30
0.0
  3
*D12
  1

  0
LINE
  5
176
330
174
100
AcDbEntity
  8
0Hatch
 62
     1
370
    -2
100
AcDbLine
 10
9133.287022320917
 20
10015.38695551141
 30
0.0
 11
8494.287022320916
 21
10015.38695551141
 31
0.0
  0
INSERT
  5
177
330
174
100
AcDbEntity
  8
0Hatch
 62
     1
370
    -2
100
AcDbBlockReference
  2
B-DIM
 10
9163.287022320918
 20
10015.38695551141
 30
0.0
 41
30.0
 42
30.0
 43
30.0
  0
INSERT
  5
178
330
174
100
AcDbEntity
  8
0Hatch
 62
     1
370
    -2
100
AcDbBlockReference
  2
B-DIM
 10
8464.287022320917
 20
10015.38695551141
 30
0.0
 41
30.0
 42
30.0
 43
30.0
 50
180.0
  0
MTEXT
  5
179
330
174
100
AcDbEntity
  8
0Hatch
 62
   140
100
AcDbMText
 10
8813.787022320918
 20
10095.38695551141
 30
0.0
 40
80.0
 41
0.0
 71
     5
 72
     1
  1
\A1;699
  7
ROMANS
 73
     1
 44
1.0
1001
ACAD
1000
MTEXTBEGIN
1070
    73
1070
     1
1070
    44
1040
1.0
1070
    74
1070
     0
1000
MTEXTEND
  0
POINT
  5
17A
330
174
100
AcDbEntity
  8
DEFPOINTS
 62
     0
100
AcDbPoint
 10
9163.287022320918
 20
9519.931403246104
 30
0.0
  0
POINT
  5
17B
330
174
100
AcDbEntity
  8
DEFPOINTS
 62
     0
100
AcDbPoint
 10
8464.287022320917
 20
9399.931403246105
 30
0.0
  0
POINT
  5
17C
330
174
100
AcDbEntity
  8
DEFPOINTS
 62
     0
100
AcDbPoint
 10
8464.287022320917
 20
10015.38695551141
 30
0.0
  0
ENDBLK
  5
17D
330
174
100
AcDbEntity
  8
0
100
AcDbBlockEnd
  0
BLOCK
  5
180
330
17F
100
AcDbEntity
  8
0
100
AcDbBlockBegin
  2
*D13
 70
     1
 10
0.0
 20
0.0
 30
0.0
  3
*D13
  1

  0
LINE
  5
181
330
17F
100
AcDbEntity
  8
0Hatch
 62
     1
370
    -2
100
AcDbLine
 10
10114.28702232092
 20
10260.68659847731
 30
0.0
 11
8494.287022320916
 21
10260.68659847731
 31
0.0
  0
INSERT
  5
182
330
17F
100
AcDbEntity
  8
0Hatch
 62
     1
370
    -2
100
AcDbBlockReference
  2
B-DIM
 10
10144.28702232091
 20
10260.68659847731
 30
0.0
 41
30.0
 42
30.0
 43
30.0
  0
INSERT
  5
183
330
17F
100
AcDbEntity
  8
0Hatch
 62
     1
370
    -2
100
AcDbBlockReference
  2
B-DIM
 10
8464.287022320917
 20
10260.68659847731
 30
0.0
 41
30.0
 42
30.0
 43
30.0
 50
180.0
  0
MTEXT
  5
184
330
17F
100
AcDbEntity
  8
0Hatch
 62
   140
100
AcDbMText
 10
9304.287022320918
 20
10340.68659847731
 30
0.0
 40
80.0
 41
0.0
 71
     5
 72
     1
  1
\A1;1680
  7
ROMANS
 73
     1
 44
1.0
1001
ACAD
1000
MTEXTBEGIN
1070
    73
1070
     1
1070
    44
1040
1.0
1070
    74
1070
     0
1000
MTEXTEND
  0
POINT
  5
185
330
17F
100
AcDbEntity
  8
DEFPOINTS
 62
     0
100
AcDbPoint
 10
10144.28702232091
 20
9158.931403246105
 30
0.0
  0
POINT
  5
186
330
17F
100
AcDbEntity
  8
DEFPOINTS
 62
     0
100
AcDbPoint
 10
8464.287022320917
 20
9399.931403246105
 30
0.0
  0
POINT
  5
187
330
17F
100
AcDbEntity
  8
DEFPOINTS
 62
     0
100
AcDbPoint
 10
8464.287022320917
 20
10260.68659847731
 30
0.0
  0
ENDBLK
  5
188
330
17F
100
AcDbEntity
  8
0
100
AcDbBlockEnd
  0
BLOCK
  5
18B
330
18A
100
AcDbEntity
  8
0
100
AcDbBlockBegin
  2
*D14
 70
     1
 10
0.0
 20
0.0
 30
0.0
  3
*D14
  1

  0
LINE
  5
18C
330
18A
100
AcDbEntity
  8
0Hatch
 62
     1
370
    -2
100
AcDbLine
 10
8181.610865064216
 20
9549.931403246104
 30
0.0
 11
8181.610865064216
 21
9579.931403246105
 31
0.0
  0
LINE
  5
18D
330
18A
100
AcDbEntity
  8
0Hatch
 62
     1
370
    -2
100
AcDbLine
 10
8181.610865064216
 20
9369.931403246104
 30
0.0
 11
8181.610865064216
 21
9339.931403246104
 31
0.0
  0
LINE
  5
18E
330
18A
100
AcDbEntity
  8
0Hatch
 62
     1
370
    -2
100
AcDbLine
 10
8181.610865064216
 20
9519.931403246104
 30
0.0
 11
8181.610865064216
 21
9399.931403246105
 31
0.0
  0
INSERT
  5
18F
330
18A
100
AcDbEntity
  8
0Hatch
 62
     1
370
    -2
100
AcDbBlockReference
  2
B-DIM
 10
8181.610865064216
 20
9519.931403246104
 30
0.0
 41
30.0
 42
30.0
 43
30.0
 50
270.0
  0
INSERT
  5
190
330
18A
100
AcDbEntity
  8
0Hatch
 62
     1
370
    -2
100
AcDbBlockReference
  2
B-DIM
 10
8181.610865064216
 20
9399.931403246105
 30
0.0
 41
30.0
 42
30.0
 43
30.0
 50
90.0
  0
MTEXT
  5
191
330
18A
100
AcDbEntity
  8
0Hatch
 62
   140
100
AcDbMText
 10
8101.610865064214
 20
9459.931403246107
 30
0.0
 40
80.0
 41
0.0
 71
     5
 72
     1
  1
\A1;120
  7
ROMANS
 11
0.0000000000000001
 21
1.0
 31
0.0
 73
     1
 44
1.0
1001
ACAD
1000
MTEXTBEGIN
1070
    73
1070
     1
1070
    44
1040
1.0
1070
    74
1070
     0
1000
MTEXTEND
  0
POINT
  5
192
330
18A
100
AcDbEntity
  8
DEFPOINTS
 62
     0
100
AcDbPoint
 10
9163.287022320918
 20
9519.931403246104
 30
0.0
  0
POINT
  5
193
330
18A
100
AcDbEntity
  8
DEFPOINTS
 62
     0
100
AcDbPoint
 10
8464.287022320917
 20
9399.931403246105
 30
0.0
  0
POINT
  5
194
330
18A
100
AcDbEntity
  8
DEFPOINTS
 62
     0
100
AcDbPoint
 10
8181.610865064216
 20
9399.931403246105
 30
0.0
  0
ENDBLK
  5
195
330
18A
100
AcDbEntity
  8
0
100
AcDbBlockEnd
  0
BLOCK
  5
198
330
197
100
AcDbEntity
  8
0
100
AcDbBlockBegin
  2
*D15
 70
     1
 10
0.0
 20
0.0
 30
0.0
  3
*D15
  1

  0
LINE
  5
199
330
197
100
AcDbEntity
  8
0Hatch
 62
     1
370
    -2
100
AcDbLine
 10
8181.610865064216
 20
9369.931403246104
 30
0.0
 11
8181.610865064216
 21
8569.931403246105
 31
0.0
  0
INSERT
  5
19A
330
197
100
AcDbEntity
  8
0Hatch
 62
     1
370
    -2
100
AcDbBlockReference
  2
B-DIM
 10
8181.610865064216
 20
9399.931403246105
 30
0.0
 41
30.0
 42
30.0
 43
30.0
 50
90.0
  0
INSERT
  5
19B
330
197
100
AcDbEntity
  8
0Hatch
 62
     1
370
    -2
100
AcDbBlockReference
  2
B-DIM
 10
8181.610865064216
 20
8539.931403246106
 30
0.0
 41
30.0
 42
30.0
 43
30.0
 50
270.0
  0
MTEXT
  5
19C
330
197
100
AcDbEntity
  8
0Hatch
 62
   140
100
AcDbMText
 10
8101.610865064214
 20
8969.931403246105
 30
0.0
 40
80.0
 41
0.0
 71
     5
 72
     1
  1
\A1;860
  7
ROMANS
 11
0.0000000000000001
 21
1.0
 31
0.0
 73
     1
 44
1.0
1001
ACAD
1000
MTEXTBEGIN
1070
    73
1070
     1
1070
    44
1040
1.0
1070
    74
1070
     0
1000
MTEXTEND
  0
POINT
  5
19D
330
197
100
AcDbEntity
  8
DEFPOINTS
 62
     0
100
AcDbPoint
 10
8464.287022320917
 20
9399.931403246105
 30
0.0
  0
POINT
  5
19E
330
197
100
AcDbEntity
  8
DEFPOINTS
 62
     0
100
AcDbPoint
 10
8464.287022320917
 20
8539.931403246106
 30
0.0
  0
POINT
  5
19F
330
197
100
AcDbEntity
  8
DEFPOINTS
 62
     0
100
AcDbPoint
 10
8181.610865064216
 20
8539.931403246106
 30
0.0
  0
ENDBLK
  5
1A0
330
197
100
AcDbEntity
  8
0
100
AcDbBlockEnd
  0
BLOCK
  5
1A3
330
1A2
100
AcDbEntity
  8
0
100
AcDbBlockBegin
  2
*D16
 70
     1
 10
0.0
 20
0.0
 30
0.0
  3
*D16
  1

  0
LINE
  5
1A4
330
1A2
100
AcDbEntity
  8
0Hatch
 62
     1
370
    -2
100
AcDbLine
 10
8181.610865064216
 20
8569.931403246105
 30
0.0
 11
8181.610865064216
 21
8599.931403246104
 31
0.0
  0
LINE
  5
1A5
330
1A2
100
AcDbEntity
  8
0Hatch
 62
     1
370
    -2
100
AcDbLine
 10
8181.610865064216
 20
8389.931403246105
 30
0.0
 11
8181.610865064216
 21
8359.931403246104
 31
0.0
  0
LINE
  5
1A6
330
1A2
100
AcDbEntity
  8
0Hatch
 62
     1
370
    -2
100
AcDbLine
 10
8181.610865064216
 20
8539.931403246106
 30
0.0
 11
8181.610865064216
 21
8419.931403246105
 31
0.0
  0
INSERT
  5
1A7
330
1A2
100
AcDbEntity
  8
0Hatch
 62
     1
370
    -2
100
AcDbBlockReference
  2
B-DIM
 10
8181.610865064216
 20
8539.931403246106
 30
0.0
 41
30.0
 42
30.0
 43
30.0
 50
270.0
  0
INSERT
  5
1A8
330
1A2
100
AcDbEntity
  8
0Hatch
 62
     1
370
    -2
100
AcDbBlockReference
  2
B-DIM
 10
8181.610865064216
 20
8419.931403246105
 30
0.0
 41
30.0
 42
30.0
 43
30.0
 50
90.0
  0
MTEXT
  5
1A9
330
1A2
100
AcDbEntity
  8
0Hatch
 62
   140
100
AcDbMText
 10
8101.610865064214
 20
8479.931403246107
 30
0.0
 40
80.0
 41
0.0
 71
     5
 72
     1
  1
\A1;120
  7
ROMANS
 11
0.0000000000000001
 21
1.0
 31
0.0
 73
     1
 44
1.0
1001
ACAD
1000
MTEXTBEGIN
1070
    73
1070
     1
1070
    44
1040
1.0
1070
    74
1070
     0
1000
MTEXTEND
  0
POINT
  5
1AA
330
1A2
100
AcDbEntity
  8
DEFPOINTS
 62
     0
100
AcDbPoint
 10
8464.287022320917
 20
8539.931403246106
 30
0.0
  0
POINT
  5
1AB
330
1A2
100
AcDbEntity
  8
DEFPOINTS
 62
     0
100
AcDbPoint
 10
9544.287022320917
 20
8419.931403246105
 30
0.0
  0
POINT
  5
1AC
330
1A2
100
AcDbEntity
  8
DEFPOINTS
 62
     0
100
AcDbPoint
 10
8181.610865064216
 20
8419.931403246105
 30
0.0
  0
ENDBLK
  5
1AD
330
1A2
100
AcDbEntity
  8
0
100
AcDbBlockEnd
  0
BLOCK
  5
1B0
330
1AF
100
AcDbEntity
  8
0
100
AcDbBlockBegin
  2
*D17
 70
     1
 10
0.0
 20
0.0
 30
0.0
  3
*D17
  1

  0
LINE
  5
1B1
330
1AF
100
AcDbEntity
  8
0Hatch
 62
     1
370
    -2
100
AcDbLine
 10
7978.034923796823
 20
8449.931403246104
 30
0.0
 11
7978.034923796823
 21
9489.931403246105
 31
0.0
  0
INSERT
  5
1B2
330
1AF
100
AcDbEntity
  8
0Hatch
 62
     1
370
    -2
100
AcDbBlockReference
  2
B-DIM
 10
7978.034923796823
 20
8419.931403246105
 30
0.0
 41
30.0
 42
30.0
 43
30.0
 50
270.0
  0
INSERT
  5
1B3
330
1AF
100
AcDbEntity
  8
0Hatch
 62
     1
370
    -2
100
AcDbBlockReference
  2
B-DIM
 10
7978.034923796823
 20
9519.931403246104
 30
0.0
 41
30.0
 42
30.0
 43
30.0
 50
90.0
  0
MTEXT
  5
1B4
330
1AF
100
AcDbEntity
  8
0Hatch
 62
   140
100
AcDbMText
 10
7898.034923796821
 20
8969.931403246105
 30
0.0
 40
80.0
 41
0.0
 71
     5
 72
     1
  1
\A1;1100
  7
ROMANS
 11
0.0000000000000001
 21
1.0
 31
0.0
 73
     1
 44
1.0
1001
ACAD
1000
MTEXTBEGIN
1070
    73
1070
     1
1070
    44
1040
1.0
1070
    74
1070
     0
1000
MTEXTEND
  0
POINT
  5
1B5
330
1AF
100
AcDbEntity
  8
DEFPOINTS
 62
     0
100
AcDbPoint
 10
9544.287022320917
 20
8419.931403246105
 30
0.0
  0
POINT
  5
1B6
330
1AF
100
AcDbEntity
  8
DEFPOINTS
 62
     0
100
AcDbPoint
 10
9163.287022320918
 20
9519.931403246104
 30
0.0
  0
POINT
  5
1B7
330
1AF
100
AcDbEntity
  8
DEFPOINTS
 62
     0
100
AcDbPoint
 10
7978.034923796823
 20
9519.931403246104
 30
0.0
  0
ENDBLK
  5
1B8
330
1AF
100
AcDbEntity
  8
0
100
AcDbBlockEnd
  0
ENDSEC
  0
SECTION
  2
ENTITIES
  0
TEXT
  5
13
330
2
100
AcDbEntity
  8
NAPISY
370
     5
100
AcDbText
 10
3521.440788991659
 20
1499.849014237098
 30
0.0
 40
100.0
  1
   O B R Y S   B U D Y N K U           S K A L A   1 : 5 0 0 
  7
AVA
100
AcDbText
  0
LINE
  5
18
330
2
100
AcDbEntity
  8
NAPISY
  6
HIDDEN
 62
     1
 48
8.0
370
     5
100
AcDbLine
 10
7274.778032594387
 20
5474.37848095629
 30
0.0
 11
7274.778032594387
 21
11649.89704136086
 31
0.0
  0
TEXT
  5
1A
330
2
100
AcDbEntity
  8
NAPISY
370
     5
100
AcDbText
 10
7215.256855601033
 20
5689.147684215085
 30
0.0
 40
100.0
  1
OŚ ODBICIA LUSTRZANEGO
 50
90.0
  7
AVA
100
AcDbText
  0
TEXT
  5
1B
330
2
100
AcDbEntity
  8
NAPISY
370
     5
100
AcDbText
 10
3617.653840109557
 20
13963.21427511896
 30
0.0
 40
150.0
  1
MOŻNA WKLEIĆ DO PROJEKTU ZAGOSPODAROWANIA TERENU
  7
AVA
100
AcDbText
  0
TEXT
  5
1C
330
2
100
AcDbEntity
  8
NAPISY
370
     5
100
AcDbText
 10
3541.318569474414
 20
14293.08275248172
 30
0.0
 40
150.0
  1
"DOM  W  CZARNUSZCE 2 (G2)"
  7
AVA
100
AcDbText
  0
LWPOLYLINE
  5
1D
330
2
100
AcDbEntity
  8
RAMKI-A4
370
     5
100
AcDbPolyline
 90
        4
 70
     1
 43
0.0
 10
2062.088842316672
 20
834.2929313345639
 10
2062.088842316672
 20
14854.29293133456
 10
12262.0888423167
 20
14854.29293133456
 10
12262.0888423167
 20
834.2929313345639
  0
HATCH
  5
1F
330
2
100
AcDbEntity
  8
0Hatch
100
AcDbHatch
 10
0.0
 20
0.0
 30
0.0
210
0.0
220
0.0
230
1.0
  2
SOLID
 70
     1
 71
     1
 91
        1
 92
        7
 72
     0
 73
     1
 93
        4
 10
5276.272506480207
 20
8599.931403246104
 10
5276.272506480207
 20
8539.931403246106
 10
5498.269042867852
 20
8539.931403246106
 10
5498.269042867854
 20
8599.931403246104
 97
        4
330
23
330
87
330
22
330
86
 75
     0
 76
     1
 47
1.012901652602909
 98
        1
 10
5374.057236243352
 20
8574.57977506581
1001
ACAD
1010
0.0
1020
0.0
1030
0.0
  0
HATCH
  5
21
330
2
100
AcDbEntity
  8
0Hatch
100
AcDbHatch
 10
0.0
 20
0.0
 30
0.0
210
0.0
220
0.0
230
1.0
  2
SOLID
 70
     1
 71
     0
 91
        1
 92
        7
 72
     0
 73
     1
 93
       28
 10
6085.269042867854
 20
9399.931403246108
 10
5386.269042867855
 20
9399.931403246105
 10
5386.269042867855
 20
9519.931403246104
 10
4505.269042867854
 20
9519.931403246104
 10
4505.269042867854
 20
9158.931403246105
 10
4405.269042867854
 20
9158.931403246105
 10
4405.269042867854
 20
8774.931403246108
 10
4505.269042867861
 20
8774.931403246105
 10
4505.269042867854
 20
8419.931403246105
 10
5005.269042867855
 20
8419.931403246105
 10
5005.269042867855
 20
8539.931403246106
 10
5116.272506480207
 20
8539.931403246106
 10
5116.272506480207
 20
8599.931403246104
 10
4945.269042867854
 20
8599.931403246104
 10
4945.269042867854
 20
8479.931403246103
 10
4565.269042867854
 20
8479.931403246103
 10
4565.269042867861
 20
8834.9314032461
 10
4465.269042867858
 20
8834.931403246104
 10
4465.269042867855
 20
9098.931403246103
 10
4565.269042867854
 20
9098.931403246103
 10
4565.269042867854
 20
9459.931403246104
 10
5326.269042867854
 20
9459.931403246104
 10
5326.269042867854
 20
9339.931403246108
 10
6025.269042867854
 20
9339.931403246104
 10
6025.269042867854
 20
8599.931403246104
 10
5973.269042867855
 20
8599.931403246104
 10
5973.269042867855
 20
8539.931403246106
 10
6085.269042867854
 20
8539.931403246106
 97
        0
 75
     0
 76
     1
 47
1.200393444211271
 98
        1
 10
6059.567265670118
 20
8609.091811245795
1001
ACAD
1010
0.0
1020
0.0
1030
0.0
  0
LWPOLYLINE
  5
22
102
{ACAD_REACTORS
330
1F
102
}
330
2
100
AcDbEntity
  8
0Hatch
100
AcDbPolyline
 90
       12
 70
     1
 43
0.0
 10
4405.269042867854
 20
9158.931403246105
 10
4505.269042867854
 20
9158.931403246105
 10
4505.269042867854
 20
9519.931403246104
 10
5386.269042867855
 20
9519.931403246104
 10
5386.269042867855
 20
9399.931403246105
 10
6085.269042867854
 20
9399.931403246105
 10
6085.269042867854
 20
8539.931403246106
 10
5005.269042867855
 20
8539.931403246106
 10
5005.269042867855
 20
8419.931403246105
 10
4505.269042867854
 20
8419.931403246105
 10
4505.269042867861
 20
8774.931403246105
 10
4405.269042867854
 20
8774.931403246108
  0
LWPOLYLINE
  5
23
102
{ACAD_REACTORS
330
1F
102
}
330
2
100
AcDbEntity
  8
0Hatch
100
AcDbPolyline
 90
       12
 70
     1
 43
0.0
 10
4465.269042867855
 20
9098.931403246103
 10
4565.269042867854
 20
9098.931403246103
 10
4565.269042867854
 20
9459.931403246104
 10
5326.269042867854
 20
9459.931403246104
 10
5326.269042867854
 20
9339.931403246104
 10
6025.269042867854
 20
9339.931403246104
 10
6025.269042867854
 20
8599.931403246104
 10
4945.269042867854
 20
8599.931403246104
 10
4945.269042867854
 20
8479.931403246103
 10
4565.269042867854
 20
8479.931403246103
 10
4565.269042867861
 20
8834.9314032461
 10
4465.269042867858
 20
8834.931403246104
  0
LINE
  5
24
330
2
100
AcDbEntity
  8
0Hatch
100
AcDbLine
 10
4175.269042867854
 20
9158.931403246105
 30
0.0
 11
4105.269042867854
 21
9158.931403246105
 31
0.0
  0
LINE
  5
25
330
2
100
AcDbEntity
  8
0Hatch
100
AcDbLine
 10
4175.269042867854
 20
9158.931403246105
 30
0.0
 11
4175.269042867854
 21
9675.931403246105
 31
0.0
  0
LINE
  5
26
330
2
100
AcDbEntity
  8
0Hatch
100
AcDbLine
 10
4105.269042867854
 20
9158.931403246105
 30
0.0
 11
4105.269042867854
 21
9687.931403246103
 31
0.0
  0
LINE
  5
27
330
2
100
AcDbEntity
  8
0Hatch
100
AcDbLine
 10
5005.269042867855
 20
8419.931403246105
 30
0.0
 11
5386.269042867855
 21
8419.931403246105
 31
0.0
  0
LINE
  5
28
330
2
100
AcDbEntity
  8
0Hatch
100
AcDbLine
 10
5421.269042867854
 20
8219.931403246105
 30
0.0
 11
5421.269042867854
 21
8419.931403246105
 31
0.0
  0
LINE
  5
29
330
2
100
AcDbEntity
  8
0Hatch
100
AcDbLine
 10
5421.269042867854
 20
8219.931403246105
 30
0.0
 11
6085.269042867854
 21
8219.931403246105
 31
0.0
  0
LINE
  5
2A
330
2
100
AcDbEntity
  8
0Hatch
100
AcDbLine
 10
6085.269042867854
 20
8219.931403246105
 30
0.0
 11
6085.269042867854
 21
8539.931403246106
 31
0.0
  0
LINE
  5
2B
330
2
100
AcDbEntity
  8
0Hatch
100
AcDbLine
 10
5351.269042867855
 20
8468.931403246104
 30
0.0
 11
5351.269042867855
 21
8539.931403246106
 31
0.0
  0
LINE
  5
2C
330
2
100
AcDbEntity
  8
0Hatch
100
AcDbLine
 10
5005.269042867855
 20
8384.931403246104
 30
0.0
 11
5386.269042867855
 21
8384.931403246104
 31
0.0
  0
LINE
  5
2D
330
2
100
AcDbEntity
  8
0Hatch
100
AcDbLine
 10
5386.269042867855
 20
8384.931403246104
 30
0.0
 11
5386.269042867855
 21
8539.931403246106
 31
0.0
  0
LINE
  5
2E
330
2
100
AcDbEntity
  8
0Hatch
100
AcDbLine
 10
5005.269042867855
 20
8539.931403246106
 30
0.0
 11
5005.269042867855
 21
8349.931403246104
 31
0.0
  0
LINE
  5
2F
330
2
100
AcDbEntity
  8
0Hatch
100
AcDbLine
 10
5005.269042867855
 20
8349.931403246104
 30
0.0
 11
5421.269042867854
 21
8349.931403246104
 31
0.0
  0
LINE
  5
30
330
2
100
AcDbEntity
  8
0Hatch
100
AcDbLine
 10
5421.269042867854
 20
8419.931403246105
 30
0.0
 11
6085.269042867854
 21
8419.931403246105
 31
0.0
  0
LINE
  5
31
330
2
100
AcDbEntity
  8
0Hatch
100
AcDbLine
 10
5092.269042867854
 20
9519.931403246104
 30
-17.0
 11
5092.269042867854
 21
9919.931403246105
 31
-17.0
  0
LINE
  5
32
330
2
100
AcDbEntity
  8
0Hatch
100
AcDbLine
 10
5063.369042867856
 20
9859.931403246106
 30
0.0
 11
5063.369042867856
 21
9889.931403246105
 31
0.0
  0
LINE
  5
33
330
2
100
AcDbEntity
  8
0Hatch
100
AcDbLine
 10
5041.469042867859
 20
9859.931403246106
 30
0.0
 11
5041.469042867859
 21
9919.931403246105
 31
0.0
  0
LINE
  5
34
330
2
100
AcDbEntity
  8
0Hatch
100
AcDbLine
 10
5019.56904286786
 20
9859.931403246106
 30
0.0
 11
5019.56904286786
 21
9889.931403246105
 31
0.0
  0
LINE
  5
35
330
2
100
AcDbEntity
  8
0Hatch
100
AcDbLine
 10
4997.669042867863
 20
9859.931403246106
 30
0.0
 11
4997.669042867863
 21
9919.931403246105
 31
0.0
  0
LINE
  5
36
330
2
100
AcDbEntity
  8
0Hatch
100
AcDbLine
 10
4975.769042867865
 20
9859.931403246106
 30
0.0
 11
4975.769042867865
 21
9889.931403246105
 31
0.0
  0
LINE
  5
37
330
2
100
AcDbEntity
  8
0Hatch
100
AcDbLine
 10
4953.869042867868
 20
9859.931403246106
 30
0.0
 11
4953.869042867868
 21
9919.931403246105
 31
0.0
  0
LINE
  5
38
330
2
100
AcDbEntity
  8
0Hatch
100
AcDbLine
 10
4931.969042867869
 20
9859.931403246106
 30
0.0
 11
4931.969042867869
 21
9889.931403246105
 31
0.0
  0
LINE
  5
39
330
2
100
AcDbEntity
  8
0Hatch
100
AcDbLine
 10
4910.069042867871
 20
9859.931403246106
 30
0.0
 11
4910.069042867871
 21
9919.931403246105
 31
0.0
  0
LINE
  5
3A
330
2
100
AcDbEntity
  8
0Hatch
100
AcDbLine
 10
4888.169042867874
 20
9859.931403246106
 30
0.0
 11
4888.169042867874
 21
9889.931403246105
 31
0.0
  0
LINE
  5
3B
330
2
100
AcDbEntity
  8
0Hatch
100
AcDbLine
 10
4866.269042867877
 20
9859.931403246106
 30
0.0
 11
4866.269042867877
 21
9919.931403246105
 31
0.0
  0
LINE
  5
3C
330
2
100
AcDbEntity
  8
0Hatch
100
AcDbLine
 10
4470.269042867854
 20
9919.931403246105
 30
0.0
 11
4470.269042867854
 21
9687.931403246103
 31
0.0
  0
LINE
  5
3D
330
2
100
AcDbEntity
  8
0Hatch
100
AcDbLine
 10
4105.269042867854
 20
9675.931403246108
 30
-17.0
 11
4540.269042867854
 21
9675.931403246105
 31
-17.0
  0
LINE
  5
3E
330
2
100
AcDbEntity
  8
0Hatch
100
AcDbLine
 10
4105.269042867854
 20
9664.231403246047
 30
0.0
 11
4175.269042867854
 21
9664.231403246047
 31
0.0
  0
LINE
  5
3F
330
2
100
AcDbEntity
  8
0Hatch
100
AcDbLine
 10
4140.269042867855
 20
9640.531403245987
 30
0.0
 11
4175.269042867854
 21
9640.531403245987
 31
0.0
  0
LINE
  5
40
330
2
100
AcDbEntity
  8
0Hatch
100
AcDbLine
 10
4105.269042867854
 20
9616.831403245928
 30
0.0
 11
4175.269042867854
 21
9616.831403245928
 31
0.0
  0
LINE
  5
41
330
2
100
AcDbEntity
  8
0Hatch
100
AcDbLine
 10
4140.269042867855
 20
9593.131403245868
 30
0.0
 11
4175.269042867854
 21
9593.131403245868
 31
0.0
  0
LINE
  5
42
330
2
100
AcDbEntity
  8
0Hatch
100
AcDbLine
 10
4105.269042867854
 20
9569.431403245809
 30
0.0
 11
4175.269042867854
 21
9569.431403245809
 31
0.0
  0
LINE
  5
43
330
2
100
AcDbEntity
  8
0Hatch
100
AcDbLine
 10
4175.269042867854
 20
9158.931403246105
 30
0.0
 11
4105.269042867854
 21
9158.931403246105
 31
0.0
  0
LINE
  5
44
330
2
100
AcDbEntity
  8
0Hatch
100
AcDbLine
 10
4105.269042867854
 20
9158.931403246105
 30
0.0
 11
4105.269042867854
 21
8704.931403246108
 31
0.0
  0
LINE
  5
45
330
2
100
AcDbEntity
  8
0Hatch
100
AcDbLine
 10
4105.269042867854
 20
8704.931403246108
 30
-47.0
 11
4505.269042867854
 21
8704.931403246105
 31
-47.0
  0
LINE
  5
46
330
2
100
AcDbEntity
  8
0Hatch
100
AcDbLine
 10
4505.269042867854
 20
9859.931403246106
 30
0.0
 11
4505.269042867854
 21
9715.931403246104
 31
0.0
  0
LINE
  5
47
330
2
100
AcDbEntity
  8
0Hatch
100
AcDbLine
 10
4140.269042867855
 20
9158.931403246105
 30
0.0
 11
4140.269042867855
 21
8739.931403246108
 31
0.0
  0
LINE
  5
48
330
2
100
AcDbEntity
  8
0Hatch
100
AcDbLine
 10
4140.269042867855
 20
8739.931403246108
 30
-47.0
 11
4405.269042867854
 21
8739.931403246108
 31
-47.0
  0
LINE
  5
49
330
2
100
AcDbEntity
  8
0Hatch
100
AcDbLine
 10
5057.269042867854
 20
9699.931403246104
 30
-17.0
 11
5057.269042867854
 21
9859.931403246106
 31
-17.0
  0
LINE
  5
4A
330
2
100
AcDbEntity
  8
0Hatch
100
AcDbLine
 10
5022.269042867854
 20
9699.931403246104
 30
-16.99999999999727
 11
5092.269042867854
 21
9699.931403246104
 31
-16.99999999999727
  0
LINE
  5
4B
330
2
100
AcDbEntity
  8
0Hatch
100
AcDbLine
 10
5022.269042867854
 20
9678.031403246107
 30
-16.99999999999727
 11
5092.269042867854
 21
9678.031403246107
 31
-16.99999999999727
  0
LINE
  5
4C
330
2
100
AcDbEntity
  8
0Hatch
100
AcDbLine
 10
5022.269042867854
 20
9656.131403246108
 30
-16.99999999999727
 11
5057.269042867854
 21
9656.131403246108
 31
-16.99999999999727
  0
LINE
  5
4D
330
2
100
AcDbEntity
  8
0Hatch
100
AcDbLine
 10
5022.269042867854
 20
9634.231403246111
 30
-16.99999999999727
 11
5092.269042867854
 21
9634.231403246111
 31
-16.99999999999727
  0
LINE
  5
4E
330
2
100
AcDbEntity
  8
0Hatch
100
AcDbLine
 10
5022.269042867854
 20
9612.331403246114
 30
-16.99999999999727
 11
5057.269042867854
 21
9612.331403246114
 31
-16.99999999999727
  0
LINE
  5
4F
330
2
100
AcDbEntity
  8
0Hatch
100
AcDbLine
 10
5022.269042867854
 20
9590.431403246116
 30
-16.99999999999727
 11
5092.269042867854
 21
9590.431403246116
 31
-16.99999999999727
  0
LINE
  5
50
330
2
100
AcDbEntity
  8
0Hatch
100
AcDbLine
 10
5022.269042867854
 20
9568.531403246117
 30
-16.99999999999727
 11
5057.269042867854
 21
9568.531403246117
 31
-16.99999999999727
  0
LINE
  5
51
330
2
100
AcDbEntity
  8
0Hatch
100
AcDbLine
 10
5022.269042867854
 20
9546.63140324612
 30
-16.99999999999727
 11
5092.269042867854
 21
9546.63140324612
 31
-16.99999999999727
  0
LINE
  5
52
330
2
100
AcDbEntity
  8
0Hatch
100
AcDbLine
 10
5022.269042867858
 20
9699.931403246104
 30
-17.00000000000091
 11
5022.269042867858
 21
9859.931403246106
 31
-17.00000000000091
  0
LINE
  5
53
330
2
100
AcDbEntity
  8
0Hatch
100
AcDbLine
 10
4540.269042867854
 20
9859.931403246106
 30
0.0
 11
4540.269042867854
 21
9687.931403246103
 31
0.0
  0
LINE
  5
54
330
2
100
AcDbEntity
  8
0Hatch
100
AcDbLine
 10
4175.269042867854
 20
8774.931403246108
 30
0.0
 11
4175.269042867854
 21
9687.931403246103
 31
0.0
  0
LINE
  5
55
330
2
100
AcDbEntity
  8
0Hatch
100
AcDbLine
 10
4175.269042867854
 20
8774.931403246108
 30
-47.0
 11
4505.269042867857
 21
8774.931403246108
 31
-47.0
  0
LINE
  5
56
330
2
100
AcDbEntity
  8
0Hatch
100
AcDbLine
 10
4110.269042867854
 20
9163.931403246104
 30
0.0
 11
4170.269042867854
 21
9163.931403246104
 31
0.0
  0
LINE
  5
57
330
2
100
AcDbEntity
  8
0Hatch
100
AcDbLine
 10
4170.269042867854
 20
9163.931403246104
 30
0.0
 11
4170.269042867854
 21
9183.931403246104
 31
0.0
  0
LINE
  5
58
330
2
100
AcDbEntity
  8
0Hatch
100
AcDbLine
 10
4170.269042867854
 20
9183.931403246104
 30
0.0
 11
4110.269042867854
 21
9183.931403246104
 31
0.0
  0
LINE
  5
59
330
2
100
AcDbEntity
  8
0Hatch
100
AcDbLine
 10
4110.269042867854
 20
9183.931403246104
 30
0.0
 11
4110.269042867854
 21
9163.931403246104
 31
0.0
  0
LINE
  5
5A
330
2
100
AcDbEntity
  8
0Hatch
100
AcDbLine
 10
5022.269042867854
 20
9519.931403246104
 30
-17.0
 11
5022.269042867854
 21
9773.931403246113
 31
-17.0
  0
LINE
  5
5B
330
2
100
AcDbEntity
  8
0Hatch
100
AcDbLine
 10
5085.269042867854
 20
9919.931403246105
 30
0.0
 11
4470.269042867854
 21
9919.931403246105
 31
0.0
  0
LINE
  5
5C
330
2
100
AcDbEntity
  8
0Hatch
100
AcDbLine
 10
5085.269042867854
 20
9859.931403246106
 30
0.0
 11
4470.269042867854
 21
9859.931403246106
 31
0.0
  0
LINE
  5
5D
330
2
100
AcDbEntity
  8
0Hatch
100
AcDbLine
 10
4778.669042867885
 20
9859.931403246106
 30
0.0
 11
4778.669042867885
 21
9919.931403246105
 31
0.0
  0
LINE
  5
5E
330
2
100
AcDbEntity
  8
0Hatch
100
AcDbLine
 10
4800.569042867882
 20
9859.931403246106
 30
0.0
 11
4800.569042867882
 21
9889.931403246105
 31
0.0
  0
LINE
  5
5F
330
2
100
AcDbEntity
  8
0Hatch
100
AcDbLine
 10
4822.46904286788
 20
9859.931403246106
 30
0.0
 11
4822.46904286788
 21
9919.931403246105
 31
0.0
  0
LINE
  5
60
330
2
100
AcDbEntity
  8
0Hatch
100
AcDbLine
 10
4844.369042867878
 20
9859.931403246106
 30
0.0
 11
4844.369042867878
 21
9889.931403246105
 31
0.0
  0
LINE
  5
61
330
2
100
AcDbEntity
  8
0Hatch
100
AcDbLine
 10
4647.269042867898
 20
9859.931403246106
 30
0.0
 11
4647.269042867898
 21
9919.931403246105
 31
0.0
  0
LINE
  5
62
330
2
100
AcDbEntity
  8
0Hatch
100
AcDbLine
 10
4669.169042867896
 20
9859.931403246106
 30
0.0
 11
4669.169042867896
 21
9889.931403246105
 31
0.0
  0
LINE
  5
63
330
2
100
AcDbEntity
  8
0Hatch
100
AcDbLine
 10
4691.069042867893
 20
9859.931403246106
 30
0.0
 11
4691.069042867893
 21
9919.931403246105
 31
0.0
  0
LINE
  5
64
330
2
100
AcDbEntity
  8
0Hatch
100
AcDbLine
 10
4756.769042867887
 20
9859.931403246106
 30
0.0
 11
4756.769042867887
 21
9889.931403246105
 31
0.0
  0
LINE
  5
65
330
2
100
AcDbEntity
  8
0Hatch
100
AcDbLine
 10
4734.869042867889
 20
9859.931403246106
 30
0.0
 11
4734.869042867889
 21
9919.931403246105
 31
0.0
  0
LINE
  5
66
330
2
100
AcDbEntity
  8
0Hatch
100
AcDbLine
 10
4712.969042867891
 20
9859.931403246106
 30
0.0
 11
4712.969042867891
 21
9889.931403246105
 31
0.0
  0
LINE
  5
67
330
2
100
AcDbEntity
  8
0Hatch
100
AcDbLine
 10
4515.869042867911
 20
9859.931403246106
 30
0.0
 11
4515.869042867911
 21
9919.931403246105
 31
0.0
  0
LINE
  5
68
330
2
100
AcDbEntity
  8
0Hatch
100
AcDbLine
 10
4493.969042867913
 20
9859.931403246106
 30
0.0
 11
4493.969042867913
 21
9889.931403246105
 31
0.0
  0
LINE
  5
69
330
2
100
AcDbEntity
  8
0Hatch
100
AcDbLine
 10
4625.3690428679
 20
9859.931403246106
 30
0.0
 11
4625.3690428679
 21
9889.931403246105
 31
0.0
  0
LINE
  5
6A
330
2
100
AcDbEntity
  8
0Hatch
100
AcDbLine
 10
4603.469042867902
 20
9859.931403246106
 30
0.0
 11
4603.469042867902
 21
9919.931403246105
 31
0.0
  0
LINE
  5
6B
330
2
100
AcDbEntity
  8
0Hatch
100
AcDbLine
 10
4537.769042867909
 20
9859.931403246106
 30
0.0
 11
4537.769042867909
 21
9889.931403246105
 31
0.0
  0
LINE
  5
6C
330
2
100
AcDbEntity
  8
0Hatch
100
AcDbLine
 10
4559.669042867906
 20
9859.931403246106
 30
0.0
 11
4559.669042867906
 21
9919.931403246105
 31
0.0
  0
LINE
  5
6D
330
2
100
AcDbEntity
  8
0Hatch
100
AcDbLine
 10
4581.569042867904
 20
9859.931403246106
 30
0.0
 11
4581.569042867904
 21
9889.931403246105
 31
0.0
  0
LINE
  5
6E
330
2
100
AcDbEntity
  8
0Hatch
100
AcDbLine
 10
4105.269042867854
 20
9474.631403245574
 30
0.0
 11
4175.269042867854
 21
9474.631403245574
 31
0.0
  0
LINE
  5
6F
330
2
100
AcDbEntity
  8
0Hatch
100
AcDbLine
 10
4140.269042867855
 20
9498.331403245634
 30
0.0
 11
4175.269042867854
 21
9498.331403245634
 31
0.0
  0
LINE
  5
70
330
2
100
AcDbEntity
  8
0Hatch
100
AcDbLine
 10
4105.269042867854
 20
9522.031403245692
 30
0.0
 11
4175.269042867854
 21
9522.031403245692
 31
0.0
  0
LINE
  5
71
330
2
100
AcDbEntity
  8
0Hatch
100
AcDbLine
 10
4140.269042867855
 20
9545.731403245751
 30
0.0
 11
4175.269042867854
 21
9545.731403245751
 31
0.0
  0
LINE
  5
72
330
2
100
AcDbEntity
  8
0Hatch
100
AcDbLine
 10
4105.269042867854
 20
9285.031403245103
 30
0.0
 11
4175.269042867854
 21
9285.031403245103
 31
0.0
  0
LINE
  5
73
330
2
100
AcDbEntity
  8
0Hatch
100
AcDbLine
 10
4140.269042867855
 20
9308.731403245161
 30
0.0
 11
4175.269042867854
 21
9308.731403245161
 31
0.0
  0
LINE
  5
74
330
2
100
AcDbEntity
  8
0Hatch
100
AcDbLine
 10
4105.269042867854
 20
9332.431403245221
 30
0.0
 11
4175.269042867854
 21
9332.431403245221
 31
0.0
  0
LINE
  5
75
330
2
100
AcDbEntity
  8
0Hatch
100
AcDbLine
 10
4140.269042867855
 20
9356.13140324528
 30
0.0
 11
4175.269042867854
 21
9356.13140324528
 31
0.0
  0
LINE
  5
76
330
2
100
AcDbEntity
  8
0Hatch
100
AcDbLine
 10
4105.269042867854
 20
9379.831403245338
 30
0.0
 11
4175.269042867854
 21
9379.831403245338
 31
0.0
  0
LINE
  5
77
330
2
100
AcDbEntity
  8
0Hatch
100
AcDbLine
 10
4140.269042867855
 20
9450.931403245515
 30
0.0
 11
4175.269042867854
 21
9450.931403245515
 31
0.0
  0
LINE
  5
78
330
2
100
AcDbEntity
  8
0Hatch
100
AcDbLine
 10
4105.269042867854
 20
9427.231403245455
 30
0.0
 11
4175.269042867854
 21
9427.231403245455
 31
0.0
  0
LINE
  5
79
330
2
100
AcDbEntity
  8
0Hatch
100
AcDbLine
 10
4140.269042867855
 20
9403.531403245397
 30
0.0
 11
4175.269042867854
 21
9403.531403245397
 31
0.0
  0
LINE
  5
7A
330
2
100
AcDbEntity
  8
0Hatch
100
AcDbLine
 10
4140.269042867855
 20
9261.331403245042
 30
0.0
 11
4175.269042867854
 21
9261.331403245042
 31
0.0
  0
LINE
  5
7B
330
2
100
AcDbEntity
  8
0Hatch
100
AcDbLine
 10
4105.269042867854
 20
9237.631403244984
 30
0.0
 11
4175.269042867854
 21
9237.631403244984
 31
0.0
  0
LINE
  5
7C
330
2
100
AcDbEntity
  8
0Hatch
100
AcDbLine
 10
4140.269042867855
 20
9213.931403244925
 30
0.0
 11
4175.269042867854
 21
9213.931403244925
 31
0.0
  0
LINE
  5
7D
330
2
100
AcDbEntity
  8
0Hatch
100
AcDbLine
 10
4105.269042867854
 20
9190.231403244867
 30
0.0
 11
4175.269042867854
 21
9190.231403244867
 31
0.0
  0
LINE
  5
7E
330
2
100
AcDbEntity
  8
0Hatch
100
AcDbLine
 10
4470.269042867854
 20
9687.931403246103
 30
0.0
 11
4105.269042867854
 21
9687.931403246103
 31
0.0
  0
LINE
  5
7F
330
2
100
AcDbEntity
  8
0Hatch
100
AcDbLine
 10
4470.269042867854
 20
9715.931403246104
 30
0.0
 11
4540.269042867854
 21
9715.931403246104
 31
0.0
  0
LINE
  5
80
330
2
100
AcDbEntity
  8
0Hatch
100
AcDbLine
 10
4540.269042867854
 20
9715.931403246104
 30
0.0
 11
4540.269042867854
 21
9675.931403246105
 31
0.0
  0
LINE
  5
81
330
2
100
AcDbEntity
  8
0Hatch
100
AcDbLine
 10
4540.269042867854
 20
9675.931403246105
 30
0.0
 11
4470.269042867854
 21
9675.931403246105
 31
0.0
  0
LINE
  5
82
330
2
100
AcDbEntity
  8
0Hatch
100
AcDbLine
 10
4470.269042867854
 20
9675.931403246105
 30
0.0
 11
4470.269042867854
 21
9715.931403246104
 31
0.0
  0
HATCH
  5
83
330
2
100
AcDbEntity
  8
0Hatch
100
AcDbHatch
 10
0.0
 20
0.0
 30
0.0
210
0.0
220
0.0
230
1.0
  2
SOLID
 70
     1
 71
     1
 91
        1
 92
        7
 72
     0
 73
     1
 93
        4
 10
5337.269042867852
 20
8419.931403246105
 10
5386.269042867855
 20
8419.931403246106
 10
5386.269042867852
 20
8468.931403246104
 10
5337.269042867855
 20
8468.931403246104
 97
        1
330
84
 75
     0
 76
     1
 47
1.012901652602909
 98
        1
 10
5357.838529673933
 20
8442.902556694432
1001
ACAD
1010
0.0
1020
0.0
1030
0.0
  0
LWPOLYLINE
  5
84
102
{ACAD_REACTORS
330
83
102
}
330
2
100
AcDbEntity
  8
0Hatch
100
AcDbPolyline
 90
        4
 70
     1
 43
0.0
 10
5337.269042867855
 20
8468.931403246104
 10
5386.269042867855
 20
8468.931403246104
 10
5386.269042867855
 20
8419.931403246105
 10
5337.269042867855
 20
8419.931403246105
  0
LINE
  5
85
330
2
100
AcDbEntity
  8
0Hatch
100
AcDbLine
 10
5973.269042867855
 20
8599.931403246104
 30
0.0
 11
5973.269042867855
 21
8539.931403246106
 31
0.0
  0
LINE
  5
86
102
{ACAD_REACTORS
330
1F
102
}
330
2
100
AcDbEntity
  8
0Hatch
100
AcDbLine
 10
5498.269042867854
 20
8539.931403246106
 30
-47.0
 11
5498.269042867854
 21
8599.931403246104
 31
-47.0
  0
LINE
  5
87
102
{ACAD_REACTORS
330
1F
102
}
330
2
100
AcDbEntity
  8
0Hatch
100
AcDbLine
 10
5276.272506480207
 20
8599.931403246104
 30
0.0
 11
5276.272506480207
 21
8539.931403246106
 31
0.0
  0
LINE
  5
88
330
2
100
AcDbEntity
  8
0Hatch
100
AcDbLine
 10
5116.272506480207
 20
8599.931403246104
 30
0.0
 11
5116.272506480207
 21
8539.931403246106
 31
0.0
  0
DIMENSION
  5
89
330
2
100
AcDbEntity
  8
0Hatch
100
AcDbDimension
  2
*D2
 10
4505.269042867854
 20
10015.38695551141
 30
0.0
 11
4455.269042867854
 21
10095.38695551141
 31
0.0
 71
     5
 42
100.0
  3
500
100
AcDbAlignedDimension
 13
4405.269042867854
 23
9158.931403246105
 33
0.0
 14
4505.269042867854
 24
9519.931403246104
 34
0.0
100
AcDbRotatedDimension
  0
DIMENSION
  5
A1
330
2
100
AcDbEntity
  8
0Hatch
100
AcDbDimension
  2
*D3
 10
5386.269042867855
 20
10015.38695551141
 30
0.0
 11
4945.769042867855
 21
10095.38695551141
 31
0.0
 71
     5
 42
881.0
  3
500
100
AcDbAlignedDimension
 13
4505.269042867854
 23
9519.931403246104
 33
0.0
 14
5386.269042867855
 24
9519.931403246104
 34
0.0
100
AcDbRotatedDimension
  0
DIMENSION
  5
AC
330
2
100
AcDbEntity
  8
0Hatch
100
AcDbDimension
  2
*D4
 10
6085.269042867854
 20
10015.38695551141
 30
0.0
 11
5735.769042867854
 21
10095.38695551141
 31
0.0
 71
     5
 42
699.0
  3
500
100
AcDbAlignedDimension
 13
5386.269042867855
 23
9519.931403246104
 33
0.0
 14
6085.269042867854
 24
9399.931403246105
 34
0.0
100
AcDbRotatedDimension
  0
DIMENSION
  5
B7
330
2
100
AcDbEntity
  8
0Hatch
100
AcDbDimension
  2
*D5
 10
6085.269042867854
 20
10260.68659847731
 30
0.0
 11
5245.269042867854
 21
10340.68659847731
 31
0.0
 71
     5
 42
1680.0
  3
500
100
AcDbAlignedDimension
 13
4405.269042867854
 23
9158.931403246105
 33
0.0
 14
6085.269042867854
 24
9399.931403246105
 34
0.0
100
AcDbRotatedDimension
  0
DIMENSION
  5
C2
330
2
100
AcDbEntity
  8
0Hatch
100
AcDbDimension
  2
*D6
 10
6367.945200124555
 20
9399.931403246105
 30
0.0
 11
6287.945200124554
 21
9459.931403246107
 31
0.0
 71
     5
 42
120.0
  3
500
100
AcDbAlignedDimension
 13
5386.269042867855
 23
9519.931403246104
 33
0.0
 14
6085.269042867854
 24
9399.931403246105
 34
0.0
 50
90.0
100
AcDbRotatedDimension
  0
DIMENSION
  5
CF
330
2
100
AcDbEntity
  8
0Hatch
100
AcDbDimension
  2
*D7
 10
6367.945200124554
 20
8539.931403246106
 30
0.0
 11
6287.945200124553
 21
8969.931403246105
 31
0.0
 71
     5
 42
860.0
  3
500
100
AcDbAlignedDimension
 13
6085.269042867854
 23
9399.931403246105
 33
0.0
 14
6085.269042867854
 24
8539.931403246106
 34
0.0
 50
90.0
100
AcDbRotatedDimension
  0
DIMENSION
  5
DA
330
2
100
AcDbEntity
  8
0Hatch
100
AcDbDimension
  2
*D8
 10
6367.945200124554
 20
8419.931403246105
 30
0.0
 11
6287.945200124553
 21
8479.931403246107
 31
0.0
 71
     5
 42
120.0
  3
500
100
AcDbAlignedDimension
 13
6085.269042867854
 23
8539.931403246106
 33
0.0
 14
5005.269042867855
 24
8419.931403246105
 34
0.0
 50
90.0
100
AcDbRotatedDimension
  0
DIMENSION
  5
E7
330
2
100
AcDbEntity
  8
0Hatch
100
AcDbDimension
  2
*D9
 10
6571.521141391952
 20
9519.931403246104
 30
0.0
 11
6491.521141391951
 21
8969.931403246105
 31
0.0
 71
     5
 42
1100.0
  3
500
100
AcDbAlignedDimension
 13
5005.269042867855
 23
8419.931403246105
 33
0.0
 14
5386.269042867855
 24
9519.931403246104
 34
0.0
 50
90.0
100
AcDbRotatedDimension
  0
HATCH
  5
F2
330
2
100
AcDbEntity
  8
0Hatch
100
AcDbHatch
 10
0.0
 20
0.0
 30
0.0
210
0.0
220
0.0
230
1.0
  2
SOLID
 70
     1
 71
     1
 91
        1
 92
        7
 72
     0
 73
     1
 93
        4
 10
9051.287022320918
 20
8599.931403246104
 10
9051.287022320918
 20
8539.931403246106
 10
9273.283558708568
 20
8539.931403246106
 10
9273.283558708564
 20
8599.931403246104
 97
        4
330
F5
330
159
330
F4
330
158
 75
     0
 76
     1
 47
1.012901652602909
 98
        1
 10
9175.49882894542
 20
8574.57977506581
1001
ACAD
1010
0.0
1020
0.0
1030
0.0
  0
HATCH
  5
F3
330
2
100
AcDbEntity
  8
0Hatch
100
AcDbHatch
 10
0.0
 20
0.0
 30
0.0
210
0.0
220
0.0
230
1.0
  2
SOLID
 70
     1
 71
     0
 91
        1
 92
        7
 72
     0
 73
     1
 93
       28
 10
8464.287022320917
 20
9399.931403246108
 10
9163.287022320918
 20
9399.931403246105
 10
9163.287022320918
 20
9519.931403246104
 10
10044.28702232091
 20
9519.931403246104
 10
10044.28702232091
 20
9158.931403246105
 10
10144.28702232091
 20
9158.931403246105
 10
10144.28702232091
 20
8774.931403246108
 10
10044.28702232091
 20
8774.931403246105
 10
10044.28702232091
 20
8419.931403246105
 10
9544.287022320917
 20
8419.931403246105
 10
9544.287022320917
 20
8539.931403246106
 10
9433.283558708565
 20
8539.931403246106
 10
9433.283558708565
 20
8599.931403246104
 10
9604.287022320917
 20
8599.931403246104
 10
9604.287022320917
 20
8479.931403246103
 10
9984.287022320918
 20
8479.931403246103
 10
9984.287022320911
 20
8834.9314032461
 10
10084.28702232091
 20
8834.931403246104
 10
10084.28702232091
 20
9098.931403246103
 10
9984.287022320918
 20
9098.931403246103
 10
9984.287022320918
 20
9459.931403246104
 10
9223.287022320917
 20
9459.931403246104
 10
9223.287022320917
 20
9339.931403246108
 10
8524.287022320917
 20
9339.931403246104
 10
8524.287022320917
 20
8599.931403246104
 10
8576.287022320917
 20
8599.931403246104
 10
8576.287022320917
 20
8539.931403246106
 10
8464.287022320917
 20
8539.931403246106
 97
        0
 75
     0
 76
     1
 47
1.200393444211271
 98
        1
 10
8489.988799518654
 20
8609.091811245795
1001
ACAD
1010
0.0
1020
0.0
1030
0.0
  0
LWPOLYLINE
  5
F4
102
{ACAD_REACTORS
330
F2
102
}
330
2
100
AcDbEntity
  8
0Hatch
100
AcDbPolyline
 90
       12
 70
     1
 43
0.0
 10
10144.28702232091
 20
9158.931403246105
 10
10044.28702232091
 20
9158.931403246105
 10
10044.28702232091
 20
9519.931403246104
 10
9163.287022320918
 20
9519.931403246104
 10
9163.287022320918
 20
9399.931403246105
 10
8464.287022320917
 20
9399.931403246105
 10
8464.287022320917
 20
8539.931403246106
 10
9544.287022320917
 20
8539.931403246106
 10
9544.287022320917
 20
8419.931403246105
 10
10044.28702232091
 20
8419.931403246105
 10
10044.28702232091
 20
8774.931403246105
 10
10144.28702232091
 20
8774.931403246108
  0
LWPOLYLINE
  5
F5
102
{ACAD_REACTORS
330
F2
102
}
330
2
100
AcDbEntity
  8
0Hatch
100
AcDbPolyline
 90
       12
 70
     1
 43
0.0
 10
10084.28702232091
 20
9098.931403246103
 10
9984.287022320918
 20
9098.931403246103
 10
9984.287022320918
 20
9459.931403246104
 10
9223.287022320917
 20
9459.931403246104
 10
9223.287022320917
 20
9339.931403246104
 10
8524.287022320917
 20
9339.931403246104
 10
8524.287022320917
 20
8599.931403246104
 10
9604.287022320917
 20
8599.931403246104
 10
9604.287022320917
 20
8479.931403246103
 10
9984.287022320918
 20
8479.931403246103
 10
9984.287022320911
 20
8834.9314032461
 10
10084.28702232091
 20
8834.931403246104
  0
LINE
  5
F6
330
2
100
AcDbEntity
  8
0Hatch
100
AcDbLine
 10
10374.28702232092
 20
9158.931403246105
 30
0.0
 11
10444.28702232091
 21
9158.931403246105
 31
0.0
  0
LINE
  5
F7
330
2
100
AcDbEntity
  8
0Hatch
100
AcDbLine
 10
10374.28702232092
 20
9158.931403246105
 30
0.0
 11
10374.28702232092
 21
9675.931403246105
 31
0.0
  0
LINE
  5
F8
330
2
100
AcDbEntity
  8
0Hatch
100
AcDbLine
 10
10444.28702232091
 20
9158.931403246105
 30
0.0
 11
10444.28702232091
 21
9687.931403246103
 31
0.0
  0
LINE
  5
F9
330
2
100
AcDbEntity
  8
0Hatch
100
AcDbLine
 10
9544.287022320917
 20
8419.931403246105
 30
0.0
 11
9163.287022320918
 21
8419.931403246105
 31
0.0
  0
LINE
  5
FA
330
2
100
AcDbEntity
  8
0Hatch
100
AcDbLine
 10
9128.287022320916
 20
8219.931403246105
 30
0.0
 11
9128.287022320916
 21
8419.931403246105
 31
0.0
  0
LINE
  5
FB
330
2
100
AcDbEntity
  8
0Hatch
100
AcDbLine
 10
9128.287022320916
 20
8219.931403246105
 30
0.0
 11
8464.287022320917
 21
8219.931403246105
 31
0.0
  0
LINE
  5
FC
330
2
100
AcDbEntity
  8
0Hatch
100
AcDbLine
 10
8464.287022320917
 20
8219.931403246105
 30
0.0
 11
8464.287022320917
 21
8539.931403246106
 31
0.0
  0
LINE
  5
FD
330
2
100
AcDbEntity
  8
0Hatch
100
AcDbLine
 10
9198.287022320917
 20
8468.931403246104
 30
0.0
 11
9198.287022320917
 21
8539.931403246106
 31
0.0
  0
LINE
  5
FE
330
2
100
AcDbEntity
  8
0Hatch
100
AcDbLine
 10
9544.287022320917
 20
8384.931403246104
 30
0.0
 11
9163.287022320918
 21
8384.931403246104
 31
0.0
  0
LINE
  5
FF
330
2
100
AcDbEntity
  8
0Hatch
100
AcDbLine
 10
9163.287022320918
 20
8384.931403246104
 30
0.0
 11
9163.287022320918
 21
8539.931403246106
 31
0.0
  0
LINE
  5
100
330
2
100
AcDbEntity
  8
0Hatch
100
AcDbLine
 10
9544.287022320917
 20
8539.931403246106
 30
0.0
 11
9544.287022320917
 21
8349.931403246104
 31
0.0
  0
LINE
  5
101
330
2
100
AcDbEntity
  8
0Hatch
100
AcDbLine
 10
9544.287022320917
 20
8349.931403246104
 30
0.0
 11
9128.287022320916
 21
8349.931403246104
 31
0.0
  0
LINE
  5
102
330
2
100
AcDbEntity
  8
0Hatch
100
AcDbLine
 10
9128.287022320916
 20
8419.931403246105
 30
0.0
 11
8464.287022320917
 21
8419.931403246105
 31
0.0
  0
LINE
  5
103
330
2
100
AcDbEntity
  8
0Hatch
100
AcDbLine
 10
9457.287022320917
 20
9519.931403246104
 30
-17.0
 11
9457.287022320917
 21
9919.931403246105
 31
-17.0
  0
LINE
  5
104
330
2
100
AcDbEntity
  8
0Hatch
100
AcDbLine
 10
9486.187022320915
 20
9859.931403246106
 30
0.0
 11
9486.187022320915
 21
9889.931403246105
 31
0.0
  0
LINE
  5
105
330
2
100
AcDbEntity
  8
0Hatch
100
AcDbLine
 10
9508.087022320912
 20
9859.931403246106
 30
0.0
 11
9508.087022320912
 21
9919.931403246105
 31
0.0
  0
LINE
  5
106
330
2
100
AcDbEntity
  8
0Hatch
100
AcDbLine
 10
9529.987022320911
 20
9859.931403246106
 30
0.0
 11
9529.987022320911
 21
9889.931403246105
 31
0.0
  0
LINE
  5
107
330
2
100
AcDbEntity
  8
0Hatch
100
AcDbLine
 10
9551.88702232091
 20
9859.931403246106
 30
0.0
 11
9551.88702232091
 21
9919.931403246105
 31
0.0
  0
LINE
  5
108
330
2
100
AcDbEntity
  8
0Hatch
100
AcDbLine
 10
9573.787022320907
 20
9859.931403246106
 30
0.0
 11
9573.787022320907
 21
9889.931403246105
 31
0.0
  0
LINE
  5
109
330
2
100
AcDbEntity
  8
0Hatch
100
AcDbLine
 10
9595.687022320905
 20
9859.931403246106
 30
0.0
 11
9595.687022320905
 21
9919.931403246105
 31
0.0
  0
LINE
  5
10A
330
2
100
AcDbEntity
  8
0Hatch
100
AcDbLine
 10
9617.587022320902
 20
9859.931403246106
 30
0.0
 11
9617.587022320902
 21
9889.931403246105
 31
0.0
  0
LINE
  5
10B
330
2
100
AcDbEntity
  8
0Hatch
100
AcDbLine
 10
9639.487022320899
 20
9859.931403246106
 30
0.0
 11
9639.487022320899
 21
9919.931403246105
 31
0.0
  0
LINE
  5
10C
330
2
100
AcDbEntity
  8
0Hatch
100
AcDbLine
 10
9661.387022320898
 20
9859.931403246106
 30
0.0
 11
9661.387022320898
 21
9889.931403246105
 31
0.0
  0
LINE
  5
10D
330
2
100
AcDbEntity
  8
0Hatch
100
AcDbLine
 10
9683.287022320897
 20
9859.931403246106
 30
0.0
 11
9683.287022320897
 21
9919.931403246105
 31
0.0
  0
LINE
  5
10E
330
2
100
AcDbEntity
  8
0Hatch
100
AcDbLine
 10
10079.28702232091
 20
9919.931403246105
 30
0.0
 11
10079.28702232091
 21
9687.931403246103
 31
0.0
  0
LINE
  5
10F
330
2
100
AcDbEntity
  8
0Hatch
100
AcDbLine
 10
10444.28702232091
 20
9675.931403246108
 30
-17.0
 11
10009.28702232092
 21
9675.931403246105
 31
-17.0
  0
LINE
  5
110
330
2
100
AcDbEntity
  8
0Hatch
100
AcDbLine
 10
10444.28702232091
 20
9664.231403246047
 30
0.0
 11
10374.28702232092
 21
9664.231403246047
 31
0.0
  0
LINE
  5
111
330
2
100
AcDbEntity
  8
0Hatch
100
AcDbLine
 10
10409.28702232092
 20
9640.531403245987
 30
0.0
 11
10374.28702232092
 21
9640.531403245987
 31
0.0
  0
LINE
  5
112
330
2
100
AcDbEntity
  8
0Hatch
100
AcDbLine
 10
10444.28702232091
 20
9616.831403245928
 30
0.0
 11
10374.28702232092
 21
9616.831403245928
 31
0.0
  0
LINE
  5
113
330
2
100
AcDbEntity
  8
0Hatch
100
AcDbLine
 10
10409.28702232092
 20
9593.131403245868
 30
0.0
 11
10374.28702232092
 21
9593.131403245868
 31
0.0
  0
LINE
  5
114
330
2
100
AcDbEntity
  8
0Hatch
100
AcDbLine
 10
10444.28702232091
 20
9569.431403245809
 30
0.0
 11
10374.28702232092
 21
9569.431403245809
 31
0.0
  0
LINE
  5
115
330
2
100
AcDbEntity
  8
0Hatch
100
AcDbLine
 10
10374.28702232092
 20
9158.931403246105
 30
0.0
 11
10444.28702232091
 21
9158.931403246105
 31
0.0
  0
LINE
  5
116
330
2
100
AcDbEntity
  8
0Hatch
100
AcDbLine
 10
10444.28702232091
 20
9158.931403246105
 30
0.0
 11
10444.28702232091
 21
8704.931403246108
 31
0.0
  0
LINE
  5
117
330
2
100
AcDbEntity
  8
0Hatch
100
AcDbLine
 10
10444.28702232091
 20
8704.931403246108
 30
-47.0
 11
10044.28702232091
 21
8704.931403246105
 31
-47.0
  0
LINE
  5
118
330
2
100
AcDbEntity
  8
0Hatch
100
AcDbLine
 10
10044.28702232091
 20
9859.931403246106
 30
0.0
 11
10044.28702232091
 21
9715.931403246104
 31
0.0
  0
LINE
  5
119
330
2
100
AcDbEntity
  8
0Hatch
100
AcDbLine
 10
10409.28702232092
 20
9158.931403246105
 30
0.0
 11
10409.28702232092
 21
8739.931403246108
 31
0.0
  0
LINE
  5
11A
330
2
100
AcDbEntity
  8
0Hatch
100
AcDbLine
 10
10409.28702232092
 20
8739.931403246108
 30
-47.0
 11
10144.28702232091
 21
8739.931403246108
 31
-47.0
  0
LINE
  5
11B
330
2
100
AcDbEntity
  8
0Hatch
100
AcDbLine
 10
9492.287022320917
 20
9699.931403246104
 30
-17.0
 11
9492.287022320917
 21
9859.931403246106
 31
-17.0
  0
LINE
  5
11C
330
2
100
AcDbEntity
  8
0Hatch
100
AcDbLine
 10
9527.287022320917
 20
9699.931403246104
 30
-16.99999999999727
 11
9457.287022320917
 21
9699.931403246104
 31
-16.99999999999727
  0
LINE
  5
11D
330
2
100
AcDbEntity
  8
0Hatch
100
AcDbLine
 10
9527.287022320917
 20
9678.031403246107
 30
-16.99999999999727
 11
9457.287022320917
 21
9678.031403246107
 31
-16.99999999999727
  0
LINE
  5
11E
330
2
100
AcDbEntity
  8
0Hatch
100
AcDbLine
 10
9527.287022320917
 20
9656.131403246108
 30
-16.99999999999727
 11
9492.287022320917
 21
9656.131403246108
 31
-16.99999999999727
  0
LINE
  5
11F
330
2
100
AcDbEntity
  8
0Hatch
100
AcDbLine
 10
9527.287022320917
 20
9634.231403246111
 30
-16.99999999999727
 11
9457.287022320917
 21
9634.231403246111
 31
-16.99999999999727
  0
LINE
  5
120
330
2
100
AcDbEntity
  8
0Hatch
100
AcDbLine
 10
9527.287022320917
 20
9612.331403246114
 30
-16.99999999999727
 11
9492.287022320917
 21
9612.331403246114
 31
-16.99999999999727
  0
LINE
  5
121
330
2
100
AcDbEntity
  8
0Hatch
100
AcDbLine
 10
9527.287022320917
 20
9590.431403246116
 30
-16.99999999999727
 11
9457.287022320917
 21
9590.431403246116
 31
-16.99999999999727
  0
LINE
  5
122
330
2
100
AcDbEntity
  8
0Hatch
100
AcDbLine
 10
9527.287022320917
 20
9568.531403246117
 30
-16.99999999999727
 11
9492.287022320917
 21
9568.531403246117
 31
-16.99999999999727
  0
LINE
  5
123
330
2
100
AcDbEntity
  8
0Hatch
100
AcDbLine
 10
9527.287022320917
 20
9546.63140324612
 30
-16.99999999999727
 11
9457.287022320917
 21
9546.63140324612
 31
-16.99999999999727
  0
LINE
  5
124
330
2
100
AcDbEntity
  8
0Hatch
100
AcDbLine
 10
9527.287022320914
 20
9699.931403246104
 30
-17.00000000000091
 11
9527.287022320914
 21
9859.931403246106
 31
-17.00000000000091
  0
LINE
  5
125
330
2
100
AcDbEntity
  8
0Hatch
100
AcDbLine
 10
10009.28702232092
 20
9859.931403246106
 30
0.0
 11
10009.28702232092
 21
9687.931403246103
 31
0.0
  0
LINE
  5
126
330
2
100
AcDbEntity
  8
0Hatch
100
AcDbLine
 10
10374.28702232092
 20
8774.931403246108
 30
0.0
 11
10374.28702232092
 21
9687.931403246103
 31
0.0
  0
LINE
  5
127
330
2
100
AcDbEntity
  8
0Hatch
100
AcDbLine
 10
10374.28702232092
 20
8774.931403246108
 30
-47.0
 11
10044.28702232091
 21
8774.931403246108
 31
-47.0
  0
LINE
  5
128
330
2
100
AcDbEntity
  8
0Hatch
100
AcDbLine
 10
10439.28702232091
 20
9163.931403246104
 30
0.0
 11
10379.28702232091
 21
9163.931403246104
 31
0.0
  0
LINE
  5
129
330
2
100
AcDbEntity
  8
0Hatch
100
AcDbLine
 10
10379.28702232091
 20
9163.931403246104
 30
0.0
 11
10379.28702232091
 21
9183.931403246104
 31
0.0
  0
LINE
  5
12A
330
2
100
AcDbEntity
  8
0Hatch
100
AcDbLine
 10
10379.28702232091
 20
9183.931403246104
 30
0.0
 11
10439.28702232091
 21
9183.931403246104
 31
0.0
  0
LINE
  5
12B
330
2
100
AcDbEntity
  8
0Hatch
100
AcDbLine
 10
10439.28702232091
 20
9183.931403246104
 30
0.0
 11
10439.28702232091
 21
9163.931403246104
 31
0.0
  0
LINE
  5
12C
330
2
100
AcDbEntity
  8
0Hatch
100
AcDbLine
 10
9527.287022320917
 20
9519.931403246104
 30
-17.0
 11
9527.287022320917
 21
9773.931403246113
 31
-17.0
  0
LINE
  5
12D
330
2
100
AcDbEntity
  8
0Hatch
100
AcDbLine
 10
9464.287022320917
 20
9919.931403246105
 30
0.0
 11
10079.28702232091
 21
9919.931403246105
 31
0.0
  0
LINE
  5
12E
330
2
100
AcDbEntity
  8
0Hatch
100
AcDbLine
 10
9464.287022320917
 20
9859.931403246106
 30
0.0
 11
10079.28702232091
 21
9859.931403246106
 31
0.0
  0
LINE
  5
12F
330
2
100
AcDbEntity
  8
0Hatch
100
AcDbLine
 10
9770.887022320888
 20
9859.931403246106
 30
0.0
 11
9770.887022320888
 21
9919.931403246105
 31
0.0
  0
LINE
  5
130
330
2
100
AcDbEntity
  8
0Hatch
100
AcDbLine
 10
9748.987022320889
 20
9859.931403246106
 30
0.0
 11
9748.987022320889
 21
9889.931403246105
 31
0.0
  0
LINE
  5
131
330
2
100
AcDbEntity
  8
0Hatch
100
AcDbLine
 10
9727.087022320892
 20
9859.931403246106
 30
0.0
 11
9727.087022320892
 21
9919.931403246105
 31
0.0
  0
LINE
  5
132
330
2
100
AcDbEntity
  8
0Hatch
100
AcDbLine
 10
9705.187022320894
 20
9859.931403246106
 30
0.0
 11
9705.187022320894
 21
9889.931403246105
 31
0.0
  0
LINE
  5
133
330
2
100
AcDbEntity
  8
0Hatch
100
AcDbLine
 10
9902.287022320875
 20
9859.931403246106
 30
0.0
 11
9902.287022320875
 21
9919.931403246105
 31
0.0
  0
LINE
  5
134
330
2
100
AcDbEntity
  8
0Hatch
100
AcDbLine
 10
9880.387022320876
 20
9859.931403246106
 30
0.0
 11
9880.387022320876
 21
9889.931403246105
 31
0.0
  0
LINE
  5
135
330
2
100
AcDbEntity
  8
0Hatch
100
AcDbLine
 10
9858.487022320879
 20
9859.931403246106
 30
0.0
 11
9858.487022320879
 21
9919.931403246105
 31
0.0
  0
LINE
  5
136
330
2
100
AcDbEntity
  8
0Hatch
100
AcDbLine
 10
9792.787022320887
 20
9859.931403246106
 30
0.0
 11
9792.787022320887
 21
9889.931403246105
 31
0.0
  0
LINE
  5
137
330
2
100
AcDbEntity
  8
0Hatch
100
AcDbLine
 10
9814.687022320882
 20
9859.931403246106
 30
0.0
 11
9814.687022320882
 21
9919.931403246105
 31
0.0
  0
LINE
  5
138
330
2
100
AcDbEntity
  8
0Hatch
100
AcDbLine
 10
9836.58702232088
 20
9859.931403246106
 30
0.0
 11
9836.58702232088
 21
9889.931403246105
 31
0.0
  0
LINE
  5
139
330
2
100
AcDbEntity
  8
0Hatch
100
AcDbLine
 10
10033.68702232086
 20
9859.931403246106
 30
0.0
 11
10033.68702232086
 21
9919.931403246105
 31
0.0
  0
LINE
  5
13A
330
2
100
AcDbEntity
  8
0Hatch
100
AcDbLine
 10
10055.58702232086
 20
9859.931403246106
 30
0.0
 11
10055.58702232086
 21
9889.931403246105
 31
0.0
  0
LINE
  5
13B
330
2
100
AcDbEntity
  8
0Hatch
100
AcDbLine
 10
9924.187022320872
 20
9859.931403246106
 30
0.0
 11
9924.187022320872
 21
9889.931403246105
 31
0.0
  0
LINE
  5
13C
330
2
100
AcDbEntity
  8
0Hatch
100
AcDbLine
 10
9946.08702232087
 20
9859.931403246106
 30
0.0
 11
9946.08702232087
 21
9919.931403246105
 31
0.0
  0
LINE
  5
13D
330
2
100
AcDbEntity
  8
0Hatch
100
AcDbLine
 10
10011.78702232086
 20
9859.931403246106
 30
0.0
 11
10011.78702232086
 21
9889.931403246105
 31
0.0
  0
LINE
  5
13E
330
2
100
AcDbEntity
  8
0Hatch
100
AcDbLine
 10
9989.887022320864
 20
9859.931403246106
 30
0.0
 11
9989.887022320864
 21
9919.931403246105
 31
0.0
  0
LINE
  5
13F
330
2
100
AcDbEntity
  8
0Hatch
100
AcDbLine
 10
9967.987022320869
 20
9859.931403246106
 30
0.0
 11
9967.987022320869
 21
9889.931403246105
 31
0.0
  0
LINE
  5
140
330
2
100
AcDbEntity
  8
0Hatch
100
AcDbLine
 10
10444.28702232091
 20
9474.631403245574
 30
0.0
 11
10374.28702232092
 21
9474.631403245574
 31
0.0
  0
LINE
  5
141
330
2
100
AcDbEntity
  8
0Hatch
100
AcDbLine
 10
10409.28702232092
 20
9498.331403245634
 30
0.0
 11
10374.28702232092
 21
9498.331403245634
 31
0.0
  0
LINE
  5
142
330
2
100
AcDbEntity
  8
0Hatch
100
AcDbLine
 10
10444.28702232091
 20
9522.031403245692
 30
0.0
 11
10374.28702232092
 21
9522.031403245692
 31
0.0
  0
LINE
  5
143
330
2
100
AcDbEntity
  8
0Hatch
100
AcDbLine
 10
10409.28702232092
 20
9545.731403245751
 30
0.0
 11
10374.28702232092
 21
9545.731403245751
 31
0.0
  0
LINE
  5
144
330
2
100
AcDbEntity
  8
0Hatch
100
AcDbLine
 10
10444.28702232091
 20
9285.031403245103
 30
0.0
 11
10374.28702232092
 21
9285.031403245103
 31
0.0
  0
LINE
  5
145
330
2
100
AcDbEntity
  8
0Hatch
100
AcDbLine
 10
10409.28702232092
 20
9308.731403245161
 30
0.0
 11
10374.28702232092
 21
9308.731403245161
 31
0.0
  0
LINE
  5
146
330
2
100
AcDbEntity
  8
0Hatch
100
AcDbLine
 10
10444.28702232091
 20
9332.431403245221
 30
0.0
 11
10374.28702232092
 21
9332.431403245221
 31
0.0
  0
LINE
  5
147
330
2
100
AcDbEntity
  8
0Hatch
100
AcDbLine
 10
10409.28702232092
 20
9356.13140324528
 30
0.0
 11
10374.28702232092
 21
9356.13140324528
 31
0.0
  0
LINE
  5
148
330
2
100
AcDbEntity
  8
0Hatch
100
AcDbLine
 10
10444.28702232091
 20
9379.831403245338
 30
0.0
 11
10374.28702232092
 21
9379.831403245338
 31
0.0
  0
LINE
  5
149
330
2
100
AcDbEntity
  8
0Hatch
100
AcDbLine
 10
10409.28702232092
 20
9450.931403245515
 30
0.0
 11
10374.28702232092
 21
9450.931403245515
 31
0.0
  0
LINE
  5
14A
330
2
100
AcDbEntity
  8
0Hatch
100
AcDbLine
 10
10444.28702232091
 20
9427.231403245455
 30
0.0
 11
10374.28702232092
 21
9427.231403245455
 31
0.0
  0
LINE
  5
14B
330
2
100
AcDbEntity
  8
0Hatch
100
AcDbLine
 10
10409.28702232092
 20
9403.531403245397
 30
0.0
 11
10374.28702232092
 21
9403.531403245397
 31
0.0
  0
LINE
  5
14C
330
2
100
AcDbEntity
  8
0Hatch
100
AcDbLine
 10
10409.28702232092
 20
9261.331403245042
 30
0.0
 11
10374.28702232092
 21
9261.331403245042
 31
0.0
  0
LINE
  5
14D
330
2
100
AcDbEntity
  8
0Hatch
100
AcDbLine
 10
10444.28702232091
 20
9237.631403244984
 30
0.0
 11
10374.28702232092
 21
9237.631403244984
 31
0.0
  0
LINE
  5
14E
330
2
100
AcDbEntity
  8
0Hatch
100
AcDbLine
 10
10409.28702232092
 20
9213.931403244925
 30
0.0
 11
10374.28702232092
 21
9213.931403244925
 31
0.0
  0
LINE
  5
14F
330
2
100
AcDbEntity
  8
0Hatch
100
AcDbLine
 10
10444.28702232091
 20
9190.231403244867
 30
0.0
 11
10374.28702232092
 21
9190.231403244867
 31
0.0
  0
LINE
  5
150
330
2
100
AcDbEntity
  8
0Hatch
100
AcDbLine
 10
10079.28702232091
 20
9687.931403246103
 30
0.0
 11
10444.28702232091
 21
9687.931403246103
 31
0.0
  0
LINE
  5
151
330
2
100
AcDbEntity
  8
0Hatch
100
AcDbLine
 10
10079.28702232091
 20
9715.931403246104
 30
0.0
 11
10009.28702232092
 21
9715.931403246104
 31
0.0
  0
LINE
  5
152
330
2
100
AcDbEntity
  8
0Hatch
100
AcDbLine
 10
10009.28702232092
 20
9715.931403246104
 30
0.0
 11
10009.28702232092
 21
9675.931403246105
 31
0.0
  0
LINE
  5
153
330
2
100
AcDbEntity
  8
0Hatch
100
AcDbLine
 10
10009.28702232092
 20
9675.931403246105
 30
0.0
 11
10079.28702232091
 21
9675.931403246105
 31
0.0
  0
LINE
  5
154
330
2
100
AcDbEntity
  8
0Hatch
100
AcDbLine
 10
10079.28702232091
 20
9675.931403246105
 30
0.0
 11
10079.28702232091
 21
9715.931403246104
 31
0.0
  0
HATCH
  5
155
330
2
100
AcDbEntity
  8
0Hatch
100
AcDbHatch
 10
0.0
 20
0.0
 30
0.0
210
0.0
220
0.0
230
1.0
  2
SOLID
 70
     1
 71
     1
 91
        1
 92
        7
 72
     0
 73
     1
 93
        4
 10
9212.287022320918
 20
8468.931403246104
 10
9163.287022320918
 20
8468.931403246104
 10
9163.287022320918
 20
8419.931403246105
 10
9212.287022320918
 20
8419.931403246105
 97
        1
330
156
 75
     0
 76
     1
 47
1.012901652602909
 98
        1
 10
9191.717535514838
 20
8442.902556694432
1001
ACAD
1010
0.0
1020
0.0
1030
0.0
  0
LWPOLYLINE
  5
156
102
{ACAD_REACTORS
330
155
102
}
330
2
100
AcDbEntity
  8
0Hatch
100
AcDbPolyline
 90
        4
 70
     1
 43
0.0
 10
9212.287022320918
 20
8468.931403246104
 10
9163.287022320918
 20
8468.931403246104
 10
9163.287022320918
 20
8419.931403246105
 10
9212.287022320918
 20
8419.931403246105
  0
LINE
  5
157
330
2
100
AcDbEntity
  8
0Hatch
100
AcDbLine
 10
8576.287022320917
 20
8599.931403246104
 30
0.0
 11
8576.287022320917
 21
8539.931403246106
 31
0.0
  0
LINE
  5
158
102
{ACAD_REACTORS
330
F2
102
}
330
2
100
AcDbEntity
  8
0Hatch
100
AcDbLine
 10
9051.287022320918
 20
8539.931403246106
 30
-47.0
 11
9051.287022320918
 21
8599.931403246104
 31
-47.0
  0
LINE
  5
159
102
{ACAD_REACTORS
330
F2
102
}
330
2
100
AcDbEntity
  8
0Hatch
100
AcDbLine
 10
9273.283558708564
 20
8599.931403246104
 30
0.0
 11
9273.283558708564
 21
8539.931403246106
 31
0.0
  0
LINE
  5
15A
330
2
100
AcDbEntity
  8
0Hatch
100
AcDbLine
 10
9433.283558708565
 20
8599.931403246104
 30
0.0
 11
9433.283558708565
 21
8539.931403246106
 31
0.0
  0
DIMENSION
  5
15B
330
2
100
AcDbEntity
  8
0Hatch
100
AcDbDimension
  2
*D10
 10
10044.28702232091
 20
10015.38695551141
 30
0.0
 11
10094.28702232092
 21
10095.38695551141
 31
0.0
 71
     5
 42
100.0
  3
500
100
AcDbAlignedDimension
 13
10144.28702232091
 23
9158.931403246105
 33
0.0
 14
10044.28702232091
 24
9519.931403246104
 34
0.0
 50
180.0
100
AcDbRotatedDimension
  0
DIMENSION
  5
168
330
2
100
AcDbEntity
  8
0Hatch
100
AcDbDimension
  2
*D11
 10
9163.287022320918
 20
10015.38695551141
 30
0.0
 11
9603.787022320918
 21
10095.38695551141
 31
0.0
 71
     5
 42
881.0
  3
500
100
AcDbAlignedDimension
 13
10044.28702232091
 23
9519.931403246104
 33
0.0
 14
9163.287022320918
 24
9519.931403246104
 34
0.0
 50
180.0
100
AcDbRotatedDimension
  0
DIMENSION
  5
173
330
2
100
AcDbEntity
  8
0Hatch
100
AcDbDimension
  2
*D12
 10
8464.287022320917
 20
10015.38695551141
 30
0.0
 11
8813.787022320918
 21
10095.38695551141
 31
0.0
 71
     5
 42
699.0
  3
500
100
AcDbAlignedDimension
 13
9163.287022320918
 23
9519.931403246104
 33
0.0
 14
8464.287022320917
 24
9399.931403246105
 34
0.0
 50
180.0
100
AcDbRotatedDimension
  0
DIMENSION
  5
17E
330
2
100
AcDbEntity
  8
0Hatch
100
AcDbDimension
  2
*D13
 10
8464.287022320917
 20
10260.68659847731
 30
0.0
 11
9304.287022320918
 21
10340.68659847731
 31
0.0
 71
     5
 42
1680.0
  3
500
100
AcDbAlignedDimension
 13
10144.28702232091
 23
9158.931403246105
 33
0.0
 14
8464.287022320917
 24
9399.931403246105
 34
0.0
 50
180.0
100
AcDbRotatedDimension
  0
DIMENSION
  5
189
330
2
100
AcDbEntity
  8
0Hatch
100
AcDbDimension
  2
*D14
 10
8181.610865064216
 20
9399.931403246105
 30
0.0
 11
8101.610865064214
 21
9459.931403246107
 31
0.0
 71
     5
 42
120.0
  3
500
100
AcDbAlignedDimension
 13
9163.287022320918
 23
9519.931403246104
 33
0.0
 14
8464.287022320917
 24
9399.931403246105
 34
0.0
 50
90.0
100
AcDbRotatedDimension
  0
DIMENSION
  5
196
330
2
100
AcDbEntity
  8
0Hatch
100
AcDbDimension
  2
*D15
 10
8181.610865064216
 20
8539.931403246106
 30
0.0
 11
8101.610865064214
 21
8969.931403246105
 31
0.0
 71
     5
 42
860.0
  3
500
100
AcDbAlignedDimension
 13
8464.287022320917
 23
9399.931403246105
 33
0.0
 14
8464.287022320917
 24
8539.931403246106
 34
0.0
 50
90.0
100
AcDbRotatedDimension
  0
DIMENSION
  5
1A1
330
2
100
AcDbEntity
  8
0Hatch
100
AcDbDimension
  2
*D16
 10
8181.610865064216
 20
8419.931403246105
 30
0.0
 11
8101.610865064214
 21
8479.931403246107
 31
0.0
 71
     5
 42
120.0
  3
500
100
AcDbAlignedDimension
 13
8464.287022320917
 23
8539.931403246106
 33
0.0
 14
9544.287022320917
 24
8419.931403246105
 34
0.0
 50
90.0
100
AcDbRotatedDimension
  0
DIMENSION
  5
1AE
330
2
100
AcDbEntity
  8
0Hatch
100
AcDbDimension
  2
*D17
 10
7978.034923796823
 20
9519.931403246104
 30
0.0
 11
7898.034923796821
 21
8969.931403246105
 31
0.0
 71
     5
 42
1100.0
  3
500
100
AcDbAlignedDimension
 13
9544.287022320917
 23
8419.931403246105
 33
0.0
 14
9163.287022320918
 24
9519.931403246104
 34
0.0
 50
90.0
100
AcDbRotatedDimension
  0
ENDSEC
  0
SECTION
  2
OBJECTS
  0
DICTIONARY
  5
9
330
0
100
AcDbDictionary
281
     1
  3
ACAD_COLOR
350
1E1
  3
ACAD_GROUP
350
1DC
  3
ACAD_LAYOUT
350
1BB
  3
ACAD_MATERIAL
350
B
  3
ACAD_MLINESTYLE
350
1DD
  3
ACAD_PLOTSETTINGS
350
1DE
  3
ACAD_PLOTSTYLENAME
350
8
  3
ACAD_SCALELIST
350
1E2
  3
ACAD_TABLESTYLE
350
1E3
  3
ACAD_VISUALSTYLE
350
1D3
  3
ACDB_RECOMPOSE_DATA
350
20B
  3
AcDbVariableDictionary
350
1FB
  3
DWGPROPS
350
20C
  0
DICTIONARY
  5
1C6
330
1C5
100
AcDbDictionary
280
     1
281
     1
  3
ACAD_LAYERSTATES
360
1C7
  0
DICTIONARY
  5
6
330
5
100
AcDbDictionary
280
     1
281
     1
  0
DICTIONARY
  5
15
330
14
100
AcDbDictionary
280
     1
281
     1
  0
DICTIONARY
  5
3
330
2
100
AcDbDictionary
280
     1
281
     1
  0
DICTIONARY
  5
91
330
90
100
AcDbDictionary
280
     1
281
     1
  3
ACAD_SORTENTS
360
1FA
  0
DICTIONARY
  5
1E1
102
{ACAD_REACTORS
330
9
102
}
330
9
100
AcDbDictionary
281
     1
  0
DICTIONARY
  5
1DC
102
{ACAD_REACTORS
330
9
102
}
330
9
100
AcDbDictionary
281
     1
  0
DICTIONARY
  5
1BB
102
{ACAD_REACTORS
330
9
102
}
330
9
100
AcDbDictionary
281
     1
  3
Layout1
350
1C0
  3
Layout2
350
1C4
  3
Model
350
1BA
  0
DICTIONARY
  5
B
102
{ACAD_REACTORS
330
9
102
}
330
9
100
AcDbDictionary
281
     1
  3
ByBlock
350
1E0
  3
ByLayer
350
1DF
  3
Global
350
A
  0
DICTIONARY
  5
1DD
102
{ACAD_REACTORS
330
9
102
}
330
9
100
AcDbDictionary
281
     1
  3
Standard
350
1E4
  0
DICTIONARY
  5
1DE
102
{ACAD_REACTORS
330
9
102
}
330
9
100
AcDbDictionary
281
     1
  0
ACDBDICTIONARYWDFLT
  5
8
102
{ACAD_REACTORS
330
9
102
}
330
9
100
AcDbDictionary
281
     1
  3
Normal
350
7
100
AcDbDictionaryWithDefault
340
7
  0
DICTIONARY
  5
1E2
102
{ACAD_REACTORS
330
9
102
}
330
9
100
AcDbDictionary
281
     1
  3
A0
350
1E9
  3
A1
350
1EA
  3
A2
350
1EB
  3
A3
350
1EC
  3
A4
350
1ED
  3
A5
350
1EE
  3
A6
350
1EF
  3
A7
350
1F0
  3
A8
350
1F1
  3
A9
350
1F2
  3
B0
350
1F3
  3
B1
350
1F4
  3
B2
350
1F5
  3
B3
350
1F6
  3
B4
350
1F7
  3
B5
350
1F8
  3
B6
350
1F9
  0
DICTIONARY
  5
1E3
102
{ACAD_REACTORS
330
9
102
}
330
9
100
AcDbDictionary
281
     1
  3
Standard
350
1E5
  0
DICTIONARY
  5
1D3
102
{ACAD_REACTORS
330
9
102
}
330
9
100
AcDbDictionary
281
     1
  3
2dWireframe
350
1D2
  3
3dWireframe
350
1E8
  3
Realistic
350
1E7
  0
XRECORD
  5
20B
102
{ACAD_REACTORS
330
9
102
}
330
9
100
AcDbXrecord
280
     1
 90
        1
330
1E5
  0
DICTIONARY
  5
1FB
102
{ACAD_REACTORS
330
9
102
}
330
9
100
AcDbDictionary
281
     1
  3
CANNOSCALE
350
1FF
  3
CMLEADERSTYLE
350
1FD
  3
CTABLESTYLE
350
1FC
  3
DIMASSOC
350
206
  3
HIDETEXT
350
205
  3
INDEXCTL
350
204
  3
LAYEREVAL
350
201
  3
LAYERNOTIFY
350
202
  3
LIGHTINGUNITS
350
200
  3
MSLTSCALE
350
1FE
  3
PSOLHEIGHT
350
208
  3
PSOLWIDTH
350
207
  3
SORTENTS
350
203
  0
XRECORD
  5
20C
102
{ACAD_REACTORS
330
9
102
}
330
9
100
AcDbXrecord
280
     1
  1
DWGPROPS COOKIE
  2

  3

  4

  6

  7

  8
Autodesk
  9

300
=
301
=
302
=
303
=
304
=
305
=
306
=
307
=
308
=
309
=
 40
0.0006036689814815
 41
2455754.546519098
 42
2455754.547120405
  1

 90
        0
  0
DICTIONARY
  5
1C7
102
{ACAD_REACTORS
330
1C6
102
}
330
1C6
100
AcDbDictionary
281
     1
  0
SORTENTSTABLE
  5
1FA
102
{ACAD_REACTORS
330
91
102
}
330
91
100
AcDbSortentsTable
330
90
  0
LAYOUT
  5
1C0
102
{ACAD_XDICTIONARY
360
210
102
}
102
{ACAD_REACTORS
330
1BB
102
}
330
1BB
100
AcDbPlotSettings
  1

  2
C:\Documents and Settings\basas\Application Data\Autodesk\AutoCAD 2005\R16.1\enu\plotters\Default Windows System Printer.pc3
  4

  6

 40
0.0
 41
0.0
 42
0.0
 43
0.0
 44
0.0
 45
0.0
 46
0.0
 47
0.0
 48
0.0
 49
0.0
140
0.0
141
0.0
142
1.0
143
1.0
 70
   688
 72
     0
 73
     0
 74
     5
  7

 75
    16
147
1.0
148
0.0
149
0.0
100
AcDbLayout
  1
Layout1
 70
     1
 71
     1
 10
0.0
 20
0.0
 11
12.0
 21
9.0
 12
0.0
 22
0.0
 32
0.0
 14
0.0
 24
0.0
 34
0.0
 15
0.0
 25
0.0
 35
0.0
146
0.0
 13
0.0
 23
0.0
 33
0.0
 16
1.0
 26
0.0
 36
0.0
 17
0.0
 27
1.0
 37
0.0
 76
     0
330
1BD
  0
LAYOUT
  5
1C4
102
{ACAD_XDICTIONARY
360
212
102
}
102
{ACAD_REACTORS
330
1BB
102
}
330
1BB
100
AcDbPlotSettings
  1

  2
C:\Documents and Settings\basas\Application Data\Autodesk\AutoCAD 2005\R16.1\enu\plotters\Default Windows System Printer.pc3
  4

  6

 40
0.0
 41
0.0
 42
0.0
 43
0.0
 44
0.0
 45
0.0
 46
0.0
 47
0.0
 48
0.0
 49
0.0
140
0.0
141
0.0
142
1.0
143
1.0
 70
   688
 72
     0
 73
     0
 74
     5
  7

 75
    16
147
1.0
148
0.0
149
0.0
100
AcDbLayout
  1
Layout2
 70
     1
 71
     2
 10
0.0
 20
0.0
 11
12.0
 21
9.0
 12
0.0
 22
0.0
 32
0.0
 14
0.0
 24
0.0
 34
0.0
 15
0.0
 25
0.0
 35
0.0
146
0.0
 13
0.0
 23
0.0
 33
0.0
 16
1.0
 26
0.0
 36
0.0
 17
0.0
 27
1.0
 37
0.0
 76
     0
330
1C1
  0
LAYOUT
  5
1BA
102
{ACAD_XDICTIONARY
360
20E
102
}
102
{ACAD_REACTORS
330
1BB
102
}
330
1BB
100
AcDbPlotSettings
  1

  2
none_device
  4
ISO_A4_(210.00_x_297.00_MM)
  6

 40
7.5
 41
20.0
 42
7.5
 43
20.0
 44
210.0
 45
297.0
 46
11.54999923706054
 47
-13.65000009536743
 48
0.0
 49
0.0
140
0.0
141
0.0
142
1.0
143
8.704084754739808
 70
 11952
 72
     1
 73
     0
 74
     0
  7

 75
     0
147
0.1148885871608098
148
0.0
149
0.0
100
AcDbLayout
  1
Model
 70
     1
 71
     0
 10
0.0
 20
0.0
 11
12.0
 21
9.0
 12
0.0
 22
0.0
 32
0.0
 14
0.0
 24
0.0
 34
0.0
 15
0.0
 25
0.0
 35
0.0
146
0.0
 13
0.0
 23
0.0
 33
0.0
 16
1.0
 26
0.0
 36
0.0
 17
0.0
 27
1.0
 37
0.0
 76
     0
330
2
331
1D1
1001
ACAD_PSEXT
1000
None
1000
None
1000
Not applicable
1000
The layout will not be plotted unless a new plotter configuration name is selected.
1070
     0
  0
MATERIAL
  5
1E0
102
{ACAD_XDICTIONARY
360
216
102
}
102
{ACAD_REACTORS
330
B
102
}
330
B
100
AcDbMaterial
  1
ByBlock
  0
MATERIAL
  5
1DF
102
{ACAD_XDICTIONARY
360
214
102
}
102
{ACAD_REACTORS
330
B
102
}
330
B
100
AcDbMaterial
  1
ByLayer
  0
MATERIAL
  5
A
102
{ACAD_XDICTIONARY
360
C
102
}
102
{ACAD_REACTORS
330
B
102
}
330
B
100
AcDbMaterial
  1
Global
 43
0.0007999999797903
 43
0.0
 43
0.0
 43
0.0
 43
0.0
 43
0.0007999999797903
 43
0.0
 43
0.0
 43
0.0
 43
0.0
 43
1.0
 43
0.0
 43
0.0
 43
0.0
 43
0.0
 43
1.0
 49
0.0007999999797903
 49
0.0
 49
0.0
 49
0.0
 49
0.0
 49
0.0007999999797903
 49
0.0
 49
0.0
 49
0.0
 49
0.0
 49
1.0
 49
0.0
 49
0.0
 49
0.0
 49
0.0
 49
1.0
142
0.0007999999797903
142
0.0
142
0.0
142
0.0
142
0.0
142
0.0007999999797903
142
0.0
142
0.0
142
0.0
142
0.0
142
1.0
142
0.0
142
0.0
142
0.0
142
0.0
142
1.0
144
0.0007999999797903
144
0.0
144
0.0
144
0.0
144
0.0
144
0.0007999999797903
144
0.0
144
0.0
144
0.0
144
0.0
144
1.0
144
0.0
144
0.0
144
0.0
144
0.0
144
1.0
1001
ACAD
1070
    -1
1070
     3
1070
     0
1000

1071
        0
1070
     0
  0
MLINESTYLE
  5
1E4
102
{ACAD_REACTORS
330
1DD
102
}
330
1DD
100
AcDbMlineStyle
  2
STANDARD
 70
     0
  3

 62
   256
 51
90.0
 52
90.0
 71
     2
 49
0.5
 62
   256
  6
BYLAYER
 49
-0.5
 62
   256
  6
BYLAYER
  0
ACDBPLACEHOLDER
  5
7
102
{ACAD_REACTORS
330
8
102
}
330
8
  0
SCALE
  5
1E9
102
{ACAD_REACTORS
330
1E2
102
}
330
1E2
100
AcDbScale
 70
     0
300
1:1
140
1.0
141
1.0
290
     1
  0
SCALE
  5
1EA
102
{ACAD_REACTORS
330
1E2
102
}
330
1E2
100
AcDbScale
 70
     0
300
1:2
140
1.0
141
2.0
290
     0
  0
SCALE
  5
1EB
102
{ACAD_REACTORS
330
1E2
102
}
330
1E2
100
AcDbScale
 70
     0
300
1:4
140
1.0
141
4.0
290
     0
  0
SCALE
  5
1EC
102
{ACAD_REACTORS
330
1E2
102
}
330
1E2
100
AcDbScale
 70
     0
300
1:5
140
1.0
141
5.0
290
     0
  0
SCALE
  5
1ED
102
{ACAD_REACTORS
330
1E2
102
}
330
1E2
100
AcDbScale
 70
     0
300
1:8
140
1.0
141
8.0
290
     0
  0
SCALE
  5
1EE
102
{ACAD_REACTORS
330
1E2
102
}
330
1E2
100
AcDbScale
 70
     0
300
1:10
140
1.0
141
10.0
290
     0
  0
SCALE
  5
1EF
102
{ACAD_REACTORS
330
1E2
102
}
330
1E2
100
AcDbScale
 70
     0
300
1:16
140
1.0
141
16.0
290
     0
  0
SCALE
  5
1F0
102
{ACAD_REACTORS
330
1E2
102
}
330
1E2
100
AcDbScale
 70
     0
300
1:20
140
1.0
141
20.0
290
     0
  0
SCALE
  5
1F1
102
{ACAD_REACTORS
330
1E2
102
}
330
1E2
100
AcDbScale
 70
     0
300
1:30
140
1.0
141
30.0
290
     0
  0
SCALE
  5
1F2
102
{ACAD_REACTORS
330
1E2
102
}
330
1E2
100
AcDbScale
 70
     0
300
1:40
140
1.0
141
40.0
290
     0
  0
SCALE
  5
1F3
102
{ACAD_REACTORS
330
1E2
102
}
330
1E2
100
AcDbScale
 70
     0
300
1:50
140
1.0
141
50.0
290
     0
  0
SCALE
  5
1F4
102
{ACAD_REACTORS
330
1E2
102
}
330
1E2
100
AcDbScale
 70
     0
300
1:100
140
1.0
141
100.0
290
     0
  0
SCALE
  5
1F5
102
{ACAD_REACTORS
330
1E2
102
}
330
1E2
100
AcDbScale
 70
     0
300
2:1
140
2.0
141
1.0
290
     0
  0
SCALE
  5
1F6
102
{ACAD_REACTORS
330
1E2
102
}
330
1E2
100
AcDbScale
 70
     0
300
4:1
140
4.0
141
1.0
290
     0
  0
SCALE
  5
1F7
102
{ACAD_REACTORS
330
1E2
102
}
330
1E2
100
AcDbScale
 70
     0
300
8:1
140
8.0
141
1.0
290
     0
  0
SCALE
  5
1F8
102
{ACAD_REACTORS
330
1E2
102
}
330
1E2
100
AcDbScale
 70
     0
300
10:1
140
10.0
141
1.0
290
     0
  0
SCALE
  5
1F9
102
{ACAD_REACTORS
330
1E2
102
}
330
1E2
100
AcDbScale
 70
     0
300
100:1
140
100.0
141
1.0
290
     0
  0
TABLESTYLE
  5
1E5
102
{ACAD_XDICTIONARY
360
1E6
102
}
102
{ACAD_REACTORS
330
1E3
102
}
330
1E3
100
AcDbTableStyle
  3
Standard
 70
     0
 71
     0
 40
1.5
 41
1.5
280
     0
281
     0
  7
Standard
140
4.5
170
     2
 62
     0
 63
     7
283
     0
274
    -2
284
     1
 64
     0
275
    -2
285
     1
 65
     0
276
    -2
286
     1
 66
     0
277
    -2
287
     1
 67
     0
278
    -2
288
     1
 68
     0
279
    -2
289
     1
 69
     0
  7
Standard
140
6.0
170
     5
 62
     0
 63
     7
283
     0
274
    -2
284
     1
 64
     0
275
    -2
285
     1
 65
     0
276
    -2
286
     1
 66
     0
277
    -2
287
     1
 67
     0
278
    -2
288
     1
 68
     0
279
    -2
289
     1
 69
     0
  7
Standard
140
4.5
170
     5
 62
     0
 63
     7
283
     0
274
    -2
284
     1
 64
     0
275
    -2
285
     1
 65
     0
276
    -2
286
     1
 66
     0
277
    -2
287
     1
 67
     0
278
    -2
288
     1
 68
     0
279
    -2
289
     1
 69
     0
  0
VISUALSTYLE
  5
1D2
102
{ACAD_REACTORS
330
1D3
102
}
330
1D3
100
AcDbVisualStyle
  2
2dWireframe
 70
     4
 71
     0
 72
     2
 73
     1
 90
        0
 40
-0.6
 41
-30.0
 62
     5
 63
     7
 74
     1
 91
        4
 64
     7
 65
   257
 75
     1
175
     1
 42
1.0
 92
        0
 66
   257
 43
1.0
 76
     1
 77
     6
 78
     2
 67
     7
 79
     5
170
     0
171
     0
290
     0
174
     0
 93
        1
 44
0.0
173
     0
291
     0
 45
0.0
1001
ACAD
1000
AcDbSavedByObjectVersion
1070
     0
  0
VISUALSTYLE
  5
1E8
102
{ACAD_REACTORS
330
1D3
102
}
330
1D3
100
AcDbVisualStyle
  2
3dWireframe
 70
     5
 71
     0
 72
     2
 73
     1
 90
        0
 40
-0.6
 41
-30.0
 62
     5
 63
     7
 74
     1
 91
        4
 64
     7
 65
   257
 75
     1
175
     1
 42
1.0
 92
        0
 66
   257
 43
1.0
 76
     1
 77
     6
 78
     2
 67
     7
 79
     5
170
     0
171
     0
290
     0
174
     0
 93
        1
 44
0.0
173
     0
291
     0
 45
0.0
1001
ACAD
1000
AcDbSavedByObjectVersion
1070
     0
  0
VISUALSTYLE
  5
1E7
102
{ACAD_REACTORS
330
1D3
102
}
330
1D3
100
AcDbVisualStyle
  2
Realistic
 70
     8
 71
     2
 72
     2
 73
     1
 90
        0
 40
-0.6
 41
-30.0
 62
     5
 63
     7
 74
     1
 91
        0
 64
     7
 65
   257
 75
     1
175
     1
 42
1.0
 92
        8
 66
     8
 43
1.0
 76
     1
 77
     6
 78
     2
 67
     7
 79
     5
170
     0
171
     0
290
     0
174
     0
 93
       13
 44
0.0
173
     0
291
     0
 45
0.0
1001
ACAD
1000
AcDbSavedByObjectVersion
1070
     0
  0
DICTIONARYVAR
  5
1FF
102
{ACAD_REACTORS
330
1FB
102
}
330
1FB
100
DictionaryVariables
280
     0
  1
1:1
  0
DICTIONARYVAR
  5
1FD
102
{ACAD_REACTORS
330
1FB
102
}
330
1FB
100
DictionaryVariables
280
     0
  1
STANDARD
  0
DICTIONARYVAR
  5
1FC
102
{ACAD_REACTORS
330
1FB
102
}
330
1FB
100
DictionaryVariables
280
     0
  1
STANDARD
  0
DICTIONARYVAR
  5
206
102
{ACAD_REACTORS
330
1FB
102
}
330
1FB
100
DictionaryVariables
280
     0
  1
2
  0
DICTIONARYVAR
  5
205
102
{ACAD_REACTORS
330
1FB
102
}
330
1FB
100
DictionaryVariables
280
     0
  1
1
  0
DICTIONARYVAR
  5
204
102
{ACAD_REACTORS
330
1FB
102
}
330
1FB
100
DictionaryVariables
280
     0
  1
0
  0
DICTIONARYVAR
  5
201
102
{ACAD_REACTORS
330
1FB
102
}
330
1FB
100
DictionaryVariables
280
     0
  1
0
  0
DICTIONARYVAR
  5
202
102
{ACAD_REACTORS
330
1FB
102
}
330
1FB
100
DictionaryVariables
280
     0
  1
0
  0
DICTIONARYVAR
  5
200
102
{ACAD_REACTORS
330
1FB
102
}
330
1FB
100
DictionaryVariables
280
     0
  1
2
  0
DICTIONARYVAR
  5
1FE
102
{ACAD_REACTORS
330
1FB
102
}
330
1FB
100
DictionaryVariables
280
     0
  1
1
  0
DICTIONARYVAR
  5
208
102
{ACAD_REACTORS
330
1FB
102
}
330
1FB
100
DictionaryVariables
280
     0
  1
80.000000
  0
DICTIONARYVAR
  5
207
102
{ACAD_REACTORS
330
1FB
102
}
330
1FB
100
DictionaryVariables
280
     0
  1
5.000000
  0
DICTIONARYVAR
  5
203
102
{ACAD_REACTORS
330
1FB
102
}
330
1FB
100
DictionaryVariables
280
     0
  1
127
  0
DICTIONARY
  5
210
330
1C0
100
AcDbDictionary
280
     1
281
     1
  3
ACAD_XREC_ROUNDTRIP
360
211
  0
DICTIONARY
  5
212
330
1C4
100
AcDbDictionary
280
     1
281
     1
  3
ACAD_XREC_ROUNDTRIP
360
213
  0
DICTIONARY
  5
20E
330
1BA
100
AcDbDictionary
280
     1
281
     1
  3
ACAD_XREC_ROUNDTRIP
360
20F
  0
DICTIONARY
  5
216
330
1E0
100
AcDbDictionary
280
     1
281
     1
  3
ACAD_XREC_ROUNDTRIP
360
217
  0
DICTIONARY
  5
214
330
1DF
100
AcDbDictionary
280
     1
281
     1
  3
ACAD_XREC_ROUNDTRIP
360
215
  0
DICTIONARY
  5
C
330
A
100
AcDbDictionary
280
     1
281
     1
  3
ACAD_XREC_ROUNDTRIP
360
20D
  3
BUMPTILE
360
D
  3
DIFFUSETILE
360
E
  3
OPACITYTILE
360
F
  3
REFLECTIONTILE
360
10
  0
DICTIONARY
  5
1E6
330
1E5
100
AcDbDictionary
280
     1
281
     1
  3
ACAD_ROUNDTRIP_2008_TABLESTYLE_CELLSTYLEMAP
360
20A
  3
ACAD_XREC_ROUNDTRIP
360
218
  0
XRECORD
  5
211
102
{ACAD_REACTORS
330
210
102
}
330
210
100
AcDbXrecord
280
     1
102
SHADEPLOT
 70
     0
102
SHADEPLOTRESLEVEL
 70
     2
102
SHADEPLOTCUSTOMDPI
 70
   300
  0
XRECORD
  5
213
102
{ACAD_REACTORS
330
212
102
}
330
212
100
AcDbXrecord
280
     1
102
SHADEPLOT
 70
     0
102
SHADEPLOTRESLEVEL
 70
     2
102
SHADEPLOTCUSTOMDPI
 70
   300
  0
XRECORD
  5
20F
102
{ACAD_REACTORS
330
20E
102
}
330
20E
100
AcDbXrecord
280
     1
102
SHADEPLOT
 70
     0
102
SHADEPLOTRESLEVEL
 70
     2
102
SHADEPLOTCUSTOMDPI
 70
   300
  0
XRECORD
  5
217
102
{ACAD_REACTORS
330
216
102
}
330
216
100
AcDbXrecord
280
     1
102
MATERIAL
148
0.0
149
0.0
149
0.0
 93
        0
 94
       63
282
     0
 72
     1
 77
     1
171
     1
175
     1
179
     1
273
     0
  0
XRECORD
  5
215
102
{ACAD_REACTORS
330
214
102
}
330
214
100
AcDbXrecord
280
     1
102
MATERIAL
148
0.0
149
0.0
149
0.0
 93
        0
 94
       63
282
     0
 72
     1
 77
     1
171
     1
175
     1
179
     1
273
     0
  0
XRECORD
  5
20D
102
{ACAD_REACTORS
330
C
102
}
330
C
100
AcDbXrecord
280
     1
102
MATERIAL
148
0.0
149
0.0
149
0.0
 93
        0
 94
       63
282
     0
 72
     1
 77
     1
171
     1
175
     1
179
     1
273
     0
  0
XRECORD
  5
D
102
{ACAD_REACTORS
330
C
102
}
330
C
100
AcDbXrecord
280
     1
270
     1
271
     1
  0
XRECORD
  5
E
102
{ACAD_REACTORS
330
C
102
}
330
C
100
AcDbXrecord
280
     1
270
     1
271
     1
  0
XRECORD
  5
F
102
{ACAD_REACTORS
330
C
102
}
330
C
100
AcDbXrecord
280
     1
270
     1
271
     1
  0
XRECORD
  5
10
102
{ACAD_REACTORS
330
C
102
}
330
C
100
AcDbXrecord
280
     1
270
     1
271
     1
  0
CELLSTYLEMAP
  5
20A
102
{ACAD_REACTORS
330
1E6
102
}
330
1E6
100
AcDbCellStyleMap
 90
        3
300
CELLSTYLE
  1
TABLEFORMAT_BEGIN
 90
        5
170
     1
 91
        0
 92
    32768
 62
   257
 93
        1
300
CONTENTFORMAT
  1
CONTENTFORMAT_BEGIN
 90
        0
 91
        0
 92
      512
 93
        0
300

 40
0.0
140
1.0
 94
        5
 62
     0
340
1C9
144
6.0
309
CONTENTFORMAT_END
171
     1
301
MARGIN
  1
CELLMARGIN_BEGIN
 40
1.5
 40
1.5
 40
1.5
 40
1.5
 40
4.5
 40
4.5
309
CELLMARGIN_END
 94
        6
 95
        1
302
GRIDFORMAT
  1
GRIDFORMAT_BEGIN
 90
        0
 91
        1
 62
     0
 92
       -2
340
1CC
 93
        0
 40
1.125
309
GRIDFORMAT_END
 95
        2
302
GRIDFORMAT
  1
GRIDFORMAT_BEGIN
 90
        0
 91
        1
 62
     0
 92
       -2
340
1CC
 93
        0
 40
1.125
309
GRIDFORMAT_END
 95
        4
302
GRIDFORMAT
  1
GRIDFORMAT_BEGIN
 90
        0
 91
        1
 62
     0
 92
       -2
340
1CC
 93
        0
 40
1.125
309
GRIDFORMAT_END
 95
        8
302
GRIDFORMAT
  1
GRIDFORMAT_BEGIN
 90
        0
 91
        1
 62
     0
 92
       -2
340
1CC
 93
        0
 40
1.125
309
GRIDFORMAT_END
 95
       16
302
GRIDFORMAT
  1
GRIDFORMAT_BEGIN
 90
        0
 91
        1
 62
     0
 92
       -2
340
1CC
 93
        0
 40
1.125
309
GRIDFORMAT_END
 95
       32
302
GRIDFORMAT
  1
GRIDFORMAT_BEGIN
 90
        0
 91
        1
 62
     0
 92
       -2
340
1CC
 93
        0
 40
1.125
309
GRIDFORMAT_END
309
TABLEFORMAT_END
  1
CELLSTYLE_BEGIN
 90
        1
 91
        1
300
_TITLE
309
CELLSTYLE_END
300
CELLSTYLE
  1
TABLEFORMAT_BEGIN
 90
        5
170
     1
 91
        0
 92
        0
 62
   257
 93
        1
300
CONTENTFORMAT
  1
CONTENTFORMAT_BEGIN
 90
        0
 91
        0
 92
      512
 93
        0
300

 40
0.0
140
1.0
 94
        5
 62
     0
340
1C9
144
4.5
309
CONTENTFORMAT_END
171
     1
301
MARGIN
  1
CELLMARGIN_BEGIN
 40
1.5
 40
1.5
 40
1.5
 40
1.5
 40
4.5
 40
4.5
309
CELLMARGIN_END
 94
        6
 95
        1
302
GRIDFORMAT
  1
GRIDFORMAT_BEGIN
 90
        0
 91
        1
 62
     0
 92
       -2
340
1CC
 93
        0
 40
1.125
309
GRIDFORMAT_END
 95
        2
302
GRIDFORMAT
  1
GRIDFORMAT_BEGIN
 90
        0
 91
        1
 62
     0
 92
       -2
340
1CC
 93
        0
 40
1.125
309
GRIDFORMAT_END
 95
        4
302
GRIDFORMAT
  1
GRIDFORMAT_BEGIN
 90
        0
 91
        1
 62
     0
 92
       -2
340
1CC
 93
        0
 40
1.125
309
GRIDFORMAT_END
 95
        8
302
GRIDFORMAT
  1
GRIDFORMAT_BEGIN
 90
        0
 91
        1
 62
     0
 92
       -2
340
1CC
 93
        0
 40
1.125
309
GRIDFORMAT_END
 95
       16
302
GRIDFORMAT
  1
GRIDFORMAT_BEGIN
 90
        0
 91
        1
 62
     0
 92
       -2
340
1CC
 93
        0
 40
1.125
309
GRIDFORMAT_END
 95
       32
302
GRIDFORMAT
  1
GRIDFORMAT_BEGIN
 90
        0
 91
        1
 62
     0
 92
       -2
340
1CC
 93
        0
 40
1.125
309
GRIDFORMAT_END
309
TABLEFORMAT_END
  1
CELLSTYLE_BEGIN
 90
        2
 91
        1
300
_HEADER
309
CELLSTYLE_END
300
CELLSTYLE
  1
TABLEFORMAT_BEGIN
 90
        5
170
     1
 91
        0
 92
        0
 62
   257
 93
        1
300
CONTENTFORMAT
  1
CONTENTFORMAT_BEGIN
 90
        0
 91
        0
 92
      512
 93
        0
300

 40
0.0
140
1.0
 94
        2
 62
     0
340
1C9
144
4.5
309
CONTENTFORMAT_END
171
     1
301
MARGIN
  1
CELLMARGIN_BEGIN
 40
1.5
 40
1.5
 40
1.5
 40
1.5
 40
4.5
 40
4.5
309
CELLMARGIN_END
 94
        6
 95
        1
302
GRIDFORMAT
  1
GRIDFORMAT_BEGIN
 90
        0
 91
        1
 62
     0
 92
       -2
340
1CC
 93
        0
 40
1.125
309
GRIDFORMAT_END
 95
        2
302
GRIDFORMAT
  1
GRIDFORMAT_BEGIN
 90
        0
 91
        1
 62
     0
 92
       -2
340
1CC
 93
        0
 40
1.125
309
GRIDFORMAT_END
 95
        4
302
GRIDFORMAT
  1
GRIDFORMAT_BEGIN
 90
        0
 91
        1
 62
     0
 92
       -2
340
1CC
 93
        0
 40
1.125
309
GRIDFORMAT_END
 95
        8
302
GRIDFORMAT
  1
GRIDFORMAT_BEGIN
 90
        0
 91
        1
 62
     0
 92
       -2
340
1CC
 93
        0
 40
1.125
309
GRIDFORMAT_END
 95
       16
302
GRIDFORMAT
  1
GRIDFORMAT_BEGIN
 90
        0
 91
        1
 62
     0
 92
       -2
340
1CC
 93
        0
 40
1.125
309
GRIDFORMAT_END
 95
       32
302
GRIDFORMAT
  1
GRIDFORMAT_BEGIN
 90
        0
 91
        1
 62
     0
 92
       -2
340
1CC
 93
        0
 40
1.125
309
GRIDFORMAT_END
309
TABLEFORMAT_END
  1
CELLSTYLE_BEGIN
 90
        3
 91
        2
300
_DATA
309
CELLSTYLE_END
  0
XRECORD
  5
218
102
{ACAD_REACTORS
330
1E6
102
}
330
1E6
100
AcDbXrecord
280
     1
102
ACAD_ROUNDTRIP_PRE2007_TABLESTYLE
 90
      512
 91
        0
  1

 92
      512
 93
        0
  2

 94
      512
 95
        0
  3

  0
ENDSEC
  0
EOF
