  0
SECTION
  2
HEADER
  9
$ACADVER
  1
AC1015
  9
$ACADMAINTVER
 70
    20
  9
$DWGCODEPAGE
  3
ANSI_1250
  9
$INSBASE
 10
9677.351579171606
 20
1189.596440029025
 30
0.0000000000031697
  9
$EXTMIN
 10
-13903.20051919081
 20
-13086.30765802601
 30
-0.0015258207003583
  9
$EXTMAX
 10
88459.4803371049
 20
938.0060681916656
 30
0.0000000349246037
  9
$LIMMIN
 10
0.0
 20
0.0
  9
$LIMMAX
 10
12.0
 20
9.0
  9
$ORTHOMODE
 70
     1
  9
$REGENMODE
 70
     1
  9
$FILLMODE
 70
     1
  9
$QTEXTMODE
 70
     0
  9
$MIRRTEXT
 70
     0
  9
$LTSCALE
 40
75.0
  9
$ATTMODE
 70
     1
  9
$TEXTSIZE
 40
0.2
  9
$TRACEWID
 40
40.0
  9
$TEXTSTYLE
  7
STANDARD
  9
$CLAYER
  8
0Wymiary-PL
  9
$CELTYPE
  6
BYLAYER
  9
$CECOLOR
 62
   256
  9
$CELTSCALE
 40
4.0
  9
$DISPSILH
 70
     0
  9
$DIMSCALE
 40
1.0
  9
$DIMASZ
 40
30.0
  9
$DIMEXO
 40
43.0
  9
$DIMDLI
 40
0.0
  9
$DIMRND
 40
0.5
  9
$DIMDLE
 40
12.0
  9
$DIMEXE
 40
13.0
  9
$DIMTP
 40
0.0
  9
$DIMTM
 40
0.0
  9
$DIMTXT
 40
80.0
  9
$DIMCEN
 40
0.0
  9
$DIMTSZ
 40
0.0
  9
$DIMTOL
 70
     0
  9
$DIMLIM
 70
     0
  9
$DIMTIH
 70
     0
  9
$DIMTOH
 70
     0
  9
$DIMSE1
 70
     1
  9
$DIMSE2
 70
     1
  9
$DIMTAD
 70
     0
  9
$DIMZIN
 70
    12
  9
$DIMBLK
  1
B-DIM
  9
$DIMASO
 70
     1
  9
$DIMSHO
 70
     1
  9
$DIMPOST
  1

  9
$DIMAPOST
  1

  9
$DIMALT
 70
     0
  9
$DIMALTD
 70
     2
  9
$DIMALTF
 40
25.4
  9
$DIMLFAC
 40
1.0
  9
$DIMTOFL
 70
     1
  9
$DIMTVP
 40
1.0
  9
$DIMTIX
 70
     1
  9
$DIMSOXD
 70
     0
  9
$DIMSAH
 70
     0
  9
$DIMBLK1
  1

  9
$DIMBLK2
  1

  9
$DIMSTYLE
  2
500
  9
$DIMCLRD
 70
     1
  9
$DIMCLRE
 70
     1
  9
$DIMCLRT
 70
   140
  9
$DIMTFAC
 40
1.0
  9
$DIMGAP
 40
0.0
  9
$DIMJUST
 70
     0
  9
$DIMSD1
 70
     0
  9
$DIMSD2
 70
     0
  9
$DIMTOLJ
 70
     1
  9
$DIMTZIN
 70
     0
  9
$DIMALTZ
 70
     0
  9
$DIMALTTZ
 70
     0
  9
$DIMUPT
 70
     0
  9
$DIMDEC
 70
     1
  9
$DIMTDEC
 70
     1
  9
$DIMALTU
 70
     2
  9
$DIMALTTD
 70
     2
  9
$DIMTXSTY
  7
ROMANS
  9
$DIMAUNIT
 70
     0
  9
$DIMADEC
 70
     0
  9
$DIMALTRND
 40
0.0
  9
$DIMAZIN
 70
     0
  9
$DIMDSEP
 70
    46
  9
$DIMATFIT
 70
     3
  9
$DIMFRAC
 70
     0
  9
$DIMLDRBLK
  1
B-DIM
  9
$DIMLUNIT
 70
     2
  9
$DIMLWD
 70
    -2
  9
$DIMLWE
 70
    -2
  9
$DIMTMOVE
 70
     2
  9
$LUNITS
 70
     2
  9
$LUPREC
 70
     2
  9
$SKETCHINC
 40
0.1
  9
$FILLETRAD
 40
0.0
  9
$AUNITS
 70
     0
  9
$AUPREC
 70
     1
  9
$MENU
  1
acad
  9
$ELEVATION
 40
0.0
  9
$PELEVATION
 40
0.0
  9
$THICKNESS
 40
0.0
  9
$LIMCHECK
 70
     0
  9
$CHAMFERA
 40
30.0
  9
$CHAMFERB
 40
30.0
  9
$CHAMFERC
 40
0.0
  9
$CHAMFERD
 40
0.0
  9
$SKPOLY
 70
     0
  9
$TDCREATE
 40
2450817.525937848
  9
$TDUCREATE
 40
2450817.442604514
  9
$TDUPDATE
 40
2454965.430881979
  9
$TDUUPDATE
 40
2454965.347548646
  9
$TDINDWG
 40
21.7759655903
  9
$TDUSRTIMER
 40
21.7759655903
  9
$USRTIMER
 70
     1
  9
$ANGBASE
 50
0.0
  9
$ANGDIR
 70
     0
  9
$PDMODE
 70
     3
  9
$PDSIZE
 40
10.0
  9
$PLINEWID
 40
60.0
  9
$SPLFRAME
 70
     0
  9
$SPLINETYPE
 70
     6
  9
$SPLINESEGS
 70
     8
  9
$HANDSEED
  5
77F2
  9
$SURFTAB1
 70
     6
  9
$SURFTAB2
 70
     6
  9
$SURFTYPE
 70
     6
  9
$SURFU
 70
     6
  9
$SURFV
 70
     6
  9
$UCSBASE
  2

  9
$UCSNAME
  2

  9
$UCSORG
 10
0.0
 20
0.0
 30
0.0
  9
$UCSXDIR
 10
1.0
 20
0.0
 30
0.0
  9
$UCSYDIR
 10
0.0
 20
1.0
 30
0.0
  9
$UCSORTHOREF
  2

  9
$UCSORTHOVIEW
 70
     0
  9
$UCSORGTOP
 10
0.0
 20
0.0
 30
0.0
  9
$UCSORGBOTTOM
 10
0.0
 20
0.0
 30
0.0
  9
$UCSORGLEFT
 10
0.0
 20
0.0
 30
0.0
  9
$UCSORGRIGHT
 10
0.0
 20
0.0
 30
0.0
  9
$UCSORGFRONT
 10
0.0
 20
0.0
 30
0.0
  9
$UCSORGBACK
 10
0.0
 20
0.0
 30
0.0
  9
$PUCSBASE
  2

  9
$PUCSNAME
  2

  9
$PUCSORG
 10
0.0
 20
0.0
 30
0.0
  9
$PUCSXDIR
 10
1.0
 20
0.0
 30
0.0
  9
$PUCSYDIR
 10
0.0
 20
1.0
 30
0.0
  9
$PUCSORTHOREF
  2

  9
$PUCSORTHOVIEW
 70
     0
  9
$PUCSORGTOP
 10
0.0
 20
0.0
 30
0.0
  9
$PUCSORGBOTTOM
 10
0.0
 20
0.0
 30
0.0
  9
$PUCSORGLEFT
 10
0.0
 20
0.0
 30
0.0
  9
$PUCSORGRIGHT
 10
0.0
 20
0.0
 30
0.0
  9
$PUCSORGFRONT
 10
0.0
 20
0.0
 30
0.0
  9
$PUCSORGBACK
 10
0.0
 20
0.0
 30
0.0
  9
$USERI1
 70
     0
  9
$USERI2
 70
     0
  9
$USERI3
 70
     0
  9
$USERI4
 70
     0
  9
$USERI5
 70
     0
  9
$USERR1
 40
0.0
  9
$USERR2
 40
0.0
  9
$USERR3
 40
0.0
  9
$USERR4
 40
0.0
  9
$USERR5
 40
0.0
  9
$WORLDVIEW
 70
     1
  9
$SHADEDGE
 70
     3
  9
$SHADEDIF
 70
    70
  9
$TILEMODE
 70
     1
  9
$MAXACTVP
 70
    16
  9
$PINSBASE
 10
0.0
 20
0.0
 30
0.0
  9
$PLIMCHECK
 70
     0
  9
$PEXTMIN
 10
1.144500083810701
 20
0.8013332819375467
 30
0.0
  9
$PEXTMAX
 10
10.30050075429631
 20
7.21199953743792
 30
0.0
  9
$PLIMMIN
 10
-0.1249995194082185
 20
-0.1249999981226884
  9
$PLIMMAX
 10
11.5700008362297
 20
8.138332939523412
  9
$UNITMODE
 70
     0
  9
$VISRETAIN
 70
     0
  9
$PLINEGEN
 70
     0
  9
$PSLTSCALE
 70
     1
  9
$TREEDEPTH
 70
  3020
  9
$CMLSTYLE
  2
STANDARD
  9
$CMLJUST
 70
     0
  9
$CMLSCALE
 40
1.0
  9
$PROXYGRAPHICS
 70
     1
  9
$MEASUREMENT
 70
     0
  9
$CELWEIGHT
370
    -1
  9
$ENDCAPS
280
     0
  9
$JOINSTYLE
280
     0
  9
$LWDISPLAY
290
     0
  9
$INSUNITS
 70
     0
  9
$HYPERLINKBASE
  1

  9
$STYLESHEET
  1
monochrome_140.ctb
  9
$XEDIT
290
     1
  9
$CEPSNTYPE
380
     0
  9
$PSTYLEMODE
290
     1
  9
$FINGERPRINTGUID
  2
{2D5E65A9-1F91-4A53-BA94-481E1C74241D}
  9
$VERSIONGUID
  2
{FDB857D1-BD97-47A7-9128-86B9021ABB8C}
  9
$EXTNAMES
290
     1
  9
$PSVPSCALE
 40
0.0
  9
$OLESTARTUP
290
     0
  0
ENDSEC
  0
SECTION
  2
CLASSES
  0
CLASS
  1
DICTIONARYVAR
  2
AcDbDictionaryVar
  3
ObjectDBX Classes
 90
        0
280
     0
281
     0
  0
CLASS
  1
ACDBDICTIONARYWDFLT
  2
AcDbDictionaryWithDefault
  3
ObjectDBX Classes
 90
        0
280
     0
281
     0
  0
CLASS
  1
ACDBPLACEHOLDER
  2
AcDbPlaceHolder
  3
ObjectDBX Classes
 90
        0
280
     0
281
     0
  0
CLASS
  1
LAYOUT
  2
AcDbLayout
  3
ObjectDBX Classes
 90
        0
280
     0
281
     0
  0
CLASS
  1
AEC_VARS_DWG_SETUP
  2
AecDbVarsDwgSetup
  3
AecBase50|Product Desc: Autodesk Architectural Desktop 2007 |Company: Autodesk,Inc. |WEB Address: www.autodesk.com
 90
      129
280
     0
281
     0
  0
CLASS
  1
AEC_DISP_REP_CONFIG
  2
AecDbDispRepConfig
  3
AecBase50|Product Desc: Autodesk Architectural Desktop 2007 |Company: Autodesk,Inc. |WEB Address: www.autodesk.com
 90
      129
280
     0
281
     0
  0
CLASS
  1
AEC_DISP_REP_SET
  2
AecDbDispRepSet
  3
AecBase50|Product Desc: Autodesk Architectural Desktop 2007 |Company: Autodesk,Inc. |WEB Address: www.autodesk.com
 90
      129
280
     0
281
     0
  0
CLASS
  1
AEC_DISP_REP_2D_SECTION
  2
AecDbDispRep2dSection
  3
AecBase50|Product Desc: Autodesk Architectural Desktop 2007 |Company: Autodesk,Inc. |WEB Address: www.autodesk.com
 90
      129
280
     0
281
     0
  0
CLASS
  1
AEC_DISP_REP_ANCHOR_BUB_TO_GRID
  2
AecDbDispRepAnchorBubToGrid
  3
AecStructureBase50|Product Desc: Autodesk Architectural Desktop 2007 |Company: Autodesk,Inc. |WEB Address: www.autodesk.com
 90
      129
280
     0
281
     0
  0
CLASS
  1
AEC_DISP_REP_ANCHOR_BUB_TO_GRID_MODEL
  2
AecDbDispRepAnchorBubToGridMdl
  3
AecStructureBase50|Product Desc: Autodesk Architectural Desktop 2007 |Company: Autodesk,Inc. |WEB Address: www.autodesk.com
 90
      129
280
     0
281
     0
  0
CLASS
  1
AEC_DISP_REP_ANCHOR_ENT_TO_NODE
  2
AecDbDispRepAnchorEntToNode
  3
AecBase50|Product Desc: Autodesk Architectural Desktop 2007 |Company: Autodesk,Inc. |WEB Address: www.autodesk.com
 90
      129
280
     0
281
     0
  0
CLASS
  1
AEC_DISP_REP_ANCHOR_TAG_TO_ENT
  2
AecDbDispRepAnchorTagToEnt
  3
AecScheduleData50|Product Desc: Autodesk Architectural Desktop 2007 |Company: Autodesk,Inc. |WEB Address: www.autodesk.com
 90
      129
280
     0
281
     0
  0
CLASS
  1
AEC_DISP_REP_AREA
  2
AecDbDispRepArea
  3
AecAreaCalculationBase50|Product Desc: Autodesk Architectural Desktop 2007 |Company: Autodesk,Inc. |WEB Address: www.autodesk.com
 90
    32897
280
     0
281
     0
  0
CLASS
  1
AEC_DISP_REP_AREA_DECOMPOSED
  2
AecDbDispRepAreaDecomposed
  3
AecAreaCalculationBase50|Product Desc: Autodesk Architectural Desktop 2007 |Company: Autodesk,Inc. |WEB Address: www.autodesk.com
 90
    32897
280
     0
281
     0
  0
CLASS
  1
AEC_DISP_REP_AREAGROUP
  2
AecDbDispRepAreaGroup
  3
AecAreaCalculationBase50|Product Desc: Autodesk Architectural Desktop 2007 |Company: Autodesk,Inc. |WEB Address: www.autodesk.com
 90
    32897
280
     0
281
     0
  0
CLASS
  1
AEC_DISP_REP_BDG_ELEVLINE_MODEL
  2
AecDbDispRepBdgElevLineModel
  3
AecArchBase50|Product Desc: Autodesk Architectural Desktop 2007 |Company: Autodesk,Inc. |WEB Address: www.autodesk.com
 90
      129
280
     0
281
     0
  0
CLASS
  1
AEC_DISP_REP_BDG_SECTIONLINE_PLAN
  2
AecDbDispRepBdgElevLinePlan
  3
AecArchBase50|Product Desc: Autodesk Architectural Desktop 2007 |Company: Autodesk,Inc. |WEB Address: www.autodesk.com
 90
      129
280
     0
281
     0
  0
CLASS
  1
AEC_DISP_REP_BDG_SECTIONLINE_MODEL
  2
AecDbDispRepBdgSectionLineModel
  3
AecArchBase50|Product Desc: Autodesk Architectural Desktop 2007 |Company: Autodesk,Inc. |WEB Address: www.autodesk.com
 90
      129
280
     0
281
     0
  0
CLASS
  1
AEC_DISP_REP_BDG_SECTIONLINE_PLAN
  2
AecDbDispRepBdgSectionLinePlan
  3
AecArchBase50|Product Desc: Autodesk Architectural Desktop 2007 |Company: Autodesk,Inc. |WEB Address: www.autodesk.com
 90
      129
280
     0
281
     0
  0
CLASS
  1
AEC_DISP_REP_BDG_SECTION_SUBDIV
  2
AecDbDispRepBdgSectionSubDiv
  3
AecArchBase50|Product Desc: Autodesk Architectural Desktop 2007 |Company: Autodesk,Inc. |WEB Address: www.autodesk.com
 90
      129
280
     0
281
     0
  0
CLASS
  1
AEC_DISP_REP_CAMERA
  2
AecDbDispRepCamera
  3
AecBase50|Product Desc: Autodesk Architectural Desktop 2007 |Company: Autodesk,Inc. |WEB Address: www.autodesk.com
 90
    32897
280
     0
281
     0
  0
CLASS
  1
AEC_DISP_REP_CEILING_GRID
  2
AecDbDispRepCeilingGrid
  3
AecArchBase50|Product Desc: Autodesk Architectural Desktop 2007 |Company: Autodesk,Inc. |WEB Address: www.autodesk.com
 90
      893
280
     0
281
     0
  0
CLASS
  1
AEC_DISP_REP_CEILING_GRID_MODEL
  2
AecDbDispRepCeilingGridModel
  3
AecArchBase50|Product Desc: Autodesk Architectural Desktop 2007 |Company: Autodesk,Inc. |WEB Address: www.autodesk.com
 90
      129
280
     0
281
     0
  0
CLASS
  1
AEC_DISP_REP_CEILING_GRID_RCP
  2
AecDbDispRepCeilingGridRcp
  3
AecArchBase50|Product Desc: Autodesk Architectural Desktop 2007 |Company: Autodesk,Inc. |WEB Address: www.autodesk.com
 90
      129
280
     0
281
     0
  0
CLASS
  1
AEC_DISP_REP_CLIP_VOLUME_MODEL
  2
AecDbDispRepClipVolModel
  3
AecBase50|Product Desc: Autodesk Architectural Desktop 2007 |Company: Autodesk,Inc. |WEB Address: www.autodesk.com
 90
      129
280
     0
281
     0
  0
CLASS
  1
AEC_DISP_REP_CLIP_VOLUME_PLAN
  2
AecDbDispRepClipVolPlan
  3
AecBase50|Product Desc: Autodesk Architectural Desktop 2007 |Company: Autodesk,Inc. |WEB Address: www.autodesk.com
 90
      129
280
     0
281
     0
  0
CLASS
  1
AEC_DISP_REP_CLIP_VOLUME_RESULT_SUBDIV
  2
AecDbDispRepClipVolResSubDiv
  3
AecBase50|Product Desc: Autodesk Architectural Desktop 2007 |Company: Autodesk,Inc. |WEB Address: www.autodesk.com
 90
      129
280
     0
281
     0
  0
CLASS
  1
AEC_DISP_REP_CLIP_VOLUME_RESULT
  2
AecDbDispRepClipVolResult
  3
AecBase50|Product Desc: Autodesk Architectural Desktop 2007 |Company: Autodesk,Inc. |WEB Address: www.autodesk.com
 90
      129
280
     0
281
     0
  0
CLASS
  1
AEC_DISP_REP_COLUMN_GRID
  2
AecDbDispRepColumnGrid
  3
AecStructureBase50|Product Desc: Autodesk Architectural Desktop 2007 |Company: Autodesk,Inc. |WEB Address: www.autodesk.com
 90
      129
280
     0
281
     0
  0
CLASS
  1
AEC_DISP_REP_COLUMN_GRID_MODEL
  2
AecDbDispRepColumnGridModel
  3
AecStructureBase50|Product Desc: Autodesk Architectural Desktop 2007 |Company: Autodesk,Inc. |WEB Address: www.autodesk.com
 90
      129
280
     0
281
     0
  0
CLASS
  1
AEC_DISP_REP_CURTAIN_WALL_LAYOUT_MODEL
  2
AecDbDispRepCurtainWallLayoutModel
  3
AecArchBase50|Product Desc: Autodesk Architectural Desktop 2007 |Company: Autodesk,Inc. |WEB Address: www.autodesk.com
 90
      129
280
     0
281
     0
  0
CLASS
  1
AEC_DISP_REP_CURTAIN_WALL_LAYOUT_PLAN
  2
AecDbDispRepCurtainWallLayoutPlan
  3
AecArchBase50|Product Desc: Autodesk Architectural Desktop 2007 |Company: Autodesk,Inc. |WEB Address: www.autodesk.com
 90
      129
280
     0
281
     0
  0
CLASS
  1
AEC_DISP_REP_CURTAIN_WALL_UNIT_MODEL
  2
AecDbDispRepCurtainWallUnitModel
  3
AecArchBase50|Product Desc: Autodesk Architectural Desktop 2007 |Company: Autodesk,Inc. |WEB Address: www.autodesk.com
 90
      129
280
     0
281
     0
  0
CLASS
  1
AEC_DISP_REP_CURTAIN_WALL_UNIT_PLAN
  2
AecDbDispRepCurtainWallUnitPlan
  3
AecArchBase50|Product Desc: Autodesk Architectural Desktop 2007 |Company: Autodesk,Inc. |WEB Address: www.autodesk.com
 90
      129
280
     0
281
     0
  0
CLASS
  1
AEC_DB_DISP_REP_DIM_GROUP_PLAN
  2
AecDbDispRepDimGroupPlan
  3
AecArchDACHBase50|Product Desc: Autodesk Architectural Desktop 2007 |Company: Autodesk,Inc. |WEB Address: www.autodesk.com
 90
      129
280
     0
281
     0
  0
CLASS
  1
AEC_DISP_REP_DOOR_MODEL
  2
AecDbDispRepDoorModel
  3
AecArchBase50|Product Desc: Autodesk Architectural Desktop 2007 |Company: Autodesk,Inc. |WEB Address: www.autodesk.com
 90
      129
280
     0
281
     0
  0
CLASS
  1
AEC_DISP_REP_DOOR_NOMINAL
  2
AecDbDispRepDoorNominal
  3
AecArchBase50|Product Desc: Autodesk Architectural Desktop 2007 |Company: Autodesk,Inc. |WEB Address: www.autodesk.com
 90
      129
280
     0
281
     0
  0
CLASS
  1
AEC_DISP_REP_DOOR_PLAN
  2
AecDbDispRepDoorPlan
  3
AecArchBase50|Product Desc: Autodesk Architectural Desktop 2007 |Company: Autodesk,Inc. |WEB Address: www.autodesk.com
 90
      129
280
     0
281
     0
  0
CLASS
  1
AEC_DISP_REP_EDITINPLACEPROFILE
  2
AecDbDispRepEditInPlaceProfile
  3
AecBase50|Product Desc: Autodesk Architectural Desktop 2007 |Company: Autodesk,Inc. |WEB Address: www.autodesk.com
 90
      129
280
     0
281
     0
  0
CLASS
  1
AEC_DISP_REP_ENT_REF
  2
AecDbDispRepEntRef
  3
AecBase50|Product Desc: Autodesk Architectural Desktop 2007 |Company: Autodesk,Inc. |WEB Address: www.autodesk.com
 90
      129
280
     0
281
     0
  0
CLASS
  1
AEC_DISP_REP_LAYOUT_CURVE
  2
AecDbDispRepLayoutCurve
  3
AecBase50|Product Desc: Autodesk Architectural Desktop 2007 |Company: Autodesk,Inc. |WEB Address: www.autodesk.com
 90
      129
280
     0
281
     0
  0
CLASS
  1
AEC_DISP_REP_LAYOUT_GRID2D
  2
AecDbDispRepLayoutGrid2d
  3
AecBase50|Product Desc: Autodesk Architectural Desktop 2007 |Company: Autodesk,Inc. |WEB Address: www.autodesk.com
 90
      129
280
     0
281
     0
  0
CLASS
  1
AEC_DISP_REP_LAYOUT_GRID3D
  2
AecDbDispRepLayoutGrid3d
  3
AecBase50|Product Desc: Autodesk Architectural Desktop 2007 |Company: Autodesk,Inc. |WEB Address: www.autodesk.com
 90
      129
280
     0
281
     0
  0
CLASS
  1
AEC_DISP_REP_MASKBLOCK_REF
  2
AecDbDispRepMaskBlockRef
  3
AecBase50|Product Desc: Autodesk Architectural Desktop 2007 |Company: Autodesk,Inc. |WEB Address: www.autodesk.com
 90
      129
280
     0
281
     0
  0
CLASS
  1
AEC_DISP_REP_MASKBLOCK_REF_RCP
  2
AecDbDispRepMaskBlockRefRcp
  3
AecArchBase50|Product Desc: Autodesk Architectural Desktop 2007 |Company: Autodesk,Inc. |WEB Address: www.autodesk.com
 90
      129
280
     0
281
     0
  0
CLASS
  1
AEC_DISP_REP_MASS_ELEM_MODEL
  2
AecDbDispRepMassElemModel
  3
AecBaseEx50|Product Desc: Autodesk Architectural Desktop 2007 |Company: Autodesk,Inc. |WEB Address: www.autodesk.com
 90
      129
280
     0
281
     0
  0
CLASS
  1
AEC_DISP_REP_MASS_ELEM_SCHEM
  2
AecDbDispRepMassElemSchem
  3
AecBaseEx50|Product Desc: Autodesk Architectural Desktop 2007 |Company: Autodesk,Inc. |WEB Address: www.autodesk.com
 90
      129
280
     0
281
     0
  0
CLASS
  1
AEC_DISP_REP_MASS_GROUP_MODEL
  2
AecDbDispRepMassGroupModel
  3
AecBaseEx50|Product Desc: Autodesk Architectural Desktop 2007 |Company: Autodesk,Inc. |WEB Address: www.autodesk.com
 90
      129
280
     0
281
     0
  0
CLASS
  1
AEC_DISP_REP_MASS_GROUP_PLAN
  2
AecDbDispRepMassGroupPlan
  3
AecBaseEx50|Product Desc: Autodesk Architectural Desktop 2007 |Company: Autodesk,Inc. |WEB Address: www.autodesk.com
 90
      129
280
     0
281
     0
  0
CLASS
  1
AEC_DISP_REP_MATERIAL
  2
AecDbDispRepMaterial
  3
AecBase50|Product Desc: Autodesk Architectural Desktop 2007 |Company: Autodesk,Inc. |WEB Address: www.autodesk.com
 90
      129
280
     0
281
     0
  0
CLASS
  1
AEC_DISP_REP_MVBLOCK_REF
  2
AecDbDispRepMvBlockRef
  3
AecBase50|Product Desc: Autodesk Architectural Desktop 2007 |Company: Autodesk,Inc. |WEB Address: www.autodesk.com
 90
      129
280
     0
281
     0
  0
CLASS
  1
AEC_DISP_REP_MVBLOCK_REF_MODEL
  2
AecDbDispRepMvBlockRefModel
  3
AecBase50|Product Desc: Autodesk Architectural Desktop 2007 |Company: Autodesk,Inc. |WEB Address: www.autodesk.com
 90
      129
280
     0
281
     0
  0
CLASS
  1
AEC_DISP_REP_OPENING
  2
AecDbDispRepOpening
  3
AecArchBase50|Product Desc: Autodesk Architectural Desktop 2007 |Company: Autodesk,Inc. |WEB Address: www.autodesk.com
 90
      129
280
     0
281
     0
  0
CLASS
  1
AEC_DISP_REP_OPENING_MODEL
  2
AecDbDispRepOpeningModel
  3
AecArchBase50|Product Desc: Autodesk Architectural Desktop 2007 |Company: Autodesk,Inc. |WEB Address: www.autodesk.com
 90
      129
280
     0
281
     0
  0
CLASS
  1
AEC_DISP_REP_POLYGON_MODEL
  2
AecDbDispRepPolygonModel
  3
AecBase50|Product Desc: Autodesk Architectural Desktop 2007 |Company: Autodesk,Inc. |WEB Address: www.autodesk.com
 90
      129
280
     0
281
     0
  0
CLASS
  1
AEC_DISP_REP_RAILING_MODEL
  2
AecDbDispRepRailingModel
  3
AecArchBase50|Product Desc: Autodesk Architectural Desktop 2007 |Company: Autodesk,Inc. |WEB Address: www.autodesk.com
 90
      129
280
     0
281
     0
  0
CLASS
  1
AEC_DISP_REP_RAILING_PLAN
  2
AecDbDispRepRailingPlan
  3
AecArchBase50|Product Desc: Autodesk Architectural Desktop 2007 |Company: Autodesk,Inc. |WEB Address: www.autodesk.com
 90
      129
280
     0
281
     0
  0
CLASS
  1
AEC_DISP_REP_ROOF_MODEL
  2
AecDbDispRepRoofModel
  3
AecArchBase50|Product Desc: Autodesk Architectural Desktop 2007 |Company: Autodesk,Inc. |WEB Address: www.autodesk.com
 90
      129
280
     0
281
     0
  0
CLASS
  1
AEC_DISP_REP_ROOF_PLAN
  2
AecDbDispRepRoofPlan
  3
AecArchBase50|Product Desc: Autodesk Architectural Desktop 2007 |Company: Autodesk,Inc. |WEB Address: www.autodesk.com
 90
      129
280
     0
281
     0
  0
CLASS
  1
AEC_DISP_REP_ROOFSLAB_MODEL
  2
AecDbDispRepRoofSlabModel
  3
AecArchBase50|Product Desc: Autodesk Architectural Desktop 2007 |Company: Autodesk,Inc. |WEB Address: www.autodesk.com
 90
      129
280
     0
281
     0
  0
CLASS
  1
AEC_DISP_REP_ROOFSLAB_PLAN
  2
AecDbDispRepRoofSlabPlan
  3
AecArchBase50|Product Desc: Autodesk Architectural Desktop 2007 |Company: Autodesk,Inc. |WEB Address: www.autodesk.com
 90
      129
280
     0
281
     0
  0
CLASS
  1
AEC_DISP_REP_SCHEDULE_TABLE
  2
AecDbDispRepScheduleTable
  3
AecSchedule50|Product Desc: Autodesk Architectural Desktop 2007 |Company: Autodesk,Inc. |WEB Address: www.autodesk.com
 90
      129
280
     0
281
     0
  0
CLASS
  1
AEC_DISP_REP_SLAB_MODEL
  2
AecDbDispRepSlabModel
  3
AecArchBase50|Product Desc: Autodesk Architectural Desktop 2007 |Company: Autodesk,Inc. |WEB Address: www.autodesk.com
 90
      129
280
     0
281
     0
  0
CLASS
  1
AEC_DISP_REP_SLAB_PLAN
  2
AecDbDispRepSlabPlan
  3
AecArchBase50|Product Desc: Autodesk Architectural Desktop 2007 |Company: Autodesk,Inc. |WEB Address: www.autodesk.com
 90
      129
280
     0
281
     0
  0
CLASS
  1
AEC_DISP_REP_SLICE
  2
AecDbDispRepSlice
  3
AecBase50|Product Desc: Autodesk Architectural Desktop 2007 |Company: Autodesk,Inc. |WEB Address: www.autodesk.com
 90
      129
280
     0
281
     0
  0
CLASS
  1
AEC_DISP_REP_SPACE_BOUNDARY_MODEL
  2
AecDbDispRepSpaceBoundaryModel
  3
AecArchBase50|Product Desc: Autodesk Architectural Desktop 2007 |Company: Autodesk,Inc. |WEB Address: www.autodesk.com
 90
    32897
280
     0
281
     0
  0
CLASS
  1
AEC_DISP_REP_SPACE_BOUNDARY_PLAN
  2
AecDbDispRepSpaceBoundaryPlan
  3
AecArchBase50|Product Desc: Autodesk Architectural Desktop 2007 |Company: Autodesk,Inc. |WEB Address: www.autodesk.com
 90
    32897
280
     0
281
     0
  0
CLASS
  1
AEC_DISP_REP_SPACE_BOUNDARY_SCHEM
  2
AecDbDispRepSpaceBoundarySketch
  3
AecArchBase50|Product Desc: Autodesk Architectural Desktop 2007 |Company: Autodesk,Inc. |WEB Address: www.autodesk.com
 90
    32897
280
     0
281
     0
  0
CLASS
  1
AEC_DISP_REP_SPACE_MODEL
  2
AecDbDispRepSpaceModel
  3
AecArchBase50|Product Desc: Autodesk Architectural Desktop 2007 |Company: Autodesk,Inc. |WEB Address: www.autodesk.com
 90
      129
280
     0
281
     0
  0
CLASS
  1
AEC_DISP_REP_SPACE_PLAN
  2
AecDbDispRepSpacePlan
  3
AecArchBase50|Product Desc: Autodesk Architectural Desktop 2007 |Company: Autodesk,Inc. |WEB Address: www.autodesk.com
 90
      129
280
     0
281
     0
  0
CLASS
  1
AEC_DISP_REP_STAIR_MODEL
  2
AecDbDispRepStairModel
  3
AecArchBase50|Product Desc: Autodesk Architectural Desktop 2007 |Company: Autodesk,Inc. |WEB Address: www.autodesk.com
 90
      129
280
     0
281
     0
  0
CLASS
  1
AEC_DISP_REP_STAIR_PLAN
  2
AecDbDispRepStairPlan
  3
AecArchBase50|Product Desc: Autodesk Architectural Desktop 2007 |Company: Autodesk,Inc. |WEB Address: www.autodesk.com
 90
      129
280
     0
281
     0
  0
CLASS
  1
AEC_DISP_REP_WALL_GRAPH
  2
AecDbDispRepWallGraph
  3
AecArchBase50|Product Desc: Autodesk Architectural Desktop 2007 |Company: Autodesk,Inc. |WEB Address: www.autodesk.com
 90
      129
280
     0
281
     0
  0
CLASS
  1
AEC_DISP_REP_WALL_MODEL
  2
AecDbDispRepWallModel
  3
AecArchBase50|Product Desc: Autodesk Architectural Desktop 2007 |Company: Autodesk,Inc. |WEB Address: www.autodesk.com
 90
      129
280
     0
281
     0
  0
CLASS
  1
AEC_DISP_REP_WALL_PLAN
  2
AecDbDispRepWallPlan
  3
AecArchBase50|Product Desc: Autodesk Architectural Desktop 2007 |Company: Autodesk,Inc. |WEB Address: www.autodesk.com
 90
      129
280
     0
281
     0
  0
CLASS
  1
AEC_DISP_REP_WALL_SCHEM
  2
AecDbDispRepWallSchem
  3
AecArchBase50|Product Desc: Autodesk Architectural Desktop 2007 |Company: Autodesk,Inc. |WEB Address: www.autodesk.com
 90
      129
280
     0
281
     0
  0
CLASS
  1
AEC_DISP_REP_WINDOW_ASSEMBLY_MODEL
  2
AecDbDispRepWindowAssemblyModel
  3
AecArchBase50|Product Desc: Autodesk Architectural Desktop 2007 |Company: Autodesk,Inc. |WEB Address: www.autodesk.com
 90
      129
280
     0
281
     0
  0
CLASS
  1
AEC_DISP_REP_WINDOW_ASSEMBLY_PLAN
  2
AecDbDispRepWindowAssemblyPlan
  3
AecArchBase50|Product Desc: Autodesk Architectural Desktop 2007 |Company: Autodesk,Inc. |WEB Address: www.autodesk.com
 90
      129
280
     0
281
     0
  0
CLASS
  1
AEC_AECDBDISPREPWINDOWASSEMBLYPLAN100
  2
AecDbDispRepWindowAssemblyPlan100
  3
AecArchDACHBase50|Product Desc: Autodesk Architectural Desktop 2007 |Company: Autodesk,Inc. |WEB Address: www.autodesk.com
 90
      129
280
     0
281
     0
  0
CLASS
  1
AEC_DISP_REP_WINDOW_MODEL
  2
AecDbDispRepWindowModel
  3
AecArchBase50|Product Desc: Autodesk Architectural Desktop 2007 |Company: Autodesk,Inc. |WEB Address: www.autodesk.com
 90
      129
280
     0
281
     0
  0
CLASS
  1
AEC_DISP_REP_WINDOW_NOMINAL
  2
AecDbDispRepWindowNominal
  3
AecArchBase50|Product Desc: Autodesk Architectural Desktop 2007 |Company: Autodesk,Inc. |WEB Address: www.autodesk.com
 90
      129
280
     0
281
     0
  0
CLASS
  1
AEC_DISP_REP_WINDOW_PLAN
  2
AecDbDispRepWindowPlan
  3
AecArchBase50|Product Desc: Autodesk Architectural Desktop 2007 |Company: Autodesk,Inc. |WEB Address: www.autodesk.com
 90
      129
280
     0
281
     0
  0
CLASS
  1
AECS_DISP_REP_MEMBER_LOGICAL
  2
AecsDbDispRepMemberLogical
  3
AecStructureBase50|Product Desc: Autodesk Architectural Desktop 2007 |Company: Autodesk,Inc. |WEB Address: www.autodesk.com
 90
      129
280
     0
281
     0
  0
CLASS
  1
AECS_DISP_REP_MEMBER_MODEL_DESIGN
  2
AecsDbDispRepMemberModelDesign
  3
AecStructureBase50|Product Desc: Autodesk Architectural Desktop 2007 |Company: Autodesk,Inc. |WEB Address: www.autodesk.com
 90
      129
280
     0
281
     0
  0
CLASS
  1
AECS_DISP_REP_MEMBER_PLAN_DESIGN
  2
AecsDbDispRepMemberPlanDesign
  3
AecStructureBase50|Product Desc: Autodesk Architectural Desktop 2007 |Company: Autodesk,Inc. |WEB Address: www.autodesk.com
 90
      129
280
     0
281
     0
  0
CLASS
  1
AEC_DISP_PROPS_ENT
  2
AecDbDispPropsEnt
  3
AecBase50|Product Desc: Autodesk Architectural Desktop 2007 |Company: Autodesk,Inc. |WEB Address: www.autodesk.com
 90
      129
280
     0
281
     0
  0
CLASS
  1
AEC_DISP_PROPS_CLIP_VOLUME
  2
AecDbDispPropsClipVol
  3
AecBase50|Product Desc: Autodesk Architectural Desktop 2007 |Company: Autodesk,Inc. |WEB Address: www.autodesk.com
 90
      129
280
     0
281
     0
  0
CLASS
  1
AEC_DISP_PROPS_SLICE
  2
AecDbDispPropsSlice
  3
AecBase50|Product Desc: Autodesk Architectural Desktop 2007 |Company: Autodesk,Inc. |WEB Address: www.autodesk.com
 90
      129
280
     0
281
     0
  0
CLASS
  1
AEC_DISP_PROPS_ROOFSLAB_PLAN
  2
AecDbDispPropsRoofSlabPlan
  3
AecArchBase50|Product Desc: Autodesk Architectural Desktop 2007 |Company: Autodesk,Inc. |WEB Address: www.autodesk.com
 90
      129
280
     0
281
     0
  0
CLASS
  1
AEC_DISP_PROPS_GRID_ASSEMBLY_MODEL
  2
AecDbDispPropsGridAssemblyModel
  3
AecArchBase50|Product Desc: Autodesk Architectural Desktop 2007 |Company: Autodesk,Inc. |WEB Address: www.autodesk.com
 90
      129
280
     0
281
     0
  0
CLASS
  1
AEC_DISP_PROPS_ROOF
  2
AecDbDispPropsRoof
  3
AecArchBase50|Product Desc: Autodesk Architectural Desktop 2007 |Company: Autodesk,Inc. |WEB Address: www.autodesk.com
 90
      129
280
     0
281
     0
  0
CLASS
  1
AEC_DISP_PROPS_SPACE_MODEL
  2
AecDbDispPropsSpaceModel
  3
AecArchBase50|Product Desc: Autodesk Architectural Desktop 2007 |Company: Autodesk,Inc. |WEB Address: www.autodesk.com
 90
      129
280
     0
281
     0
  0
CLASS
  1
AEC_DISP_PROPS_EDITINPLACEPROFILE_MODEL
  2
AecDbDispPropsEditInPlaceProfile
  3
AecBase50|Product Desc: Autodesk Architectural Desktop 2007 |Company: Autodesk,Inc. |WEB Address: www.autodesk.com
 90
      129
280
     0
281
     0
  0
CLASS
  1
AEC_DISP_PROPS_DOOR
  2
AecDbDispPropsDoor
  3
AecArchBase50|Product Desc: Autodesk Architectural Desktop 2007 |Company: Autodesk,Inc. |WEB Address: www.autodesk.com
 90
      129
280
     0
281
     0
  0
CLASS
  1
AEC_DISP_PROPS_MASKBLOCK
  2
AecDbDispPropsMaskBlock
  3
AecBase50|Product Desc: Autodesk Architectural Desktop 2007 |Company: Autodesk,Inc. |WEB Address: www.autodesk.com
 90
      129
280
     0
281
     0
  0
CLASS
  1
AEC_DISP_PROPS_SPACE_PLAN
  2
AecDbDispPropsSpacePlan
  3
AecArchBase50|Product Desc: Autodesk Architectural Desktop 2007 |Company: Autodesk,Inc. |WEB Address: www.autodesk.com
 90
      129
280
     0
281
     0
  0
CLASS
  1
AEC_DISP_PROPS_RAILING_PLAN
  2
AecDbDispPropsRailingPlan
  3
AecArchBase50|Product Desc: Autodesk Architectural Desktop 2007 |Company: Autodesk,Inc. |WEB Address: www.autodesk.com
 90
      129
280
     0
281
     0
  0
CLASS
  1
AEC_DISP_PROPS_LAYOUT_GRID2D
  2
AecDbDispPropsLayoutGrid2d
  3
AecBase50|Product Desc: Autodesk Architectural Desktop 2007 |Company: Autodesk,Inc. |WEB Address: www.autodesk.com
 90
      129
280
     0
281
     0
  0
CLASS
  1
AEC_DISP_PROPS_CLIP_VOLUME_RESULT
  2
AecDbDispPropsClipVolResSubDiv
  3
AecBase50|Product Desc: Autodesk Architectural Desktop 2007 |Company: Autodesk,Inc. |WEB Address: www.autodesk.com
 90
      129
280
     0
281
     0
  0
CLASS
  1
AEC_DISP_PROPS_STAIR_MODEL
  2
AecDbDispPropsStairModel
  3
AecArchBase50|Product Desc: Autodesk Architectural Desktop 2007 |Company: Autodesk,Inc. |WEB Address: www.autodesk.com
 90
      129
280
     0
281
     0
  0
CLASS
  1
AEC_DISP_PROPS_LAYOUT_CURVE
  2
AecDbDispPropsLayoutCurve
  3
AecBase50|Product Desc: Autodesk Architectural Desktop 2007 |Company: Autodesk,Inc. |WEB Address: www.autodesk.com
 90
      129
280
     0
281
     0
  0
CLASS
  1
AEC_DISP_PROPS_POLYGON_MODEL
  2
AecDbDispPropsPolygonModel
  3
AecBase50|Product Desc: Autodesk Architectural Desktop 2007 |Company: Autodesk,Inc. |WEB Address: www.autodesk.com
 90
      129
280
     0
281
     0
  0
CLASS
  1
AEC_DISP_PROPS_MASS_GROUP
  2
AecDbDispPropsMassGroup
  3
AecBaseEx50|Product Desc: Autodesk Architectural Desktop 2007 |Company: Autodesk,Inc. |WEB Address: www.autodesk.com
 90
      129
280
     0
281
     0
  0
CLASS
  1
AEC_DISP_PROPS_STAIR_PLAN
  2
AecDbDispPropsStairPlan
  3
AecArchBase50|Product Desc: Autodesk Architectural Desktop 2007 |Company: Autodesk,Inc. |WEB Address: www.autodesk.com
 90
      129
280
     0
281
     0
  0
CLASS
  1
AEC_DISP_PROPS_OPENING
  2
AecDbDispPropsOpening
  3
AecArchBase50|Product Desc: Autodesk Architectural Desktop 2007 |Company: Autodesk,Inc. |WEB Address: www.autodesk.com
 90
      129
280
     0
281
     0
  0
CLASS
  1
AEC_DISP_PROPS_WALL_GRAPH
  2
AecDbDispPropsWallGraph
  3
AecArchBase50|Product Desc: Autodesk Architectural Desktop 2007 |Company: Autodesk,Inc. |WEB Address: www.autodesk.com
 90
      129
280
     0
281
     0
  0
CLASS
  1
AEC_DISP_PROPS_DOOR_NOMINAL
  2
AecDbDispPropsDoorNominal
  3
AecArchBase50|Product Desc: Autodesk Architectural Desktop 2007 |Company: Autodesk,Inc. |WEB Address: www.autodesk.com
 90
      129
280
     0
281
     0
  0
CLASS
  1
AEC_DISP_PROPS_SLAB
  2
AecDbDispPropsSlab
  3
AecArchBase50|Product Desc: Autodesk Architectural Desktop 2007 |Company: Autodesk,Inc. |WEB Address: www.autodesk.com
 90
      129
280
     0
281
     0
  0
CLASS
  1
AEC_DISP_PROPS_WALL_MODEL
  2
AecDbDispPropsWallModel
  3
AecArchBase50|Product Desc: Autodesk Architectural Desktop 2007 |Company: Autodesk,Inc. |WEB Address: www.autodesk.com
 90
      129
280
     0
281
     0
  0
CLASS
  1
AEC_DISP_PROPS_MATERIAL
  2
AecDbDispPropsMaterial
  3
AecBase50|Product Desc: Autodesk Architectural Desktop 2007 |Company: Autodesk,Inc. |WEB Address: www.autodesk.com
 90
      129
280
     0
281
     0
  0
CLASS
  1
AEC_DISP_PROPS_WINDOW
  2
AecDbDispPropsWindow
  3
AecArchBase50|Product Desc: Autodesk Architectural Desktop 2007 |Company: Autodesk,Inc. |WEB Address: www.autodesk.com
 90
      129
280
     0
281
     0
  0
CLASS
  1
AEC_DISP_PROPS_LAYOUT_GRID3D
  2
AecDbDispPropsLayoutGrid3d
  3
AecBase50|Product Desc: Autodesk Architectural Desktop 2007 |Company: Autodesk,Inc. |WEB Address: www.autodesk.com
 90
      129
280
     0
281
     0
  0
CLASS
  1
AEC_DISP_PROPS_GRID_ASSEMBLY_PLAN
  2
AecDbDispPropsGridAssemblyPlan
  3
AecArchBase50|Product Desc: Autodesk Architectural Desktop 2007 |Company: Autodesk,Inc. |WEB Address: www.autodesk.com
 90
      129
280
     0
281
     0
  0
CLASS
  1
AEC_DISP_PROPS_WALL_SCHEM
  2
AecDbDispPropsWallSchem
  3
AecArchBase50|Product Desc: Autodesk Architectural Desktop 2007 |Company: Autodesk,Inc. |WEB Address: www.autodesk.com
 90
      129
280
     0
281
     0
  0
CLASS
  1
AEC_DISP_PROPS_WALL_PLAN
  2
AecDbDispPropsWallPlan
  3
AecArchBase50|Product Desc: Autodesk Architectural Desktop 2007 |Company: Autodesk,Inc. |WEB Address: www.autodesk.com
 90
      129
280
     0
281
     0
  0
CLASS
  1
AEC_DISP_PROPS_SPACE_BOUNDARY
  2
AecDbDispPropsSpaceBoundary
  3
AecArchBase50|Product Desc: Autodesk Architectural Desktop 2007 |Company: Autodesk,Inc. |WEB Address: www.autodesk.com
 90
    32897
280
     0
281
     0
  0
CLASS
  1
AEC_DISP_PROPS_SLAB_PLAN
  2
AecDbDispPropsSlabPlan
  3
AecArchBase50|Product Desc: Autodesk Architectural Desktop 2007 |Company: Autodesk,Inc. |WEB Address: www.autodesk.com
 90
      129
280
     0
281
     0
  0
CLASS
  1
AEC_DISP_PROPS_RAILING_MODEL
  2
AecDbDispPropsRailingModel
  3
AecArchBase50|Product Desc: Autodesk Architectural Desktop 2007 |Company: Autodesk,Inc. |WEB Address: www.autodesk.com
 90
      129
280
     0
281
     0
  0
CLASS
  1
AEC_DISP_PROPS_MASS_ELEM_MODEL
  2
AecDbDispPropsMassElem
  3
AecBaseEx50|Product Desc: Autodesk Architectural Desktop 2007 |Company: Autodesk,Inc. |WEB Address: www.autodesk.com
 90
      129
280
     0
281
     0
  0
CLASS
  1
AEC_DISP_PROPS_DIM
  2
AecDbDispPropsDimGroup
  3
AecArchDACHBase50|Product Desc: Autodesk Architectural Desktop 2007 |Company: Autodesk,Inc. |WEB Address: www.autodesk.com
 90
      129
280
     0
281
     0
  0
CLASS
  1
AEC_DISP_PROPS_ROOFSLAB
  2
AecDbDispPropsRoofSlab
  3
AecArchBase50|Product Desc: Autodesk Architectural Desktop 2007 |Company: Autodesk,Inc. |WEB Address: www.autodesk.com
 90
      129
280
     0
281
     0
  0
CLASS
  1
AEC_DISP_PROPS_ENT_REF
  2
AecDbDispPropsEntRef
  3
AecBase50|Product Desc: Autodesk Architectural Desktop 2007 |Company: Autodesk,Inc. |WEB Address: www.autodesk.com
 90
      129
280
     0
281
     0
  0
CLASS
  1
AEC_DISP_PROPS_2D_SECTION
  2
AecDbDispProps2dSection
  3
AecBase50|Product Desc: Autodesk Architectural Desktop 2007 |Company: Autodesk,Inc. |WEB Address: www.autodesk.com
 90
      129
280
     0
281
     0
  0
CLASS
  1
AECS_DISP_PROPS_MEMBER_LOGICAL
  2
AecsDbDispPropsMemberLogical
  3
AecStructureBase50|Product Desc: Autodesk Architectural Desktop 2007 |Company: Autodesk,Inc. |WEB Address: www.autodesk.com
 90
      129
280
     0
281
     0
  0
CLASS
  1
AEC_DISP_PROPS_AREA_DECOMPOSED
  2
AecDbDispPropsAreaDecomposed
  3
AecAreaCalculationBase50|Product Desc: Autodesk Architectural Desktop 2007 |Company: Autodesk,Inc. |WEB Address: www.autodesk.com
 90
    32897
280
     0
281
     0
  0
CLASS
  1
AEC_DISP_PROPS_CAMERA
  2
AecDbDispPropsCamera
  3
AecBase50|Product Desc: Autodesk Architectural Desktop 2007 |Company: Autodesk,Inc. |WEB Address: www.autodesk.com
 90
    32897
280
     0
281
     0
  0
CLASS
  1
AECS_DISP_PROPS_MEMBER
  2
AecsDbDispPropsMember
  3
AecStructureBase50|Product Desc: Autodesk Architectural Desktop 2007 |Company: Autodesk,Inc. |WEB Address: www.autodesk.com
 90
      129
280
     0
281
     0
  0
CLASS
  1
AECS_DISP_PROPS_MEMBER_PLAN
  2
AecsDbDispPropsMemberPlan
  3
AecStructureBase50|Product Desc: Autodesk Architectural Desktop 2007 |Company: Autodesk,Inc. |WEB Address: www.autodesk.com
 90
      129
280
     0
281
     0
  0
CLASS
  1
AEC_DISP_PROPS_AREAGROUP
  2
AecDbDispPropsAreaGroup
  3
AecAreaCalculationBase50|Product Desc: Autodesk Architectural Desktop 2007 |Company: Autodesk,Inc. |WEB Address: www.autodesk.com
 90
    32897
280
     0
281
     0
  0
CLASS
  1
AEC_DISP_PROPS_WINDOW_NOMINAL
  2
AecDbDispPropsWindowNominal
  3
AecArchBase50|Product Desc: Autodesk Architectural Desktop 2007 |Company: Autodesk,Inc. |WEB Address: www.autodesk.com
 90
      129
280
     0
281
     0
  0
CLASS
  1
AEC_DISP_PROPS_AREA
  2
AecDbDispPropsArea
  3
AecAreaCalculationBase50|Product Desc: Autodesk Architectural Desktop 2007 |Company: Autodesk,Inc. |WEB Address: www.autodesk.com
 90
    32897
280
     0
281
     0
  0
CLASS
  1
AEC_DISP_PROPS_SCHEDULE_TABLE
  2
AecDbDispPropsScheduleTable
  3
AecSchedule50|Product Desc: Autodesk Architectural Desktop 2007 |Company: Autodesk,Inc. |WEB Address: www.autodesk.com
 90
      129
280
     0
281
     0
  0
CLASS
  1
AEC_LAYERKEY_STYLE
  2
AecDbLayerKeyStyle
  3
AecBase50|Product Desc: Autodesk Architectural Desktop 2007 |Company: Autodesk,Inc. |WEB Address: www.autodesk.com
 90
    32897
280
     0
281
     0
  0
CLASS
  1
AEC_VARS_ARCHBASE
  2
AecDbVarsArchBase
  3
AecArchBase50|Product Desc: Autodesk Architectural Desktop 2007 |Company: Autodesk,Inc. |WEB Address: www.autodesk.com
 90
      129
280
     0
281
     0
  0
CLASS
  1
AEC_VARS_MUNICH
  2
AecDbVarsMunich
  3
AecArchDACHBase50|Product Desc: Autodesk Architectural Desktop 2007 |Company: Autodesk,Inc. |WEB Address: www.autodesk.com
 90
      129
280
     0
281
     0
  0
CLASS
  1
AEC_NOTIFICATION_TRACKER
  2
AecDbNotificationTracker
  3
AecBase50|Product Desc: Autodesk Architectural Desktop 2007 |Company: Autodesk,Inc. |WEB Address: www.autodesk.com
 90
      129
280
     0
281
     0
  0
CLASS
  1
AEC_DISP_REP_ANCHOR
  2
AecDbDispRepAnchor
  3
AecBase50|Product Desc: Autodesk Architectural Desktop 2007 |Company: Autodesk,Inc. |WEB Address: www.autodesk.com
 90
      129
280
     0
281
     0
  0
CLASS
  1
AEC_DISP_REP_POLYGON_TRUECOLOUR
  2
AecDbDispRepPolygonTrueColour
  3
AecBase50|Product Desc: Autodesk Architectural Desktop 2007 |Company: Autodesk,Inc. |WEB Address: www.autodesk.com
 90
      129
280
     0
281
     0
  0
CLASS
  1
AEC_DISP_PROPS_POLYGON_TRUECOLOUR
  2
AecDbDispPropsPolygonTrueColour
  3
AecBase50|Product Desc: Autodesk Architectural Desktop 2007 |Company: Autodesk,Inc. |WEB Address: www.autodesk.com
 90
      129
280
     0
281
     0
  0
CLASS
  1
AEC_DISP_REP_BDG_ELEVLINE_RCP
  2
AecDbDispRepBdgElevLineRcp
  3
AecArchBase50|Product Desc: Autodesk Architectural Desktop 2007 |Company: Autodesk,Inc. |WEB Address: www.autodesk.com
 90
      129
280
     0
281
     0
  0
CLASS
  1
AEC_DISP_REP_BDG_SECTIONLINE_RCP
  2
AecDbDispRepBdgSectionLineRcp
  3
AecArchBase50|Product Desc: Autodesk Architectural Desktop 2007 |Company: Autodesk,Inc. |WEB Address: www.autodesk.com
 90
      129
280
     0
281
     0
  0
CLASS
  1
AEC_DISP_REP_BDG_SECTION_MODEL
  2
AecDbDispRepBdgSectionModel
  3
AecArchBase50|Product Desc: Autodesk Architectural Desktop 2007 |Company: Autodesk,Inc. |WEB Address: www.autodesk.com
 90
      129
280
     0
281
     0
  0
CLASS
  1
AEC_DISP_REP_DOOR_ELEV
  2
AecDbDispRepDoorElev
  3
AecArchBase50|Product Desc: Autodesk Architectural Desktop 2007 |Company: Autodesk,Inc. |WEB Address: www.autodesk.com
 90
      129
280
     0
281
     0
  0
CLASS
  1
AEC_DISP_REP_DOOR_RCP
  2
AecDbDispRepDoorRcp
  3
AecArchBase50|Product Desc: Autodesk Architectural Desktop 2007 |Company: Autodesk,Inc. |WEB Address: www.autodesk.com
 90
      129
280
     0
281
     0
  0
CLASS
  1
AEC_DISP_REP_DOOR_THRESHOLD_PLAN
  2
AecDbDispRepDoorThresholdPlan
  3
AecArchBase50|Product Desc: Autodesk Architectural Desktop 2007 |Company: Autodesk,Inc. |WEB Address: www.autodesk.com
 90
      129
280
     0
281
     0
  0
CLASS
  1
AEC_DISP_PROPS_DOOR_THRESHOLD_PLAN
  2
AecDbDispPropsDoorThresholdPlan
  3
AecArchBase50|Product Desc: Autodesk Architectural Desktop 2007 |Company: Autodesk,Inc. |WEB Address: www.autodesk.com
 90
      129
280
     0
281
     0
  0
CLASS
  1
AEC_DISP_REP_MASS_ELEM_RCP
  2
AecDbDispRepMassElemRcp
  3
AecArchBase50|Product Desc: Autodesk Architectural Desktop 2007 |Company: Autodesk,Inc. |WEB Address: www.autodesk.com
 90
      129
280
     0
281
     0
  0
CLASS
  1
AEC_DISP_REP_MASS_GROUP_RCP
  2
AecDbDispRepMassGroupRcp
  3
AecArchBase50|Product Desc: Autodesk Architectural Desktop 2007 |Company: Autodesk,Inc. |WEB Address: www.autodesk.com
 90
      129
280
     0
281
     0
  0
CLASS
  1
AEC_DISP_REP_MVBLOCK_REF_RCP
  2
AecDbDispRepMvBlockRefRcp
  3
AecArchBase50|Product Desc: Autodesk Architectural Desktop 2007 |Company: Autodesk,Inc. |WEB Address: www.autodesk.com
 90
      129
280
     0
281
     0
  0
CLASS
  1
AEC_DISP_REP_ROOF_RCP
  2
AecDbDispRepRoofRcp
  3
AecArchBase50|Product Desc: Autodesk Architectural Desktop 2007 |Company: Autodesk,Inc. |WEB Address: www.autodesk.com
 90
      129
280
     0
281
     0
  0
CLASS
  1
AEC_DISP_REP_SPACE_BOUNDARY_DIAGRAM
  2
AecDbDispRepSpaceBoundaryDgrm
  3
AecArchBase50|Product Desc: Autodesk Architectural Desktop 2007 |Company: Autodesk,Inc. |WEB Address: www.autodesk.com
 90
    32897
280
     0
281
     0
  0
CLASS
  1
AEC_DISP_REP_SPACE_RCP
  2
AecDbDispRepSpaceRcp
  3
AecArchBase50|Product Desc: Autodesk Architectural Desktop 2007 |Company: Autodesk,Inc. |WEB Address: www.autodesk.com
 90
      129
280
     0
281
     0
  0
CLASS
  1
AEC_DISP_REP_SPACE_VOLUME
  2
AecDbDispRepSpaceVolume
  3
AecArchBase50|Product Desc: Autodesk Architectural Desktop 2007 |Company: Autodesk,Inc. |WEB Address: www.autodesk.com
 90
      129
280
     0
281
     0
  0
CLASS
  1
AEC_DISP_REP_STAIR_PLAN_OVERLAPPING
  2
AecDbDispRepStairPlanOverlapping
  3
AecArchBase50|Product Desc: Autodesk Architectural Desktop 2007 |Company: Autodesk,Inc. |WEB Address: www.autodesk.com
 90
      129
280
     0
281
     0
  0
CLASS
  1
AEC_DISP_PROPS_STAIR_PLAN_OVERLAPPING
  2
AecDbDispPropsStairPlanOverlapping
  3
AecArchBase50|Product Desc: Autodesk Architectural Desktop 2007 |Company: Autodesk,Inc. |WEB Address: www.autodesk.com
 90
      129
280
     0
281
     0
  0
CLASS
  1
AEC_DISP_REP_STAIR_RCP
  2
AecDbDispRepStairRcp
  3
AecArchBase50|Product Desc: Autodesk Architectural Desktop 2007 |Company: Autodesk,Inc. |WEB Address: www.autodesk.com
 90
      129
280
     0
281
     0
  0
CLASS
  1
AEC_DISP_REP_WALL_RCP
  2
AecDbDispRepWallRcp
  3
AecArchBase50|Product Desc: Autodesk Architectural Desktop 2007 |Company: Autodesk,Inc. |WEB Address: www.autodesk.com
 90
      129
280
     0
281
     0
  0
CLASS
  1
AEC_DISP_REP_WINDOWASSEMBLY_SILL_PLAN
  2
AecDbDispRepWindowAssemblySillPlan
  3
AecArchBase50|Product Desc: Autodesk Architectural Desktop 2007 |Company: Autodesk,Inc. |WEB Address: www.autodesk.com
 90
      129
280
     0
281
     0
  0
CLASS
  1
AEC_DISP_PROPS_WINDOW_ASSEMBLY_SILL_PLAN
  2
AecDbDispPropsWindowAssemblySillPlan
  3
AecArchBase50|Product Desc: Autodesk Architectural Desktop 2007 |Company: Autodesk,Inc. |WEB Address: www.autodesk.com
 90
      129
280
     0
281
     0
  0
CLASS
  1
AEC_DISP_REP_WINDOW_ELEV
  2
AecDbDispRepWindowElev
  3
AecArchBase50|Product Desc: Autodesk Architectural Desktop 2007 |Company: Autodesk,Inc. |WEB Address: www.autodesk.com
 90
      129
280
     0
281
     0
  0
CLASS
  1
AEC_DISP_REP_WINDOW_RCP
  2
AecDbDispRepWindowRcp
  3
AecArchBase50|Product Desc: Autodesk Architectural Desktop 2007 |Company: Autodesk,Inc. |WEB Address: www.autodesk.com
 90
      129
280
     0
281
     0
  0
CLASS
  1
AEC_DISP_REP_WINDOW_SILL_PLAN
  2
AecDbDispRepWindowSillPlan
  3
AecArchBase50|Product Desc: Autodesk Architectural Desktop 2007 |Company: Autodesk,Inc. |WEB Address: www.autodesk.com
 90
      129
280
     0
281
     0
  0
CLASS
  1
AEC_DISP_PROPS_WINDOW_SILL_PLAN
  2
AecDbDispPropsWindowSillPlan
  3
AecArchBase50|Product Desc: Autodesk Architectural Desktop 2007 |Company: Autodesk,Inc. |WEB Address: www.autodesk.com
 90
      129
280
     0
281
     0
  0
CLASS
  1
AEC_DISP_REP_ANCHOR_BUB_TO_GRID_RCP
  2
AecDbDispRepAnchorBubToGridRcp
  3
AecStructureBase50|Product Desc: Autodesk Architectural Desktop 2007 |Company: Autodesk,Inc. |WEB Address: www.autodesk.com
 90
      129
280
     0
281
     0
  0
CLASS
  1
AEC_DISP_REP_COLUMN_GRID_RCP
  2
AecDbDispRepColumnGridRcp
  3
AecStructureBase50|Product Desc: Autodesk Architectural Desktop 2007 |Company: Autodesk,Inc. |WEB Address: www.autodesk.com
 90
      129
280
     0
281
     0
  0
CLASS
  1
AECS_DISP_REP_MEMBER_ELEVATION_DESIGN
  2
AecsDbDispRepMemberElevationDesign
  3
AecStructureBase50|Product Desc: Autodesk Architectural Desktop 2007 |Company: Autodesk,Inc. |WEB Address: www.autodesk.com
 90
      129
280
     0
281
     0
  0
CLASS
  1
AECS_DISP_PROPS_MEMBER_PROJECTED
  2
AecsDbDispPropsMemberProjected
  3
AecStructureBase50|Product Desc: Autodesk Architectural Desktop 2007 |Company: Autodesk,Inc. |WEB Address: www.autodesk.com
 90
      129
280
     0
281
     0
  0
CLASS
  1
AECS_DISP_REP_MEMBER_ELEVATION_DETAIL
  2
AecsDbDispRepMemberElevationDetail
  3
AecStructureBase50|Product Desc: Autodesk Architectural Desktop 2007 |Company: Autodesk,Inc. |WEB Address: www.autodesk.com
 90
      129
280
     0
281
     0
  0
CLASS
  1
AECS_DISP_REP_MEMBER_MODEL_DETAIL
  2
AecsDbDispRepMemberModelDetail
  3
AecStructureBase50|Product Desc: Autodesk Architectural Desktop 2007 |Company: Autodesk,Inc. |WEB Address: www.autodesk.com
 90
      129
280
     0
281
     0
  0
CLASS
  1
AECS_DISP_REP_MEMBER_PLAN_DETAIL
  2
AecsDbDispRepMemberPlanDetail
  3
AecStructureBase50|Product Desc: Autodesk Architectural Desktop 2007 |Company: Autodesk,Inc. |WEB Address: www.autodesk.com
 90
      129
280
     0
281
     0
  0
CLASS
  1
AECS_DISP_REP_MEMBER_PLAN_SKETCH
  2
AecsDbDispRepMemberPlanSketch
  3
AecStructureBase50|Product Desc: Autodesk Architectural Desktop 2007 |Company: Autodesk,Inc. |WEB Address: www.autodesk.com
 90
      129
280
     0
281
     0
  0
CLASS
  1
AECS_DISP_PROPS_MEMBER_PLAN_SKETCH
  2
AecsDbDispPropsMemberPlanSketch
  3
AecStructureBase50|Product Desc: Autodesk Architectural Desktop 2007 |Company: Autodesk,Inc. |WEB Address: www.autodesk.com
 90
      129
280
     0
281
     0
  0
CLASS
  1
AEC_AECDBDISPREPAREA100
  2
AecDbDispRepArea100
  3
AecArchDACHBase50|Product Desc: Autodesk Architectural Desktop 2007 |Company: Autodesk,Inc. |WEB Address: www.autodesk.com
 90
    32897
280
     0
281
     0
  0
CLASS
  1
AEC_AECDBDISPREPAREAGROUP100
  2
AecDbDispRepAreaGroup100
  3
AecArchDACHBase50|Product Desc: Autodesk Architectural Desktop 2007 |Company: Autodesk,Inc. |WEB Address: www.autodesk.com
 90
    32897
280
     0
281
     0
  0
CLASS
  1
AEC_AECDBDISPREPBDGELEVLINEPLAN100
  2
AecDbDispRepBdgElevLinePlan100
  3
AecArchDACHBase50|Product Desc: Autodesk Architectural Desktop 2007 |Company: Autodesk,Inc. |WEB Address: www.autodesk.com
 90
      129
280
     0
281
     0
  0
CLASS
  1
AEC_AECDBDISPREPBDGSECTIONLINEPLAN100
  2
AecDbDispRepBdgSectionLinePlan100
  3
AecArchDACHBase50|Product Desc: Autodesk Architectural Desktop 2007 |Company: Autodesk,Inc. |WEB Address: www.autodesk.com
 90
      129
280
     0
281
     0
  0
CLASS
  1
AEC_AECDBDISPREPCEILINGGRIDPLAN100
  2
AecDbDispRepCeilingGridPlan100
  3
AecArchDACHBase50|Product Desc: Autodesk Architectural Desktop 2007 |Company: Autodesk,Inc. |WEB Address: www.autodesk.com
 90
      129
280
     0
281
     0
  0
CLASS
  1
AEC_AECDBDISPREPCOLUMNGRIDPLAN100
  2
AecDbDispRepColumnGridPlan100
  3
AecArchDACHBase50|Product Desc: Autodesk Architectural Desktop 2007 |Company: Autodesk,Inc. |WEB Address: www.autodesk.com
 90
      129
280
     0
281
     0
  0
CLASS
  1
AEC_AECDBDISPREPCURTAINWALLLAYOUTPLAN100
  2
AecDbDispRepCurtainWallLayoutPlan100
  3
AecArchDACHBase50|Product Desc: Autodesk Architectural Desktop 2007 |Company: Autodesk,Inc. |WEB Address: www.autodesk.com
 90
      129
280
     0
281
     0
  0
CLASS
  1
AEC_AECDBDISPREPCURTAINWALLUNITPLAN100
  2
AecDbDispRepCurtainWallUnitPlan100
  3
AecArchDACHBase50|Product Desc: Autodesk Architectural Desktop 2007 |Company: Autodesk,Inc. |WEB Address: www.autodesk.com
 90
      129
280
     0
281
     0
  0
CLASS
  1
AEC_AECDBDISPREPMVBLOCKREFPLAN100
  2
AecDbDispRepMvBlockRefPlan100
  3
AecArchDACHBase50|Product Desc: Autodesk Architectural Desktop 2007 |Company: Autodesk,Inc. |WEB Address: www.autodesk.com
 90
      129
280
     0
281
     0
  0
CLASS
  1
AEC_AECDBDISPREPROOFPLAN100
  2
AecDbDispRepRoofPlan100
  3
AecArchDACHBase50|Product Desc: Autodesk Architectural Desktop 2007 |Company: Autodesk,Inc. |WEB Address: www.autodesk.com
 90
      129
280
     0
281
     0
  0
CLASS
  1
AEC_AECDBDISPREPROOFSLABPLAN100
  2
AecDbDispRepRoofSlabPlan100
  3
AecArchDACHBase50|Product Desc: Autodesk Architectural Desktop 2007 |Company: Autodesk,Inc. |WEB Address: www.autodesk.com
 90
      129
280
     0
281
     0
  0
CLASS
  1
AEC_AECDBDISPREPSLABPLAN100
  2
AecDbDispRepSlabPlan100
  3
AecArchDACHBase50|Product Desc: Autodesk Architectural Desktop 2007 |Company: Autodesk,Inc. |WEB Address: www.autodesk.com
 90
      129
280
     0
281
     0
  0
CLASS
  1
AEC_AECDBDISPREPSPACEBOUNDARYPLAN100
  2
AecDbDispRepSpaceBoundaryPlan100
  3
AecArchDACHBase50|Product Desc: Autodesk Architectural Desktop 2007 |Company: Autodesk,Inc. |WEB Address: www.autodesk.com
 90
    32897
280
     0
281
     0
  0
CLASS
  1
AEC_AECDBDISPREPSPACEPLAN100
  2
AecDbDispRepSpacePlan100
  3
AecArchDACHBase50|Product Desc: Autodesk Architectural Desktop 2007 |Company: Autodesk,Inc. |WEB Address: www.autodesk.com
 90
      129
280
     0
281
     0
  0
CLASS
  1
AEC_AECDBDISPREPWALLPLAN100
  2
AecDbDispRepWallPlan100
  3
AecArchDACHBase50|Product Desc: Autodesk Architectural Desktop 2007 |Company: Autodesk,Inc. |WEB Address: www.autodesk.com
 90
      129
280
     0
281
     0
  0
CLASS
  1
AEC_AECDBDISPREPAREA50
  2
AecDbDispRepArea50
  3
AecArchDACHBase50|Product Desc: Autodesk Architectural Desktop 2007 |Company: Autodesk,Inc. |WEB Address: www.autodesk.com
 90
    32897
280
     0
281
     0
  0
CLASS
  1
AEC_AECDBDISPREPAREAGROUP50
  2
AecDbDispRepAreaGroup50
  3
AecArchDACHBase50|Product Desc: Autodesk Architectural Desktop 2007 |Company: Autodesk,Inc. |WEB Address: www.autodesk.com
 90
    32897
280
     0
281
     0
  0
CLASS
  1
AEC_AECDBDISPREPBDGELEVLINEPLAN50
  2
AecDbDispRepBdgElevLinePlan50
  3
AecArchDACHBase50|Product Desc: Autodesk Architectural Desktop 2007 |Company: Autodesk,Inc. |WEB Address: www.autodesk.com
 90
      129
280
     0
281
     0
  0
CLASS
  1
AEC_AECDBDISPREPBDGSECTIONLINEPLAN50
  2
AecDbDispRepBdgSectionLinePlan50
  3
AecArchDACHBase50|Product Desc: Autodesk Architectural Desktop 2007 |Company: Autodesk,Inc. |WEB Address: www.autodesk.com
 90
      129
280
     0
281
     0
  0
CLASS
  1
AEC_AECDBDISPREPCEILINGGRIDPLAN50
  2
AecDbDispRepCeilingGridPlan50
  3
AecArchDACHBase50|Product Desc: Autodesk Architectural Desktop 2007 |Company: Autodesk,Inc. |WEB Address: www.autodesk.com
 90
      129
280
     0
281
     0
  0
CLASS
  1
AEC_AECDBDISPREPCOLUMNGRIDPLAN50
  2
AecDbDispRepColumnGridPlan50
  3
AecArchDACHBase50|Product Desc: Autodesk Architectural Desktop 2007 |Company: Autodesk,Inc. |WEB Address: www.autodesk.com
 90
      129
280
     0
281
     0
  0
CLASS
  1
AEC_AECDBDISPREPCURTAINWALLLAYOUTPLAN50
  2
AecDbDispRepCurtainWallLayoutPlan50
  3
AecArchDACHBase50|Product Desc: Autodesk Architectural Desktop 2007 |Company: Autodesk,Inc. |WEB Address: www.autodesk.com
 90
      129
280
     0
281
     0
  0
CLASS
  1
AEC_AECDBDISPREPCURTAINWALLUNITPLAN50
  2
AecDbDispRepCurtainWallUnitPlan50
  3
AecArchDACHBase50|Product Desc: Autodesk Architectural Desktop 2007 |Company: Autodesk,Inc. |WEB Address: www.autodesk.com
 90
      129
280
     0
281
     0
  0
CLASS
  1
AEC_AECDBDISPREPMVBLOCKREFPLAN50
  2
AecDbDispRepMvBlockRefPlan50
  3
AecArchDACHBase50|Product Desc: Autodesk Architectural Desktop 2007 |Company: Autodesk,Inc. |WEB Address: www.autodesk.com
 90
      129
280
     0
281
     0
  0
CLASS
  1
AEC_AECDBDISPREPROOFPLAN50
  2
AecDbDispRepRoofPlan50
  3
AecArchDACHBase50|Product Desc: Autodesk Architectural Desktop 2007 |Company: Autodesk,Inc. |WEB Address: www.autodesk.com
 90
      129
280
     0
281
     0
  0
CLASS
  1
AEC_AECDBDISPREPROOFSLABPLAN50
  2
AecDbDispRepRoofSlabPlan50
  3
AecArchDACHBase50|Product Desc: Autodesk Architectural Desktop 2007 |Company: Autodesk,Inc. |WEB Address: www.autodesk.com
 90
      129
280
     0
281
     0
  0
CLASS
  1
AEC_AECDBDISPREPSLABPLAN50
  2
AecDbDispRepSlabPlan50
  3
AecArchDACHBase50|Product Desc: Autodesk Architectural Desktop 2007 |Company: Autodesk,Inc. |WEB Address: www.autodesk.com
 90
      129
280
     0
281
     0
  0
CLASS
  1
AEC_AECDBDISPREPSPACEBOUNDARYPLAN50
  2
AecDbDispRepSpaceBoundaryPlan50
  3
AecArchDACHBase50|Product Desc: Autodesk Architectural Desktop 2007 |Company: Autodesk,Inc. |WEB Address: www.autodesk.com
 90
    32897
280
     0
281
     0
  0
CLASS
  1
AEC_AECDBDISPREPSPACEPLAN50
  2
AecDbDispRepSpacePlan50
  3
AecArchDACHBase50|Product Desc: Autodesk Architectural Desktop 2007 |Company: Autodesk,Inc. |WEB Address: www.autodesk.com
 90
      129
280
     0
281
     0
  0
CLASS
  1
AEC_AECDBDISPREPWALLPLAN50
  2
AecDbDispRepWallPlan50
  3
AecArchDACHBase50|Product Desc: Autodesk Architectural Desktop 2007 |Company: Autodesk,Inc. |WEB Address: www.autodesk.com
 90
      129
280
     0
281
     0
  0
CLASS
  1
AEC_AECDBDISPREPWINDOWASSEMBLYPLAN50
  2
AecDbDispRepWindowAssemblyPlan50
  3
AecArchDACHBase50|Product Desc: Autodesk Architectural Desktop 2007 |Company: Autodesk,Inc. |WEB Address: www.autodesk.com
 90
      129
280
     0
281
     0
  0
CLASS
  1
AEC_DB_DISP_REP_DIM_GROUP_PLAN100
  2
AecDbDispRepDimGroupPlan100
  3
AecArchDACHBase50|Product Desc: Autodesk Architectural Desktop 2007 |Company: Autodesk,Inc. |WEB Address: www.autodesk.com
 90
      129
280
     0
281
     0
  0
CLASS
  1
AEC_DB_DISP_REP_DIM_GROUP_PLAN50
  2
AecDbDispRepDimGroupPlan50
  3
AecArchDACHBase50|Product Desc: Autodesk Architectural Desktop 2007 |Company: Autodesk,Inc. |WEB Address: www.autodesk.com
 90
      129
280
     0
281
     0
  0
CLASS
  1
AEC_DISP_REP_DOOR_PLAN_50
  2
AecDbDispRepDoorPlan50
  3
AecArchDACHBase50|Product Desc: Autodesk Architectural Desktop 2007 |Company: Autodesk,Inc. |WEB Address: www.autodesk.com
 90
      129
280
     0
281
     0
  0
CLASS
  1
AEC_DISP_PROPS_DOOR_PLAN_50
  2
AecDbDispPropsDoorPlan50
  3
AecArchDACHBase50|Product Desc: Autodesk Architectural Desktop 2007 |Company: Autodesk,Inc. |WEB Address: www.autodesk.com
 90
      129
280
     0
281
     0
  0
CLASS
  1
AEC_DISP_REP_DOOR_PLAN_HEKTO
  2
AecDbDispRepDoorPlanHekto
  3
AecArchDACHBase50|Product Desc: Autodesk Architectural Desktop 2007 |Company: Autodesk,Inc. |WEB Address: www.autodesk.com
 90
      129
280
     0
281
     0
  0
CLASS
  1
AEC_DISP_PROPS_DOOR_PLAN_100
  2
AecDbDispPropsDoorPlan100
  3
AecArchDACHBase50|Product Desc: Autodesk Architectural Desktop 2007 |Company: Autodesk,Inc. |WEB Address: www.autodesk.com
 90
      129
280
     0
281
     0
  0
CLASS
  1
AEC_DISP_REP_DOOR_THRESHOLD_SYMBOL_PLAN
  2
AecDbDispRepDoorThresholdSymbolPlan
  3
AecArchDACHBase50|Product Desc: Autodesk Architectural Desktop 2007 |Company: Autodesk,Inc. |WEB Address: www.autodesk.com
 90
      129
280
     0
281
     0
  0
CLASS
  1
AEC_DISP_PROPS_DOOR_THRESHOLD_SYMBOL_PLAN
  2
AecDbDispPropsDoorThresholdSymbolPlan
  3
AecArchDACHBase50|Product Desc: Autodesk Architectural Desktop 2007 |Company: Autodesk,Inc. |WEB Address: www.autodesk.com
 90
      129
280
     0
281
     0
  0
CLASS
  1
AEC_DISPREPAECDBDISPREPMASSELEMPLAN100
  2
AecDbDispRepMassElemPlan100
  3
AecArchDACHBase50|Product Desc: Autodesk Architectural Desktop 2007 |Company: Autodesk,Inc. |WEB Address: www.autodesk.com
 90
      129
280
     0
281
     0
  0
CLASS
  1
AEC_DISPROPSMASSELEMPLANCOMMON
  2
AecDbDispPropsMassElemPlanCommon
  3
AecArchDACHBase50|Product Desc: Autodesk Architectural Desktop 2007 |Company: Autodesk,Inc. |WEB Address: www.autodesk.com
 90
      129
280
     0
281
     0
  0
CLASS
  1
AEC_DISPREPAECDBDISPREPMASSELEMPLAN50
  2
AecDbDispRepMassElemPlan50
  3
AecArchDACHBase50|Product Desc: Autodesk Architectural Desktop 2007 |Company: Autodesk,Inc. |WEB Address: www.autodesk.com
 90
      129
280
     0
281
     0
  0
CLASS
  1
AEC_DISPREPAECDBDISPREPMASSGROUPPLAN100
  2
AecDbDispRepMassGroupPlan100
  3
AecArchDACHBase50|Product Desc: Autodesk Architectural Desktop 2007 |Company: Autodesk,Inc. |WEB Address: www.autodesk.com
 90
      129
280
     0
281
     0
  0
CLASS
  1
AEC_DISPROPSMASSGROUPPLANCOMMON
  2
AecDbDispPropsMassGroupPlanCommon
  3
AecArchDACHBase50|Product Desc: Autodesk Architectural Desktop 2007 |Company: Autodesk,Inc. |WEB Address: www.autodesk.com
 90
      129
280
     0
281
     0
  0
CLASS
  1
AEC_DISPREPAECDBDISPREPMASSGROUPPLAN50
  2
AecDbDispRepMassGroupPlan50
  3
AecArchDACHBase50|Product Desc: Autodesk Architectural Desktop 2007 |Company: Autodesk,Inc. |WEB Address: www.autodesk.com
 90
      129
280
     0
281
     0
  0
CLASS
  1
AEC_DISPREPAECDBDISPREPOPENINGPLAN100
  2
AecDbDispRepOpeningPlan100
  3
AecArchDACHBase50|Product Desc: Autodesk Architectural Desktop 2007 |Company: Autodesk,Inc. |WEB Address: www.autodesk.com
 90
      129
280
     0
281
     0
  0
CLASS
  1
AEC_DISPROPSOPENINGPLANCOMMONHATCHED
  2
AecDbDispPropsOpeningPlanCommonHatched
  3
AecArchDACHBase50|Product Desc: Autodesk Architectural Desktop 2007 |Company: Autodesk,Inc. |WEB Address: www.autodesk.com
 90
      129
280
     0
281
     0
  0
CLASS
  1
AEC_DISPREPAECDBDISPREPOPENINGPLAN50
  2
AecDbDispRepOpeningPlan50
  3
AecArchDACHBase50|Product Desc: Autodesk Architectural Desktop 2007 |Company: Autodesk,Inc. |WEB Address: www.autodesk.com
 90
      129
280
     0
281
     0
  0
CLASS
  1
AEC_DISPREPAECDBDISPREPOPENINGPLANREFLECTED
  2
AecDbDispRepOpeningPlanReflected
  3
AecArchDACHBase50|Product Desc: Autodesk Architectural Desktop 2007 |Company: Autodesk,Inc. |WEB Address: www.autodesk.com
 90
      129
280
     0
281
     0
  0
CLASS
  1
AEC_DISPROPSOPENINGPLANCOMMON
  2
AecDbDispPropsOpeningPlanCommon
  3
AecArchDACHBase50|Product Desc: Autodesk Architectural Desktop 2007 |Company: Autodesk,Inc. |WEB Address: www.autodesk.com
 90
      129
280
     0
281
     0
  0
CLASS
  1
AEC_DISPREPAECDBDISPREPOPENINGSILLPLAN
  2
AecDbDispRepOpeningSillPlan
  3
AecArchDACHBase50|Product Desc: Autodesk Architectural Desktop 2007 |Company: Autodesk,Inc. |WEB Address: www.autodesk.com
 90
      129
280
     0
281
     0
  0
CLASS
  1
AEC_DISPROPSOPENINGSILLPLAN
  2
AecDbDispPropsOpeningSillPlan
  3
AecArchDACHBase50|Product Desc: Autodesk Architectural Desktop 2007 |Company: Autodesk,Inc. |WEB Address: www.autodesk.com
 90
      129
280
     0
281
     0
  0
CLASS
  1
AEC_DISP_REP_RAILING_PLAN_100
  2
AecDbDispRepRailingPlan100
  3
AecArchDACHBase50|Product Desc: Autodesk Architectural Desktop 2007 |Company: Autodesk,Inc. |WEB Address: www.autodesk.com
 90
      129
280
     0
281
     0
  0
CLASS
  1
AEC_DISP_ROPS_RAILING_PLAN_100
  2
AecDbDispPropsRailingPlan100
  3
AecArchDACHBase50|Product Desc: Autodesk Architectural Desktop 2007 |Company: Autodesk,Inc. |WEB Address: www.autodesk.com
 90
      129
280
     0
281
     0
  0
CLASS
  1
AEC_DISP_REP_RAILING_PLAN_50
  2
AecDbDispRepRailingPlan50
  3
AecArchDACHBase50|Product Desc: Autodesk Architectural Desktop 2007 |Company: Autodesk,Inc. |WEB Address: www.autodesk.com
 90
      129
280
     0
281
     0
  0
CLASS
  1
AEC_DISP_ROPS_RAILING_PLAN_50
  2
AecDbDispPropsRailingPlan50
  3
AecArchDACHBase50|Product Desc: Autodesk Architectural Desktop 2007 |Company: Autodesk,Inc. |WEB Address: www.autodesk.com
 90
      129
280
     0
281
     0
  0
CLASS
  1
AEC_DISP_REP_STAIR_PLAN_100
  2
AecDbDispRepStairPlan100
  3
AecArchDACHBase50|Product Desc: Autodesk Architectural Desktop 2007 |Company: Autodesk,Inc. |WEB Address: www.autodesk.com
 90
      129
280
     0
281
     0
  0
CLASS
  1
AEC_DISP_ROPS_STAIR_PLAN_100
  2
AecDbDispPropsStairPlan100
  3
AecArchDACHBase50|Product Desc: Autodesk Architectural Desktop 2007 |Company: Autodesk,Inc. |WEB Address: www.autodesk.com
 90
      129
280
     0
281
     0
  0
CLASS
  1
AEC_DISP_REP_STAIR_PLAN_50
  2
AecDbDispRepStairPlan50
  3
AecArchDACHBase50|Product Desc: Autodesk Architectural Desktop 2007 |Company: Autodesk,Inc. |WEB Address: www.autodesk.com
 90
      129
280
     0
281
     0
  0
CLASS
  1
AEC_DISP_ROPS_STAIR_PLAN_50
  2
AecDbDispPropsStairPlan50
  3
AecArchDACHBase50|Product Desc: Autodesk Architectural Desktop 2007 |Company: Autodesk,Inc. |WEB Address: www.autodesk.com
 90
      129
280
     0
281
     0
  0
CLASS
  1
AEC_DISP_REP_WINDOW_PLAN_100
  2
AecDbDispRepWindowPlan100
  3
AecArchDACHBase50|Product Desc: Autodesk Architectural Desktop 2007 |Company: Autodesk,Inc. |WEB Address: www.autodesk.com
 90
      129
280
     0
281
     0
  0
CLASS
  1
AEC_DISP_PROPS_WINDOW_PLAN_100
  2
AecDbDispPropsWindowPlan100
  3
AecArchDACHBase50|Product Desc: Autodesk Architectural Desktop 2007 |Company: Autodesk,Inc. |WEB Address: www.autodesk.com
 90
      129
280
     0
281
     0
  0
CLASS
  1
AEC_DISP_REP_WINDOW_PLAN_50
  2
AecDbDispRepWindowPlan50
  3
AecArchDACHBase50|Product Desc: Autodesk Architectural Desktop 2007 |Company: Autodesk,Inc. |WEB Address: www.autodesk.com
 90
      129
280
     0
281
     0
  0
CLASS
  1
AEC_DISP_PROPS_WINDOW_PLAN_50
  2
AecDbDispPropsWindowPlan50
  3
AecArchDACHBase50|Product Desc: Autodesk Architectural Desktop 2007 |Company: Autodesk,Inc. |WEB Address: www.autodesk.com
 90
      129
280
     0
281
     0
  0
CLASS
  1
BINRECORD
  2
AcAecBinRecord
  3
AecBase50|Product Desc: Autodesk Architectural Desktop 2007 |Company: Autodesk,Inc. |WEB Address: www.autodesk.com
 90
    32897
280
     0
281
     0
  0
CLASS
  1
SORTENTSTABLE
  2
AcDbSortentsTable
  3
ObjectDBX Classes
 90
        0
280
     0
281
     0
  0
CLASS
  1
AEC_MASS_ELEM
  2
AecDbMassElem
  3
AecBaseEx50|Product Desc: Autodesk Architectural Desktop 2007 |Company: Autodesk,Inc. |WEB Address: www.autodesk.com
 90
    33661
280
     0
281
     1
  0
CLASS
  1
MATERIAL
  2
AcDbMaterial
  3
ObjectDBX Classes
 90
     1153
280
     0
281
     0
  0
CLASS
  1
AECS_MEMBER
  2
AecsDbMember
  3
AecStructureBase50|Product Desc: Autodesk Architectural Desktop 2007 |Company: Autodesk,Inc. |WEB Address: www.autodesk.com
 90
    33661
280
     0
281
     1
  0
CLASS
  1
AEC_WALL
  2
AecDbWall
  3
AecArchBase50|Product Desc: Autodesk Architectural Desktop 2007 |Company: Autodesk,Inc. |WEB Address: www.autodesk.com
 90
    33661
280
     0
281
     1
  0
CLASS
  1
AEC_DOOR
  2
AecDbDoor
  3
AecArchBase50|Product Desc: Autodesk Architectural Desktop 2007 |Company: Autodesk,Inc. |WEB Address: www.autodesk.com
 90
    33661
280
     0
281
     1
  0
CLASS
  1
AEC_ANCHOR_OPENINGBASE_TO_WALL
  2
AecDbAnchorOpeningBaseToWall
  3
AecArchBase50|Product Desc: Autodesk Architectural Desktop 2007 |Company: Autodesk,Inc. |WEB Address: www.autodesk.com
 90
    32897
280
     0
281
     0
  0
CLASS
  1
AEC_SPACE_BOUNDARY
  2
AecDbSpaceBoundary
  3
AecArchBase50|Product Desc: Autodesk Architectural Desktop 2007 |Company: Autodesk,Inc. |WEB Address: www.autodesk.com
 90
    33661
280
     0
281
     1
  0
CLASS
  1
AEC_SPACE
  2
AecDbSpace
  3
AecArchBase50|Product Desc: Autodesk Architectural Desktop 2007 |Company: Autodesk,Inc. |WEB Address: www.autodesk.com
 90
      893
280
     0
281
     1
  0
CLASS
  1
AecDbPropertySet
  2
AecDbPropertySet
  3
AecScheduleData50|Product Desc: Autodesk Architectural Desktop 2007 |Company: Autodesk,Inc. |WEB Address: www.autodesk.com
 90
      129
280
     0
281
     0
  0
CLASS
  1
AEC_MVBLOCK_REF
  2
AecDbMvBlockRef
  3
AecBase50|Product Desc: Autodesk Architectural Desktop 2007 |Company: Autodesk,Inc. |WEB Address: www.autodesk.com
 90
    33661
280
     0
281
     1
  0
CLASS
  1
AEC_ANCHOR_TAG_TO_ENT
  2
AecDbAnchorTagToEnt
  3
AecScheduleData50|Product Desc: Autodesk Architectural Desktop 2007 |Company: Autodesk,Inc. |WEB Address: www.autodesk.com
 90
    32897
280
     0
281
     0
  0
CLASS
  1
AEC_WINDOW
  2
AecDbWindow
  3
AecArchBase50|Product Desc: Autodesk Architectural Desktop 2007 |Company: Autodesk,Inc. |WEB Address: www.autodesk.com
 90
    33661
280
     0
281
     1
  0
CLASS
  1
AEC_OPENING
  2
AecDbOpening
  3
AecArchBase50|Product Desc: Autodesk Architectural Desktop 2007 |Company: Autodesk,Inc. |WEB Address: www.autodesk.com
 90
    33661
280
     0
281
     1
  0
CLASS
  1
AEC_CLASSIFICATION_SYSTEM_DEF
  2
AecDbClassificationSystemDef
  3
AecBase50|Product Desc: Autodesk Architectural Desktop 2007 |Company: Autodesk,Inc. |WEB Address: www.autodesk.com
 90
    32897
280
     0
281
     0
  0
CLASS
  1
AEC_CLASSIFICATION_DEF
  2
AecDbClassificationDef
  3
AecBase50|Product Desc: Autodesk Architectural Desktop 2007 |Company: Autodesk,Inc. |WEB Address: www.autodesk.com
 90
    32897
280
     0
281
     0
  0
CLASS
  1
AEC_CLEANUP_GROUP_DEF
  2
AecDbCleanupGroupDef
  3
AecArchBase50|Product Desc: Autodesk Architectural Desktop 2007 |Company: Autodesk,Inc. |WEB Address: www.autodesk.com
 90
      129
280
     0
281
     0
  0
CLASS
  1
AEC_DOOR_STYLE
  2
AecDbDoorStyle
  3
AecArchBase50|Product Desc: Autodesk Architectural Desktop 2007 |Company: Autodesk,Inc. |WEB Address: www.autodesk.com
 90
    32897
280
     0
281
     0
  0
CLASS
  1
AEC_STDSIZE_OPENINGS
  2
AecDbStdSizeOpeningList
  3
AecArchBase50|Product Desc: Autodesk Architectural Desktop 2007 |Company: Autodesk,Inc. |WEB Address: www.autodesk.com
 90
    32897
280
     0
281
     0
  0
CLASS
  1
AEC_ENDCAP_STYLE
  2
AecDbEndcapStyle
  3
AecArchBase50|Product Desc: Autodesk Architectural Desktop 2007 |Company: Autodesk,Inc. |WEB Address: www.autodesk.com
 90
      129
280
     0
281
     0
  0
CLASS
  1
AEC_MASS_ELEM_STYLE
  2
AecDbMassElemStyle
  3
AecBaseEx50|Product Desc: Autodesk Architectural Desktop 2007 |Company: Autodesk,Inc. |WEB Address: www.autodesk.com
 90
    32897
280
     0
281
     0
  0
CLASS
  1
AEC_MATERIAL_DEF
  2
AecDbMaterialDef
  3
AecBase50|Product Desc: Autodesk Architectural Desktop 2007 |Company: Autodesk,Inc. |WEB Address: www.autodesk.com
 90
      129
280
     0
281
     0
  0
CLASS
  1
AEC_MVBLOCK_DEF
  2
AecDbMvBlockDef
  3
AecBase50|Product Desc: Autodesk Architectural Desktop 2007 |Company: Autodesk,Inc. |WEB Address: www.autodesk.com
 90
      129
280
     0
281
     0
  0
CLASS
  1
AEC_FRAME_DEF
  2
AecDbOpeningEndcapStyle
  3
AecArchBase50|Product Desc: Autodesk Architectural Desktop 2007 |Company: Autodesk,Inc. |WEB Address: www.autodesk.com
 90
      129
280
     0
281
     0
  0
CLASS
  1
AEC_PROFILE_DEF
  2
AecDbProfileDef
  3
AecBase50|Product Desc: Autodesk Architectural Desktop 2007 |Company: Autodesk,Inc. |WEB Address: www.autodesk.com
 90
    32897
280
     0
281
     0
  0
CLASS
  1
AEC_SCHEDULE_DATA_FORMAT
  2
AecDbScheduleDataFormat
  3
AecScheduleData50|Product Desc: Autodesk Architectural Desktop 2007 |Company: Autodesk,Inc. |WEB Address: www.autodesk.com
 90
      129
280
     0
281
     0
  0
CLASS
  1
AEC_PROPERTY_SET_DEF
  2
AecDbPropertySetDef
  3
AecScheduleData50|Product Desc: Autodesk Architectural Desktop 2007 |Company: Autodesk,Inc. |WEB Address: www.autodesk.com
 90
      129
280
     0
281
     0
  0
CLASS
  1
AEC_SPACE_STYLES
  2
AecDbSpaceStyle
  3
AecArchBase50|Product Desc: Autodesk Architectural Desktop 2007 |Company: Autodesk,Inc. |WEB Address: www.autodesk.com
 90
      129
280
     0
281
     0
  0
CLASS
  1
AEC_TEXT_NOTE
  2
AecDbTextNote
  3
AecBase50|Product Desc: Autodesk Architectural Desktop 2007 |Company: Autodesk,Inc. |WEB Address: www.autodesk.com
 90
    32897
280
     0
281
     0
  0
CLASS
  1
AECS_MEMBER_STYLE
  2
AecsDbMemberStyle
  3
AecStructureBase50|Product Desc: Autodesk Architectural Desktop 2007 |Company: Autodesk,Inc. |WEB Address: www.autodesk.com
 90
    32897
280
     0
281
     0
  0
CLASS
  1
AEC_VARS_STRUCTUREBASE
  2
AecsDbVarsStructureBase
  3
AecStructureBase50|Product Desc: Autodesk Architectural Desktop 2007 |Company: Autodesk,Inc. |WEB Address: www.autodesk.com
 90
      129
280
     0
281
     0
  0
CLASS
  1
AEC_WALL_STYLE
  2
AecDbWallStyle
  3
AecArchBase50|Product Desc: Autodesk Architectural Desktop 2007 |Company: Autodesk,Inc. |WEB Address: www.autodesk.com
 90
      129
280
     0
281
     0
  0
CLASS
  1
AEC_WINDOW_STYLE
  2
AecDbWindowStyle
  3
AecArchBase50|Product Desc: Autodesk Architectural Desktop 2007 |Company: Autodesk,Inc. |WEB Address: www.autodesk.com
 90
    32897
280
     0
281
     0
  0
CLASS
  1
AECS_MEMBER_NODE_SHAPE
  2
AecsDbMemberNodeShape
  3
AecStructureBase50|Product Desc: Autodesk Architectural Desktop 2007 |Company: Autodesk,Inc. |WEB Address: www.autodesk.com
 90
    32897
280
     0
281
     0
  0
CLASS
  1
AEC_SCHEDULE_TABLE
  2
AecDbScheduleTable
  3
AecSchedule50|Product Desc: Autodesk Architectural Desktop 2007 |Company: Autodesk,Inc. |WEB Address: www.autodesk.com
 90
    33661
280
     0
281
     1
  0
CLASS
  1
AEC_SCHEDULE_TABLE_STYLE
  2
AecDbScheduleTableStyle
  3
AecSchedule50|Product Desc: Autodesk Architectural Desktop 2007 |Company: Autodesk,Inc. |WEB Address: www.autodesk.com
 90
      129
280
     0
281
     0
  0
CLASS
  1
AEC_ANCHOR_MVB_TO_UCS
  2
AecDbAnchorMVBToUCS
  3
AecBase50|Product Desc: Autodesk Architectural Desktop 2007 |Company: Autodesk,Inc. |WEB Address: www.autodesk.com
 90
    32897
280
     0
281
     0
  0
CLASS
  1
IMAGEDEF
  2
AcDbRasterImageDef
  3
ISM
 90
    32768
280
     0
281
     0
  0
CLASS
  1
AEC_ANCHOR_ENT_TO_GRID_ASSEMBLY
  2
AecDbAnchorEntToGridAssembly
  3
AecBase50|Product Desc: Autodesk Architectural Desktop 2007 |Company: Autodesk,Inc. |WEB Address: www.autodesk.com
 90
    32897
280
     0
281
     0
  0
CLASS
  1
AEC_WINDOW_ASSEMBLY
  2
AecDbWindowAssembly
  3
AecArchBase50|Product Desc: Autodesk Architectural Desktop 2007 |Company: Autodesk,Inc. |WEB Address: www.autodesk.com
 90
    33661
280
     0
281
     1
  0
CLASS
  1
AEC_ANCHOR_WINASSEMBLY_TO_WALL
  2
AecDbAnchorWinAssemblyToWall
  3
AecArchBase50|Product Desc: Autodesk Architectural Desktop 2007 |Company: Autodesk,Inc. |WEB Address: www.autodesk.com
 90
    32897
280
     0
281
     0
  0
CLASS
  1
AEC_STAIR
  2
AecDbStair
  3
AecArchBase50|Product Desc: Autodesk Architectural Desktop 2007 |Company: Autodesk,Inc. |WEB Address: www.autodesk.com
 90
    33661
280
     0
281
     1
  0
CLASS
  1
AEC_RAILING
  2
AecDbRailing
  3
AecArchBase50|Product Desc: Autodesk Architectural Desktop 2007 |Company: Autodesk,Inc. |WEB Address: www.autodesk.com
 90
    33661
280
     0
281
     1
  0
CLASS
  1
AEC_ANCHOR_RAILING_TO_STAIR
  2
AecDbAnchorRailingToStair
  3
AecArchBase50|Product Desc: Autodesk Architectural Desktop 2007 |Company: Autodesk,Inc. |WEB Address: www.autodesk.com
 90
    32897
280
     0
281
     0
  0
CLASS
  1
AEC_RAILING_STYLE
  2
AecDbRailingStyle
  3
AecArchBase50|Product Desc: Autodesk Architectural Desktop 2007 |Company: Autodesk,Inc. |WEB Address: www.autodesk.com
 90
    32897
280
     0
281
     0
  0
CLASS
  1
AEC_STAIR_STYLE
  2
AecDbStairStyle
  3
AecArchBase50|Product Desc: Autodesk Architectural Desktop 2007 |Company: Autodesk,Inc. |WEB Address: www.autodesk.com
 90
    32897
280
     0
281
     0
  0
CLASS
  1
AEC_STAIR_WINDER_STYLE
  2
AecDbStairWinderStyle
  3
AecArchBase50|Product Desc: Autodesk Architectural Desktop 2007 |Company: Autodesk,Inc. |WEB Address: www.autodesk.com
 90
    32897
280
     0
281
     0
  0
CLASS
  1
AEC_STAIR_WINDER_TYPE_SINGLE_POINT
  2
AecDbStairWinderTypeSinglePoint
  3
AecArchBase50|Product Desc: Autodesk Architectural Desktop 2007 |Company: Autodesk,Inc. |WEB Address: www.autodesk.com
 90
    32897
280
     0
281
     0
  0
CLASS
  1
AEC_WINDOW_ASSEMBLY_STYLE
  2
AecDbWindowAssemblyStyle
  3
AecArchBase50|Product Desc: Autodesk Architectural Desktop 2007 |Company: Autodesk,Inc. |WEB Address: www.autodesk.com
 90
    32897
280
     0
281
     0
  0
CLASS
  1
AEC_AECDBAREASTYLE
  2
AecDbAreaStyle
  3
AecAreaCalculationBase50|Product Desc: Autodesk Architectural Desktop 2007 |Company: Autodesk,Inc. |WEB Address: www.autodesk.com
 90
    32897
280
     0
281
     0
  0
CLASS
  1
AEC_AECDBAREAPROPOSALNAMES
  2
AecDbAreaProposalNames
  3
AecAreaCalculationBase50|Product Desc: Autodesk Architectural Desktop 2007 |Company: Autodesk,Inc. |WEB Address: www.autodesk.com
 90
    32897
280
     0
281
     0
  0
CLASS
  1
AEC_AREA
  2
AecDbArea
  3
AecAreaCalculationBase50|Product Desc: Autodesk Architectural Desktop 2007 |Company: Autodesk,Inc. |WEB Address: www.autodesk.com
 90
    33661
280
     0
281
     1
  0
CLASS
  1
OBJECT_PTR
  2
CAseDLPNTableRecord
  3
ASE-LPNTableRecord
 90
    32769
280
     1
281
     0
  0
CLASS
  1
TABLESTYLE
  2
AcDbTableStyle
  3
ObjectDBX Classes
 90
     4095
280
     0
281
     0
  0
CLASS
  1
AEC_DISP_REP_DISPLAYTHEME
  2
AecDbDispRepDisplayTheme
  3
AecBase50|Product Desc: Autodesk Architectural Desktop 2007 |Company: Autodesk,Inc. |WEB Address: www.autodesk.com
 90
      129
280
     0
281
     0
  0
CLASS
  1
AEC_DISP_PROPS_DISPLAYTHEME
  2
AecDbDispPropsDisplayTheme
  3
AecBase50|Product Desc: Autodesk Architectural Desktop 2007 |Company: Autodesk,Inc. |WEB Address: www.autodesk.com
 90
      129
280
     0
281
     0
  0
CLASS
  1
AEC_DISP_REP_ANCHOR_EXT_TAG_TO_ENT
  2
AecDbDispRepAnchorExtendedTagToEnt
  3
AecScheduleData50|Product Desc: Autodesk Architectural Desktop 2007 |Company: Autodesk,Inc. |WEB Address: www.autodesk.com
 90
      129
280
     0
281
     0
  0
CLASS
  1
VISUALSTYLE
  2
AcDbVisualStyle
  3
ObjectDBX Classes
 90
     4095
280
     0
281
     0
  0
CLASS
  1
AEC_AECDBDISPREPZONE100
  2
AecDbDispRepZonePlan100
  3
AecArchDACHBase50|Product Desc: Autodesk Architectural Desktop 2007 |Company: Autodesk,Inc. |WEB Address: www.autodesk.com
 90
      129
280
     0
281
     0
  0
CLASS
  1
AEC_DISP_PROPS_ZONE
  2
AecDbDispPropsZone
  3
AecArchBase50|Product Desc: Autodesk Architectural Desktop 2007 |Company: Autodesk,Inc. |WEB Address: www.autodesk.com
 90
      129
280
     0
281
     0
  0
CLASS
  1
AEC_AECDBDISPREPZONE50
  2
AecDbDispRepZonePlan50
  3
AecArchDACHBase50|Product Desc: Autodesk Architectural Desktop 2007 |Company: Autodesk,Inc. |WEB Address: www.autodesk.com
 90
      129
280
     0
281
     0
  0
CLASS
  1
AEC_DISP_REP_SPACE_DECOMPOSED
  2
AecDbDispRepSpaceDecomposed
  3
AecArchBase50|Product Desc: Autodesk Architectural Desktop 2007 |Company: Autodesk,Inc. |WEB Address: www.autodesk.com
 90
      129
280
     0
281
     0
  0
CLASS
  1
AEC_DISP_PROPS_SPACE_DECOMPOSED
  2
AecDbDispPropsSpaceDecomposed
  3
AecArchBase50|Product Desc: Autodesk Architectural Desktop 2007 |Company: Autodesk,Inc. |WEB Address: www.autodesk.com
 90
      129
280
     0
281
     0
  0
CLASS
  1
AEC_DISP_REP_ZONE
  2
AecDbDispRepZone
  3
AecArchBase50|Product Desc: Autodesk Architectural Desktop 2007 |Company: Autodesk,Inc. |WEB Address: www.autodesk.com
 90
      129
280
     0
281
     0
  0
CLASS
  1
AEC_LIST_DEF
  2
AecDbListDefinition
  3
AecBase50|Product Desc: Autodesk Architectural Desktop 2007 |Company: Autodesk,Inc. |WEB Address: www.autodesk.com
 90
      129
280
     0
281
     0
  0
CLASS
  1
EXACXREFPANELOBJECT
  2
ExAcXREFPanelObject
  3
EXAC_ESW
 90
    33793
280
     1
281
     0
  0
CLASS
  1
NPOCOLLECTION
  2
AcDbImpNonPersistentObjectsCollection
  3
ObjectDBX Classes
 90
     1153
280
     0
281
     0
  0
CLASS
  1
ACAD_EVALUATION_GRAPH
  2
AcDbEvalGraph
  3
ObjectDBX Classes
 90
     1153
280
     0
281
     0
  0
CLASS
  1
BLOCKLINEARPARAMETER
  2
AcDbBlockLinearParameter
  3
ObjectDBX Classes
 90
     1153
280
     0
281
     0
  0
CLASS
  1
BLOCKLINEARGRIP
  2
AcDbBlockLinearGrip
  3
ObjectDBX Classes
 90
    33921
280
     0
281
     0
  0
CLASS
  1
BLOCKGRIPLOCATIONCOMPONENT
  2
AcDbBlockGripExpr
  3
ObjectDBX Classes
 90
     1153
280
     0
281
     0
  0
CLASS
  1
BLOCKSTRETCHACTION
  2
AcDbBlockStretchAction
  3
ObjectDBX Classes
 90
     1153
280
     0
281
     0
  0
CLASS
  1
BLOCKFLIPPARAMETER
  2
AcDbBlockFlipParameter
  3
ObjectDBX Classes
 90
     1153
280
     0
281
     0
  0
CLASS
  1
BLOCKFLIPGRIP
  2
AcDbBlockFlipGrip
  3
ObjectDBX Classes
 90
     1153
280
     0
281
     0
  0
CLASS
  1
BLOCKFLIPACTION
  2
AcDbBlockFlipAction
  3
ObjectDBX Classes
 90
     1153
280
     0
281
     0
  0
CLASS
  1
ACDB_DYNAMICBLOCKPURGEPREVENTER_VERSION
  2
AcDbDynamicBlockPurgePreventer
  3
ObjectDBX Classes
 90
     1153
280
     0
281
     0
  0
CLASS
  1
ACDB_BLOCKREPRESENTATION_DATA
  2
AcDbBlockRepresentationData
  3
ObjectDBX Classes
 90
    33921
280
     0
281
     0
  0
CLASS
  1
AEC_SLAB
  2
AecDbSlab
  3
AecArchBase50|Product Desc: Autodesk Architectural Desktop 2007 |Company: Autodesk,Inc. |WEB Address: www.autodesk.com
 90
    33661
280
     0
281
     1
  0
CLASS
  1
AEC_LIST_DEF
  2
AecDbListItem
  3
AecBase50|Product Desc: Autodesk Architectural Desktop 2007 |Company: Autodesk,Inc. |WEB Address: www.autodesk.com
 90
      129
280
     0
281
     0
  0
CLASS
  1
AEC_ROOFSLAB_STYLE
  2
AecDbRoofSlabStyle
  3
AecArchBase50|Product Desc: Autodesk Architectural Desktop 2007 |Company: Autodesk,Inc. |WEB Address: www.autodesk.com
 90
      129
280
     0
281
     0
  0
CLASS
  1
AEC_ROOFSLABEDGE_STYLE
  2
AecDbRoofSlabEdgeStyle
  3
AecArchBase50|Product Desc: Autodesk Architectural Desktop 2007 |Company: Autodesk,Inc. |WEB Address: www.autodesk.com
 90
      129
280
     0
281
     0
  0
CLASS
  1
AEC_SLAB_STYLE
  2
AecDbSlabStyle
  3
AecArchBase50|Product Desc: Autodesk Architectural Desktop 2007 |Company: Autodesk,Inc. |WEB Address: www.autodesk.com
 90
      129
280
     0
281
     0
  0
CLASS
  1
AEC_SLABEDGE_STYLE
  2
AecDbSlabEdgeStyle
  3
AecArchBase50|Product Desc: Autodesk Architectural Desktop 2007 |Company: Autodesk,Inc. |WEB Address: www.autodesk.com
 90
      129
280
     0
281
     0
  0
CLASS
  1
EXACTERMXREFMAP
  2
ExAcTermXrefMap
  3
EXAC_SERVICE
 90
    33793
280
     1
281
     0
  0
CLASS
  1
AEC_AECDBZONESTYLE
  2
AecDbZoneStyle
  3
AecArchBase50|Product Desc: Autodesk Architectural Desktop 2007 |Company: Autodesk,Inc. |WEB Address: www.autodesk.com
 90
    32897
280
     0
281
     0
  0
CLASS
  1
AEC_ZONE
  2
AecDbZone
  3
AecArchBase50|Product Desc: Autodesk Architectural Desktop 2007 |Company: Autodesk,Inc. |WEB Address: www.autodesk.com
 90
    33661
280
     0
281
     1
  0
CLASS
  1
ACAD_TABLE
  2
AcDbTable
  3
ObjectDBX Classes
 90
    33793
280
     0
281
     1
  0
CLASS
  1
AEC_DISPLAYTHEME_STYLE
  2
AecDbDisplayThemeStyle
  3
AecBase50|Product Desc: Autodesk Architectural Desktop 2007 |Company: Autodesk,Inc. |WEB Address: www.autodesk.com
 90
    32897
280
     0
281
     0
  0
CLASS
  1
DIMASSOC
  2
AcDbDimAssoc
  3
"AcDbDimAssoc|Product Desc:     AcDim ARX App For Dimension|Company:          Autodesk, Inc.|WEB Address:      www.autodesk.com"
 90
    32768
280
     0
281
     0
  0
CLASS
  1
AEC_MASS_GROUP
  2
AecDbMassGroup
  3
AecBaseEx50|Product Desc: Autodesk Architectural Desktop 2007 |Company: Autodesk,Inc. |WEB Address: www.autodesk.com
 90
    33661
280
     0
281
     1
  0
CLASS
  1
AEC_ANCHOR_ENT_TO_ENT
  2
AecDbAnchorEntToEnt
  3
AecBase50|Product Desc: Autodesk Architectural Desktop 2007 |Company: Autodesk,Inc. |WEB Address: www.autodesk.com
 90
    32897
280
     0
281
     0
  0
CLASS
  1
AEC_2D_SECTION
  2
AecDb2dSection
  3
AecBase50|Product Desc: Autodesk Architectural Desktop 2007 |Company: Autodesk,Inc. |WEB Address: www.autodesk.com
 90
    33661
280
     0
281
     1
  0
CLASS
  1
AEC_2DSECTION_STYLE
  2
AecDb2dSectionStyle
  3
AecBase50|Product Desc: Autodesk Architectural Desktop 2007 |Company: Autodesk,Inc. |WEB Address: www.autodesk.com
 90
    32897
280
     0
281
     0
  0
CLASS
  1
SCALE
  2
AcDbScale
  3
ObjectDBX Classes
 90
     1153
280
     0
281
     0
  0
CLASS
  1
MLEADERSTYLE
  2
AcDbMLeaderStyle
  3
ACDB_MLEADERSTYLE_CLASS
 90
     4095
280
     0
281
     0
  0
CLASS
  1
AEC_REFEDIT_STATUS_TRACKER
  2
AecDbRefEditStatusTracker
  3
AecArchBase50|Product Desc: Autodesk Architectural Desktop 2007 |Company: Autodesk,Inc. |WEB Address: www.autodesk.com
 90
    32897
280
     0
281
     0
  0
CLASS
  1
CELLSTYLEMAP
  2
AcDbCellStyleMap
  3
ObjectDBX Classes
 90
     1152
280
     0
281
     0
  0
CLASS
  1
BLOCKARRAYACTION
  2
AcDbBlockArrayAction
  3
ObjectDBX Classes
 90
    33921
280
     0
281
     0
  0
CLASS
  1
BLOCKBASEPOINTPARAMETER
  2
AcDbBlockBasepointParameter
  3
ObjectDBX Classes
 90
     1153
280
     0
281
     0
  0
CLASS
  1
SOLID_BACKGROUND
  2
AcDbSolidBackground
  3
SCENEOE
 90
    36863
280
     0
281
     0
  0
CLASS
  1
BLOCKLOOKUPPARAMETER
  2
AcDbBlockLookupParameter
  3
ObjectDBX Classes
 90
     1153
280
     0
281
     0
  0
CLASS
  1
BLOCKLOOKUPGRIP
  2
AcDbBlockLookupGrip
  3
ObjectDBX Classes
 90
     1153
280
     0
281
     0
  0
CLASS
  1
BLOCKLOOKUPACTION
  2
AcDbBlockLookupAction
  3
ObjectDBX Classes
 90
     1153
280
     0
281
     0
  0
CLASS
  1
BLOCKVISIBILITYPARAMETER
  2
AcDbBlockVisibilityParameter
  3
ObjectDBX Classes
 90
     1153
280
     0
281
     0
  0
CLASS
  1
BLOCKVISIBILITYGRIP
  2
AcDbBlockVisibilityGrip
  3
ObjectDBX Classes
 90
     1153
280
     0
281
     0
  0
CLASS
  1
BLOCKROTATIONPARAMETER
  2
AcDbBlockRotationParameter
  3
ObjectDBX Classes
 90
     1153
280
     0
281
     0
  0
CLASS
  1
BLOCKROTATIONGRIP
  2
AcDbBlockRotationGrip
  3
ObjectDBX Classes
 90
     1153
280
     0
281
     0
  0
CLASS
  1
BLOCKROTATEACTION
  2
AcDbBlockRotateAction
  3
ObjectDBX Classes
 90
     1153
280
     0
281
     0
  0
ENDSEC
  0
SECTION
  2
TABLES
  0
TABLE
  2
VPORT
  5
28
330
0
100
AcDbSymbolTable
 70
     1
  0
VPORT
  5
29
330
28
100
AcDbSymbolTableRecord
100
AcDbViewportTableRecord
  2
*Active
 70
     0
 10
0.0
 20
0.0
 11
1.0
 21
1.0
 12
85992.35777884599
 22
-5923.748207553122
 13
-3534.953416816247
 23
4038.000000000049
 14
1.0
 24
1.0
 15
1.0
 25
1.0
 16
0.0
 26
0.0
 36
1.0
 17
0.0
 27
0.0
 37
0.0
 40
17516.14688990776
 41
1.561333333333333
 42
50.0
 43
0.0
 44
0.0
 50
0.0
 51
0.0
 71
     0
 72
  2000
 73
     1
 74
     1
 75
     0
 76
     0
 77
     0
 78
     0
281
     0
 65
     1
110
0.0
120
0.0
130
0.0
111
1.0
121
0.0
131
0.0
112
0.0
122
1.0
132
0.0
 79
     0
146
0.0
  0
ENDTAB
  0
TABLE
  2
LTYPE
  5
23
330
0
100
AcDbSymbolTable
 70
     8
  0
LTYPE
  5
24
330
23
100
AcDbSymbolTableRecord
100
AcDbLinetypeTableRecord
  2
BYBLOCK
 70
     0
  3

 72
    65
 73
     0
 40
0.0
  0
LTYPE
  5
25
330
23
100
AcDbSymbolTableRecord
100
AcDbLinetypeTableRecord
  2
BYLAYER
 70
     0
  3

 72
    65
 73
     0
 40
0.0
  0
LTYPE
  5
E
330
23
100
AcDbSymbolTableRecord
100
AcDbLinetypeTableRecord
  2
CONTINUOUS
 70
     0
  3
Solid line
 72
    65
 73
     0
 40
0.0
  0
LTYPE
  5
50A6
330
23
100
AcDbSymbolTableRecord
100
AcDbLinetypeTableRecord
  2
HIDDEN2
 70
     0
  3
Hidden (.5x) _ _ _ _ _ _ _ _ _ _ _ _ _ _ _ _ _
 72
    65
 73
     2
 40
0.1875
 49
0.125
 74
     0
 49
-0.0625
 74
     0
  0
LTYPE
  5
50A7
330
23
100
AcDbSymbolTableRecord
100
AcDbLinetypeTableRecord
  2
PHANTOM2
 70
     0
  3
Phantom (.5x) ___ _ _ ___ _ _ ___ _ _ ___ _ _
 72
    65
 73
     6
 40
1.25
 49
0.625
 74
     0
 49
-0.125
 74
     0
 49
0.125
 74
     0
 49
-0.125
 74
     0
 49
0.125
 74
     0
 49
-0.125
 74
     0
  0
LTYPE
  5
50AB
330
23
100
AcDbSymbolTableRecord
100
AcDbLinetypeTableRecord
  2
HIDDEN
 70
     0
  3
Hidden __ __ __ __ __ __ __ __ __ __ __ __ __ _
 72
    65
 73
     2
 40
0.375
 49
0.25
 74
     0
 49
-0.125
 74
     0
  0
ENDTAB
  0
TABLE
  2
LAYER
  5
1D
102
{ACAD_XDICTIONARY
360
1E
102
}
330
0
100
AcDbSymbolTable
 70
    57
  0
LAYER
  5
6
102
{ACAD_XDICTIONARY
360
7
102
}
330
1D
100
AcDbSymbolTableRecord
100
AcDbLayerTableRecord
  2
0
 70
     0
 62
     7
  6
CONTINUOUS
370
    -3
390
9
1001
RAK
1000
{ACET-LAYISO
1070
     0
1070
     7
1000
CONTINUOUS
1070
     1
1071
       -3
1071
        1
1005
9
1000
ACET-LAYISO}
  0
LAYER
  5
74
102
{ACAD_XDICTIONARY
360
75
102
}
330
1D
100
AcDbSymbolTableRecord
100
AcDbLayerTableRecord
  2
NAPISY
 70
     0
 62
   140
  6
CONTINUOUS
370
    -3
390
9
1001
RAK
1000
{ACET-LAYISO
1070
     0
1070
   140
1000
CONTINUOUS
1071
       -3
1071
        1
1005
9
1000
ACET-LAYISO}
  0
LAYER
  5
3B5
330
1D
100
AcDbSymbolTableRecord
100
AcDbLayerTableRecord
  2
Defpoints
 70
     0
 62
     7
  6
CONTINUOUS
290
     0
370
    -3
390
9
1001
RAK
1000
{ACET-LAYISO
1070
     0
1070
     7
1000
CONTINUOUS
1071
       -3
1071
        0
1005
9
1000
ACET-LAYISO}
  0
LAYER
  5
56
102
{ACAD_XDICTIONARY
360
57
102
}
330
1D
100
AcDbSymbolTableRecord
100
AcDbLayerTableRecord
  2
0Wymiary-PL
 70
     0
 62
     1
  6
CONTINUOUS
370
     5
390
9
  0
LAYER
  5
3A3
102
{ACAD_XDICTIONARY
360
3A4
102
}
330
1D
100
AcDbSymbolTableRecord
100
AcDbLayerTableRecord
  2
0Hatch
 70
     0
 62
   122
  6
CONTINUOUS
370
     5
390
9
  0
LAYER
  5
7E
102
{ACAD_XDICTIONARY
360
7F
102
}
330
1D
100
AcDbSymbolTableRecord
100
AcDbLayerTableRecord
  2
RAMKI-A4
 70
     0
 62
     2
  6
CONTINUOUS
290
     0
370
    -3
390
9
1001
RAK
1000
{ACET-LAYISO
1070
     0
1070
     2
1000
Continuous
1071
       -3
1071
        0
1005
9
1000
ACET-LAYISO}
  0
LAYER
  5
1326
330
1D
100
AcDbSymbolTableRecord
100
AcDbLayerTableRecord
  2
TEREN$0$A-MassElement-G
 70
     0
 62
   210
  6
CONTINUOUS
370
     9
390
9
1001
AcAecLayerStandard
1000
BS1192 - Descriptive
1001
RAK
1000
{ACET-LAYISO
1070
     0
1070
   210
1000
Continuous
1071
        9
1071
        1
1005
9
1000
ACET-LAYISO}
  0
LAYER
  5
1A7E
102
{ACAD_XDICTIONARY
360
1A7F
102
}
330
1D
100
AcDbSymbolTableRecord
100
AcDbLayerTableRecord
  2
SCIANY
 70
     0
 62
   140
  6
CONTINUOUS
370
    -3
390
9
  0
LAYER
  5
1A80
102
{ACAD_XDICTIONARY
360
1A81
102
}
330
1D
100
AcDbSymbolTableRecord
100
AcDbLayerTableRecord
  2
WYMIARY
 70
     0
 62
     1
  6
CONTINUOUS
370
    -3
390
9
  0
LAYER
  5
50B2
102
{ACAD_XDICTIONARY
360
50B3
102
}
330
1D
100
AcDbSymbolTableRecord
100
AcDbLayerTableRecord
  2
A-Anno-Scrn
 70
     0
 62
   250
  6
CONTINUOUS
370
    25
390
5120
1001
AcAecLayerStandard
1000
AIA 2nd Edition
1001
RAK
1000
{ACET-LAYISO
1070
     0
1070
   250
1000
Continuous
1071
       25
1071
        1
1005
5120
1000
ACET-LAYISO}
  0
LAYER
  5
50B6
102
{ACAD_XDICTIONARY
360
50B7
102
}
330
1D
100
AcDbSymbolTableRecord
100
AcDbLayerTableRecord
  2
G-Anno-Nplt
 70
     0
 62
   140
  6
CONTINUOUS
290
     0
370
    -3
390
9
1001
AcAecLayerStandard
1000
NCSv2
1001
RAK
1000
{ACET-LAYISO
1070
     0
1070
   140
1000
Continuous
1071
       18
1071
        0
1005
9
1000
ACET-LAYISO}
  0
LAYER
  5
50BA
102
{ACAD_XDICTIONARY
360
50BB
102
}
330
1D
100
AcDbSymbolTableRecord
100
AcDbLayerTableRecord
  2
A-Space-G
 70
     1
 62
    34
  6
CONTINUOUS
290
     0
370
    15
390
9
1001
AcAecLayerStandard
1000
BS1192 - Descriptive
1001
RAK
1000
{ACET-LAYISO
1070
     0
1070
    34
1000
Continuous
1071
       15
1071
        1
1005
9
1000
ACET-LAYISO}
  0
ENDTAB
  0
TABLE
  2
STYLE
  5
20
330
0
100
AcDbSymbolTable
 70
    11
  0
STYLE
  5
21
330
20
100
AcDbSymbolTableRecord
100
AcDbTextStyleTableRecord
  2
STANDARD
 70
     0
 40
0.0
 41
1.0
 50
0.0
 71
     0
 42
0.2
  3
txt
  4

  0
STYLE
  5
2E
330
20
100
AcDbSymbolTableRecord
100
AcDbTextStyleTableRecord
  2
ROMANS
 70
     0
 40
0.0
 41
0.9
 50
0.0
 71
     0
 42
5.0
  3
romans.shx
  4

  0
STYLE
  5
79
330
20
100
AcDbSymbolTableRecord
100
AcDbTextStyleTableRecord
  2
AVA
 70
     0
 40
0.0
 41
1.0
 50
0.0
 71
     0
 42
20.0
  3
ARIAL.TTF
  4

1001
ACAD
1000
Arial CE
1071
    60962
  0
STYLE
  5
5108
330
20
100
AcDbSymbolTableRecord
100
AcDbTextStyleTableRecord
  2
romansDIM
 70
     0
 40
0.0
 41
0.8
 50
0.0
 71
     0
 42
18.0
  3
romans.shx
  4

  0
ENDTAB
  0
TABLE
  2
VIEW
  5
26
330
0
100
AcDbSymbolTable
 70
     1
  0
VIEW
  5
13
330
26
100
AcDbSymbolTableRecord
100
AcDbViewTableRecord
  2
10-ele
 70
     0
 40
2040.000000000001
 10
597.6361962217097
 20
4133.999999999996
 41
2803.999999999998
 11
0.0
 21
0.0
 31
1.0
 12
0.0
 22
0.0
 32
0.0
 42
50.0
 43
0.0
 44
0.0
 50
0.0
 71
     0
281
     0
 72
     1
110
0.0
120
0.0
130
0.0
111
1.0
121
0.0
131
0.0
112
0.0
122
1.0
132
0.0
 79
     0
146
0.0
  0
ENDTAB
  0
TABLE
  2
UCS
  5
27
330
0
100
AcDbSymbolTable
 70
     0
  0
ENDTAB
  0
TABLE
  2
APPID
  5
2A
330
0
100
AcDbSymbolTable
 70
    18
  0
APPID
  5
2B
330
2A
100
AcDbSymbolTableRecord
100
AcDbRegAppTableRecord
  2
ACAD
 70
     0
  0
APPID
  5
F
330
2A
100
AcDbSymbolTableRecord
100
AcDbRegAppTableRecord
  2
RAK
 70
     0
  0
APPID
  5
16
330
2A
100
AcDbSymbolTableRecord
100
AcDbRegAppTableRecord
  2
ACAD_PSEXT
 70
     0
  0
APPID
  5
7AA
330
2A
100
AcDbSymbolTableRecord
100
AcDbRegAppTableRecord
  2
ACAD_MLEADERVER
 70
     0
  0
APPID
  5
B8E
330
2A
100
AcDbSymbolTableRecord
100
AcDbRegAppTableRecord
  2
ACAD_EXEMPT_FROM_CAD_STANDARDS
 70
     0
  0
APPID
  5
132A
330
2A
100
AcDbSymbolTableRecord
100
AcDbRegAppTableRecord
  2
AcAecLayerStandard
 70
     0
  0
APPID
  5
2A81
330
2A
100
AcDbSymbolTableRecord
100
AcDbRegAppTableRecord
  2
DCO15
 70
     0
  0
APPID
  5
2A82
330
2A
100
AcDbSymbolTableRecord
100
AcDbRegAppTableRecord
  2
AcDbBlockRepETag
 70
     0
  0
APPID
  5
5110
330
2A
100
AcDbSymbolTableRecord
100
AcDbRegAppTableRecord
  2
AECBASE
 70
     0
  0
APPID
  5
5111
330
2A
100
AcDbSymbolTableRecord
100
AcDbRegAppTableRecord
  2
AEC_SCHEDULEDATA_FORMULA_SAMPLES
 70
     0
  0
APPID
  5
5112
330
2A
100
AcDbSymbolTableRecord
100
AcDbRegAppTableRecord
  2
AcLayerTools
 70
     0
  0
APPID
  5
5113
330
2A
100
AcDbSymbolTableRecord
100
AcDbRegAppTableRecord
  2
ACAUTHENVIRON
 70
     0
  0
APPID
  5
5114
330
2A
100
AcDbSymbolTableRecord
100
AcDbRegAppTableRecord
  2
AcDbDynamicBlockTrueName
 70
     0
  0
APPID
  5
5115
330
2A
100
AcDbSymbolTableRecord
100
AcDbRegAppTableRecord
  2
AcDbDynamicBlockGUID
 70
     0
  0
APPID
  5
5116
330
2A
100
AcDbSymbolTableRecord
100
AcDbRegAppTableRecord
  2
AcDbBlockRepBTag
 70
     0
  0
APPID
  5
5117
330
2A
100
AcDbSymbolTableRecord
100
AcDbRegAppTableRecord
  2
AEC_SCHEDULE_TAG
 70
     0
  0
APPID
  5
5118
330
2A
100
AcDbSymbolTableRecord
100
AcDbRegAppTableRecord
  2
AEC_XDATA_BOUND_SPACE
 70
     0
  0
APPID
  5
77F0
330
2A
100
AcDbSymbolTableRecord
100
AcDbRegAppTableRecord
  2
AcDbAttr
 70
     0
  0
ENDTAB
  0
TABLE
  2
DIMSTYLE
  5
2C
330
0
100
AcDbSymbolTable
 70
     6
100
AcDbDimStyleTable
 71
     2
340
2D
340
4C
  0
DIMSTYLE
105
4C
330
2C
100
AcDbSymbolTableRecord
100
AcDbDimStyleTableRecord
  2
Standard
 70
     0
340
21
  0
DIMSTYLE
105
2D
102
{ACAD_REACTORS
330
7516
330
7517
330
7518
330
7519
330
751A
330
751B
330
751C
330
751D
330
751E
330
751F
330
770F
330
7710
330
7711
330
7712
330
7713
330
7714
330
7715
330
7716
330
7717
330
7718
102
}
330
2C
100
AcDbSymbolTableRecord
100
AcDbDimStyleTableRecord
  2
500
 70
     0
 41
30.0
 42
43.0
 43
0.0
 44
13.0
 45
0.5
 46
12.0
 73
     0
 74
     0
 75
     1
 76
     1
 78
    12
140
80.0
141
0.0
145
1.0
147
0.0
172
     1
174
     1
176
     1
177
     1
178
   140
271
     1
272
     1
279
     2
340
2E
341
2F
342
2F
  0
DIMSTYLE
105
510D
102
{ACAD_REACTORS
330
64F6
102
}
330
2C
100
AcDbSymbolTableRecord
100
AcDbDimStyleTableRecord
  2
100-archon
 70
     0
 41
8.0
 42
43.0
 43
40.0
 44
13.0
 45
0.5
 46
12.0
 73
     0
 74
     0
 75
     1
 76
     1
 78
     8
140
16.0
141
15.0
145
1.0
147
4.0
172
     1
174
     1
176
     1
177
     1
178
   140
271
     1
272
     1
279
     2
340
5108
341
42B4
342
2F
371
     5
  0
ENDTAB
  0
TABLE
  2
BLOCK_RECORD
  5
1
330
0
100
AcDbSymbolTable
 70
   361
  0
BLOCK_RECORD
  5
2
102
{ACAD_XDICTIONARY
360
3
102
}
330
1
100
AcDbSymbolTableRecord
100
AcDbBlockTableRecord
  2
*MODEL_SPACE
340
11
  0
BLOCK_RECORD
  5
1942
330
1
100
AcDbSymbolTableRecord
100
AcDbBlockTableRecord
  2
*Paper_Space
340
1943
  0
BLOCK_RECORD
  5
2F
102
{ACAD_XDICTIONARY
360
30
102
}
330
1
100
AcDbSymbolTableRecord
100
AcDbBlockTableRecord
  2
B-DIM
340
0
102
{BLKREFS
331
6641
331
6642
331
664B
331
664C
331
6655
331
6656
331
665F
331
6660
331
6669
331
666A
331
6673
331
6674
331
667D
331
667E
331
6687
331
6688
331
6691
331
6692
331
669D
331
669E
331
66A7
331
66A8
331
66B3
331
66B4
331
66BD
331
66BE
331
66C7
331
66C8
331
66D1
331
66D2
331
66DB
331
66DC
331
66E5
331
66E6
331
66EF
331
66F0
331
66F9
331
66FA
331
6703
331
6704
331
670D
331
670E
331
6717
331
6718
331
6721
331
6722
331
672B
331
672C
331
6735
331
6736
331
673F
331
6740
331
6749
331
674A
331
6753
331
6754
331
675D
331
675E
331
6767
331
6768
331
6771
331
6772
331
677B
331
677C
331
6785
331
6786
331
678F
331
6790
331
6799
331
679A
331
67A3
331
67A4
331
67AD
331
67AE
331
67B7
331
67B8
331
67C1
331
67C2
331
67CB
331
67CC
331
67D5
331
67D6
331
67DC
331
67DD
331
67E6
331
67E7
331
67F0
331
67F1
331
67FA
331
67FB
331
6804
331
6805
331
680E
331
680F
331
6822
331
6823
331
682C
331
682D
331
6836
331
6837
331
6847
331
6848
331
6851
331
6852
331
685D
331
685E
331
6867
331
6868
331
6873
331
6874
331
687D
331
687E
331
6889
331
688A
331
6893
331
6894
331
689F
331
68A0
331
68A9
331
68AA
331
68B3
331
68B4
331
68BE
331
68BF
331
68C7
331
68C8
331
68D1
331
68D2
331
68D8
331
68D9
331
68FA
331
68FB
331
6904
331
6905
331
6910
331
6911
331
691A
331
691B
331
692D
331
692E
331
694B
331
694C
331
6955
331
6956
331
695F
331
6960
331
6969
331
696A
331
6973
331
6974
331
697A
331
697B
331
6984
331
6985
331
698E
331
698F
331
6998
331
6999
331
69A2
331
69A3
331
69AC
331
69AD
331
69B8
331
69B9
331
69C2
331
69C3
331
69CC
331
69CD
331
69D6
331
69D7
331
69E0
331
69E1
331
69E7
331
69E8
331
69EE
331
69EF
331
69F5
331
69F6
331
69FC
331
69FD
331
6A03
331
6A04
331
6A0D
331
6A0E
331
6A1A
331
6A1B
331
6A23
331
6A24
331
6A39
331
6A3A
331
6A43
331
6A44
331
6A4E
331
6A4F
331
6A58
331
6A59
331
6A64
331
6A65
331
6A6E
331
6A6F
331
6A78
331
6A79
331
6A8B
331
6A8C
331
6A95
331
6A96
331
6A9F
331
6AA0
331
6AB2
331
6AB3
331
6ABA
331
6ABB
331
6ACC
331
6ACD
331
6AD6
331
6AD7
331
6ADD
331
6ADE
331
6AE5
331
6AE6
331
6B0B
331
6B0C
331
6B20
331
6B21
331
6B33
331
6B34
331
6B3F
331
6B40
331
6B49
331
6B4A
331
6B56
331
6B57
331
6B62
331
6B63
331
6B6C
331
6B6D
331
6B76
331
6B77
331
6B7F
331
6B80
331
6B93
331
6B94
331
6B9D
331
6B9E
331
6BA7
331
6BA8
331
6BB4
331
6BB5
331
6BBD
331
6BBE
331
6BC7
331
6BC8
331
6BD1
331
6BD2
331
6BDB
331
6BDC
331
6BE5
331
6BE6
331
6BEF
331
6BF0
331
6BFB
331
6BFC
331
6C06
331
6C07
331
6C12
331
6C13
331
6C1C
331
6C1D
331
6C25
331
6C26
331
6C31
331
6C32
331
6C3E
331
6C3F
331
6C47
331
6C48
331
6C51
331
6C52
331
6C5E
331
6C5F
331
6C67
331
6C68
331
6C71
331
6C72
331
6C7C
331
6C7D
331
6C88
331
6C89
331
6CA5
331
6CA6
331
6CB2
331
6CB3
331
6CBC
331
6CBD
331
6CC8
331
6CC9
331
6CDC
331
6CDD
331
6CF2
331
6CF3
331
6CFB
331
6CFC
331
6D0F
331
6D10
331
6D18
331
6D19
331
6D23
331
6D24
331
6D42
331
6D43
331
6D4C
331
6D4D
331
6D56
331
6D57
331
6D60
331
6D61
331
6D6B
331
6D6C
331
6D7E
331
6D7F
331
6D89
331
6D8A
331
6D93
331
6D94
331
6DB4
331
6DB5
331
6DCA
331
6DCB
331
6DD4
331
6DD5
331
6DDE
331
6DDF
331
6DE8
331
6DE9
331
6DF2
331
6DF3
331
6DFC
331
6DFD
331
6E06
331
6E07
331
6E1A
331
6E1B
331
6E24
331
6E25
331
6E2E
331
6E2F
331
6E37
331
6E38
331
6E56
331
6E57
331
6E5D
331
6E5E
331
6E72
331
6E73
331
6E83
331
6E84
331
6E90
331
6E91
331
6E98
331
6E99
331
6E9E
331
6E9F
331
6EA5
331
6EA6
331
6EAC
331
6EAD
331
6ED0
331
6ED1
331
6ED6
331
6ED7
331
6EDD
331
6EDE
331
6EE4
331
6EE5
331
6EEB
331
6EEC
331
6EF3
331
6EF4
331
6EF9
331
6EFA
331
6F02
331
6F03
331
6F6C
331
6F72
331
6F78
331
6F7E
331
6FD6
331
6FD7
331
6FDD
331
6FDE
331
6FE4
331
6FE5
331
6FEB
331
6FEC
331
7001
331
7002
331
700B
331
700C
331
7015
331
7016
331
701F
331
7020
331
7029
331
702A
331
7033
331
7034
331
703D
331
703E
331
7047
331
7048
331
7051
331
7052
331
705B
331
705C
331
7065
331
7066
331
706F
331
7070
331
7079
331
707A
331
7083
331
7084
331
708D
331
708E
331
72CA
331
72CB
331
72D1
331
72D2
331
72D8
331
72D9
331
72DF
331
72E0
331
72E6
331
72E7
331
72ED
331
72EE
331
72F4
331
72F5
331
72FB
331
72FC
331
7302
331
7303
331
7309
331
730A
331
7310
331
7311
331
7317
331
7318
331
731E
331
731F
331
7325
331
7326
331
7385
331
7386
331
738F
331
7390
331
7399
331
739A
331
73A3
331
73A4
331
73AD
331
73AE
331
73B7
331
73B8
331
73C1
331
73C2
331
73CB
331
73CC
331
73D5
331
73D6
331
73DF
331
73E0
331
7443
331
7444
331
7439
331
743A
331
742F
331
7430
331
7425
331
7426
331
741B
331
741C
331
7411
331
7412
331
7407
331
7408
331
73FD
331
73FE
331
73F3
331
73F4
331
73E9
331
73EA
331
761C
331
761D
331
7623
331
7624
331
762A
331
762B
331
7631
331
7632
331
7638
331
7639
331
7646
331
7647
331
764D
331
764E
331
7654
331
7655
331
7669
331
766A
331
7670
331
7671
331
7677
331
7678
331
7685
331
7686
331
768C
331
768D
331
7693
331
7694
331
769A
331
769B
331
76A1
331
76A2
331
76AF
331
76B0
331
76BD
331
76BE
331
76CB
331
76CC
331
76D9
331
76DA
331
7782
331
7783
331
7789
331
778A
331
7790
331
7791
331
7797
331
7798
331
779E
331
779F
331
77A5
331
77A6
331
77AC
331
77AD
331
77B3
331
77B4
331
77BA
331
77BB
331
77C1
331
77C2
102
}
  0
BLOCK_RECORD
  5
42B4
330
1
100
AcDbSymbolTableRecord
100
AcDbBlockTableRecord
  2
_Dot
340
0
  0
BLOCK_RECORD
  5
4453
102
{ACAD_XDICTIONARY
360
4454
102
}
330
1
100
AcDbSymbolTableRecord
100
AcDbBlockTableRecord
  2
space_etyk_medium_04
340
0
310
2800000020000000200000000100080000000000000400000000000000000000000000000000000000000000000080000080000000808000800000008000800080800000C0C0C000C0DCC000F0CAA6000020400000206000002080000020A0000020C0000020E00000400000004020000040400000406000004080000040A0
310
000040C0000040E00000600000006020000060400000606000006080000060A0000060C0000060E00000800000008020000080400000806000008080000080A0000080C0000080E00000A0000000A0200000A0400000A0600000A0800000A0A00000A0C00000A0E00000C0000000C0200000C0400000C0600000C0800000C0
310
A00000C0C00000C0E00000E0000000E0200000E0400000E0600000E0800000E0A00000E0C00000E0E00040000000400020004000400040006000400080004000A0004000C0004000E00040200000402020004020400040206000402080004020A0004020C0004020E000404000004040200040404000404060004040800040
310
40A0004040C0004040E00040600000406020004060400040606000406080004060A0004060C0004060E00040800000408020004080400040806000408080004080A0004080C0004080E00040A0000040A0200040A0400040A0600040A0800040A0A00040A0C00040A0E00040C0000040C0200040C0400040C0600040C08000
310
40C0A00040C0C00040C0E00040E0000040E0200040E0400040E0600040E0800040E0A00040E0C00040E0E00080000000800020008000400080006000800080008000A0008000C0008000E00080200000802020008020400080206000802080008020A0008020C0008020E00080400000804020008040400080406000804080
310
008040A0008040C0008040E00080600000806020008060400080606000806080008060A0008060C0008060E00080800000808020008080400080806000808080008080A0008080C0008080E00080A0000080A0200080A0400080A0600080A0800080A0A00080A0C00080A0E00080C0000080C0200080C0400080C0600080C0
310
800080C0A00080C0C00080C0E00080E0000080E0200080E0400080E0600080E0800080E0A00080E0C00080E0E000C0000000C0002000C0004000C0006000C0008000C000A000C000C000C000E000C0200000C0202000C0204000C0206000C0208000C020A000C020C000C020E000C0400000C0402000C0404000C0406000C0
310
408000C040A000C040C000C040E000C0600000C0602000C0604000C0606000C0608000C060A000C060C000C060E000C0800000C0802000C0804000C0806000C0808000C080A000C080C000C080E000C0A00000C0A02000C0A04000C0A06000C0A08000C0A0A000C0A0C000C0A0E000C0C00000C0C02000C0C04000C0C06000
310
C0C08000C0C0A000F0FBFF00A4A0A000808080000000FF0000FF000000FFFF00FF000000FF00FF00FFFF0000FFFFFF0000000000000000000000000000000000000000000000000000000000000000000000000000000000000000000000000000000000000000000000000000000000000000000000000000000000000000
310
00000000000000000000000000000000000000000000000000000000000000000000000000000000000000000000000000000000000000000000000000000000000000000000000000000000000000000000000000000000000000000000000000000000000000000000000000000000000000000000000000000000000000
310
00000000000000000000000000000000000000000000000000000000000000000000000000000000000000000000000000000000000000000000000000000000000000000000000000000000000000000000000000000000000000000000000000000000000000000000000000000000000000000000000000000000000000
310
00000000000000000000000000000000000000000000000000000000000000000000000000000000000000000000000000000000000000000000000000000000000000000000000000000000000000000000000000000000000000000000000000000000000000000000000000000000000000000000000000000000000000
310
FFFFFFFFFFFFFFFF00000000000000000000000000FFFFFFFFFFFFFFFFFFFFFFFFFFFFFFFFFFFFFFFFFFFFFFFFFFFFFFFFFFFF0000FFFFFFFFFFFFFFFFFFFFFFFFFFFFFFFFFFFFFFFFFFFFFFFFFFFFFFFFFFFF00000000000000000000000000FFFFFFFFFFFFFFFF0000000000000000000000000000000000000000000000
310
00000000000000000000000000000000000000000000000000000000000000000000000000000000000000000000000000000000000000000000000000000000000000000000000000000000000000000000000000000000000000000000000000000000000000000000000000000000000000000000000000000000000000
310
00000000000000000000000000000000000000000000000000000000000000000000000000000000000000000000000000000000000000000000000000000000000000000000000000000000000000000000000000000000000000000000000000000000000000000000000000000000000000000000000000000000000000
310
00000000000000000000000000000000000000000000000000000000000000000000000000000000000000000000000000000000000000000000000000000000000000000000000000000000000000000000000000000000000000000000000000000000000000000000000000000000000000000000000000000000000000
310
0000000000000000000000000000000000000000000000000000000000000000000000000000000000000000000000000000000000000000
1001
ACAD
1000
DesignCenter Data
1002
{
1070
     1
1070
     5
1002
}
  0
BLOCK_RECORD
  5
46A9
102
{ACAD_XDICTIONARY
360
46AA
102
}
330
1
100
AcDbSymbolTableRecord
100
AcDbBlockTableRecord
  2
space_etyk_medium_04_lustro
340
0
310
2800000020000000200000000100080000000000000400000000000000000000000000000000000000000000000080000080000000808000800000008000800080800000C0C0C000C0DCC000F0CAA6000020400000206000002080000020A0000020C0000020E00000400000004020000040400000406000004080000040A0
310
000040C0000040E00000600000006020000060400000606000006080000060A0000060C0000060E00000800000008020000080400000806000008080000080A0000080C0000080E00000A0000000A0200000A0400000A0600000A0800000A0A00000A0C00000A0E00000C0000000C0200000C0400000C0600000C0800000C0
310
A00000C0C00000C0E00000E0000000E0200000E0400000E0600000E0800000E0A00000E0C00000E0E00040000000400020004000400040006000400080004000A0004000C0004000E00040200000402020004020400040206000402080004020A0004020C0004020E000404000004040200040404000404060004040800040
310
40A0004040C0004040E00040600000406020004060400040606000406080004060A0004060C0004060E00040800000408020004080400040806000408080004080A0004080C0004080E00040A0000040A0200040A0400040A0600040A0800040A0A00040A0C00040A0E00040C0000040C0200040C0400040C0600040C08000
310
40C0A00040C0C00040C0E00040E0000040E0200040E0400040E0600040E0800040E0A00040E0C00040E0E00080000000800020008000400080006000800080008000A0008000C0008000E00080200000802020008020400080206000802080008020A0008020C0008020E00080400000804020008040400080406000804080
310
008040A0008040C0008040E00080600000806020008060400080606000806080008060A0008060C0008060E00080800000808020008080400080806000808080008080A0008080C0008080E00080A0000080A0200080A0400080A0600080A0800080A0A00080A0C00080A0E00080C0000080C0200080C0400080C0600080C0
310
800080C0A00080C0C00080C0E00080E0000080E0200080E0400080E0600080E0800080E0A00080E0C00080E0E000C0000000C0002000C0004000C0006000C0008000C000A000C000C000C000E000C0200000C0202000C0204000C0206000C0208000C020A000C020C000C020E000C0400000C0402000C0404000C0406000C0
310
408000C040A000C040C000C040E000C0600000C0602000C0604000C0606000C0608000C060A000C060C000C060E000C0800000C0802000C0804000C0806000C0808000C080A000C080C000C080E000C0A00000C0A02000C0A04000C0A06000C0A08000C0A0A000C0A0C000C0A0E000C0C00000C0C02000C0C04000C0C06000
310
C0C08000C0C0A000F0FBFF00A4A0A000808080000000FF0000FF000000FFFF00FF000000FF00FF00FFFF0000FFFFFF0000000000000000000000000000000000000000000000000000000000000000000000000000000000000000000000000000000000000000000000000000000000000000000000000000000000000000
310
00000000000000000000000000000000000000000000000000000000000000000000000000000000000000000000000000000000000000000000000000000000000000000000000000000000000000000000000000000000000000000000000000000000000000000000000000000000000000000000000000000000000000
310
00000000000000000000000000000000000000000000000000000000000000000000000000000000000000000000000000000000000000000000000000000000000000000000000000000000000000000000000000000000000000000000000000000000000000000000000000000000000000000000000000000000000000
310
00000000000000000000000000000000000000000000000000000000000000000000000000000000000000000000000000000000000000000000000000000000000000000000000000000000000000000000000000000000000000000000000000000000000000000000000000000000000000000000000000000000000000
310
FFFFFFFFFFFFFF000000000000000000000000000000FF0000000000000000FFFFFFFF0000FFFF00FFFFFFFFFFFFFFFFFFFF00000000FFFFFFFFFF00FFFFFFFFFFFFFFFFFFFFFFFF00FFFFFF00FF00FFFF00000000000000000000000000000000000000000000000000000000000000000000000000000000000000000000
310
00000000000000000000000000000000000000000000000000000000000000000000000000000000000000000000000000000000000000000000000000000000000000000000000000000000000000000000000000000000000000000000000000000000000000000000000000000000000000000000000000000000000000
310
00000000000000000000000000000000000000000000000000000000000000000000000000000000000000000000000000000000000000000000000000000000000000000000000000000000000000000000000000000000000000000000000000000000000000000000000000000000000000000000000000000000000000
310
00000000000000000000000000000000000000000000000000000000000000000000000000000000000000000000000000000000000000000000000000000000000000000000000000000000000000000000000000000000000000000000000000000000000000000000000000000000000000000000000000000000000000
310
0000000000000000000000000000000000000000000000000000000000000000000000000000000000000000000000000000000000000000
  0
BLOCK_RECORD
  5
6DA4
330
1
100
AcDbSymbolTableRecord
100
AcDbBlockTableRecord
  2
*D264
340
0
  0
BLOCK_RECORD
  5
7553
330
1
100
AcDbSymbolTableRecord
100
AcDbBlockTableRecord
  2
*D330
340
0
  0
BLOCK_RECORD
  5
755D
330
1
100
AcDbSymbolTableRecord
100
AcDbBlockTableRecord
  2
*D331
340
0
  0
BLOCK_RECORD
  5
7567
330
1
100
AcDbSymbolTableRecord
100
AcDbBlockTableRecord
  2
*D332
340
0
  0
BLOCK_RECORD
  5
7571
330
1
100
AcDbSymbolTableRecord
100
AcDbBlockTableRecord
  2
*D333
340
0
  0
BLOCK_RECORD
  5
757B
330
1
100
AcDbSymbolTableRecord
100
AcDbBlockTableRecord
  2
*D334
340
0
  0
BLOCK_RECORD
  5
7585
330
1
100
AcDbSymbolTableRecord
100
AcDbBlockTableRecord
  2
*D335
340
0
  0
BLOCK_RECORD
  5
758F
330
1
100
AcDbSymbolTableRecord
100
AcDbBlockTableRecord
  2
*D336
340
0
  0
BLOCK_RECORD
  5
7599
330
1
100
AcDbSymbolTableRecord
100
AcDbBlockTableRecord
  2
*D337
340
0
  0
BLOCK_RECORD
  5
75A3
330
1
100
AcDbSymbolTableRecord
100
AcDbBlockTableRecord
  2
*D338
340
0
  0
BLOCK_RECORD
  5
75AD
330
1
100
AcDbSymbolTableRecord
100
AcDbBlockTableRecord
  2
*D339
340
0
  0
BLOCK_RECORD
  5
771D
330
1
100
AcDbSymbolTableRecord
100
AcDbBlockTableRecord
  2
*D350
340
0
  0
BLOCK_RECORD
  5
7727
330
1
100
AcDbSymbolTableRecord
100
AcDbBlockTableRecord
  2
*D351
340
0
  0
BLOCK_RECORD
  5
7731
330
1
100
AcDbSymbolTableRecord
100
AcDbBlockTableRecord
  2
*D352
340
0
  0
BLOCK_RECORD
  5
773B
330
1
100
AcDbSymbolTableRecord
100
AcDbBlockTableRecord
  2
*D353
340
0
  0
BLOCK_RECORD
  5
7745
330
1
100
AcDbSymbolTableRecord
100
AcDbBlockTableRecord
  2
*D354
340
0
  0
BLOCK_RECORD
  5
774F
330
1
100
AcDbSymbolTableRecord
100
AcDbBlockTableRecord
  2
*D355
340
0
  0
BLOCK_RECORD
  5
7759
330
1
100
AcDbSymbolTableRecord
100
AcDbBlockTableRecord
  2
*D356
340
0
  0
BLOCK_RECORD
  5
7763
330
1
100
AcDbSymbolTableRecord
100
AcDbBlockTableRecord
  2
*D357
340
0
  0
BLOCK_RECORD
  5
776D
330
1
100
AcDbSymbolTableRecord
100
AcDbBlockTableRecord
  2
*D358
340
0
  0
BLOCK_RECORD
  5
7777
330
1
100
AcDbSymbolTableRecord
100
AcDbBlockTableRecord
  2
*D359
340
0
  0
ENDTAB
  0
ENDSEC
  0
SECTION
  2
BLOCKS
  0
BLOCK
  5
5
330
2
100
AcDbEntity
  8
0
100
AcDbBlockBegin
  2
*MODEL_SPACE
 70
     0
 10
0.0
 20
0.0
 30
0.0
  3
*MODEL_SPACE
  1

  0
ENDBLK
  5
10
330
2
100
AcDbEntity
  8
0
100
AcDbBlockEnd
  0
BLOCK
  5
1944
330
1942
100
AcDbEntity
 67
     1
  8
0
 48
4.0
100
AcDbBlockBegin
  2
*Paper_Space
 70
     0
 10
0.0
 20
0.0
 30
0.0
  3
*Paper_Space
  1

  0
ENDBLK
  5
1945
330
1942
100
AcDbEntity
 67
     1
  8
0
 48
4.0
100
AcDbBlockEnd
  0
BLOCK
  5
32
330
2F
100
AcDbEntity
  8
0
100
AcDbBlockBegin
  2
B-DIM
 70
     0
 10
0.0
 20
0.0
 30
0.0
  3
B-DIM
  1

  0
LINE
  5
33
330
2F
100
AcDbEntity
  8
0
 62
     1
100
AcDbLine
 10
0.000000000000091
 20
-1.1
 30
0.0
 11
0.000000000000091
 21
1.1
 31
0.0
  0
LWPOLYLINE
  5
34
330
2F
100
AcDbEntity
  8
0
 62
     1
100
AcDbPolyline
 90
        2
 70
     0
 43
0.3
 10
-0.7071067811864851
 20
-0.7071067811864851
 10
0.707106781186576
 20
0.707106781186576
  0
LINE
  5
35
330
2F
100
AcDbEntity
  8
0
 62
     1
100
AcDbLine
 10
1.20000000000009
 20
0.0
 30
0.0
 11
-1.199999999999909
 21
0.0
 31
0.0
  0
ENDBLK
  5
36
330
2F
100
AcDbEntity
  8
0
100
AcDbBlockEnd
  0
BLOCK
  5
42B5
330
42B4
100
AcDbEntity
  8
0
100
AcDbBlockBegin
  2
_Dot
 70
     0
 10
0.0
 20
0.0
 30
0.0
  3
_Dot
  1

  0
LWPOLYLINE
  5
42B6
330
42B4
100
AcDbEntity
  8
0
  6
ByBlock
 62
     0
100
AcDbPolyline
 90
        2
 70
     1
 43
0.5
 10
-0.25
 20
0.0
 42
1.0
 10
0.25
 20
0.0
 42
1.0
  0
LINE
  5
42B7
330
42B4
100
AcDbEntity
  8
0
  6
ByBlock
 62
     0
370
    -2
100
AcDbLine
 10
-0.5
 20
0.0
 30
0.0
 11
-1.0
 21
0.0
 31
0.0
  0
ENDBLK
  5
42B8
330
42B4
100
AcDbEntity
  8
0
100
AcDbBlockEnd
  0
BLOCK
  5
4456
330
4453
100
AcDbEntity
  8
0
100
AcDbBlockBegin
  2
space_etyk_medium_04
 70
     2
 10
0.0
 20
0.0
 30
0.0
  3
space_etyk_medium_04
  1

  0
ATTDEF
  5
4457
330
4453
100
AcDbEntity
  8
0
100
AcDbText
 10
-1.38095238095238
 20
-0.4792764750677634
 30
0.0
 40
1.0
  1
?/?
  7
ROMANS
 72
     1
 11
0.0
 21
-0.4792764750677634
 31
0.0
100
AcDbAttributeDefinition
  3
numer pomieszczenia w projekcie?
  2
SPACEOBJECTS_VER3:NUMERWPROJEKCIE
 70
     0
  0
LWPOLYLINE
  5
4458
330
4453
100
AcDbEntity
  8
0
100
AcDbPolyline
 90
        4
 70
     1
 43
0.05
 10
2.811188029214463
 20
-1.013767209010893
 10
-2.811188029214463
 20
-1.013767209010893
 10
-2.811188029214463
 20
1.013767209011348
 10
2.811188029214463
 20
1.013767209011348
  0
ENDBLK
  5
4459
330
4453
100
AcDbEntity
  8
0
100
AcDbBlockEnd
  0
BLOCK
  5
46AC
330
46A9
100
AcDbEntity
  8
0
100
AcDbBlockBegin
  2
space_etyk_medium_04_lustro
 70
     2
 10
0.0
 20
0.0
 30
0.0
  3
space_etyk_medium_04_lustro
  1

  0
ATTDEF
  5
46AD
330
46A9
100
AcDbEntity
  8
0
100
AcDbText
 10
1.38095238095238
 20
-0.4792764750677634
 30
0.0
 40
1.0
  1
?/?
  7
ROMANS
 71
     2
 72
     1
 11
0.0
 21
-0.4792764750677634
 31
0.0
100
AcDbAttributeDefinition
  3
numer pomieszczenia w projekcie?
  2
SPACEOBJECTS_VER3:NUMERWPROJEKCIE
 70
     0
  0
LWPOLYLINE
  5
46AE
330
46A9
100
AcDbEntity
  8
0
100
AcDbPolyline
 90
        4
 70
     1
 43
0.05
 10
2.811188029214463
 20
-1.013767209010893
 10
-2.811188029214463
 20
-1.013767209010893
 10
-2.811188029214463
 20
1.013767209011348
 10
2.811188029214463
 20
1.013767209011348
  0
ENDBLK
  5
46AF
330
46A9
100
AcDbEntity
  8
0
100
AcDbBlockEnd
  0
BLOCK
  5
6DA5
330
6DA4
100
AcDbEntity
  8
0
 48
4.0
100
AcDbBlockBegin
  2
*D264
 70
     1
 10
0.0
 20
0.0
 30
0.0
  3
*D264
  1

  0
LINE
  5
7000
330
6DA4
100
AcDbEntity
  8
0Wymiary-PL
 62
     1
370
     5
100
AcDbLine
 10
-13874.38409491446
 20
-1942.179761783151
 30
0.0
 11
-13874.38409491446
 21
-1658.179761783152
 31
0.0
  0
INSERT
  5
7001
330
6DA4
100
AcDbEntity
  8
0Wymiary-PL
 62
     1
370
     5
100
AcDbBlockReference
  2
B-DIM
 10
-13874.38409491446
 20
-1950.17976178315
 30
0.0
 41
8.0
 42
8.0
 43
8.0
 50
270.0
  0
INSERT
  5
7002
330
6DA4
100
AcDbEntity
  8
0Wymiary-PL
 62
     1
370
     5
100
AcDbBlockReference
  2
B-DIM
 10
-13874.38409491446
 20
-1650.179761783152
 30
0.0
 41
8.0
 42
8.0
 43
8.0
 50
90.0
  0
MTEXT
  5
7003
330
6DA4
100
AcDbEntity
  8
0Wymiary-PL
 62
   140
100
AcDbMText
 10
-13890.38409491446
 20
-1800.179761783154
 30
0.0
 40
16.0
 41
0.0
 71
     5
 72
     1
  1
\A1;300
  7
romansDIM
 11
0.0000000000000001
 21
1.0
 31
0.0
 73
     1
 44
1.0
1001
ACAD
1000
MTEXTBEGIN
1070
    73
1070
     1
1070
    44
1040
1.0
1070
    74
1070
     0
1000
MTEXTEND
  0
POINT
  5
7004
330
6DA4
100
AcDbEntity
  8
Defpoints
 62
     0
100
AcDbPoint
 10
-13884.36266747476
 20
-1950.17976178315
 30
0.0
  0
POINT
  5
7005
330
6DA4
100
AcDbEntity
  8
Defpoints
 62
     0
100
AcDbPoint
 10
-13874.38409491446
 20
-1650.179761783152
 30
0.0
  0
POINT
  5
7006
330
6DA4
100
AcDbEntity
  8
Defpoints
 62
     0
100
AcDbPoint
 10
-13874.38409491446
 20
-1650.179761783152
 30
0.0
  0
ENDBLK
  5
6DA6
330
6DA4
100
AcDbEntity
  8
0
 48
4.0
100
AcDbBlockEnd
  0
BLOCK
  5
7554
330
7553
100
AcDbEntity
  8
0
 48
4.0
100
AcDbBlockBegin
  2
*D330
 70
     1
 10
0.0
 20
0.0
 30
0.0
  3
*D330
  1

  0
LINE
  5
761B
330
7553
100
AcDbEntity
  8
WYMIARY
 62
     1
370
    -2
100
AcDbLine
 10
79916.87723464434
 20
-5895.163835702348
 30
0.0
 11
80254.87723464436
 21
-5895.163835702348
 31
0.0
  0
INSERT
  5
761C
330
7553
100
AcDbEntity
  8
WYMIARY
 62
     1
370
    -2
100
AcDbBlockReference
  2
B-DIM
 10
79886.87723464434
 20
-5895.163835702348
 30
0.0
 41
30.0
 42
30.0
 43
30.0
 50
180.0
  0
INSERT
  5
761D
330
7553
100
AcDbEntity
  8
WYMIARY
 62
     1
370
    -2
100
AcDbBlockReference
  2
B-DIM
 10
80284.87723464436
 20
-5895.163835702348
 30
0.0
 41
30.0
 42
30.0
 43
30.0
  0
MTEXT
  5
761E
330
7553
100
AcDbEntity
  8
WYMIARY
 62
   140
100
AcDbMText
 10
80085.87723464435
 20
-5815.163835702348
 30
0.0
 40
80.0
 41
0.0
 71
     5
 72
     1
  1
\A1;398
  7
ROMANS
 73
     1
 44
1.0
1001
ACAD
1000
MTEXTBEGIN
1070
    73
1070
     1
1070
    44
1040
1.0
1070
    74
1070
     0
1000
MTEXTEND
  0
POINT
  5
761F
330
7553
100
AcDbEntity
  8
Defpoints
 62
     0
100
AcDbPoint
 10
79886.87723464434
 20
-5053.03753725742
 30
0.0
  0
POINT
  5
7620
330
7553
100
AcDbEntity
  8
Defpoints
 62
     0
100
AcDbPoint
 10
80284.87723464436
 20
-5053.03753725742
 30
0.0
  0
POINT
  5
7621
330
7553
100
AcDbEntity
  8
Defpoints
 62
     0
100
AcDbPoint
 10
80284.87723464436
 20
-5895.163835702348
 30
0.0
  0
ENDBLK
  5
7555
330
7553
100
AcDbEntity
  8
0
 48
4.0
100
AcDbBlockEnd
  0
BLOCK
  5
755E
330
755D
100
AcDbEntity
  8
0
 48
4.0
100
AcDbBlockBegin
  2
*D331
 70
     1
 10
0.0
 20
0.0
 30
0.0
  3
*D331
  1

  0
LINE
  5
7622
330
755D
100
AcDbEntity
  8
WYMIARY
 62
     1
370
    -2
100
AcDbLine
 10
80314.87723464437
 20
-5895.163835702348
 30
0.0
 11
80466.87723464435
 21
-5895.163835702348
 31
0.0
  0
INSERT
  5
7623
330
755D
100
AcDbEntity
  8
WYMIARY
 62
     1
370
    -2
100
AcDbBlockReference
  2
B-DIM
 10
80284.87723464436
 20
-5895.163835702348
 30
0.0
 41
30.0
 42
30.0
 43
30.0
 50
180.0
  0
INSERT
  5
7624
330
755D
100
AcDbEntity
  8
WYMIARY
 62
     1
370
    -2
100
AcDbBlockReference
  2
B-DIM
 10
80496.87723464435
 20
-5895.163835702348
 30
0.0
 41
30.0
 42
30.0
 43
30.0
  0
MTEXT
  5
7625
330
755D
100
AcDbEntity
  8
WYMIARY
 62
   140
100
AcDbMText
 10
80390.87723464435
 20
-5815.163835702348
 30
0.0
 40
80.0
 41
0.0
 71
     5
 72
     1
  1
\A1;212
  7
ROMANS
 73
     1
 44
1.0
1001
ACAD
1000
MTEXTBEGIN
1070
    73
1070
     1
1070
    44
1040
1.0
1070
    74
1070
     0
1000
MTEXTEND
  0
POINT
  5
7626
330
755D
100
AcDbEntity
  8
Defpoints
 62
     0
100
AcDbPoint
 10
80284.87723464436
 20
-5053.03753725742
 30
0.0
  0
POINT
  5
7627
330
755D
100
AcDbEntity
  8
Defpoints
 62
     0
100
AcDbPoint
 10
80496.87723464435
 20
-5083.03753725742
 30
0.0
  0
POINT
  5
7628
330
755D
100
AcDbEntity
  8
Defpoints
 62
     0
100
AcDbPoint
 10
80496.87723464435
 20
-5895.163835702348
 30
0.0
  0
ENDBLK
  5
755F
330
755D
100
AcDbEntity
  8
0
 48
4.0
100
AcDbBlockEnd
  0
BLOCK
  5
7568
330
7567
100
AcDbEntity
  8
0
 48
4.0
100
AcDbBlockBegin
  2
*D332
 70
     1
 10
0.0
 20
0.0
 30
0.0
  3
*D332
  1

  0
LINE
  5
7629
330
7567
100
AcDbEntity
  8
WYMIARY
 62
     1
370
    -2
100
AcDbLine
 10
80526.87723464435
 20
-5895.163835702348
 30
0.0
 11
80866.87723464438
 21
-5895.163835702348
 31
0.0
  0
INSERT
  5
762A
330
7567
100
AcDbEntity
  8
WYMIARY
 62
     1
370
    -2
100
AcDbBlockReference
  2
B-DIM
 10
80496.87723464435
 20
-5895.163835702348
 30
0.0
 41
30.0
 42
30.0
 43
30.0
 50
180.0
  0
INSERT
  5
762B
330
7567
100
AcDbEntity
  8
WYMIARY
 62
     1
370
    -2
100
AcDbBlockReference
  2
B-DIM
 10
80896.87723464438
 20
-5895.163835702348
 30
0.0
 41
30.0
 42
30.0
 43
30.0
  0
MTEXT
  5
762C
330
7567
100
AcDbEntity
  8
WYMIARY
 62
   140
100
AcDbMText
 10
80696.87723464436
 20
-5815.163835702348
 30
0.0
 40
80.0
 41
0.0
 71
     5
 72
     1
  1
\A1;400
  7
ROMANS
 73
     1
 44
1.0
1001
ACAD
1000
MTEXTBEGIN
1070
    73
1070
     1
1070
    44
1040
1.0
1070
    74
1070
     0
1000
MTEXTEND
  0
POINT
  5
762D
330
7567
100
AcDbEntity
  8
Defpoints
 62
     0
100
AcDbPoint
 10
80496.87723464435
 20
-5083.03753725742
 30
0.0
  0
POINT
  5
762E
330
7567
100
AcDbEntity
  8
Defpoints
 62
     0
100
AcDbPoint
 10
80896.87723464438
 20
-5083.03753725742
 30
0.0
  0
POINT
  5
762F
330
7567
100
AcDbEntity
  8
Defpoints
 62
     0
100
AcDbPoint
 10
80896.87723464438
 20
-5895.163835702348
 30
0.0
  0
ENDBLK
  5
7569
330
7567
100
AcDbEntity
  8
0
 48
4.0
100
AcDbBlockEnd
  0
BLOCK
  5
7572
330
7571
100
AcDbEntity
  8
0
 48
4.0
100
AcDbBlockBegin
  2
*D333
 70
     1
 10
0.0
 20
0.0
 30
0.0
  3
*D333
  1

  0
LINE
  5
7630
330
7571
100
AcDbEntity
  8
WYMIARY
 62
     1
370
    -2
100
AcDbLine
 10
80926.87723464438
 20
-5895.163835702348
 30
0.0
 11
81416.87723464434
 21
-5895.163835702348
 31
0.0
  0
INSERT
  5
7631
330
7571
100
AcDbEntity
  8
WYMIARY
 62
     1
370
    -2
100
AcDbBlockReference
  2
B-DIM
 10
80896.87723464438
 20
-5895.163835702348
 30
0.0
 41
30.0
 42
30.0
 43
30.0
 50
180.0
  0
INSERT
  5
7632
330
7571
100
AcDbEntity
  8
WYMIARY
 62
     1
370
    -2
100
AcDbBlockReference
  2
B-DIM
 10
81446.87723464434
 20
-5895.163835702348
 30
0.0
 41
30.0
 42
30.0
 43
30.0
  0
MTEXT
  5
7633
330
7571
100
AcDbEntity
  8
WYMIARY
 62
   140
100
AcDbMText
 10
81171.87723464436
 20
-5815.163835702348
 30
0.0
 40
80.0
 41
0.0
 71
     5
 72
     1
  1
\A1;550
  7
ROMANS
 73
     1
 44
1.0
1001
ACAD
1000
MTEXTBEGIN
1070
    73
1070
     1
1070
    44
1040
1.0
1070
    74
1070
     0
1000
MTEXTEND
  0
POINT
  5
7634
330
7571
100
AcDbEntity
  8
Defpoints
 62
     0
100
AcDbPoint
 10
80896.87723464438
 20
-5083.03753725742
 30
0.0
  0
POINT
  5
7635
330
7571
100
AcDbEntity
  8
Defpoints
 62
     0
100
AcDbPoint
 10
81446.87723464434
 20
-5083.03753725742
 30
0.0
  0
POINT
  5
7636
330
7571
100
AcDbEntity
  8
Defpoints
 62
     0
100
AcDbPoint
 10
81446.87723464434
 20
-5895.163835702348
 30
0.0
  0
ENDBLK
  5
7573
330
7571
100
AcDbEntity
  8
0
 48
4.0
100
AcDbBlockEnd
  0
BLOCK
  5
757C
330
757B
100
AcDbEntity
  8
0
 48
4.0
100
AcDbBlockBegin
  2
*D334
 70
     1
 10
0.0
 20
0.0
 30
0.0
  3
*D334
  1

  0
LINE
  5
7637
330
757B
100
AcDbEntity
  8
WYMIARY
 62
     1
370
    -2
100
AcDbLine
 10
81476.87723464434
 20
-5895.163835702348
 30
0.0
 11
81766.87723464434
 21
-5895.163835702348
 31
0.0
  0
INSERT
  5
7638
330
757B
100
AcDbEntity
  8
WYMIARY
 62
     1
370
    -2
100
AcDbBlockReference
  2
B-DIM
 10
81446.87723464434
 20
-5895.163835702348
 30
0.0
 41
30.0
 42
30.0
 43
30.0
 50
180.0
  0
INSERT
  5
7639
330
757B
100
AcDbEntity
  8
WYMIARY
 62
     1
370
    -2
100
AcDbBlockReference
  2
B-DIM
 10
81796.87723464434
 20
-5895.163835702348
 30
0.0
 41
30.0
 42
30.0
 43
30.0
  0
MTEXT
  5
763A
330
757B
100
AcDbEntity
  8
WYMIARY
 62
   140
100
AcDbMText
 10
81621.87723464434
 20
-5815.163835702348
 30
0.0
 40
80.0
 41
0.0
 71
     5
 72
     1
  1
\A1;350
  7
ROMANS
 73
     1
 44
1.0
1001
ACAD
1000
MTEXTBEGIN
1070
    73
1070
     1
1070
    44
1040
1.0
1070
    74
1070
     0
1000
MTEXTEND
  0
POINT
  5
763B
330
757B
100
AcDbEntity
  8
Defpoints
 62
     0
100
AcDbPoint
 10
81446.87723464434
 20
-5083.03753725742
 30
0.0
  0
POINT
  5
763C
330
757B
100
AcDbEntity
  8
Defpoints
 62
     0
100
AcDbPoint
 10
81796.87723464434
 20
-5083.03753725742
 30
0.0
  0
POINT
  5
763D
330
757B
100
AcDbEntity
  8
Defpoints
 62
     0
100
AcDbPoint
 10
81796.87723464434
 20
-5895.163835702348
 30
0.0
  0
ENDBLK
  5
757D
330
757B
100
AcDbEntity
  8
0
 48
4.0
100
AcDbBlockEnd
  0
BLOCK
  5
7586
330
7585
100
AcDbEntity
  8
0
 48
4.0
100
AcDbBlockBegin
  2
*D335
 70
     1
 10
0.0
 20
0.0
 30
0.0
  3
*D335
  1

  0
LINE
  5
76AE
330
7585
100
AcDbEntity
  8
WYMIARY
 62
     1
370
    -2
100
AcDbLine
 10
81766.87723464434
 20
-6095.163835702353
 30
0.0
 11
79916.87723464434
 21
-6095.163835702353
 31
0.0
  0
INSERT
  5
76AF
330
7585
100
AcDbEntity
  8
WYMIARY
 62
     1
370
    -2
100
AcDbBlockReference
  2
B-DIM
 10
81796.87723464434
 20
-6095.163835702353
 30
0.0
 41
30.0
 42
30.0
 43
30.0
  0
INSERT
  5
76B0
330
7585
100
AcDbEntity
  8
WYMIARY
 62
     1
370
    -2
100
AcDbBlockReference
  2
B-DIM
 10
79886.87723464434
 20
-6095.163835702353
 30
0.0
 41
30.0
 42
30.0
 43
30.0
 50
180.0
  0
MTEXT
  5
76B1
330
7585
100
AcDbEntity
  8
WYMIARY
 62
   140
100
AcDbMText
 10
80841.87723464435
 20
-6015.163835702352
 30
0.0
 40
80.0
 41
0.0
 71
     5
 72
     1
  1
\A1;1910
  7
ROMANS
 73
     1
 44
1.0
1001
ACAD
1000
MTEXTBEGIN
1070
    73
1070
     1
1070
    44
1040
1.0
1070
    74
1070
     0
1000
MTEXTEND
  0
POINT
  5
76B2
330
7585
100
AcDbEntity
  8
Defpoints
 62
     0
100
AcDbPoint
 10
81796.87723464434
 20
-4343.037537257419
 30
0.0
  0
POINT
  5
76B3
330
7585
100
AcDbEntity
  8
Defpoints
 62
     0
100
AcDbPoint
 10
79886.87723464434
 20
-4343.037537257419
 30
0.0
  0
POINT
  5
76B4
330
7585
100
AcDbEntity
  8
Defpoints
 62
     0
100
AcDbPoint
 10
79886.87723464434
 20
-6095.163835702353
 30
0.0
  0
ENDBLK
  5
7587
330
7585
100
AcDbEntity
  8
0
 48
4.0
100
AcDbBlockEnd
  0
BLOCK
  5
7590
330
758F
100
AcDbEntity
  8
0
 48
4.0
100
AcDbBlockBegin
  2
*D336
 70
     1
 10
0.0
 20
0.0
 30
0.0
  3
*D336
  1

  0
LINE
  5
7645
330
758F
100
AcDbEntity
  8
WYMIARY
 62
     1
370
    -2
100
AcDbLine
 10
82556.67078312681
 20
-4163.037537257419
 30
0.0
 11
82556.67078312681
 21
-4313.03753725742
 31
0.0
  0
INSERT
  5
7646
330
758F
100
AcDbEntity
  8
WYMIARY
 62
     1
370
    -2
100
AcDbBlockReference
  2
B-DIM
 10
82556.67078312681
 20
-4133.03753725742
 30
0.0
 41
30.0
 42
30.0
 43
30.0
 50
90.0
  0
INSERT
  5
7647
330
758F
100
AcDbEntity
  8
WYMIARY
 62
     1
370
    -2
100
AcDbBlockReference
  2
B-DIM
 10
82556.67078312681
 20
-4343.037537257419
 30
0.0
 41
30.0
 42
30.0
 43
30.0
 50
270.0
  0
MTEXT
  5
7648
330
758F
100
AcDbEntity
  8
WYMIARY
 62
   140
100
AcDbMText
 10
82476.67078312682
 20
-4238.037537257407
 30
0.0
 40
80.0
 41
0.0
 71
     5
 72
     1
  1
\A1;210
  7
ROMANS
 11
0.0000000000000001
 21
1.0
 31
0.0
 73
     1
 44
1.0
1001
ACAD
1000
MTEXTBEGIN
1070
    73
1070
     1
1070
    44
1040
1.0
1070
    74
1070
     0
1000
MTEXTEND
  0
POINT
  5
7649
330
758F
100
AcDbEntity
  8
Defpoints
 62
     0
100
AcDbPoint
 10
81446.87723464434
 20
-4133.03753725742
 30
0.0
  0
POINT
  5
764A
330
758F
100
AcDbEntity
  8
Defpoints
 62
     0
100
AcDbPoint
 10
81446.87723464434
 20
-4343.037537257419
 30
0.0
  0
POINT
  5
764B
330
758F
100
AcDbEntity
  8
Defpoints
 62
     0
100
AcDbPoint
 10
82556.67078312681
 20
-4343.037537257419
 30
0.0
  0
ENDBLK
  5
7591
330
758F
100
AcDbEntity
  8
0
 48
4.0
100
AcDbBlockEnd
  0
BLOCK
  5
759A
330
7599
100
AcDbEntity
  8
0
 48
4.0
100
AcDbBlockBegin
  2
*D337
 70
     1
 10
0.0
 20
0.0
 30
0.0
  3
*D337
  1

  0
LINE
  5
764C
330
7599
100
AcDbEntity
  8
WYMIARY
 62
     1
370
    -2
100
AcDbLine
 10
82556.67078312681
 20
-4373.037537257419
 30
0.0
 11
82556.67078312681
 21
-5053.03753725742
 31
0.0
  0
INSERT
  5
764D
330
7599
100
AcDbEntity
  8
WYMIARY
 62
     1
370
    -2
100
AcDbBlockReference
  2
B-DIM
 10
82556.67078312681
 20
-4343.037537257419
 30
0.0
 41
30.0
 42
30.0
 43
30.0
 50
90.0
  0
INSERT
  5
764E
330
7599
100
AcDbEntity
  8
WYMIARY
 62
     1
370
    -2
100
AcDbBlockReference
  2
B-DIM
 10
82556.67078312681
 20
-5083.03753725742
 30
0.0
 41
30.0
 42
30.0
 43
30.0
 50
270.0
  0
MTEXT
  5
764F
330
7599
100
AcDbEntity
  8
WYMIARY
 62
   140
100
AcDbMText
 10
82476.67078312682
 20
-4713.037537257407
 30
0.0
 40
80.0
 41
0.0
 71
     5
 72
     1
  1
\A1;740
  7
ROMANS
 11
0.0000000000000001
 21
1.0
 31
0.0
 73
     1
 44
1.0
1001
ACAD
1000
MTEXTBEGIN
1070
    73
1070
     1
1070
    44
1040
1.0
1070
    74
1070
     0
1000
MTEXTEND
  0
POINT
  5
7650
330
7599
100
AcDbEntity
  8
Defpoints
 62
     0
100
AcDbPoint
 10
81446.87723464434
 20
-4343.037537257419
 30
0.0
  0
POINT
  5
7651
330
7599
100
AcDbEntity
  8
Defpoints
 62
     0
100
AcDbPoint
 10
81446.87723464434
 20
-5083.03753725742
 30
0.0
  0
POINT
  5
7652
330
7599
100
AcDbEntity
  8
Defpoints
 62
     0
100
AcDbPoint
 10
82556.67078312681
 20
-5083.03753725742
 30
0.0
  0
ENDBLK
  5
759B
330
7599
100
AcDbEntity
  8
0
 48
4.0
100
AcDbBlockEnd
  0
BLOCK
  5
75A4
330
75A3
100
AcDbEntity
  8
0
 48
4.0
100
AcDbBlockBegin
  2
*D338
 70
     1
 10
0.0
 20
0.0
 30
0.0
  3
*D338
  1

  0
LINE
  5
7653
330
75A3
100
AcDbEntity
  8
WYMIARY
 62
     1
370
    -2
100
AcDbLine
 10
82556.67078312681
 20
-5113.03753725742
 30
0.0
 11
82556.67078312681
 21
-5228.037537257423
 31
0.0
  0
INSERT
  5
7654
330
75A3
100
AcDbEntity
  8
WYMIARY
 62
     1
370
    -2
100
AcDbBlockReference
  2
B-DIM
 10
82556.67078312681
 20
-5083.03753725742
 30
0.0
 41
30.0
 42
30.0
 43
30.0
 50
90.0
  0
INSERT
  5
7655
330
75A3
100
AcDbEntity
  8
WYMIARY
 62
     1
370
    -2
100
AcDbBlockReference
  2
B-DIM
 10
82556.67078312681
 20
-5258.037537257424
 30
0.0
 41
30.0
 42
30.0
 43
30.0
 50
270.0
  0
MTEXT
  5
7656
330
75A3
100
AcDbEntity
  8
WYMIARY
 62
   140
100
AcDbMText
 10
82476.67078312682
 20
-5170.537537257409
 30
0.0
 40
80.0
 41
0.0
 71
     5
 72
     1
  1
\A1;175
  7
ROMANS
 11
0.0000000000000001
 21
1.0
 31
0.0
 73
     1
 44
1.0
1001
ACAD
1000
MTEXTBEGIN
1070
    73
1070
     1
1070
    44
1040
1.0
1070
    74
1070
     0
1000
MTEXTEND
  0
POINT
  5
7657
330
75A3
100
AcDbEntity
  8
Defpoints
 62
     0
100
AcDbPoint
 10
81446.87723464434
 20
-5083.03753725742
 30
0.0
  0
POINT
  5
7658
330
75A3
100
AcDbEntity
  8
Defpoints
 62
     0
100
AcDbPoint
 10
81446.87723464434
 20
-5258.037537257424
 30
0.0
  0
POINT
  5
7659
330
75A3
100
AcDbEntity
  8
Defpoints
 62
     0
100
AcDbPoint
 10
82556.67078312681
 20
-5258.037537257424
 30
0.0
  0
ENDBLK
  5
75A5
330
75A3
100
AcDbEntity
  8
0
 48
4.0
100
AcDbBlockEnd
  0
BLOCK
  5
75AE
330
75AD
100
AcDbEntity
  8
0
 48
4.0
100
AcDbBlockBegin
  2
*D339
 70
     1
 10
0.0
 20
0.0
 30
0.0
  3
*D339
  1

  0
LINE
  5
76BC
330
75AD
100
AcDbEntity
  8
WYMIARY
 62
     1
370
    -2
100
AcDbLine
 10
82756.67078312682
 20
-5228.037537257423
 30
0.0
 11
82756.67078312682
 21
-4163.037537257419
 31
0.0
  0
INSERT
  5
76BD
330
75AD
100
AcDbEntity
  8
WYMIARY
 62
     1
370
    -2
100
AcDbBlockReference
  2
B-DIM
 10
82756.67078312682
 20
-5258.037537257424
 30
0.0
 41
30.0
 42
30.0
 43
30.0
 50
270.0
  0
INSERT
  5
76BE
330
75AD
100
AcDbEntity
  8
WYMIARY
 62
     1
370
    -2
100
AcDbBlockReference
  2
B-DIM
 10
82756.67078312682
 20
-4133.03753725742
 30
0.0
 41
30.0
 42
30.0
 43
30.0
 50
90.0
  0
MTEXT
  5
76BF
330
75AD
100
AcDbEntity
  8
WYMIARY
 62
   140
100
AcDbMText
 10
82676.67078312683
 20
-4695.537537257409
 30
0.0
 40
80.0
 41
0.0
 71
     5
 72
     1
  1
\A1;1125
  7
ROMANS
 11
0.0000000000000001
 21
1.0
 31
0.0
 73
     1
 44
1.0
1001
ACAD
1000
MTEXTBEGIN
1070
    73
1070
     1
1070
    44
1040
1.0
1070
    74
1070
     0
1000
MTEXTEND
  0
POINT
  5
76C0
330
75AD
100
AcDbEntity
  8
Defpoints
 62
     0
100
AcDbPoint
 10
80896.87723464438
 20
-5258.037537257424
 30
0.0
  0
POINT
  5
76C1
330
75AD
100
AcDbEntity
  8
Defpoints
 62
     0
100
AcDbPoint
 10
80896.87723464438
 20
-4133.03753725742
 30
0.0
  0
POINT
  5
76C2
330
75AD
100
AcDbEntity
  8
Defpoints
 62
     0
100
AcDbPoint
 10
82756.67078312682
 20
-4133.03753725742
 30
0.0
  0
ENDBLK
  5
75AF
330
75AD
100
AcDbEntity
  8
0
 48
4.0
100
AcDbBlockEnd
  0
BLOCK
  5
771E
330
771D
100
AcDbEntity
  8
0
 48
4.0
100
AcDbBlockBegin
  2
*D350
 70
     1
 10
0.0
 20
0.0
 30
0.0
  3
*D350
  1

  0
LINE
  5
7781
330
771D
100
AcDbEntity
  8
WYMIARY
 62
     1
370
    -2
100
AcDbLine
 10
87019.67292733987
 20
-5895.163835702348
 30
0.0
 11
86681.67292733985
 21
-5895.163835702348
 31
0.0
  0
INSERT
  5
7782
330
771D
100
AcDbEntity
  8
WYMIARY
 62
     1
370
    -2
100
AcDbBlockReference
  2
B-DIM
 10
87049.67292733988
 20
-5895.163835702348
 30
0.0
 41
30.0
 42
30.0
 43
30.0
  0
INSERT
  5
7783
330
771D
100
AcDbEntity
  8
WYMIARY
 62
     1
370
    -2
100
AcDbBlockReference
  2
B-DIM
 10
86651.67292733984
 20
-5895.163835702348
 30
0.0
 41
30.0
 42
30.0
 43
30.0
 50
180.0
  0
MTEXT
  5
7784
330
771D
100
AcDbEntity
  8
WYMIARY
 62
   140
100
AcDbMText
 10
86850.67292733986
 20
-5815.163835702348
 30
0.0
 40
80.0
 41
0.0
 71
     5
 72
     1
  1
\A1;398
  7
ROMANS
 73
     1
 44
1.0
1001
ACAD
1000
MTEXTBEGIN
1070
    73
1070
     1
1070
    44
1040
1.0
1070
    74
1070
     0
1000
MTEXTEND
  0
POINT
  5
7785
330
771D
100
AcDbEntity
  8
Defpoints
 62
     0
100
AcDbPoint
 10
87049.67292733988
 20
-5053.03753725742
 30
0.0
  0
POINT
  5
7786
330
771D
100
AcDbEntity
  8
Defpoints
 62
     0
100
AcDbPoint
 10
86651.67292733984
 20
-5053.03753725742
 30
0.0
  0
POINT
  5
7787
330
771D
100
AcDbEntity
  8
Defpoints
 62
     0
100
AcDbPoint
 10
86651.67292733984
 20
-5895.163835702348
 30
0.0
  0
ENDBLK
  5
771F
330
771D
100
AcDbEntity
  8
0
 48
4.0
100
AcDbBlockEnd
  0
BLOCK
  5
7728
330
7727
100
AcDbEntity
  8
0
 48
4.0
100
AcDbBlockBegin
  2
*D351
 70
     1
 10
0.0
 20
0.0
 30
0.0
  3
*D351
  1

  0
LINE
  5
7788
330
7727
100
AcDbEntity
  8
WYMIARY
 62
     1
370
    -2
100
AcDbLine
 10
86621.67292733984
 20
-5895.163835702348
 30
0.0
 11
86469.67292733988
 21
-5895.163835702348
 31
0.0
  0
INSERT
  5
7789
330
7727
100
AcDbEntity
  8
WYMIARY
 62
     1
370
    -2
100
AcDbBlockReference
  2
B-DIM
 10
86651.67292733984
 20
-5895.163835702348
 30
0.0
 41
30.0
 42
30.0
 43
30.0
  0
INSERT
  5
778A
330
7727
100
AcDbEntity
  8
WYMIARY
 62
     1
370
    -2
100
AcDbBlockReference
  2
B-DIM
 10
86439.67292733988
 20
-5895.163835702348
 30
0.0
 41
30.0
 42
30.0
 43
30.0
 50
180.0
  0
MTEXT
  5
778B
330
7727
100
AcDbEntity
  8
WYMIARY
 62
   140
100
AcDbMText
 10
86545.67292733986
 20
-5815.163835702348
 30
0.0
 40
80.0
 41
0.0
 71
     5
 72
     1
  1
\A1;212
  7
ROMANS
 73
     1
 44
1.0
1001
ACAD
1000
MTEXTBEGIN
1070
    73
1070
     1
1070
    44
1040
1.0
1070
    74
1070
     0
1000
MTEXTEND
  0
POINT
  5
778C
330
7727
100
AcDbEntity
  8
Defpoints
 62
     0
100
AcDbPoint
 10
86651.67292733984
 20
-5053.03753725742
 30
0.0
  0
POINT
  5
778D
330
7727
100
AcDbEntity
  8
Defpoints
 62
     0
100
AcDbPoint
 10
86439.67292733988
 20
-5083.03753725742
 30
0.0
  0
POINT
  5
778E
330
7727
100
AcDbEntity
  8
Defpoints
 62
     0
100
AcDbPoint
 10
86439.67292733988
 20
-5895.163835702348
 30
0.0
  0
ENDBLK
  5
7729
330
7727
100
AcDbEntity
  8
0
 48
4.0
100
AcDbBlockEnd
  0
BLOCK
  5
7732
330
7731
100
AcDbEntity
  8
0
 48
4.0
100
AcDbBlockBegin
  2
*D352
 70
     1
 10
0.0
 20
0.0
 30
0.0
  3
*D352
  1

  0
LINE
  5
778F
330
7731
100
AcDbEntity
  8
WYMIARY
 62
     1
370
    -2
100
AcDbLine
 10
86409.67292733988
 20
-5895.163835702348
 30
0.0
 11
86069.67292733985
 21
-5895.163835702348
 31
0.0
  0
INSERT
  5
7790
330
7731
100
AcDbEntity
  8
WYMIARY
 62
     1
370
    -2
100
AcDbBlockReference
  2
B-DIM
 10
86439.67292733988
 20
-5895.163835702348
 30
0.0
 41
30.0
 42
30.0
 43
30.0
  0
INSERT
  5
7791
330
7731
100
AcDbEntity
  8
WYMIARY
 62
     1
370
    -2
100
AcDbBlockReference
  2
B-DIM
 10
86039.67292733985
 20
-5895.163835702348
 30
0.0
 41
30.0
 42
30.0
 43
30.0
 50
180.0
  0
MTEXT
  5
7792
330
7731
100
AcDbEntity
  8
WYMIARY
 62
   140
100
AcDbMText
 10
86239.67292733986
 20
-5815.163835702348
 30
0.0
 40
80.0
 41
0.0
 71
     5
 72
     1
  1
\A1;400
  7
ROMANS
 73
     1
 44
1.0
1001
ACAD
1000
MTEXTBEGIN
1070
    73
1070
     1
1070
    44
1040
1.0
1070
    74
1070
     0
1000
MTEXTEND
  0
POINT
  5
7793
330
7731
100
AcDbEntity
  8
Defpoints
 62
     0
100
AcDbPoint
 10
86439.67292733988
 20
-5083.03753725742
 30
0.0
  0
POINT
  5
7794
330
7731
100
AcDbEntity
  8
Defpoints
 62
     0
100
AcDbPoint
 10
86039.67292733985
 20
-5083.03753725742
 30
0.0
  0
POINT
  5
7795
330
7731
100
AcDbEntity
  8
Defpoints
 62
     0
100
AcDbPoint
 10
86039.67292733985
 20
-5895.163835702348
 30
0.0
  0
ENDBLK
  5
7733
330
7731
100
AcDbEntity
  8
0
 48
4.0
100
AcDbBlockEnd
  0
BLOCK
  5
773C
330
773B
100
AcDbEntity
  8
0
 48
4.0
100
AcDbBlockBegin
  2
*D353
 70
     1
 10
0.0
 20
0.0
 30
0.0
  3
*D353
  1

  0
LINE
  5
7796
330
773B
100
AcDbEntity
  8
WYMIARY
 62
     1
370
    -2
100
AcDbLine
 10
86009.67292733985
 20
-5895.163835702348
 30
0.0
 11
85519.67292733989
 21
-5895.163835702348
 31
0.0
  0
INSERT
  5
7797
330
773B
100
AcDbEntity
  8
WYMIARY
 62
     1
370
    -2
100
AcDbBlockReference
  2
B-DIM
 10
86039.67292733985
 20
-5895.163835702348
 30
0.0
 41
30.0
 42
30.0
 43
30.0
  0
INSERT
  5
7798
330
773B
100
AcDbEntity
  8
WYMIARY
 62
     1
370
    -2
100
AcDbBlockReference
  2
B-DIM
 10
85489.67292733989
 20
-5895.163835702348
 30
0.0
 41
30.0
 42
30.0
 43
30.0
 50
180.0
  0
MTEXT
  5
7799
330
773B
100
AcDbEntity
  8
WYMIARY
 62
   140
100
AcDbMText
 10
85764.67292733987
 20
-5815.163835702348
 30
0.0
 40
80.0
 41
0.0
 71
     5
 72
     1
  1
\A1;550
  7
ROMANS
 73
     1
 44
1.0
1001
ACAD
1000
MTEXTBEGIN
1070
    73
1070
     1
1070
    44
1040
1.0
1070
    74
1070
     0
1000
MTEXTEND
  0
POINT
  5
779A
330
773B
100
AcDbEntity
  8
Defpoints
 62
     0
100
AcDbPoint
 10
86039.67292733985
 20
-5083.03753725742
 30
0.0
  0
POINT
  5
779B
330
773B
100
AcDbEntity
  8
Defpoints
 62
     0
100
AcDbPoint
 10
85489.67292733989
 20
-5083.03753725742
 30
0.0
  0
POINT
  5
779C
330
773B
100
AcDbEntity
  8
Defpoints
 62
     0
100
AcDbPoint
 10
85489.67292733989
 20
-5895.163835702348
 30
0.0
  0
ENDBLK
  5
773D
330
773B
100
AcDbEntity
  8
0
 48
4.0
100
AcDbBlockEnd
  0
BLOCK
  5
7746
330
7745
100
AcDbEntity
  8
0
 48
4.0
100
AcDbBlockBegin
  2
*D354
 70
     1
 10
0.0
 20
0.0
 30
0.0
  3
*D354
  1

  0
LINE
  5
779D
330
7745
100
AcDbEntity
  8
WYMIARY
 62
     1
370
    -2
100
AcDbLine
 10
85459.67292733989
 20
-5895.163835702348
 30
0.0
 11
85169.67292733989
 21
-5895.163835702348
 31
0.0
  0
INSERT
  5
779E
330
7745
100
AcDbEntity
  8
WYMIARY
 62
     1
370
    -2
100
AcDbBlockReference
  2
B-DIM
 10
85489.67292733989
 20
-5895.163835702348
 30
0.0
 41
30.0
 42
30.0
 43
30.0
  0
INSERT
  5
779F
330
7745
100
AcDbEntity
  8
WYMIARY
 62
     1
370
    -2
100
AcDbBlockReference
  2
B-DIM
 10
85139.67292733989
 20
-5895.163835702348
 30
0.0
 41
30.0
 42
30.0
 43
30.0
 50
180.0
  0
MTEXT
  5
77A0
330
7745
100
AcDbEntity
  8
WYMIARY
 62
   140
100
AcDbMText
 10
85314.67292733989
 20
-5815.163835702348
 30
0.0
 40
80.0
 41
0.0
 71
     5
 72
     1
  1
\A1;350
  7
ROMANS
 73
     1
 44
1.0
1001
ACAD
1000
MTEXTBEGIN
1070
    73
1070
     1
1070
    44
1040
1.0
1070
    74
1070
     0
1000
MTEXTEND
  0
POINT
  5
77A1
330
7745
100
AcDbEntity
  8
Defpoints
 62
     0
100
AcDbPoint
 10
85489.67292733989
 20
-5083.03753725742
 30
0.0
  0
POINT
  5
77A2
330
7745
100
AcDbEntity
  8
Defpoints
 62
     0
100
AcDbPoint
 10
85139.67292733989
 20
-5083.03753725742
 30
0.0
  0
POINT
  5
77A3
330
7745
100
AcDbEntity
  8
Defpoints
 62
     0
100
AcDbPoint
 10
85139.67292733989
 20
-5895.163835702348
 30
0.0
  0
ENDBLK
  5
7747
330
7745
100
AcDbEntity
  8
0
 48
4.0
100
AcDbBlockEnd
  0
BLOCK
  5
7750
330
774F
100
AcDbEntity
  8
0
 48
4.0
100
AcDbBlockBegin
  2
*D355
 70
     1
 10
0.0
 20
0.0
 30
0.0
  3
*D355
  1

  0
LINE
  5
77A4
330
774F
100
AcDbEntity
  8
WYMIARY
 62
     1
370
    -2
100
AcDbLine
 10
85169.67292733989
 20
-6095.163835702353
 30
0.0
 11
87019.67292733987
 21
-6095.163835702353
 31
0.0
  0
INSERT
  5
77A5
330
774F
100
AcDbEntity
  8
WYMIARY
 62
     1
370
    -2
100
AcDbBlockReference
  2
B-DIM
 10
85139.67292733989
 20
-6095.163835702353
 30
0.0
 41
30.0
 42
30.0
 43
30.0
 50
180.0
  0
INSERT
  5
77A6
330
774F
100
AcDbEntity
  8
WYMIARY
 62
     1
370
    -2
100
AcDbBlockReference
  2
B-DIM
 10
87049.67292733988
 20
-6095.163835702353
 30
0.0
 41
30.0
 42
30.0
 43
30.0
  0
MTEXT
  5
77A7
330
774F
100
AcDbEntity
  8
WYMIARY
 62
   140
100
AcDbMText
 10
86094.67292733988
 20
-6015.163835702352
 30
0.0
 40
80.0
 41
0.0
 71
     5
 72
     1
  1
\A1;1910
  7
ROMANS
 73
     1
 44
1.0
1001
ACAD
1000
MTEXTBEGIN
1070
    73
1070
     1
1070
    44
1040
1.0
1070
    74
1070
     0
1000
MTEXTEND
  0
POINT
  5
77A8
330
774F
100
AcDbEntity
  8
Defpoints
 62
     0
100
AcDbPoint
 10
85139.67292733989
 20
-4343.037537257419
 30
0.0
  0
POINT
  5
77A9
330
774F
100
AcDbEntity
  8
Defpoints
 62
     0
100
AcDbPoint
 10
87049.67292733988
 20
-4343.037537257419
 30
0.0
  0
POINT
  5
77AA
330
774F
100
AcDbEntity
  8
Defpoints
 62
     0
100
AcDbPoint
 10
87049.67292733988
 20
-6095.163835702353
 30
0.0
  0
ENDBLK
  5
7751
330
774F
100
AcDbEntity
  8
0
 48
4.0
100
AcDbBlockEnd
  0
BLOCK
  5
775A
330
7759
100
AcDbEntity
  8
0
 48
4.0
100
AcDbBlockBegin
  2
*D356
 70
     1
 10
0.0
 20
0.0
 30
0.0
  3
*D356
  1

  0
LINE
  5
77AB
330
7759
100
AcDbEntity
  8
WYMIARY
 62
     1
370
    -2
100
AcDbLine
 10
84379.87937885742
 20
-4163.037537257419
 30
0.0
 11
84379.87937885742
 21
-4313.03753725742
 31
0.0
  0
INSERT
  5
77AC
330
7759
100
AcDbEntity
  8
WYMIARY
 62
     1
370
    -2
100
AcDbBlockReference
  2
B-DIM
 10
84379.87937885742
 20
-4133.03753725742
 30
0.0
 41
30.0
 42
30.0
 43
30.0
 50
90.0
  0
INSERT
  5
77AD
330
7759
100
AcDbEntity
  8
WYMIARY
 62
     1
370
    -2
100
AcDbBlockReference
  2
B-DIM
 10
84379.87937885742
 20
-4343.037537257419
 30
0.0
 41
30.0
 42
30.0
 43
30.0
 50
270.0
  0
MTEXT
  5
77AE
330
7759
100
AcDbEntity
  8
WYMIARY
 62
   140
100
AcDbMText
 10
84299.87937885741
 20
-4238.037537257406
 30
0.0
 40
80.0
 41
0.0
 71
     5
 72
     1
  1
\A1;210
  7
ROMANS
 11
0.0000000000000001
 21
1.0
 31
0.0
 73
     1
 44
1.0
1001
ACAD
1000
MTEXTBEGIN
1070
    73
1070
     1
1070
    44
1040
1.0
1070
    74
1070
     0
1000
MTEXTEND
  0
POINT
  5
77AF
330
7759
100
AcDbEntity
  8
Defpoints
 62
     0
100
AcDbPoint
 10
85489.67292733989
 20
-4133.03753725742
 30
0.0
  0
POINT
  5
77B0
330
7759
100
AcDbEntity
  8
Defpoints
 62
     0
100
AcDbPoint
 10
85489.67292733989
 20
-4343.037537257419
 30
0.0
  0
POINT
  5
77B1
330
7759
100
AcDbEntity
  8
Defpoints
 62
     0
100
AcDbPoint
 10
84379.87937885742
 20
-4343.037537257419
 30
0.0
  0
ENDBLK
  5
775B
330
7759
100
AcDbEntity
  8
0
 48
4.0
100
AcDbBlockEnd
  0
BLOCK
  5
7764
330
7763
100
AcDbEntity
  8
0
 48
4.0
100
AcDbBlockBegin
  2
*D357
 70
     1
 10
0.0
 20
0.0
 30
0.0
  3
*D357
  1

  0
LINE
  5
77B2
330
7763
100
AcDbEntity
  8
WYMIARY
 62
     1
370
    -2
100
AcDbLine
 10
84379.87937885742
 20
-4373.037537257419
 30
0.0
 11
84379.87937885742
 21
-5053.03753725742
 31
0.0
  0
INSERT
  5
77B3
330
7763
100
AcDbEntity
  8
WYMIARY
 62
     1
370
    -2
100
AcDbBlockReference
  2
B-DIM
 10
84379.87937885742
 20
-4343.037537257419
 30
0.0
 41
30.0
 42
30.0
 43
30.0
 50
90.0
  0
INSERT
  5
77B4
330
7763
100
AcDbEntity
  8
WYMIARY
 62
     1
370
    -2
100
AcDbBlockReference
  2
B-DIM
 10
84379.87937885742
 20
-5083.03753725742
 30
0.0
 41
30.0
 42
30.0
 43
30.0
 50
270.0
  0
MTEXT
  5
77B5
330
7763
100
AcDbEntity
  8
WYMIARY
 62
   140
100
AcDbMText
 10
84299.87937885741
 20
-4713.037537257406
 30
0.0
 40
80.0
 41
0.0
 71
     5
 72
     1
  1
\A1;740
  7
ROMANS
 11
0.0000000000000001
 21
1.0
 31
0.0
 73
     1
 44
1.0
1001
ACAD
1000
MTEXTBEGIN
1070
    73
1070
     1
1070
    44
1040
1.0
1070
    74
1070
     0
1000
MTEXTEND
  0
POINT
  5
77B6
330
7763
100
AcDbEntity
  8
Defpoints
 62
     0
100
AcDbPoint
 10
85489.67292733989
 20
-4343.037537257419
 30
0.0
  0
POINT
  5
77B7
330
7763
100
AcDbEntity
  8
Defpoints
 62
     0
100
AcDbPoint
 10
85489.67292733989
 20
-5083.03753725742
 30
0.0
  0
POINT
  5
77B8
330
7763
100
AcDbEntity
  8
Defpoints
 62
     0
100
AcDbPoint
 10
84379.87937885742
 20
-5083.03753725742
 30
0.0
  0
ENDBLK
  5
7765
330
7763
100
AcDbEntity
  8
0
 48
4.0
100
AcDbBlockEnd
  0
BLOCK
  5
776E
330
776D
100
AcDbEntity
  8
0
 48
4.0
100
AcDbBlockBegin
  2
*D358
 70
     1
 10
0.0
 20
0.0
 30
0.0
  3
*D358
  1

  0
LINE
  5
77B9
330
776D
100
AcDbEntity
  8
WYMIARY
 62
     1
370
    -2
100
AcDbLine
 10
84379.87937885742
 20
-5113.03753725742
 30
0.0
 11
84379.87937885742
 21
-5228.037537257423
 31
0.0
  0
INSERT
  5
77BA
330
776D
100
AcDbEntity
  8
WYMIARY
 62
     1
370
    -2
100
AcDbBlockReference
  2
B-DIM
 10
84379.87937885742
 20
-5083.03753725742
 30
0.0
 41
30.0
 42
30.0
 43
30.0
 50
90.0
  0
INSERT
  5
77BB
330
776D
100
AcDbEntity
  8
WYMIARY
 62
     1
370
    -2
100
AcDbBlockReference
  2
B-DIM
 10
84379.87937885742
 20
-5258.037537257424
 30
0.0
 41
30.0
 42
30.0
 43
30.0
 50
270.0
  0
MTEXT
  5
77BC
330
776D
100
AcDbEntity
  8
WYMIARY
 62
   140
100
AcDbMText
 10
84299.87937885741
 20
-5170.537537257408
 30
0.0
 40
80.0
 41
0.0
 71
     5
 72
     1
  1
\A1;175
  7
ROMANS
 11
0.0000000000000001
 21
1.0
 31
0.0
 73
     1
 44
1.0
1001
ACAD
1000
MTEXTBEGIN
1070
    73
1070
     1
1070
    44
1040
1.0
1070
    74
1070
     0
1000
MTEXTEND
  0
POINT
  5
77BD
330
776D
100
AcDbEntity
  8
Defpoints
 62
     0
100
AcDbPoint
 10
85489.67292733989
 20
-5083.03753725742
 30
0.0
  0
POINT
  5
77BE
330
776D
100
AcDbEntity
  8
Defpoints
 62
     0
100
AcDbPoint
 10
85489.67292733989
 20
-5258.037537257424
 30
0.0
  0
POINT
  5
77BF
330
776D
100
AcDbEntity
  8
Defpoints
 62
     0
100
AcDbPoint
 10
84379.87937885742
 20
-5258.037537257424
 30
0.0
  0
ENDBLK
  5
776F
330
776D
100
AcDbEntity
  8
0
 48
4.0
100
AcDbBlockEnd
  0
BLOCK
  5
7778
330
7777
100
AcDbEntity
  8
0
 48
4.0
100
AcDbBlockBegin
  2
*D359
 70
     1
 10
0.0
 20
0.0
 30
0.0
  3
*D359
  1

  0
LINE
  5
77C0
330
7777
100
AcDbEntity
  8
WYMIARY
 62
     1
370
    -2
100
AcDbLine
 10
84179.8793788574
 20
-5228.037537257423
 30
0.0
 11
84179.8793788574
 21
-4163.037537257419
 31
0.0
  0
INSERT
  5
77C1
330
7777
100
AcDbEntity
  8
WYMIARY
 62
     1
370
    -2
100
AcDbBlockReference
  2
B-DIM
 10
84179.8793788574
 20
-5258.037537257424
 30
0.0
 41
30.0
 42
30.0
 43
30.0
 50
270.0
  0
INSERT
  5
77C2
330
7777
100
AcDbEntity
  8
WYMIARY
 62
     1
370
    -2
100
AcDbBlockReference
  2
B-DIM
 10
84179.8793788574
 20
-4133.03753725742
 30
0.0
 41
30.0
 42
30.0
 43
30.0
 50
90.0
  0
MTEXT
  5
77C3
330
7777
100
AcDbEntity
  8
WYMIARY
 62
   140
100
AcDbMText
 10
84099.87937885739
 20
-4695.537537257408
 30
0.0
 40
80.0
 41
0.0
 71
     5
 72
     1
  1
\A1;1125
  7
ROMANS
 11
0.0000000000000001
 21
1.0
 31
0.0
 73
     1
 44
1.0
1001
ACAD
1000
MTEXTBEGIN
1070
    73
1070
     1
1070
    44
1040
1.0
1070
    74
1070
     0
1000
MTEXTEND
  0
POINT
  5
77C4
330
7777
100
AcDbEntity
  8
Defpoints
 62
     0
100
AcDbPoint
 10
86039.67292733985
 20
-5258.037537257424
 30
0.0
  0
POINT
  5
77C5
330
7777
100
AcDbEntity
  8
Defpoints
 62
     0
100
AcDbPoint
 10
86039.67292733985
 20
-4133.03753725742
 30
0.0
  0
POINT
  5
77C6
330
7777
100
AcDbEntity
  8
Defpoints
 62
     0
100
AcDbPoint
 10
84179.8793788574
 20
-4133.03753725742
 30
0.0
  0
ENDBLK
  5
7779
330
7777
100
AcDbEntity
  8
0
 48
4.0
100
AcDbBlockEnd
  0
ENDSEC
  0
SECTION
  2
ENTITIES
  0
LWPOLYLINE
  5
5C9F
330
2
100
AcDbEntity
  8
A-Space-G
100
AcDbPolyline
 90
        3
 70
     1
 43
0.0
 10
83274.80336157151
 20
-2422.174642791885
 10
83378.21952146008
 20
-2322.179761783153
 10
83378.21952146008
 20
-2422.178851416313
  0
DIMENSION
  5
64F6
330
2
100
AcDbEntity
  8
0Wymiary-PL
100
AcDbDimension
  2
*D264
 10
-13874.38409491446
 20
-1650.179761783152
 30
0.0
 11
-13890.38409491446
 21
-1800.179761783154
 31
0.0
 70
    32
 71
     5
 42
299.9999999999982
  3
100-archon
100
AcDbAlignedDimension
 13
-13884.36266747476
 23
-1950.17976178315
 33
0.0
 14
-13874.38409491446
 24
-1650.179761783152
 34
0.0
 50
90.0
100
AcDbRotatedDimension
  0
LWPOLYLINE
  5
74D6
330
2
100
AcDbEntity
  8
RAMKI-A4
100
AcDbPolyline
 90
        4
 70
     1
 43
0.0
 10
78255.5858907144
 20
-13084.45334479271
 10
78255.5858907144
 20
935.5466552072902
 10
88455.58589071442
 20
935.5466552072902
 10
88455.58589071442
 20
-13084.45334479271
  0
TEXT
  5
74E9
330
2
100
AcDbEntity
  8
NAPISY
100
AcDbText
 10
79714.93783738939
 20
-12418.89726189017
 30
0.0
 40
100.0
  1
   O B R Y S   B U D Y N K U           S K A L A   1 : 5 0 0 
  7
AVA
100
AcDbText
  0
TEXT
  5
74EA
330
2
100
AcDbEntity
  8
NAPISY
100
AcDbText
 10
83408.7539039988
 20
-5989.659129423264
 30
0.0
 40
100.0
  1
OŚ ODBICIA LUSTRZANEGO
 50
90.0
  7
AVA
100
AcDbText
  0
LINE
  5
74EB
330
2
100
AcDbEntity
  8
NAPISY
  6
HIDDEN
 62
     1
100
AcDbLine
 10
83468.27508099211
 20
-7071.306292243797
 30
0.0
 11
83468.27508099211
 21
-2268.849234766414
 31
0.0
  0
TEXT
  5
74EC
330
2
100
AcDbEntity
  8
NAPISY
100
AcDbText
 10
79734.81561787214
 20
374.3364763544523
 30
0.0
 40
150.0
  1
"PENSJONAT PRZY FONTANNIE"
  7
AVA
100
AcDbText
  0
TEXT
  5
74ED
330
2
100
AcDbEntity
  8
NAPISY
100
AcDbText
 10
79811.15088850728
 20
44.46799899169127
 30
0.0
 40
150.0
  1
MOŻNA WKLEIĆ DO PROJEKTU ZAGOSPODAROWANIA TERENU
  7
AVA
100
AcDbText
  0
LINE
  5
74EF
330
2
100
AcDbEntity
  8
TEREN$0$A-MassElement-G
  6
Continuous
 62
   210
370
    -3
100
AcDbLine
 10
80496.87723464435
 20
-5083.03753725742
 30
0.0
 11
80496.87723464435
 21
-5102.03753725742
 31
0.0
  0
LWPOLYLINE
  5
74F0
330
2
100
AcDbEntity
  8
0Hatch
100
AcDbPolyline
 90
       18
 70
     1
 43
0.0
 10
79946.87723464434
 20
-4343.037537257419
 10
79946.87723464434
 20
-4993.03753725742
 10
80224.87723464438
 20
-4993.03753725742
 10
80224.87723464438
 20
-4962.03753725742
 10
80556.87723464433
 20
-4962.03753725742
 10
80556.87723464433
 20
-5023.03753725742
 10
80956.87723464438
 20
-5023.03753725742
 10
80956.87723464438
 20
-5198.037537257423
 10
81386.87723464434
 20
-5198.037537257423
 10
81386.87723464434
 20
-5023.03753725742
 10
81736.87723464434
 20
-5023.03753725742
 10
81736.87723464434
 20
-4403.03753725742
 10
81386.87723464434
 20
-4403.03753725742
 10
81386.87723464434
 20
-4193.03753725742
 10
80956.87723464438
 20
-4193.03753725742
 10
80956.87723464438
 20
-4313.03753725742
 10
80556.87723464433
 20
-4313.03753725742
 10
80556.87723464433
 20
-4343.037537257419
  0
LINE
  5
74F1
330
2
100
AcDbEntity
  8
SCIANY
100
AcDbLine
 10
81337.66497174747
 20
-5198.037537257423
 30
0.0
 11
81337.66497174747
 21
-5258.037537257424
 31
0.0
  0
LINE
  5
74F2
330
2
100
AcDbEntity
  8
SCIANY
100
AcDbLine
 10
81227.66497174746
 20
-5258.037537257424
 30
0.0
 11
81227.66497174746
 21
-5198.037537257423
 31
0.0
  0
LINE
  5
74F3
330
2
100
AcDbEntity
  8
SCIANY
100
AcDbLine
 10
80445.87723464434
 20
-4962.03753725742
 30
0.0
 11
80445.87723464434
 21
-5022.03753725742
 31
0.0
  0
LINE
  5
74F4
330
2
100
AcDbEntity
  8
SCIANY
100
AcDbLine
 10
80335.87723464433
 20
-5022.03753725742
 30
0.0
 11
80335.87723464433
 21
-4962.03753725742
 31
0.0
  0
LINE
  5
74F5
330
2
100
AcDbEntity
  8
SCIANY
100
AcDbLine
 10
80210.87723464434
 20
-4993.03753725742
 30
0.0
 11
80210.87723464434
 21
-5053.03753725742
 31
0.0
  0
LINE
  5
74F6
330
2
100
AcDbEntity
  8
SCIANY
100
AcDbLine
 10
79970.87723464434
 20
-5053.03753725742
 30
0.0
 11
79970.87723464434
 21
-4993.03753725742
 31
0.0
  0
LINE
  5
74F7
330
2
100
AcDbEntity
  8
TEREN$0$A-MassElement-G
  6
Continuous
 62
   210
370
    -3
100
AcDbLine
 10
80248.87723464438
 20
-5202.03753725742
 30
0.0
 11
80248.87723464438
 21
-5102.03753725742
 31
0.0
  0
LINE
  5
74F8
330
2
100
AcDbEntity
  8
TEREN$0$A-MassElement-G
  6
Continuous
 62
   210
370
    -3
100
AcDbLine
 10
79932.87723464434
 20
-5202.03753725742
 30
0.0
 11
80248.87723464438
 21
-5202.03753725742
 31
0.0
  0
LINE
  5
74F9
330
2
100
AcDbEntity
  8
TEREN$0$A-MassElement-G
  6
Continuous
 62
   210
370
    -3
100
AcDbLine
 10
79932.87723464434
 20
-5053.03753725742
 30
0.0
 11
79932.87723464434
 21
-5202.03753725742
 31
0.0
  0
LINE
  5
74FA
330
2
100
AcDbEntity
  8
TEREN$0$A-MassElement-G
  6
Continuous
 62
   210
370
    -3
100
AcDbLine
 10
79932.87723464434
 20
-5102.03753725742
 30
0.0
 11
80496.87723464437
 21
-5102.03753725742
 31
0.0
  0
LINE
  5
74FB
330
2
100
AcDbEntity
  8
TEREN$0$A-MassElement-G
  6
Continuous
 62
   210
370
    -3
100
AcDbLine
 10
80919.37723464438
 20
-5258.037537257424
 30
0.0
 11
80919.37723464438
 21
-5458.03753725742
 31
0.0
  0
LINE
  5
74FC
330
2
100
AcDbEntity
  8
TEREN$0$A-MassElement-G
  6
Continuous
 62
   210
370
    -3
100
AcDbLine
 10
80949.37723464438
 20
-5258.037537257424
 30
0.0
 11
80949.37723464438
 21
-5428.03753725742
 31
0.0
  0
LINE
  5
74FD
330
2
100
AcDbEntity
  8
TEREN$0$A-MassElement-G
  6
Continuous
 62
   210
370
    -3
100
AcDbLine
 10
80979.37723464438
 20
-5258.037537257424
 30
0.0
 11
80979.37723464438
 21
-5458.03753725742
 31
0.0
  0
LINE
  5
74FE
330
2
100
AcDbEntity
  8
TEREN$0$A-MassElement-G
  6
Continuous
 62
   210
370
    -3
100
AcDbLine
 10
80949.37723464438
 20
-5428.03753725742
 30
0.0
 11
80979.37723464438
 21
-5428.03753725742
 31
0.0
  0
LINE
  5
74FF
330
2
100
AcDbEntity
  8
TEREN$0$A-MassElement-G
  6
Continuous
 62
   210
370
    -3
100
AcDbLine
 10
81171.87723464434
 20
-5458.03753725742
 30
0.0
 11
81171.87723464434
 21
-5398.037537257427
 31
0.0
  0
LINE
  5
7500
330
2
100
AcDbEntity
  8
TEREN$0$A-MassElement-G
  6
Continuous
 62
   210
370
    -3
100
AcDbLine
 10
81364.37723464434
 20
-5398.03753725742
 30
0.0
 11
81364.37723464434
 21
-5258.037537257424
 31
0.0
  0
LINE
  5
7501
330
2
100
AcDbEntity
  8
TEREN$0$A-MassElement-G
  6
Continuous
 62
   210
370
    -3
100
AcDbLine
 10
81171.87723464434
 20
-5398.037537257427
 30
0.0
 11
81364.37723464434
 21
-5398.03753725742
 31
0.0
  0
LINE
  5
7502
330
2
100
AcDbEntity
  8
TEREN$0$A-MassElement-G
  6
Continuous
 62
   210
370
    -3
100
AcDbLine
 10
81394.37723464434
 20
-5428.03753725742
 30
0.0
 11
81394.37723464434
 21
-5258.037537257424
 31
0.0
  0
LINE
  5
7503
330
2
100
AcDbEntity
  8
TEREN$0$A-MassElement-G
  6
Continuous
 62
   210
370
    -3
100
AcDbLine
 10
81171.87723464434
 20
-5428.03753725742
 30
0.0
 11
81394.37723464434
 21
-5428.03753725742
 31
0.0
  0
LINE
  5
7504
330
2
100
AcDbEntity
  8
TEREN$0$A-MassElement-G
  6
Continuous
 62
   210
370
    -3
100
AcDbLine
 10
81424.37723464434
 20
-5458.03753725742
 30
0.0
 11
81424.37723464434
 21
-5258.037537257424
 31
0.0
  0
LINE
  5
7505
330
2
100
AcDbEntity
  8
TEREN$0$A-MassElement-G
  6
Continuous
 62
   210
370
    -3
100
AcDbLine
 10
80919.37723464438
 20
-5458.03753725742
 30
0.0
 11
81424.37723464434
 21
-5458.03753725742
 31
0.0
  0
LINE
  5
7506
330
2
100
AcDbEntity
  8
TEREN$0$A-MassElement-G
  6
Continuous
 62
   210
370
    -3
100
AcDbLine
 10
81424.37723464434
 20
-5458.03753725742
 30
0.0
 11
81424.37723464434
 21
-5258.037537257424
 31
0.0
  0
LINE
  5
7507
330
2
100
AcDbEntity
  8
TEREN$0$A-MassElement-G
  6
Continuous
 62
   210
370
    -3
100
AcDbLine
 10
80919.37723464438
 20
-5458.03753725742
 30
0.0
 11
81424.37723464434
 21
-5458.03753725742
 31
0.0
  0
LINE
  5
7508
102
{ACAD_REACTORS
330
77D3
102
}
330
2
100
AcDbEntity
  8
0Hatch
100
AcDbLine
 10
81751.87723464434
 20
-4261.037537257419
 30
0.0
 11
81751.87723464434
 21
-4298.03753725742
 31
0.0
  0
LINE
  5
7509
102
{ACAD_REACTORS
330
77D3
102
}
330
2
100
AcDbEntity
  8
0Hatch
100
AcDbLine
 10
81788.87723464434
 20
-4261.037537257419
 30
0.0
 11
81751.87723464434
 21
-4261.037537257419
 31
0.0
  0
LINE
  5
750A
102
{ACAD_REACTORS
330
77D3
102
}
330
2
100
AcDbEntity
  8
0Hatch
100
AcDbLine
 10
81788.87723464434
 20
-4298.03753725742
 30
0.0
 11
81788.87723464434
 21
-4261.037537257419
 31
0.0
  0
LINE
  5
750B
102
{ACAD_REACTORS
330
77D3
102
}
330
2
100
AcDbEntity
  8
0Hatch
100
AcDbLine
 10
81751.87723464434
 20
-4298.03753725742
 30
0.0
 11
81788.87723464434
 21
-4298.03753725742
 31
0.0
  0
ARC
  5
750C
330
2
100
AcDbEntity
  8
TEREN$0$A-MassElement-G
  6
Continuous
 62
   210
370
    -3
100
AcDbCircle
 10
81701.16145317908
 20
-4207.037537257416
 30
0.0
 40
209.9999999999987
100
AcDbArc
 50
297.1157394112524
 51
90.0
  0
ARC
  5
750D
330
2
100
AcDbEntity
  8
TEREN$0$A-MassElement-G
  6
Continuous
 62
   210
370
    -3
100
AcDbCircle
 10
81701.16145317912
 20
-4207.037537257412
 30
0.0
 40
239.9999999999955
100
AcDbArc
 50
293.5041665256983
 51
90.0
  0
ARC
  5
750E
330
2
100
AcDbEntity
  8
TEREN$0$A-MassElement-G
  6
Continuous
 62
   210
370
    -3
100
AcDbCircle
 10
81701.67093659314
 20
-4206.411153396053
 30
0.0
 40
269.3741583309198
100
AcDbArc
 50
290.6975692363131
 51
90.11495726015592
  0
LINE
  5
750F
330
2
100
AcDbEntity
  8
TEREN$0$A-MassElement-G
  6
Continuous
 62
   210
370
    -3
100
AcDbLine
 10
80980.87723464438
 20
-3997.037537257416
 30
0.0
 11
80980.87723464438
 21
-4133.03753725742
 31
0.0
  0
LINE
  5
7510
330
2
100
AcDbEntity
  8
TEREN$0$A-MassElement-G
  6
Continuous
 62
   210
370
    -3
100
AcDbLine
 10
81701.16145317908
 20
-3997.037537257421
 30
0.0
 11
80980.87723464438
 21
-3997.037537257416
 31
0.0
  0
LINE
  5
7511
330
2
100
AcDbEntity
  8
TEREN$0$A-MassElement-G
  6
Continuous
 62
   210
370
    -3
100
AcDbLine
 10
80950.87723464438
 20
-3967.03753725742
 30
0.0
 11
80950.87723464438
 21
-4133.03753725742
 31
0.0
  0
LINE
  5
7512
330
2
100
AcDbEntity
  8
TEREN$0$A-MassElement-G
  6
Continuous
 62
   210
370
    -3
100
AcDbLine
 10
81701.16145317908
 20
-3967.03753725742
 30
0.0
 11
80950.87723464438
 21
-3967.03753725742
 31
0.0
  0
LINE
  5
7513
330
2
100
AcDbEntity
  8
TEREN$0$A-MassElement-G
  6
Continuous
 62
   210
370
    -3
100
AcDbLine
 10
80920.87723464437
 20
-3937.03753725742
 30
0.0
 11
80920.87723464437
 21
-4133.03753725742
 31
0.0
  0
LINE
  5
7514
330
2
100
AcDbEntity
  8
TEREN$0$A-MassElement-G
  6
Continuous
 62
   210
370
    -3
100
AcDbLine
 10
81701.13046930802
 20
-3937.03753725742
 30
0.0
 11
80920.87723464437
 21
-3937.03753725742
 31
0.0
  0
LWPOLYLINE
  5
7515
330
2
100
AcDbEntity
  8
0Hatch
100
AcDbPolyline
 90
       18
 70
     1
 43
0.0
 10
79886.87723464434
 20
-4283.03753725742
 10
79886.87723464434
 20
-5053.03753725742
 10
80284.87723464436
 20
-5053.03753725742
 10
80284.87723464436
 20
-5022.03753725742
 10
80496.87723464435
 20
-5022.03753725742
 10
80496.87723464435
 20
-5083.03753725742
 10
80896.87723464438
 20
-5083.03753725742
 10
80896.87723464438
 20
-5258.037537257424
 10
81446.87723464434
 20
-5258.037537257424
 10
81446.87723464434
 20
-5083.03753725742
 10
81796.87723464434
 20
-5083.03753725742
 10
81796.87723464434
 20
-4343.037537257419
 10
81446.87723464434
 20
-4343.037537257419
 10
81446.87723464434
 20
-4133.03753725742
 10
80896.87723464438
 20
-4133.03753725742
 10
80896.87723464438
 20
-4253.037537257419
 10
80496.87723464435
 20
-4253.037537257419
 10
80496.87723464435
 20
-4283.03753725742
  0
DIMENSION
  5
7516
330
2
100
AcDbEntity
  8
WYMIARY
100
AcDbDimension
  2
*D330
 10
80284.87723464436
 20
-5895.163835702348
 30
0.0
 11
80085.87723464435
 21
-5815.163835702348
 31
0.0
 70
    33
 71
     5
 42
398.0000000000291
  3
500
100
AcDbAlignedDimension
 13
79886.87723464434
 23
-5053.03753725742
 33
0.0
 14
80284.87723464436
 24
-5053.03753725742
 34
0.0
  0
DIMENSION
  5
7517
330
2
100
AcDbEntity
  8
WYMIARY
100
AcDbDimension
  2
*D331
 10
80496.87723464435
 20
-5895.163835702348
 30
0.0
 11
80390.87723464435
 21
-5815.163835702348
 31
0.0
 70
    32
 71
     5
 42
211.9999999999709
  3
500
100
AcDbAlignedDimension
 13
80284.87723464436
 23
-5053.03753725742
 33
0.0
 14
80496.87723464435
 24
-5083.03753725742
 34
0.0
 50
180.0
100
AcDbRotatedDimension
  0
DIMENSION
  5
7518
330
2
100
AcDbEntity
  8
WYMIARY
100
AcDbDimension
  2
*D332
 10
80896.87723464438
 20
-5895.163835702348
 30
0.0
 11
80696.87723464436
 21
-5815.163835702348
 31
0.0
 70
    32
 71
     5
 42
400.0000000000291
  3
500
100
AcDbAlignedDimension
 13
80496.87723464435
 23
-5083.03753725742
 33
0.0
 14
80896.87723464438
 24
-5083.03753725742
 34
0.0
 50
180.0
100
AcDbRotatedDimension
  0
DIMENSION
  5
7519
330
2
100
AcDbEntity
  8
WYMIARY
100
AcDbDimension
  2
*D333
 10
81446.87723464434
 20
-5895.163835702348
 30
0.0
 11
81171.87723464436
 21
-5815.163835702348
 31
0.0
 70
    32
 71
     5
 42
549.9999999999708
  3
500
100
AcDbAlignedDimension
 13
80896.87723464438
 23
-5083.03753725742
 33
0.0
 14
81446.87723464434
 24
-5083.03753725742
 34
0.0
 50
180.0
100
AcDbRotatedDimension
  0
DIMENSION
  5
751A
330
2
100
AcDbEntity
  8
WYMIARY
100
AcDbDimension
  2
*D334
 10
81796.87723464434
 20
-5895.163835702348
 30
0.0
 11
81621.87723464434
 21
-5815.163835702348
 31
0.0
 70
    32
 71
     5
 42
350.0
  3
500
100
AcDbAlignedDimension
 13
81446.87723464434
 23
-5083.03753725742
 33
0.0
 14
81796.87723464434
 24
-5083.03753725742
 34
0.0
 50
180.0
100
AcDbRotatedDimension
  0
DIMENSION
  5
751B
330
2
100
AcDbEntity
  8
WYMIARY
100
AcDbDimension
  2
*D335
 10
79886.87723464434
 20
-6095.163835702353
 30
0.0
 11
80841.87723464435
 21
-6015.163835702352
 31
0.0
 70
    33
 71
     5
 42
1910.0
  3
500
100
AcDbAlignedDimension
 13
81796.87723464434
 23
-4343.037537257419
 33
0.0
 14
79886.87723464434
 24
-4343.037537257419
 34
0.0
  0
DIMENSION
  5
751C
330
2
100
AcDbEntity
  8
WYMIARY
100
AcDbDimension
  2
*D336
 10
82556.67078312681
 20
-4343.037537257419
 30
0.0
 11
82476.67078312682
 21
-4238.037537257407
 31
0.0
 70
    33
 71
     5
 42
210.0
  3
500
100
AcDbAlignedDimension
 13
81446.87723464434
 23
-4133.03753725742
 33
0.0
 14
81446.87723464434
 24
-4343.037537257419
 34
0.0
  0
DIMENSION
  5
751D
330
2
100
AcDbEntity
  8
WYMIARY
100
AcDbDimension
  2
*D337
 10
82556.67078312681
 20
-5083.03753725742
 30
0.0
 11
82476.67078312682
 21
-4713.037537257407
 31
0.0
 70
    32
 71
     5
 42
740.0
  3
500
100
AcDbAlignedDimension
 13
81446.87723464434
 23
-4343.037537257419
 33
0.0
 14
81446.87723464434
 24
-5083.03753725742
 34
0.0
 50
90.0
100
AcDbRotatedDimension
  0
DIMENSION
  5
751E
330
2
100
AcDbEntity
  8
WYMIARY
100
AcDbDimension
  2
*D338
 10
82556.67078312681
 20
-5258.037537257424
 30
0.0
 11
82476.67078312682
 21
-5170.537537257409
 31
0.0
 70
    32
 71
     5
 42
175.0000000000036
  3
500
100
AcDbAlignedDimension
 13
81446.87723464434
 23
-5083.03753725742
 33
0.0
 14
81446.87723464434
 24
-5258.037537257424
 34
0.0
 50
90.0
100
AcDbRotatedDimension
  0
DIMENSION
  5
751F
330
2
100
AcDbEntity
  8
WYMIARY
100
AcDbDimension
  2
*D339
 10
82756.67078312682
 20
-4133.03753725742
 30
0.0
 11
82676.67078312683
 21
-4695.537537257409
 31
0.0
 70
    33
 71
     5
 42
1125.000000000003
  3
500
100
AcDbAlignedDimension
 13
80896.87723464438
 23
-5258.037537257424
 33
0.0
 14
80896.87723464438
 24
-4133.03753725742
 34
0.0
  0
LWPOLYLINE
  5
76E0
330
2
100
AcDbEntity
  8
0Hatch
100
AcDbPolyline
 90
        6
 70
     0
 43
60.0
 10
80445.87723464434
 20
-4992.03753725742
 10
80526.87723464435
 20
-4992.03753725742
 10
80526.87723464435
 20
-5053.03753725742
 10
80926.87723464438
 20
-5053.03753725742
 10
80926.87723464438
 20
-5228.037537257423
 10
81227.66497174746
 20
-5228.037537257424
  0
LWPOLYLINE
  5
76E2
330
2
100
AcDbEntity
  8
0Hatch
100
AcDbPolyline
 90
        4
 70
     0
 43
60.0
 10
80210.87723464434
 20
-5023.03753725742
 10
80254.87723464436
 20
-5023.03753725742
 10
80254.87723464436
 20
-4992.03753725742
 10
80335.87723464433
 20
-4992.03753725742
  0
LWPOLYLINE
  5
76E3
330
2
100
AcDbEntity
  8
0Hatch
100
AcDbPolyline
 90
       14
 70
     0
 43
60.0
 10
81337.66497174747
 20
-5228.037537257423
 10
81416.87723464434
 20
-5228.037537257423
 10
81416.87723464434
 20
-5053.03753725742
 10
81766.87723464434
 20
-5053.03753725742
 10
81766.87723464434
 20
-4373.037537257419
 10
81416.87723464434
 20
-4373.037537257419
 10
81416.87723464434
 20
-4163.037537257419
 10
80926.87723464438
 20
-4163.037537257419
 10
80926.87723464438
 20
-4283.03753725742
 10
80526.87723464435
 20
-4283.03753725742
 10
80526.87723464435
 20
-4313.03753725742
 10
79916.87723464434
 20
-4313.03753725742
 10
79916.87723464434
 20
-5023.03753725742
 10
79970.87723464434
 20
-5023.03753725742
  0
LWPOLYLINE
  5
76E5
330
2
100
AcDbEntity
  8
0Hatch
100
AcDbPolyline
 90
        2
 70
     0
 43
60.0
 10
80556.87723464433
 20
-4313.03753725742
 10
80526.87723464435
 20
-4313.03753725742
  0
LINE
  5
76E8
330
2
100
AcDbEntity
  8
TEREN$0$A-MassElement-G
  6
Continuous
 62
   210
370
    -3
100
AcDbLine
 10
86439.67292733988
 20
-5083.03753725742
 30
0.0
 11
86439.67292733988
 21
-5102.03753725742
 31
0.0
  0
LWPOLYLINE
  5
76E9
330
2
100
AcDbEntity
  8
0Hatch
100
AcDbPolyline
 90
       18
 70
     1
 43
0.0
 10
86989.67292733987
 20
-4343.037537257419
 10
86989.67292733987
 20
-4993.03753725742
 10
86711.67292733985
 20
-4993.03753725742
 10
86711.67292733985
 20
-4962.03753725742
 10
86379.67292733987
 20
-4962.03753725742
 10
86379.67292733987
 20
-5023.03753725742
 10
85979.67292733985
 20
-5023.03753725742
 10
85979.67292733985
 20
-5198.037537257423
 10
85549.67292733987
 20
-5198.037537257423
 10
85549.67292733987
 20
-5023.03753725742
 10
85199.67292733989
 20
-5023.03753725742
 10
85199.67292733989
 20
-4403.03753725742
 10
85549.67292733987
 20
-4403.03753725742
 10
85549.67292733987
 20
-4193.03753725742
 10
85979.67292733985
 20
-4193.03753725742
 10
85979.67292733985
 20
-4313.03753725742
 10
86379.67292733987
 20
-4313.03753725742
 10
86379.67292733987
 20
-4343.037537257419
  0
LINE
  5
76EA
330
2
100
AcDbEntity
  8
SCIANY
100
AcDbLine
 10
85598.88519023676
 20
-5198.037537257423
 30
0.0
 11
85598.88519023676
 21
-5258.037537257424
 31
0.0
  0
LINE
  5
76EB
330
2
100
AcDbEntity
  8
SCIANY
100
AcDbLine
 10
85708.88519023675
 20
-5258.037537257424
 30
0.0
 11
85708.88519023675
 21
-5198.037537257423
 31
0.0
  0
LINE
  5
76EC
330
2
100
AcDbEntity
  8
SCIANY
100
AcDbLine
 10
86490.67292733988
 20
-4962.03753725742
 30
0.0
 11
86490.67292733988
 21
-5022.03753725742
 31
0.0
  0
LINE
  5
76ED
330
2
100
AcDbEntity
  8
SCIANY
100
AcDbLine
 10
86600.67292733987
 20
-5022.03753725742
 30
0.0
 11
86600.67292733987
 21
-4962.03753725742
 31
0.0
  0
LINE
  5
76EE
330
2
100
AcDbEntity
  8
SCIANY
100
AcDbLine
 10
86725.67292733988
 20
-4993.03753725742
 30
0.0
 11
86725.67292733988
 21
-5053.03753725742
 31
0.0
  0
LINE
  5
76EF
330
2
100
AcDbEntity
  8
SCIANY
100
AcDbLine
 10
86965.67292733988
 20
-5053.03753725742
 30
0.0
 11
86965.67292733988
 21
-4993.03753725742
 31
0.0
  0
LINE
  5
76F0
330
2
100
AcDbEntity
  8
TEREN$0$A-MassElement-G
  6
Continuous
 62
   210
370
    -3
100
AcDbLine
 10
86687.67292733985
 20
-5202.03753725742
 30
0.0
 11
86687.67292733985
 21
-5102.03753725742
 31
0.0
  0
LINE
  5
76F1
330
2
100
AcDbEntity
  8
TEREN$0$A-MassElement-G
  6
Continuous
 62
   210
370
    -3
100
AcDbLine
 10
87003.67292733988
 20
-5202.03753725742
 30
0.0
 11
86687.67292733985
 21
-5202.03753725742
 31
0.0
  0
LINE
  5
76F2
330
2
100
AcDbEntity
  8
TEREN$0$A-MassElement-G
  6
Continuous
 62
   210
370
    -3
100
AcDbLine
 10
87003.67292733988
 20
-5053.03753725742
 30
0.0
 11
87003.67292733988
 21
-5202.03753725742
 31
0.0
  0
LINE
  5
76F3
330
2
100
AcDbEntity
  8
TEREN$0$A-MassElement-G
  6
Continuous
 62
   210
370
    -3
100
AcDbLine
 10
87003.67292733988
 20
-5102.03753725742
 30
0.0
 11
86439.67292733986
 21
-5102.03753725742
 31
0.0
  0
LINE
  5
76F4
330
2
100
AcDbEntity
  8
TEREN$0$A-MassElement-G
  6
Continuous
 62
   210
370
    -3
100
AcDbLine
 10
86017.17292733985
 20
-5258.037537257424
 30
0.0
 11
86017.17292733985
 21
-5458.03753725742
 31
0.0
  0
LINE
  5
76F5
330
2
100
AcDbEntity
  8
TEREN$0$A-MassElement-G
  6
Continuous
 62
   210
370
    -3
100
AcDbLine
 10
85987.17292733985
 20
-5258.037537257424
 30
0.0
 11
85987.17292733985
 21
-5428.03753725742
 31
0.0
  0
LINE
  5
76F6
330
2
100
AcDbEntity
  8
TEREN$0$A-MassElement-G
  6
Continuous
 62
   210
370
    -3
100
AcDbLine
 10
85957.17292733985
 20
-5258.037537257424
 30
0.0
 11
85957.17292733985
 21
-5458.03753725742
 31
0.0
  0
LINE
  5
76F7
330
2
100
AcDbEntity
  8
TEREN$0$A-MassElement-G
  6
Continuous
 62
   210
370
    -3
100
AcDbLine
 10
85987.17292733985
 20
-5428.03753725742
 30
0.0
 11
85957.17292733985
 21
-5428.03753725742
 31
0.0
  0
LINE
  5
76F8
330
2
100
AcDbEntity
  8
TEREN$0$A-MassElement-G
  6
Continuous
 62
   210
370
    -3
100
AcDbLine
 10
85764.67292733989
 20
-5458.03753725742
 30
0.0
 11
85764.67292733989
 21
-5398.037537257427
 31
0.0
  0
LINE
  5
76F9
330
2
100
AcDbEntity
  8
TEREN$0$A-MassElement-G
  6
Continuous
 62
   210
370
    -3
100
AcDbLine
 10
85572.17292733987
 20
-5398.03753725742
 30
0.0
 11
85572.17292733987
 21
-5258.037537257424
 31
0.0
  0
LINE
  5
76FA
330
2
100
AcDbEntity
  8
TEREN$0$A-MassElement-G
  6
Continuous
 62
   210
370
    -3
100
AcDbLine
 10
85764.67292733989
 20
-5398.037537257427
 30
0.0
 11
85572.17292733987
 21
-5398.03753725742
 31
0.0
  0
LINE
  5
76FB
330
2
100
AcDbEntity
  8
TEREN$0$A-MassElement-G
  6
Continuous
 62
   210
370
    -3
100
AcDbLine
 10
85542.17292733987
 20
-5428.03753725742
 30
0.0
 11
85542.17292733987
 21
-5258.037537257424
 31
0.0
  0
LINE
  5
76FC
330
2
100
AcDbEntity
  8
TEREN$0$A-MassElement-G
  6
Continuous
 62
   210
370
    -3
100
AcDbLine
 10
85764.67292733989
 20
-5428.03753725742
 30
0.0
 11
85542.17292733987
 21
-5428.03753725742
 31
0.0
  0
LINE
  5
76FD
330
2
100
AcDbEntity
  8
TEREN$0$A-MassElement-G
  6
Continuous
 62
   210
370
    -3
100
AcDbLine
 10
85512.17292733989
 20
-5458.03753725742
 30
0.0
 11
85512.17292733989
 21
-5258.037537257424
 31
0.0
  0
LINE
  5
76FE
330
2
100
AcDbEntity
  8
TEREN$0$A-MassElement-G
  6
Continuous
 62
   210
370
    -3
100
AcDbLine
 10
86017.17292733985
 20
-5458.03753725742
 30
0.0
 11
85512.17292733989
 21
-5458.03753725742
 31
0.0
  0
LINE
  5
76FF
330
2
100
AcDbEntity
  8
TEREN$0$A-MassElement-G
  6
Continuous
 62
   210
370
    -3
100
AcDbLine
 10
85512.17292733989
 20
-5458.03753725742
 30
0.0
 11
85512.17292733989
 21
-5258.037537257424
 31
0.0
  0
LINE
  5
7700
330
2
100
AcDbEntity
  8
TEREN$0$A-MassElement-G
  6
Continuous
 62
   210
370
    -3
100
AcDbLine
 10
86017.17292733985
 20
-5458.03753725742
 30
0.0
 11
85512.17292733989
 21
-5458.03753725742
 31
0.0
  0
LINE
  5
7701
102
{ACAD_REACTORS
330
77D3
102
}
330
2
100
AcDbEntity
  8
0Hatch
100
AcDbLine
 10
85184.67292733989
 20
-4261.037537257419
 30
0.0
 11
85184.67292733989
 21
-4298.03753725742
 31
0.0
  0
LINE
  5
7702
102
{ACAD_REACTORS
330
77D3
102
}
330
2
100
AcDbEntity
  8
0Hatch
100
AcDbLine
 10
85147.67292733989
 20
-4261.037537257419
 30
0.0
 11
85184.67292733989
 21
-4261.037537257419
 31
0.0
  0
LINE
  5
7703
102
{ACAD_REACTORS
330
77D3
102
}
330
2
100
AcDbEntity
  8
0Hatch
100
AcDbLine
 10
85147.67292733989
 20
-4298.03753725742
 30
0.0
 11
85147.67292733989
 21
-4261.037537257419
 31
0.0
  0
LINE
  5
7704
102
{ACAD_REACTORS
330
77D3
102
}
330
2
100
AcDbEntity
  8
0Hatch
100
AcDbLine
 10
85184.67292733989
 20
-4298.03753725742
 30
0.0
 11
85147.67292733989
 21
-4298.03753725742
 31
0.0
  0
ARC
  5
7705
330
2
100
AcDbEntity
  8
TEREN$0$A-MassElement-G
  6
Continuous
 62
   210
370
    -3
100
AcDbCircle
 10
85235.38870880514
 20
-4207.037537257416
 30
0.0
 40
209.9999999999987
100
AcDbArc
 50
90.0
 51
242.8842605892779
  0
ARC
  5
7706
330
2
100
AcDbEntity
  8
TEREN$0$A-MassElement-G
  6
Continuous
 62
   210
370
    -3
100
AcDbCircle
 10
85235.38870880511
 20
-4207.037537257412
 30
0.0
 40
239.9999999999955
100
AcDbArc
 50
90.0
 51
246.495833474009
  0
ARC
  5
7707
330
2
100
AcDbEntity
  8
TEREN$0$A-MassElement-G
  6
Continuous
 62
   210
370
    -3
100
AcDbCircle
 10
85234.87922539107
 20
-4206.411153396053
 30
0.0
 40
269.3741583309198
100
AcDbArc
 50
89.88504273984409
 51
249.3024307630226
  0
LINE
  5
7708
330
2
100
AcDbEntity
  8
TEREN$0$A-MassElement-G
  6
Continuous
 62
   210
370
    -3
100
AcDbLine
 10
85955.67292733985
 20
-3997.037537257416
 30
0.0
 11
85955.67292733985
 21
-4133.03753725742
 31
0.0
  0
LINE
  5
7709
330
2
100
AcDbEntity
  8
TEREN$0$A-MassElement-G
  6
Continuous
 62
   210
370
    -3
100
AcDbLine
 10
85235.38870880514
 20
-3997.037537257421
 30
0.0
 11
85955.67292733985
 21
-3997.037537257416
 31
0.0
  0
LINE
  5
770A
330
2
100
AcDbEntity
  8
TEREN$0$A-MassElement-G
  6
Continuous
 62
   210
370
    -3
100
AcDbLine
 10
85985.67292733985
 20
-3967.03753725742
 30
0.0
 11
85985.67292733985
 21
-4133.03753725742
 31
0.0
  0
LINE
  5
770B
330
2
100
AcDbEntity
  8
TEREN$0$A-MassElement-G
  6
Continuous
 62
   210
370
    -3
100
AcDbLine
 10
85235.38870880514
 20
-3967.03753725742
 30
0.0
 11
85985.67292733985
 21
-3967.03753725742
 31
0.0
  0
LINE
  5
770C
330
2
100
AcDbEntity
  8
TEREN$0$A-MassElement-G
  6
Continuous
 62
   210
370
    -3
100
AcDbLine
 10
86015.67292733985
 20
-3937.03753725742
 30
0.0
 11
86015.67292733985
 21
-4133.03753725742
 31
0.0
  0
LINE
  5
770D
330
2
100
AcDbEntity
  8
TEREN$0$A-MassElement-G
  6
Continuous
 62
   210
370
    -3
100
AcDbLine
 10
85235.4196926762
 20
-3937.03753725742
 30
0.0
 11
86015.67292733985
 21
-3937.03753725742
 31
0.0
  0
LWPOLYLINE
  5
770E
330
2
100
AcDbEntity
  8
0Hatch
100
AcDbPolyline
 90
       18
 70
     1
 43
0.0
 10
87049.67292733988
 20
-4283.03753725742
 10
87049.67292733988
 20
-5053.03753725742
 10
86651.67292733984
 20
-5053.03753725742
 10
86651.67292733984
 20
-5022.03753725742
 10
86439.67292733988
 20
-5022.03753725742
 10
86439.67292733988
 20
-5083.03753725742
 10
86039.67292733985
 20
-5083.03753725742
 10
86039.67292733985
 20
-5258.037537257424
 10
85489.67292733989
 20
-5258.037537257424
 10
85489.67292733989
 20
-5083.03753725742
 10
85139.67292733989
 20
-5083.03753725742
 10
85139.67292733989
 20
-4343.037537257419
 10
85489.67292733989
 20
-4343.037537257419
 10
85489.67292733989
 20
-4133.03753725742
 10
86039.67292733985
 20
-4133.03753725742
 10
86039.67292733985
 20
-4253.037537257419
 10
86439.67292733988
 20
-4253.037537257419
 10
86439.67292733988
 20
-4283.03753725742
  0
DIMENSION
  5
770F
330
2
100
AcDbEntity
  8
WYMIARY
100
AcDbDimension
  2
*D350
 10
86651.67292733984
 20
-5895.163835702348
 30
0.0
 11
86850.67292733986
 21
-5815.163835702348
 31
0.0
 70
    33
 71
     5
 42
398.0000000000291
  3
500
100
AcDbAlignedDimension
 13
87049.67292733988
 23
-5053.03753725742
 33
0.0
 14
86651.67292733984
 24
-5053.03753725742
 34
0.0
  0
DIMENSION
  5
7710
330
2
100
AcDbEntity
  8
WYMIARY
100
AcDbDimension
  2
*D351
 10
86439.67292733988
 20
-5895.163835702348
 30
0.0
 11
86545.67292733986
 21
-5815.163835702348
 31
0.0
 70
    32
 71
     5
 42
211.9999999999709
  3
500
100
AcDbAlignedDimension
 13
86651.67292733984
 23
-5053.03753725742
 33
0.0
 14
86439.67292733988
 24
-5083.03753725742
 34
0.0
 50
0.000000000000007
100
AcDbRotatedDimension
  0
DIMENSION
  5
7711
330
2
100
AcDbEntity
  8
WYMIARY
100
AcDbDimension
  2
*D352
 10
86039.67292733985
 20
-5895.163835702348
 30
0.0
 11
86239.67292733986
 21
-5815.163835702348
 31
0.0
 70
    32
 71
     5
 42
400.0000000000291
  3
500
100
AcDbAlignedDimension
 13
86439.67292733988
 23
-5083.03753725742
 33
0.0
 14
86039.67292733985
 24
-5083.03753725742
 34
0.0
 50
0.000000000000007
100
AcDbRotatedDimension
  0
DIMENSION
  5
7712
330
2
100
AcDbEntity
  8
WYMIARY
100
AcDbDimension
  2
*D353
 10
85489.67292733989
 20
-5895.163835702348
 30
0.0
 11
85764.67292733987
 21
-5815.163835702348
 31
0.0
 70
    32
 71
     5
 42
549.9999999999708
  3
500
100
AcDbAlignedDimension
 13
86039.67292733985
 23
-5083.03753725742
 33
0.0
 14
85489.67292733989
 24
-5083.03753725742
 34
0.0
 50
0.000000000000007
100
AcDbRotatedDimension
  0
DIMENSION
  5
7713
330
2
100
AcDbEntity
  8
WYMIARY
100
AcDbDimension
  2
*D354
 10
85139.67292733989
 20
-5895.163835702348
 30
0.0
 11
85314.67292733989
 21
-5815.163835702348
 31
0.0
 70
    32
 71
     5
 42
350.0
  3
500
100
AcDbAlignedDimension
 13
85489.67292733989
 23
-5083.03753725742
 33
0.0
 14
85139.67292733989
 24
-5083.03753725742
 34
0.0
 50
0.000000000000007
100
AcDbRotatedDimension
  0
DIMENSION
  5
7714
330
2
100
AcDbEntity
  8
WYMIARY
100
AcDbDimension
  2
*D355
 10
87049.67292733988
 20
-6095.163835702353
 30
0.0
 11
86094.67292733988
 21
-6015.163835702352
 31
0.0
 70
    33
 71
     5
 42
1910.0
  3
500
100
AcDbAlignedDimension
 13
85139.67292733989
 23
-4343.037537257419
 33
0.0
 14
87049.67292733988
 24
-4343.037537257419
 34
0.0
  0
DIMENSION
  5
7715
330
2
100
AcDbEntity
  8
WYMIARY
100
AcDbDimension
  2
*D356
 10
84379.87937885742
 20
-4343.037537257419
 30
0.0
 11
84299.87937885741
 21
-4238.037537257406
 31
0.0
 70
    33
 71
     5
 42
210.0
  3
500
100
AcDbAlignedDimension
 13
85489.67292733989
 23
-4133.03753725742
 33
0.0
 14
85489.67292733989
 24
-4343.037537257419
 34
0.0
  0
DIMENSION
  5
7716
330
2
100
AcDbEntity
  8
WYMIARY
100
AcDbDimension
  2
*D357
 10
84379.87937885742
 20
-5083.03753725742
 30
0.0
 11
84299.87937885741
 21
-4713.037537257406
 31
0.0
 70
    32
 71
     5
 42
740.0
  3
500
100
AcDbAlignedDimension
 13
85489.67292733989
 23
-4343.037537257419
 33
0.0
 14
85489.67292733989
 24
-5083.03753725742
 34
0.0
 50
90.0
100
AcDbRotatedDimension
  0
DIMENSION
  5
7717
330
2
100
AcDbEntity
  8
WYMIARY
100
AcDbDimension
  2
*D358
 10
84379.87937885742
 20
-5258.037537257424
 30
0.0
 11
84299.87937885741
 21
-5170.537537257408
 31
0.0
 70
    32
 71
     5
 42
175.0000000000036
  3
500
100
AcDbAlignedDimension
 13
85489.67292733989
 23
-5083.03753725742
 33
0.0
 14
85489.67292733989
 24
-5258.037537257424
 34
0.0
 50
90.0
100
AcDbRotatedDimension
  0
DIMENSION
  5
7718
330
2
100
AcDbEntity
  8
WYMIARY
100
AcDbDimension
  2
*D359
 10
84179.8793788574
 20
-4133.03753725742
 30
0.0
 11
84099.87937885739
 21
-4695.537537257408
 31
0.0
 70
    33
 71
     5
 42
1125.000000000003
  3
500
100
AcDbAlignedDimension
 13
86039.67292733985
 23
-5258.037537257424
 33
0.0
 14
86039.67292733985
 24
-4133.03753725742
 34
0.0
  0
LWPOLYLINE
  5
7719
330
2
100
AcDbEntity
  8
0Hatch
100
AcDbPolyline
 90
        6
 70
     0
 43
60.0
 10
86490.67292733988
 20
-4992.03753725742
 10
86409.67292733988
 20
-4992.03753725742
 10
86409.67292733988
 20
-5053.03753725742
 10
86009.67292733985
 20
-5053.03753725742
 10
86009.67292733985
 20
-5228.037537257423
 10
85708.88519023675
 20
-5228.037537257424
  0
LWPOLYLINE
  5
771A
330
2
100
AcDbEntity
  8
0Hatch
100
AcDbPolyline
 90
        4
 70
     0
 43
60.0
 10
86725.67292733988
 20
-5023.03753725742
 10
86681.67292733985
 20
-5023.03753725742
 10
86681.67292733985
 20
-4992.03753725742
 10
86600.67292733987
 20
-4992.03753725742
  0
LWPOLYLINE
  5
771B
330
2
100
AcDbEntity
  8
0Hatch
100
AcDbPolyline
 90
       14
 70
     0
 43
60.0
 10
85598.88519023676
 20
-5228.037537257423
 10
85519.67292733989
 20
-5228.037537257423
 10
85519.67292733989
 20
-5053.03753725742
 10
85169.67292733989
 20
-5053.03753725742
 10
85169.67292733989
 20
-4373.037537257419
 10
85519.67292733989
 20
-4373.037537257419
 10
85519.67292733989
 20
-4163.037537257419
 10
86009.67292733985
 20
-4163.037537257419
 10
86009.67292733985
 20
-4283.03753725742
 10
86409.67292733988
 20
-4283.03753725742
 10
86409.67292733988
 20
-4313.03753725742
 10
87019.67292733987
 20
-4313.03753725742
 10
87019.67292733987
 20
-5023.03753725742
 10
86965.67292733988
 20
-5023.03753725742
  0
LWPOLYLINE
  5
771C
330
2
100
AcDbEntity
  8
0Hatch
100
AcDbPolyline
 90
        2
 70
     0
 43
60.0
 10
86379.67292733987
 20
-4313.03753725742
 10
86409.67292733988
 20
-4313.03753725742
  0
HATCH
  5
77D3
330
2
100
AcDbEntity
  8
0Hatch
100
AcDbHatch
 10
0.0
 20
0.0
 30
0.0
210
0.0
220
0.0
230
1.0
  2
SOLID
 70
     1
 71
     1
 91
        2
 92
        7
 72
     0
 73
     1
 93
        4
 10
81751.87723464434
 20
-4298.03753725742
 10
81788.87723464434
 20
-4298.03753725742
 10
81788.87723464434
 20
-4261.037537257419
 10
81751.87723464434
 20
-4261.037537257419
 97
        4
330
7509
330
7508
330
750B
330
750A
 92
        7
 72
     0
 73
     1
 93
        4
 10
85184.67292733987
 20
-4261.037537257419
 10
85147.67292733989
 20
-4261.037537257418
 10
85147.67292733989
 20
-4298.03753725742
 10
85184.67292733989
 20
-4298.03753725742
 97
        4
330
7702
330
7703
330
7704
330
7701
 75
     0
 76
     1
 47
0.2820597205134112
 98
        2
 10
81769.63389947879
 20
-4279.802129237301
 10
85175.49745915344
 20
-4282.982445328991
1001
ACAD
1010
0.0
1020
0.0
1030
0.0
  0
VIEWPORT
  5
4216
102
{ACAD_XDICTIONARY
360
4217
102
}
330
1942
100
AcDbEntity
 67
     1
  8
0
 48
4.0
100
AcDbViewport
 10
5.722500658410741
 20
4.006666470700361
 30
0.0
 40
13.65012255525684
 41
8.742606248029575
 68
     1
 69
     1
 12
5.722500658410741
 22
4.006666470700361
 13
0.0
 23
0.0
 14
10.0
 24
10.0
 15
10.0
 25
10.0
 16
0.0
 26
0.0
 36
1.0
 17
0.0
 27
0.0
 37
0.0
 42
50.0
 43
0.0
 44
0.0
 45
8.742606248029575
 50
0.0
 51
0.0
 72
  2000
 90
   557088
  1

281
     0
 71
     1
 74
     0
110
0.0
120
0.0
130
0.0
111
1.0
121
0.0
131
0.0
112
0.0
122
1.0
132
0.0
 79
     0
146
0.0
  0
VIEWPORT
  5
421A
102
{ACAD_XDICTIONARY
360
421B
102
}
330
1942
100
AcDbEntity
 67
     1
  8
0Wymiary-PL
 48
4.0
100
AcDbViewport
 10
5.722500419053506
 20
4.006666409687733
 30
0.0
 40
9.15600067048561
 41
6.410666255500373
 68
     2
 69
     2
 12
64380.20023001055
 22
-6074.453240243766
 13
-3534.953416816247
 23
4038.000000000049
 14
1.0
 24
1.0
 15
1.0
 25
1.0
 16
0.0
 26
0.0
 36
1.0
 17
0.0
 27
0.0
 37
0.0
 42
50.0
 43
0.0
 44
0.0
 45
42519.67213114753
 50
0.0
 51
0.0
 72
  2000
 90
   819232
  1

281
     0
 71
     1
 74
     0
110
0.0
120
0.0
130
0.0
111
1.0
121
0.0
131
0.0
112
0.0
122
1.0
132
0.0
 79
     0
146
0.0
  0
ENDSEC
  0
SECTION
  2
OBJECTS
  0
DICTIONARY
  5
B
330
0
100
AcDbDictionary
281
     1
  3
ACAD_COLOR
350
53
  3
ACAD_GROUP
350
4E
  3
ACAD_LAYOUT
350
12
  3
ACAD_MATERIAL
350
D
  3
ACAD_MLEADERSTYLE
350
7A8
  3
ACAD_MLINESTYLE
350
4F
  3
ACAD_PLOTSETTINGS
350
50
  3
ACAD_PLOTSTYLENAME
350
A
  3
ACAD_SCALELIST
350
54
  3
ACAD_TABLESTYLE
350
55
  3
ACAD_VISUALSTYLE
350
15
  3
ACDB_RECOMPOSE_DATA
350
794
  3
AcDbVariableDictionary
350
795
  3
AEC_CLEANUP_GROUP_DEFS
350
5A9B
  3
AEC_DISP_REP_CONFIGURATIONS
350
5A9D
  3
AEC_DISP_REP_SETS
350
5A9F
  3
AEC_DISP_REPS
350
5AA4
  3
AEC_DISPLAY_PROPS_DEFAULTS
350
5AFA
  3
AEC_ENDCAP_STYLES
350
5B4B
  3
AEC_LIST_DEFINITIONS
350
5B4D
  3
AEC_MATERIAL_DEFS
350
5B81
  3
AEC_MVBLOCK_DEFS
350
5B8D
  3
AEC_OPENING_ENDCAP_STYLES
350
5B8F
  3
AEC_PROPERTY_FORMAT_DEFS
350
5B91
  3
AEC_PROPERTY_SET_DEFS
350
952
  3
AEC_ROOFSLAB_STYLES
350
5B9C
  3
AEC_ROOFSLABEDGE_STYLES
350
5B9E
  3
AEC_SCHEDULE_TABLE_STYLES
350
5BA0
  3
AEC_SLAB_STYLES
350
5BA5
  3
AEC_SLABEDGE_STYLES
350
5BA7
  3
AEC_SPACE_STYLES
350
5BA9
  3
AEC_VARS
350
5BAF
  3
AEC_WALL_STYLES
350
5BB6
  3
DWGPROPS
350
77E2
  0
DICTIONARY
  5
1E
330
1D
100
AcDbDictionary
280
     1
281
     1
  3
ACAD_LAYERSTATES
360
1F
  0
DICTIONARY
  5
7
330
6
100
AcDbDictionary
280
     1
281
     1
  3
ADSK_XREC_LAYER_RECONCILED
360
8
  0
DICTIONARY
  5
75
330
74
100
AcDbDictionary
280
     1
281
     1
  3
ADSK_XREC_LAYER_RECONCILED
360
76
  0
DICTIONARY
  5
57
330
56
100
AcDbDictionary
280
     1
281
     1
  3
ADSK_XREC_LAYER_RECONCILED
360
58
  0
DICTIONARY
  5
3A4
330
3A3
100
AcDbDictionary
280
     1
281
     1
  3
ADSK_XREC_LAYER_RECONCILED
360
3A5
  0
DICTIONARY
  5
7F
330
7E
100
AcDbDictionary
280
     1
281
     1
  3
ADSK_XREC_LAYER_RECONCILED
360
80
  0
DICTIONARY
  5
1A7F
330
1A7E
100
AcDbDictionary
280
     1
281
     1
  0
DICTIONARY
  5
1A81
330
1A80
100
AcDbDictionary
280
     1
281
     1
  0
DICTIONARY
  5
50B3
330
50B2
100
AcDbDictionary
280
     1
281
     1
  0
DICTIONARY
  5
50B7
330
50B6
100
AcDbDictionary
280
     1
281
     1
  0
DICTIONARY
  5
50BB
330
50BA
100
AcDbDictionary
280
     1
281
     1
  0
DICTIONARY
  5
3
330
2
100
AcDbDictionary
280
     1
281
     1
  3
ACAD_SORTENTS
360
790
  0
DICTIONARY
  5
30
330
2F
100
AcDbDictionary
280
     1
281
     1
  3
ACAD_SORTENTS
360
78F
  0
DICTIONARY
  5
4454
330
4453
100
AcDbDictionary
280
     1
281
     1
  3
ACAD_SORTENTS
360
4455
  0
DICTIONARY
  5
46AA
330
46A9
100
AcDbDictionary
280
     1
281
     1
  3
ACAD_SORTENTS
360
46AB
  0
DICTIONARY
  5
4217
330
4216
100
AcDbDictionary
280
     1
281
     1
  3
ACAD_XREC_ROUNDTRIP
360
77ED
  3
ASDK_XREC_ANNOTATION_SCALE_INFO
360
4218
  0
DICTIONARY
  5
421B
330
421A
100
AcDbDictionary
280
     1
281
     1
  3
ACAD_XREC_ROUNDTRIP
360
77EE
  3
ASDK_XREC_ANNOTATION_SCALE_INFO
360
421C
  0
DICTIONARY
  5
53
102
{ACAD_REACTORS
330
B
102
}
330
B
100
AcDbDictionary
281
     1
  0
DICTIONARY
  5
4E
102
{ACAD_REACTORS
330
B
102
}
330
B
100
AcDbDictionary
281
     1
  0
DICTIONARY
  5
12
102
{ACAD_REACTORS
330
B
102
}
330
B
100
AcDbDictionary
281
     1
  3
Layout1
350
1943
  3
Model
350
11
  0
DICTIONARY
  5
D
102
{ACAD_REACTORS
330
B
102
}
330
B
100
AcDbDictionary
281
     1
  3
ByBlock
350
52
  3
ByLayer
350
51
  3
General.Chip
350
5122
  3
Global
350
C
  0
DICTIONARY
  5
7A8
102
{ACAD_REACTORS
330
B
102
}
330
B
100
AcDbDictionary
281
     1
  3
Standard
350
7A9
  0
DICTIONARY
  5
4F
102
{ACAD_REACTORS
330
B
102
}
330
B
100
AcDbDictionary
281
     1
  3
STANDARD
350
59
  0
DICTIONARY
  5
50
102
{ACAD_REACTORS
330
B
102
}
330
B
100
AcDbDictionary
281
     1
  0
ACDBDICTIONARYWDFLT
  5
A
102
{ACAD_REACTORS
330
B
102
}
330
B
100
AcDbDictionary
281
     1
  3
Extra Wide
350
511A
  3
Fine
350
511B
  3
Medium
350
511C
  3
Normal
350
9
  3
Standard
350
511D
  3
Thin
350
511F
  3
Thin Screened
350
5120
  3
Wide
350
5121
100
AcDbDictionaryWithDefault
340
9
  0
DICTIONARY
  5
54
102
{ACAD_REACTORS
330
B
102
}
330
B
100
AcDbDictionary
281
     1
  3
*A1
350
85B
  3
*A10
350
5139
  3
*A100
350
86E
  3
*A101
350
5125
  3
*A102
350
5126
  3
*A103
350
5127
  3
*A104
350
880
  3
*A105
350
5128
  3
*A106
350
5142
  3
*A107
350
5129
  3
*A108
350
512A
  3
*A109
350
512B
  3
*A11
350
513A
  3
*A110
350
512C
  3
*A111
350
512D
  3
*A112
350
512E
  3
*A113
350
512F
  3
*A114
350
5130
  3
*A115
350
5131
  3
*A116
350
875
  3
*A117
350
744C
  3
*A118
350
744D
  3
*A119
350
744E
  3
*A12
350
513B
  3
*A120
350
744F
  3
*A121
350
7450
  3
*A122
350
7451
  3
*A123
350
7452
  3
*A13
350
5144
  3
*A14
350
7096
  3
*A15
350
7097
  3
*A16
350
7098
  3
*A17
350
7099
  3
*A18
350
709A
  3
*A19
350
709B
  3
*A2
350
5143
  3
*A20
350
709C
  3
*A21
350
5145
  3
*A22
350
877
  3
*A23
350
868
  3
*A24
350
85D
  3
*A25
350
86C
  3
*A26
350
878
  3
*A27
350
861
  3
*A28
350
132B
  3
*A29
350
876
  3
*A3
350
5132
  3
*A30
350
132C
  3
*A31
350
132D
  3
*A32
350
86F
  3
*A33
350
132E
  3
*A34
350
873
  3
*A35
350
132F
  3
*A36
350
869
  3
*A37
350
1330
  3
*A38
350
1331
  3
*A39
350
1332
  3
*A4
350
5133
  3
*A40
350
513C
  3
*A41
350
1333
  3
*A42
350
879
  3
*A43
350
87B
  3
*A44
350
870
  3
*A45
350
1334
  3
*A46
350
1335
  3
*A47
350
1336
  3
*A48
350
1337
  3
*A49
350
87F
  3
*A5
350
5134
  3
*A50
350
881
  3
*A51
350
513D
  3
*A52
350
1338
  3
*A53
350
87C
  3
*A54
350
87D
  3
*A55
350
865
  3
*A56
350
860
  3
*A57
350
862
  3
*A58
350
87E
  3
*A59
350
168F
  3
*A6
350
5135
  3
*A60
350
1690
  3
*A61
350
1691
  3
*A62
350
513E
  3
*A63
350
86A
  3
*A64
350
1692
  3
*A65
350
1693
  3
*A66
350
85E
  3
*A67
350
1694
  3
*A68
350
871
  3
*A69
350
1695
  3
*A7
350
5136
  3
*A70
350
882
  3
*A71
350
866
  3
*A72
350
86D
  3
*A73
350
513F
  3
*A74
350
85F
  3
*A75
350
863
  3
*A76
350
85C
  3
*A77
350
874
  3
*A78
350
867
  3
*A79
350
1A86
  3
*A8
350
5137
  3
*A80
350
864
  3
*A81
350
1A87
  3
*A82
350
1A88
  3
*A83
350
1A89
  3
*A84
350
5140
  3
*A85
350
1A8A
  3
*A86
350
1A8B
  3
*A87
350
1A8C
  3
*A88
350
2A83
  3
*A89
350
86B
  3
*A9
350
5138
  3
*A90
350
2A84
  3
*A91
350
2A85
  3
*A92
350
872
  3
*A93
350
2A86
  3
*A94
350
2A87
  3
*A95
350
5141
  3
*A96
350
2A88
  3
*A97
350
2A89
  3
*A98
350
2A8A
  3
*A99
350
87A
  3
A0
350
5E
  3
A1
350
5F
  3
A2
350
60
  3
A3
350
61
  3
A4
350
62
  3
A5
350
63
  3
A6
350
64
  3
A7
350
65
  3
A8
350
66
  3
A9
350
67
  3
B0
350
68
  3
B1
350
69
  3
B2
350
6A
  3
B3
350
6B
  3
B4
350
6C
  3
B5
350
6D
  3
B6
350
6E
  3
B7
350
6F
  3
B8
350
70
  3
B9
350
71
  3
C0
350
72
  0
DICTIONARY
  5
55
102
{ACAD_REACTORS
330
B
102
}
330
B
100
AcDbDictionary
281
     1
  3
Standard
350
5A
  0
DICTIONARY
  5
15
102
{ACAD_REACTORS
330
B
102
}
330
B
100
AcDbDictionary
281
     1
  3
2dWireframe
350
14
  3
3D Hidden
350
7A0
  3
3dWireframe
350
5D
  3
Basic
350
79F
  3
Brighten
350
7A3
  3
ColorChange
350
7A7
  3
Conceptual
350
7A1
  3
Dim
350
7A2
  3
Facepattern
350
7A6
  3
Flat
350
79B
  3
FlatWithEdges
350
79C
  3
Gouraud
350
79D
  3
GouraudWithEdges
350
79E
  3
Linepattern
350
7A5
  3
Phong
350
7B1
  3
PhongWithEdges
350
7B2
  3
Realistic
350
5C
  3
Thicken
350
7A4
  0
XRECORD
  5
794
102
{ACAD_REACTORS
330
B
102
}
330
B
100
AcDbXrecord
280
     1
 90
        1
330
5A
  0
DICTIONARY
  5
795
102
{ACAD_REACTORS
330
B
102
}
330
B
100
AcDbDictionary
281
     1
  3
CANNOSCALE
350
798
  3
CMLEADERSTYLE
350
797
  3
CTABLESTYLE
350
796
  3
DIMASSOC
350
77E0
  3
HIDETEXT
350
77DF
  3
INDEXCTL
350
77DE
  3
LIGHTINGUNITS
350
799
  3
MSLTSCALE
350
77DC
  3
SORTENTS
350
77DD
  0
DICTIONARY
  5
5A9B
102
{ACAD_REACTORS
330
B
102
}
330
B
100
AcDbDictionary
281
     1
  3
Standard
350
5A9C
  0
DICTIONARY
  5
5A9D
102
{ACAD_REACTORS
330
B
102
}
330
B
100
AcDbDictionary
281
     1
  3
Medium Detail - WIEZBA
350
5A9E
  3
Standard
350
5C54
1001
AECBASE
1070
 10000
1005
5A9E
  0
DICTIONARY
  5
5A9F
102
{ACAD_REACTORS
330
B
102
}
330
B
100
AcDbDictionary
281
     1
  3
Model
350
5AA0
  3
Model High Detail
350
5C51
  3
Model Low Detail
350
5C50
  3
Plan
350
5C4C
  3
Plan Diagnostic
350
5AA1
  3
Plan High Detail
350
5C4F
  3
Plan Low Detail
350
5C4E
  3
Plan Medium - WIEZBA
350
5AA2
  3
Reflected
350
5C4D
  3
Section_Elev
350
5AA3
  0
DICTIONARY
  5
5AA4
102
{ACAD_REACTORS
330
B
102
}
330
B
100
AcDbDictionary
281
     1
  3
AecDbDispRep2dSection
350
5AA5
  3
AecDbDispRepAnchor
350
5BBB
  3
AecDbDispRepAnchorBubToGrid
350
5AA6
  3
AecDbDispRepAnchorBubToGridMdl
350
5AA7
  3
AecDbDispRepAnchorBubToGridRcp
350
5BE6
  3
AecDbDispRepAnchorEntToNode
350
5AA8
  3
AecDbDispRepAnchorExtendedTagToEnt
350
5BBE
  3
AecDbDispRepAnchorTagToEnt
350
5AA9
  3
AecDbDispRepBdgElevLineModel
350
5AAA
  3
AecDbDispRepBdgElevLinePlan
350
5AAB
  3
AecDbDispRepBdgElevLinePlan100
350
5BF2
  3
AecDbDispRepBdgElevLinePlan50
350
5C0B
  3
AecDbDispRepBdgElevLineRcp
350
5BC0
  3
AecDbDispRepBdgSectionLineModel
350
5AAC
  3
AecDbDispRepBdgSectionLinePlan
350
5AAD
  3
AecDbDispRepBdgSectionLinePlan100
350
5BF4
  3
AecDbDispRepBdgSectionLinePlan50
350
5C0D
  3
AecDbDispRepBdgSectionLineRcp
350
5BC2
  3
AecDbDispRepBdgSectionModel
350
5BC4
  3
AecDbDispRepBdgSectionSubDiv
350
5AAE
  3
AecDbDispRepCeilingGrid
350
5AAF
  3
AecDbDispRepCeilingGridModel
350
5AB0
  3
AecDbDispRepCeilingGridPlan100
350
5BF6
  3
AecDbDispRepCeilingGridPlan50
350
5C0F
  3
AecDbDispRepCeilingGridRcp
350
5AB1
  3
AecDbDispRepClipVolModel
350
5AB2
  3
AecDbDispRepClipVolPlan
350
5AB3
  3
AecDbDispRepClipVolResSubDiv
350
5AB4
  3
AecDbDispRepClipVolResult
350
5AB5
  3
AecDbDispRepColumnGrid
350
5AB6
  3
AecDbDispRepColumnGridModel
350
5AB7
  3
AecDbDispRepColumnGridPlan100
350
5BF8
  3
AecDbDispRepColumnGridPlan50
350
5C11
  3
AecDbDispRepColumnGridRcp
350
5BE8
  3
AecDbDispRepCurtainWallLayoutModel
350
5AB8
  3
AecDbDispRepCurtainWallLayoutPlan
350
5AB9
  3
AecDbDispRepCurtainWallLayoutPlan100
350
5BFA
  3
AecDbDispRepCurtainWallLayoutPlan50
350
5C13
  3
AecDbDispRepCurtainWallUnitModel
350
5ABA
  3
AecDbDispRepCurtainWallUnitPlan
350
5ABB
  3
AecDbDispRepCurtainWallUnitPlan100
350
5BFC
  3
AecDbDispRepCurtainWallUnitPlan50
350
5C15
  3
AecDbDispRepDimGroupPlan
350
5ABC
  3
AecDbDispRepDimGroupPlan100
350
5C26
  3
AecDbDispRepDimGroupPlan50
350
5C28
  3
AecDbDispRepDisplayTheme
350
5ABD
  3
AecDbDispRepDoorElev
350
5ABE
  3
AecDbDispRepDoorModel
350
5ABF
  3
AecDbDispRepDoorNominal
350
5AC0
  3
AecDbDispRepDoorPlan
350
5AC1
  3
AecDbDispRepDoorPlan50
350
5C2A
  3
AecDbDispRepDoorPlanHekto
350
5C2C
  3
AecDbDispRepDoorRcp
350
5BC5
  3
AecDbDispRepDoorThresholdPlan
350
5BC7
  3
AecDbDispRepDoorThresholdSymbolPlan
350
5C2E
  3
AecDbDispRepEditInPlaceProfile
350
5AC2
  3
AecDbDispRepEntRef
350
5AC3
  3
AecDbDispRepLayoutCurve
350
5AC4
  3
AecDbDispRepLayoutGrid2d
350
5AC5
  3
AecDbDispRepLayoutGrid3d
350
5AC6
  3
AecDbDispRepMaskBlockRef
350
5AC7
  3
AecDbDispRepMaskBlockRefRcp
350
5AC8
  3
AecDbDispRepMassElemModel
350
5AC9
  3
AecDbDispRepMassElemPlan100
350
5C30
  3
AecDbDispRepMassElemPlan50
350
5C32
  3
AecDbDispRepMassElemRcp
350
5BC9
  3
AecDbDispRepMassElemSchem
350
5ACA
  3
AecDbDispRepMassGroupModel
350
5ACB
  3
AecDbDispRepMassGroupPlan
350
5ACC
  3
AecDbDispRepMassGroupPlan100
350
5C34
  3
AecDbDispRepMassGroupPlan50
350
5C36
  3
AecDbDispRepMassGroupRcp
350
5BCB
  3
AecDbDispRepMaterial
350
5ACD
  3
AecDbDispRepMaterial$General High Detail
350
5ACE
  3
AecDbDispRepMaterial$General Low Detail
350
5ACF
  3
AecDbDispRepMaterial$General Medium Detail
350
5AD0
  3
AecDbDispRepMaterial$General Presentation
350
5AD1
  3
AecDbDispRepMaterial$General Reflected
350
5AD2
  3
AecDbDispRepMaterial$General Reflected Screened
350
5AD3
  3
AecDbDispRepMaterial$General Screened
350
5AD4
  3
AecDbDispRepMvBlockRef
350
5AD5
  3
AecDbDispRepMvBlockRef$Plan
350
5AD6
  3
AecDbDispRepMvBlockRef$Plan (lustro)
350
5AD7
  3
AecDbDispRepMvBlockRefModel
350
5AD8
  3
AecDbDispRepMvBlockRefPlan100
350
5BFE
  3
AecDbDispRepMvBlockRefPlan50
350
5C17
  3
AecDbDispRepMvBlockRefRcp
350
5BCD
  3
AecDbDispRepOpening
350
5AD9
  3
AecDbDispRepOpeningModel
350
5ADA
  3
AecDbDispRepOpeningPlan100
350
5C38
  3
AecDbDispRepOpeningPlan50
350
5C3A
  3
AecDbDispRepOpeningPlanReflected
350
5C3C
  3
AecDbDispRepOpeningSillPlan
350
5C3E
  3
AecDbDispRepPolygonModel
350
5ADB
  3
AecDbDispRepPolygonTrueColour
350
5BBC
  3
AecDbDispRepRailingModel
350
5ADC
  3
AecDbDispRepRailingPlan
350
5ADD
  3
AecDbDispRepRailingPlan100
350
5C40
  3
AecDbDispRepRailingPlan50
350
5C42
  3
AecDbDispRepRoofModel
350
5ADE
  3
AecDbDispRepRoofPlan
350
5ADF
  3
AecDbDispRepRoofPlan100
350
5BFF
  3
AecDbDispRepRoofPlan50
350
5C18
  3
AecDbDispRepRoofRcp
350
5BCE
  3
AecDbDispRepRoofSlabModel
350
5AE0
  3
AecDbDispRepRoofSlabPlan
350
5BD2
  3
AecDbDispRepRoofSlabPlan$Plan Presentation
350
5AE1
  3
AecDbDispRepRoofSlabPlan100
350
5C01
  3
AecDbDispRepRoofSlabPlan50
350
5C1A
  3
AecDbDispRepScheduleTable
350
5AE2
  3
AecDbDispRepSlabModel
350
5AE3
  3
AecDbDispRepSlabPlan
350
5BD0
  3
AecDbDispRepSlabPlan$Plan Presentation
350
5AE4
  3
AecDbDispRepSlabPlan100
350
5C03
  3
AecDbDispRepSlabPlan50
350
5C1C
  3
AecDbDispRepSlice
350
5AE5
  3
AecDbDispRepSpaceDecomposed
350
5AE6
  3
AecDbDispRepSpaceModel
350
5AE7
  3
AecDbDispRepSpacePlan
350
5AE8
  3
AecDbDispRepSpacePlan100
350
5C05
  3
AecDbDispRepSpacePlan50
350
5C1E
  3
AecDbDispRepSpaceRcp
350
5BD4
  3
AecDbDispRepSpaceVolume
350
5BD6
  3
AecDbDispRepStairModel
350
5AE9
  3
AecDbDispRepStairPlan
350
5AEA
  3
AecDbDispRepStairPlan100
350
5C44
  3
AecDbDispRepStairPlan50
350
5C46
  3
AecDbDispRepStairPlanOverlapping
350
5BD8
  3
AecDbDispRepStairRcp
350
5BDA
  3
AecDbDispRepWallGraph
350
5AEB
  3
AecDbDispRepWallModel
350
5AEC
  3
AecDbDispRepWallPlan
350
5AED
  3
AecDbDispRepWallPlan100
350
5C07
  3
AecDbDispRepWallPlan50
350
5C20
  3
AecDbDispRepWallRcp
350
5BDC
  3
AecDbDispRepWallSchem
350
5AEE
  3
AecDbDispRepWindowAssemblyModel
350
5AEF
  3
AecDbDispRepWindowAssemblyPlan
350
5AF0
  3
AecDbDispRepWindowAssemblyPlan100
350
5AF1
  3
AecDbDispRepWindowAssemblyPlan50
350
5C22
  3
AecDbDispRepWindowAssemblySillPlan
350
5BDE
  3
AecDbDispRepWindowElev
350
5AF2
  3
AecDbDispRepWindowModel
350
5AF3
  3
AecDbDispRepWindowNominal
350
5AF4
  3
AecDbDispRepWindowPlan
350
5AF5
  3
AecDbDispRepWindowPlan100
350
5C48
  3
AecDbDispRepWindowPlan50
350
5C4A
  3
AecDbDispRepWindowRcp
350
5BE0
  3
AecDbDispRepWindowSillPlan
350
5BE2
  3
AecDbDispRepZone
350
5BE4
  3
AecDbDispRepZonePlan100
350
5C09
  3
AecDbDispRepZonePlan50
350
5C24
  3
AecsDbDispRepMemberElevationDesign
350
5AF6
  3
AecsDbDispRepMemberElevationDetail
350
5BEA
  3
AecsDbDispRepMemberLogical
350
5AF7
  3
AecsDbDispRepMemberModelDesign
350
5AF8
  3
AecsDbDispRepMemberModelDetail
350
5BEC
  3
AecsDbDispRepMemberPlanDesign
350
5AF9
  3
AecsDbDispRepMemberPlanDetail
350
5BEE
  3
AecsDbDispRepMemberPlanSketch
350
5BF0
  0
DICTIONARY
  5
5AFA
102
{ACAD_REACTORS
330
B
102
}
330
B
100
AcDbDictionary
281
     1
  3
*A1
350
5AFB
  3
*A10
350
5B32
  3
*A100
350
5C43
  3
*A101
350
5C45
  3
*A102
350
5C47
  3
*A103
350
5C49
  3
*A104
350
5B01
  3
*A105
350
5C4B
  3
*A106
350
5B02
  3
*A107
350
5BEB
  3
*A108
350
5B03
  3
*A109
350
5B04
  3
*A11
350
5B33
  3
*A110
350
5B05
  3
*A111
350
5B06
  3
*A112
350
5B07
  3
*A113
350
5B08
  3
*A114
350
5B09
  3
*A115
350
5B0A
  3
*A116
350
5B0B
  3
*A117
350
5B0C
  3
*A118
350
5BED
  3
*A119
350
5B0D
  3
*A12
350
5B34
  3
*A120
350
5B0E
  3
*A121
350
5B0F
  3
*A122
350
5B10
  3
*A123
350
5B11
  3
*A124
350
5B12
  3
*A125
350
5B13
  3
*A126
350
5B14
  3
*A127
350
5B15
  3
*A128
350
5B16
  3
*A129
350
5BEF
  3
*A13
350
5BF5
  3
*A130
350
5B17
  3
*A131
350
5B18
  3
*A132
350
5B19
  3
*A133
350
5B1A
  3
*A134
350
5B1B
  3
*A135
350
5B1C
  3
*A136
350
5B1D
  3
*A137
350
5B1E
  3
*A138
350
5B1F
  3
*A139
350
5B20
  3
*A14
350
5B35
  3
*A140
350
5BF1
  3
*A141
350
5B21
  3
*A142
350
5B22
  3
*A143
350
5B23
  3
*A144
350
5B24
  3
*A145
350
5B25
  3
*A146
350
5B26
  3
*A147
350
5B27
  3
*A148
350
5B28
  3
*A149
350
5B29
  3
*A15
350
5B36
  3
*A150
350
5B2A
  3
*A16
350
5B37
  3
*A17
350
5B38
  3
*A18
350
5B39
  3
*A19
350
5B3A
  3
*A2
350
5BF3
  3
*A20
350
5B3B
  3
*A21
350
5B3C
  3
*A22
350
5B3D
  3
*A23
350
5B3E
  3
*A24
350
5BF7
  3
*A25
350
5B3F
  3
*A26
350
5B40
  3
*A27
350
5B41
  3
*A28
350
5B42
  3
*A29
350
5B43
  3
*A3
350
5B2B
  3
*A30
350
5B44
  3
*A31
350
5B45
  3
*A32
350
5B46
  3
*A33
350
5B47
  3
*A34
350
5B48
  3
*A35
350
5AFD
  3
*A36
350
5B49
  3
*A37
350
5BBD
  3
*A38
350
5BBF
  3
*A39
350
5BC1
  3
*A4
350
5B2C
  3
*A40
350
5BC3
  3
*A41
350
5BC6
  3
*A42
350
5BC8
  3
*A43
350
5BCA
  3
*A44
350
5BCC
  3
*A45
350
5BCF
  3
*A46
350
5BF9
  3
*A47
350
5B4A
  3
*A48
350
5BD1
  3
*A49
350
5BD3
  3
*A5
350
5B2D
  3
*A50
350
5BD5
  3
*A51
350
5BD7
  3
*A52
350
5BD9
  3
*A53
350
5BDB
  3
*A54
350
5BDD
  3
*A55
350
5BDF
  3
*A56
350
5BE1
  3
*A57
350
5BFB
  3
*A58
350
5BE3
  3
*A59
350
5BFD
  3
*A6
350
5B2E
  3
*A60
350
5C00
  3
*A61
350
5C02
  3
*A62
350
5C04
  3
*A63
350
5AFC
  3
*A64
350
5C06
  3
*A65
350
5C08
  3
*A66
350
5C0A
  3
*A67
350
5C0C
  3
*A68
350
5AFE
  3
*A69
350
5C0E
  3
*A7
350
5B2F
  3
*A70
350
5C10
  3
*A71
350
5C12
  3
*A72
350
5C14
  3
*A73
350
5C16
  3
*A74
350
5BE5
  3
*A75
350
5C19
  3
*A76
350
5C1B
  3
*A77
350
5C1D
  3
*A78
350
5C1F
  3
*A79
350
5C21
  3
*A8
350
5B30
  3
*A80
350
5AFF
  3
*A81
350
5C23
  3
*A82
350
5C25
  3
*A83
350
5C27
  3
*A84
350
5C29
  3
*A85
350
5BE7
  3
*A86
350
5C2B
  3
*A87
350
5C2D
  3
*A88
350
5C2F
  3
*A89
350
5C31
  3
*A9
350
5B31
  3
*A90
350
5C33
  3
*A91
350
5C35
  3
*A92
350
5B00
  3
*A93
350
5C37
  3
*A94
350
5C39
  3
*A95
350
5C3B
  3
*A96
350
5BE9
  3
*A97
350
5C3D
  3
*A98
350
5C3F
  3
*A99
350
5C41
  0
DICTIONARY
  5
5B4B
102
{ACAD_REACTORS
330
B
102
}
330
B
100
AcDbDictionary
281
     1
  3
Standard
350
5B4C
  0
DICTIONARY
  5
5B4D
102
{ACAD_REACTORS
330
B
102
}
330
B
100
AcDbDictionary
281
     1
  3
Pomieszczenia
350
5B4E
  3
Posadzka
350
5B78
  0
DICTIONARY
  5
5B81
102
{ACAD_REACTORS
330
B
102
}
330
B
100
AcDbDictionary
281
     1
  3
Standard
350
5B82
  0
DICTIONARY
  5
5B8D
102
{ACAD_REACTORS
330
B
102
}
330
B
100
AcDbDictionary
281
     1
  3
space_etyk_3
350
5B8E
  0
DICTIONARY
  5
5B8F
102
{ACAD_REACTORS
330
B
102
}
330
B
100
AcDbDictionary
281
     1
  3
Standard
350
5B90
  0
DICTIONARY
  5
5B91
102
{ACAD_REACTORS
330
B
102
}
330
B
100
AcDbDictionary
281
     1
  3
Area
350
5B92
  3
Case - Lower
350
5B93
  3
Case - Upper
350
5B94
  3
Length - Nominal
350
5B95
  3
Number - Object
350
5B96
  3
poziom_bezwzgl
350
5B97
  3
Standard
350
5B98
  3
zaokragl do 1 miejsca po przecinku
350
5B99
  0
DICTIONARY
  5
952
102
{ACAD_REACTORS
330
B
102
}
330
B
100
AcDbDictionary
281
     1
  3
Powierzchnie
350
5B9A
  3
SpaceObjects_ver3
350
5B9B
  0
DICTIONARY
  5
5B9C
102
{ACAD_REACTORS
330
B
102
}
330
B
100
AcDbDictionary
281
     1
  3
Standard
350
5B9D
  0
DICTIONARY
  5
5B9E
102
{ACAD_REACTORS
330
B
102
}
330
B
100
AcDbDictionary
281
     1
  3
Standard
350
5B9F
  0
DICTIONARY
  5
5BA0
102
{ACAD_REACTORS
330
B
102
}
330
B
100
AcDbDictionary
281
     1
  3
pomieszczenia-parter
350
5BA1
  0
DICTIONARY
  5
5BA5
102
{ACAD_REACTORS
330
B
102
}
330
B
100
AcDbDictionary
281
     1
  3
Standard
350
5BA6
  0
DICTIONARY
  5
5BA7
102
{ACAD_REACTORS
330
B
102
}
330
B
100
AcDbDictionary
281
     1
  3
Standard
350
5BA8
  0
DICTIONARY
  5
5BA9
102
{ACAD_REACTORS
330
B
102
}
330
B
100
AcDbDictionary
281
     1
  3
SPACE
350
5BAA
  0
DICTIONARY
  5
5BAF
102
{ACAD_REACTORS
330
B
102
}
330
B
100
AcDbDictionary
281
     1
  3
AEC_VARS_ARCHBASE
350
5BB0
  3
AEC_VARS_DWG_SETUP
350
5BB1
  3
AEC_VARS_STRUCTUREBASE
350
5BB4
  3
AECMX_VARS_MUNICH
350
5BB5
  0
DICTIONARY
  5
5BB6
102
{ACAD_REACTORS
330
B
102
}
330
B
100
AcDbDictionary
281
     1
  3
Standard
350
5BB7
  0
XRECORD
  5
77E2
102
{ACAD_REACTORS
330
B
102
}
330
B
100
AcDbXrecord
280
     1
  1
DWGPROPS COOKIE
  2

  3

  4

  6

  7

  8
beata.rzonca
  9

300
=
301
=
302
=
303
=
304
=
305
=
306
=
307
=
308
=
309
=
 40
21.77595202546296
 41
2450817.525937848
 42
2454965.430881979
  1

 90
        0
  0
DICTIONARY
  5
1F
102
{ACAD_REACTORS
330
1E
102
}
330
1E
100
AcDbDictionary
281
     1
  0
XRECORD
  5
8
102
{ACAD_REACTORS
330
7
102
}
330
7
100
AcDbXrecord
280
     1
290
     1
  0
XRECORD
  5
76
102
{ACAD_REACTORS
330
75
102
}
330
75
100
AcDbXrecord
280
     1
290
     1
  0
XRECORD
  5
58
102
{ACAD_REACTORS
330
57
102
}
330
57
100
AcDbXrecord
280
     1
290
     1
  0
XRECORD
  5
3A5
102
{ACAD_REACTORS
330
3A4
102
}
330
3A4
100
AcDbXrecord
280
     1
290
     1
  0
XRECORD
  5
80
102
{ACAD_REACTORS
330
7F
102
}
330
7F
100
AcDbXrecord
280
     1
290
     1
  0
SORTENTSTABLE
  5
790
102
{ACAD_REACTORS
330
3
102
}
330
3
100
AcDbSortentsTable
330
2
331
7713
  5
7714
331
771B
  5
771C
331
76EC
  5
76ED
331
76F4
  5
76F5
331
5C81
  5
5C81
331
74FA
  5
74FB
331
7502
  5
7503
331
750A
  5
750C
331
7512
  5
7514
331
76FC
  5
76FD
331
7704
  5
7705
331
770C
  5
770D
331
751A
  5
751C
331
74EB
  5
74EB
331
74F3
  5
74F4
331
7714
  5
7715
331
771C
  5
77C8
331
76E5
  5
76E8
331
76ED
  5
76EE
331
76F5
  5
76F6
331
5C72
  5
5C72
331
74FB
  5
74FC
331
7503
  5
7504
331
750B
  5
750D
331
7513
  5
7515
331
76FD
  5
76FE
331
7705
  5
7706
331
770D
  5
770E
331
5C9A
  5
5C9A
331
751B
  5
751D
331
74EC
  5
74EC
331
74F4
  5
74F5
331
7715
  5
7716
331
76EE
  5
76EF
331
76F6
  5
76F7
331
74FC
  5
74FD
331
7504
  5
7505
331
750C
  5
750E
331
7514
  5
7516
331
76FE
  5
76FF
331
7706
  5
7707
331
770E
  5
770F
331
5C8B
  5
5C8B
331
751C
  5
751E
331
74ED
  5
74ED
331
74F5
  5
74F6
331
7716
  5
7717
331
77D3
  5
7509
331
76EF
  5
76F0
331
76F7
  5
76F8
331
5C7C
  5
5C7C
331
74FD
  5
74FE
331
7505
  5
7506
331
750D
  5
750F
331
7515
  5
7517
331
74D6
  5
74D6
331
76FF
  5
7700
331
7707
  5
7708
331
770F
  5
7710
331
751D
  5
751F
331
74F6
  5
74F7
331
7717
  5
7718
331
76E0
  5
76E2
331
76E8
  5
76E9
331
76F0
  5
76F1
331
5C6D
  5
5C6D
331
74FE
  5
74FF
331
7506
  5
7507
331
750E
  5
7510
331
7516
  5
7518
331
76F8
  5
76F9
331
7700
  5
7701
331
7708
  5
7709
331
5C95
  5
5C95
331
751E
  5
7522
331
74EF
  5
74EF
331
74F7
  5
74F8
331
7710
  5
7711
331
7718
  5
7719
331
76E9
  5
76EA
331
76F1
  5
76F2
331
5C86
  5
5C86
331
74FF
  5
7500
331
7507
  5
7508
331
750F
  5
7511
331
7517
  5
7519
331
76F9
  5
76FA
331
7701
  5
7702
331
7709
  5
770A
331
751F
  5
76E0
331
74F0
  5
74F0
331
7711
  5
7712
331
7719
  5
771A
331
76E2
  5
76E3
331
76EA
  5
76EB
331
76F2
  5
76F3
331
64F6
  5
64F6
331
5C77
  5
5C77
331
74F8
  5
74F9
331
7500
  5
7501
331
7508
  5
750A
331
7510
  5
7512
331
76FA
  5
76FB
331
7702
  5
7703
331
770A
  5
770B
331
5C9F
  5
5C9F
331
7518
  5
751A
331
74E9
  5
74E9
331
74F1
  5
74F2
331
7712
  5
7713
331
771A
  5
771B
331
76E3
  5
76E5
331
76EB
  5
76EC
331
76F3
  5
76F4
331
74F9
  5
74FA
331
7501
  5
7502
331
7509
  5
750B
331
7511
  5
7513
331
76FB
  5
76FC
331
7703
  5
7704
331
770B
  5
770C
331
5C90
  5
5C90
331
5CA0
  5
5CA0
331
7519
  5
751B
331
74EA
  5
74EA
331
74F2
  5
74F3
  0
SORTENTSTABLE
  5
78F
102
{ACAD_REACTORS
330
30
102
}
330
30
100
AcDbSortentsTable
330
2F
  0
SORTENTSTABLE
  5
4455
102
{ACAD_REACTORS
330
4454
102
}
330
4454
100
AcDbSortentsTable
330
4453
  0
SORTENTSTABLE
  5
46AB
102
{ACAD_REACTORS
330
46AA
102
}
330
46AA
100
AcDbSortentsTable
330
46A9
  0
XRECORD
  5
77ED
102
{ACAD_REACTORS
330
4217
102
}
330
4217
100
AcDbXrecord
280
     1
102
SHADEPLOT
 70
     0
  0
XRECORD
  5
4218
102
{ACAD_REACTORS
330
4217
102
}
330
4217
100
AcDbXrecord
280
     1
 90
        1
340
63
  0
XRECORD
  5
77EE
102
{ACAD_REACTORS
330
421B
102
}
330
421B
100
AcDbXrecord
280
     1
102
SHADEPLOT
 70
     0
  0
XRECORD
  5
421C
102
{ACAD_REACTORS
330
421B
102
}
330
421B
100
AcDbXrecord
280
     1
 90
        1
340
5E
  0
LAYOUT
  5
1943
102
{ACAD_XDICTIONARY
360
4224
102
}
102
{ACAD_REACTORS
330
12
102
}
330
12
100
AcDbPlotSettings
  1

  2
CutePDF Writer
  4
A4
  6

 40
3.174999952316284
 41
3.174999952316284
 42
3.175003051757812
 43
3.17498779296875
 44
209.8886566162109
 45
297.0530090332031
 46
0.0
 47
0.0
 48
0.0
 49
0.0
140
0.0
141
0.0
142
1.0
143
1.0
 70
   688
 72
     0
 73
     1
 74
     5
  7

 75
    16
147
1.0
148
0.0
149
0.0
100
AcDbLayout
  1
Layout1
 70
     1
 71
     1
 10
-0.1249995194082185
 20
-0.1249999981226884
 11
11.5700008362297
 21
8.138332939523412
 12
0.0
 22
0.0
 32
0.0
 14
1.144500083810701
 24
0.8013332819375467
 34
0.0
 15
10.30050075429631
 25
7.21199953743792
 35
0.0
146
0.0
 13
0.0
 23
0.0
 33
0.0
 16
1.0
 26
0.0
 36
0.0
 17
0.0
 27
1.0
 37
0.0
 76
     0
330
1942
331
4216
1001
ACAD_PSEXT
1000
CutePDF Writer
1000
CutePDF Writer
1000
CPW2:
1000

1070
     0
  0
LAYOUT
  5
11
102
{ACAD_XDICTIONARY
360
77E5
102
}
102
{ACAD_REACTORS
330
12
102
}
330
12
100
AcDbPlotSettings
  1

  2
RICOH Aficio AP610N PCL 5e
  4
A4
  6
10-ele
 40
6.805083274841308
 41
5.027085781097412
 42
6.974411010742187
 43
5.027069091796875
 44
209.9733276367187
 45
296.9259948730469
 46
-3.903083324432671
 47
3.235920000076276
 48
67057.75918130524
 49
-45526.33714755503
140
77257.75918130527
141
-31506.33714755504
142
1.0
143
50.0
 70
 11940
 72
     1
 73
     0
 74
     4
  7
monochrome_140.ctb
 75
     0
147
0.0192346895442289
148
-67057.75918130524
149
45526.33714755503
100
AcDbLayout
  1
Model
 70
     1
 71
     0
 10
0.0
 20
0.0
 11
12.0
 21
9.0
 12
0.0
 22
0.0
 32
0.0
 14
0.0
 24
0.0
 34
0.0
 15
0.0
 25
0.0
 35
0.0
146
0.0
 13
0.0
 23
0.0
 33
0.0
 16
1.0
 26
0.0
 36
0.0
 17
0.0
 27
1.0
 37
0.0
 76
     0
330
2
331
29
1001
ACAD_PSEXT
1000
RICOH Aficio AP610N PCL 5e
1000
RICOH Aficio AP610N PCL 5e
1000
IP_192.168.0.252_tech
1000

1070
     0
  0
MATERIAL
  5
52
102
{ACAD_XDICTIONARY
360
77E9
102
}
102
{ACAD_REACTORS
330
D
102
}
330
D
100
AcDbMaterial
  1
ByBlock
 73
     1
 78
     1
172
     1
176
     1
270
     1
274
     1
  0
MATERIAL
  5
51
102
{ACAD_XDICTIONARY
360
77E7
102
}
102
{ACAD_REACTORS
330
D
102
}
330
D
100
AcDbMaterial
  1
ByLayer
 73
     1
 78
     1
172
     1
176
     1
270
     1
274
     1
  0
MATERIAL
  5
5122
102
{ACAD_XDICTIONARY
360
5123
102
}
102
{ACAD_REACTORS
330
D
102
}
330
D
100
AcDbMaterial
  1
General.Chip
 70
     1
 90
-1029332071
 71
     1
 91
-1029332071
 73
     1
 43
10.0
 43
0.0
 43
0.0
 43
0.0
 43
0.0
 43
10.0
 43
0.0
 43
0.0
 43
0.0
 43
0.0
 43
10.0
 43
0.0
 43
0.0
 43
0.0
 43
0.0
 43
1.0
 44
0.0
 76
     1
 92
-1023410177
 78
     1
172
     1
176
     1
270
     1
273
     1
274
     1
  0
MATERIAL
  5
C
102
{ACAD_XDICTIONARY
360
77E3
102
}
102
{ACAD_REACTORS
330
D
102
}
330
D
100
AcDbMaterial
  1
Global
 73
     1
 78
     1
172
     1
176
     1
270
     1
274
     1
  0
MLEADERSTYLE
  5
7A9
102
{ACAD_REACTORS
330
7A8
102
}
330
7A8
100
AcDbMLeaderStyle
170
     2
171
     1
172
     0
 90
        2
 40
0.0
 41
0.0
173
     1
 91
-1056964608
340
24
 92
       -2
290
     1
 42
0.09
291
     1
 43
0.36
  3
Standard
 44
0.18
300

342
21
174
     1
178
     6
175
     1
176
     0
 93
-1056964608
 45
0.18
292
     0
297
     0
 46
0.18
 94
-1056964608
 47
1.0
 49
1.0
140
1.0
293
     1
141
0.0
294
     1
177
     0
142
1.0
295
     0
296
     0
143
0.125
1001
ACAD_MLEADERVER
1070
     2
  0
MLINESTYLE
  5
59
102
{ACAD_REACTORS
330
4F
102
}
330
4F
100
AcDbMlineStyle
  2
STANDARD
 70
     0
  3

 62
     0
 51
90.0
 52
90.0
 71
     2
 49
0.5
 62
   256
  6
BYLAYER
 49
-0.5
 62
   256
  6
BYLAYER
  0
ACDBPLACEHOLDER
  5
511A
102
{ACAD_REACTORS
330
A
102
}
330
A
  0
ACDBPLACEHOLDER
  5
511B
102
{ACAD_REACTORS
330
A
102
}
330
A
  0
ACDBPLACEHOLDER
  5
511C
102
{ACAD_REACTORS
330
A
102
}
330
A
  0
ACDBPLACEHOLDER
  5
9
102
{ACAD_REACTORS
330
A
102
}
330
A
  0
ACDBPLACEHOLDER
  5
511D
102
{ACAD_REACTORS
330
A
102
}
330
A
  0
ACDBPLACEHOLDER
  5
511F
102
{ACAD_REACTORS
330
A
102
}
330
A
  0
ACDBPLACEHOLDER
  5
5120
102
{ACAD_REACTORS
330
A
102
}
330
A
  0
ACDBPLACEHOLDER
  5
5121
102
{ACAD_REACTORS
330
A
102
}
330
A
  0
SCALE
  5
85B
102
{ACAD_REACTORS
330
54
102
}
330
54
100
AcDbScale
 70
     0
300
1:1_2
140
1.0
141
1.0
290
     0
  0
SCALE
  5
5139
102
{ACAD_REACTORS
330
54
102
}
330
54
100
AcDbScale
 70
     0
300
1:5_XREF
140
1.0
141
5.0
290
     0
  0
SCALE
  5
86E
102
{ACAD_REACTORS
330
54
102
}
330
54
100
AcDbScale
 70
     0
300
2:1
140
2.0
141
1.0
290
     0
  0
SCALE
  5
5125
102
{ACAD_REACTORS
330
54
102
}
330
54
100
AcDbScale
 70
     0
300
1:1_XREF
140
1.0
141
1.0
290
     0
  0
SCALE
  5
5126
102
{ACAD_REACTORS
330
54
102
}
330
54
100
AcDbScale
 70
     0
300
1/128" = 1'-0"_XREF
140
0.0078125
141
12.0
290
     0
  0
SCALE
  5
5127
102
{ACAD_REACTORS
330
54
102
}
330
54
100
AcDbScale
 70
     0
300
1/64" = 1'-0"_XREF
140
0.015625
141
12.0
290
     0
  0
SCALE
  5
880
102
{ACAD_REACTORS
330
54
102
}
330
54
100
AcDbScale
 70
     0
300
3" = 1'-0"
140
3.0
141
12.0
290
     0
  0
SCALE
  5
5128
102
{ACAD_REACTORS
330
54
102
}
330
54
100
AcDbScale
 70
     0
300
1:2_XREF
140
1.0
141
2.0
290
     0
  0
SCALE
  5
5142
102
{ACAD_REACTORS
330
54
102
}
330
54
100
AcDbScale
 70
     0
300
4:1_XREF
140
4.0
141
1.0
290
     0
  0
SCALE
  5
5129
102
{ACAD_REACTORS
330
54
102
}
330
54
100
AcDbScale
 70
     0
300
1/32" = 1'-0"_XREF
140
0.03125
141
12.0
290
     0
  0
SCALE
  5
512A
102
{ACAD_REACTORS
330
54
102
}
330
54
100
AcDbScale
 70
     0
300
1/16" = 1'-0"_XREF
140
0.0625
141
12.0
290
     0
  0
SCALE
  5
512B
102
{ACAD_REACTORS
330
54
102
}
330
54
100
AcDbScale
 70
     0
300
3/32" = 1'-0"_XREF
140
0.09375
141
12.0
290
     0
  0
SCALE
  5
513A
102
{ACAD_REACTORS
330
54
102
}
330
54
100
AcDbScale
 70
     0
300
1:8_XREF
140
1.0
141
8.0
290
     0
  0
SCALE
  5
512C
102
{ACAD_REACTORS
330
54
102
}
330
54
100
AcDbScale
 70
     0
300
1/8" = 1'-0"_XREF
140
0.125
141
12.0
290
     0
  0
SCALE
  5
512D
102
{ACAD_REACTORS
330
54
102
}
330
54
100
AcDbScale
 70
     0
300
3/16" = 1'-0"_XREF
140
0.1875
141
12.0
290
     0
  0
SCALE
  5
512E
102
{ACAD_REACTORS
330
54
102
}
330
54
100
AcDbScale
 70
     0
300
1/4" = 1'-0"_XREF
140
0.25
141
12.0
290
     0
  0
SCALE
  5
512F
102
{ACAD_REACTORS
330
54
102
}
330
54
100
AcDbScale
 70
     0
300
3/8" = 1'-0"_XREF
140
0.375
141
12.0
290
     0
  0
SCALE
  5
5130
102
{ACAD_REACTORS
330
54
102
}
330
54
100
AcDbScale
 70
     0
300
1:40_XREF
140
1.0
141
40.0
290
     0
  0
SCALE
  5
5131
102
{ACAD_REACTORS
330
54
102
}
330
54
100
AcDbScale
 70
     0
300
1/2" = 1'-0"_XREF
140
0.5
141
12.0
290
     0
  0
SCALE
  5
875
102
{ACAD_REACTORS
330
54
102
}
330
54
100
AcDbScale
 70
     0
300
1/32" = 1'-0"
140
0.03125
141
12.0
290
     0
  0
SCALE
  5
744C
102
{ACAD_REACTORS
330
54
102
}
330
54
100
AcDbScale
 70
     0
300
1:1_8
140
1.0
141
1.0
290
     0
  0
SCALE
  5
744D
102
{ACAD_REACTORS
330
54
102
}
330
54
100
AcDbScale
 70
     0
300
1:2_8
140
1.0
141
2.0
290
     0
  0
SCALE
  5
744E
102
{ACAD_REACTORS
330
54
102
}
330
54
100
AcDbScale
 70
     0
300
1:5_8
140
1.0
141
5.0
290
     0
  0
SCALE
  5
513B
102
{ACAD_REACTORS
330
54
102
}
330
54
100
AcDbScale
 70
     0
300
1:50_XREF
140
1.0
141
50.0
290
     0
  0
SCALE
  5
744F
102
{ACAD_REACTORS
330
54
102
}
330
54
100
AcDbScale
 70
     0
300
1:10_8
140
1.0
141
10.0
290
     0
  0
SCALE
  5
7450
102
{ACAD_REACTORS
330
54
102
}
330
54
100
AcDbScale
 70
     0
300
1:20_8
140
1.0
141
20.0
290
     0
  0
SCALE
  5
7451
102
{ACAD_REACTORS
330
54
102
}
330
54
100
AcDbScale
 70
     0
300
1:50_8
140
1.0
141
50.0
290
     0
  0
SCALE
  5
7452
102
{ACAD_REACTORS
330
54
102
}
330
54
100
AcDbScale
 70
     0
300
1:100_8
140
1.0
141
100.0
290
     0
  0
SCALE
  5
5144
102
{ACAD_REACTORS
330
54
102
}
330
54
100
AcDbScale
 70
     0
300
10:1_XREF
140
10.0
141
1.0
290
     0
  0
SCALE
  5
7096
102
{ACAD_REACTORS
330
54
102
}
330
54
100
AcDbScale
 70
     0
300
1:1_7
140
1.0
141
1.0
290
     0
  0
SCALE
  5
7097
102
{ACAD_REACTORS
330
54
102
}
330
54
100
AcDbScale
 70
     0
300
1:2_7
140
1.0
141
2.0
290
     0
  0
SCALE
  5
7098
102
{ACAD_REACTORS
330
54
102
}
330
54
100
AcDbScale
 70
     0
300
1:5_7
140
1.0
141
5.0
290
     0
  0
SCALE
  5
7099
102
{ACAD_REACTORS
330
54
102
}
330
54
100
AcDbScale
 70
     0
300
1:10_7
140
1.0
141
10.0
290
     0
  0
SCALE
  5
709A
102
{ACAD_REACTORS
330
54
102
}
330
54
100
AcDbScale
 70
     0
300
1:20_7
140
1.0
141
20.0
290
     0
  0
SCALE
  5
709B
102
{ACAD_REACTORS
330
54
102
}
330
54
100
AcDbScale
 70
     0
300
1:50_7
140
1.0
141
50.0
290
     0
  0
SCALE
  5
5143
102
{ACAD_REACTORS
330
54
102
}
330
54
100
AcDbScale
 70
     0
300
8:1_XREF
140
8.0
141
1.0
290
     0
  0
SCALE
  5
709C
102
{ACAD_REACTORS
330
54
102
}
330
54
100
AcDbScale
 70
     0
300
1:100_7
140
1.0
141
100.0
290
     0
  0
SCALE
  5
5145
102
{ACAD_REACTORS
330
54
102
}
330
54
100
AcDbScale
 70
     0
300
100:1_XREF
140
100.0
141
1.0
290
     0
  0
SCALE
  5
877
102
{ACAD_REACTORS
330
54
102
}
330
54
100
AcDbScale
 70
     0
300
3/32" = 1'-0"
140
0.09375
141
12.0
290
     0
  0
SCALE
  5
868
102
{ACAD_REACTORS
330
54
102
}
330
54
100
AcDbScale
 70
     0
300
1:16
140
1.0
141
16.0
290
     0
  0
SCALE
  5
85D
102
{ACAD_REACTORS
330
54
102
}
330
54
100
AcDbScale
 70
     0
300
1:5_2
140
1.0
141
5.0
290
     0
  0
SCALE
  5
86C
102
{ACAD_REACTORS
330
54
102
}
330
54
100
AcDbScale
 70
     0
300
1:50_1
140
1.0
141
50.0
290
     0
  0
SCALE
  5
878
102
{ACAD_REACTORS
330
54
102
}
330
54
100
AcDbScale
 70
     0
300
1/8" = 1'-0"
140
0.125
141
12.0
290
     0
  0
SCALE
  5
861
102
{ACAD_REACTORS
330
54
102
}
330
54
100
AcDbScale
 70
     0
300
1:100_2
140
1.0
141
100.0
290
     0
  0
SCALE
  5
132B
102
{ACAD_REACTORS
330
54
102
}
330
54
100
AcDbScale
 70
     0
300
1:5_3
140
1.0
141
0.5
290
     0
  0
SCALE
  5
876
102
{ACAD_REACTORS
330
54
102
}
330
54
100
AcDbScale
 70
     0
300
1/16" = 1'-0"
140
0.0625
141
12.0
290
     0
  0
SCALE
  5
5132
102
{ACAD_REACTORS
330
54
102
}
330
54
100
AcDbScale
 70
     0
300
3/4" = 1'-0"_XREF
140
0.75
141
12.0
290
     0
  0
SCALE
  5
132C
102
{ACAD_REACTORS
330
54
102
}
330
54
100
AcDbScale
 70
     0
300
1:10_3
140
1.0
141
1.0
290
     0
  0
SCALE
  5
132D
102
{ACAD_REACTORS
330
54
102
}
330
54
100
AcDbScale
 70
     0
300
1:20_3
140
1.0
141
2.0
290
     0
  0
SCALE
  5
86F
102
{ACAD_REACTORS
330
54
102
}
330
54
100
AcDbScale
 70
     0
300
4:1
140
4.0
141
1.0
290
     0
  0
SCALE
  5
132E
102
{ACAD_REACTORS
330
54
102
}
330
54
100
AcDbScale
 70
     0
300
1:50_3
140
1.0
141
5.0
290
     0
  0
SCALE
  5
873
102
{ACAD_REACTORS
330
54
102
}
330
54
100
AcDbScale
 70
     0
300
1/128" = 1'-0"
140
0.0078125
141
12.0
290
     0
  0
SCALE
  5
132F
102
{ACAD_REACTORS
330
54
102
}
330
54
100
AcDbScale
 70
     0
300
1:100_3
140
1.0
141
10.0
290
     0
  0
SCALE
  5
869
102
{ACAD_REACTORS
330
54
102
}
330
54
100
AcDbScale
 70
     0
300
1:20_1
140
1.0
141
20.0
290
     0
  0
SCALE
  5
1330
102
{ACAD_REACTORS
330
54
102
}
330
54
100
AcDbScale
 70
     0
300
1:1_3
140
1.0
141
0.1
290
     0
  0
SCALE
  5
1331
102
{ACAD_REACTORS
330
54
102
}
330
54
100
AcDbScale
 70
     0
300
1:2_3
140
1.0
141
0.2
290
     0
  0
SCALE
  5
1332
102
{ACAD_REACTORS
330
54
102
}
330
54
100
AcDbScale
 70
     0
300
1:1_4
140
1.0
141
1.0
290
     0
  0
SCALE
  5
5133
102
{ACAD_REACTORS
330
54
102
}
330
54
100
AcDbScale
 70
     0
300
1" = 1'-0"_XREF
140
1.0
141
12.0
290
     0
  0
SCALE
  5
513C
102
{ACAD_REACTORS
330
54
102
}
330
54
100
AcDbScale
 70
     0
300
1:10_XREF
140
1.0
141
10.0
290
     0
  0
SCALE
  5
1333
102
{ACAD_REACTORS
330
54
102
}
330
54
100
AcDbScale
 70
     0
300
1:2_4
140
1.0
141
2.0
290
     0
  0
SCALE
  5
879
102
{ACAD_REACTORS
330
54
102
}
330
54
100
AcDbScale
 70
     0
300
3/16" = 1'-0"
140
0.1875
141
12.0
290
     0
  0
SCALE
  5
87B
102
{ACAD_REACTORS
330
54
102
}
330
54
100
AcDbScale
 70
     0
300
3/8" = 1'-0"
140
0.375
141
12.0
290
     0
  0
SCALE
  5
870
102
{ACAD_REACTORS
330
54
102
}
330
54
100
AcDbScale
 70
     0
300
8:1
140
8.0
141
1.0
290
     0
  0
SCALE
  5
1334
102
{ACAD_REACTORS
330
54
102
}
330
54
100
AcDbScale
 70
     0
300
1:5_4
140
1.0
141
5.0
290
     0
  0
SCALE
  5
1335
102
{ACAD_REACTORS
330
54
102
}
330
54
100
AcDbScale
 70
     0
300
1:10_4
140
1.0
141
10.0
290
     0
  0
SCALE
  5
1336
102
{ACAD_REACTORS
330
54
102
}
330
54
100
AcDbScale
 70
     0
300
1:20_4
140
1.0
141
20.0
290
     0
  0
SCALE
  5
1337
102
{ACAD_REACTORS
330
54
102
}
330
54
100
AcDbScale
 70
     0
300
1:50_4
140
1.0
141
50.0
290
     0
  0
SCALE
  5
87F
102
{ACAD_REACTORS
330
54
102
}
330
54
100
AcDbScale
 70
     0
300
1-1/2" = 1'-0"
140
1.5
141
12.0
290
     0
  0
SCALE
  5
5134
102
{ACAD_REACTORS
330
54
102
}
330
54
100
AcDbScale
 70
     0
300
1:4_XREF
140
1.0
141
4.0
290
     0
  0
SCALE
  5
881
102
{ACAD_REACTORS
330
54
102
}
330
54
100
AcDbScale
 70
     0
300
6" = 1'-0"
140
6.0
141
12.0
290
     0
  0
SCALE
  5
513D
102
{ACAD_REACTORS
330
54
102
}
330
54
100
AcDbScale
 70
     0
300
1:16_XREF
140
1.0
141
16.0
290
     0
  0
SCALE
  5
1338
102
{ACAD_REACTORS
330
54
102
}
330
54
100
AcDbScale
 70
     0
300
1:100_4
140
1.0
141
100.0
290
     0
  0
SCALE
  5
87C
102
{ACAD_REACTORS
330
54
102
}
330
54
100
AcDbScale
 70
     0
300
1/2" = 1'-0"
140
0.5
141
12.0
290
     0
  0
SCALE
  5
87D
102
{ACAD_REACTORS
330
54
102
}
330
54
100
AcDbScale
 70
     0
300
3/4" = 1'-0"
140
0.75
141
12.0
290
     0
  0
SCALE
  5
865
102
{ACAD_REACTORS
330
54
102
}
330
54
100
AcDbScale
 70
     0
300
1:5_1
140
1.0
141
5.0
290
     0
  0
SCALE
  5
860
102
{ACAD_REACTORS
330
54
102
}
330
54
100
AcDbScale
 70
     0
300
1:50_2
140
1.0
141
50.0
290
     0
  0
SCALE
  5
862
102
{ACAD_REACTORS
330
54
102
}
330
54
100
AcDbScale
 70
     0
300
1:1_1
140
1.0
141
1.0
290
     0
  0
SCALE
  5
87E
102
{ACAD_REACTORS
330
54
102
}
330
54
100
AcDbScale
 70
     0
300
1" = 1'-0"
140
1.0
141
12.0
290
     0
  0
SCALE
  5
168F
102
{ACAD_REACTORS
330
54
102
}
330
54
100
AcDbScale
 70
     0
300
1:1_3_1
140
1.0
141
1.0
290
     0
  0
SCALE
  5
5135
102
{ACAD_REACTORS
330
54
102
}
330
54
100
AcDbScale
 70
     0
300
1-1/2" = 1'-0"_XREF
140
1.5
141
12.0
290
     0
  0
SCALE
  5
1690
102
{ACAD_REACTORS
330
54
102
}
330
54
100
AcDbScale
 70
     0
300
1:2_3_1
140
1.0
141
2.0
290
     0
  0
SCALE
  5
1691
102
{ACAD_REACTORS
330
54
102
}
330
54
100
AcDbScale
 70
     0
300
1:5_3_1
140
1.0
141
5.0
290
     0
  0
SCALE
  5
513E
102
{ACAD_REACTORS
330
54
102
}
330
54
100
AcDbScale
 70
     0
300
1:20_XREF
140
1.0
141
20.0
290
     0
  0
SCALE
  5
86A
102
{ACAD_REACTORS
330
54
102
}
330
54
100
AcDbScale
 70
     0
300
1:30
140
1.0
141
30.0
290
     0
  0
SCALE
  5
1692
102
{ACAD_REACTORS
330
54
102
}
330
54
100
AcDbScale
 70
     0
300
1:10_3_1
140
1.0
141
10.0
290
     0
  0
SCALE
  5
1693
102
{ACAD_REACTORS
330
54
102
}
330
54
100
AcDbScale
 70
     0
300
1:20_3_1
140
1.0
141
20.0
290
     0
  0
SCALE
  5
85E
102
{ACAD_REACTORS
330
54
102
}
330
54
100
AcDbScale
 70
     0
300
1:10_2
140
1.0
141
10.0
290
     0
  0
SCALE
  5
1694
102
{ACAD_REACTORS
330
54
102
}
330
54
100
AcDbScale
 70
     0
300
1:50_3_1
140
1.0
141
50.0
290
     0
  0
SCALE
  5
871
102
{ACAD_REACTORS
330
54
102
}
330
54
100
AcDbScale
 70
     0
300
10:1
140
10.0
141
1.0
290
     0
  0
SCALE
  5
1695
102
{ACAD_REACTORS
330
54
102
}
330
54
100
AcDbScale
 70
     0
300
1:100_3_1
140
1.0
141
100.0
290
     0
  0
SCALE
  5
5136
102
{ACAD_REACTORS
330
54
102
}
330
54
100
AcDbScale
 70
     0
300
3" = 1'-0"_XREF
140
3.0
141
12.0
290
     0
  0
SCALE
  5
882
102
{ACAD_REACTORS
330
54
102
}
330
54
100
AcDbScale
 70
     0
300
1'-0" = 1'-0"
140
12.0
141
12.0
290
     0
  0
SCALE
  5
866
102
{ACAD_REACTORS
330
54
102
}
330
54
100
AcDbScale
 70
     0
300
1:8
140
1.0
141
8.0
290
     0
  0
SCALE
  5
86D
102
{ACAD_REACTORS
330
54
102
}
330
54
100
AcDbScale
 70
     0
300
1:100_1
140
1.0
141
100.0
290
     0
  0
SCALE
  5
513F
102
{ACAD_REACTORS
330
54
102
}
330
54
100
AcDbScale
 70
     0
300
1:30_XREF
140
1.0
141
30.0
290
     0
  0
SCALE
  5
85F
102
{ACAD_REACTORS
330
54
102
}
330
54
100
AcDbScale
 70
     0
300
1:20_2
140
1.0
141
20.0
290
     0
  0
SCALE
  5
863
102
{ACAD_REACTORS
330
54
102
}
330
54
100
AcDbScale
 70
     0
300
1:2_1
140
1.0
141
2.0
290
     0
  0
SCALE
  5
85C
102
{ACAD_REACTORS
330
54
102
}
330
54
100
AcDbScale
 70
     0
300
1:2_2
140
1.0
141
2.0
290
     0
  0
SCALE
  5
874
102
{ACAD_REACTORS
330
54
102
}
330
54
100
AcDbScale
 70
     0
300
1/64" = 1'-0"
140
0.015625
141
12.0
290
     0
  0
SCALE
  5
867
102
{ACAD_REACTORS
330
54
102
}
330
54
100
AcDbScale
 70
     0
300
1:10_1
140
1.0
141
10.0
290
     0
  0
SCALE
  5
1A86
102
{ACAD_REACTORS
330
54
102
}
330
54
100
AcDbScale
 70
     0
300
1:1_5
140
1.0
141
1.0
290
     0
  0
SCALE
  5
5137
102
{ACAD_REACTORS
330
54
102
}
330
54
100
AcDbScale
 70
     0
300
6" = 1'-0"_XREF
140
6.0
141
12.0
290
     0
  0
SCALE
  5
864
102
{ACAD_REACTORS
330
54
102
}
330
54
100
AcDbScale
 70
     0
300
1:4
140
1.0
141
4.0
290
     0
  0
SCALE
  5
1A87
102
{ACAD_REACTORS
330
54
102
}
330
54
100
AcDbScale
 70
     0
300
1:2_5
140
1.0
141
2.0
290
     0
  0
SCALE
  5
1A88
102
{ACAD_REACTORS
330
54
102
}
330
54
100
AcDbScale
 70
     0
300
1:5_5
140
1.0
141
5.0
290
     0
  0
SCALE
  5
1A89
102
{ACAD_REACTORS
330
54
102
}
330
54
100
AcDbScale
 70
     0
300
1:10_5
140
1.0
141
10.0
290
     0
  0
SCALE
  5
5140
102
{ACAD_REACTORS
330
54
102
}
330
54
100
AcDbScale
 70
     0
300
1:100_XREF
140
1.0
141
100.0
290
     0
  0
SCALE
  5
1A8A
102
{ACAD_REACTORS
330
54
102
}
330
54
100
AcDbScale
 70
     0
300
1:20_5
140
1.0
141
20.0
290
     0
  0
SCALE
  5
1A8B
102
{ACAD_REACTORS
330
54
102
}
330
54
100
AcDbScale
 70
     0
300
1:50_5
140
1.0
141
50.0
290
     0
  0
SCALE
  5
1A8C
102
{ACAD_REACTORS
330
54
102
}
330
54
100
AcDbScale
 70
     0
300
1:100_5
140
1.0
141
100.0
290
     0
  0
SCALE
  5
2A83
102
{ACAD_REACTORS
330
54
102
}
330
54
100
AcDbScale
 70
     0
300
1 1/2" = 1'-0"_XREF
140
1.5
141
12.0
290
     0
  0
SCALE
  5
86B
102
{ACAD_REACTORS
330
54
102
}
330
54
100
AcDbScale
 70
     0
300
1:40
140
1.0
141
40.0
290
     0
  0
SCALE
  5
5138
102
{ACAD_REACTORS
330
54
102
}
330
54
100
AcDbScale
 70
     0
300
1'-0" = 1'-0"_XREF
140
12.0
141
12.0
290
     0
  0
SCALE
  5
2A84
102
{ACAD_REACTORS
330
54
102
}
330
54
100
AcDbScale
 70
     0
300
1:1_6
140
1.0
141
1.0
290
     0
  0
SCALE
  5
2A85
102
{ACAD_REACTORS
330
54
102
}
330
54
100
AcDbScale
 70
     0
300
1:2_6
140
1.0
141
2.0
290
     0
  0
SCALE
  5
872
102
{ACAD_REACTORS
330
54
102
}
330
54
100
AcDbScale
 70
     0
300
100:1
140
100.0
141
1.0
290
     0
  0
SCALE
  5
2A86
102
{ACAD_REACTORS
330
54
102
}
330
54
100
AcDbScale
 70
     0
300
1:5_6
140
1.0
141
5.0
290
     0
  0
SCALE
  5
2A87
102
{ACAD_REACTORS
330
54
102
}
330
54
100
AcDbScale
 70
     0
300
1:10_6
140
1.0
141
10.0
290
     0
  0
SCALE
  5
5141
102
{ACAD_REACTORS
330
54
102
}
330
54
100
AcDbScale
 70
     0
300
2:1_XREF
140
2.0
141
1.0
290
     0
  0
SCALE
  5
2A88
102
{ACAD_REACTORS
330
54
102
}
330
54
100
AcDbScale
 70
     0
300
1:20_6
140
1.0
141
20.0
290
     0
  0
SCALE
  5
2A89
102
{ACAD_REACTORS
330
54
102
}
330
54
100
AcDbScale
 70
     0
300
1:50_6
140
1.0
141
50.0
290
     0
  0
SCALE
  5
2A8A
102
{ACAD_REACTORS
330
54
102
}
330
54
100
AcDbScale
 70
     0
300
1:100_6
140
1.0
141
100.0
290
     0
  0
SCALE
  5
87A
102
{ACAD_REACTORS
330
54
102
}
330
54
100
AcDbScale
 70
     0
300
1/4" = 1'-0"
140
0.25
141
12.0
290
     0
  0
SCALE
  5
5E
102
{ACAD_REACTORS
330
54
102
}
330
54
100
AcDbScale
 70
     0
300
1:1
140
1.0
141
0.1
290
     0
  0
SCALE
  5
5F
102
{ACAD_REACTORS
330
54
102
}
330
54
100
AcDbScale
 70
     0
300
1:2
140
1.0
141
0.2
290
     0
  0
SCALE
  5
60
102
{ACAD_REACTORS
330
54
102
}
330
54
100
AcDbScale
 70
     0
300
1:2.5
140
1.0
141
0.25
290
     0
  0
SCALE
  5
61
102
{ACAD_REACTORS
330
54
102
}
330
54
100
AcDbScale
 70
     0
300
1:5
140
1.0
141
0.5
290
     0
  0
SCALE
  5
62
102
{ACAD_REACTORS
330
54
102
}
330
54
100
AcDbScale
 70
     0
300
1:7.5
140
1.0
141
0.75
290
     0
  0
SCALE
  5
63
102
{ACAD_REACTORS
330
54
102
}
330
54
100
AcDbScale
 70
     0
300
1:10
140
1.0
141
1.0
290
     1
  0
SCALE
  5
64
102
{ACAD_REACTORS
330
54
102
}
330
54
100
AcDbScale
 70
     0
300
1:20
140
1.0
141
2.0
290
     0
  0
SCALE
  5
65
102
{ACAD_REACTORS
330
54
102
}
330
54
100
AcDbScale
 70
     0
300
1:25
140
1.0
141
2.5
290
     0
  0
SCALE
  5
66
102
{ACAD_REACTORS
330
54
102
}
330
54
100
AcDbScale
 70
     0
300
1:50
140
1.0
141
5.0
290
     0
  0
SCALE
  5
67
102
{ACAD_REACTORS
330
54
102
}
330
54
100
AcDbScale
 70
     0
300
1:75
140
1.0
141
7.5
290
     0
  0
SCALE
  5
68
102
{ACAD_REACTORS
330
54
102
}
330
54
100
AcDbScale
 70
     0
300
1:100
140
1.0
141
10.0
290
     0
  0
SCALE
  5
69
102
{ACAD_REACTORS
330
54
102
}
330
54
100
AcDbScale
 70
     0
300
1:150
140
1.0
141
15.0
290
     0
  0
SCALE
  5
6A
102
{ACAD_REACTORS
330
54
102
}
330
54
100
AcDbScale
 70
     0
300
1:200
140
1.0
141
20.0
290
     0
  0
SCALE
  5
6B
102
{ACAD_REACTORS
330
54
102
}
330
54
100
AcDbScale
 70
     0
300
1:250
140
1.0
141
25.0
290
     0
  0
SCALE
  5
6C
102
{ACAD_REACTORS
330
54
102
}
330
54
100
AcDbScale
 70
     0
300
1:500
140
1.0
141
50.0
290
     0
  0
SCALE
  5
6D
102
{ACAD_REACTORS
330
54
102
}
330
54
100
AcDbScale
 70
     0
300
1:750
140
1.0
141
75.0
290
     0
  0
SCALE
  5
6E
102
{ACAD_REACTORS
330
54
102
}
330
54
100
AcDbScale
 70
     0
300
1:1000
140
1.0
141
100.0
290
     0
  0
SCALE
  5
6F
102
{ACAD_REACTORS
330
54
102
}
330
54
100
AcDbScale
 70
     0
300
1:1250
140
1.0
141
125.0
290
     0
  0
SCALE
  5
70
102
{ACAD_REACTORS
330
54
102
}
330
54
100
AcDbScale
 70
     0
300
1:2000
140
1.0
141
200.0
290
     0
  0
SCALE
  5
71
102
{ACAD_REACTORS
330
54
102
}
330
54
100
AcDbScale
 70
     0
300
1:2500
140
1.0
141
250.0
290
     0
  0
SCALE
  5
72
102
{ACAD_REACTORS
330
54
102
}
330
54
100
AcDbScale
 70
     0
300
1:5000
140
1.0
141
500.0
290
     0
  0
TABLESTYLE
  5
5A
102
{ACAD_XDICTIONARY
360
5B
102
}
102
{ACAD_REACTORS
330
55
102
}
330
55
100
AcDbTableStyle
  3
Standard
 70
     0
 71
     0
 40
0.06
 41
0.06
280
     0
281
     0
  7
STANDARD
140
0.18
170
     2
 62
     0
 63
     7
283
     0
274
    -2
284
     1
 64
     0
275
    -2
285
     1
 65
     0
276
    -2
286
     1
 66
     0
277
    -2
287
     1
 67
     0
278
    -2
288
     1
 68
     0
279
    -2
289
     1
 69
     0
  7
STANDARD
140
0.25
170
     5
 62
     0
 63
     7
283
     0
274
    -2
284
     1
 64
     0
275
    -2
285
     1
 65
     0
276
    -2
286
     1
 66
     0
277
    -2
287
     1
 67
     0
278
    -2
288
     1
 68
     0
279
    -2
289
     1
 69
     0
  7
STANDARD
140
0.18
170
     5
 62
     0
 63
     7
283
     0
274
    -2
284
     1
 64
     0
275
    -2
285
     1
 65
     0
276
    -2
286
     1
 66
     0
277
    -2
287
     1
 67
     0
278
    -2
288
     1
 68
     0
279
    -2
289
     1
 69
     0
  0
VISUALSTYLE
  5
14
102
{ACAD_REACTORS
330
15
102
}
330
15
100
AcDbVisualStyle
  2
2dWireframe
 70
     4
 71
     0
 72
     2
 73
     0
 90
        0
 40
-0.6
 41
-30.0
 62
     5
 63
     7
 74
     1
 91
        4
 64
     7
 65
   257
 75
     1
175
     1
 42
1.0
 92
        0
 66
   257
 43
1.0
 76
     1
 77
     6
 78
     2
 67
     7
 79
     5
170
     0
171
     0
290
     0
174
     0
 93
        1
 44
0.0
173
     0
291
     0
 45
0.0
1001
ACAD
1000
AcDbSavedByObjectVersion
1070
     0
  0
VISUALSTYLE
  5
7A0
102
{ACAD_REACTORS
330
15
102
}
330
15
100
AcDbVisualStyle
  2
3D Hidden
 70
     6
 71
     1
 72
     2
 73
     2
 90
        0
 40
-0.6
 41
-30.0
 62
     5
 63
     7
 74
     2
 91
        2
 64
     7
 65
   257
 75
     2
175
     1
 42
40.0
 92
        0
 66
   257
 43
1.0
 76
     1
 77
     6
 78
     2
 67
     7
 79
     3
170
     0
171
     0
290
     0
174
     0
 93
        1
 44
0.0
173
     0
291
     0
 45
0.0
1001
ACAD
1000
AcDbSavedByObjectVersion
1070
     0
  0
VISUALSTYLE
  5
5D
102
{ACAD_REACTORS
330
15
102
}
330
15
100
AcDbVisualStyle
  2
3dWireframe
 70
     5
 71
     0
 72
     2
 73
     0
 90
        0
 40
-0.6
 41
-30.0
 62
     5
 63
     7
 74
     1
 91
        4
 64
     7
 65
   257
 75
     1
175
     1
 42
1.0
 92
        0
 66
   257
 43
1.0
 76
     1
 77
     6
 78
     2
 67
     7
 79
     5
170
     0
171
     0
290
     0
174
     0
 93
        1
 44
0.0
173
     0
291
     0
 45
0.0
1001
ACAD
1000
AcDbSavedByObjectVersion
1070
     0
  0
VISUALSTYLE
  5
79F
102
{ACAD_REACTORS
330
15
102
}
330
15
100
AcDbVisualStyle
  2
Basic
 70
     7
 71
     1
 72
     0
 73
     1
 90
        0
 40
-0.6
 41
-30.0
 62
     5
 63
     7
 74
     0
 91
        4
 64
     7
 65
   257
 75
     1
175
     1
 42
1.0
 92
        8
 66
     7
 43
1.0
 76
     1
 77
     6
 78
     2
 67
     7
 79
     5
170
     0
171
     0
290
     0
174
     0
 93
        1
 44
0.0
173
     0
291
     1
 45
0.0
1001
ACAD
1000
AcDbSavedByObjectVersion
1070
     0
  0
VISUALSTYLE
  5
7A3
102
{ACAD_REACTORS
330
15
102
}
330
15
100
AcDbVisualStyle
  2
Brighten
 70
    12
 71
     2
 72
     2
 73
     0
 90
        0
 40
-0.6
 41
-30.0
 62
     5
 63
     7
 74
     1
 91
        4
 64
     7
 65
   257
 75
     1
175
     1
 42
1.0
 92
        8
 66
     7
 43
1.0
 76
     1
 77
     6
 78
     2
 67
     7
 79
     5
170
     0
171
     0
290
     0
174
     0
 93
        1
 44
50.0
173
     0
291
     1
 45
0.0
1001
ACAD
1000
AcDbSavedByObjectVersion
1070
     0
  0
VISUALSTYLE
  5
7A7
102
{ACAD_REACTORS
330
15
102
}
330
15
100
AcDbVisualStyle
  2
ColorChange
 70
    16
 71
     2
 72
     2
 73
     3
 90
        0
 40
-0.6
 41
-30.0
 62
     5
 63
     8
 74
     1
 91
        4
 64
     7
 65
   257
 75
     1
175
     1
 42
1.0
 92
        8
 66
     8
 43
1.0
 76
     1
 77
     6
 78
     2
 67
     7
 79
     5
170
     0
171
     0
290
     0
174
     0
 93
        1
 44
0.0
173
     0
291
     1
 45
0.0
1001
ACAD
1000
AcDbSavedByObjectVersion
1070
     0
  0
VISUALSTYLE
  5
7A1
102
{ACAD_REACTORS
330
15
102
}
330
15
100
AcDbVisualStyle
  2
Conceptual
 70
     9
 71
     3
 72
     2
 73
     0
 90
        0
 40
-0.6
 41
-30.0
 62
     5
 63
     7
 74
     2
 91
        2
 64
     7
 65
   257
 75
     1
175
     1
 42
40.0
 92
        8
 66
     7
 43
1.0
 76
     1
 77
     6
 78
     2
 67
     7
 79
     3
170
     0
171
     0
290
     0
174
     0
 93
        1
 44
0.0
173
     0
291
     0
 45
0.0
1001
ACAD
1000
AcDbSavedByObjectVersion
1070
     0
  0
VISUALSTYLE
  5
7A2
102
{ACAD_REACTORS
330
15
102
}
330
15
100
AcDbVisualStyle
  2
Dim
 70
    11
 71
     2
 72
     2
 73
     0
 90
        0
 40
-0.6
 41
-30.0
 62
     5
 63
     7
 74
     1
 91
        4
 64
     7
 65
   257
 75
     1
175
     1
 42
1.0
 92
        8
 66
     7
 43
1.0
 76
     1
 77
     6
 78
     2
 67
     7
 79
     5
170
     0
171
     0
290
     0
174
     0
 93
        1
 44
-50.0
173
     0
291
     1
 45
0.0
1001
ACAD
1000
AcDbSavedByObjectVersion
1070
     0
  0
VISUALSTYLE
  5
7A6
102
{ACAD_REACTORS
330
15
102
}
330
15
100
AcDbVisualStyle
  2
Facepattern
 70
    15
 71
     2
 72
     2
 73
     0
 90
        0
 40
-0.6
 41
-30.0
 62
     5
 63
     7
 74
     1
 91
        4
 64
     7
 65
   257
 75
     1
175
     1
 42
1.0
 92
        8
 66
     7
 43
1.0
 76
     1
 77
     6
 78
     2
 67
     7
 79
     5
170
     0
171
     0
290
     0
174
     0
 93
        1
 44
0.0
173
     0
291
     1
 45
0.0
1001
ACAD
1000
AcDbSavedByObjectVersion
1070
     0
  0
VISUALSTYLE
  5
79B
102
{ACAD_REACTORS
330
15
102
}
330
15
100
AcDbVisualStyle
  2
Flat
 70
     0
 71
     2
 72
     1
 73
     1
 90
        2
 40
-0.6
 41
30.0
 62
     5
 63
     7
 74
     0
 91
        4
 64
     7
 65
   257
 75
     1
175
     1
 42
1.0
 92
        8
 66
     7
 43
1.0
 76
     1
 77
     6
 78
     2
 67
     7
 79
     5
170
     0
171
     0
290
     0
174
     0
 93
       13
 44
0.0
173
     0
291
     0
 45
0.0
1001
ACAD
1000
AcDbSavedByObjectVersion
1070
     0
  0
VISUALSTYLE
  5
79C
102
{ACAD_REACTORS
330
15
102
}
330
15
100
AcDbVisualStyle
  2
FlatWithEdges
 70
     1
 71
     2
 72
     1
 73
     1
 90
        2
 40
-0.6
 41
30.0
 62
     5
 63
     7
 74
     1
 91
        4
 64
     7
 65
   257
 75
     1
175
     1
 42
1.0
 92
        0
 66
   257
 43
1.0
 76
     1
 77
     6
 78
     2
 67
     7
 79
     5
170
     0
171
     0
290
     0
174
     0
 93
       13
 44
0.0
173
     0
291
     0
 45
0.0
1001
ACAD
1000
AcDbSavedByObjectVersion
1070
     0
  0
VISUALSTYLE
  5
79D
102
{ACAD_REACTORS
330
15
102
}
330
15
100
AcDbVisualStyle
  2
Gouraud
 70
     2
 71
     2
 72
     2
 73
     1
 90
        2
 40
-0.6
 41
30.0
 62
     5
 63
     7
 74
     0
 91
        4
 64
     7
 65
   257
 75
     1
175
     1
 42
1.0
 92
        0
 66
     7
 43
1.0
 76
     1
 77
     6
 78
     2
 67
     7
 79
     5
170
     0
171
     0
290
     0
174
     0
 93
       13
 44
0.0
173
     0
291
     0
 45
0.0
1001
ACAD
1000
AcDbSavedByObjectVersion
1070
     0
  0
VISUALSTYLE
  5
79E
102
{ACAD_REACTORS
330
15
102
}
330
15
100
AcDbVisualStyle
  2
GouraudWithEdges
 70
     3
 71
     2
 72
     2
 73
     1
 90
        2
 40
-0.6
 41
30.0
 62
     5
 63
     7
 74
     1
 91
        4
 64
     7
 65
   257
 75
     1
175
     1
 42
1.0
 92
        0
 66
   257
 43
1.0
 76
     1
 77
     6
 78
     2
 67
     7
 79
     5
170
     0
171
     0
290
     0
174
     0
 93
       13
 44
0.0
173
     0
291
     0
 45
0.0
1001
ACAD
1000
AcDbSavedByObjectVersion
1070
     0
  0
VISUALSTYLE
  5
7A5
102
{ACAD_REACTORS
330
15
102
}
330
15
100
AcDbVisualStyle
  2
Linepattern
 70
    14
 71
     2
 72
     2
 73
     0
 90
        0
 40
-0.6
 41
-30.0
 62
     5
 63
     7
 74
     1
 91
        4
 64
     7
 65
   257
 75
     7
175
     7
 42
1.0
 92
        8
 66
     7
 43
1.0
 76
     1
 77
     6
 78
     2
 67
     7
 79
     5
170
     0
171
     0
290
     0
174
     0
 93
        1
 44
0.0
173
     0
291
     1
 45
0.0
1001
ACAD
1000
AcDbSavedByObjectVersion
1070
     0
  0
VISUALSTYLE
  5
7B1
102
{ACAD_REACTORS
330
15
102
}
330
15
100
AcDbVisualStyle
  2

 70
     8
 71
     2
 72
     2
 73
     0
 90
        0
 40
-0.6
 41
-30.0
 62
     5
 63
     7
 74
     0
 91
        0
 64
     7
 65
   257
 75
     1
175
     1
 42
1.0
 92
        8
 66
     8
 43
1.0
 76
     1
 77
     6
 78
     2
 67
     7
 79
     5
170
     0
171
     0
290
     0
174
     0
 93
       13
 44
0.0
173
     0
291
     0
 45
0.0
1001
ACAD
1000
AcDbSavedByObjectVersion
1070
     0
  0
VISUALSTYLE
  5
7B2
102
{ACAD_REACTORS
330
15
102
}
330
15
100
AcDbVisualStyle
  2

 70
     8
 71
     2
 72
     2
 73
     0
 90
        0
 40
-0.6
 41
-30.0
 62
     5
 63
     7
 74
     1
 91
        0
 64
     7
 65
   257
 75
     1
175
     1
 42
1.0
 92
        8
 66
     8
 43
1.0
 76
     1
 77
     6
 78
     2
 67
     7
 79
     5
170
     0
171
     0
290
     0
174
     0
 93
       13
 44
0.0
173
     0
291
     0
 45
0.0
1001
ACAD
1000
AcDbSavedByObjectVersion
1070
     0
  0
VISUALSTYLE
  5
5C
102
{ACAD_REACTORS
330
15
102
}
330
15
100
AcDbVisualStyle
  2
Realistic
 70
     8
 71
     2
 72
     2
 73
     0
 90
        0
 40
-0.6
 41
-30.0
 62
     5
 63
     7
 74
     1
 91
        0
 64
     7
 65
   257
 75
     1
175
     1
 42
1.0
 92
        8
 66
     8
 43
1.0
 76
     1
 77
     6
 78
     2
 67
     7
 79
     5
170
     0
171
     0
290
     0
174
     0
 93
       13
 44
0.0
173
     0
291
     0
 45
0.0
1001
ACAD
1000
AcDbSavedByObjectVersion
1070
     0
  0
VISUALSTYLE
  5
7A4
102
{ACAD_REACTORS
330
15
102
}
330
15
100
AcDbVisualStyle
  2
Thicken
 70
    13
 71
     2
 72
     2
 73
     0
 90
        0
 40
-0.6
 41
-30.0
 62
     5
 63
     7
 74
     1
 91
        4
 64
     7
 65
   257
 75
     1
175
     1
 42
1.0
 92
       12
 66
     7
 43
1.0
 76
     1
 77
     6
 78
     2
 67
     7
 79
     5
170
     0
171
     0
290
     0
174
     0
 93
        1
 44
0.0
173
     0
291
     1
 45
0.0
1001
ACAD
1000
AcDbSavedByObjectVersion
1070
     0
  0
DICTIONARYVAR
  5
798
102
{ACAD_REACTORS
330
795
102
}
330
795
100
DictionaryVariables
280
     0
  1
1:1
  0
DICTIONARYVAR
  5
797
102
{ACAD_REACTORS
330
795
102
}
330
795
100
DictionaryVariables
280
     0
  1
STANDARD
  0
DICTIONARYVAR
  5
796
102
{ACAD_REACTORS
330
795
102
}
330
795
100
DictionaryVariables
280
     0
  1
STANDARD
  0
DICTIONARYVAR
  5
77E0
102
{ACAD_REACTORS
330
795
102
}
330
795
100
DictionaryVariables
280
     0
  1
1
  0
DICTIONARYVAR
  5
77DF
102
{ACAD_REACTORS
330
795
102
}
330
795
100
DictionaryVariables
280
     0
  1
1
  0
DICTIONARYVAR
  5
77DE
102
{ACAD_REACTORS
330
795
102
}
330
795
100
DictionaryVariables
280
     0
  1
0
  0
DICTIONARYVAR
  5
799
102
{ACAD_REACTORS
330
795
102
}
330
795
100
DictionaryVariables
280
     0
  1
0
  0
DICTIONARYVAR
  5
77DC
102
{ACAD_REACTORS
330
795
102
}
330
795
100
DictionaryVariables
280
     0
  1
1
  0
DICTIONARYVAR
  5
77DD
102
{ACAD_REACTORS
330
795
102
}
330
795
100
DictionaryVariables
280
     0
  1
127
  0
DICTIONARY
  5
4224
330
1943
100
AcDbDictionary
280
     1
281
     1
  3
ACAD_XREC_ROUNDTRIP
360
77EC
  3
ADSK_XREC_LAYOUTTHUMBNAIL
360
4225
  0
DICTIONARY
  5
77E5
330
11
100
AcDbDictionary
280
     1
281
     1
  3
ACAD_XREC_ROUNDTRIP
360
77E6
  0
DICTIONARY
  5
77E9
330
52
100
AcDbDictionary
280
     1
281
     1
  3
ACAD_XREC_ROUNDTRIP
360
77EA
  0
DICTIONARY
  5
77E7
330
51
100
AcDbDictionary
280
     1
281
     1
  3
ACAD_XREC_ROUNDTRIP
360
77E8
  0
DICTIONARY
  5
5123
330
5122
100
AcDbDictionary
280
     1
281
     1
  3
ACAD_XREC_ROUNDTRIP
360
77F1
  3
VIZ XML Material Definition
360
5124
  0
DICTIONARY
  5
77E3
330
C
100
AcDbDictionary
280
     1
281
     1
  3
ACAD_XREC_ROUNDTRIP
360
77E4
  0
DICTIONARY
  5
5B
330
5A
100
AcDbDictionary
280
     1
281
     1
  3
ACAD_ROUNDTRIP_2008_TABLESTYLE_CELLSTYLEMAP
360
77E1
  3
ACAD_XREC_ROUNDTRIP
360
77EB
  0
XRECORD
  5
77EC
102
{ACAD_REACTORS
330
4224
102
}
330
4224
100
AcDbXrecord
280
     1
102
SHADEPLOT
 70
     0
102
SHADEPLOTRESLEVEL
 70
     2
102
SHADEPLOTCUSTOMDPI
 70
   300
  0
XRECORD
  5
4225
102
{ACAD_REACTORS
330
4224
102
}
330
4224
100
AcDbXrecord
280
     1
310
28000000B40000007F00000001000800000000004C59000000000000000000000001000000000000FFFFFF0000000000FFFFFF000000000000000000000000000000000000000000000000000000000000000000330000006600000099000000CC000000FF00000000330000333300006633000099330000CC330000FF3300
310
0000660000336600006666000099660000CC660000FF66000000990000339900006699000099990000CC990000FF99000000CC000033CC000066CC000099CC0000CCCC0000FFCC000000FF000033FF000066FF000099FF0000CCFF0000FFFF000000003300330033006600330099003300CC003300FF003300003333003333
310
33006633330099333300CC333300FF33330000663300336633006666330099663300CC663300FF66330000993300339933006699330099993300CC993300FF99330000CC330033CC330066CC330099CC3300CCCC3300FFCC330000FF330033FF330066FF330099FF3300CCFF3300FFFF330000006600330066006600660099
310
006600CC006600FF00660000336600333366006633660099336600CC336600FF33660000666600336666006666660099666600CC666600FF66660000996600339966006699660099996600CC996600FF99660000CC660033CC660066CC660099CC6600CCCC6600FFCC660000FF660033FF660066FF660099FF6600CCFF6600
310
FFFF660000009900330099006600990099009900CC009900FF00990000339900333399006633990099339900CC339900FF33990000669900336699006666990099669900CC669900FF66990000999900339999006699990099999900CC999900FF99990000CC990033CC990066CC990099CC9900CCCC9900FFCC990000FF99
310
0033FF990066FF990099FF9900CCFF9900FFFF99000000CC003300CC006600CC009900CC00CC00CC00FF00CC000033CC003333CC006633CC009933CC00CC33CC00FF33CC000066CC003366CC006666CC009966CC00CC66CC00FF66CC000099CC003399CC006699CC009999CC00CC99CC00FF99CC0000CCCC0033CCCC0066CC
310
CC0099CCCC00CCCCCC00FFCCCC0000FFCC0033FFCC0066FFCC0099FFCC00CCFFCC00FFFFCC000000FF003300FF006600FF009900FF00CC00FF00FF00FF000033FF003333FF006633FF009933FF00CC33FF00FF33FF000066FF003366FF006666FF009966FF00CC66FF00FF66FF000099FF003399FF006699FF009999FF00CC
310
99FF00FF99FF0000CCFF0033CCFF0066CCFF0099CCFF00CCCCFF00FFCCFF0000FFFF0033FFFF0066FFFF0099FFFF00CCFFFF00FFFFFF00000000000D0D0D001A1A1A00282828003535350043434300505050005D5D5D006B6B6B00787878008686860093939300A1A1A100AEAEAE00BBBBBB00C9C9C900D6D6D600E4E4E400
310
F1F1F100FFFFFF0000000000000000000000000000000000000000000000000000000000000000000000000000000000E2E2E2E2E2E2E2E2E2E2E2E2E2E2E2E2E2E2E2E2E2E2E2E2E2E2E2E2E2E2E2E2E2E2E2E2E2E2E2E2E2E2E2E2E2E2E2E2E2E2E2E2E2E2E2E2E2E2E2E2E2E2E2E2E2E2E2E2E2E2E2E2E2E2E2E2E2E2E2
310
E2E2E2E2E2E2E2E2E2E2E2E2E2E2E2E2E2E2E2E2E2E2E2E2E2E2E2E2E2E2E2E2E2E2E2E2E2E2E2E2E2E2E2E2E2E2E2E2E2E2E2E2E2E2E2E2E2E2E2E2E2E2E2E2E2E2E2E2E2E2E2E2E2E2E2E2E2E2E2E2E2E2E2E2E2E2E2E2E2E2E2E2E2E2E2E2E2E2E2E2E2E2F5F5F5F5F5F5F5F5F5F5F5F5F5F5F5F5F5F5F5F5F5F5F5F5F5
310
F5F5F5F5F5F5F5F5F5F5F5F5F5F5F5F5F5F5F5F5F5F5F5F5F5F5F5F5F5F5F5F5F5F5F5F5F5F5F5F5F5F5F5F5F5F5F5F5F5F5F5F5F5F5F5F5F5F5F5F5F5F5F5F5F5F5F5F5F5F5F5F5F5F5F5F5F5F5F5F5F5F5F5F5F5F5F5F5F5F5F5F5F5F5F5F5F5F5F5F5F5F5F5F5F5F5F5F5F5F5F5F5F5F5F5F5F5F5F5F5F5F5F5F5F5F5F5
310
F5F5F5F5F5F5F5F5F5F5F5F5F5F5F5F5F5F5F5F5F5F5F5F5F5E2E2E2F5E2E2E2E2E2E2E2E2F5F5F5F5F5F5F5F5F5E2E2E2E2E2E2E2E2E2E2E2E2E2E2E2E2F5F5F5F5F5F5F5F5F5E2E2E2E2E2E2E2E2E2E2E2E2E2E2E2E2F5F5F5F5F5F5F5F5F5E2E2E2E2E2E2E2E2E2E2E2E2E2E2E2E2F5F5F5F5F5F5F5F5F5E2E2E2E2E2E2
310
E2E2E2E2E2E2E2E2E2E2F5F5F5F5F5F5F5F5F5E2E2E2E2E2E2E2E2E2E2E2E2E2E2E2E2F5F5F5F5F5F5F5F5F5E2E2E2E2E2E2E2E2E2E2E2E2E2E2E2E2F5F5F5F5F5F5F5F5F5E2E2E2E2E2E2E2E2F5E2E2E2F5E2F5F5F5F5F5F5F5F5F5F5F5F5F5F5F5F5F5F5F5F5F5F5F5F5F5F5F5F5F5F5F5F5F5F5F5F5F5F5F5F5F5F5F5F5
310
F5F5F5F5F5F5F5F5F5F5F5F5F5F5F5F5F5F5F5F5F5F5F5F5F5F5F5F5F5F5F5F5F5F5F5F5F5F5F5F5F5F5F5F5F5F5F5F5F5F5F5F5F5F5F5F5F5F5F5F5F5F5F5F5F5F5F5F5F5F5F5F5F5F5F5F5F5F5F5F5F5F5F5F5F5F5F5F5F5F5F5F5F5F5F5F5F5F5F5F5F5F5F5F5F5F5F5F5F5F5F5F5F5F5F5F5F5F5F5F5F5F5F5F5F5F5F5
310
F5F5E2F5E2E2E2F5E2F5F5F5F5F5F5F5F5F5F5F5F5F5F5F5F5F5F5F5F5F5F5F5F5F5F5F5F5F5F5F5F5F5F5F5F5F5F5F5F5F5F5F5F5F5F5F5F5F5F5F5F5F5F5F5F5F5F5F5F5F5F5F5F5F5F5F5F5F5F5F5F5F5F5F5F5F5F5F5F5F5F5F5F5F5F5F5F5F5F5F5F5F5F5F5F5F5F5F5F5F5F5F5F5F5F5F5F5F5F5F5F5F5F5F5F5F5F5
310
F5F5F5F5F5F5F5F5F5F5F5F5F5F5F5F5F5F5F5F5F5F5F5F5F5F5F5F5F5F5F5F5F5F5F5F5F5F5F5F5F5F5F5F5F5F5F5F5F5F5F5F5F5F5F5E2F5E2E2E2F5E2F5F5F5F5F5F5F5F5F5F5F5F5F5F5F5F5F5F5F5F5F5F5F5F5F5F5F5F5F5F5F5F5F5F5F5F5F5F5F5F5F5F5F5F5F5F5F5F5F5F5F5F5F5F5F5F5F5F5F5F5F5F5F5F5F5
310
F5F5F5F5F5F5F5F5F5F5F5F5F5F5F5F5F5F5F5F5F5F5F5F5F5F5F5F5F5F5F5F5F5F5F5F5F5F5F5F5F5F5F5F5F5F5F5F5F5F5F5F5F5F5F5F5F5F5F5F5F5F5F5F5F5F5F5F5F5F5F5F5F5F5F5F5F5F5F5F5F5F5F5F5F5F5F5F5F5F5F5F5F5F5F5F5F5F5F5F5F5F5F5F5F5F5F5F5E2F5E2E2E2F5E2F5F5F5F5F5F5F5F5F5F5F5F5
310
F5F5F5F5F5F5F5F5F5F5F5F5F5F5F5F5F5F5F5F5F5F5F5F5F5F5F5F5F5F5F5F5F5F5F5F5F5F5F5F5F5F5F5F5F5F5F5F5F5F5F5F5F5F5F5F5F5F5F5F5F5F5F5F5F5F5F5F5F5F5F5F5F5F5F5F5F5F5F5F5F5F5F5F5F5F5F5F5F5F5F5F5F5F5F5F5F5F5F5F5F5F5F5F5F5F5F5F5F5F5F5F5F5F5F5F5F5F5F5F5F5F5F5F5F5F5F5
310
F5F5F5F5F5F5F5F5F5F5F5F5F5F5F5F5F5F5F5F5F5F5F5F5F5F5F5F5F5F5F5F5F5F5E2F5E2E2E2F5E2F5F5F5F5F5F5F5F5F5F5F5F5F5F5F5F5F5F5F5F5F5F5F5F5F5F5F5F5F5F5F5F5F5F5F5F5F5F5F5F5F5F5F5F5F5F5F5F5F5F5F5F5F5F5F5F5F5F5F5F5F5F5F5F5F5F5F5F5F5F5F5F5F5F5F5F5F5F5F5F5F5F5F5F5F5F5
310
F5F5F5F5F5F5F5F5F5F5F5F5F5F5F5F5F5F5F5F5F5F5F5F5F5F5F5F5F5F5F5F5F5F5F5F5F5F5F5F5F5F5F5F5F5F5F5F5F5F5F5F5F5F5F5F5F5F5F5F5F5F5F5F5F5F5F5F5F5F5F5F5F5F5F5F5F5F5F5F5F5F5F5F5F5F5F5E2F5E2E2E2F5E2F5F5F5F5F5F5F5F5F5F5F5F5F5F5F5F5F5F5F5F5F5F5F5F5F5F5F5F5F5F5F5F5F5
310
F5F5F5F5F5F5F5F5F5F5F5F5F5F5F5F5F5F5F5F5F5F5F5F5F5F5F5F5F5F5F5F5F5F5F5F5F5F5F5F5F5F5F5F5F5F5F5F5F5F5F5F5F5F5F5F5F5F5F5F5F5F5F5F5F5F5F5F5F5F5F5F5F5F5F5F5F5F5F5F5F5F5F5F5F5F5F5F5F5F5F5F5F5F5F5F5F5F5F5F5F5F5F5F5F5F5F5F5F5F5F5F5F5F5F5F5F5F5F5F5F5F5F5F5F5F5F5
310
F5F5F5F5F5F5F5F5F5F5F5F5F5E2F5E2E2E2F5E2F5F5F5F5F5F5F5F5F5F5F5F5F5F5F5F5F5F5F5F5F5F5F5F5F5F5F5F5F5F5F5F5F5F5F5F5F5F5F5F5F5F5F5F5F5F5F5F5F5F5F5F5F5F5F5F5F5F5F5F5F5F5F5F5F5F5F5F5F5F5F5F5F5F5F5F5F5F5F5F5F5F5F5F5F5F5F5F5F5F5F5F5F5F5F5F5F5F5F5F5F5F5F5F5F5F5F5
310
F5F5F5F5F5F5F5F5F5F5F5F5F5F5F5F5F5F5F5F5F5F5F5F5F5F5F5F5F5F5F5F5F5F5F5F5F5F5F5F5F5F5F5F5F5F5F5F5F5F5F5F5F5F5F5F5F5F5F5F5F5F5F5F5F5F5E2F5E2E2E2F5F5F5F5F5F5F5F5F5F5F5F5F5F5F5F5F5F5F5F5F5F5F5F5F5F5F5F5F5F5F5F5F5F5F5F5F5F5F5F5F5F5F5F5F5F5F5F5F5F5F5F5F5F5F5F5
310
F5F5F5F5F5F5F5F5F5F5F5F5F5F5F5F5F5F5F5F5F5F5F5F5F5F5F5F5F5F5F5F5F5F5F5F5F5F5F5F5F5F5F5F5F5F5F5F5F5F5F5F5F5F5F5F5F5F5F5F5F5F5F5F5F5F5F5F5F5F5F5F5F5F5F5F5F5F5F5F5F5F5F5F5F5F5F5F5F5F5F5F5F5F5F5F5F5F5F5F5F5F5F5F5F5F5F5F5F5F5F5F5F5F5F5F5F5F5F5F5F5E2E2E2F5F5F5
310
F5F5F5F5F5F5F5F5F5F5F5F5F5F5F5F5F5F5F5F5F5F5F5F5F5F5F5F5F5F5F5F5F5F5F5F5F5F5F5F5F5F5F5F5F5F5F5F5F5F5F5F5F5F5F5F5F5F5F5F5F5F5F5F5F5F5F5F5F5F5F5F5F5F5F5F5F5F5F5F5F5F5F5F5F5F5F5F5F5F5F5F5F5F5F5F5F5F5F5F5F5F5F5F5F5F5F5F5F5F5F5F5F5F5F5F5F5F5F5F5F5F5F5F5F5F5F5
310
F5F5F5F5F5F5F5F5F5F5F5F5F5F5F5F5F5F5F5F5F5F5F5F5F5F5F5F5F5F5F5F5F5F5F5F5F5F5F5F5F5F5F5F5F5F5F5E2E2E2F5F5F5F5F5F5F5F5F5F5F5F5F5F5F5F5F5F5F5F5F5F5F5F5F5F5F5F5F5F5F5F5F5F5F5F5F5F5F5F5F5F5F5F5F5F5F5F5F5F5F5F5F5F5F5F5F5F5F5F5F5F5F5F5F5F5F5F5F5F5F5F5F5F5F5F5F5
310
F5F5F5F5F5F5F5F5F5F5F5F5F5F5F5F5F5F5F5F5F5F5F5F5F5F5F5F5F5F5F5F5F5F5F5F5F5F5F5F5F5F5F5F5F5F5F5F5F5F5F5F5F5F5F5F5F5F5F5F5F5F5F5F5F5F5F5F5F5F5F5F5F5F5F5F5F5F5F5F5F5F5F5F5F5F5F5F5F5F5F5F5F5F5F5F5F5F5F5F5E2E2E2F5F5F5F5F5F5F5F5F5F5F5F5F5F5F5F5F5F5F5F5F5F5F5F5
310
F5F5F5F5F5F5F5F5F5F5F5F5F5F5F5F5F5F5F5F5F5F5F5F5F5F5F5F5F5F5F5F5F5F5F5F5F5F5F5F5F5F5F5F5F5F5F5F5F5F5F5F5F5F5F5F5F5F5F5F5F5F5F5F5F5F5F5F5F5F5F5F5F5F5F5F5F5F5F5F5F5F5F5F5F5F5F5F5F5F5F5F5F5F5F5F5F5F5F5F5F5F5F5F5F5F5F5F5F5F5F5F5F5F5F5F5F5F5F5F5F5F5F5F5F5F5F5
310
F5F5F5F5F5F5F5F5F5F5F5F5F5F5F5F5F5F5F5F5F5F5F5F5F5F5E2E2E2F5F5F5F5F5F5F5F5F5F5F5F5F5F5F5F5F5F5BEBEBEBEBEBEBEBEBEBEBEBEBEBEBEBEBEBEBEBEBEBEBEBEBEBEBEBEBEBEBEBEBEBEBEBEBEBEBEBEBEBEBEBEBEBEBEBEBEBEBEBEBEBEBEBEBEBEBEBEBEBEBEBEBEBEBEBEBEBEBEBEBEBEBEBEBEBEBEBE
310
BEBEBEBEBEBEBEBEBEBEBEBEBEBEBEBEBEBEBEBEBEBEBEBEBEBEBEBEBEBEBEBEBEBEBEBEBEBEBEBEBEBEBEBEBEBEBEBEBEBEBEBEBEBEBEBEBEBEBEBEBEF5F5F5F5F5F5F5F5F5F5F5F5F5F5F5F5F5F5E2E2E2F5F5F5F5F5F5F5F5F5F5F5F5F5F5F5F5F5F5BEF5F5F5F5F5F5F5F5F5F5F5F5F5F5F5F5F5F5F5F5F5F5F5F5F5F5
310
F5F5F5F5F5F5F5F5F5F5F5F5F5F5F5F5F5F5F5F5F5F5F5F5F5F5F5F5F5F5F5F5F5F5F5F5F5F5F5F5F5F5F5F5F5F5F5F5F5F5F5F5F5F5F5F5F5F5F5F5F5F5F5F5F5F5F5F5F5F5F5F5F5F5F5F5F5F5F5F5F5F5F5F5F5F5F5F5F5F5F5F5F5F5F5F5F5F5F5F5F5F5F5F5F5F5F5F5F5F5F5F5F5BEF5F5F5F5F5F5F5F5F5F5F5F5F5
310
F5F5F5F5F5E2E2E2F5F5F5F5F5F5F5F5F5F5F5F5F5F5F5F5F5F5BEF5F5F5F5F5F5F5F5F5F5F5F5F5F5F5F5F5F5F5F5F5F5F5F5F5F5F5F5F5F5F5F5F5F5F5F5F5F5F5F5F5F5F5F5F5F5F5F5F5F5F5F5F5F5F5F5F5F5F5F5F5F5F5F5F5F5F5F5F5F5F5F5F5F5F5F5F5F5F5F5F5F5F5F5F5F5F5F5F5F5F5F5F5F5F5F5F5F5F5F5
310
F5F5F5F5F5F5F5F5F5F5F5F5F5F5F5F5F5F5F5F5F5F5F5F5F5F5F5F5F5F5F5F5F5F5F5F5F5F5F5BEF5F5F5F5F5F5F5F5F5F5F5F5F5F5F5F5F5F5E2E2E2F5F5F5F5F5F5F5F5F5F5F5F5F5F5F5F5F5F5BEF5F5F5F5F5F5F5F5F5F5F5F5F5F5F5F5F5F5F5F5F5F5F5F5F5F5F5F5F5F5F5F5F5F5F5F5F5F5F5F5F5F5F5F5F5F5F5
310
F5F5F5F5F5F5F5F5F5F5F5F5F5F5F5F5F5F5F5F5F5F5F5F5F5F5F5F5F5F5F5F5F5F5F5F5F5F5F5F5F5F5F5F5F5F5F5F5F5F5F5F5F5F5F5F5F5F5F5F5F5F5F5F5F5F5F5F5F5F5F5F5F5F5F5F5F5F5F5F5F5F5F5F5F5F5F5F5F5F5F5F5BEF5F5F5F5F5F5F5F5F5F5F5F5F5F5F5F5F5F5E2E2E2F5F5F5F5F5F5F5F5F5F5F5F5F5
310
F5F5F5F5F5BEF5F5F5F5F5F5F5F5F5F5F5F5F5F5F5F5F5F5F5F5F5F5F5F5F5F5F5F5F5F5F5F5F5F5F5F5F5F5F5F5F5F5F5F5F5F5F5F5F5F5F5F5F5F5F5F5F5F5F5F5F5F5F5F5F5F5F5F5F5F5F5F5F5F5F5F5F5F5F5F5F5F5F5F5F5F5F5F5F5F5F5F5F5F5F5F5F5F5F5F5F5F5F5F5F5F5F5F5F5F5F5F5F5F5F5F5F5F5F5F5F5
310
F5F5F5F5F5F5F5F5F5F5F5F5F5F5F5F5F5F5BEF5F5F5F5F5F5F5F5F5F5F5F5F5F5F5F5F5F5E2E2E2F5E2F5F5F5F5F5F5F5F5F5F5F5F5F5F5F5F5BEF5F5F5F5F5F5F5F5F5F5F5F5F5F5F5F5F5F5F5F5F5F5F5F5F5F5F5F5F5F5F5F5F5F5F5F5F5F5F5F5F5F5F5F5F5F5F5F5F5F5F5F5F5F5F5F5F5F5F5F5F5F5F5F5F5F5F5F5
310
F5F5F5F5F5F5F5F5F5F5F5F5F5F5F5F5F5F5F5F5F5F5F5F5F5F5F5F5F5F5F5F5F5F5F5F5F5F5F5F5F5F5F5F5F5F5F5F5F5F5F5F5F5F5F5F5F5F5F5F5F5F5F5F5F5F5F5F5F5F5F5BEF5F5F5F5F5F5F5F5F5F5F5F5F5F5F5F5E2F5E2E2E2F5E2F5F5F5F5F5F5F5F5F5F5F5F5F5F5F5F5BEF5F5F5F5F5F5F5F5F5F5F5F5F5F5F5
310
F5F5F5F5F5F5F5F5F5F5F5F5F5F5F5F5F5F5F5F5F5F5F5F5F5F5F5F5F5F5F5F5F5F5F5F5F5F5F5F5F5F5F5F5F5F5F5F5F5F5F5F5F5F5F5F5F5F5F5F5F5F5F5F5F5F5F5F5F5F5F5F5F5F5F5F5F5F5F5F5F5F5F5F5F5F5F5F5F5F5F5F5F5F5F5F5F5F5F5F5F5F5F5F5F5F5F5F5F5F5F5F5F5F5F5F5F5F5F5F5F5F5F5F5BEF5F5
310
F5F5F5F5F5F5F5F5F5F5F5F5F5F5E2F5E2E2E2F5E2F5F5F5F5F5F5F5F5F5F5F5F5F5F5F5F5BEF5F5F5F5F5F5F5F5F5F5F5F5F5F5F5F5F5F5F5F5F5F5F5F5F5F5F5F5F5F5F5F5F5F5F5F5F5F5F5F5F5F5F5F5F5F5F5F5F5F5F5F5F5F5F5F5F5F5F5F5F5F5F5F5F5F5F5F5F5F5F5F5F5F5F5F5F5F5F5F5F5F5F5F5F5F5F5F5F5
310
F5F5F5F5F5F5F5F5F5F5F5F5F5F5F5F5F5F5F5F5F5F5F5F5F5F5F5F5F5F5F5F5F5F5F5F5F5F5F5F5F5F5F5F5F5F5F5F5F5F5BEF5F5F5F5F5F5F5F5F5F5F5F5F5F5F5F5E2F5E2E2E2F5E2F5F5F5F5F5F5F5F5F5F5F5F5F5F5F5F5BEF5F5F5F5F5F5F5F5F5F5F5F5F5F5F5F5F5F5F5F5F5F5F5F5F5F5F5F5F5F5F5F5F5F5F5F5
310
F5F5F5F5F5F5F5F5F5F5F5F5F5F5F5F5F5F5F5F5F5F5F5F5F5F5F5F5F5F5F5F5F5F5F5F5F5F5F5F5F5F5F5F5F5F5F5F5F5F5F5F5F5F5F5F5F5F5F5F5F5F5F5F5F5F5F5F5F5F5F5F5F5F5F5F5F5F5F5F5F5F5F5F5F5F5F5F5F5F5F5F5F5F5F5F5F5F5F5F5F5F5F5BEF5F5F5F5F5F5F5F5F5F5F5F5F5F5F5F5E2F5E2E2E2F5E2
310
F5F5F5F5F5F5F5F5F5F5F5F5F5F5F5F5BEF5F5F5F5F5F5F5F5F5F5F5F5F5F5F5F5F5F5F5F5F5F5F5F5F5F5F5F5F5F5F5F5F5F5F5F5F5F5F5F5F5F5F5F5F5F5F5F5F5F5F5F5F5F5F5F5F5F5F5F5F5F5F5F5F5F5F5F5F5F5F5F5F5F5F5F5F5F5F5F5F5F5F5F5F5F5F5F5F5F5F5F5F5F5F5F5F5F5F5F5F5F5F5F5F5F5F5F5F5F5
310
F5F5F5F5F5F5F5F5F5F5F5F5F5F5F5F5F5F5F5F5F5F5F5F5F5F5F5F5F5BEF5F5F5F5F5F5F5F5F5F5F5F5F5F5F5F5E2F5E2E2E2F5E2F5F5F5F5F5F5F5F5F5F5F5F5F5F5F5F5BEF5F5F5F5F5F5F5F5F5F5F5F5F5F5F5F5F5F5F5F5F5F5F5F5F5F5F5F5F5F5F5F5F5F5F5F5F5F5F5F5F5F5F5F5F5F5F5F5F5F5F5F5F5F5F5F5F5
310
F5F5F5F5F5F5F5F5F5F5F5F5F5F5F5F5F5F5F5F5F5F5F5F5F5F5F5F5F5F5F5F5F5F5F5F5F5F5F5F5F5F5F5F5F5F5F5F5F5F5F5F5F5F5F5F5F5F5F5F5F5F5F5F5F5F5F5F5F5F5F5F5F5F5F5F5F5F5F5F5F5F5BEF5F5F5F5F5F5F5F5F5F5F5F5F5F5F5F5E2F5E2E2E2F5E2F5F5F5F5F5F5F5F5F5F5F5F5F5F5F5F5BEF5F5F5F5
310
F5F5F5F5F5F5F5F5F5F5F5F5F5F5F5F5F5F5F5F5F5F5F5F5F5F5F5F5F5F5F5F5F5F5F5F5F5F5F5F5F5F5F5F5F5F5F5F5F5F5F5F5F5F5F5F5F5F5F5F5F5F5F5F5F5F5F5F5F5F5F5F5F5F5F5F5F5F5F5F5F5F5F5F5F5F5F5F5F5F5F5F5F5F5F5F5F5F5F5F5F5F5F5F5F5F5F5F5F5F5F5F5F5F5F5F5F5F5F5F5F5F5F5F5F5F5F5
310
F5F5F5F5F5F5F5F5BEF5F5F5F5F5F5F5F5F5F5F5F5F5F5F5F5E2F5E2E2E2F5E2F5F5F5F5F5F5F5F5F5F5F5F5F5F5F5F5BEF5F5F5F5F5F5F5F5F5F5F5F5F5F5F5F5F5F5F5F5F5F5F5F5F5F5F5F5F5F5F5F5F5F5F5F5F5F5F5F5F5F5F5F5F5F5F5F5F5F5F5F5F5F5F5F5F5F5F5F5F5F5F5F5F5F5F5F5F5F5F5F5F5F5F5F5F5F5
310
F5F5F5F5F5F5F5F5F5F5F5F5F5F5F5F5F5F5F5F5F5F5F5F5F5F5F5F5F5F5F5F5F5F5F5F5F5F5F5F5F5F5F5F5F5F5F5F5F5F5F5F5F5F5F5F5F5F5F5F5F5BEF5F5F5F5F5F5F5F5F5F5F5F5F5F5F5F5E2F5E2E2E2F5E2F5F5F5F5F5F5F5F5F5F5F5F5F5F5F5F5BEF5F5F5F5F5F5F5F5F5F5F5F5F5F5F5F5F5F5F5F5F5F5F5F5F5
310
F5F5F5F5F5F5F5F5F5F5F5F5F5F5F5F5F5F5F5F5F5F5F5F5F5F5F5F5F5F5F5F5F5F5F5F5F5F5F5F5F5F5F5F5F5F5F5F5F5F5F5F5F5F5F5F5F5F5F5F5F5F5F5F5F5F5F5F5F5F5F5F5F5F5F5F5F5F5F5F5F5F5F5F5F5F5F5F5F5F5F5F5F5F5F5F5F5F5F5F5F5F5F5F5F5F5F5F5F5F5F5F5F5F5BEF5F5F5F5F5F5F5F5F5F5F5F5
310
F5F5F5F5E2F5E2E2E2F5E2F5F5F5F5F5F5F5F5F5F5F5F5F5F5F5F5BEF5F5F5F5F5F5F5F5F5F5F5F5F5F5F5F5F5F5F5F5F5F5F5F5F5F5F5F5F5F5F5F5F5F5F5F5F5F5F5F5F5F5F5F5F5F5F5F5F5F5F5F5F5F5F5F5F5F5F5F5F5F5F5F5F5F5F5F5F5F5F5F5F5F5F5F5F5F5F5F5F5F5F5F5F5F5F5F5F5F5F5F5F5F5F5F5F5F5F5
310
F5F5F5F5F5F5F5F5F5F5F5F5F5F5F5F5F5F5F5F5F5F5F5F5F5F5F5F5F5F5F5F5F5F5F5F5F5F5F5F5BEF5F5F5F5F5F5F5F5F5F5F5F5F5F5F5F5E2F5E2E2E2F5E2F5F5F5F5F5F5F5F5F5F5F5F5F5F5F5F5BEF5F5F5F5F5F5F5F5F5F5F5F5F5F5F5F5F5F5F5F5F5F5F5F5F5F5F5F5F5F5F5F5F5F5F5F5F5F5F5F5F5F5F5F5F5F5
310
F5F5F5F5F5F5F5F5F5F5F5F5F5F5F5F5F5F5F5F5F5F5F5F5F5F5F5F5F5F5F5F5F5F5F5F5F5F5F5F5F5F5F5F5F5F5F5F5F5F5F5F5F5F5F5F5F5F5F5F5F5F5F5F5F5F5F5F5F5F5F5F5F5F5F5F5F5F5F5F5F5F5F5F5F5F5F5F5F5F5F5F5F5BEF5F5F5F5F5F5F5F5F5F5F5F5F5F5F5F5E2F5E2E2E2F5E2F5F5F5F5F5F5F5F5F5F5
310
F5F5F5F5F5F5BEF5F5F5F5F5F5F5F5F5F5F5F5F5F5F5F5F5F5F5F5F5F5F5F5F5F5F5F5F5F5F5F5F5F5F5F5F5F5F5F5F5F5F5F5F5F5F5F5F5F5F5F5F5F5F5F5F5F5F5F5F5F5F5F5F5F5F5F5F5F5F5F5F5F5F5F5F5F5F5F5F5F5F5F5F5F5F5F5F5F5F5F5F5F5F5F5F5F5F5F5F5F5F5F5F5F5F5F5F5F5F5F5F5F5F5F5F5F5F5F5
310
F5F5F5F5F5F5F5F5F5F5F5F5F5F5F5F5F5F5F5BEF5F5F5F5F5F5F5F5F5F5F5F5F5F5F5F5E2F5E2E2E2F5E2F5F5F5F5F5F5F5F5F5F5F5F5F5F5F5F5BEF5F5F5F5F5F5F5F5F5F5F5F5F5F5F5F5F5F5F5F5F5F5F5F5F5F5F5F5F5F5F5F5F5F5F5F5F5F5F5F5F5F5F5F5F5F5F5F5F5F5F5F5F5F5F5F5F5F5F5F5F5F5F5F5F5F5F5
310
F5F5F5F5F5F5F5F5F5F5F5F5F5F5F5F5F5F5F5F5F5F5F5F5F5F5F5F5F5F5F5F5F5F5F5F5F5F5F5F5F5F5F5F5F5F5F5F5F5F5F5F5F5F5F5F5F5F5F5F5F5F5F5F5F5F5F5F5F5F5F5F5BEF5F5F5F5F5F5F5F5F5F5F5F5F5F5F5F5E2F5E2E2E2F5E2F5F5F5F5F5F5F5F5F5F5F5F5F5F5F5F5BEF5F5F5F5F5F5F5F5F5F5F5F5F5F5
310
F5F5F5F5F5F5F5F5F5F5F5F5F5F5F5F5F5F5F5F5F5F5F5F5F5F5F5F5F5F5F5F5F5F5F5F5F5F5F5F5F5F5F5F5F5F5F5F5F5F5F5F5F5F5F5F5F5F5F5F5F5F5F5F5F5F5F5F5F5F5F5F5F5F5F5F5F5F5F5F5F5F5F5F5F5F5F5F5F5F5F5F5F5F5F5F5F5F5F5F5F5F5F5F5F5F5F5F5F5F5F5F5F5F5F5F5F5F5F5F5F5F5F5F5F5BEF5
310
F5F5F5F5F5F5F5F5F5F5F5F5F5F5F5E2F5E2E2E2F5E2F5F5F5F5F5F5F5F5F5F5F5F5F5F5F5F5BEF5F5F5F5F5F5F5F5F5F5F5F5F5F5F5F5F5F5F5F5F5F5F5F5F5F5F5F5F5F5F5F5F5F5F5F5F5F5F5F5F5F5F5F5F5F5F5F5F5F5F5F5F5F5F5F5F5F5F5F5F5F5F5F5F5F5F5F5F5F5F5F5F5F5F5F5F5F5F5F5F5F5F5F5F5F5F5F5
310
F5F5F5F5F5F5F5F5F5F5F5F5F5F5F5F5F5F5F5F5F5F5F5F5F5F5F5F5F5F5F5F5F5F5F5F5F5F5F5F5F5F5F5F5F5F5F5F5F5F5F5BEF5F5F5F5F5F5F5F5F5F5F5F5F5F5F5F5E2F5E2E2E2F5E2F5F5F5F5F5F5F5F5F5F5F5F5F5F5F5F5BEF5F5F5F5F5F5F5F5F5F5F5F5F5F5F5F5F5F5F5F5F5F5F5F5F5F5F5F5F5F5F5F5F5F5F5
310
F5F5F5F5F5F5F5F5F5F5F5F5F5F5F5F5F5F5F5F5F5F5F5F5F5F5F5F5F5F5F5F5F5F5F5F5F5F5F5F5F5F5F5F5F5F5F5F5F5F5F5F5F5F5F5F5F5F5F5F5F5F5F5F5F5F5F5F5F5F5F5F5F5F5F5F5F5F5F5F5F5F5F5F5F5F5F5F5F5F5F5F5F5F5F5F5F5F5F5F5F5F5F5F5BEF5F5F5F5F5F5F5F5F5F5F5F5F5F5F5F5E2F5E2E2E2F5
310
F5F5F5F5F5F5F5F5F5F5F5F5F5F5F5F5F5BEF5F5F5F5F5F5F5F5F5F5F5F5F5F5F5F5F5F5F5F5F5F5F5F5F5F5F5F5F5F5F5F5F5F5F5F5F5F5F5F5F5F5F5F5F5F5F5F5F5F5F5F5F5F5F5F5F5F5F5F5F5F5F5F5F5F5F5F5F5F5F5F5F5F5F5F5F5F5F5F5F5F5F5F5F5F5F5F5F5F5F5F5F5F5F5F5F5F5F5F5F5F5F5F5F5F5F5F5F5
310
F5F5F5F5F5F5F5F5F5F5F5F5F5F5F5F5F5F5F5F5F5F5F5F5F5F5F5F5F5F5BEF5F5F5F5F5F5F5F5F5F5F5F5F5F5F5F5F5F5E2E2E2F5F5F5F5F5F5F5F5F5F5F5F5F5F5F5F5F5F5BEF5F5F5F5F5F5F5F5F5F5F5F5F5F5F5F5F5F5F5F5F5F5F5F5F5F5F5F5F5F5F5F5F5F5F5F5F5F5F5F5F5F5F5F5F5F5F5F5F5F5F5F5F5F5F5F5
310
F5F5F5F5F5F5F5F5F5F5F5F5F5F5F5F5F5F5F5F5F5F5F5F5F5F5F5F5F5F5F5F5F5F5F5F5F5F5F5F5F5F5F5F5F5F5F5F5F5F5F5F5F5F5F5F5F5F5F5F5F5F5F5F5F5F5F5F5F5F5F5F5F5F5F5F5F5F5F5F5F5F5F5BEF5F5F5F5F5F5F5F5F5F5F5F5F5F5F5F5F5F5E2E2E2F5F5F5F5F5F5F5F5F5F5F5F5F5F5F5F5F5F5BEF5F5F5
310
F5F5F5F5F5F5F5F5F5F5F5F5F5F5F5F5F5F5F5F5F5F5F5F5F5F5F5F5F5F5F5F5F5F5F5F5F5F5F5F5F5F5F5F5F5F5F5F5F5F5F5F5F5F5F5F5F5F5F5F5F5F5F5F5F5F5F5F5F5F5F5F5F5F5F5F5F5F5F5F5F5F5F5F5F5F5F5F5F5F5F5F5F5F5F5F5F5F5F5F5F5F5F5F5F5F5F5F5F5F5F5F5F5F5F5F5F5F5F5F5F5F5F5F5F5F5F5
310
F5F5F5F5F5F5F5F5F5BEF5F5F5F5F5F5F5F5F5F5F5F5F5F5F5F5F5F5E2E2E2F5F5F5F5F5F5F5F5F5F5F5F5F5F5F5F5F5F5BEF5F5F5F5F5F5F5F5F5F5F5F5F5F5F5F5F5F5F5F5F5F5F5F5F5F5F5F5F5F5F5F5F5F5F5F5F5F5F5F5F5F5F5F5F5F5F5F5F5F5F5F5F5F5F5F5F5F5F5F5F5F5F5F5F5F5F5F5F5F5F5F5F5F5F5F5F5
310
F5F5F5F5F5F5F5F5F5F5F5F5F5F5F5F5F5F5F5F5F5F5F5F5F5F5F5F5F5F5F5F5F5F5F5F5F5F5F5F5F5F5F5F5F5F5F5F5F5F5F5F5F5F5F5F5F5F5F5F5F5F5BEF5F5F5F5F5F5F5F5F5F5F5F5F5F5F5F5F5F5E2E2E2F5F5F5F5F5F5F5F5F5F5F5F5F5F5F5F5F5F5BEF5F5F5F5F5F5F5F5F5F5F5F5F5F5F5F5F5F5F5F5F5F5F5F5
310
F5F5F5F5F5F5F5F5F5F5F5F5F5F5F5F5F5F5F5F5F5F5F5F5F5F5F5F5F5F5F5F5F5F5F5F5F5F5F5F5F5F5F5F5F5F5F5F5F5F5F5F5F5F5F5F5F5F5F5F5F5F5F5F5F5F5F5F5F5F5F5F5F5F5F5F5F5F5F5F5F5F5F5F5F5F5F5F5F5F5F5F5F5F5F5F5F5F5F5F5F5F5F5F5F5F5F5F5F5F5F5F5F5F5F5BEF5F5F5F5F5F5F5F5F5F5F5
310
F5F5F5F5F5F5F5E2E2E2F5F5F5F5F5F5F5F5F5F5F5F5F5F5F5F5F5F5BEF5F5F5F5F5F5F5F5F5F5F5F5F5F5F5F5F5F5F5F5F5F5F5F5F5F5F5F5F5F5F5F5F5F5F5F5F5F5F5F5F5F5F5F5F5F5F5F5F5F5F5F5F5F5F5F5F5F5F5F5F5F5F5F5F5F5F5F5F5F5F5F5F5F5F5F5F5F5F5F5F5F5F5F5F5F5F5F5F5F5F5F5F5F5F5F5F5F5
310
F5F5F5F5F5F5F5F5F5F5F5F5F5F5F5F5F5F5F5F5F5F5F5F5F5F5F5F5F5F5F5F5F5F5F5F5F5F5F5F5F5BEF5F5F5F5F5F5F5F5F5F5F5F5F5F5F5F5F5F5E2E2E2F5F5F5F5F5F5F5F5F5F5F5F5F5F5F5F5F5F5BEF5F5F5F5F5F5F5F5F5F5F5F5F5F5F5F5F5F5F5F5F5F5F5F5F5F5F5F5F5F5F5F5F5F5F5F5F5F5F5F5F5F5F5F5F5
310
F5F5F5F5F5F5F5F5F5F5F5F5F5F5F5F5F5F5F5F5F5F5F5F5F5F5F5F5F5F5F5F5F5F5F5F5F5F5F5F5F5F5F5F5F5F5F5F5F5F5F5F5F5F5F5F5F5F5F5F5F5F5F5F5F5F5F5F5F5F5F5F5F5F5F5F5F5F5F5F5F5F5F5F5F5F5F5F5F5F5F5F5F5F5BEF5F5F5F5F5F5F5F5F5F5F5F5F5F5F5F5F5F5E2E2E2F5F5F5F5F5F5F5F5F5F5F5
310
F5F5F5F5F5F5F5BEF5F5F5F5F5F5F5F5F5F5F5F5F5F5F5F5F5F5F5F5F5F5F5F5F5F5F5F5F5F5F5F5F5F5F5F5F5F5F5F5F5F5F5F5F5F5F5F5F5F5F5F5F5F5F5F5F5F5F5F5F5F5F5F5F5F5F5F5F5F5F5F5F5F5F5F5F5F5F5F5F5F5F5F5F5F5F5F5F5F5F5F5F5F5F5F5F5F5F5F5F5F5F5F5F5F5F5F5F5F5F5F5F5F5F5F5F5F5F5
310
F5F5F5F5F5F5F5F5F5F5F5F5F5F5F5F5F5F5F5F5BEF5F5F5F5F5F5F5F5F5F5F5F5F5F5F5F5F5F5E2E2E2F5E2F5F5F5F5F5F5F5F5F5F5F5F5F5F5F5F5BEF5F5F5F5F5F5F5F5F5F5F5F5F5F5F5F5F5F5F5F5F5F5F5F5F5F5F5F5F5F5F5F5F5F5F5F5F5F5F5F5F5F5F5F5F5F5F5F5F5F5F5F5F5F5F5F5F5F5F5F5F5F5F5F5F5F5
310
F5F5F5F5F5F5F5F5F5F5F5F5F5F5F5F5F5F5F5F5F5F5F5F5F5F5F5F5F5F5F5F5F5F5F5F5F5F5F5F5F5F5F5F5F5F5F5F5F5F5F5F5F5F5F5F5F5F5F5F5F5F5F5F5F5F5F5F5F5F5F5F5F5BEF5F5F5F5F5F5F5F5F5F5F5F5F5F5F5F5E2F5E2E2E2F5E2F5F5F5F5F5F5F5F5F5F5F5F5F5F5F5F5BEF5F5F5F5F5F5F5F5F5F5F5F5F5
310
F5F5F5F5F5F5F5F5F5F5F5F5F5F5F5F5F5F5F5F5F5F5F5F5F5F5F5F5F5F5F5F5F5F5F5F5F5F5F5F5F5F5F5F5F5F5F5F5F5F5F5F5F5F5F5F5F5F5F5F5F5F5F5F5F5F5F5F5F5F5F5F5F5F5F5F5F5F5F5F5F5F5F5F5F5F5F5F5F5F5F5F5F5F5F5F5F5F5F5F5F5F5F5F5F5F5F5F5F5F5F5F5F5F5F5F5F5F5F5F5F5F5F5F5F5F5BE
310
F5F5F5F5F5F5F5F5F5F5F5F5F5F5F5F5E2F5E2E2E2F5E2F5F5F5F5F5F5F5F5F5F5F5F5F5F5F5F5BEF5F5F5F5F5F5F5F5F5F5F5F5F5F5F5F5F5F5F5F5F5F5F5F5F5F5F5F5F5F5F5F5F5F5F5F5F5F5F5F5F5F5F5F5F5F5F5F5F5F5F5F5F5F5F5F5F5F5F5F5F5F5F5F5F5F5F5F5F5F5F5F5F5F5F5F5F5F5F5F5F5F5F5F5F5F5F5
310
F5F5F5F5F5F5F5F5F5F5F5F5F5F5F5F5F5F5F5F5F5F5F5F5F5F5F5F5F5F5F5F5F5F5F5F5F5F5F5F5F5F5F5F5F5F5F5F5F5F5F5F5BEF5F5F5F5F5F5F5F5F5F5F5F5F5F5F5F5E2F5E2E2E2F5E2F5F5F5F5F5F5F5F5F5F5F5F5F5F5F5F5BEF5F5F5F5F5F5F5F5F5F5F5F5F5F5F5F5F5F5F5F5F5F5F5F5F5F5F5F5F5F5F5F5F5F5
310
F5F5F5F5F5F5F5F5F5F5F5F5F5F5F5F5F5F5F5F5F5F5F5F5F5F5F5F5F5F5F5F5F5F5F5F5F5F5F5F5F5F5F5F5F5F5F5F5F5F5F5F5F5F5F5F5F5F5F5F5F5F5F5F5F5F5F5F5F5F5F5F5F5F5F5F5F5F5F5F5F5F5F5F5F5F5F5F5F5F5F5F5F5F5F5F5F5F5F5F5F5F5F5F5F5BEF5F5F5F5F5F5F5F5F5F5F5F5F5F5F5F5E2F5E2E2E2
310
F5E2F5F5F5F5F5F5F5F5F5F5F5F5F5F5F5F5BEF5F5F5F5F5F5F5F5F5F5F5F5F5F5F5F5F5F5F5F5F5F5F5F5F5F5F5F5F5F5F5F5F5F5F5F5F5F5F5F5F5F5F5F5F5F5F5F5F5DCDCDCDCDCDCDCDCDCDCDCDCDCDCDCDCDCDCDCDCDCDCDCDCF5F5F5F5F5F5F5F5F5F5F5F5F5F5F5F5F5F5F5F5F5F5F5F5F5F5F5F5F5F5F5F5F5F5F5
310
F5F5F5F5F5F5F5F5F5F5F5F5F5F5F5F5F5F5F5F5F5F5F5F5F5F5F5F5F5F5F5BEF5F5F5F5F5F5F5F5F5F5F5F5F5F5F5F5E2F5E2E2E2F5E2F5F5F5F5F5F5F5F5F5F5F5F5F5F5F5F5BEF5F5F5F5F5F5F5F5F5F5F5F5F5F5F5F5F5F5F5F5F5F5F5F5F5F5F5F5F5F5F5F5F5F5F5F5F5F5F5F5F5F5F5F5F5F5F5F5F5DCF5F5272727
310
2727272727F5F5F5F5F5F5F5F5F5F5F5F5DCF5F5F5F5F5F5F5F5F5F5F5F5F5F5F5F5F5F5F5F5F5F5F5F5F5F5F5F5F5F5F5F5F5F5F5F5F5F5F5F5F5F5F5F5F5F5F5F5F5F5F5F5F5F5F5F5F5F5F5F5F5F5F5F5F5F5BEF5F5F5F5F5F5F5F5F5F5F5F5F5F5F5F5E2F5E2E2E2F5E2F5F5F5F5F5F5F5F5F5F5F5F5F5F5F5F5BEF5F5
310
F5F5F5F5F5F5F5F5F5F5F5F5F5F5F5F5F5F5F5F5F5F5F5F5F5F5F5F5F5F5F5F5F5F5F5F5F5F5F5F5F5F5F5F5F5F5F5DCF5F5F5F5F5F5F5F5F5F5F5F5F5F5F5F5F5F5F5F5F5F5DCF5F5F5F5F5F5F5F5F5F5F5F5F5F5F5F5F5F5F5F5F5F5F5F5F5F5F5F5F5F5F5F5F5F5F5F5F5F5F5F5F5F5F5F5F5F5F5F5F5F5F5F5F5F5F5F5
310
F5F5F5F5F5F5F5F5F5F5BEF5F5F5F5F5F5F5F5F5F5F5F5F5F5F5F5E2F5E2E2E2F5E2F5F5F5F5F5F5F5F5F5F5F5F5F5F5F5F5BEF5F5F5F5F5F5F5F5F5F5F5F5F5F5F5F5F5F5F5F5F5F5F5F5F5F5F5F5F5F5F5F5F5F5F5F5F5F5F5F5F5F5F5F5F5F5F5F5F5DCF5F5F5F5F5F5F5F5F5F5F5F5F5F5F5F5F5F5F5F5F5F5DCF5F5F5
310
F5F5F5F5F5F5F5F5F5F5F5F5F5F5F5F5F5F5F5F5F5F5F5F5F5F5F5F5F5F5F5F5F5F5F5F5F5F5F5F5F5F5F5F5F5F5F5F5F5F5F5F5F5F5F5F5F5F5F5F5F5F5F5BEF5F5F5F5F5F5F5F5F5F5F5F5F5F5F5F5E2F5E2E2E2F5E2F5F5F5F5F5F5F5F5F5F5F5F5F5F5F5F5BEF5F5F5F5F5F5F5F5F5F5F5F5F5F5F5F5F5F5F5F5F5F5F5
310
F5F5F5F5F5F5F5F5F5F5F5F5F5F5F5F5F5F5F5F5F5F5F5F5F5F5DCF5F5F5F5F5F5F5F5F5F5F5F5F5F5F5F5F5F5F5F5F5F5DCF5F5F5F5F5F5F5F5F5F5F5F5F5F5F5F5F5F5F5F5F5F5F5F5F5F5F5F5F5F5F5F5F5F5F5F5F5F5F5F5F5F5F5F5F5F5F5F5F5F5F5F5F5F5F5F5F5F5F5F5F5F5F5F5F5F5BEF5F5F5F5F5F5F5F5F5F5
310
F5F5F5F5F5F5E2F5E2E2E2F5E2F5F5F5F5F5F5F5F5F5F5F5F5F5F5F5F5BEF5F5F5F5F5F5F5F5F5F5F5F5F5F5F5F5F5F5F5F5F5F5F5F5F5F5F5F5F5F5F5F5F5F5F5F5F5F5F5F5F5F5F5F5F5F5F5F5F5DCF5F5F5F5F5F5F5F5F5F5F5F5F5F5F5F5F5F5F5F5F5F5DCF5F5F5F5F5F5F5F5F5F5F5F5F5F5F5F5F5F5F5F5F5F5F5F5
310
F5F5F5F5F5F5F5F5F5F5F5F5F5F5F5F5F5F5F5F5F5F5F5F5F5F5F5F5F5F5F5F5F5F5F5F5F5F5F5F5F5F5BEF5F5F5F5F5F5F5F5F5F5F5F5F5F5F5F5E2F5E2E2E2F5E2F5F5F5F5F5F5F5F5F5F5F5F5F5F5F5F5BEF5F5F5F5F5F5F5F5F5F5F5F5F5F5F5F5F5F5F5F5F5F5F5F5F5F5F5F5F5F5F5F5F5F5F5F5F5F5F5F5F5F5F5F5
310
F5F5F5F5F5DCF5F5F5F5F5F5F5F5F5F5F5F5F5F5F5F5F5F5F5F5F5F5DCF5F5F5F5F5F5F5F5F5F5F5F5F5F5F5F5F5F5F5F5F5F5F5F5F5F5F5F5F5F5F5F5F5F5F5F5F5F5F5F5F5F5F5F5F5F5F5F5F5F5F5F5F5F5F5F5F5F5F5F5F5F5F5F5F5F5BEF5F5F5F5F5F5F5F5F5F5F5F5F5F5F5F5E2F5E2E2E2F5E2F5F5F5F5F5F5F5F5
310
F5F5F5F5F5F5F5F5BEF5F5F5F5F5F5F5F5F5F5F5F5F5F5F5F5F5F5F5F5F5F5F5F5F5F5F5F5F5F5F5F5F5F5F5F5F5F5F5F5F5F5F5F5F5F5F5F5F5DCF5F5F5F5F5F5F5F5F5F5F5F5F5F5F5F5F5F5F5F5F5F5DCF5F5F5F5F5F5F5F5F5F5F5F5F5F5F5F5F5F5F5F5F5F5F5F5F5F5F5F5F5F5F5F5F5F5F5F5F5F5F5F5F5F5F5F5F5
310
F5F5F5F5F5F5F5F5F5F5F5F5F5F5F5F5F5F5F5F5F5BEF5F5F5F5F5F5F5F5F5F5F5F5F5F5F5F5E2F5E2E2E2F5E2F5F5F5F5F5F5F5F5F5F5F5F5F5F5F5F5BEF5F5F5F5F5F5F5F5F5F5F5F5F5F5F5F5F5F5F5F5F5F5F5F5F5F5F5F5F5F5F5F5F5F5F5F5F5F5F5F5F5F5F5F5F5F5F5F5F5DCF5F5F5F5F5F5F5F5F5F5F5F5F5F5F5
310
F5F5F5F5F5F5F5DCF5F5F5F5F5F5F5F5F5F5F5F5F5F5F5F5F5F5F5F5F5F5F5F5F5F5F5F5F5F5F5F5F5F5F5F5F5F5F5F5F5F5F5F5F5F5F5F5F5F5F5F5F5F5F5F5F5F5F5F5F5F5F5F5F5F5BEF5F5F5F5F5F5F5F5F5F5F5F5F5F5F5F5E2F5E2E2E2F5E2F5F5F5F5F5F5F5F5F5F5F5F5F5F5F5F5BEF5F5F5F5F5F5F5F5F5F5F5F5
310
F5F5F5F5F5F5F5F5F5F5F5F5F5F5F5F5F5F5F5F5F5F5F5F5F5F5F5F5F5F5F5F5F5F5F5F5F5DCF5F5F5F5F5F5F5F5F5F5F5F5F5F5F5F5F5F5F5F5F5F5DCF5F5F5F5F5F5F5F5F5F5F5F5F5F5F5F5F5F5F5F5F5F5F5F5F5F5F5F5F5F5F5F5F5F5F5F5F5F5F5F5F5F5F5F5F5F5F5F5F5F5F5F5F5F5F5F5F5F5F5F5F5F5F5F5F5F5
310
BEF5F5F5F5F5F5F5F5F5F5F5F5F5F5F5F5E2F5E2E2E2F5E2F5F5F5F5F5F5F5F5F5F5F5F5F5F5F5F5BEF5F5F5F5F5F5F5F5F5F5F5F5F5F5F5F5F5F5F5F5F5F5F5F5F5F5F5F5F5F5F5F5F5F5F5F5F5F5F5F5F5F5F5F5F5F5F5F5F5DCF5F5F5F5F5F5F5F5F5F5F5F5F5F5F5F5F5F5F5F5F5F5DCF5F5F5F5F5F5F5F5F5F5F5F5F5
310
F5F5F5F5F5F5F5F5F5F5F5F5F5F5F5F5F5F5F5F5F5F5F5F5F5F5F5F5F5F5F5F5F5F5F5F5F5F5F5F5F5F5F5F5F5F5F5F5F5F5F5F5F5BEF5F5F5F5F5F5F5F5F5F5F5F5F5F5F5F5E2F5E2E2E2F5E2F5F5F5F5F5F5F5F5F5F5F5F5F5F5F5F5BEF5F5F5F5F5F5F5F5F5F5F5F5F5F5F5F5F5F5F5F5F5F5F5F5F5F5F5F5F5F5F5F5F5
310
F5F5F5F5F5F5F5F5F5F5F5F5F5F5F5F5DCF5F5F5F5F5F5F5F5F5F5F5F5F5F5F5F5F5F5F5F5F5F5DCF5F5F5F5F5F5F5F5F5F5F5F5F5F5F5F5F5F5F5F5F5F5F5F5F5F5F5F5F5F5F5F5F5F5F5F5F5F5F5F5F5F5F5F5F5F5F5F5F5F5F5F5F5F5F5F5F5F5F5F5F5F5F5F5F5F5BEF5F5F5F5F5F5F5F5F5F5F5F5F5F5F5F5E2F5E2E2
310
E2F5F5F5F5F5F5F5F5F5F5F5F5F5F5F5F5F5F5BEF5F5F5F5F5F5F5F5F5F5F5F5F5F5F5F5F5F5F5F5F5F5F5F5F5F5F5F5F5F5F5F5F5F5F5F5F5F5F5F5F5F5F5F5F5F5F5F5F5DCF5F5F5F5F5F5F5F5F5F5F5F5F5F5F5F5F5F5F5F5F5F5DCF5F5F5F5F5F5F5F5F5F5F5F5F5F5F5F5F5F5F5F5F5F5F5F5F5F5F5F5F5F5F5F5F5F5
310
F5F5F5F5F5F5F5F5F5F5F5F5F5F5F5F5F5F5F5F5F5F5F5F5F5F5F5F5F5F5F5F5BEF5F5F5F5F5F5F5F5F5F5F5F5F5F5F5F5F5F5E2E2E2F5F5F5F5F5F5F5F5F5F5F5F5F5F5F5F5F5F5BEF5F5F5F5F5F5F5F5F5F5F5F5F5F5F5F5F5F5F5F5F5F5F5F5F5F5F5F5F5F5F5F5F5F5F5F5F5F5F5F5F5F5F5F5F5F5F5F5F5DCF5F5F5F5
310
F5F5F5F5F5F5F5BEF5F5F5F5F5F5F5F5F5F5DCF5F5F5F5F5F5F5F5F5F5F5F5F5F5F5F5F5F5F5F5F5F5F5F5F5F5F5F5F5F5F5F5F5F5F5F5F5F5F5F5F5F5F5F5F5F5F5F5F5F5F5F5F5F5F5F5F5F5F5F5F5F5F5F5F5F5BEF5F5F5F5F5F5F5F5F5F5F5F5F5F5F5F5F5F5E2E2E2F5F5F5F5F5F5F5F5F5F5F5F5F5F5F5F5F5F5BEF5
310
F5F5F5F5F5F5F5F5F5F5F5F5F5F5F5F5F5F5F5F5F5F5F5F5F5F5F5F5F5F5F5F5F5F5F5F5F5F5F5F5F5F5F5F5F5F5F5F5DCF5F5F5F5F5F5F5F5BEF5F5BEF5F5BEF5F5F5F5F5F5F5DCF5F5F5F5F5F5F5F5F5F5F5F5F5F5F5F5F5F5F5F5F5F5F5F5F5F5F5F5F5F5F5F5F5F5F5F5F5F5F5F5F5F5F5F5F5F5F5F5F5F5F5F5F5F5F5
310
F5F5F5F5F5F5F5F5F5F5F5BEF5F5F5F5F5F5F5F5F5F5F5F5F5F5F5F5F5F5E2E2E2F5F5F5F5F5F5F5F5F5F5F5F5F5F5F5F5F5F5BEF5F5F5F5F5F5F5F5F5F5F5F5F5F5F5F5F5F5F5F5F5F5F5F5F5F5F5F5F5F5F5F5F5F5F5F5F5F5F5F5F5F5F5F5F5F5F5F5F5DCF5F5F5BEBE2727BEBEF527BEF5F5BE2727BEBEF5F5F5DCF5F5
310
F5F5F5F5F5F5F5F5F5F5F5F5F5F5F5F5F5F5F5F5F5F5F5F5F5F5F5F5F5F5F5F5F5F5F5F5F5F5F5F5F5F5F5F5F5F5F5F5F5F5F5F5F5F5F5F5F5F5F5F5F5F5F5F5BEF5F5F5F5F5F5F5F5F5F5F5F5F5F5F5F5F5F5E2E2E2F5F5F5F5F5F5F5F5F5F5F5F5F5F5F5F5F5F5BEF5F5F5F5F5F5F5F5F5F5F5F5F5F5F5F5F5F5F5F5F5F5
310
F5F5F5F5F5F5F5F5F5F5F5F5F5F5F5F5F5F5F5F5F5F5F5F5F5F5F5DCF5F5F5BE27BEBE27BEF527BEF5F5BEBE2727BEF5F5F5DCF5F5F5F5F5F5F5F5F5F5F5F5F5F5F5F5F5F5F5F5F5F5F5F5F5F5F5F5F5F5F5F5F5F5F5F5F5F5F5F5F5F5F5F5F5F5F5F5F5F5F5F5F5F5F5F5F5F5F5F5F5F5F5F5F5F5BEF5F5F5F5F5F5F5F5F5
310
F5F5F5F5F5F5F5F5F5E2E2E2F5F5F5F5F5F5F5F5F5F5F5F5F5F5F5F5F5F5BEF5F5F5F5F5F5F5F5F5F5F5F5F5F5F5F5F5F5F5F5F5F5F5F5F5F5F5F5F5F5F5F5F5F5F5F5F5F5F5F5F5F5F5F5F5F5F5F5F5DCF5F5BEF5C3C3C3F5F5BE27BEBE27F5F5C3C3F5BEF5F5DCF5F5F5F5F5F5F5F5F5F5F5F5F5F5F5F5F5F5F5F5F5F5F5
310
F5F5F5F5F5F5F5F5F5F5F5F5F5F5F5F5F5F5F5F5F5F5F5F5F5F5F5F5F5F5F5F5F5F5F5F5F5F5F5F5F5F5F5BEF5F5F5F5F5F5F5F5F5F5F5F5F5F5F5F5F5F5E2E2E2F5F5F5F5F5F5F5F5F5F5F5F5F5F5F5F5F5F5BEF5F5F5F5F5F5F5F5F5F5F5F5F5F5F5F5F5F5F5F5F5F5F5F5F5F5F5F5F5F5F5F5F5F5F5F5F5F5F5F5F5F5F5
310
F5F5F5F5F5F5DCF5F5BE1E1E1E1E1E1EBE27BEBE271E1E1E1E1EBEBEF5DCF5F5F5F5F5F5F5F5F5F5F5F5F5F5F5F5F5F5F5F5F5F5F5F5F5F5F5F5F5F5F5F5F5F5F5F5F5F5F5F5F5F5F5F5F5F5F5F5F5F5F5F5F5F5F5F5F5F5F5F5F5F5F5F5F5F5BEF5F5F5F5F5F5F5F5F5F5F5F5F5F5F5F5F5F5E2E2E2F5F5F5F5F5F5F5F5F5
310
F5F5F5F5F5F5F5F5F5BEF5F5F5F5F5F5F5F5F5F5F5F5F5F5F5F5F5F5F5F5F5F5F5F5F5F5F5F5F5F5F5F5F5F5F5F5F5F5F5F5F5F5F5F5F5F5F5F5F5DCF5F5271E1EF5F5F51E2727BE27F51EF5F5F51E27F5F5DCF5F5F5F5F5F5F5F5F5F5F5F5F5F5F5F5F5F5F5F5F5F5F5F5F5F5F5F5F5F5F5F5F5F5F5F5F5F5F5F5F5F5F5F5
310
F5F5F5F5F5F5F5F5F5F5F5F5F5F5F5F5F5F5F5F5F5F5BEF5F5F5F5F5F5F5F5F5F5F5F5F5F5F5F5F5F5E2E2E2F5F5F5F5F5F5F5F5F5F5F5F5F5F5F5F5F5F5BEF5F5F5F5F5F5F5F5F5F5F5F5F5F5F5F5F5F5F5F5F5F5F5F5F5F5F5F5F5F5F5F5F5F5F5F5F5F5F5F5F5F5F5F5F5F5F5F5F5DCF5F5BE1E1E1E27271EBEF5BEBE27
310
1E1E1E1E1EBEBEF5DCF5F5F5F5F5F5F5F5F5F5F5F5F5F5F5F5F5F5F5F5F5F5F5F5F5F5F5F5F5F5F5F5F5F5F5F5F5F5F5F5F5F5F5F5F5F5F5F5F5F5F5F5F5F5F5F5F5F5F5F5F5F5F5F5F5F5BEF5F5F5F5F5F5F5F5F5F5F5F5F5F5F5F5F5F5E2E2E2F5E2F5F5F5F5F5F5F5F5F5F5F5F5F5F5F5F5BEF5F5F5F5F5F5F5F5F5F5F5
310
F5F5F5F5F5F5F5F5F5F5F5F5F5F5F5F5F5F5F5F5F5F5F5F5F5F5F5F5F5F5F5F5F5F5F5F5F5F5DCF5F5F5F5F5F5F5F5F5BEF5BEBE27F5F5F5F5F5F5F5F5DCF5F5F5F5F5F5F5F5F5F5F5F5F5F5F5F5F5F5F5F5F5F5F5F5F5F5F5F5F5F5F5F5F5F5F5F5F5F5F5F5F5F5F5F5F5F5F5F5F5F5F5F5F5F5F5F5F5F5F5F5F5F5F5F5F5
310
F5BEF5F5F5F5F5F5F5F5F5F5F5F5F5F5F5F5E2F5E2E2E2F5E2F5F5F5F5F5F5F5F5F5F5F5F5F5F5F5F5BEF5F5F5F5F5F5F5F5F5F5F5F5F5F5F5F5F5F5F5F5F5F5F5F5F5F5F5F5F5F5F5F5F5F5F5F5F5F5F5F5F5F5F5F5F5F5F5F5F5DCF5F5F5F5F5F5F5F5F5F5F5BEF5F5F5F5F5F5F5F5F5F5DCF5F5F5F5F5F5F5F5F5F5F5F5
310
F5F5F5F5F5F5F5F5F5F5F5F5F5F5F5F5F5F5F5F5F5F5F5F5F5F5F5F5F5F5F5F5F5F5F5F5F5F5F5F5F5F5F5F5F5F5F5F5F5F5F5F5F5F5BEF5F5F5F5F5F5F5F5F5F5F5F5F5F5F5F5E2F5E2E2E2F5E2F5F5F5F5F5F5F5F5F5F5F5F5F5F5F5F5BEF5F5F5F5F5F5F5F5F5F5F5F5F5F5F5F5F5F5F5F5F5F5F5F5F5F5F5F5F5F5F5F5
310
F5F5F5F5F5F5F5F5F5F5F5F5F5F5F5F5F5DCF5F5F5F5F5F5F5F5F5F5F5BEF5F5F5F5F5F5F5F5F5F5DCF5F5F5F5F5F5F5F5F5F5F5F5F5F5F5F5F5F5F5F5F5F5F5F5F5F5F5F5F5F5F5F5F5F5F5F5F5F5F5F5F5F5F5F5F5F5F5F5F5F5F5F5F5F5F5F5F5F5F5F5F5F5F5F5F5F5BEF5F5F5F5F5F5F5F5F5F5F5F5F5F5F5F5E2F5E2
310
E2E2F5E2F5F5F5F5F5F5F5F5F5F5F5F5F5F5F5F5BEF5F5F5F5F5F5F5F5F5F5F5F5F5F5F5F5F5F5F5F5F5F5F5F5F5F5F5F5F5F5F5F5F5F5F5F5F5F5F5F5F5F5F5F5F5F5F5F5F5DCF5F5F5F5F5F5F5F5F5F5F5BEF5F5F5F5F5F5F5F5F5F5DCF5F5F5F5F5F5F5F5F5F5F5F5F5F5F5F5F5F5F5F5F5F5F5F5F5F5F5F5F5F5F5F5F5
310
F5F5F5F5F5F5F5F5F5F5F5F5F5F5F5F5F5F5F5F5F5F5F5F5F5F5F5F5F5F5F5F5F5BEF5F5F5F5F5F5F5F5F5F5F5F5F5F5F5F5E2F5E2E2E2F5E2F5F5F5F5F5F5F5F5F5F5F5F5F5F5F5F5BEF5F5F5F5F5F5F5F5F5F5F5F5F5F5F5F5F5F5F5F5F5F5F5F5F5F5F5F5F5F5F5F5F5F5F5F5F5F5F5F5F5F5F5F5F5F5F5F5F5DCF5F5F5
310
F5F5F5F5F5F5F5F5F5F5F5F5F5F5F5F5F5F5F5DCF5F5F5F5F5F5F5F5F5F5F5F5F5F5F5F5F5F5F5F5F5F5F5F5F5F5F5F5F5F5F5F5F5F5F5F5F5F5F5F5F5F5F5F5F5F5F5F5F5F5F5F5F5F5F5F5F5F5F5F5F5F5F5F5F5F5BEF5F5F5F5F5F5F5F5F5F5F5F5F5F5F5F5E2F5E2E2E2F5E2F5F5F5F5F5F5F5F5F5F5F5F5F5F5F5F5BE
310
F5F5F5F5F5F5F5F5F5F5F5F5F5F5F5F5F5F5F5F5F5F5F5F5F5F5F5F5F5F5F5F5F5F5F5F5F5F5F5F5F5F5F5F5F5F5F5F5F5DCF5F5F5F5F5F5F5F5F5F5F5F5F5F5F5F5F5F5F5F5F5F5DCF5F5F5F5F5F5F5F5F5F5F5F5F5F5F5F5F5F5F5F5F5F5F5F5F5F5F5F5F5F5F5F5F5F5F5F5F5F5F5F5F5F5F5F5F5F5F5F5F5F5F5F5F5F5
310
F5F5F5F5F5F5F5F5F5F5F5F5BEF5F5F5F5F5F5F5F5F5F5F5F5F5F5F5F5E2F5E2E2E2F5E2F5F5F5F5F5F5F5F5F5F5F5F5F5F5F5F5BEF5F5F5F5F5F5F5F5F5F5F5F5F5F5F5F5F5F5F5F5F5F5F5F5F5F5F5F5F5F5F5F5F5F5F5F5F5F5F5F5F5F5F5F5F5F5F5F5F5DCF5F5F5F5F5F5F5F5F5F5F5F5F5F5F5F5F5F5F5F5F5F5DCF5
310
F5F5F5F5F5F5F5F5F5F5F5F5F5F5F5F5F5F5F5F5F5F5F5F5F5F5F5F5F5F5F5F5F5F5F5F5F5F5F5F5F5F5F5F5F5F5F5F5F5F5F5F5F5F5F5F5F5F5F5F5F5F5F5F5F5BEF5F5F5F5F5F5F5F5F5F5F5F5F5F5F5F5E2F5E2E2E2F5E2F5F5F5F5F5F5F5F5F5F5F5F5F5F5F5F5BEF5F5F5F5F5F5F5F5F5F5F5F5F5F5F5F5F5F5F5F5F5
310
F5F5F5F5F5F5F5F5F5F5F5F5F5F5F5F5F5F5F5F5F5F5F5F5F5F5F5F5DCF5F5F5F5F5F5F5F5F5F5F5F5F5F5F5F5F5F5F5F5F5F5DCF5F5F5F5F5F5F5F5F5F5F5F5F5F5F5F5F5F5F5F5F5F5F5F5F5F5F5F5F5F5F5F5F5F5F5F5F5F5F5F5F5F5F5F5F5F5F5F5F5F5F5F5F5F5F5F5F5F5F5F5F5F5F5F5F5F5BEF5F5F5F5F5F5F5F5
310
F5F5F5F5F5F5F5F5E2F5E2E2E2F5E2F5F5F5F5F5F5F5F5F5F5F5F5F5F5F5F5BEF5F5F5F5F5F5F5F5F5F5F5F5F5F5F5F5F5F5F5F5F5F5F5F5F5F5F5F5F5F5F5F5F5F5F5F5F5F5F5F5F5F5F5F5F5F5F5F5F5DCF5F5F5F5F5F5F5F5F5F5F5F5F5F5F5F5F5F5F5F5F5F5DCF5F5F5F5F5F5F5F5F5F5F5F5F5F5F5F5F5F5F5F5F5F5
310
F5F5F5F5F5F5F5F5F5F5F5F5F5F5F5F5F5F5F5F5F5F5F5F5F5F5F5F5F5F5F5F5F5F5F5F5F5F5F5F5F5F5F5F5BEF5F5F5F5F5F5F5F5F5F5F5F5F5F5F5F5E2F5E2E2E2F5E2F5F5F5F5F5F5F5F5F5F5F5F5F5F5F5F5BEF5F5F5F5F5F5F5F5F5F5F5F5F5F5F5F5F5F5F5F5F5F5F5F5F5F5F5F5F5F5F5F5F5F5F5F5F5F5F5F5F5F5
310
F5F5F5F5F5F5F5DCF5F5272727272727272727272727272727F5F5F5F5F5DCF5F5F5F5F5F5F5F5F5F5F5F5F5F5F5F5F5F5F5F5F5F5F5F5F5F5F5F5F5F5F5F5F5F5F5F5F5F5F5F5F5F5F5F5F5F5F5F5F5F5F5F5F5F5F5F5F5F5F5F5F5F5F5F5F5F5BEF5F5F5F5F5F5F5F5F5F5F5F5F5F5F5F5E2F5E2E2E2F5E2F5F5F5F5F5F5
310
F5F5F5F5F5F5F5F5F5F5BEF5F5F5F5F5F5F5F5F5F5F5F5F5F5F5F5F5F5F5F5F5F5F5F5F5F5F5F5F5F5F5F5F5F5F5F5F5F5F5F5F5F5F5F5F5F5F5F5F5DCF5F5F5F5F5F5F5F5F5F5F5F5F5F5F5F5F5F5F5F5F5F5DCF5F5F5F5F5F5F5F5F5F5F5F5F5F5F5F5F5F5F5F5F5F5F5F5F5F5F5F5F5F5F5F5F5F5F5F5F5F5F5F5F5F5F5
310
F5F5F5F5F5F5F5F5F5F5F5F5F5F5F5F5F5F5F5F5F5F5F5BEF5F5F5F5F5F5F5F5F5F5F5F5F5F5F5F5E2F5E2E2E2F5E2F5F5F5F5F5F5F5F5F5F5F5F5F5F5F5F5BEF5F5F5F5F5F5F5F5F5F5F5F5F5F5F5F5F5F5F5F5F5F5F5F5F5F5F5F5F5F5F5F5F5F5F5F5F5F5F5F5F5F5F5F5F5F5F5F5F5DCDCDCDCDCDCDCDCDCDCDCDCDCDC
310
DCDCDCDCDCDCDCDCDCDCF5F5F5F5F5F5F5F5F5F5F5F5F5F5F5F5F5F5F5F5F5F5F5F5F5F5F5F5F5F5F5F5F5F5F5F5F5F5F5F5F5F5F5F5F5F5F5F5F5F5F5F5F5F5F5F5F5F5F5F5F5F5F5F5F5F5BEF5F5F5F5F5F5F5F5F5F5F5F5F5F5F5F5E2F5E2E2E2F5E2F5F5F5F5F5F5F5F5F5F5F5F5F5F5F5F5BEF5F5F5F5F5F5F5F5F5F5
310
F5F5F5F5F5F5F5F5F5F5F5F5F5F5F5F5F5F5F5F5F5F5F5F5F5F5F5F5F5F5F5F5F5F5F5F5F5F5F5F5F5F5F5F5F5F5F5F5F5F5F5F5F5F5F5F5F5F5F5F5F5F5F5F5F5F5F5F5F5F5F5F5F5F5F5F5F5F5F5F5F5F5F5F5F5F5F5F5F5F5F5F5F5F5F5F5F5F5F5F5F5F5F5F5F5F5F5F5F5F5F5F5F5F5F5F5F5F5F5F5F5F5F5F5F5F5F5
310
F5F5BEF5F5F5F5F5F5F5F5F5F5F5F5F5F5F5F5E2F5E2E2E2F5E2F5F5F5F5F5F5F5F5F5F5F5F5F5F5F5F5BEF5F5F5F5F5F5F5F5F5F5F5F5F5F5F5F5F5F5F5F5F5F5F5F5F5F5F5F5F5F5F5F5F5F5F5F5F5F5F5F5F5F5F5F5F5F5F5F5F5F5F5F5F5F5F5F5F5F5F5F5F5F5F5F5F5F5F5F5F5F5F5F5F5F5F5F5F5F5F5F5F5F5F5F5
310
F5F5F5F5F5F5F5F5F5F5F5F5F5F5F5F5F5F5F5F5F5F5F5F5F5F5F5F5F5F5F5F5F5F5F5F5F5F5F5F5F5F5F5F5F5F5F5F5F5F5F5F5F5F5F5BEF5F5F5F5F5F5F5F5F5F5F5F5F5F5F5F5E2F5E2E2E2F5E2F5F5F5F5F5F5F5F5F5F5F5F5F5F5F5F5BEF5F5F5F5F5F5F5F5F5F5F5F5F5F5F5F5F5F5F5F5F5F5F5F5F5F5F5F5F5F5F5
310
F5F5F5F5F5F5F5F5F5F5F5F5F5F5F5F5F5F5F5F5F5F5F5F5F5F5F5F5F5F5F5F5F5F5F5F5F5F5F5F5F5F5F5F5F5F5F5F5F5F5F5F5F5F5F5F5F5F5F5F5F5F5F5F5F5F5F5F5F5F5F5F5F5F5F5F5F5F5F5F5F5F5F5F5F5F5F5F5F5F5F5F5F5F5F5F5F5F5F5F5F5F5F5F5F5F5F5F5BEF5F5F5F5F5F5F5F5F5F5F5F5F5F5F5F5E2F5
310
E2E2E2F5E2F5F5F5F5F5F5F5F5F5F5F5F5F5F5F5F5BEF5F5F5F5F5F5F5F5F5F5F5F5F5F5F5F5F5F5F5F5F5F5F5F5F5F5F5F5F5F5F5F5F5F5F5F5F5F5F5F5F5F5F5F5F5F5F5F5F5F5F5F5F5F5F5F5F5F5F5F5F5F5F5F5F5F5F5F5F5F5F5F5F5F5F5F5F5F5F5F5F5F5F5F5F5F5F5F5F5F5F5F5F5F5F5F5F5F5F5F5F5F5F5F5F5
310
F5F5F5F5F5F5F5F5F5F5F5F5F5F5F5F5F5F5F5F5F5F5F5F5F5F5F5F5F5F5F5F5F5F5BEF5F5F5F5F5F5F5F5F5F5F5F5F5F5F5F5E2F5E2E2E2F5F5F5F5F5F5F5F5F5F5F5F5F5F5F5F5F5F5BEF5F5F5F5F5F5F5F5F5F5F5F5F5F5F5F5F5F5F5F5F5F5F5F5F5F5F5F5F5F5F5F5F5F5F5F5F5F5F5F5F5F5F5F5F5F5F5F5F5F5F5F5
310
F5F5F5F5F5F5F5F5F5F5F5F5F5F5F5F5F5F5F5F5F5F5F5F5F5F5F5F5F5F5F5F5F5F5F5F5F5F5F5F5F5F5F5F5F5F5F5F5F5F5F5F5F5F5F5F5F5F5F5F5F5F5F5F5F5F5F5F5F5F5F5F5F5F5F5F5F5F5F5F5F5F5F5F5F5F5F5BEF5F5F5F5F5F5F5F5F5F5F5F5F5F5F5F5F5F5E2E2E2F5F5F5F5F5F5F5F5F5F5F5F5F5F5F5F5F5F5
310
BEF5F5F5F5F5F5F5F5F5F5F5F5F5F5F5F5F5F5F5F5F5F5F5F5F5F5F5F5F5F5F5F5F5F5F5F5F5F5F5F5F5F5F5F5F5F5F5F5F5F5F5F5F5F5F5F5F5F5F5F5F5F5F5F5F5F5F5F5F5F5F5F5F5F5F5F5F5F5F5F5F5F5F5F5F5F5F5F5F5F5F5F5F5F5F5F5F5F5F5F5F5F5F5F5F5F5F5F5F5F5F5F5F5F5F5F5F5F5F5F5F5F5F5F5F5F5
310
F5F5F5F5F5F5F5F5F5F5F5F5F5BEF5F5F5F5F5F5F5F5F5F5F5F5F5F5F5F5F5F5E2E2E2F5F5F5F5F5F5F5F5F5F5F5F5F5F5F5F5F5F5BEF5F5F5F5F5F5F5F5F5F5F5F5F5F5F5F5F5F5F5F5F5F5F5F5F5F5F5F5F5F5F5F5F5F5F5F5F5F5F5F5F5F5F5F5F5F5F5F5F5F5F5F5F5F5F5F5F5F5F5F5F5F5F5F5F5F5F5F5F5F5F5F5F5
310
F5F5F5F5F5F5F5F5F5F5F5F5F5F5F5F5F5F5F5F5F5F5F5F5F5F5F5F5F5F5F5F5F5F5F5F5F5F5F5F5F5F5F5F5F5F5F5F5F5F5F5F5F5F5F5F5F5F5F5F5F5F5F5F5F5F5BEF5F5F5F5F5F5F5F5F5F5F5F5F5F5F5F5F5F5E2E2E2F5F5F5F5F5F5F5F5F5F5F5F5F5F5F5F5F5F5BEF5F5F5F5F5F5F5F5F5F5F5F5F5F5F5F5F5F5F5F5
310
F5F5F5F5F5F5F5F5F5F5F5F5F5F5F5F5F5F5F5F5F5F5F5F5F5F5F5F5F5F5F5F5F5F5F5F5F5F5F5F5F5F5F5F5F5F5F5F5F5F5F5F5F5F5F5F5F5F5F5F5F5F5F5F5F5F5F5F5F5F5F5F5F5F5F5F5F5F5F5F5F5F5F5F5F5F5F5F5F5F5F5F5F5F5F5F5F5F5F5F5F5F5F5F5F5F5F5F5F5F5F5F5F5F5F5F5F5F5F5BEF5F5F5F5F5F5F5
310
F5F5F5F5F5F5F5F5F5F5F5E2E2E2F5F5F5F5F5F5F5F5F5F5F5F5F5F5F5F5F5F5BEF5F5F5F5F5F5F5F5F5F5F5F5F5F5F5F5F5F5F5F5F5F5F5F5F5F5F5F5F5F5F5F5F5F5F5F5F5F5F5F5F5F5F5F5F5F5F5F5F5F5F5F5F5F5F5F5F5F5F5F5F5F5F5F5F5F5F5F5F5F5F5F5F5F5F5F5F5F5F5F5F5F5F5F5F5F5F5F5F5F5F5F5F5F5
310
F5F5F5F5F5F5F5F5F5F5F5F5F5F5F5F5F5F5F5F5F5F5F5F5F5F5F5F5F5F5F5F5F5F5F5F5F5F5F5F5F5F5F5F5F5BEF5F5F5F5F5F5F5F5F5F5F5F5F5F5F5F5F5F5E2E2E2F5F5F5F5F5F5F5F5F5F5F5F5F5F5F5F5F5F5BEF5F5F5F5F5F5F5F5F5F5F5F5F5F5F5F5F5F5F5F5F5F5F5F5F5F5F5F5F5F5F5F5F5F5F5F5F5F5F5F5F5
310
F5F5F5F5F5F5F5F5F5F5F5F5F5F5F5F5F5F5F5F5F5F5F5F5F5F5F5F5F5F5F5F5F5F5F5F5F5F5F5F5F5F5F5F5F5F5F5F5F5F5F5F5F5F5F5F5F5F5F5F5F5F5F5F5F5F5F5F5F5F5F5F5F5F5F5F5F5F5F5F5F5F5F5F5F5F5F5F5F5F5F5F5F5F5F5F5F5F5BEF5F5F5F5F5F5F5F5F5F5F5F5F5F5F5F5F5F5E2E2E2F5F5F5F5F5F5F5
310
F5F5F5F5F5F5F5F5F5F5F5BEF5F5F5F5F5F5F5F5F5F5F5F5F5F5F5F5F5F5F5F5F5F5F5F5F5F5F5F5F5F5F5F5F5F5F5F5F5F5F5F5F5F5F5F5F5F5F5F5F5F5F5F5F5F5F5F5F5F5F5F5F5F5F5F5F5F5F5F5F5F5F5F5F5F5F5F5F5F5F5F5F5F5F5F5F5F5F5F5F5F5F5F5F5F5F5F5F5F5F5F5F5F5F5F5F5F5F5F5F5F5F5F5F5F5F5
310
F5F5F5F5F5F5F5F5F5F5F5F5F5F5F5F5F5F5F5F5F5F5F5F5BEF5F5F5F5F5F5F5F5F5F5F5F5F5F5F5F5F5F5E2E2E2F5F5F5F5F5F5F5F5F5F5F5F5F5F5F5F5F5F5BEF5F5F5F5F5F5F5F5F5F5F5F5F5F5F5F5F5F5F5F5F5F5F5F5F5F5F5F5F5F5F5F5F5F5F5F5F5F5F5F5F5F5F5F5F5F5F5F5F5F5F5F5F5F5F5F5F5F5F5F5F5F5
310
F5F5F5F5F5F5F5F5F5F5F5F5F5F5F5F5F5F5F5F5F5F5F5F5F5F5F5F5F5F5F5F5F5F5F5F5F5F5F5F5F5F5F5F5F5F5F5F5F5F5F5F5F5F5F5F5F5F5F5F5F5F5F5F5F5F5F5F5F5F5F5F5F5F5F5F5F5BEF5F5F5F5F5F5F5F5F5F5F5F5F5F5F5F5F5F5E2E2E2F5E2F5F5F5F5F5F5F5F5F5F5F5F5F5F5F5F5BEF5F5F5F5F5F5F5F5F5
310
F5F5F5F5F5F5F5F5F5F5F5F5F5F5F5F5F5F5F5F5F5F5F5F5F5F5F5F5F5F5F5F5F5F5F5F5F5F5F5F5F5F5F5F5F5F5F5F5F5F5F5F5F5F5F5F5F5F5F5F5F5F5F5F5F5F5F5F5F5F5F5F5F5F5F5F5F5F5F5F5F5F5F5F5F5F5F5F5F5F5F5F5F5F5F5F5F5F5F5F5F5F5F5F5F5F5F5F5F5F5F5F5F5F5F5F5F5F5F5F5F5F5F5F5F5F5F5
310
F5F5F5BEF5F5F5F5F5F5F5F5F5F5F5F5F5F5F5F5E2F5E2E2E2F5E2F5F5F5F5F5F5F5F5F5F5F5F5F5F5F5F5BEF5F5F5F5F5F5F5F5F5F5F5F5F5F5F5F5F5F5F5F5F5F5F5F5F5F5F5F5F5F5F5F5F5F5F5F5F5F5F5F5F5F5F5F5F5F5F5F5F5F5F5F5F5F5F5F5F5F5F5F5F5F5F5F5F5F5F5F5F5F5F5F5F5F5F5F5F5F5F5F5F5F5F5
310
F5F5F5F5F5F5F5F5F5F5F5F5F5F5F5F5F5F5F5F5F5F5F5F5F5F5F5F5F5F5F5F5F5F5F5F5F5F5F5F5F5F5F5F5F5F5F5F5F5F5F5F5F5F5F5F5BEF5F5F5F5F5F5F5F5F5F5F5F5F5F5F5F5E2F5E2E2E2F5E2F5F5F5F5F5F5F5F5F5F5F5F5F5F5F5F5BEF5F5F5F5F5F5F5F5F5F5F5F5F5F5F5F5F5F5F5F5F5F5F5F5F5F5F5F5F5F5
310
F5F5F5F5F5F5F5F5F5F5F5F5F5F5F5F5F5F5F5F5F5F5F5F5F5F5F5F5F5F5F5F5F5F5F5F5F5F5F5F5F5F5F5F5F5F5F5F5F5F5F5F5F5F5F5F5F5F5F5F5F5F5F5F5F5F5F5F5F5F5F5F5F5F5F5F5F5F5F5F5F5F5F5F5F5F5F5F5F5F5F5F5F5F5F5F5F5F5F5F5F5F5F5F5F5F5F5F5F5BEF5F5F5F5F5F5F5F5F5F5F5F5F5F5F5F5E2
310
F5E2E2E2F5E2F5F5F5F5F5F5F5F5F5F5F5F5F5F5F5F5BEF5F5F5F5F5F5F5F5F5F5F5F5F5F5F5F5F5F5F5F5F5F5F5F5F5F5F5F5F5F5F5F5F5F5F5F5F5F5F5F5F5F5F5F5F5F5F5F5F5F5F5F5F5F5F5F5F5F5F5F5F5F5F5F5F5F5F5F5F5F5F5F5F5F5F5F5F5F5F5F5F5F5F5F5F5F5F5F5F5F5F5F5F5F5F5F5F5F5F5F5F5F5F5F5
310
F5F5F5F5F5F5F5F5F5F5F5F5F5F5F5F5F5F5F5F5F5F5F5F5F5F5F5F5F5F5F5F5F5F5F5BEF5F5F5F5F5F5F5F5F5F5F5F5F5F5F5F5E2F5E2E2E2F5E2F5F5F5F5F5F5F5F5F5F5F5F5F5F5F5F5BEF5F5F5F5F5F5F5F5F5F5F5F5F5F5F5F5F5F5F5F5F5F5F5F5F5F5F5F5F5F5F5F5F5F5F5F5F5F5F5F5F5F5F5F5F5F5F5F5F5F5F5
310
F5F5F5F5F5F5F5F5F5F5F5F5F5F5F5F5F5F5F5F5F5F5F5F5F5F5F5F5F5F5F5F5F5F5F5F5F5F5F5F5F5F5F5F5F5F5F5F5F5F5F5F5F5F5F5F5F5F5F5F5F5F5F5F5F5F5F5F5F5F5F5F5F5F5F5F5F5F5F5F5F5F5F5F5F5F5F5F5BEF5F5F5F5F5F5F5F5F5F5F5F5F5F5F5F5E2F5E2E2E2F5E2F5F5F5F5F5F5F5F5F5F5F5F5F5F5F5
310
F5BEF5F5F5F5F5F5F5F5F5F5F5F5F5F5F5F5F5F5F5F5F5F5F5F5F5F5F5F5F5F5F5F5F5F5F5F5F5F5F5F5F5F5F5F5F5F5F5F5F5F5F5F5F5F5F5F5F5F5F5F5F5F5F5F5F5F5F5F5F5F5F5F5F5F5F5F5F5F5F5F5F5F5F5F5F5F5F5F5F5F5F5F5F5F5F5F5F5F5F5F5F5F5F5F5F5F5F5F5F5F5F5F5F5F5F5F5F5F5F5F5F5F5F5F5F5
310
F5F5F5F5F5F5F5F5F5F5F5F5F5F5BEF5F5F5F5F5F5F5F5F5F5F5F5F5F5F5F5E2F5E2E2E2F5E2F5F5F5F5F5F5F5F5F5F5F5F5F5F5F5F5BEF5F5F5F5F5F5F5F5F5F5F5F5F5F5F5F5F5F5F5F5F5F5F5F5F5F5F5F5F5F5F5F5F5F5F5F5F5F5F5F5F5F5F5F5F5F5F5F5F5F5F5F5F5F5F5F5F5F5F5F5F5F5F5F5F5F5F5F5F5F5F5F5
310
F5F5F5F5F5F5F5F5F5F5F5F5F5F5F5F5F5F5F5F5F5F5F5F5F5F5F5F5F5F5F5F5F5F5F5F5F5F5F5F5F5F5F5F5F5F5F5F5F5F5F5F5F5F5F5F5F5F5F5F5F5F5F5F5F5F5F5BEF5F5F5F5F5F5F5F5F5F5F5F5F5F5F5F5E2F5E2E2E2F5E2F5F5F5F5F5F5F5F5F5F5F5F5F5F5F5F5BEF5F5F5F5F5F5F5F5F5F5F5F5F5F5F5F5F5F5F5
310
F5F5F5F5F5F5F5F5F5F5F5F5F5F5F5F5F5F5F5F5F5F5F5F5F5F5F5F5F5F5F5F5F5F5F5F5F5F5F5F5F5F5F5F5F5F5F5F5F5F5F5F5F5F5F5F5F5F5F5F5F5F5F5F5F5F5F5F5F5F5F5F5F5F5F5F5F5F5F5F5F5F5F5F5F5F5F5F5F5F5F5F5F5F5F5F5F5F5F5F5F5F5F5F5F5F5F5F5F5F5F5F5F5F5F5F5F5F5F5F5BEF5F5F5F5F5F5
310
F5F5F5F5F5F5F5F5F5F5E2F5E2E2E2F5E2F5F5F5F5F5F5F5F5F5F5F5F5F5F5F5F5BEF5F5F5F5F5F5F5F5F5F5F5F5F5F5F5F5F5F5F5F5F5F5F5F5F5F5F5F5F5F5F5F5F5F5F5F5F5F5F5F5F5F5F5F5F5F5F5F5F5F5F5F5F5F5F5F5F5F5F5F5F5F5F5F5F5F5F5F5F5F5F5F5F5F5F5F5F5F5F5F5F5F5F5F5F5F5F5F5F5F5F5F5F5
310
F5F5F5F5F5F5F5F5F5F5F5F5F5F5F5F5F5F5F5F5F5F5F5F5F5F5F5F5F5F5F5F5F5F5F5F5F5F5F5F5F5F5F5F5F5F5BEF5F5F5F5F5F5F5F5F5F5F5F5F5F5F5F5E2F5E2E2E2F5E2F5F5F5F5F5F5F5F5F5F5F5F5F5F5F5F5BEF5F5F5F5F5F5F5F5F5F5F5F5F5F5F5F5F5F5F5F5F5F5F5F5F5F5F5F5F5F5F5F5F5F5F5F5F5F5F5F5
310
F5F5F5F5F5F5F5F5F5F5F5F5F5F5F5F5F5F5F5F5F5F5F5F5F5F5F5F5F5F5F5F5F5F5F5F5F5F5F5F5F5F5F5F5F5F5F5F5F5F5F5F5F5F5F5F5F5F5F5F5F5F5F5F5F5F5F5F5F5F5F5F5F5F5F5F5F5F5F5F5F5F5F5F5F5F5F5F5F5F5F5F5F5F5F5F5F5F5F5BEF5F5F5F5F5F5F5F5F5F5F5F5F5F5F5F5E2F5E2E2E2F5E2F5F5F5F5
310
F5F5F5F5F5F5F5F5F5F5F5F5BEF5F5F5F5F5F5F5F5F5F5F5F5F5F5F5F5F5F5F5F5F5F5F5F5F5F5F5F5F5F5F5F5F5F5F5F5F5F5F5F5F5F5F5F5F5F5F5F5F5F5F5F5F5F5F5F5F5F5F5F5F5F5F5F5F5F5F5F5F5F5F5F5F5F5F5F5F5F5F5F5F5F5F5F5F5F5F5F5F5F5F5F5F5F5F5F5F5F5F5F5F5F5F5F5F5F5F5F5F5F5F5F5F5F5
310
F5F5F5F5F5F5F5F5F5F5F5F5F5F5F5F5F5F5F5F5F5F5F5F5F5BEF5F5F5F5F5F5F5F5F5F5F5F5F5F5F5F5E2F5E2E2E2F5E2F5F5F5F5F5F5F5F5F5F5F5F5F5F5F5F5BEF5F5F5F5F5F5F5F5F5F5F5F5F5F5F5F5F5F5F5F5F5F5F5F5F5F5F5F5F5F5F5F5F5F5F5F5F5F5F5F5F5F5F5F5F5F5F5F5F5F5F5F5F5F5F5F5F5F5F5F5F5
310
F5F5F5F5F5F5F5F5F5F5F5F5F5F5F5F5F5F5F5F5F5F5F5F5F5F5F5F5F5F5F5F5F5F5F5F5F5F5F5F5F5F5F5F5F5F5F5F5F5F5F5F5F5F5F5F5F5F5F5F5F5F5F5F5F5F5F5F5F5F5F5F5F5F5F5F5F5F5BEF5F5F5F5F5F5F5F5F5F5F5F5F5F5F5F5E2F5E2E2E2F5E2F5F5F5F5F5F5F5F5F5F5F5F5F5F5F5F5BEF5F5F5F5F5F5F5F5
310
F5F5F5F5F5F5F5F5F5F5F5F5F5F5F5F5F5F5F5F5F5F5F5F5F5F5F5F5F5F5F5F5F5F5F5F5F5F5F5F5F5F5F5F5F5F5F5F5F5F5F5F5F5F5F5F5F5F5F5F5F5F5F5F5F5F5F5F5F5F5F5F5F5F5F5F5F5F5F5F5F5F5F5F5F5F5F5F5F5F5F5F5F5F5F5F5F5F5F5F5F5F5F5F5F5F5F5F5F5F5F5F5F5F5F5F5F5F5F5F5F5F5F5F5F5F5F5
310
F5F5F5F5BEF5F5F5F5F5F5F5F5F5F5F5F5F5F5F5F5E2F5E2E2E2F5E2F5F5F5F5F5F5F5F5F5F5F5F5F5F5F5F5BEF5F5F5F5F5F5F5F5F5F5F5F5F5F5F5F5F5F5F5F5F5F5F5F5F5F5F5F5F5F5F5F5F5F5F5F5F5F5F5F5F5F5F5F5F5F5F5F5F5F5F5F5F5F5F5F5F5F5F5F5F5F5F5F5F5F5F5F5F5F5F5F5F5F5F5F5F5F5F5F5F5F5
310
F5F5F5F5F5F5F5F5F5F5F5F5F5F5F5F5F5F5F5F5F5F5F5F5F5F5F5F5F5F5F5F5F5F5F5F5F5F5F5F5F5F5F5F5F5F5F5F5F5F5F5F5F5F5F5F5F5BEF5F5F5F5F5F5F5F5F5F5F5F5F5F5F5F5E2F5E2E2E2F5E2F5F5F5F5F5F5F5F5F5F5F5F5F5F5F5F5BEF5F5F5F5F5F5F5F5F5F5F5F5F5F5F5F5F5F5F5F5F5F5F5F5F5F5F5F5F5
310
F5F5F5F5F5F5F5F5F5F5F5F5F5F5F5F5F5F5F5F5F5F5F5F5F5F5F5F5F5F5F5F5F5F5F5F5F5F5F5F5F5F5F5F5F5F5F5F5F5F5F5F5F5F5F5F5F5F5F5F5F5F5F5F5F5F5F5F5F5F5F5F5F5F5F5F5F5F5F5F5F5F5F5F5F5F5F5F5F5F5F5F5F5F5F5F5F5F5F5F5F5F5F5F5F5F5F5F5F5F5BEF5F5F5F5F5F5F5F5F5F5F5F5F5F5F5F5
310
E2F5E2E2E2F5E2F5F5F5F5F5F5F5F5F5F5F5F5F5F5F5F5BEF5F5F5F5F5F5F5F5F5F5F5F5F5F5F5F5F5F5F5F5F5F5F5F5F5F5F5F5F5F5F5F5F5F5F5F5F5F5F5F5F5F5F5F5F5F5F5F5F5F5F5F5F5F5F5F5F5F5F5F5F5F5F5F5F5F5F5F5F5F5F5F5F5F5F5F5F5F5F5F5F5F5F5F5F5F5F5F5F5F5F5F5F5F5F5F5F5F5F5F5F5F5F5
310
F5F5F5F5F5F5F5F5F5F5F5F5F5F5F5F5F5F5F5F5F5F5F5F5F5F5F5F5F5F5F5F5F5F5F5F5BEF5F5F5F5F5F5F5F5F5F5F5F5F5F5F5F5E2F5E2E2E2F5F5F5F5F5F5F5F5F5F5F5F5F5F5F5F5F5F5BEF5F5F5F5F5F5F5F5F5F5F5F5F5F5F5F5F5F5F5F5F5F5F5F5F5F5F5F5F5F5F5F5F5F5F5F5F5F5F5F5F5F5F5F5F5F5F5F5F5F5
310
F5F5F5F5F5F5F5F5F5F5F5F5F5F5F5F5F5F5F5F5F5F5F5F5F5F5F5F5F5F5F5F5F5F5F5F5F5F5F5F5F5F5F5F5F5F5F5F5F5F5F5F5F5F5F5F5F5F5F5F5F5F5F5F5F5F5F5F5F5F5F5F5F5F5F5F5F5F5F5F5F5F5F5F5F5F5F5F5F5BEF5F5F5F5F5F5F5F5F5F5F5F5F5F5F5F5F5F5E2E2E2F5F5F5F5F5F5F5F5F5F5F5F5F5F5F5F5
310
F5F5BEF5F5F5F5F5F5F5F5F5F5F5F5F5F5F5F5F5F5F5F5F5F5F5F5F5F5F5F5F5F5F5F5F5F5F5F5F5F5F5F5F5F5F5F5F5F5F5F5F5F5F5F5F5F5F5F5F5F5F5F5F5F5F5F5F5F5F5F5F5F5F5F5F5F5F5F5F5F5F5F5F5F5F5F5F5F5F5F5F5F5F5F5F5F5F5F5F5F5F5F5F5F5F5F5F5F5F5F5F5F5F5F5F5F5F5F5F5F5F5F5F5F5F5F5
310
F5F5F5F5F5F5F5F5F5F5F5F5F5F5F5BEF5F5F5F5F5F5F5F5F5F5F5F5F5F5F5F5F5F5E2E2E2F5F5F5F5F5F5F5F5F5F5F5F5F5F5F5F5F5F5BEF5F5F5F5F5F5F5F5F5F5F5F5F5F5F5F5F5F5F5F5F5F5F5F5F5F5F5F5F5F5F5F5F5F5F5F5F5F5F5F5F5F5F5F5F5F5F5F5F5F5F5F5F5F5F5F5F5F5F5F5F5F5F5F5F5F5F5F5F5F5F5
310
F5F5F5F5F5F5F5F5F5F5F5F5F5F5F5F5F5F5F5F5F5F5F5F5F5F5F5F5F5F5F5F5F5F5F5F5F5F5F5F5F5F5F5F5F5F5F5F5F5F5F5F5F5F5F5F5F5F5F5F5F5F5F5F5F5F5F5F5BEF5F5F5F5F5F5F5F5F5F5F5F5F5F5F5F5F5F5E2E2E2F5F5F5F5F5F5F5F5F5F5F5F5F5F5F5F5F5F5BEF5F5F5F5F5F5F5F5F5F5F5F5F5F5F5F5F5F5
310
F5F5F5F5F5F5F5F5F5F5F5F5F5F5F5F5F5F5F5F5F5F5F5F5F5F5F5F5F5F5F5F5F5F5F5F5F5F5F5F5F5F5F5F5F5F5F5F5F5F5F5F5F5F5F5F5F5F5F5F5F5F5F5F5F5F5F5F5F5F5F5F5F5F5F5F5F5F5F5F5F5F5F5F5F5F5F5F5F5F5F5F5F5F5F5F5F5F5F5F5F5F5F5F5F5F5F5F5F5F5F5F5F5F5F5F5F5F5F5F5F5BEF5F5F5F5F5
310
F5F5F5F5F5F5F5F5F5F5F5F5F5E2E2E2F5F5F5F5F5F5F5F5F5F5F5F5F5F5F5F5F5F5BEBEBEBEBEBEBEBEBEBEBEBEBEBEBEBEBEBEBEBEBEBEBEBEBEBEBEBEBEBEBEBEBEBEBEBEBEBEBEBEBEBEBEBEBEBEBEBEBEBEBEBEBEBEBEBEBEBEBEBEBEBEBEBEBEBEBEBEBEBEBEBEBEBEBEBEBEBEBEBEBEBEBEBEBEBEBEBEBEBEBEBEBE
310
BEBEBEBEBEBEBEBEBEBEBEBEBEBEBEBEBEBEBEBEBEBEBEBEBEBEBEBEBEBEBEBEBEBEBEBEBEBEBEBEBEBEBEBEBEBEBEBEF5F5F5F5F5F5F5F5F5F5F5F5F5F5F5F5F5F5E2E2E2F5F5F5F5F5F5F5F5F5F5F5F5F5F5F5F5F5F5F5F5F5F5F5F5F5F5F5F5F5F5F5F5F5F5F5F5F5F5F5F5F5F5F5F5F5F5F5F5F5F5F5F5F5F5F5F5F5F5
310
F5F5F5F5F5F5F5F5F5F5F5F5F5F5F5F5F5F5F5F5F5F5F5F5F5F5F5F5F5F5F5F5F5F5F5F5F5F5F5F5F5F5F5F5F5F5F5F5F5F5F5F5F5F5F5F5F5F5F5F5F5F5F5F5F5F5F5F5F5F5F5F5F5F5F5F5F5F5F5F5F5F5F5F5F5F5F5F5F5F5F5F5F5F5F5F5F5F5F5F5F5F5F5F5F5F5F5F5F5F5F5F5F5F5F5F5F5F5F5E2E2E2F5F5F5F5F5
310
F5F5F5F5F5F5F5F5F5F5F5F5F5F5F5F5F5F5F5F5F5F5F5F5F5F5F5F5F5F5F5F5F5F5F5F5F5F5F5F5F5F5F5F5F5F5F5F5F5F5F5F5F5F5F5F5F5F5F5F5F5F5F5F5F5F5F5F5F5F5F5F5F5F5F5F5F5F5F5F5F5F5F5F5F5F5F5F5F5F5F5F5F5F5F5F5F5F5F5F5F5F5F5F5F5F5F5F5F5F5F5F5F5F5F5F5F5F5F5F5F5F5F5F5F5F5F5
310
F5F5F5F5F5F5F5F5F5F5F5F5F5F5F5F5F5F5F5F5F5F5F5F5F5F5F5F5F5F5F5F5F5F5F5F5F5F5F5F5F5F5F5F5F5E2E2E2F5F5F5F5F5F5F5F5F5F5F5F5F5F5F5F5F5F5F5F5F5F5F5F5F5F5F5F5F5F5F5F5F5F5F5F5F5F5F5F5F5F5F5F5F5F5F5F5F5F5F5F5F5F5F5F5F5F5F5F5F5F5F5F5F5F5F5F5F5F5F5F5F5F5F5F5F5F5F5
310
F5F5F5F5F5F5F5F5F5F5F5F5F5F5F5F5F5F5F5F5F5F5F5F5F5F5F5F5F5F5F5F5F5F5F5F5F5F5F5F5F5F5F5F5F5F5F5F5F5F5F5F5F5F5F5F5F5F5F5F5F5F5F5F5F5F5F5F5F5F5F5F5F5F5F5F5F5F5F5F5F5F5F5F5F5F5F5F5F5F5F5F5F5F5F5F5F5F5E2E2E2F5F5F5F5F5F5F5F5F5F5F5F5F5F5F5F5F5F5F5F5F5F5F5F5F5F5
310
F5F5F5F5F5F5F5F5F5F5F5F5F5F5F5F5F5F5F5F5F5F5F5F5F5F5F5F5F5F5F5F5F5F5F5F5F5F5F5F5F5F5F5F5F5F5F5F5F5F5F5F5F5F5F5F5F5F5F5F5F5F5F5F5F5F5F5F5F5F5F5F5F5F5F5F5F5F5F5F5F5F5F5F5F5F5F5F5F5F5F5F5F5F5F5F5F5F5F5F5F5F5F5F5F5F5F5F5F5F5F5F5F5F5F5F5F5F5F5F5F5F5F5F5F5F5F5
310
F5F5F5F5F5F5F5F5F5F5F5F5F5F5F5F5F5F5F5F5F5F5F5F5E2E2E2F5E2F5F5F5F5F5F5F5F5F5F5F5F5F5F5F5F5F5F5F5F5F5F5F5F5F5F5F5F5F5F5F5F5F5F5F5F5F5F5F5F5F5F5F5F5F5F5F5F5F5F5F5F5F5F5F5F5F5F5F5F5F5F5F5F5F5F5F5F5F5F5F5F5F5F5F5F5F5F5F5F5F5F5F5F5F5F5F5F5F5F5F5F5F5F5F5F5F5F5
310
F5F5F5F5F5F5F5F5F5F5F5F5F5F5F5F5F5F5F5F5F5F5F5F5F5F5F5F5F5F5F5F5F5F5F5F5F5F5F5F5F5F5F5F5F5F5F5F5F5F5F5F5F5F5F5F5F5F5F5F5F5F5F5F5F5F5F5F5F5F5F5F5F5F5F5E2F5E2E2E2F5E2F5F5F5F5F5F5F5F5F5F5F5F5F5F5F5F5F5F5F5F5F5F5F5F5F5F5F5F5F5F5F5F5F5F5F5F5F5F5F5F5F5F5F5F5F5
310
F5F5F5F5F5F5F5F5F5F5F5F5F5F5F5F5F5F5F5F5F5F5F5F5F5F5F5F5F5F5F5F5F5F5F5F5F5F5F5F5F5F5F5F5F5F5F5F5F5F5F5F5F5F5F5F5F5F5F5F5F5F5F5F5F5F5F5F5F5F5F5F5F5F5F5F5F5F5F5F5F5F5F5F5F5F5F5F5F5F5F5F5F5F5F5F5F5F5F5F5F5F5F5F5F5F5F5F5F5F5F5F5F5F5F5F5F5F5F5F5F5F5F5F5F5F5F5
310
F5E2F5E2E2E2F5E2F5F5F5F5F5F5F5F5F5F5F5F5F5F5F5F5F5F5F5F5F5F5F5F5F5F5F5F5F5F5F5F5F5F5F5F5F5F5F5F5F5F5F5F5F5F5F5F5F5F5F5F5F5F5F5F5F5F5F5F5F5F5F5F5F5F5F5F5F5F5F5F5F5F5F5F5F5F5F5F5F5F5F5F5F5F5F5F5F5F5F5F5F5F5F5F5F5F5F5F5F5F5F5F5F5F5F5F5F5F5F5F5F5F5F5F5F5F5F5
310
F5F5F5F5F5F5F5F5F5F5F5F5F5F5F5F5F5F5F5F5F5F5F5F5F5F5F5F5F5F5F5F5F5F5F5F5F5F5F5F5F5F5F5F5F5F5F5F5F5F5F5F5F5F5E2F5E2E2E2F5E2F5F5F5F5F5F5F5F5F5F5F5F5F5F5F5F5F5F5F5F5F5F5F5F5F5F5F5F5F5F5F5F5F5F5F5F5F5F5F5F5F5F5F5F5F5F5F5F5F5F5F5F5F5F5F5F5F5F5F5F5F5F5F5F5F5F5
310
F5F5F5F5F5F5F5F5F5F5F5F5F5F5F5F5F5F5F5F5F5F5F5F5F5F5F5F5F5F5F5F5F5F5F5F5F5F5F5F5F5F5F5F5F5F5F5F5F5F5F5F5F5F5F5F5F5F5F5F5F5F5F5F5F5F5F5F5F5F5F5F5F5F5F5F5F5F5F5F5F5F5F5F5F5F5F5F5F5F5F5F5F5F5F5F5F5F5F5F5F5F5F5F5F5F5F5E2F5E2E2E2F5E2F5F5F5F5F5F5F5F5F5F5F5F5F5
310
F5F5F5F5F5F5F5F5F5F5F5F5F5F5F5F5F5F5F5F5F5F5F5F5F5F5F5F5F5F5F5F5F5F5F5F5F5F5F5F5F5F5F5F5F5F5F5F5F5F5F5F5F5F5F5F5F5F5F5F5F5F5F5F5F5F5F5F5F5F5F5F5F5F5F5F5F5F5F5F5F5F5F5F5F5F5F5F5F5F5F5F5F5F5F5F5F5F5F5F5F5F5F5F5F5F5F5F5F5F5F5F5F5F5F5F5F5F5F5F5F5F5F5F5F5F5F5
310
F5F5F5F5F5F5F5F5F5F5F5F5F5F5F5F5F5F5F5F5F5F5F5F5F5F5F5F5F5F5F5F5F5E2F5E2E2E2F5E2F5F5F5F5F5F5F5F5F5F5F5F5F5F5F5F5F5F5F5F5F5F5F5F5F5F5F5F5F5F5F5F5F5F5F5F5F5F5F5F5F5F5F5F5F5F5F5F5F5F5F5F5F5F5F5F5F5F5F5F5F5F5F5F5F5F5F5F5F5F5F5F5F5F5F5F5F5F5F5F5F5F5F5F5F5F5F5
310
F5F5F5F5F5F5F5F5F5F5F5F5F5F5F5F5F5F5F5F5F5F5F5F5F5F5F5F5F5F5F5F5F5F5F5F5F5F5F5F5F5F5F5F5F5F5F5F5F5F5F5F5F5F5F5F5F5F5F5F5F5F5F5F5F5F5F5F5F5F5F5F5F5F5F5F5F5F5F5F5F5F5F5F5F5F5E2F5E2E2E2F5E2F5F5F5F5F5F5F5F5F5F5F5F5F5F5F5F5F5F5F5F5F5F5F5F5F5F5F5F5F5F5F5F5F5F5
310
F5F5F5F5F5F5F5F5F5F5F5F5F5F5F5F5F5F5F5F5F5F5F5F5F5F5F5F5F5F5F5F5F5F5F5F5F5F5F5F5F5F5F5F5F5F5F5F5F5F5F5F5F5F5F5F5F5F5F5F5F5F5F5F5F5F5F5F5F5F5F5F5F5F5F5F5F5F5F5F5F5F5F5F5F5F5F5F5F5F5F5F5F5F5F5F5F5F5F5F5F5F5F5F5F5F5F5F5F5F5F5F5F5F5F5F5F5F5F5F5F5F5F5F5F5F5F5
310
F5F5F5F5F5F5F5F5F5F5F5F5E2F5E2E2E2F5E2E2E2E2E2E2E2E2F5F5F5F5F5F5F5F5F5E2E2E2E2E2E2E2E2E2E2E2E2E2E2E2E2F5F5F5F5F5F5F5F5F5E2E2E2E2E2E2E2E2E2E2E2E2E2E2E2E2F5F5F5F5F5F5F5F5F5E2E2E2E2E2E2E2E2E2E2E2E2E2E2E2E2F5F5F5F5F5F5F5F5F5E2E2E2E2E2E2E2E2E2E2E2E2E2E2E2E2F5
310
F5F5F5F5F5F5F5F5E2E2E2E2E2E2E2E2E2E2E2E2E2E2E2E2F5F5F5F5F5F5F5F5F5E2E2E2E2E2E2E2E2E2E2E2E2E2E2E2E2F5F5F5F5F5F5F5F5F5E2E2E2E2E2E2E2E2F5E2E2E2F5F5F5F5F5F5F5F5F5F5F5F5F5F5F5F5F5F5F5F5F5F5F5F5F5F5F5F5F5F5F5F5F5F5F5F5F5F5F5F5F5F5F5F5F5F5F5F5F5F5F5F5F5F5F5F5F5
310
F5F5F5F5F5F5F5F5F5F5F5F5F5F5F5F5F5F5F5F5F5F5F5F5F5F5F5F5F5F5F5F5F5F5F5F5F5F5F5F5F5F5F5F5F5F5F5F5F5F5F5F5F5F5F5F5F5F5F5F5F5F5F5F5F5F5F5F5F5F5F5F5F5F5F5F5F5F5F5F5F5F5F5F5F5F5F5F5F5F5F5F5F5F5F5F5F5F5F5F5F5F5F5F5F5F5F5F5F5F5F5F5F5F5F5F5F5F5F5F5E2EFE2E2E2E2E2
310
E2E2E2E2E2E2E2E2E2E2E2E2E2E2E2E2E2E2E2E2E2E2E2E2E2E2E2E2E2E2E2E2E2E2E2E2E2E2E2E2E2E2E2E2E2E2E2E2E2E2E2E2E2E2E2E2E2E2E2E2E2E2E2E2E2E2E2E2E2E2E2E2E2E2E2E2E2E2E2E2E2E2E2E2E2E2E2E2E2E2E2E2E2E2E2E2E2E2E2E2E2E2E2E2E2E2E2E2E2E2E2E2E2E2E2E2E2E2E2E2E2E2E2E2E2E2E2
310
E2E2E2E2E2E2E2E2E2E2E2E2E2E2E2E2E2E2E2E2E2E2E2E2E2E2E2E2E2E2E2E2E2E2E2E2E2E2E2E2E2E2E2E2E2E2E2EF
  0
XRECORD
  5
77E6
102
{ACAD_REACTORS
330
77E5
102
}
330
77E5
100
AcDbXrecord
280
     1
102
SHADEPLOT
 70
     1
102
SHADEPLOTRESLEVEL
 70
     2
102
SHADEPLOTCUSTOMDPI
 70
   300
  0
XRECORD
  5
77EA
102
{ACAD_REACTORS
330
77E9
102
}
330
77E9
100
AcDbXrecord
280
     1
102
MATERIAL
148
0.0
149
0.0
149
0.0
 93
        0
 94
       63
282
     0
 72
     1
 77
     1
171
     1
175
     1
179
     1
273
     0
  0
XRECORD
  5
77E8
102
{ACAD_REACTORS
330
77E7
102
}
330
77E7
100
AcDbXrecord
280
     1
102
MATERIAL
148
0.0
149
0.0
149
0.0
 93
        0
 94
       63
282
     0
 72
     1
 77
     1
171
     1
175
     1
179
     1
273
     0
  0
XRECORD
  5
77F1
102
{ACAD_REACTORS
330
5123
102
}
330
5123
100
AcDbXrecord
280
     1
102
MATERIAL
148
0.0
149
0.0
149
0.0
 93
        0
 94
       63
282
     0
 72
     1
 77
     1
171
     1
175
     1
179
     1
273
     1
  0
XRECORD
  5
5124
102
{ACAD_REACTORS
330
5123
102
}
330
5123
100
AcDbXrecord
280
     1
300
<Material id="{99120C30-EB7F-4CE3-A8EC-E4A5AC8B9576}" app="3DSVIZ">^M^J^I<LinearUnits unitType="m" unitScale="1.0"/>^M^J^I<ArchitecturalMaterial name="General.Chip">^M^J^I^I<ArchTemplateParameters name="Paper" classid_A="1901925249" classid_B="1933333956">^M^J^I^I^I<Arc
300
hShaderType type="Phong"/>^M^J^I^I^I<ArchReflectivity>^M^J^I^I^I^I<RGBf r="0.65" g="0.65" b="0.65"/>^M^J^I^I^I</ArchReflectivity>^M^J^I^I^I<ArchMinReflectivity>0.3</ArchMinReflectivity>^M^J^I^I^I<ArchMaxReflectivity>0.7</ArchMaxReflectivity>^M^J^I^I^I<ArchShininess>0.0</ArchShininess>^M
300
^J^I^I^I<ArchMinShininess>0.0</ArchMinShininess>^M^J^I^I^I<ArchMaxShinness>1.0</ArchMaxShinness>^M^J^I^I^I<ArchTransparency>0.0</ArchTransparency>^M^J^I^I^I<ArchMinTransparency>0.0</ArchMinTransparency>^M^J^I^I^I<ArchMaxTransparency>0.0</ArchMaxTransparency>^M^J^I^I^I<ArchIndexOfRefr
300
action>1.0</ArchIndexOfRefraction>^M^J^I^I^I<ArchMinIndexOfRefraction>1.0</ArchMinIndexOfRefraction>^M^J^I^I^I<ArchMaxIndexOfRefraction>1.0</ArchMaxIndexOfRefraction>^M^J^I^I^I<ArchSetParameters>1</ArchSetParameters>^M^J^I^I</ArchTemplateParameters>^M^J^I^I<ArchMatParameters>^M^J
300
^I^I^I<ArchDiffuseColor>^M^J^I^I^I^I<RGBf r="0.647059" g="0.639216" b="0.6"/>^M^J^I^I^I</ArchDiffuseColor>^M^J^I^I^I<ArchIndexOfRefraction>1.0</ArchIndexOfRefraction>^M^J^I^I^I<ArchTwoSided>0</ArchTwoSided>^M^J^I^I^I<ArchEmitLuminance>0</ArchEmitLuminance>^M^J^I^I^I<ArchColorBleedScale>1.
300
0</ArchColorBleedScale>^M^J^I^I^I<ArchReflectanceScale>1.0</ArchReflectanceScale>^M^J^I^I^I<ArchIndirectBumpAmount>1.0</ArchIndirectBumpAmount>^M^J^I^I^I<ArchTransmittanceScale>1.0</ArchTransmittanceScale>^M^J^I^I^I<ArchUseTextureSize>1</ArchUseTextureSize>^M^J^I^I^I<ArchTextureW
300
idth>40.0</ArchTextureWidth>^M^J^I^I^I<ArchTextureHeight>40.0</ArchTextureHeight>^M^J^I^I^I<ArchTextureUOffset>0.0</ArchTextureUOffset>^M^J^I^I^I<ArchTextureVOffset>0.0</ArchTextureVOffset>^M^J^I^I^I<ArchDiffuseAmount>1.0</ArchDiffuseAmount>^M^J^I^I^I<ArchShininess>0.0</ArchShini
300
ness>^M^J^I^I^I<ArchTransparency>0.0</ArchTransparency>^M^J^I^I^I<ArchLuminance>0.0</ArchLuminance>^M^J^I^I^I<ArchBumpMapAmount>0.15</ArchBumpMapAmount>^M^J^I^I^I<ArchCutoutMapAmount>1.0</ArchCutoutMapAmount>^M^J^I^I^I<ArchDisplayMapInViewport>0</ArchDisplayMapInViewport>^M^J^I^I</Ar
300
chMatParameters>^M^J^I^I<MapSet>^M^J^I^I^I<MapLib>^M^J^I^I^I^I<TextureMap name="Map #8" id="{EBBA9041-9C68-43B4-A7A8-66E4230A8BCD}">^M^J^I^I^I^I^I<DisplayMapInViewport>0</DisplayMapInViewport>^M^J^I^I^I^I^I<BitmapMap>^M^J^I^I^I^I^I^I<TexMapCoords2d>^M^J^I^I^I^I^I^I^I<TextureCoords>^M^J^I^I^I^I^I^I^I^I<Explicit
300
MapChannel CoordPlane="uv">^M^J^I^I^I^I^I^I^I^I^I<MapChannel>1</MapChannel>^M^J^I^I^I^I^I^I^I^I^I<UCoords>^M^J^I^I^I^I^I^I^I^I^I^I<OffsetCoord>19.5</OffsetCoord>^M^J^I^I^I^I^I^I^I^I^I^I<TilingCoord>0.025</TilingCoord>^M^J^I^I^I^I^I^I^I^I^I^I<TextureTiling Tiling="tile"/>^M^J^I^I^I^I^I^I^I^I^I</UCoords>^M^J^I^I^I^I^I^I^I^I^I<VCoords>^M
300
^J^I^I^I^I^I^I^I^I^I^I<OffsetCoord>19.5</OffsetCoord>^M^J^I^I^I^I^I^I^I^I^I^I<TilingCoord>0.025</TilingCoord>^M^J^I^I^I^I^I^I^I^I^I^I<TextureTiling Tiling="tile"/>^M^J^I^I^I^I^I^I^I^I^I</VCoords>^M^J^I^I^I^I^I^I^I^I^I<Angles>^M^J^I^I^I^I^I^I^I^I^I^I<UAngle>0.0</UAngle>^M^J^I^I^I^I^I^I^I^I^I^I<VAngle>0.0</VAngle>^M^J^I^I^I^I^I^I^I^I^I^I<WAngle>0.0
300
</WAngle>^M^J^I^I^I^I^I^I^I^I^I</Angles>^M^J^I^I^I^I^I^I^I^I^I<Blur>1.0</Blur>^M^J^I^I^I^I^I^I^I^I^I<BlurOffset>0.0</BlurOffset>^M^J^I^I^I^I^I^I^I^I</ExplicitMapChannel>^M^J^I^I^I^I^I^I^I</TextureCoords>^M^J^I^I^I^I^I^I</TexMapCoords2d>^M^J^I^I^I^I^I^I<TexMapNoise>^M^J^I^I^I^I^I^I^I<NoiseAmount>1.0</NoiseAmount>^M^J^I^I^I^I^I^I^I<NoiseLeve
300
ls>1</NoiseLevels>^M^J^I^I^I^I^I^I^I<NoiseSize>1.0</NoiseSize>^M^J^I^I^I^I^I^I^I<NoisePhase>0.0</NoisePhase>^M^J^I^I^I^I^I^I</TexMapNoise>^M^J^I^I^I^I^I^I<BitmapParameters>^M^J^I^I^I^I^I^I^I<BitmapFile filename="MEDRUST2.JPG"/>^M^J^I^I^I^I^I^I^I<Cropping on="0" CropType="crop">^M^J^I^I^I^I^I^I^I^I<UCrop>0.0</UCrop>^M
300
^J^I^I^I^I^I^I^I^I<VCrop>0.0</VCrop>^M^J^I^I^I^I^I^I^I^I<WCrop>1.0</WCrop>^M^J^I^I^I^I^I^I^I^I<HCrop>1.0</HCrop>^M^J^I^I^I^I^I^I^I^I<JitterPlacement on="0">1.0</JitterPlacement>^M^J^I^I^I^I^I^I^I</Cropping>^M^J^I^I^I^I^I^I^I<Filtering Type="pyramidal"/>^M^J^I^I^I^I^I^I^I<MonoChannelOutput Output="rgbIntensity"/>^M^J^I^I^I^I^I^I
300
^I<RGBChannelOutput Output="alphaAsGray"/>^M^J^I^I^I^I^I^I^I<AlphaSource Source="none"/>^M^J^I^I^I^I^I^I^I<PremultipliedAlpha>1</PremultipliedAlpha>^M^J^I^I^I^I^I^I</BitmapParameters>^M^J^I^I^I^I^I^I<TexMapOutput>^M^J^I^I^I^I^I^I^I<Invert>0</Invert>^M^J^I^I^I^I^I^I^I<Clamp>0</Clamp>^M^J^I^I^I^I^I^I^I<AlphaFromRGBInt
300
ensity>0</AlphaFromRGBIntensity>^M^J^I^I^I^I^I^I^I<OutputAmount>1.0</OutputAmount>^M^J^I^I^I^I^I^I^I<RGBOffset>0.0</RGBOffset>^M^J^I^I^I^I^I^I^I<RGBLevel>1.0</RGBLevel>^M^J^I^I^I^I^I^I^I<BumpAmount>1.0</BumpAmount>^M^J^I^I^I^I^I^I</TexMapOutput>^M^J^I^I^I^I^I</BitmapMap>^M^J^I^I^I^I</TextureMap>^M^J^I^I^I</MapLib>^M^J
300
^I^I^I<Map on="1" TexMapChannelNum="8" TexMapChannel="Bump Map" Amount="15" TexMapRef="{EBBA9041-9C68-43B4-A7A8-66E4230A8BCD}"/>^M^J^I^I</MapSet>^M^J^I</ArchitecturalMaterial>^M^J</Material>
  0
XRECORD
  5
77E4
102
{ACAD_REACTORS
330
77E3
102
}
330
77E3
100
AcDbXrecord
280
     1
102
MATERIAL
148
0.0
149
0.0
149
0.0
 93
        0
 94
       63
282
     0
 72
     1
 77
     1
171
     1
175
     1
179
     1
273
     0
  0
CELLSTYLEMAP
  5
77E1
102
{ACAD_REACTORS
330
5B
102
}
330
5B
100
AcDbCellStyleMap
 90
        3
300
CELLSTYLE
  1
TABLEFORMAT_BEGIN
 90
        5
170
     1
 91
        0
 92
    32768
 62
   257
 93
        1
300
CONTENTFORMAT
  1
CONTENTFORMAT_BEGIN
 90
        0
 91
        0
 92
        4
 93
        0
300

 40
0.0
140
1.0
 94
        5
 62
     0
340
21
144
0.25
309
CONTENTFORMAT_END
171
     0
 94
        6
 95
        1
302
GRIDFORMAT
  1
GRIDFORMAT_BEGIN
 90
        0
 91
        1
 62
     0
 92
       -2
340
0
 93
        0
 40
0.045
309
GRIDFORMAT_END
 95
        2
302
GRIDFORMAT
  1
GRIDFORMAT_BEGIN
 90
        0
 91
        1
 62
     0
 92
       -2
340
0
 93
        0
 40
0.045
309
GRIDFORMAT_END
 95
        4
302
GRIDFORMAT
  1
GRIDFORMAT_BEGIN
 90
        0
 91
        1
 62
     0
 92
       -2
340
0
 93
        0
 40
0.045
309
GRIDFORMAT_END
 95
        8
302
GRIDFORMAT
  1
GRIDFORMAT_BEGIN
 90
        0
 91
        1
 62
     0
 92
       -2
340
0
 93
        0
 40
0.045
309
GRIDFORMAT_END
 95
       16
302
GRIDFORMAT
  1
GRIDFORMAT_BEGIN
 90
        0
 91
        1
 62
     0
 92
       -2
340
0
 93
        0
 40
0.045
309
GRIDFORMAT_END
 95
       32
302
GRIDFORMAT
  1
GRIDFORMAT_BEGIN
 90
        0
 91
        1
 62
     0
 92
       -2
340
0
 93
        0
 40
0.045
309
GRIDFORMAT_END
309
TABLEFORMAT_END
  1
CELLSTYLE_BEGIN
 90
        1
 91
        1
300
_TITLE
309
CELLSTYLE_END
300
CELLSTYLE
  1
TABLEFORMAT_BEGIN
 90
        5
170
     1
 91
        0
 92
        0
 62
   257
 93
        1
300
CONTENTFORMAT
  1
CONTENTFORMAT_BEGIN
 90
        0
 91
        0
 92
        4
 93
        0
300

 40
0.0
140
1.0
 94
        5
 62
     0
340
21
144
0.18
309
CONTENTFORMAT_END
171
     0
 94
        6
 95
        1
302
GRIDFORMAT
  1
GRIDFORMAT_BEGIN
 90
        0
 91
        1
 62
     0
 92
       -2
340
0
 93
        0
 40
0.045
309
GRIDFORMAT_END
 95
        2
302
GRIDFORMAT
  1
GRIDFORMAT_BEGIN
 90
        0
 91
        1
 62
     0
 92
       -2
340
0
 93
        0
 40
0.045
309
GRIDFORMAT_END
 95
        4
302
GRIDFORMAT
  1
GRIDFORMAT_BEGIN
 90
        0
 91
        1
 62
     0
 92
       -2
340
0
 93
        0
 40
0.045
309
GRIDFORMAT_END
 95
        8
302
GRIDFORMAT
  1
GRIDFORMAT_BEGIN
 90
        0
 91
        1
 62
     0
 92
       -2
340
0
 93
        0
 40
0.045
309
GRIDFORMAT_END
 95
       16
302
GRIDFORMAT
  1
GRIDFORMAT_BEGIN
 90
        0
 91
        1
 62
     0
 92
       -2
340
0
 93
        0
 40
0.045
309
GRIDFORMAT_END
 95
       32
302
GRIDFORMAT
  1
GRIDFORMAT_BEGIN
 90
        0
 91
        1
 62
     0
 92
       -2
340
0
 93
        0
 40
0.045
309
GRIDFORMAT_END
309
TABLEFORMAT_END
  1
CELLSTYLE_BEGIN
 90
        2
 91
        1
300
_HEADER
309
CELLSTYLE_END
300
CELLSTYLE
  1
TABLEFORMAT_BEGIN
 90
        5
170
     1
 91
        0
 92
        0
 62
   257
 93
        1
300
CONTENTFORMAT
  1
CONTENTFORMAT_BEGIN
 90
        0
 91
        0
 92
        4
 93
        0
300

 40
0.0
140
1.0
 94
        2
 62
     0
340
21
144
0.18
309
CONTENTFORMAT_END
171
     0
 94
        6
 95
        1
302
GRIDFORMAT
  1
GRIDFORMAT_BEGIN
 90
        0
 91
        1
 62
     0
 92
       -2
340
0
 93
        0
 40
0.045
309
GRIDFORMAT_END
 95
        2
302
GRIDFORMAT
  1
GRIDFORMAT_BEGIN
 90
        0
 91
        1
 62
     0
 92
       -2
340
0
 93
        0
 40
0.045
309
GRIDFORMAT_END
 95
        4
302
GRIDFORMAT
  1
GRIDFORMAT_BEGIN
 90
        0
 91
        1
 62
     0
 92
       -2
340
0
 93
        0
 40
0.045
309
GRIDFORMAT_END
 95
        8
302
GRIDFORMAT
  1
GRIDFORMAT_BEGIN
 90
        0
 91
        1
 62
     0
 92
       -2
340
0
 93
        0
 40
0.045
309
GRIDFORMAT_END
 95
       16
302
GRIDFORMAT
  1
GRIDFORMAT_BEGIN
 90
        0
 91
        1
 62
     0
 92
       -2
340
0
 93
        0
 40
0.045
309
GRIDFORMAT_END
 95
       32
302
GRIDFORMAT
  1
GRIDFORMAT_BEGIN
 90
        0
 91
        1
 62
     0
 92
       -2
340
0
 93
        0
 40
0.045
309
GRIDFORMAT_END
309
TABLEFORMAT_END
  1
CELLSTYLE_BEGIN
 90
        3
 91
        2
300
_DATA
309
CELLSTYLE_END
  0
XRECORD
  5
77EB
102
{ACAD_REACTORS
330
5B
102
}
330
5B
100
AcDbXrecord
280
     1
102
ACAD_ROUNDTRIP_PRE2007_TABLESTYLE
 90
        4
 91
        0
  1

 92
        4
 93
        0
  2

 94
        4
 95
        0
  3

  0
ENDSEC
  0
EOF
