  0
SECTION
  2
HEADER
  9
$ACADVER
  1
AC1015
  9
$ACADMAINTVER
 70
    20
  9
$DWGCODEPAGE
  3
ANSI_1250
  9
$INSBASE
 10
215187.233673673
 20
127657.5168525552
 30
0.0
  9
$EXTMIN
 10
215187.2000545948
 20
127657.5157015094
 30
-294.0
  9
$EXTMAX
 10
238309.9325816894
 20
141677.5157057546
 30
294.0
  9
$LIMMIN
 10
0.0
 20
0.0
  9
$LIMMAX
 10
420.0
 20
297.0
  9
$ORTHOMODE
 70
     1
  9
$REGENMODE
 70
     1
  9
$FILLMODE
 70
     1
  9
$QTEXTMODE
 70
     0
  9
$MIRRTEXT
 70
     0
  9
$LTSCALE
 40
75.0
  9
$ATTMODE
 70
     1
  9
$TEXTSIZE
 40
20.0
  9
$TRACEWID
 40
1.0
  9
$TEXTSTYLE
  7
ROMANS
  9
$CLAYER
  8
0
  9
$CELTYPE
  6
ByLayer
  9
$CECOLOR
 62
   256
  9
$CELTSCALE
 40
1.0
  9
$DISPSILH
 70
     0
  9
$DIMSCALE
 40
1.0
  9
$DIMASZ
 40
30.0
  9
$DIMEXO
 40
43.0
  9
$DIMDLI
 40
0.0
  9
$DIMRND
 40
0.5
  9
$DIMDLE
 40
12.0
  9
$DIMEXE
 40
13.0
  9
$DIMTP
 40
0.0
  9
$DIMTM
 40
0.0
  9
$DIMTXT
 40
80.0
  9
$DIMCEN
 40
0.0
  9
$DIMTSZ
 40
0.0
  9
$DIMTOL
 70
     0
  9
$DIMLIM
 70
     0
  9
$DIMTIH
 70
     0
  9
$DIMTOH
 70
     0
  9
$DIMSE1
 70
     1
  9
$DIMSE2
 70
     1
  9
$DIMTAD
 70
     0
  9
$DIMZIN
 70
    12
  9
$DIMBLK
  1
B-DIM
  9
$DIMASO
 70
     1
  9
$DIMSHO
 70
     1
  9
$DIMPOST
  1

  9
$DIMAPOST
  1

  9
$DIMALT
 70
     0
  9
$DIMALTD
 70
     2
  9
$DIMALTF
 40
25.4
  9
$DIMLFAC
 40
1.0
  9
$DIMTOFL
 70
     1
  9
$DIMTVP
 40
1.0
  9
$DIMTIX
 70
     1
  9
$DIMSOXD
 70
     0
  9
$DIMSAH
 70
     0
  9
$DIMBLK1
  1

  9
$DIMBLK2
  1

  9
$DIMSTYLE
  2
500
  9
$DIMCLRD
 70
     1
  9
$DIMCLRE
 70
     1
  9
$DIMCLRT
 70
   140
  9
$DIMTFAC
 40
1.0
  9
$DIMGAP
 40
0.0
  9
$DIMJUST
 70
     0
  9
$DIMSD1
 70
     0
  9
$DIMSD2
 70
     0
  9
$DIMTOLJ
 70
     1
  9
$DIMTZIN
 70
     0
  9
$DIMALTZ
 70
     0
  9
$DIMALTTZ
 70
     0
  9
$DIMUPT
 70
     0
  9
$DIMDEC
 70
     1
  9
$DIMTDEC
 70
     1
  9
$DIMALTU
 70
     2
  9
$DIMALTTD
 70
     2
  9
$DIMTXSTY
  7
ROMANS
  9
$DIMAUNIT
 70
     0
  9
$DIMADEC
 70
     0
  9
$DIMALTRND
 40
0.0
  9
$DIMAZIN
 70
     0
  9
$DIMDSEP
 70
    46
  9
$DIMATFIT
 70
     3
  9
$DIMFRAC
 70
     0
  9
$DIMLDRBLK
  1
B-DIM
  9
$DIMLUNIT
 70
     2
  9
$DIMLWD
 70
    -2
  9
$DIMLWE
 70
    -2
  9
$DIMTMOVE
 70
     2
  9
$LUNITS
 70
     2
  9
$LUPREC
 70
     1
  9
$SKETCHINC
 40
1.0
  9
$FILLETRAD
 40
0.0
  9
$AUNITS
 70
     0
  9
$AUPREC
 70
     0
  9
$MENU
  1
.
  9
$ELEVATION
 40
0.0
  9
$PELEVATION
 40
0.0
  9
$THICKNESS
 40
0.0
  9
$LIMCHECK
 70
     0
  9
$CHAMFERA
 40
0.0
  9
$CHAMFERB
 40
0.0
  9
$CHAMFERC
 40
20.0
  9
$CHAMFERD
 40
0.0
  9
$SKPOLY
 70
     0
  9
$TDCREATE
 40
2452027.670547454
  9
$TDUCREATE
 40
2452027.587214121
  9
$TDUPDATE
 40
2454978.553779838
  9
$TDUUPDATE
 40
2454978.470446505
  9
$TDINDWG
 40
7.7866351505
  9
$TDUSRTIMER
 40
7.7866351505
  9
$USRTIMER
 70
     1
  9
$ANGBASE
 50
0.0
  9
$ANGDIR
 70
     0
  9
$PDMODE
 70
     0
  9
$PDSIZE
 40
0.0
  9
$PLINEWID
 40
45.0
  9
$SPLFRAME
 70
     0
  9
$SPLINETYPE
 70
     6
  9
$SPLINESEGS
 70
     8
  9
$HANDSEED
  5
33E5
  9
$SURFTAB1
 70
     6
  9
$SURFTAB2
 70
     6
  9
$SURFTYPE
 70
     6
  9
$SURFU
 70
     6
  9
$SURFV
 70
     6
  9
$UCSBASE
  2

  9
$UCSNAME
  2

  9
$UCSORG
 10
0.0
 20
0.0
 30
0.0
  9
$UCSXDIR
 10
1.0
 20
0.0
 30
0.0
  9
$UCSYDIR
 10
0.0
 20
1.0
 30
0.0
  9
$UCSORTHOREF
  2

  9
$UCSORTHOVIEW
 70
     0
  9
$UCSORGTOP
 10
0.0
 20
0.0
 30
0.0
  9
$UCSORGBOTTOM
 10
0.0
 20
0.0
 30
0.0
  9
$UCSORGLEFT
 10
0.0
 20
0.0
 30
0.0
  9
$UCSORGRIGHT
 10
0.0
 20
0.0
 30
0.0
  9
$UCSORGFRONT
 10
0.0
 20
0.0
 30
0.0
  9
$UCSORGBACK
 10
0.0
 20
0.0
 30
0.0
  9
$PUCSBASE
  2

  9
$PUCSNAME
  2

  9
$PUCSORG
 10
0.0
 20
0.0
 30
0.0
  9
$PUCSXDIR
 10
1.0
 20
0.0
 30
0.0
  9
$PUCSYDIR
 10
0.0
 20
1.0
 30
0.0
  9
$PUCSORTHOREF
  2

  9
$PUCSORTHOVIEW
 70
     0
  9
$PUCSORGTOP
 10
0.0
 20
0.0
 30
0.0
  9
$PUCSORGBOTTOM
 10
0.0
 20
0.0
 30
0.0
  9
$PUCSORGLEFT
 10
0.0
 20
0.0
 30
0.0
  9
$PUCSORGRIGHT
 10
0.0
 20
0.0
 30
0.0
  9
$PUCSORGFRONT
 10
0.0
 20
0.0
 30
0.0
  9
$PUCSORGBACK
 10
0.0
 20
0.0
 30
0.0
  9
$USERI1
 70
     0
  9
$USERI2
 70
     0
  9
$USERI3
 70
     0
  9
$USERI4
 70
     0
  9
$USERI5
 70
     0
  9
$USERR1
 40
0.0
  9
$USERR2
 40
0.0
  9
$USERR3
 40
0.0
  9
$USERR4
 40
0.0
  9
$USERR5
 40
0.0
  9
$WORLDVIEW
 70
     1
  9
$SHADEDGE
 70
     3
  9
$SHADEDIF
 70
    70
  9
$TILEMODE
 70
     1
  9
$MAXACTVP
 70
    64
  9
$PINSBASE
 10
0.0
 20
0.0
 30
0.0
  9
$PLIMCHECK
 70
     0
  9
$PEXTMIN
 10
1.000000000000000E+20
 20
1.000000000000000E+20
 30
1.000000000000000E+20
  9
$PEXTMAX
 10
-1.000000000000000E+20
 20
-1.000000000000000E+20
 30
-1.000000000000000E+20
  9
$PLIMMIN
 10
0.0
 20
0.0
  9
$PLIMMAX
 10
420.0
 20
297.0
  9
$UNITMODE
 70
     0
  9
$VISRETAIN
 70
     1
  9
$PLINEGEN
 70
     0
  9
$PSLTSCALE
 70
     1
  9
$TREEDEPTH
 70
  3020
  9
$CMLSTYLE
  2
Standard
  9
$CMLJUST
 70
     0
  9
$CMLSCALE
 40
20.0
  9
$PROXYGRAPHICS
 70
     1
  9
$MEASUREMENT
 70
     0
  9
$CELWEIGHT
370
    -1
  9
$ENDCAPS
280
     0
  9
$JOINSTYLE
280
     0
  9
$LWDISPLAY
290
     1
  9
$INSUNITS
 70
     5
  9
$HYPERLINKBASE
  1

  9
$STYLESHEET
  1
monochrome_140.ctb
  9
$XEDIT
290
     1
  9
$CEPSNTYPE
380
     0
  9
$PSTYLEMODE
290
     1
  9
$FINGERPRINTGUID
  2
{938A2469-3AF5-11D5-BC95-0050BABCE9EC}
  9
$VERSIONGUID
  2
{1ED0384C-3C21-4EDE-8FC9-FB6B00254E3D}
  9
$EXTNAMES
290
     1
  9
$PSVPSCALE
 40
0.0
  9
$OLESTARTUP
290
     0
  0
ENDSEC
  0
SECTION
  2
CLASSES
  0
CLASS
  1
ACDBDICTIONARYWDFLT
  2
AcDbDictionaryWithDefault
  3
ObjectDBX Classes
 90
        0
280
     0
281
     0
  0
CLASS
  1
ACDBPLACEHOLDER
  2
AcDbPlaceHolder
  3
ObjectDBX Classes
 90
        0
280
     0
281
     0
  0
CLASS
  1
LAYOUT
  2
AcDbLayout
  3
ObjectDBX Classes
 90
        0
280
     0
281
     0
  0
CLASS
  1
DICTIONARYVAR
  2
AcDbDictionaryVar
  3
ObjectDBX Classes
 90
        0
280
     0
281
     0
  0
CLASS
  1
SORTENTSTABLE
  2
AcDbSortentsTable
  3
ObjectDBX Classes
 90
        0
280
     0
281
     0
  0
CLASS
  1
AEC_VARS_DWG_SETUP
  2
AecDbVarsDwgSetup
  3
AecBase50|Product Desc: Autodesk Architectural Desktop 2007 |Company: Autodesk,Inc. |WEB Address: www.autodesk.com
 90
    32897
280
     0
281
     0
  0
CLASS
  1
AEC_DISP_REP_CONFIG
  2
AecDbDispRepConfig
  3
AecBase50|Product Desc: Autodesk Architectural Desktop 2007 |Company: Autodesk,Inc. |WEB Address: www.autodesk.com
 90
    32897
280
     0
281
     0
  0
CLASS
  1
AEC_DISP_REP_SET
  2
AecDbDispRepSet
  3
AecBase50|Product Desc: Autodesk Architectural Desktop 2007 |Company: Autodesk,Inc. |WEB Address: www.autodesk.com
 90
    32897
280
     0
281
     0
  0
CLASS
  1
AEC_DISP_REP_2D_SECTION
  2
AecDbDispRep2dSection
  3
AecBase50|Product Desc: Autodesk Architectural Desktop 2007 |Company: Autodesk,Inc. |WEB Address: www.autodesk.com
 90
    32897
280
     0
281
     0
  0
CLASS
  1
AEC_DISP_REP_ANCHOR_BUB_TO_GRID
  2
AecDbDispRepAnchorBubToGrid
  3
AecStructureBase50|Product Desc: Autodesk Architectural Desktop 2007 |Company: Autodesk,Inc. |WEB Address: www.autodesk.com
 90
    32897
280
     0
281
     0
  0
CLASS
  1
AEC_DISP_REP_ANCHOR_BUB_TO_GRID_MODEL
  2
AecDbDispRepAnchorBubToGridMdl
  3
AecStructureBase50|Product Desc: Autodesk Architectural Desktop 2007 |Company: Autodesk,Inc. |WEB Address: www.autodesk.com
 90
    32897
280
     0
281
     0
  0
CLASS
  1
AEC_DISP_REP_ANCHOR_ENT_TO_NODE
  2
AecDbDispRepAnchorEntToNode
  3
AecBase50|Product Desc: Autodesk Architectural Desktop 2007 |Company: Autodesk,Inc. |WEB Address: www.autodesk.com
 90
    32897
280
     0
281
     0
  0
CLASS
  1
AEC_DISP_REP_ANCHOR_TAG_TO_ENT
  2
AecDbDispRepAnchorTagToEnt
  3
AecScheduleData50|Product Desc: Autodesk Architectural Desktop 2007 |Company: Autodesk,Inc. |WEB Address: www.autodesk.com
 90
    32897
280
     0
281
     0
  0
CLASS
  1
AEC_DISP_REP_AREA
  2
AecDbDispRepArea
  3
AecAreaCalculationBase50|Product Desc: Autodesk Architectural Desktop 2007 |Company: Autodesk,Inc. |WEB Address: www.autodesk.com
 90
    32897
280
     0
281
     0
  0
CLASS
  1
AEC_DISP_REP_AREA_DECOMPOSED
  2
AecDbDispRepAreaDecomposed
  3
AecAreaCalculationBase50|Product Desc: Autodesk Architectural Desktop 2007 |Company: Autodesk,Inc. |WEB Address: www.autodesk.com
 90
    32897
280
     0
281
     0
  0
CLASS
  1
AEC_DISP_REP_AREAGROUP
  2
AecDbDispRepAreaGroup
  3
AecAreaCalculationBase50|Product Desc: Autodesk Architectural Desktop 2007 |Company: Autodesk,Inc. |WEB Address: www.autodesk.com
 90
    32897
280
     0
281
     0
  0
CLASS
  1
AEC_DISP_REP_BDG_ELEVLINE_MODEL
  2
AecDbDispRepBdgElevLineModel
  3
AecArchBase50|Product Desc: Autodesk Architectural Desktop 2007 |Company: Autodesk,Inc. |WEB Address: www.autodesk.com
 90
    32897
280
     0
281
     0
  0
CLASS
  1
AEC_DISP_REP_BDG_SECTIONLINE_PLAN
  2
AecDbDispRepBdgElevLinePlan
  3
AecArchBase50|Product Desc: Autodesk Architectural Desktop 2007 |Company: Autodesk,Inc. |WEB Address: www.autodesk.com
 90
    32897
280
     0
281
     0
  0
CLASS
  1
AEC_DISP_REP_BDG_SECTIONLINE_MODEL
  2
AecDbDispRepBdgSectionLineModel
  3
AecArchBase50|Product Desc: Autodesk Architectural Desktop 2007 |Company: Autodesk,Inc. |WEB Address: www.autodesk.com
 90
    32897
280
     0
281
     0
  0
CLASS
  1
AEC_DISP_REP_BDG_SECTIONLINE_PLAN
  2
AecDbDispRepBdgSectionLinePlan
  3
AecArchBase50|Product Desc: Autodesk Architectural Desktop 2007 |Company: Autodesk,Inc. |WEB Address: www.autodesk.com
 90
    32897
280
     0
281
     0
  0
CLASS
  1
AEC_DISP_REP_BDG_SECTION_SUBDIV
  2
AecDbDispRepBdgSectionSubDiv
  3
AecArchBase50|Product Desc: Autodesk Architectural Desktop 2007 |Company: Autodesk,Inc. |WEB Address: www.autodesk.com
 90
    32897
280
     0
281
     0
  0
CLASS
  1
AEC_DISP_REP_CAMERA
  2
AecDbDispRepCamera
  3
AecBase50|Product Desc: Autodesk Architectural Desktop 2007 |Company: Autodesk,Inc. |WEB Address: www.autodesk.com
 90
    32897
280
     0
281
     0
  0
CLASS
  1
AEC_DISP_REP_CEILING_GRID
  2
AecDbDispRepCeilingGrid
  3
AecArchBase50|Product Desc: Autodesk Architectural Desktop 2007 |Company: Autodesk,Inc. |WEB Address: www.autodesk.com
 90
    33661
280
     0
281
     0
  0
CLASS
  1
AEC_DISP_REP_CEILING_GRID_MODEL
  2
AecDbDispRepCeilingGridModel
  3
AecArchBase50|Product Desc: Autodesk Architectural Desktop 2007 |Company: Autodesk,Inc. |WEB Address: www.autodesk.com
 90
    32897
280
     0
281
     0
  0
CLASS
  1
AEC_DISP_REP_CEILING_GRID_RCP
  2
AecDbDispRepCeilingGridRcp
  3
AecArchBase50|Product Desc: Autodesk Architectural Desktop 2007 |Company: Autodesk,Inc. |WEB Address: www.autodesk.com
 90
    32897
280
     0
281
     0
  0
CLASS
  1
AEC_DISP_REP_CLIP_VOLUME_MODEL
  2
AecDbDispRepClipVolModel
  3
AecBase50|Product Desc: Autodesk Architectural Desktop 2007 |Company: Autodesk,Inc. |WEB Address: www.autodesk.com
 90
    32897
280
     0
281
     0
  0
CLASS
  1
AEC_DISP_REP_CLIP_VOLUME_PLAN
  2
AecDbDispRepClipVolPlan
  3
AecBase50|Product Desc: Autodesk Architectural Desktop 2007 |Company: Autodesk,Inc. |WEB Address: www.autodesk.com
 90
    32897
280
     0
281
     0
  0
CLASS
  1
AEC_DISP_REP_CLIP_VOLUME_RESULT_SUBDIV
  2
AecDbDispRepClipVolResSubDiv
  3
AecBase50|Product Desc: Autodesk Architectural Desktop 2007 |Company: Autodesk,Inc. |WEB Address: www.autodesk.com
 90
    32897
280
     0
281
     0
  0
CLASS
  1
AEC_DISP_REP_CLIP_VOLUME_RESULT
  2
AecDbDispRepClipVolResult
  3
AecBase50|Product Desc: Autodesk Architectural Desktop 2007 |Company: Autodesk,Inc. |WEB Address: www.autodesk.com
 90
    32897
280
     0
281
     0
  0
CLASS
  1
AEC_DISP_REP_COLUMN_GRID
  2
AecDbDispRepColumnGrid
  3
AecStructureBase50|Product Desc: Autodesk Architectural Desktop 2007 |Company: Autodesk,Inc. |WEB Address: www.autodesk.com
 90
    32897
280
     0
281
     0
  0
CLASS
  1
AEC_DISP_REP_COLUMN_GRID_MODEL
  2
AecDbDispRepColumnGridModel
  3
AecStructureBase50|Product Desc: Autodesk Architectural Desktop 2007 |Company: Autodesk,Inc. |WEB Address: www.autodesk.com
 90
    32897
280
     0
281
     0
  0
CLASS
  1
AEC_DISP_REP_CURTAIN_WALL_LAYOUT_MODEL
  2
AecDbDispRepCurtainWallLayoutModel
  3
AecArchBase50|Product Desc: Autodesk Architectural Desktop 2007 |Company: Autodesk,Inc. |WEB Address: www.autodesk.com
 90
    32897
280
     0
281
     0
  0
CLASS
  1
AEC_DISP_REP_CURTAIN_WALL_LAYOUT_PLAN
  2
AecDbDispRepCurtainWallLayoutPlan
  3
AecArchBase50|Product Desc: Autodesk Architectural Desktop 2007 |Company: Autodesk,Inc. |WEB Address: www.autodesk.com
 90
    32897
280
     0
281
     0
  0
CLASS
  1
AEC_DISP_REP_CURTAIN_WALL_UNIT_MODEL
  2
AecDbDispRepCurtainWallUnitModel
  3
AecArchBase50|Product Desc: Autodesk Architectural Desktop 2007 |Company: Autodesk,Inc. |WEB Address: www.autodesk.com
 90
    32897
280
     0
281
     0
  0
CLASS
  1
AEC_DISP_REP_CURTAIN_WALL_UNIT_PLAN
  2
AecDbDispRepCurtainWallUnitPlan
  3
AecArchBase50|Product Desc: Autodesk Architectural Desktop 2007 |Company: Autodesk,Inc. |WEB Address: www.autodesk.com
 90
    32897
280
     0
281
     0
  0
CLASS
  1
AEC_DB_DISP_REP_DIM_GROUP_PLAN
  2
AecDbDispRepDimGroupPlan
  3
AecArchDACHBase50|Product Desc: Autodesk Architectural Desktop 2007 |Company: Autodesk,Inc. |WEB Address: www.autodesk.com
 90
    32897
280
     0
281
     0
  0
CLASS
  1
AEC_DISP_REP_DOOR_MODEL
  2
AecDbDispRepDoorModel
  3
AecArchBase50|Product Desc: Autodesk Architectural Desktop 2007 |Company: Autodesk,Inc. |WEB Address: www.autodesk.com
 90
    32897
280
     0
281
     0
  0
CLASS
  1
AEC_DISP_REP_DOOR_NOMINAL
  2
AecDbDispRepDoorNominal
  3
AecArchBase50|Product Desc: Autodesk Architectural Desktop 2007 |Company: Autodesk,Inc. |WEB Address: www.autodesk.com
 90
    32897
280
     0
281
     0
  0
CLASS
  1
AEC_DISP_REP_DOOR_PLAN
  2
AecDbDispRepDoorPlan
  3
AecArchBase50|Product Desc: Autodesk Architectural Desktop 2007 |Company: Autodesk,Inc. |WEB Address: www.autodesk.com
 90
    32897
280
     0
281
     0
  0
CLASS
  1
AEC_DISP_REP_EDITINPLACEPROFILE
  2
AecDbDispRepEditInPlaceProfile
  3
AecBase50|Product Desc: Autodesk Architectural Desktop 2007 |Company: Autodesk,Inc. |WEB Address: www.autodesk.com
 90
    32897
280
     0
281
     0
  0
CLASS
  1
AEC_DISP_REP_ENT_REF
  2
AecDbDispRepEntRef
  3
AecBase50|Product Desc: Autodesk Architectural Desktop 2007 |Company: Autodesk,Inc. |WEB Address: www.autodesk.com
 90
    32897
280
     0
281
     0
  0
CLASS
  1
AEC_DISP_REP_LAYOUT_CURVE
  2
AecDbDispRepLayoutCurve
  3
AecBase50|Product Desc: Autodesk Architectural Desktop 2007 |Company: Autodesk,Inc. |WEB Address: www.autodesk.com
 90
    32897
280
     0
281
     0
  0
CLASS
  1
AEC_DISP_REP_LAYOUT_GRID2D
  2
AecDbDispRepLayoutGrid2d
  3
AecBase50|Product Desc: Autodesk Architectural Desktop 2007 |Company: Autodesk,Inc. |WEB Address: www.autodesk.com
 90
    32897
280
     0
281
     0
  0
CLASS
  1
AEC_DISP_REP_LAYOUT_GRID3D
  2
AecDbDispRepLayoutGrid3d
  3
AecBase50|Product Desc: Autodesk Architectural Desktop 2007 |Company: Autodesk,Inc. |WEB Address: www.autodesk.com
 90
    32897
280
     0
281
     0
  0
CLASS
  1
AEC_DISP_REP_MASKBLOCK_REF
  2
AecDbDispRepMaskBlockRef
  3
AecBase50|Product Desc: Autodesk Architectural Desktop 2007 |Company: Autodesk,Inc. |WEB Address: www.autodesk.com
 90
    32897
280
     0
281
     0
  0
CLASS
  1
AEC_DISP_REP_MASKBLOCK_REF_RCP
  2
AecDbDispRepMaskBlockRefRcp
  3
AecArchBase50|Product Desc: Autodesk Architectural Desktop 2007 |Company: Autodesk,Inc. |WEB Address: www.autodesk.com
 90
    32897
280
     0
281
     0
  0
CLASS
  1
AEC_DISP_REP_MASS_ELEM_MODEL
  2
AecDbDispRepMassElemModel
  3
AecBaseEx50|Product Desc: Autodesk Architectural Desktop 2007 |Company: Autodesk,Inc. |WEB Address: www.autodesk.com
 90
    32897
280
     0
281
     0
  0
CLASS
  1
AEC_DISP_REP_MASS_ELEM_SCHEM
  2
AecDbDispRepMassElemSchem
  3
AecBaseEx50|Product Desc: Autodesk Architectural Desktop 2007 |Company: Autodesk,Inc. |WEB Address: www.autodesk.com
 90
    32897
280
     0
281
     0
  0
CLASS
  1
AEC_DISP_REP_MASS_GROUP_MODEL
  2
AecDbDispRepMassGroupModel
  3
AecBaseEx50|Product Desc: Autodesk Architectural Desktop 2007 |Company: Autodesk,Inc. |WEB Address: www.autodesk.com
 90
    32897
280
     0
281
     0
  0
CLASS
  1
AEC_DISP_REP_MASS_GROUP_PLAN
  2
AecDbDispRepMassGroupPlan
  3
AecBaseEx50|Product Desc: Autodesk Architectural Desktop 2007 |Company: Autodesk,Inc. |WEB Address: www.autodesk.com
 90
    32897
280
     0
281
     0
  0
CLASS
  1
AEC_DISP_REP_MATERIAL
  2
AecDbDispRepMaterial
  3
AecBase50|Product Desc: Autodesk Architectural Desktop 2007 |Company: Autodesk,Inc. |WEB Address: www.autodesk.com
 90
    32897
280
     0
281
     0
  0
CLASS
  1
AEC_DISP_REP_MVBLOCK_REF
  2
AecDbDispRepMvBlockRef
  3
AecBase50|Product Desc: Autodesk Architectural Desktop 2007 |Company: Autodesk,Inc. |WEB Address: www.autodesk.com
 90
    32897
280
     0
281
     0
  0
CLASS
  1
AEC_DISP_REP_MVBLOCK_REF_MODEL
  2
AecDbDispRepMvBlockRefModel
  3
AecBase50|Product Desc: Autodesk Architectural Desktop 2007 |Company: Autodesk,Inc. |WEB Address: www.autodesk.com
 90
    32897
280
     0
281
     0
  0
CLASS
  1
AEC_DISP_REP_OPENING
  2
AecDbDispRepOpening
  3
AecArchBase50|Product Desc: Autodesk Architectural Desktop 2007 |Company: Autodesk,Inc. |WEB Address: www.autodesk.com
 90
    32897
280
     0
281
     0
  0
CLASS
  1
AEC_DISP_REP_OPENING_MODEL
  2
AecDbDispRepOpeningModel
  3
AecArchBase50|Product Desc: Autodesk Architectural Desktop 2007 |Company: Autodesk,Inc. |WEB Address: www.autodesk.com
 90
    32897
280
     0
281
     0
  0
CLASS
  1
AEC_DISP_REP_POLYGON_MODEL
  2
AecDbDispRepPolygonModel
  3
AecBase50|Product Desc: Autodesk Architectural Desktop 2007 |Company: Autodesk,Inc. |WEB Address: www.autodesk.com
 90
    32897
280
     0
281
     0
  0
CLASS
  1
AEC_DISP_REP_RAILING_MODEL
  2
AecDbDispRepRailingModel
  3
AecArchBase50|Product Desc: Autodesk Architectural Desktop 2007 |Company: Autodesk,Inc. |WEB Address: www.autodesk.com
 90
    32897
280
     0
281
     0
  0
CLASS
  1
AEC_DISP_REP_RAILING_PLAN
  2
AecDbDispRepRailingPlan
  3
AecArchBase50|Product Desc: Autodesk Architectural Desktop 2007 |Company: Autodesk,Inc. |WEB Address: www.autodesk.com
 90
    32897
280
     0
281
     0
  0
CLASS
  1
AEC_DISP_REP_ROOF_MODEL
  2
AecDbDispRepRoofModel
  3
AecArchBase50|Product Desc: Autodesk Architectural Desktop 2007 |Company: Autodesk,Inc. |WEB Address: www.autodesk.com
 90
    32897
280
     0
281
     0
  0
CLASS
  1
AEC_DISP_REP_ROOF_PLAN
  2
AecDbDispRepRoofPlan
  3
AecArchBase50|Product Desc: Autodesk Architectural Desktop 2007 |Company: Autodesk,Inc. |WEB Address: www.autodesk.com
 90
    32897
280
     0
281
     0
  0
CLASS
  1
AEC_DISP_REP_ROOFSLAB_MODEL
  2
AecDbDispRepRoofSlabModel
  3
AecArchBase50|Product Desc: Autodesk Architectural Desktop 2007 |Company: Autodesk,Inc. |WEB Address: www.autodesk.com
 90
    32897
280
     0
281
     0
  0
CLASS
  1
AEC_DISP_REP_ROOFSLAB_PLAN
  2
AecDbDispRepRoofSlabPlan
  3
AecArchBase50|Product Desc: Autodesk Architectural Desktop 2007 |Company: Autodesk,Inc. |WEB Address: www.autodesk.com
 90
    32897
280
     0
281
     0
  0
CLASS
  1
AEC_DISP_REP_SCHEDULE_TABLE
  2
AecDbDispRepScheduleTable
  3
AecSchedule50|Product Desc: Autodesk Architectural Desktop 2007 |Company: Autodesk,Inc. |WEB Address: www.autodesk.com
 90
    32897
280
     0
281
     0
  0
CLASS
  1
AEC_DISP_REP_SLAB_MODEL
  2
AecDbDispRepSlabModel
  3
AecArchBase50|Product Desc: Autodesk Architectural Desktop 2007 |Company: Autodesk,Inc. |WEB Address: www.autodesk.com
 90
    32897
280
     0
281
     0
  0
CLASS
  1
AEC_DISP_REP_SLAB_PLAN
  2
AecDbDispRepSlabPlan
  3
AecArchBase50|Product Desc: Autodesk Architectural Desktop 2007 |Company: Autodesk,Inc. |WEB Address: www.autodesk.com
 90
    32897
280
     0
281
     0
  0
CLASS
  1
AEC_DISP_REP_SLICE
  2
AecDbDispRepSlice
  3
AecBase50|Product Desc: Autodesk Architectural Desktop 2007 |Company: Autodesk,Inc. |WEB Address: www.autodesk.com
 90
    32897
280
     0
281
     0
  0
CLASS
  1
AEC_DISP_REP_SPACE_BOUNDARY_MODEL
  2
AecDbDispRepSpaceBoundaryModel
  3
AecArchBase50|Product Desc: Autodesk Architectural Desktop 2007 |Company: Autodesk,Inc. |WEB Address: www.autodesk.com
 90
    32897
280
     0
281
     0
  0
CLASS
  1
AEC_DISP_REP_SPACE_BOUNDARY_PLAN
  2
AecDbDispRepSpaceBoundaryPlan
  3
AecArchBase50|Product Desc: Autodesk Architectural Desktop 2007 |Company: Autodesk,Inc. |WEB Address: www.autodesk.com
 90
    32897
280
     0
281
     0
  0
CLASS
  1
AEC_DISP_REP_SPACE_BOUNDARY_SCHEM
  2
AecDbDispRepSpaceBoundarySketch
  3
AecArchBase50|Product Desc: Autodesk Architectural Desktop 2007 |Company: Autodesk,Inc. |WEB Address: www.autodesk.com
 90
    32897
280
     0
281
     0
  0
CLASS
  1
AEC_DISP_REP_SPACE_MODEL
  2
AecDbDispRepSpaceModel
  3
AecArchBase50|Product Desc: Autodesk Architectural Desktop 2007 |Company: Autodesk,Inc. |WEB Address: www.autodesk.com
 90
    32897
280
     0
281
     0
  0
CLASS
  1
AEC_DISP_REP_SPACE_PLAN
  2
AecDbDispRepSpacePlan
  3
AecArchBase50|Product Desc: Autodesk Architectural Desktop 2007 |Company: Autodesk,Inc. |WEB Address: www.autodesk.com
 90
    32897
280
     0
281
     0
  0
CLASS
  1
AEC_DISP_REP_STAIR_MODEL
  2
AecDbDispRepStairModel
  3
AecArchBase50|Product Desc: Autodesk Architectural Desktop 2007 |Company: Autodesk,Inc. |WEB Address: www.autodesk.com
 90
    32897
280
     0
281
     0
  0
CLASS
  1
AEC_DISP_REP_STAIR_PLAN
  2
AecDbDispRepStairPlan
  3
AecArchBase50|Product Desc: Autodesk Architectural Desktop 2007 |Company: Autodesk,Inc. |WEB Address: www.autodesk.com
 90
    32897
280
     0
281
     0
  0
CLASS
  1
AEC_DISP_REP_WALL_GRAPH
  2
AecDbDispRepWallGraph
  3
AecArchBase50|Product Desc: Autodesk Architectural Desktop 2007 |Company: Autodesk,Inc. |WEB Address: www.autodesk.com
 90
    32897
280
     0
281
     0
  0
CLASS
  1
AEC_DISP_REP_WALL_MODEL
  2
AecDbDispRepWallModel
  3
AecArchBase50|Product Desc: Autodesk Architectural Desktop 2007 |Company: Autodesk,Inc. |WEB Address: www.autodesk.com
 90
    32897
280
     0
281
     0
  0
CLASS
  1
AEC_DISP_REP_WALL_PLAN
  2
AecDbDispRepWallPlan
  3
AecArchBase50|Product Desc: Autodesk Architectural Desktop 2007 |Company: Autodesk,Inc. |WEB Address: www.autodesk.com
 90
    32897
280
     0
281
     0
  0
CLASS
  1
AEC_DISP_REP_WALL_SCHEM
  2
AecDbDispRepWallSchem
  3
AecArchBase50|Product Desc: Autodesk Architectural Desktop 2007 |Company: Autodesk,Inc. |WEB Address: www.autodesk.com
 90
    32897
280
     0
281
     0
  0
CLASS
  1
AEC_DISP_REP_WINDOW_ASSEMBLY_MODEL
  2
AecDbDispRepWindowAssemblyModel
  3
AecArchBase50|Product Desc: Autodesk Architectural Desktop 2007 |Company: Autodesk,Inc. |WEB Address: www.autodesk.com
 90
    32897
280
     0
281
     0
  0
CLASS
  1
AEC_DISP_REP_WINDOW_ASSEMBLY_PLAN
  2
AecDbDispRepWindowAssemblyPlan
  3
AecArchBase50|Product Desc: Autodesk Architectural Desktop 2007 |Company: Autodesk,Inc. |WEB Address: www.autodesk.com
 90
    32897
280
     0
281
     0
  0
CLASS
  1
AEC_AECDBDISPREPWINDOWASSEMBLYPLAN100
  2
AecDbDispRepWindowAssemblyPlan100
  3
AecArchDACHBase50|Product Desc: Autodesk Architectural Desktop 2007 |Company: Autodesk,Inc. |WEB Address: www.autodesk.com
 90
    32897
280
     0
281
     0
  0
CLASS
  1
AEC_DISP_REP_WINDOW_MODEL
  2
AecDbDispRepWindowModel
  3
AecArchBase50|Product Desc: Autodesk Architectural Desktop 2007 |Company: Autodesk,Inc. |WEB Address: www.autodesk.com
 90
    32897
280
     0
281
     0
  0
CLASS
  1
AEC_DISP_REP_WINDOW_NOMINAL
  2
AecDbDispRepWindowNominal
  3
AecArchBase50|Product Desc: Autodesk Architectural Desktop 2007 |Company: Autodesk,Inc. |WEB Address: www.autodesk.com
 90
    32897
280
     0
281
     0
  0
CLASS
  1
AEC_DISP_REP_WINDOW_PLAN
  2
AecDbDispRepWindowPlan
  3
AecArchBase50|Product Desc: Autodesk Architectural Desktop 2007 |Company: Autodesk,Inc. |WEB Address: www.autodesk.com
 90
    32897
280
     0
281
     0
  0
CLASS
  1
AECS_DISP_REP_MEMBER_LOGICAL
  2
AecsDbDispRepMemberLogical
  3
AecStructureBase50|Product Desc: Autodesk Architectural Desktop 2007 |Company: Autodesk,Inc. |WEB Address: www.autodesk.com
 90
    32897
280
     0
281
     0
  0
CLASS
  1
AECS_DISP_REP_MEMBER_MODEL_DESIGN
  2
AecsDbDispRepMemberModelDesign
  3
AecStructureBase50|Product Desc: Autodesk Architectural Desktop 2007 |Company: Autodesk,Inc. |WEB Address: www.autodesk.com
 90
    32897
280
     0
281
     0
  0
CLASS
  1
AECS_DISP_REP_MEMBER_PLAN_DESIGN
  2
AecsDbDispRepMemberPlanDesign
  3
AecStructureBase50|Product Desc: Autodesk Architectural Desktop 2007 |Company: Autodesk,Inc. |WEB Address: www.autodesk.com
 90
    32897
280
     0
281
     0
  0
CLASS
  1
AEC_DISP_PROPS_ENT
  2
AecDbDispPropsEnt
  3
AecBase50|Product Desc: Autodesk Architectural Desktop 2007 |Company: Autodesk,Inc. |WEB Address: www.autodesk.com
 90
    32897
280
     0
281
     0
  0
CLASS
  1
AEC_DISP_PROPS_CLIP_VOLUME
  2
AecDbDispPropsClipVol
  3
AecBase50|Product Desc: Autodesk Architectural Desktop 2007 |Company: Autodesk,Inc. |WEB Address: www.autodesk.com
 90
    32897
280
     0
281
     0
  0
CLASS
  1
AEC_DISP_PROPS_SLICE
  2
AecDbDispPropsSlice
  3
AecBase50|Product Desc: Autodesk Architectural Desktop 2007 |Company: Autodesk,Inc. |WEB Address: www.autodesk.com
 90
    32897
280
     0
281
     0
  0
CLASS
  1
AEC_DISP_PROPS_ROOFSLAB_PLAN
  2
AecDbDispPropsRoofSlabPlan
  3
AecArchBase50|Product Desc: Autodesk Architectural Desktop 2007 |Company: Autodesk,Inc. |WEB Address: www.autodesk.com
 90
    32897
280
     0
281
     0
  0
CLASS
  1
AEC_DISP_PROPS_GRID_ASSEMBLY_MODEL
  2
AecDbDispPropsGridAssemblyModel
  3
AecArchBase50|Product Desc: Autodesk Architectural Desktop 2007 |Company: Autodesk,Inc. |WEB Address: www.autodesk.com
 90
    32897
280
     0
281
     0
  0
CLASS
  1
AEC_DISP_PROPS_ROOF
  2
AecDbDispPropsRoof
  3
AecArchBase50|Product Desc: Autodesk Architectural Desktop 2007 |Company: Autodesk,Inc. |WEB Address: www.autodesk.com
 90
    32897
280
     0
281
     0
  0
CLASS
  1
AEC_DISP_PROPS_SPACE_MODEL
  2
AecDbDispPropsSpaceModel
  3
AecArchBase50|Product Desc: Autodesk Architectural Desktop 2007 |Company: Autodesk,Inc. |WEB Address: www.autodesk.com
 90
    32897
280
     0
281
     0
  0
CLASS
  1
AEC_DISP_PROPS_EDITINPLACEPROFILE_MODEL
  2
AecDbDispPropsEditInPlaceProfile
  3
AecBase50|Product Desc: Autodesk Architectural Desktop 2007 |Company: Autodesk,Inc. |WEB Address: www.autodesk.com
 90
    32897
280
     0
281
     0
  0
CLASS
  1
AEC_DISP_PROPS_DOOR
  2
AecDbDispPropsDoor
  3
AecArchBase50|Product Desc: Autodesk Architectural Desktop 2007 |Company: Autodesk,Inc. |WEB Address: www.autodesk.com
 90
    32897
280
     0
281
     0
  0
CLASS
  1
AEC_DISP_PROPS_MASKBLOCK
  2
AecDbDispPropsMaskBlock
  3
AecBase50|Product Desc: Autodesk Architectural Desktop 2007 |Company: Autodesk,Inc. |WEB Address: www.autodesk.com
 90
    32897
280
     0
281
     0
  0
CLASS
  1
AEC_DISP_PROPS_SPACE_PLAN
  2
AecDbDispPropsSpacePlan
  3
AecArchBase50|Product Desc: Autodesk Architectural Desktop 2007 |Company: Autodesk,Inc. |WEB Address: www.autodesk.com
 90
    32897
280
     0
281
     0
  0
CLASS
  1
AEC_DISP_PROPS_RAILING_PLAN
  2
AecDbDispPropsRailingPlan
  3
AecArchBase50|Product Desc: Autodesk Architectural Desktop 2007 |Company: Autodesk,Inc. |WEB Address: www.autodesk.com
 90
    32897
280
     0
281
     0
  0
CLASS
  1
AEC_DISP_PROPS_LAYOUT_GRID2D
  2
AecDbDispPropsLayoutGrid2d
  3
AecBase50|Product Desc: Autodesk Architectural Desktop 2007 |Company: Autodesk,Inc. |WEB Address: www.autodesk.com
 90
    32897
280
     0
281
     0
  0
CLASS
  1
AEC_DISP_PROPS_CLIP_VOLUME_RESULT
  2
AecDbDispPropsClipVolResSubDiv
  3
AecBase50|Product Desc: Autodesk Architectural Desktop 2007 |Company: Autodesk,Inc. |WEB Address: www.autodesk.com
 90
    32897
280
     0
281
     0
  0
CLASS
  1
AEC_DISP_PROPS_STAIR_MODEL
  2
AecDbDispPropsStairModel
  3
AecArchBase50|Product Desc: Autodesk Architectural Desktop 2007 |Company: Autodesk,Inc. |WEB Address: www.autodesk.com
 90
    32897
280
     0
281
     0
  0
CLASS
  1
AEC_DISP_PROPS_LAYOUT_CURVE
  2
AecDbDispPropsLayoutCurve
  3
AecBase50|Product Desc: Autodesk Architectural Desktop 2007 |Company: Autodesk,Inc. |WEB Address: www.autodesk.com
 90
    32897
280
     0
281
     0
  0
CLASS
  1
AEC_DISP_PROPS_POLYGON_MODEL
  2
AecDbDispPropsPolygonModel
  3
AecBase50|Product Desc: Autodesk Architectural Desktop 2007 |Company: Autodesk,Inc. |WEB Address: www.autodesk.com
 90
    32897
280
     0
281
     0
  0
CLASS
  1
AEC_DISP_PROPS_MASS_GROUP
  2
AecDbDispPropsMassGroup
  3
AecBaseEx50|Product Desc: Autodesk Architectural Desktop 2007 |Company: Autodesk,Inc. |WEB Address: www.autodesk.com
 90
    32897
280
     0
281
     0
  0
CLASS
  1
AEC_DISP_PROPS_STAIR_PLAN
  2
AecDbDispPropsStairPlan
  3
AecArchBase50|Product Desc: Autodesk Architectural Desktop 2007 |Company: Autodesk,Inc. |WEB Address: www.autodesk.com
 90
    32897
280
     0
281
     0
  0
CLASS
  1
AEC_DISP_PROPS_OPENING
  2
AecDbDispPropsOpening
  3
AecArchBase50|Product Desc: Autodesk Architectural Desktop 2007 |Company: Autodesk,Inc. |WEB Address: www.autodesk.com
 90
    32897
280
     0
281
     0
  0
CLASS
  1
AEC_DISP_PROPS_WALL_GRAPH
  2
AecDbDispPropsWallGraph
  3
AecArchBase50|Product Desc: Autodesk Architectural Desktop 2007 |Company: Autodesk,Inc. |WEB Address: www.autodesk.com
 90
    32897
280
     0
281
     0
  0
CLASS
  1
AEC_DISP_PROPS_DOOR_NOMINAL
  2
AecDbDispPropsDoorNominal
  3
AecArchBase50|Product Desc: Autodesk Architectural Desktop 2007 |Company: Autodesk,Inc. |WEB Address: www.autodesk.com
 90
    32897
280
     0
281
     0
  0
CLASS
  1
AEC_DISP_PROPS_SLAB
  2
AecDbDispPropsSlab
  3
AecArchBase50|Product Desc: Autodesk Architectural Desktop 2007 |Company: Autodesk,Inc. |WEB Address: www.autodesk.com
 90
    32897
280
     0
281
     0
  0
CLASS
  1
AEC_DISP_PROPS_WALL_MODEL
  2
AecDbDispPropsWallModel
  3
AecArchBase50|Product Desc: Autodesk Architectural Desktop 2007 |Company: Autodesk,Inc. |WEB Address: www.autodesk.com
 90
    32897
280
     0
281
     0
  0
CLASS
  1
AEC_DISP_PROPS_MATERIAL
  2
AecDbDispPropsMaterial
  3
AecBase50|Product Desc: Autodesk Architectural Desktop 2007 |Company: Autodesk,Inc. |WEB Address: www.autodesk.com
 90
    32897
280
     0
281
     0
  0
CLASS
  1
AEC_DISP_PROPS_WINDOW
  2
AecDbDispPropsWindow
  3
AecArchBase50|Product Desc: Autodesk Architectural Desktop 2007 |Company: Autodesk,Inc. |WEB Address: www.autodesk.com
 90
    32897
280
     0
281
     0
  0
CLASS
  1
AEC_DISP_PROPS_LAYOUT_GRID3D
  2
AecDbDispPropsLayoutGrid3d
  3
AecBase50|Product Desc: Autodesk Architectural Desktop 2007 |Company: Autodesk,Inc. |WEB Address: www.autodesk.com
 90
    32897
280
     0
281
     0
  0
CLASS
  1
AEC_DISP_PROPS_GRID_ASSEMBLY_PLAN
  2
AecDbDispPropsGridAssemblyPlan
  3
AecArchBase50|Product Desc: Autodesk Architectural Desktop 2007 |Company: Autodesk,Inc. |WEB Address: www.autodesk.com
 90
    32897
280
     0
281
     0
  0
CLASS
  1
AEC_DISP_PROPS_WALL_SCHEM
  2
AecDbDispPropsWallSchem
  3
AecArchBase50|Product Desc: Autodesk Architectural Desktop 2007 |Company: Autodesk,Inc. |WEB Address: www.autodesk.com
 90
    32897
280
     0
281
     0
  0
CLASS
  1
AEC_DISP_PROPS_WALL_PLAN
  2
AecDbDispPropsWallPlan
  3
AecArchBase50|Product Desc: Autodesk Architectural Desktop 2007 |Company: Autodesk,Inc. |WEB Address: www.autodesk.com
 90
    32897
280
     0
281
     0
  0
CLASS
  1
AEC_DISP_PROPS_SPACE_BOUNDARY
  2
AecDbDispPropsSpaceBoundary
  3
AecArchBase50|Product Desc: Autodesk Architectural Desktop 2007 |Company: Autodesk,Inc. |WEB Address: www.autodesk.com
 90
    32897
280
     0
281
     0
  0
CLASS
  1
AEC_DISP_PROPS_SLAB_PLAN
  2
AecDbDispPropsSlabPlan
  3
AecArchBase50|Product Desc: Autodesk Architectural Desktop 2007 |Company: Autodesk,Inc. |WEB Address: www.autodesk.com
 90
    32897
280
     0
281
     0
  0
CLASS
  1
AEC_DISP_PROPS_RAILING_MODEL
  2
AecDbDispPropsRailingModel
  3
AecArchBase50|Product Desc: Autodesk Architectural Desktop 2007 |Company: Autodesk,Inc. |WEB Address: www.autodesk.com
 90
    32897
280
     0
281
     0
  0
CLASS
  1
AEC_DISP_PROPS_MASS_ELEM_MODEL
  2
AecDbDispPropsMassElem
  3
AecBaseEx50|Product Desc: Autodesk Architectural Desktop 2007 |Company: Autodesk,Inc. |WEB Address: www.autodesk.com
 90
    32897
280
     0
281
     0
  0
CLASS
  1
AEC_DISP_PROPS_DIM
  2
AecDbDispPropsDimGroup
  3
AecArchDACHBase50|Product Desc: Autodesk Architectural Desktop 2007 |Company: Autodesk,Inc. |WEB Address: www.autodesk.com
 90
    32897
280
     0
281
     0
  0
CLASS
  1
AEC_DISP_PROPS_ROOFSLAB
  2
AecDbDispPropsRoofSlab
  3
AecArchBase50|Product Desc: Autodesk Architectural Desktop 2007 |Company: Autodesk,Inc. |WEB Address: www.autodesk.com
 90
    32897
280
     0
281
     0
  0
CLASS
  1
AEC_DISP_PROPS_ENT_REF
  2
AecDbDispPropsEntRef
  3
AecBase50|Product Desc: Autodesk Architectural Desktop 2007 |Company: Autodesk,Inc. |WEB Address: www.autodesk.com
 90
    32897
280
     0
281
     0
  0
CLASS
  1
AEC_DISP_PROPS_2D_SECTION
  2
AecDbDispProps2dSection
  3
AecBase50|Product Desc: Autodesk Architectural Desktop 2007 |Company: Autodesk,Inc. |WEB Address: www.autodesk.com
 90
    32897
280
     0
281
     0
  0
CLASS
  1
AECS_DISP_PROPS_MEMBER_LOGICAL
  2
AecsDbDispPropsMemberLogical
  3
AecStructureBase50|Product Desc: Autodesk Architectural Desktop 2007 |Company: Autodesk,Inc. |WEB Address: www.autodesk.com
 90
    32897
280
     0
281
     0
  0
CLASS
  1
AEC_DISP_PROPS_AREA_DECOMPOSED
  2
AecDbDispPropsAreaDecomposed
  3
AecAreaCalculationBase50|Product Desc: Autodesk Architectural Desktop 2007 |Company: Autodesk,Inc. |WEB Address: www.autodesk.com
 90
    32897
280
     0
281
     0
  0
CLASS
  1
AEC_DISP_PROPS_CAMERA
  2
AecDbDispPropsCamera
  3
AecBase50|Product Desc: Autodesk Architectural Desktop 2007 |Company: Autodesk,Inc. |WEB Address: www.autodesk.com
 90
    32897
280
     0
281
     0
  0
CLASS
  1
AECS_DISP_PROPS_MEMBER
  2
AecsDbDispPropsMember
  3
AecStructureBase50|Product Desc: Autodesk Architectural Desktop 2007 |Company: Autodesk,Inc. |WEB Address: www.autodesk.com
 90
    32897
280
     0
281
     0
  0
CLASS
  1
AECS_DISP_PROPS_MEMBER_PLAN
  2
AecsDbDispPropsMemberPlan
  3
AecStructureBase50|Product Desc: Autodesk Architectural Desktop 2007 |Company: Autodesk,Inc. |WEB Address: www.autodesk.com
 90
    32897
280
     0
281
     0
  0
CLASS
  1
AEC_DISP_PROPS_AREAGROUP
  2
AecDbDispPropsAreaGroup
  3
AecAreaCalculationBase50|Product Desc: Autodesk Architectural Desktop 2007 |Company: Autodesk,Inc. |WEB Address: www.autodesk.com
 90
    32897
280
     0
281
     0
  0
CLASS
  1
AEC_DISP_PROPS_WINDOW_NOMINAL
  2
AecDbDispPropsWindowNominal
  3
AecArchBase50|Product Desc: Autodesk Architectural Desktop 2007 |Company: Autodesk,Inc. |WEB Address: www.autodesk.com
 90
    32897
280
     0
281
     0
  0
CLASS
  1
AEC_DISP_PROPS_AREA
  2
AecDbDispPropsArea
  3
AecAreaCalculationBase50|Product Desc: Autodesk Architectural Desktop 2007 |Company: Autodesk,Inc. |WEB Address: www.autodesk.com
 90
    32897
280
     0
281
     0
  0
CLASS
  1
AEC_DISP_PROPS_SCHEDULE_TABLE
  2
AecDbDispPropsScheduleTable
  3
AecSchedule50|Product Desc: Autodesk Architectural Desktop 2007 |Company: Autodesk,Inc. |WEB Address: www.autodesk.com
 90
    32897
280
     0
281
     0
  0
CLASS
  1
AEC_LAYERKEY_STYLE
  2
AecDbLayerKeyStyle
  3
AecBase50|Product Desc: Autodesk Architectural Desktop 2007 |Company: Autodesk,Inc. |WEB Address: www.autodesk.com
 90
    32897
280
     0
281
     0
  0
CLASS
  1
AEC_VARS_ARCHBASE
  2
AecDbVarsArchBase
  3
AecArchBase50|Product Desc: Autodesk Architectural Desktop 2007 |Company: Autodesk,Inc. |WEB Address: www.autodesk.com
 90
    32897
280
     0
281
     0
  0
CLASS
  1
AEC_VARS_MUNICH
  2
AecDbVarsMunich
  3
AecArchDACHBase50|Product Desc: Autodesk Architectural Desktop 2007 |Company: Autodesk,Inc. |WEB Address: www.autodesk.com
 90
    32897
280
     0
281
     0
  0
CLASS
  1
AEC_NOTIFICATION_TRACKER
  2
AecDbNotificationTracker
  3
AecBase50|Product Desc: Autodesk Architectural Desktop 2007 |Company: Autodesk,Inc. |WEB Address: www.autodesk.com
 90
    32897
280
     0
281
     0
  0
CLASS
  1
AEC_DISP_REP_ANCHOR
  2
AecDbDispRepAnchor
  3
AecBase50|Product Desc: Autodesk Architectural Desktop 2007 |Company: Autodesk,Inc. |WEB Address: www.autodesk.com
 90
    32897
280
     0
281
     0
  0
CLASS
  1
AEC_DISP_REP_POLYGON_TRUECOLOUR
  2
AecDbDispRepPolygonTrueColour
  3
AecBase50|Product Desc: Autodesk Architectural Desktop 2007 |Company: Autodesk,Inc. |WEB Address: www.autodesk.com
 90
    32897
280
     0
281
     0
  0
CLASS
  1
AEC_DISP_PROPS_POLYGON_TRUECOLOUR
  2
AecDbDispPropsPolygonTrueColour
  3
AecBase50|Product Desc: Autodesk Architectural Desktop 2007 |Company: Autodesk,Inc. |WEB Address: www.autodesk.com
 90
    32897
280
     0
281
     0
  0
CLASS
  1
AEC_DISP_REP_BDG_ELEVLINE_RCP
  2
AecDbDispRepBdgElevLineRcp
  3
AecArchBase50|Product Desc: Autodesk Architectural Desktop 2007 |Company: Autodesk,Inc. |WEB Address: www.autodesk.com
 90
    32897
280
     0
281
     0
  0
CLASS
  1
AEC_DISP_REP_BDG_SECTIONLINE_RCP
  2
AecDbDispRepBdgSectionLineRcp
  3
AecArchBase50|Product Desc: Autodesk Architectural Desktop 2007 |Company: Autodesk,Inc. |WEB Address: www.autodesk.com
 90
    32897
280
     0
281
     0
  0
CLASS
  1
AEC_DISP_REP_BDG_SECTION_MODEL
  2
AecDbDispRepBdgSectionModel
  3
AecArchBase50|Product Desc: Autodesk Architectural Desktop 2007 |Company: Autodesk,Inc. |WEB Address: www.autodesk.com
 90
    32897
280
     0
281
     0
  0
CLASS
  1
AEC_DISP_REP_DOOR_ELEV
  2
AecDbDispRepDoorElev
  3
AecArchBase50|Product Desc: Autodesk Architectural Desktop 2007 |Company: Autodesk,Inc. |WEB Address: www.autodesk.com
 90
    32897
280
     0
281
     0
  0
CLASS
  1
AEC_DISP_REP_DOOR_RCP
  2
AecDbDispRepDoorRcp
  3
AecArchBase50|Product Desc: Autodesk Architectural Desktop 2007 |Company: Autodesk,Inc. |WEB Address: www.autodesk.com
 90
    32897
280
     0
281
     0
  0
CLASS
  1
AEC_DISP_REP_DOOR_THRESHOLD_PLAN
  2
AecDbDispRepDoorThresholdPlan
  3
AecArchBase50|Product Desc: Autodesk Architectural Desktop 2007 |Company: Autodesk,Inc. |WEB Address: www.autodesk.com
 90
    32897
280
     0
281
     0
  0
CLASS
  1
AEC_DISP_PROPS_DOOR_THRESHOLD_PLAN
  2
AecDbDispPropsDoorThresholdPlan
  3
AecArchBase50|Product Desc: Autodesk Architectural Desktop 2007 |Company: Autodesk,Inc. |WEB Address: www.autodesk.com
 90
    32897
280
     0
281
     0
  0
CLASS
  1
AEC_DISP_REP_MASS_ELEM_RCP
  2
AecDbDispRepMassElemRcp
  3
AecArchBase50|Product Desc: Autodesk Architectural Desktop 2007 |Company: Autodesk,Inc. |WEB Address: www.autodesk.com
 90
    32897
280
     0
281
     0
  0
CLASS
  1
AEC_DISP_REP_MASS_GROUP_RCP
  2
AecDbDispRepMassGroupRcp
  3
AecArchBase50|Product Desc: Autodesk Architectural Desktop 2007 |Company: Autodesk,Inc. |WEB Address: www.autodesk.com
 90
    32897
280
     0
281
     0
  0
CLASS
  1
AEC_DISP_REP_MVBLOCK_REF_RCP
  2
AecDbDispRepMvBlockRefRcp
  3
AecArchBase50|Product Desc: Autodesk Architectural Desktop 2007 |Company: Autodesk,Inc. |WEB Address: www.autodesk.com
 90
    32897
280
     0
281
     0
  0
CLASS
  1
AEC_DISP_REP_ROOF_RCP
  2
AecDbDispRepRoofRcp
  3
AecArchBase50|Product Desc: Autodesk Architectural Desktop 2007 |Company: Autodesk,Inc. |WEB Address: www.autodesk.com
 90
    32897
280
     0
281
     0
  0
CLASS
  1
AEC_DISP_REP_SPACE_BOUNDARY_DIAGRAM
  2
AecDbDispRepSpaceBoundaryDgrm
  3
AecArchBase50|Product Desc: Autodesk Architectural Desktop 2007 |Company: Autodesk,Inc. |WEB Address: www.autodesk.com
 90
    32897
280
     0
281
     0
  0
CLASS
  1
AEC_DISP_REP_SPACE_RCP
  2
AecDbDispRepSpaceRcp
  3
AecArchBase50|Product Desc: Autodesk Architectural Desktop 2007 |Company: Autodesk,Inc. |WEB Address: www.autodesk.com
 90
    32897
280
     0
281
     0
  0
CLASS
  1
AEC_DISP_REP_SPACE_VOLUME
  2
AecDbDispRepSpaceVolume
  3
AecArchBase50|Product Desc: Autodesk Architectural Desktop 2007 |Company: Autodesk,Inc. |WEB Address: www.autodesk.com
 90
    32897
280
     0
281
     0
  0
CLASS
  1
AEC_DISP_REP_STAIR_PLAN_OVERLAPPING
  2
AecDbDispRepStairPlanOverlapping
  3
AecArchBase50|Product Desc: Autodesk Architectural Desktop 2007 |Company: Autodesk,Inc. |WEB Address: www.autodesk.com
 90
    32897
280
     0
281
     0
  0
CLASS
  1
AEC_DISP_PROPS_STAIR_PLAN_OVERLAPPING
  2
AecDbDispPropsStairPlanOverlapping
  3
AecArchBase50|Product Desc: Autodesk Architectural Desktop 2007 |Company: Autodesk,Inc. |WEB Address: www.autodesk.com
 90
    32897
280
     0
281
     0
  0
CLASS
  1
AEC_DISP_REP_STAIR_RCP
  2
AecDbDispRepStairRcp
  3
AecArchBase50|Product Desc: Autodesk Architectural Desktop 2007 |Company: Autodesk,Inc. |WEB Address: www.autodesk.com
 90
    32897
280
     0
281
     0
  0
CLASS
  1
AEC_DISP_REP_WALL_RCP
  2
AecDbDispRepWallRcp
  3
AecArchBase50|Product Desc: Autodesk Architectural Desktop 2007 |Company: Autodesk,Inc. |WEB Address: www.autodesk.com
 90
    32897
280
     0
281
     0
  0
CLASS
  1
AEC_DISP_REP_WINDOWASSEMBLY_SILL_PLAN
  2
AecDbDispRepWindowAssemblySillPlan
  3
AecArchBase50|Product Desc: Autodesk Architectural Desktop 2007 |Company: Autodesk,Inc. |WEB Address: www.autodesk.com
 90
    32897
280
     0
281
     0
  0
CLASS
  1
AEC_DISP_PROPS_WINDOW_ASSEMBLY_SILL_PLAN
  2
AecDbDispPropsWindowAssemblySillPlan
  3
AecArchBase50|Product Desc: Autodesk Architectural Desktop 2007 |Company: Autodesk,Inc. |WEB Address: www.autodesk.com
 90
    32897
280
     0
281
     0
  0
CLASS
  1
AEC_DISP_REP_WINDOW_ELEV
  2
AecDbDispRepWindowElev
  3
AecArchBase50|Product Desc: Autodesk Architectural Desktop 2007 |Company: Autodesk,Inc. |WEB Address: www.autodesk.com
 90
    32897
280
     0
281
     0
  0
CLASS
  1
AEC_DISP_REP_WINDOW_RCP
  2
AecDbDispRepWindowRcp
  3
AecArchBase50|Product Desc: Autodesk Architectural Desktop 2007 |Company: Autodesk,Inc. |WEB Address: www.autodesk.com
 90
    32897
280
     0
281
     0
  0
CLASS
  1
AEC_DISP_REP_WINDOW_SILL_PLAN
  2
AecDbDispRepWindowSillPlan
  3
AecArchBase50|Product Desc: Autodesk Architectural Desktop 2007 |Company: Autodesk,Inc. |WEB Address: www.autodesk.com
 90
    32897
280
     0
281
     0
  0
CLASS
  1
AEC_DISP_PROPS_WINDOW_SILL_PLAN
  2
AecDbDispPropsWindowSillPlan
  3
AecArchBase50|Product Desc: Autodesk Architectural Desktop 2007 |Company: Autodesk,Inc. |WEB Address: www.autodesk.com
 90
    32897
280
     0
281
     0
  0
CLASS
  1
AEC_DISP_REP_ANCHOR_BUB_TO_GRID_RCP
  2
AecDbDispRepAnchorBubToGridRcp
  3
AecStructureBase50|Product Desc: Autodesk Architectural Desktop 2007 |Company: Autodesk,Inc. |WEB Address: www.autodesk.com
 90
    32897
280
     0
281
     0
  0
CLASS
  1
AEC_DISP_REP_COLUMN_GRID_RCP
  2
AecDbDispRepColumnGridRcp
  3
AecStructureBase50|Product Desc: Autodesk Architectural Desktop 2007 |Company: Autodesk,Inc. |WEB Address: www.autodesk.com
 90
    32897
280
     0
281
     0
  0
CLASS
  1
AECS_DISP_REP_MEMBER_ELEVATION_DESIGN
  2
AecsDbDispRepMemberElevationDesign
  3
AecStructureBase50|Product Desc: Autodesk Architectural Desktop 2007 |Company: Autodesk,Inc. |WEB Address: www.autodesk.com
 90
    32897
280
     0
281
     0
  0
CLASS
  1
AECS_DISP_PROPS_MEMBER_PROJECTED
  2
AecsDbDispPropsMemberProjected
  3
AecStructureBase50|Product Desc: Autodesk Architectural Desktop 2007 |Company: Autodesk,Inc. |WEB Address: www.autodesk.com
 90
    32897
280
     0
281
     0
  0
CLASS
  1
AECS_DISP_REP_MEMBER_ELEVATION_DETAIL
  2
AecsDbDispRepMemberElevationDetail
  3
AecStructureBase50|Product Desc: Autodesk Architectural Desktop 2007 |Company: Autodesk,Inc. |WEB Address: www.autodesk.com
 90
    32897
280
     0
281
     0
  0
CLASS
  1
AECS_DISP_REP_MEMBER_MODEL_DETAIL
  2
AecsDbDispRepMemberModelDetail
  3
AecStructureBase50|Product Desc: Autodesk Architectural Desktop 2007 |Company: Autodesk,Inc. |WEB Address: www.autodesk.com
 90
    32897
280
     0
281
     0
  0
CLASS
  1
AECS_DISP_REP_MEMBER_PLAN_DETAIL
  2
AecsDbDispRepMemberPlanDetail
  3
AecStructureBase50|Product Desc: Autodesk Architectural Desktop 2007 |Company: Autodesk,Inc. |WEB Address: www.autodesk.com
 90
    32897
280
     0
281
     0
  0
CLASS
  1
AECS_DISP_REP_MEMBER_PLAN_SKETCH
  2
AecsDbDispRepMemberPlanSketch
  3
AecStructureBase50|Product Desc: Autodesk Architectural Desktop 2007 |Company: Autodesk,Inc. |WEB Address: www.autodesk.com
 90
    32897
280
     0
281
     0
  0
CLASS
  1
AECS_DISP_PROPS_MEMBER_PLAN_SKETCH
  2
AecsDbDispPropsMemberPlanSketch
  3
AecStructureBase50|Product Desc: Autodesk Architectural Desktop 2007 |Company: Autodesk,Inc. |WEB Address: www.autodesk.com
 90
    32897
280
     0
281
     0
  0
CLASS
  1
AEC_AECDBDISPREPAREA100
  2
AecDbDispRepArea100
  3
AecArchDACHBase50|Product Desc: Autodesk Architectural Desktop 2007 |Company: Autodesk,Inc. |WEB Address: www.autodesk.com
 90
    32897
280
     0
281
     0
  0
CLASS
  1
AEC_AECDBDISPREPAREAGROUP100
  2
AecDbDispRepAreaGroup100
  3
AecArchDACHBase50|Product Desc: Autodesk Architectural Desktop 2007 |Company: Autodesk,Inc. |WEB Address: www.autodesk.com
 90
    32897
280
     0
281
     0
  0
CLASS
  1
AEC_AECDBDISPREPBDGELEVLINEPLAN100
  2
AecDbDispRepBdgElevLinePlan100
  3
AecArchDACHBase50|Product Desc: Autodesk Architectural Desktop 2007 |Company: Autodesk,Inc. |WEB Address: www.autodesk.com
 90
    32897
280
     0
281
     0
  0
CLASS
  1
AEC_AECDBDISPREPBDGSECTIONLINEPLAN100
  2
AecDbDispRepBdgSectionLinePlan100
  3
AecArchDACHBase50|Product Desc: Autodesk Architectural Desktop 2007 |Company: Autodesk,Inc. |WEB Address: www.autodesk.com
 90
    32897
280
     0
281
     0
  0
CLASS
  1
AEC_AECDBDISPREPCEILINGGRIDPLAN100
  2
AecDbDispRepCeilingGridPlan100
  3
AecArchDACHBase50|Product Desc: Autodesk Architectural Desktop 2007 |Company: Autodesk,Inc. |WEB Address: www.autodesk.com
 90
    32897
280
     0
281
     0
  0
CLASS
  1
AEC_AECDBDISPREPCOLUMNGRIDPLAN100
  2
AecDbDispRepColumnGridPlan100
  3
AecArchDACHBase50|Product Desc: Autodesk Architectural Desktop 2007 |Company: Autodesk,Inc. |WEB Address: www.autodesk.com
 90
    32897
280
     0
281
     0
  0
CLASS
  1
AEC_AECDBDISPREPCURTAINWALLLAYOUTPLAN100
  2
AecDbDispRepCurtainWallLayoutPlan100
  3
AecArchDACHBase50|Product Desc: Autodesk Architectural Desktop 2007 |Company: Autodesk,Inc. |WEB Address: www.autodesk.com
 90
    32897
280
     0
281
     0
  0
CLASS
  1
AEC_AECDBDISPREPCURTAINWALLUNITPLAN100
  2
AecDbDispRepCurtainWallUnitPlan100
  3
AecArchDACHBase50|Product Desc: Autodesk Architectural Desktop 2007 |Company: Autodesk,Inc. |WEB Address: www.autodesk.com
 90
    32897
280
     0
281
     0
  0
CLASS
  1
AEC_AECDBDISPREPMVBLOCKREFPLAN100
  2
AecDbDispRepMvBlockRefPlan100
  3
AecArchDACHBase50|Product Desc: Autodesk Architectural Desktop 2007 |Company: Autodesk,Inc. |WEB Address: www.autodesk.com
 90
    32897
280
     0
281
     0
  0
CLASS
  1
AEC_AECDBDISPREPROOFPLAN100
  2
AecDbDispRepRoofPlan100
  3
AecArchDACHBase50|Product Desc: Autodesk Architectural Desktop 2007 |Company: Autodesk,Inc. |WEB Address: www.autodesk.com
 90
    32897
280
     0
281
     0
  0
CLASS
  1
AEC_AECDBDISPREPROOFSLABPLAN100
  2
AecDbDispRepRoofSlabPlan100
  3
AecArchDACHBase50|Product Desc: Autodesk Architectural Desktop 2007 |Company: Autodesk,Inc. |WEB Address: www.autodesk.com
 90
    32897
280
     0
281
     0
  0
CLASS
  1
AEC_AECDBDISPREPSLABPLAN100
  2
AecDbDispRepSlabPlan100
  3
AecArchDACHBase50|Product Desc: Autodesk Architectural Desktop 2007 |Company: Autodesk,Inc. |WEB Address: www.autodesk.com
 90
    32897
280
     0
281
     0
  0
CLASS
  1
AEC_AECDBDISPREPSPACEBOUNDARYPLAN100
  2
AecDbDispRepSpaceBoundaryPlan100
  3
AecArchDACHBase50|Product Desc: Autodesk Architectural Desktop 2007 |Company: Autodesk,Inc. |WEB Address: www.autodesk.com
 90
    32897
280
     0
281
     0
  0
CLASS
  1
AEC_AECDBDISPREPSPACEPLAN100
  2
AecDbDispRepSpacePlan100
  3
AecArchDACHBase50|Product Desc: Autodesk Architectural Desktop 2007 |Company: Autodesk,Inc. |WEB Address: www.autodesk.com
 90
    32897
280
     0
281
     0
  0
CLASS
  1
AEC_AECDBDISPREPWALLPLAN100
  2
AecDbDispRepWallPlan100
  3
AecArchDACHBase50|Product Desc: Autodesk Architectural Desktop 2007 |Company: Autodesk,Inc. |WEB Address: www.autodesk.com
 90
    32897
280
     0
281
     0
  0
CLASS
  1
AEC_AECDBDISPREPAREA50
  2
AecDbDispRepArea50
  3
AecArchDACHBase50|Product Desc: Autodesk Architectural Desktop 2007 |Company: Autodesk,Inc. |WEB Address: www.autodesk.com
 90
    32897
280
     0
281
     0
  0
CLASS
  1
AEC_AECDBDISPREPAREAGROUP50
  2
AecDbDispRepAreaGroup50
  3
AecArchDACHBase50|Product Desc: Autodesk Architectural Desktop 2007 |Company: Autodesk,Inc. |WEB Address: www.autodesk.com
 90
    32897
280
     0
281
     0
  0
CLASS
  1
AEC_AECDBDISPREPBDGELEVLINEPLAN50
  2
AecDbDispRepBdgElevLinePlan50
  3
AecArchDACHBase50|Product Desc: Autodesk Architectural Desktop 2007 |Company: Autodesk,Inc. |WEB Address: www.autodesk.com
 90
    32897
280
     0
281
     0
  0
CLASS
  1
AEC_AECDBDISPREPBDGSECTIONLINEPLAN50
  2
AecDbDispRepBdgSectionLinePlan50
  3
AecArchDACHBase50|Product Desc: Autodesk Architectural Desktop 2007 |Company: Autodesk,Inc. |WEB Address: www.autodesk.com
 90
    32897
280
     0
281
     0
  0
CLASS
  1
AEC_AECDBDISPREPCEILINGGRIDPLAN50
  2
AecDbDispRepCeilingGridPlan50
  3
AecArchDACHBase50|Product Desc: Autodesk Architectural Desktop 2007 |Company: Autodesk,Inc. |WEB Address: www.autodesk.com
 90
    32897
280
     0
281
     0
  0
CLASS
  1
AEC_AECDBDISPREPCOLUMNGRIDPLAN50
  2
AecDbDispRepColumnGridPlan50
  3
AecArchDACHBase50|Product Desc: Autodesk Architectural Desktop 2007 |Company: Autodesk,Inc. |WEB Address: www.autodesk.com
 90
    32897
280
     0
281
     0
  0
CLASS
  1
AEC_AECDBDISPREPCURTAINWALLLAYOUTPLAN50
  2
AecDbDispRepCurtainWallLayoutPlan50
  3
AecArchDACHBase50|Product Desc: Autodesk Architectural Desktop 2007 |Company: Autodesk,Inc. |WEB Address: www.autodesk.com
 90
    32897
280
     0
281
     0
  0
CLASS
  1
AEC_AECDBDISPREPCURTAINWALLUNITPLAN50
  2
AecDbDispRepCurtainWallUnitPlan50
  3
AecArchDACHBase50|Product Desc: Autodesk Architectural Desktop 2007 |Company: Autodesk,Inc. |WEB Address: www.autodesk.com
 90
    32897
280
     0
281
     0
  0
CLASS
  1
AEC_AECDBDISPREPMVBLOCKREFPLAN50
  2
AecDbDispRepMvBlockRefPlan50
  3
AecArchDACHBase50|Product Desc: Autodesk Architectural Desktop 2007 |Company: Autodesk,Inc. |WEB Address: www.autodesk.com
 90
    32897
280
     0
281
     0
  0
CLASS
  1
AEC_AECDBDISPREPROOFPLAN50
  2
AecDbDispRepRoofPlan50
  3
AecArchDACHBase50|Product Desc: Autodesk Architectural Desktop 2007 |Company: Autodesk,Inc. |WEB Address: www.autodesk.com
 90
    32897
280
     0
281
     0
  0
CLASS
  1
AEC_AECDBDISPREPROOFSLABPLAN50
  2
AecDbDispRepRoofSlabPlan50
  3
AecArchDACHBase50|Product Desc: Autodesk Architectural Desktop 2007 |Company: Autodesk,Inc. |WEB Address: www.autodesk.com
 90
    32897
280
     0
281
     0
  0
CLASS
  1
AEC_AECDBDISPREPSLABPLAN50
  2
AecDbDispRepSlabPlan50
  3
AecArchDACHBase50|Product Desc: Autodesk Architectural Desktop 2007 |Company: Autodesk,Inc. |WEB Address: www.autodesk.com
 90
    32897
280
     0
281
     0
  0
CLASS
  1
AEC_AECDBDISPREPSPACEBOUNDARYPLAN50
  2
AecDbDispRepSpaceBoundaryPlan50
  3
AecArchDACHBase50|Product Desc: Autodesk Architectural Desktop 2007 |Company: Autodesk,Inc. |WEB Address: www.autodesk.com
 90
    32897
280
     0
281
     0
  0
CLASS
  1
AEC_AECDBDISPREPSPACEPLAN50
  2
AecDbDispRepSpacePlan50
  3
AecArchDACHBase50|Product Desc: Autodesk Architectural Desktop 2007 |Company: Autodesk,Inc. |WEB Address: www.autodesk.com
 90
    32897
280
     0
281
     0
  0
CLASS
  1
AEC_AECDBDISPREPWALLPLAN50
  2
AecDbDispRepWallPlan50
  3
AecArchDACHBase50|Product Desc: Autodesk Architectural Desktop 2007 |Company: Autodesk,Inc. |WEB Address: www.autodesk.com
 90
    32897
280
     0
281
     0
  0
CLASS
  1
AEC_AECDBDISPREPWINDOWASSEMBLYPLAN50
  2
AecDbDispRepWindowAssemblyPlan50
  3
AecArchDACHBase50|Product Desc: Autodesk Architectural Desktop 2007 |Company: Autodesk,Inc. |WEB Address: www.autodesk.com
 90
    32897
280
     0
281
     0
  0
CLASS
  1
AEC_DB_DISP_REP_DIM_GROUP_PLAN100
  2
AecDbDispRepDimGroupPlan100
  3
AecArchDACHBase50|Product Desc: Autodesk Architectural Desktop 2007 |Company: Autodesk,Inc. |WEB Address: www.autodesk.com
 90
    32897
280
     0
281
     0
  0
CLASS
  1
AEC_DB_DISP_REP_DIM_GROUP_PLAN50
  2
AecDbDispRepDimGroupPlan50
  3
AecArchDACHBase50|Product Desc: Autodesk Architectural Desktop 2007 |Company: Autodesk,Inc. |WEB Address: www.autodesk.com
 90
    32897
280
     0
281
     0
  0
CLASS
  1
AEC_DISP_REP_DOOR_PLAN_50
  2
AecDbDispRepDoorPlan50
  3
AecArchDACHBase50|Product Desc: Autodesk Architectural Desktop 2007 |Company: Autodesk,Inc. |WEB Address: www.autodesk.com
 90
    32897
280
     0
281
     0
  0
CLASS
  1
AEC_DISP_PROPS_DOOR_PLAN_50
  2
AecDbDispPropsDoorPlan50
  3
AecArchDACHBase50|Product Desc: Autodesk Architectural Desktop 2007 |Company: Autodesk,Inc. |WEB Address: www.autodesk.com
 90
    32897
280
     0
281
     0
  0
CLASS
  1
AEC_DISP_REP_DOOR_PLAN_HEKTO
  2
AecDbDispRepDoorPlanHekto
  3
AecArchDACHBase50|Product Desc: Autodesk Architectural Desktop 2007 |Company: Autodesk,Inc. |WEB Address: www.autodesk.com
 90
    32897
280
     0
281
     0
  0
CLASS
  1
AEC_DISP_PROPS_DOOR_PLAN_100
  2
AecDbDispPropsDoorPlan100
  3
AecArchDACHBase50|Product Desc: Autodesk Architectural Desktop 2007 |Company: Autodesk,Inc. |WEB Address: www.autodesk.com
 90
    32897
280
     0
281
     0
  0
CLASS
  1
AEC_DISP_REP_DOOR_THRESHOLD_SYMBOL_PLAN
  2
AecDbDispRepDoorThresholdSymbolPlan
  3
AecArchDACHBase50|Product Desc: Autodesk Architectural Desktop 2007 |Company: Autodesk,Inc. |WEB Address: www.autodesk.com
 90
    32897
280
     0
281
     0
  0
CLASS
  1
AEC_DISP_PROPS_DOOR_THRESHOLD_SYMBOL_PLAN
  2
AecDbDispPropsDoorThresholdSymbolPlan
  3
AecArchDACHBase50|Product Desc: Autodesk Architectural Desktop 2007 |Company: Autodesk,Inc. |WEB Address: www.autodesk.com
 90
    32897
280
     0
281
     0
  0
CLASS
  1
AEC_DISPREPAECDBDISPREPMASSELEMPLAN100
  2
AecDbDispRepMassElemPlan100
  3
AecArchDACHBase50|Product Desc: Autodesk Architectural Desktop 2007 |Company: Autodesk,Inc. |WEB Address: www.autodesk.com
 90
    32897
280
     0
281
     0
  0
CLASS
  1
AEC_DISPROPSMASSELEMPLANCOMMON
  2
AecDbDispPropsMassElemPlanCommon
  3
AecArchDACHBase50|Product Desc: Autodesk Architectural Desktop 2007 |Company: Autodesk,Inc. |WEB Address: www.autodesk.com
 90
    32897
280
     0
281
     0
  0
CLASS
  1
AEC_DISPREPAECDBDISPREPMASSELEMPLAN50
  2
AecDbDispRepMassElemPlan50
  3
AecArchDACHBase50|Product Desc: Autodesk Architectural Desktop 2007 |Company: Autodesk,Inc. |WEB Address: www.autodesk.com
 90
    32897
280
     0
281
     0
  0
CLASS
  1
AEC_DISPREPAECDBDISPREPMASSGROUPPLAN100
  2
AecDbDispRepMassGroupPlan100
  3
AecArchDACHBase50|Product Desc: Autodesk Architectural Desktop 2007 |Company: Autodesk,Inc. |WEB Address: www.autodesk.com
 90
    32897
280
     0
281
     0
  0
CLASS
  1
AEC_DISPROPSMASSGROUPPLANCOMMON
  2
AecDbDispPropsMassGroupPlanCommon
  3
AecArchDACHBase50|Product Desc: Autodesk Architectural Desktop 2007 |Company: Autodesk,Inc. |WEB Address: www.autodesk.com
 90
    32897
280
     0
281
     0
  0
CLASS
  1
AEC_DISPREPAECDBDISPREPMASSGROUPPLAN50
  2
AecDbDispRepMassGroupPlan50
  3
AecArchDACHBase50|Product Desc: Autodesk Architectural Desktop 2007 |Company: Autodesk,Inc. |WEB Address: www.autodesk.com
 90
    32897
280
     0
281
     0
  0
CLASS
  1
AEC_DISPREPAECDBDISPREPOPENINGPLAN100
  2
AecDbDispRepOpeningPlan100
  3
AecArchDACHBase50|Product Desc: Autodesk Architectural Desktop 2007 |Company: Autodesk,Inc. |WEB Address: www.autodesk.com
 90
    32897
280
     0
281
     0
  0
CLASS
  1
AEC_DISPROPSOPENINGPLANCOMMONHATCHED
  2
AecDbDispPropsOpeningPlanCommonHatched
  3
AecArchDACHBase50|Product Desc: Autodesk Architectural Desktop 2007 |Company: Autodesk,Inc. |WEB Address: www.autodesk.com
 90
    32897
280
     0
281
     0
  0
CLASS
  1
AEC_DISPREPAECDBDISPREPOPENINGPLAN50
  2
AecDbDispRepOpeningPlan50
  3
AecArchDACHBase50|Product Desc: Autodesk Architectural Desktop 2007 |Company: Autodesk,Inc. |WEB Address: www.autodesk.com
 90
    32897
280
     0
281
     0
  0
CLASS
  1
AEC_DISPREPAECDBDISPREPOPENINGPLANREFLECTED
  2
AecDbDispRepOpeningPlanReflected
  3
AecArchDACHBase50|Product Desc: Autodesk Architectural Desktop 2007 |Company: Autodesk,Inc. |WEB Address: www.autodesk.com
 90
    32897
280
     0
281
     0
  0
CLASS
  1
AEC_DISPROPSOPENINGPLANCOMMON
  2
AecDbDispPropsOpeningPlanCommon
  3
AecArchDACHBase50|Product Desc: Autodesk Architectural Desktop 2007 |Company: Autodesk,Inc. |WEB Address: www.autodesk.com
 90
    32897
280
     0
281
     0
  0
CLASS
  1
AEC_DISPREPAECDBDISPREPOPENINGSILLPLAN
  2
AecDbDispRepOpeningSillPlan
  3
AecArchDACHBase50|Product Desc: Autodesk Architectural Desktop 2007 |Company: Autodesk,Inc. |WEB Address: www.autodesk.com
 90
    32897
280
     0
281
     0
  0
CLASS
  1
AEC_DISPROPSOPENINGSILLPLAN
  2
AecDbDispPropsOpeningSillPlan
  3
AecArchDACHBase50|Product Desc: Autodesk Architectural Desktop 2007 |Company: Autodesk,Inc. |WEB Address: www.autodesk.com
 90
    32897
280
     0
281
     0
  0
CLASS
  1
AEC_DISP_REP_RAILING_PLAN_100
  2
AecDbDispRepRailingPlan100
  3
AecArchDACHBase50|Product Desc: Autodesk Architectural Desktop 2007 |Company: Autodesk,Inc. |WEB Address: www.autodesk.com
 90
    32897
280
     0
281
     0
  0
CLASS
  1
AEC_DISP_ROPS_RAILING_PLAN_100
  2
AecDbDispPropsRailingPlan100
  3
AecArchDACHBase50|Product Desc: Autodesk Architectural Desktop 2007 |Company: Autodesk,Inc. |WEB Address: www.autodesk.com
 90
    32897
280
     0
281
     0
  0
CLASS
  1
AEC_DISP_REP_RAILING_PLAN_50
  2
AecDbDispRepRailingPlan50
  3
AecArchDACHBase50|Product Desc: Autodesk Architectural Desktop 2007 |Company: Autodesk,Inc. |WEB Address: www.autodesk.com
 90
    32897
280
     0
281
     0
  0
CLASS
  1
AEC_DISP_ROPS_RAILING_PLAN_50
  2
AecDbDispPropsRailingPlan50
  3
AecArchDACHBase50|Product Desc: Autodesk Architectural Desktop 2007 |Company: Autodesk,Inc. |WEB Address: www.autodesk.com
 90
    32897
280
     0
281
     0
  0
CLASS
  1
AEC_DISP_REP_STAIR_PLAN_100
  2
AecDbDispRepStairPlan100
  3
AecArchDACHBase50|Product Desc: Autodesk Architectural Desktop 2007 |Company: Autodesk,Inc. |WEB Address: www.autodesk.com
 90
    32897
280
     0
281
     0
  0
CLASS
  1
AEC_DISP_ROPS_STAIR_PLAN_100
  2
AecDbDispPropsStairPlan100
  3
AecArchDACHBase50|Product Desc: Autodesk Architectural Desktop 2007 |Company: Autodesk,Inc. |WEB Address: www.autodesk.com
 90
    32897
280
     0
281
     0
  0
CLASS
  1
AEC_DISP_REP_STAIR_PLAN_50
  2
AecDbDispRepStairPlan50
  3
AecArchDACHBase50|Product Desc: Autodesk Architectural Desktop 2007 |Company: Autodesk,Inc. |WEB Address: www.autodesk.com
 90
    32897
280
     0
281
     0
  0
CLASS
  1
AEC_DISP_ROPS_STAIR_PLAN_50
  2
AecDbDispPropsStairPlan50
  3
AecArchDACHBase50|Product Desc: Autodesk Architectural Desktop 2007 |Company: Autodesk,Inc. |WEB Address: www.autodesk.com
 90
    32897
280
     0
281
     0
  0
CLASS
  1
AEC_DISP_REP_WINDOW_PLAN_100
  2
AecDbDispRepWindowPlan100
  3
AecArchDACHBase50|Product Desc: Autodesk Architectural Desktop 2007 |Company: Autodesk,Inc. |WEB Address: www.autodesk.com
 90
    32897
280
     0
281
     0
  0
CLASS
  1
AEC_DISP_PROPS_WINDOW_PLAN_100
  2
AecDbDispPropsWindowPlan100
  3
AecArchDACHBase50|Product Desc: Autodesk Architectural Desktop 2007 |Company: Autodesk,Inc. |WEB Address: www.autodesk.com
 90
    32897
280
     0
281
     0
  0
CLASS
  1
AEC_DISP_REP_WINDOW_PLAN_50
  2
AecDbDispRepWindowPlan50
  3
AecArchDACHBase50|Product Desc: Autodesk Architectural Desktop 2007 |Company: Autodesk,Inc. |WEB Address: www.autodesk.com
 90
    32897
280
     0
281
     0
  0
CLASS
  1
AEC_DISP_PROPS_WINDOW_PLAN_50
  2
AecDbDispPropsWindowPlan50
  3
AecArchDACHBase50|Product Desc: Autodesk Architectural Desktop 2007 |Company: Autodesk,Inc. |WEB Address: www.autodesk.com
 90
    32897
280
     0
281
     0
  0
CLASS
  1
BINRECORD
  2
AcAecBinRecord
  3
AecBase50|Product Desc: Autodesk Architectural Desktop 2007 |Company: Autodesk,Inc. |WEB Address: www.autodesk.com
 90
    32897
280
     0
281
     0
  0
CLASS
  1
SPATIAL_FILTER
  2
AcDbSpatialFilter
  3
ObjectDBX Classes
 90
    32768
280
     0
281
     0
  0
CLASS
  1
AEC_VARS_STRUCTUREBASE
  2
AecsDbVarsStructureBase
  3
AecStructureBase50|Product Desc: Autodesk Architectural Desktop 2007 |Company: Autodesk,Inc. |WEB Address: www.autodesk.com
 90
    32897
280
     0
281
     0
  0
CLASS
  1
DIMASSOC
  2
AcDbDimAssoc
  3
"AcDbDimAssoc|Product Desc:     AcDim ARX App For Dimension|Company:          Autodesk, Inc.|WEB Address:      www.autodesk.com"
 90
    32768
280
     0
281
     0
  0
CLASS
  1
TABLESTYLE
  2
AcDbTableStyle
  3
ObjectDBX Classes
 90
     4095
280
     0
281
     0
  0
CLASS
  1
MATERIAL
  2
AcDbMaterial
  3
ObjectDBX Classes
 90
     1153
280
     0
281
     0
  0
CLASS
  1
VISUALSTYLE
  2
AcDbVisualStyle
  3
ObjectDBX Classes
 90
     4095
280
     0
281
     0
  0
CLASS
  1
ACAD_EVALUATION_GRAPH
  2
AcDbEvalGraph
  3
ObjectDBX Classes
 90
     1153
280
     0
281
     0
  0
CLASS
  1
BLOCKFLIPPARAMETER
  2
AcDbBlockFlipParameter
  3
ObjectDBX Classes
 90
     1153
280
     0
281
     0
  0
CLASS
  1
BLOCKFLIPGRIP
  2
AcDbBlockFlipGrip
  3
ObjectDBX Classes
 90
     1153
280
     0
281
     0
  0
CLASS
  1
BLOCKGRIPLOCATIONCOMPONENT
  2
AcDbBlockGripExpr
  3
ObjectDBX Classes
 90
     1153
280
     0
281
     0
  0
CLASS
  1
BLOCKFLIPACTION
  2
AcDbBlockFlipAction
  3
ObjectDBX Classes
 90
     1153
280
     0
281
     0
  0
CLASS
  1
BLOCKROTATIONPARAMETER
  2
AcDbBlockRotationParameter
  3
ObjectDBX Classes
 90
     1153
280
     0
281
     0
  0
CLASS
  1
BLOCKROTATIONGRIP
  2
AcDbBlockRotationGrip
  3
ObjectDBX Classes
 90
     1153
280
     0
281
     0
  0
CLASS
  1
BLOCKROTATEACTION
  2
AcDbBlockRotateAction
  3
ObjectDBX Classes
 90
     1153
280
     0
281
     0
  0
CLASS
  1
BLOCKBASEPOINTPARAMETER
  2
AcDbBlockBasepointParameter
  3
ObjectDBX Classes
 90
     1153
280
     0
281
     0
  0
CLASS
  1
ACDB_DYNAMICBLOCKPURGEPREVENTER_VERSION
  2
AcDbDynamicBlockPurgePreventer
  3
ObjectDBX Classes
 90
     1153
280
     0
281
     0
  0
CLASS
  1
ACDB_BLOCKREPRESENTATION_DATA
  2
AcDbBlockRepresentationData
  3
ObjectDBX Classes
 90
    33921
280
     0
281
     0
  0
CLASS
  1
OBJECT_PTR
  2
CAseDLPNTableRecord
  3
ASE-LPNTableRecord
 90
        1
280
     0
281
     0
  0
CLASS
  1
EXACXREFPANELOBJECT
  2
ExAcXREFPanelObject
  3
EXAC_ESW
 90
    33793
280
     0
281
     0
  0
CLASS
  1
NPOCOLLECTION
  2
AcDbImpNonPersistentObjectsCollection
  3
ObjectDBX Classes
 90
    33921
280
     0
281
     0
  0
CLASS
  1
SCALE
  2
AcDbScale
  3
ObjectDBX Classes
 90
     1153
280
     0
281
     0
  0
CLASS
  1
MLEADERSTYLE
  2
AcDbMLeaderStyle
  3
ACDB_MLEADERSTYLE_CLASS
 90
     4095
280
     0
281
     0
  0
CLASS
  1
CELLSTYLEMAP
  2
AcDbCellStyleMap
  3
ObjectDBX Classes
 90
     1152
280
     0
281
     0
  0
ENDSEC
  0
SECTION
  2
TABLES
  0
TABLE
  2
VPORT
  5
1C
330
0
100
AcDbSymbolTable
 70
     1
  0
VPORT
  5
199F
330
1C
100
AcDbSymbolTableRecord
100
AcDbViewportTableRecord
  2
*Active
 70
     0
 10
0.0
 20
0.0
 11
1.0
 21
1.0
 12
220807.1461236951
 22
135112.3928696476
 13
0.0
 23
0.0
 14
10.0
 24
10.0
 15
10.0
 25
10.0
 16
0.0
 26
0.0
 36
1.0
 17
0.0
 27
0.0
 37
0.0
 40
21745.22490825124
 41
1.574498567335243
 42
50.0
 43
0.0
 44
0.0
 50
0.0
 51
0.0
 71
     0
 72
  1000
 73
     1
 74
     1
 75
     0
 76
     0
 77
     0
 78
     0
281
     0
 65
     1
110
0.0
120
0.0
130
0.0
111
1.0
121
0.0
131
0.0
112
0.0
122
1.0
132
0.0
 79
     0
146
0.0
  0
ENDTAB
  0
TABLE
  2
LTYPE
  5
17
330
0
100
AcDbSymbolTable
 70
     6
  0
LTYPE
  5
18
330
17
100
AcDbSymbolTableRecord
100
AcDbLinetypeTableRecord
  2
ByBlock
 70
     0
  3

 72
    65
 73
     0
 40
0.0
  0
LTYPE
  5
19
330
17
100
AcDbSymbolTableRecord
100
AcDbLinetypeTableRecord
  2
ByLayer
 70
     0
  3

 72
    65
 73
     0
 40
0.0
  0
LTYPE
  5
8
330
17
100
AcDbSymbolTableRecord
100
AcDbLinetypeTableRecord
  2
Continuous
 70
     0
  3
Solid line
 72
    65
 73
     0
 40
0.0
  0
LTYPE
  5
1CF
330
17
100
AcDbSymbolTableRecord
100
AcDbLinetypeTableRecord
  2
DASHED
 70
     0
  3
Dashed __ __ __ __ __ __ __ __ __ __ __ __ __ _
 72
    65
 73
     2
 40
0.75
 49
0.5
 74
     0
 49
-0.25
 74
     0
  0
ENDTAB
  0
TABLE
  2
LAYER
  5
11
102
{ACAD_XDICTIONARY
360
12
102
}
330
0
100
AcDbSymbolTable
 70
    45
  0
LAYER
  5
4
102
{ACAD_XDICTIONARY
360
2C56
102
}
330
11
100
AcDbSymbolTableRecord
100
AcDbLayerTableRecord
  2
0
 70
     0
 62
     7
  6
Continuous
370
    -3
390
5
1001
RAK
1000
{ACET-LAYISO
1070
     0
1070
     7
1000
Continuous
1071
       -3
1071
        1
1005
5
1000
ACET-LAYISO}
  0
LAYER
  5
65
330
11
100
AcDbSymbolTableRecord
100
AcDbLayerTableRecord
  2
DEFPOINTS
 70
     0
 62
     7
  6
Continuous
290
     0
370
    -3
390
5
1001
RAK
1000
{ACET-LAYISO
1070
     0
1070
     7
1000
Continuous
1071
       -3
1071
        0
1005
5
1000
ACET-LAYISO}
  0
LAYER
  5
15E
102
{ACAD_XDICTIONARY
360
2C5E
102
}
330
11
100
AcDbSymbolTableRecord
100
AcDbLayerTableRecord
  2
RAMKI-A4
 70
     0
 62
     2
  6
Continuous
290
     0
370
    -3
390
5
1001
RAK
1000
{ACET-LAYISO
1070
     0
1070
     2
1000
Continuous
1071
       -3
1071
        0
1005
5
1000
ACET-LAYISO}
  0
LAYER
  5
143
102
{ACAD_XDICTIONARY
360
2C62
102
}
330
11
100
AcDbSymbolTableRecord
100
AcDbLayerTableRecord
  2
NAPISY
 70
     0
 62
   140
  6
Continuous
370
    -3
390
5
1001
RAK
1000
{ACET-LAYISO
1070
     0
1070
   140
1000
Continuous
1071
       -3
1071
        1
1005
5
1000
ACET-LAYISO}
  0
LAYER
  5
19BF
102
{ACAD_XDICTIONARY
360
2C90
102
}
330
11
100
AcDbSymbolTableRecord
100
AcDbLayerTableRecord
  2
0Wymiary-PL
 70
     0
 62
     1
  6
Continuous
370
     5
390
5
  0
LAYER
  5
1B86
102
{ACAD_XDICTIONARY
360
2CA2
102
}
330
11
100
AcDbSymbolTableRecord
100
AcDbLayerTableRecord
  2
teren-mały$0$A-MassElement-G
 70
     0
 62
   210
  6
Continuous
370
    -3
390
5
  0
LAYER
  5
1B87
102
{ACAD_XDICTIONARY
360
2CA4
102
}
330
11
100
AcDbSymbolTableRecord
100
AcDbLayerTableRecord
  2
A-RoofAbove-G
 70
     0
 62
     1
  6
DASHED
370
     9
390
5
1001
RAK
1000
{ACET-LAYISO
1070
     0
1070
    -1
1000
DASHED
1071
       15
1071
        1
1005
5
1000
ACET-LAYISO}
1001
AcAecLayerStandard
1000
1m1_ARCHON
1000
Architects, Element -RoofAbove, Graphics
  0
LAYER
  5
2516
102
{ACAD_XDICTIONARY
360
2CAA
102
}
330
11
100
AcDbSymbolTableRecord
100
AcDbLayerTableRecord
  2
0Hatch
 70
     0
 62
   122
  6
Continuous
370
     5
390
5
  0
ENDTAB
  0
TABLE
  2
STYLE
  5
14
330
0
100
AcDbSymbolTable
 70
    12
  0
STYLE
  5
15
330
14
100
AcDbSymbolTableRecord
100
AcDbTextStyleTableRecord
  2
Standard
 70
     0
 40
0.0
 41
1.0
 50
0.0
 71
     0
 42
2.5
  3
txt
  4

  0
STYLE
  5
22
330
14
100
AcDbSymbolTableRecord
100
AcDbTextStyleTableRecord
  2
ROMANS
 70
     0
 40
0.0
 41
0.9
 50
0.0
 71
     0
 42
20.0
  3
romans.shx
  4

  0
STYLE
  5
144
330
14
100
AcDbSymbolTableRecord
100
AcDbTextStyleTableRecord
  2
AVA
 70
     0
 40
0.0
 41
1.0
 50
0.0
 71
     0
 42
158.5644099714409
  3
ARIAL.TTF
  4

1001
ACAD
1000
Arial CE
1071
    60962
  0
ENDTAB
  0
TABLE
  2
VIEW
  5
1A
330
0
100
AcDbSymbolTable
 70
     1
  0
VIEW
  5
C
330
1A
100
AcDbSymbolTableRecord
100
AcDbViewTableRecord
  2
RODODENDRON 5
 70
     0
 40
14020.0
 10
220287.1664355166
 20
148687.514558954
 41
10200.00000000003
 11
0.0
 21
0.0
 31
1.0
 12
0.0
 22
0.0
 32
0.0
 42
50.0
 43
0.0
 44
0.0
 50
0.0
 71
     0
281
     0
 72
     1
110
0.0
120
0.0
130
0.0
111
1.0
121
0.0
131
0.0
112
0.0
122
1.0
132
0.0
 79
     0
146
0.0
  0
ENDTAB
  0
TABLE
  2
UCS
  5
1B
330
0
100
AcDbSymbolTable
 70
     0
  0
ENDTAB
  0
TABLE
  2
APPID
  5
1E
330
0
100
AcDbSymbolTable
 70
    17
  0
APPID
  5
1F
330
1E
100
AcDbSymbolTableRecord
100
AcDbRegAppTableRecord
  2
ACAD
 70
     0
  0
APPID
  5
1E1
330
1E
100
AcDbSymbolTableRecord
100
AcDbRegAppTableRecord
  2
RAK
 70
     0
  0
APPID
  5
1E2
330
1E
100
AcDbSymbolTableRecord
100
AcDbRegAppTableRecord
  2
AcAecLayerStandard
 70
     0
  0
APPID
  5
A87
330
1E
100
AcDbSymbolTableRecord
100
AcDbRegAppTableRecord
  2
ACAD_PSEXT
 70
     0
  0
APPID
  5
C44
330
1E
100
AcDbSymbolTableRecord
100
AcDbRegAppTableRecord
  2
DCO15
 70
     0
  0
APPID
  5
19BB
330
1E
100
AcDbSymbolTableRecord
100
AcDbRegAppTableRecord
  2
ACAD_EXEMPT_FROM_CAD_STANDARDS
 70
     0
  0
APPID
  5
19BC
330
1E
100
AcDbSymbolTableRecord
100
AcDbRegAppTableRecord
  2
ACAD_DSTYLE_DIM_LINETYPE
 70
     0
  0
APPID
  5
19BD
330
1E
100
AcDbSymbolTableRecord
100
AcDbRegAppTableRecord
  2
ACAD_DSTYLE_DIM_EXT1_LINETYPE
 70
     0
  0
APPID
  5
19BE
330
1E
100
AcDbSymbolTableRecord
100
AcDbRegAppTableRecord
  2
ACAD_DSTYLE_DIM_EXT2_LINETYPE
 70
     0
  0
APPID
  5
1B8F
330
1E
100
AcDbSymbolTableRecord
100
AcDbRegAppTableRecord
  2
AcLayerTools
 70
     0
  0
APPID
  5
1B90
330
1E
100
AcDbSymbolTableRecord
100
AcDbRegAppTableRecord
  2
ACAUTHENVIRON
 70
     0
  0
APPID
  5
1B91
330
1E
100
AcDbSymbolTableRecord
100
AcDbRegAppTableRecord
  2
AcDbDynamicBlockTrueName
 70
     0
  0
APPID
  5
1B92
330
1E
100
AcDbSymbolTableRecord
100
AcDbRegAppTableRecord
  2
AcDbDynamicBlockGUID
 70
     0
  0
APPID
  5
1B93
330
1E
100
AcDbSymbolTableRecord
100
AcDbRegAppTableRecord
  2
AcDbBlockRepETag
 70
     0
  0
APPID
  5
1B94
330
1E
100
AcDbSymbolTableRecord
100
AcDbRegAppTableRecord
  2
AcDbBlockRepBTag
 70
     0
  0
APPID
  5
2C4C
330
1E
100
AcDbSymbolTableRecord
100
AcDbRegAppTableRecord
  2
ACAD_MLEADERVER
 70
     0
  0
APPID
  5
33E4
330
1E
100
AcDbSymbolTableRecord
100
AcDbRegAppTableRecord
  2
AcDbAttr
 70
     0
  0
ENDTAB
  0
TABLE
  2
DIMSTYLE
  5
20
330
0
100
AcDbSymbolTable
 70
    12
100
AcDbDimStyleTable
 71
     1
340
21
  0
DIMSTYLE
105
21
102
{ACAD_REACTORS
330
307B
330
3086
330
3091
330
309C
330
30A7
330
30B2
102
}
330
20
100
AcDbSymbolTableRecord
100
AcDbDimStyleTableRecord
  2
500
 70
     0
 41
30.0
 42
43.0
 43
0.0
 44
13.0
 45
0.5
 46
12.0
 73
     0
 74
     0
 75
     1
 76
     1
 78
    12
140
80.0
141
0.0
145
1.0
147
0.0
172
     1
174
     1
176
     1
177
     1
178
   140
271
     1
272
     1
279
     2
340
22
341
23
342
23
  0
ENDTAB
  0
TABLE
  2
BLOCK_RECORD
  5
1
330
0
100
AcDbSymbolTable
 70
   139
  0
BLOCK_RECORD
  5
2
102
{ACAD_XDICTIONARY
360
2964
102
}
330
1
100
AcDbSymbolTableRecord
100
AcDbBlockTableRecord
  2
*Model_Space
340
A
  0
BLOCK_RECORD
  5
D
330
1
100
AcDbSymbolTableRecord
100
AcDbBlockTableRecord
  2
*Paper_Space
340
10
  0
BLOCK_RECORD
  5
23
102
{ACAD_XDICTIONARY
360
24
102
}
330
1
100
AcDbSymbolTableRecord
100
AcDbBlockTableRecord
  2
B-DIM
340
0
102
{BLKREFS
331
2BC8
331
2BC9
331
2BCF
331
2BD0
331
2BD6
331
2BD7
331
2BDD
331
2BDE
331
2BEB
331
2BEC
331
2BF2
331
2BF3
331
2CB7
331
2CB8
331
2CC1
331
2CC2
331
2CCB
331
2CCC
331
2CD5
331
2CD6
331
2CDF
331
2CE0
331
2CE9
331
2CEA
331
2CF5
331
2CF6
331
2CFF
331
2D00
331
2D09
331
2D0A
331
2D13
331
2D14
331
2D1D
331
2D1E
331
2D27
331
2D28
331
2D31
331
2D32
331
2D3B
331
2D3C
331
2D47
331
2D48
331
2D51
331
2D52
331
2F44
331
2F45
331
2F4B
331
2F4C
331
2F54
331
2F55
331
2F5B
331
2F5C
331
2F62
331
2F63
331
2F69
331
2F6A
331
2F70
331
2F71
331
2F77
331
2F78
331
2F7E
331
2F7F
331
2F85
331
2F86
331
2F8E
331
2F8F
331
2F95
331
2F96
331
2F9C
331
2F9D
331
2FA3
331
2FA4
331
2FAA
331
2FAB
331
2FB1
331
2FB2
331
2FBE
331
2FBF
331
30D6
331
30D7
331
30DD
331
30DE
331
30E4
331
30E5
331
30EB
331
30EC
331
30F2
331
30F3
331
30F9
331
30FA
331
3102
331
3103
331
310C
331
310D
331
3116
331
3117
331
3120
331
3121
331
312A
331
312B
331
3134
331
3135
331
3140
331
3141
331
314A
331
314B
331
3154
331
3155
331
315E
331
315F
331
3168
331
3169
331
3172
331
3173
331
317C
331
317D
331
3186
331
3187
331
3192
331
3193
331
319C
331
319D
331
3341
331
3342
331
3348
331
3349
331
334F
331
3350
331
3356
331
3357
331
335D
331
335E
331
3364
331
3365
331
336D
331
336E
331
3374
331
3375
331
337B
331
337C
331
3382
331
3383
331
3389
331
338A
331
3390
331
3391
331
3397
331
3398
331
339E
331
339F
331
33A7
331
33A8
331
33AE
331
33AF
102
}
  0
BLOCK_RECORD
  5
307C
330
1
100
AcDbSymbolTableRecord
100
AcDbBlockTableRecord
  2
*D98
340
0
  0
BLOCK_RECORD
  5
3087
330
1
100
AcDbSymbolTableRecord
100
AcDbBlockTableRecord
  2
*D99
340
0
  0
BLOCK_RECORD
  5
3092
330
1
100
AcDbSymbolTableRecord
100
AcDbBlockTableRecord
  2
*D100
340
0
  0
BLOCK_RECORD
  5
309D
330
1
100
AcDbSymbolTableRecord
100
AcDbBlockTableRecord
  2
*D101
340
0
  0
BLOCK_RECORD
  5
30A8
330
1
100
AcDbSymbolTableRecord
100
AcDbBlockTableRecord
  2
*D102
340
0
  0
BLOCK_RECORD
  5
30B3
330
1
100
AcDbSymbolTableRecord
100
AcDbBlockTableRecord
  2
*D103
340
0
  0
ENDTAB
  0
ENDSEC
  0
SECTION
  2
BLOCKS
  0
BLOCK
  5
3
330
2
100
AcDbEntity
  8
0
100
AcDbBlockBegin
  2
*Model_Space
 70
     0
 10
0.0
 20
0.0
 30
0.0
  3
*Model_Space
  1

  0
ENDBLK
  5
9
330
2
100
AcDbEntity
  8
0
100
AcDbBlockEnd
  0
BLOCK
  5
E
330
D
100
AcDbEntity
 67
     1
  8
0
100
AcDbBlockBegin
  2
*Paper_Space
 70
     0
 10
0.0
 20
0.0
 30
0.0
  3
*Paper_Space
  1

  0
ENDBLK
  5
F
330
D
100
AcDbEntity
 67
     1
  8
0
100
AcDbBlockEnd
  0
BLOCK
  5
26
330
23
100
AcDbEntity
  8
0
100
AcDbBlockBegin
  2
B-DIM
 70
     0
 10
0.0
 20
0.0
 30
0.0
  3
B-DIM
  1

  0
LINE
  5
27
330
23
100
AcDbEntity
  8
0
 62
     1
100
AcDbLine
 10
0.000000000000091
 20
-1.1
 30
0.0
 11
0.000000000000091
 21
1.1
 31
0.0
  0
LWPOLYLINE
  5
28
330
23
100
AcDbEntity
  8
0
 62
     1
100
AcDbPolyline
 90
        2
 70
     0
 43
0.3
 10
-0.7071067811864851
 20
-0.7071067811864851
 10
0.707106781186576
 20
0.707106781186576
  0
LINE
  5
29
330
23
100
AcDbEntity
  8
0
 62
     1
100
AcDbLine
 10
1.20000000000009
 20
0.0
 30
0.0
 11
-1.199999999999909
 21
0.0
 31
0.0
  0
ENDBLK
  5
2A
330
23
100
AcDbEntity
  8
0
100
AcDbBlockEnd
  0
BLOCK
  5
307D
330
307C
100
AcDbEntity
  8
0
100
AcDbBlockBegin
  2
*D98
 70
     1
 10
0.0
 20
0.0
 30
0.0
  3
*D98
  1

  0
LINE
  5
30D5
330
307C
100
AcDbEntity
  8
0Wymiary-PL
 62
     1
370
    -2
100
AcDbLine
 10
219458.8892448725
 20
136507.0947393949
 30
0.0
 11
219458.8892448725
 21
135642.0954419839
 31
0.0
  0
INSERT
  5
30D6
330
307C
100
AcDbEntity
  8
0Wymiary-PL
 62
     1
370
    -2
100
AcDbBlockReference
  2
B-DIM
 10
219458.8892448725
 20
136537.0947393949
 30
0.0
 41
30.0
 42
30.0
 43
30.0
 50
90.0
  0
INSERT
  5
30D7
330
307C
100
AcDbEntity
  8
0Wymiary-PL
 62
     1
370
    -2
100
AcDbBlockReference
  2
B-DIM
 10
219458.8892448725
 20
135612.0954419839
 30
0.0
 41
30.0
 42
30.0
 43
30.0
 50
270.0
  0
MTEXT
  5
30D8
330
307C
100
AcDbEntity
  8
0Wymiary-PL
 62
   140
100
AcDbMText
 10
219378.8892448725
 20
136074.5950906894
 30
0.0
 40
80.0
 41
0.0
 71
     5
 72
     1
  1
\A1;925
  7
ROMANS
 11
0.0000000000000001
 21
1.0
 31
0.0
 73
     1
 44
1.0
1001
ACAD
1000
MTEXTBEGIN
1070
    73
1070
     1
1070
    44
1040
1.0
1070
    74
1070
     0
1000
MTEXTEND
  0
POINT
  5
30D9
330
307C
100
AcDbEntity
  8
DEFPOINTS
 62
     0
100
AcDbPoint
 10
219848.6837582576
 20
136537.0947393949
 30
294.0
  0
POINT
  5
30DA
330
307C
100
AcDbEntity
  8
DEFPOINTS
 62
     0
100
AcDbPoint
 10
219869.7753533799
 20
135612.0954419839
 30
294.0
  0
POINT
  5
30DB
330
307C
100
AcDbEntity
  8
DEFPOINTS
 62
     0
100
AcDbPoint
 10
219458.8892448725
 20
135612.0954419839
 30
0.0
  0
ENDBLK
  5
307E
330
307C
100
AcDbEntity
  8
0
100
AcDbBlockEnd
  0
BLOCK
  5
3088
330
3087
100
AcDbEntity
  8
0
100
AcDbBlockBegin
  2
*D99
 70
     1
 10
0.0
 20
0.0
 30
0.0
  3
*D99
  1

  0
LINE
  5
30DC
330
3087
100
AcDbEntity
  8
0Wymiary-PL
 62
     1
370
    -2
100
AcDbLine
 10
219458.8892448725
 20
135582.0954419839
 30
0.0
 11
219458.8892448725
 21
135252.0954419839
 31
0.0
  0
INSERT
  5
30DD
330
3087
100
AcDbEntity
  8
0Wymiary-PL
 62
     1
370
    -2
100
AcDbBlockReference
  2
B-DIM
 10
219458.8892448725
 20
135612.0954419839
 30
0.0
 41
30.0
 42
30.0
 43
30.0
 50
90.0
  0
INSERT
  5
30DE
330
3087
100
AcDbEntity
  8
0Wymiary-PL
 62
     1
370
    -2
100
AcDbBlockReference
  2
B-DIM
 10
219458.8892448725
 20
135222.0954419839
 30
0.0
 41
30.0
 42
30.0
 43
30.0
 50
270.0
  0
MTEXT
  5
30DF
330
3087
100
AcDbEntity
  8
0Wymiary-PL
 62
   140
100
AcDbMText
 10
219378.8892448725
 20
135417.095441984
 30
0.0
 40
80.0
 41
0.0
 71
     5
 72
     1
  1
\A1;390
  7
ROMANS
 11
0.0000000000000001
 21
1.0
 31
0.0
 73
     1
 44
1.0
1001
ACAD
1000
MTEXTBEGIN
1070
    73
1070
     1
1070
    44
1040
1.0
1070
    74
1070
     0
1000
MTEXTEND
  0
POINT
  5
30E0
330
3087
100
AcDbEntity
  8
DEFPOINTS
 62
     0
100
AcDbPoint
 10
219869.7753533799
 20
135612.0954419839
 30
294.0
  0
POINT
  5
30E1
330
3087
100
AcDbEntity
  8
DEFPOINTS
 62
     0
100
AcDbPoint
 10
220034.8892448725
 20
135222.0954419839
 30
294.0
  0
POINT
  5
30E2
330
3087
100
AcDbEntity
  8
DEFPOINTS
 62
     0
100
AcDbPoint
 10
219458.8892448725
 20
135222.0954419839
 30
0.0
  0
ENDBLK
  5
3089
330
3087
100
AcDbEntity
  8
0
100
AcDbBlockEnd
  0
BLOCK
  5
3093
330
3092
100
AcDbEntity
  8
0
100
AcDbBlockBegin
  2
*D100
 70
     1
 10
0.0
 20
0.0
 30
0.0
  3
*D100
  1

  0
LINE
  5
30E3
330
3092
100
AcDbEntity
  8
0Wymiary-PL
 62
     1
370
    -2
100
AcDbLine
 10
219258.8892448725
 20
136507.0947393948
 30
0.0
 11
219258.8892448725
 21
135252.0954419839
 31
0.0
  0
INSERT
  5
30E4
330
3092
100
AcDbEntity
  8
0Wymiary-PL
 62
     1
370
    -2
100
AcDbBlockReference
  2
B-DIM
 10
219258.8892448725
 20
136537.0947393948
 30
0.0
 41
30.0
 42
30.0
 43
30.0
 50
90.0
  0
INSERT
  5
30E5
330
3092
100
AcDbEntity
  8
0Wymiary-PL
 62
     1
370
    -2
100
AcDbBlockReference
  2
B-DIM
 10
219258.8892448725
 20
135222.0954419839
 30
0.0
 41
30.0
 42
30.0
 43
30.0
 50
270.0
  0
MTEXT
  5
30E6
330
3092
100
AcDbEntity
  8
0Wymiary-PL
 62
   140
100
AcDbMText
 10
219178.8892448725
 20
135879.5950906894
 30
0.0
 40
80.0
 41
0.0
 71
     5
 72
     1
  1
\A1;1315
  7
ROMANS
 11
0.0000000000000001
 21
1.0
 31
0.0
 73
     1
 44
1.0
1001
ACAD
1000
MTEXTBEGIN
1070
    73
1070
     1
1070
    44
1040
1.0
1070
    74
1070
     0
1000
MTEXTEND
  0
POINT
  5
30E7
330
3092
100
AcDbEntity
  8
DEFPOINTS
 62
     0
100
AcDbPoint
 10
219982.6392448725
 20
136537.0947393948
 30
294.0
  0
POINT
  5
30E8
330
3092
100
AcDbEntity
  8
DEFPOINTS
 62
     0
100
AcDbPoint
 10
220093.8892448725
 20
135222.0954419839
 30
294.0
  0
POINT
  5
30E9
330
3092
100
AcDbEntity
  8
DEFPOINTS
 62
     0
100
AcDbPoint
 10
219258.8892448725
 20
135222.0954419839
 30
0.0
  0
ENDBLK
  5
3094
330
3092
100
AcDbEntity
  8
0
100
AcDbBlockEnd
  0
BLOCK
  5
309E
330
309D
100
AcDbEntity
  8
0
100
AcDbBlockBegin
  2
*D101
 70
     1
 10
0.0
 20
0.0
 30
0.0
  3
*D101
  1

  0
LINE
  5
30EA
330
309D
100
AcDbEntity
  8
0Wymiary-PL
 62
     1
370
    -2
100
AcDbLine
 10
219688.8892448725
 20
134823.1068137068
 30
0.0
 11
220004.8892448725
 21
134823.1068137068
 31
0.0
  0
INSERT
  5
30EB
330
309D
100
AcDbEntity
  8
0Wymiary-PL
 62
     1
370
    -2
100
AcDbBlockReference
  2
B-DIM
 10
219658.8892448725
 20
134823.1068137068
 30
0.0
 41
30.0
 42
30.0
 43
30.0
 50
180.0
  0
INSERT
  5
30EC
330
309D
100
AcDbEntity
  8
0Wymiary-PL
 62
     1
370
    -2
100
AcDbBlockReference
  2
B-DIM
 10
220034.8892448725
 20
134823.1068137068
 30
0.0
 41
30.0
 42
30.0
 43
30.0
  0
MTEXT
  5
30ED
330
309D
100
AcDbEntity
  8
0Wymiary-PL
 62
   140
100
AcDbMText
 10
219846.8892448725
 20
134903.1068137068
 30
0.0
 40
80.0
 41
0.0
 71
     5
 72
     1
  1
\A1;376
  7
ROMANS
 73
     1
 44
1.0
1001
ACAD
1000
MTEXTBEGIN
1070
    73
1070
     1
1070
    44
1040
1.0
1070
    74
1070
     0
1000
MTEXTEND
  0
POINT
  5
30EE
330
309D
100
AcDbEntity
  8
DEFPOINTS
 62
     0
100
AcDbPoint
 10
219658.8892448725
 20
135612.0954419839
 30
294.0
  0
POINT
  5
30EF
330
309D
100
AcDbEntity
  8
DEFPOINTS
 62
     0
100
AcDbPoint
 10
220034.8892448725
 20
135612.0954419839
 30
294.0
  0
POINT
  5
30F0
330
309D
100
AcDbEntity
  8
DEFPOINTS
 62
     0
100
AcDbPoint
 10
220034.8892448725
 20
134823.1068137068
 30
0.0
  0
ENDBLK
  5
309F
330
309D
100
AcDbEntity
  8
0
100
AcDbBlockEnd
  0
BLOCK
  5
30A9
330
30A8
100
AcDbEntity
  8
0
100
AcDbBlockBegin
  2
*D102
 70
     1
 10
0.0
 20
0.0
 30
0.0
  3
*D102
  1

  0
LINE
  5
30F1
330
30A8
100
AcDbEntity
  8
0Wymiary-PL
 62
     1
370
    -2
100
AcDbLine
 10
220064.8892448725
 20
134823.1068137068
 30
0.0
 11
220369.8892448726
 21
134823.1068137068
 31
0.0
  0
INSERT
  5
30F2
330
30A8
100
AcDbEntity
  8
0Wymiary-PL
 62
     1
370
    -2
100
AcDbBlockReference
  2
B-DIM
 10
220034.8892448725
 20
134823.1068137068
 30
0.0
 41
30.0
 42
30.0
 43
30.0
 50
180.0
  0
INSERT
  5
30F3
330
30A8
100
AcDbEntity
  8
0Wymiary-PL
 62
     1
370
    -2
100
AcDbBlockReference
  2
B-DIM
 10
220399.8892448726
 20
134823.1068137068
 30
0.0
 41
30.0
 42
30.0
 43
30.0
  0
MTEXT
  5
30F4
330
30A8
100
AcDbEntity
  8
0Wymiary-PL
 62
   140
100
AcDbMText
 10
220217.3892448725
 20
134903.1068137068
 30
0.0
 40
80.0
 41
0.0
 71
     5
 72
     1
  1
\A1;365
  7
ROMANS
 73
     1
 44
1.0
1001
ACAD
1000
MTEXTBEGIN
1070
    73
1070
     1
1070
    44
1040
1.0
1070
    74
1070
     0
1000
MTEXTEND
  0
POINT
  5
30F5
330
30A8
100
AcDbEntity
  8
DEFPOINTS
 62
     0
100
AcDbPoint
 10
220034.8892448725
 20
135612.0954419839
 30
294.0
  0
POINT
  5
30F6
330
30A8
100
AcDbEntity
  8
DEFPOINTS
 62
     0
100
AcDbPoint
 10
220399.8892448726
 20
134823.1068137068
 30
0.0
  0
POINT
  5
30F7
330
30A8
100
AcDbEntity
  8
DEFPOINTS
 62
     0
100
AcDbPoint
 10
220399.8892448726
 20
134823.1068137068
 30
0.0
  0
ENDBLK
  5
30AA
330
30A8
100
AcDbEntity
  8
0
100
AcDbBlockEnd
  0
BLOCK
  5
30B4
330
30B3
100
AcDbEntity
  8
0
100
AcDbBlockBegin
  2
*D103
 70
     1
 10
0.0
 20
0.0
 30
0.0
  3
*D103
  1

  0
LINE
  5
30F8
330
30B3
100
AcDbEntity
  8
0Wymiary-PL
 62
     1
370
    -2
100
AcDbLine
 10
219688.8892448725
 20
134618.5590771087
 30
0.0
 11
220369.8892448725
 21
134618.5590771087
 31
0.0
  0
INSERT
  5
30F9
330
30B3
100
AcDbEntity
  8
0Wymiary-PL
 62
     1
370
    -2
100
AcDbBlockReference
  2
B-DIM
 10
219658.8892448725
 20
134618.5590771087
 30
0.0
 41
30.0
 42
30.0
 43
30.0
 50
180.0
  0
INSERT
  5
30FA
330
30B3
100
AcDbEntity
  8
0Wymiary-PL
 62
     1
370
    -2
100
AcDbBlockReference
  2
B-DIM
 10
220399.8892448725
 20
134618.5590771087
 30
0.0
 41
30.0
 42
30.0
 43
30.0
  0
MTEXT
  5
30FB
330
30B3
100
AcDbEntity
  8
0Wymiary-PL
 62
   140
100
AcDbMText
 10
220029.3892448725
 20
134698.5590771087
 30
0.0
 40
80.0
 41
0.0
 71
     5
 72
     1
  1
\A1;741
  7
ROMANS
 73
     1
 44
1.0
1001
ACAD
1000
MTEXTBEGIN
1070
    73
1070
     1
1070
    44
1040
1.0
1070
    74
1070
     0
1000
MTEXTEND
  0
POINT
  5
30FC
330
30B3
100
AcDbEntity
  8
DEFPOINTS
 62
     0
100
AcDbPoint
 10
219658.8892448725
 20
135612.0954419839
 30
294.0
  0
POINT
  5
30FD
330
30B3
100
AcDbEntity
  8
DEFPOINTS
 62
     0
100
AcDbPoint
 10
220399.8892448725
 20
134976.3564805168
 30
0.0
  0
POINT
  5
30FE
330
30B3
100
AcDbEntity
  8
DEFPOINTS
 62
     0
100
AcDbPoint
 10
220399.8892448725
 20
134618.5590771087
 30
0.0
  0
ENDBLK
  5
30B5
330
30B3
100
AcDbEntity
  8
0
100
AcDbBlockEnd
  0
ENDSEC
  0
SECTION
  2
ENTITIES
  0
TEXT
  5
142
330
2
100
AcDbEntity
  8
NAPISY
100
AcDbText
 10
216646.5520012698
 20
128323.0717886572
 30
0.0
 40
100.0
  1
   O B R Y S   B U D Y N K U           S K A L A   1 : 5 0 0 
  7
AVA
100
AcDbText
  0
TEXT
  5
15B
330
2
100
AcDbEntity
  8
NAPISY
100
AcDbText
 10
216742.7650523877
 20
140786.437049539
 30
0.0
 40
150.0
  1
MOŻNA WKLEIĆ DO PROJEKTU ZAGOSPODAROWANIA TERENU
  7
AVA
100
AcDbText
  0
TEXT
  5
15C
330
2
100
AcDbEntity
  8
NAPISY
100
AcDbText
 10
216666.4297817526
 20
141116.3055269018
 30
0.0
 40
150.0
  1
"DOM W KLEMATISACH 5 (B)"
  7
AVA
100
AcDbText
  0
LWPOLYLINE
  5
15D
330
2
100
AcDbEntity
  8
RAMKI-A4
100
AcDbPolyline
 90
        4
 70
     1
 43
0.0
 10
215187.2000545948
 20
127657.5157057546
 10
215187.2000545948
 20
141677.5157057546
 10
225387.2000545948
 20
141677.5157057546
 10
225387.2000545948
 20
127657.5157057546
  0
LINE
  5
2FF8
330
2
100
AcDbEntity
  8
teren-mały$0$A-MassElement-G
100
AcDbLine
 10
220321.3892448725
 20
136747.0947393948
 30
294.0
 11
220399.8892448725
 21
136747.0947393948
 31
294.0
  0
LINE
  5
2FF9
330
2
100
AcDbEntity
  8
teren-mały$0$A-MassElement-G
100
AcDbLine
 10
220321.3892448725
 20
136747.0947393948
 30
294.0
 11
220321.3892448725
 21
136537.0947393948
 31
294.0
  0
LINE
  5
2FFA
330
2
100
AcDbEntity
  8
teren-mały$0$A-MassElement-G
100
AcDbLine
 10
219988.8892448726
 20
136717.0947393948
 30
294.0
 11
219988.8892448726
 21
136917.0947393948
 31
294.0
  0
LINE
  5
2FFB
330
2
100
AcDbEntity
  8
teren-mały$0$A-MassElement-G
100
AcDbLine
 10
219988.8892448726
 20
136917.0947393948
 30
294.0
 11
219653.8892448725
 21
136917.0947393948
 31
294.0
  0
LINE
  5
2FFC
330
2
100
AcDbEntity
  8
teren-mały$0$A-MassElement-G
100
AcDbLine
 10
219653.8892448725
 20
136917.0947393948
 30
294.0
 11
219653.8892448725
 21
136637.0947393948
 31
294.0
  0
LINE
  5
2FFD
330
2
100
AcDbEntity
  8
teren-mały$0$A-MassElement-G
  6
Continuous
 62
   210
370
    -3
100
AcDbLine
 10
220034.8892448725
 20
135023.1068137068
 30
294.0
 11
220399.8892448725
 21
135023.1068137068
 31
294.0
  0
LINE
  5
2FFE
330
2
100
AcDbEntity
  8
teren-mały$0$A-MassElement-G
  6
Continuous
 62
   210
370
    -3
100
AcDbLine
 10
220034.8892448725
 20
135023.1068137068
 30
294.0
 11
220034.8892448725
 21
135222.0954419839
 31
294.0
  0
LINE
  5
2FFF
330
2
100
AcDbEntity
  8
teren-mały$0$A-MassElement-G
  6
Continuous
 62
   210
370
    -3
100
AcDbLine
 10
220034.8892448725
 20
135142.0954419839
 30
294.0
 11
220399.8892448725
 21
135142.0954419839
 31
294.0
  0
LINE
  5
3000
330
2
100
AcDbEntity
  8
teren-mały$0$A-MassElement-G
  6
Continuous
 62
   210
370
    -3
100
AcDbLine
 10
220034.8892448725
 20
135492.0954419839
 30
294.0
 11
219844.8892448725
 21
135492.0954419839
 31
294.0
  0
LINE
  5
3001
330
2
100
AcDbEntity
  8
teren-mały$0$A-MassElement-G
  6
Continuous
 62
   210
370
    -3
100
AcDbLine
 10
219844.8892448725
 20
135492.0954419839
 30
294.0
 11
219844.8892448725
 21
135612.0954419839
 31
294.0
  0
LINE
  5
3002
330
2
100
AcDbEntity
  8
teren-mały$0$A-MassElement-G
  6
Continuous
 62
   210
370
    -3
100
AcDbLine
 10
220027.8892448725
 20
135462.0954419839
 30
294.0
 11
219814.8892448725
 21
135462.0954419839
 31
294.0
  0
LINE
  5
3003
330
2
100
AcDbEntity
  8
teren-mały$0$A-MassElement-G
  6
Continuous
 62
   210
370
    -3
100
AcDbLine
 10
219814.8892448725
 20
135462.0954419839
 30
294.0
 11
219814.8892448725
 21
135612.0954419839
 31
294.0
  0
LINE
  5
3004
330
2
100
AcDbEntity
  8
A-RoofAbove-G
  6
DASHED
 62
     1
370
     9
100
AcDbLine
 10
219643.8892448725
 20
136537.0947393948
 30
294.0
 11
220321.3892448725
 21
136537.0947393948
 31
294.0
  0
LINE
  5
3005
330
2
100
AcDbEntity
  8
teren-mały$0$A-MassElement-G
  6
Continuous
 62
   210
370
    -3
100
AcDbLine
 10
219643.8892448725
 20
136537.0947393948
 30
294.0
 11
219643.8892448725
 21
136637.0947393948
 31
294.0
  0
LINE
  5
3006
330
2
100
AcDbEntity
  8
teren-mały$0$A-MassElement-G
  6
Continuous
 62
   210
370
    -3
100
AcDbLine
 10
219643.8892448725
 20
136637.0947393948
 30
294.0
 11
219673.8892448725
 21
136637.0947393948
 31
294.0
  0
LINE
  5
3007
330
2
100
AcDbEntity
  8
teren-mały$0$A-MassElement-G
  6
Continuous
 62
   210
370
    -3
100
AcDbLine
 10
219988.8892448726
 20
136747.0947393948
 30
294.0
 11
220321.3892448725
 21
136747.0947393948
 31
294.0
  0
LINE
  5
3008
330
2
100
AcDbEntity
  8
teren-mały$0$A-MassElement-G
  6
Continuous
 62
   210
370
    -3
100
AcDbLine
 10
219673.8892448725
 20
136537.0947393948
 30
294.0
 11
219673.8892448725
 21
136857.0947393948
 31
294.0
  0
LINE
  5
3009
330
2
100
AcDbEntity
  8
teren-mały$0$A-MassElement-G
  6
Continuous
 62
   210
370
    -3
100
AcDbLine
 10
219673.8892448725
 20
136857.0947393948
 30
294.0
 11
219988.8892448726
 21
136857.0947393948
 31
294.0
  0
LINE
  5
300A
330
2
100
AcDbEntity
  8
teren-mały$0$A-MassElement-G
  6
Continuous
 62
   210
370
    -3
100
AcDbLine
 10
219988.8892448726
 20
136717.0947393948
 30
294.0
 11
219988.8892448726
 21
136857.0947393948
 31
294.0
  0
LINE
  5
300B
330
2
100
AcDbEntity
  8
teren-mały$0$A-MassElement-G
  6
Continuous
 62
   210
370
    -3
100
AcDbLine
 10
219988.8892448726
 20
136717.0947393948
 30
294.0
 11
220321.3892448725
 21
136717.0947393948
 31
294.0
  0
LINE
  5
300C
330
2
100
AcDbEntity
  8
teren-mały$0$A-MassElement-G
  6
Continuous
 62
   210
370
    -3
100
AcDbLine
 10
220321.3892448725
 20
136537.0947393948
 30
294.0
 11
220321.3892448725
 21
136747.0947393948
 31
294.0
  0
LINE
  5
300D
330
2
100
AcDbEntity
  8
0Hatch
100
AcDbLine
 10
220353.8892448725
 20
135267.0954419839
 30
294.0
 11
220353.8892448725
 21
135222.0954419839
 31
294.0
  0
LINE
  5
300E
330
2
100
AcDbEntity
  8
0Hatch
100
AcDbLine
 10
220093.8892448725
 20
135222.0954419839
 30
294.0
 11
220093.8892448725
 21
135267.0954419839
 31
294.0
  0
LINE
  5
300F
330
2
100
AcDbEntity
  8
0Hatch
100
AcDbLine
 10
220014.8892448725
 20
135657.0954419839
 30
294.0
 11
220014.8892448725
 21
135612.0954419839
 31
294.0
  0
LINE
  5
3010
330
2
100
AcDbEntity
  8
0Hatch
100
AcDbLine
 10
219914.8892448725
 20
135612.0954419839
 30
294.0
 11
219914.8892448725
 21
135657.0954419839
 31
294.0
  0
LINE
  5
3011
330
2
100
AcDbEntity
  8
teren-mały$0$A-MassElement-G
  6
Continuous
 62
   210
370
    -3
100
AcDbLine
 10
220034.8892448725
 20
135023.1068137068
 30
294.0
 11
220217.3892448725
 21
135142.0954419839
 31
294.0
  0
LINE
  5
3014
330
2
100
AcDbEntity
  8
NAPISY
  6
DASHED
 62
     1
370
     5
100
AcDbLine
 10
220399.8892448725
 20
137507.4954967438
 30
0.0
 11
220399.8892448725
 21
132068.5590771087
 31
0.0
  0
LINE
  5
3015
330
2
100
AcDbEntity
  8
teren-mały$0$A-MassElement-G
  6
Continuous
 62
   210
370
    -3
100
AcDbLine
 10
220398.8892448725
 20
135222.0954419839
 30
294.0
 11
220398.8892448725
 21
135023.1068137068
 31
294.0
  0
LWPOLYLINE
  5
3017
330
2
100
AcDbEntity
  8
0Hatch
100
AcDbPolyline
 90
        7
 70
     0
 43
0.0
 38
294.0
 10
219658.8892448725
 20
136537.0947393948
 10
220398.8892448725
 20
136537.0947393949
 10
220398.8892448725
 20
135222.0954419839
 10
220034.8892448725
 20
135222.0954419839
 10
220034.8892448725
 20
135612.0954419839
 10
219658.8892448725
 20
135612.0954419839
 10
219658.8892448725
 20
136537.0947393948
  0
LINE
  5
3044
330
2
100
AcDbEntity
  8
teren-mały$0$A-MassElement-G
100
AcDbLine
 10
220478.3892448725
 20
136747.0947393948
 30
294.0
 11
220399.8892448725
 21
136747.0947393948
 31
294.0
  0
LINE
  5
3045
330
2
100
AcDbEntity
  8
teren-mały$0$A-MassElement-G
100
AcDbLine
 10
220478.3892448725
 20
136747.0947393948
 30
294.0
 11
220478.3892448725
 21
136537.0947393948
 31
294.0
  0
LINE
  5
3046
330
2
100
AcDbEntity
  8
teren-mały$0$A-MassElement-G
100
AcDbLine
 10
220810.8892448724
 20
136717.0947393948
 30
294.0
 11
220810.8892448725
 21
136917.0947393948
 31
294.0
  0
LINE
  5
3047
330
2
100
AcDbEntity
  8
teren-mały$0$A-MassElement-G
100
AcDbLine
 10
220810.8892448725
 20
136917.0947393948
 30
294.0
 11
221145.8892448725
 21
136917.0947393948
 31
294.0
  0
LINE
  5
3048
330
2
100
AcDbEntity
  8
teren-mały$0$A-MassElement-G
100
AcDbLine
 10
221145.8892448725
 20
136917.0947393948
 30
294.0
 11
221145.8892448725
 21
136637.0947393948
 31
294.0
  0
LINE
  5
3049
330
2
100
AcDbEntity
  8
teren-mały$0$A-MassElement-G
  6
Continuous
 62
   210
370
    -3
100
AcDbLine
 10
220764.8892448725
 20
135023.1068137068
 30
294.0
 11
220399.8892448725
 21
135023.1068137068
 31
294.0
  0
LINE
  5
304A
330
2
100
AcDbEntity
  8
teren-mały$0$A-MassElement-G
  6
Continuous
 62
   210
370
    -3
100
AcDbLine
 10
220764.8892448725
 20
135023.1068137068
 30
294.0
 11
220764.8892448725
 21
135222.0954419839
 31
294.0
  0
LINE
  5
304B
330
2
100
AcDbEntity
  8
teren-mały$0$A-MassElement-G
  6
Continuous
 62
   210
370
    -3
100
AcDbLine
 10
220764.8892448725
 20
135142.0954419839
 30
294.0
 11
220399.8892448725
 21
135142.0954419839
 31
294.0
  0
LINE
  5
304C
330
2
100
AcDbEntity
  8
teren-mały$0$A-MassElement-G
  6
Continuous
 62
   210
370
    -3
100
AcDbLine
 10
220764.8892448725
 20
135492.0954419839
 30
294.0
 11
220954.8892448725
 21
135492.0954419839
 31
294.0
  0
LINE
  5
304D
330
2
100
AcDbEntity
  8
teren-mały$0$A-MassElement-G
  6
Continuous
 62
   210
370
    -3
100
AcDbLine
 10
220954.8892448725
 20
135492.0954419839
 30
294.0
 11
220954.8892448725
 21
135612.0954419839
 31
294.0
  0
LINE
  5
304E
330
2
100
AcDbEntity
  8
teren-mały$0$A-MassElement-G
  6
Continuous
 62
   210
370
    -3
100
AcDbLine
 10
220771.8892448725
 20
135462.0954419839
 30
294.0
 11
220984.8892448725
 21
135462.0954419839
 31
294.0
  0
LINE
  5
304F
330
2
100
AcDbEntity
  8
teren-mały$0$A-MassElement-G
  6
Continuous
 62
   210
370
    -3
100
AcDbLine
 10
220984.8892448725
 20
135462.0954419839
 30
294.0
 11
220984.8892448725
 21
135612.0954419839
 31
294.0
  0
LINE
  5
3050
330
2
100
AcDbEntity
  8
A-RoofAbove-G
  6
DASHED
 62
     1
370
     9
100
AcDbLine
 10
221155.8892448725
 20
136537.0947393948
 30
294.0
 11
220478.3892448725
 21
136537.0947393948
 31
294.0
  0
LINE
  5
3051
330
2
100
AcDbEntity
  8
teren-mały$0$A-MassElement-G
  6
Continuous
 62
   210
370
    -3
100
AcDbLine
 10
221155.8892448725
 20
136537.0947393948
 30
294.0
 11
221155.8892448725
 21
136637.0947393948
 31
294.0
  0
LINE
  5
3052
330
2
100
AcDbEntity
  8
teren-mały$0$A-MassElement-G
  6
Continuous
 62
   210
370
    -3
100
AcDbLine
 10
221155.8892448725
 20
136637.0947393948
 30
294.0
 11
221125.8892448725
 21
136637.0947393948
 31
294.0
  0
LINE
  5
3053
330
2
100
AcDbEntity
  8
teren-mały$0$A-MassElement-G
  6
Continuous
 62
   210
370
    -3
100
AcDbLine
 10
220810.8892448725
 20
136747.0947393948
 30
294.0
 11
220478.3892448725
 21
136747.0947393948
 31
294.0
  0
LINE
  5
3054
330
2
100
AcDbEntity
  8
teren-mały$0$A-MassElement-G
  6
Continuous
 62
   210
370
    -3
100
AcDbLine
 10
221125.8892448725
 20
136537.0947393948
 30
294.0
 11
221125.8892448725
 21
136857.0947393948
 31
294.0
  0
LINE
  5
3055
330
2
100
AcDbEntity
  8
teren-mały$0$A-MassElement-G
  6
Continuous
 62
   210
370
    -3
100
AcDbLine
 10
221125.8892448725
 20
136857.0947393948
 30
294.0
 11
220810.8892448724
 21
136857.0947393948
 31
294.0
  0
LINE
  5
3056
330
2
100
AcDbEntity
  8
teren-mały$0$A-MassElement-G
  6
Continuous
 62
   210
370
    -3
100
AcDbLine
 10
220810.8892448725
 20
136717.0947393948
 30
294.0
 11
220810.8892448724
 21
136857.0947393948
 31
294.0
  0
LINE
  5
3057
330
2
100
AcDbEntity
  8
teren-mały$0$A-MassElement-G
  6
Continuous
 62
   210
370
    -3
100
AcDbLine
 10
220810.8892448725
 20
136717.0947393948
 30
294.0
 11
220478.3892448725
 21
136717.0947393948
 31
294.0
  0
LINE
  5
3058
330
2
100
AcDbEntity
  8
teren-mały$0$A-MassElement-G
  6
Continuous
 62
   210
370
    -3
100
AcDbLine
 10
220478.3892448725
 20
136537.0947393948
 30
294.0
 11
220478.3892448725
 21
136747.0947393948
 31
294.0
  0
LINE
  5
3059
330
2
100
AcDbEntity
  8
0Hatch
100
AcDbLine
 10
220445.8892448725
 20
135267.0954419839
 30
294.0
 11
220445.8892448725
 21
135222.0954419839
 31
294.0
  0
LINE
  5
305A
330
2
100
AcDbEntity
  8
0Hatch
100
AcDbLine
 10
220705.8892448725
 20
135222.0954419839
 30
294.0
 11
220705.8892448725
 21
135267.0954419839
 31
294.0
  0
LINE
  5
305B
330
2
100
AcDbEntity
  8
0Hatch
100
AcDbLine
 10
220784.8892448725
 20
135657.0954419839
 30
294.0
 11
220784.8892448725
 21
135612.0954419839
 31
294.0
  0
LINE
  5
305C
330
2
100
AcDbEntity
  8
0Hatch
100
AcDbLine
 10
220884.8892448725
 20
135612.0954419839
 30
294.0
 11
220884.8892448725
 21
135657.0954419839
 31
294.0
  0
LINE
  5
305D
330
2
100
AcDbEntity
  8
teren-mały$0$A-MassElement-G
  6
Continuous
 62
   210
370
    -3
100
AcDbLine
 10
220764.8892448725
 20
135023.1068137068
 30
294.0
 11
220582.3892448725
 21
135142.0954419839
 31
294.0
  0
LINE
  5
305E
330
2
100
AcDbEntity
  8
teren-mały$0$A-MassElement-G
  6
Continuous
 62
   210
370
    -3
100
AcDbLine
 10
220400.8892448725
 20
135222.0954419839
 30
294.0
 11
220400.8892448725
 21
135023.1068137068
 31
294.0
  0
LWPOLYLINE
  5
305F
330
2
100
AcDbEntity
  8
0Hatch
100
AcDbPolyline
 90
        7
 70
     0
 43
0.0
 38
294.0
 10
221140.8892448725
 20
136537.0947393948
 10
220400.8892448725
 20
136537.0947393949
 10
220400.8892448725
 20
135222.0954419839
 10
220764.8892448725
 20
135222.0954419839
 10
220764.8892448725
 20
135612.0954419839
 10
221140.8892448725
 20
135612.0954419839
 10
221140.8892448725
 20
136537.0947393948
  0
LINE
  5
3061
330
2
100
AcDbEntity
  8
teren-mały$0$A-MassElement-G
  6
Continuous
 62
   210
370
    -3
100
AcDbLine
 10
220217.3892448725
 20
135142.0954419839
 30
294.0
 11
220398.8892448725
 21
135023.1068137068
 31
294.0
  0
LINE
  5
3062
330
2
100
AcDbEntity
  8
teren-mały$0$A-MassElement-G
  6
Continuous
 62
   210
370
    -3
100
AcDbLine
 10
220400.8892448725
 20
135023.1068137068
 30
294.0
 11
220582.3892448725
 21
135142.0954419839
 31
294.0
  0
LWPOLYLINE
  5
306B
330
2
100
AcDbEntity
  8
0Hatch
100
AcDbPolyline
 90
        6
 70
     1
 43
0.0
 38
294.0
 10
219703.8892448725
 20
136492.0947393948
 10
220353.8892448725
 20
136492.0947393949
 10
220353.8892448725
 20
135267.0954419839
 10
220079.8892448725
 20
135267.0954419839
 10
220079.8892448725
 20
135657.0954419839
 10
219703.8892448725
 20
135657.0954419839
  0
LWPOLYLINE
  5
306D
330
2
100
AcDbEntity
  8
0Hatch
100
AcDbPolyline
 90
        6
 70
     1
 43
0.0
 38
294.0
 10
221095.8892448725
 20
136492.0947393948
 10
220445.8892448725
 20
136492.0947393949
 10
220445.8892448725
 20
135267.0954419839
 10
220719.8892448726
 20
135267.0954419839
 10
220719.8892448725
 20
135657.0954419839
 10
221095.8892448725
 20
135657.0954419839
  0
LWPOLYLINE
  5
3071
330
2
100
AcDbEntity
  8
0Hatch
100
AcDbPolyline
 90
        5
 70
     0
 43
45.0
 38
294.0
 10
220353.8892448725
 20
135244.5954419839
 10
220376.3892448725
 20
135244.5954419839
 10
220376.3892448725
 20
136514.594739395
 10
219681.3892448725
 20
136514.594739395
 10
219681.3892448725
 20
135634.5954419839
  0
LWPOLYLINE
  5
3073
330
2
100
AcDbEntity
  8
0Hatch
100
AcDbPolyline
 90
        2
 70
     0
 43
45.0
 38
294.0
 10
219914.8892448725
 20
135634.5954419839
 10
219658.8892448725
 20
135634.5954419839
  0
LWPOLYLINE
  5
3074
330
2
100
AcDbEntity
  8
0Hatch
100
AcDbPolyline
 90
        4
 70
     0
 43
45.0
 38
294.0
 10
220014.8892448725
 20
135634.5954419839
 10
220057.3892448725
 20
135634.5954419839
 10
220057.3892448725
 20
135244.5954419839
 10
220093.8892448725
 20
135244.5954419839
  0
DIMENSION
  5
307B
330
2
100
AcDbEntity
  8
0Wymiary-PL
100
AcDbDimension
  2
*D98
 10
219458.8892448725
 20
135612.0954419839
 30
0.0
 11
219378.8892448725
 21
136074.5950906894
 31
0.0
 70
    32
 71
     5
 42
924.9992974109481
  3
500
100
AcDbAlignedDimension
 13
219848.6837582576
 23
136537.0947393949
 33
294.0
 14
219869.7753533799
 24
135612.0954419839
 34
294.0
 50
90.0
100
AcDbRotatedDimension
  0
DIMENSION
  5
3086
330
2
100
AcDbEntity
  8
0Wymiary-PL
100
AcDbDimension
  2
*D99
 10
219458.8892448725
 20
135222.0954419839
 30
0.0
 11
219378.8892448725
 21
135417.095441984
 31
0.0
 70
    32
 71
     5
 42
390.0
  3
500
100
AcDbAlignedDimension
 13
219869.7753533799
 23
135612.0954419839
 33
294.0
 14
220034.8892448725
 24
135222.0954419839
 34
294.0
 50
90.0
100
AcDbRotatedDimension
  0
DIMENSION
  5
3091
330
2
100
AcDbEntity
  8
0Wymiary-PL
100
AcDbDimension
  2
*D100
 10
219258.8892448725
 20
135222.0954419839
 30
0.0
 11
219178.8892448725
 21
135879.5950906894
 31
0.0
 70
    32
 71
     5
 42
1314.999297410919
  3
500
100
AcDbAlignedDimension
 13
219982.6392448725
 23
136537.0947393948
 33
294.0
 14
220093.8892448725
 24
135222.0954419839
 34
294.0
 50
90.0
100
AcDbRotatedDimension
  0
DIMENSION
  5
309C
330
2
100
AcDbEntity
  8
0Wymiary-PL
100
AcDbDimension
  2
*D101
 10
220034.8892448725
 20
134823.1068137068
 30
0.0
 11
219846.8892448725
 21
134903.1068137068
 31
0.0
 70
    32
 71
     5
 42
376.0
  3
500
100
AcDbAlignedDimension
 13
219658.8892448725
 23
135612.0954419839
 33
294.0
 14
220034.8892448725
 24
135612.0954419839
 34
294.0
100
AcDbRotatedDimension
  0
DIMENSION
  5
30A7
330
2
100
AcDbEntity
  8
0Wymiary-PL
100
AcDbDimension
  2
*D102
 10
220399.8892448726
 20
134823.1068137068
 30
0.0
 11
220217.3892448725
 21
134903.1068137068
 31
0.0
 70
    32
 71
     5
 42
365.0000000000582
  3
500
100
AcDbAlignedDimension
 13
220034.8892448725
 23
135612.0954419839
 33
294.0
 14
220399.8892448726
 24
134823.1068137068
 34
0.0
100
AcDbRotatedDimension
  0
DIMENSION
  5
30B2
330
2
100
AcDbEntity
  8
0Wymiary-PL
100
AcDbDimension
  2
*D103
 10
220399.8892448725
 20
134618.5590771087
 30
0.0
 11
220029.3892448725
 21
134698.5590771087
 31
0.0
 70
    32
 71
     5
 42
741.0
  3
500
100
AcDbAlignedDimension
 13
219658.8892448725
 23
135612.0954419839
 33
294.0
 14
220399.8892448725
 24
134976.3564805168
 34
0.0
100
AcDbRotatedDimension
  0
TEXT
  5
33B4
330
2
100
AcDbEntity
  8
NAPISY
100
AcDbText
 10
220340.3680678792
 20
132183.5726219032
 30
0.0
 40
100.0
  1
OŚ ODBICIA LUSTRZANEGO
 50
90.0
  7
AVA
100
AcDbText
  0
ENDSEC
  0
SECTION
  2
OBJECTS
  0
DICTIONARY
  5
7
330
0
100
AcDbDictionary
281
     1
  3
ACAD_COLOR
350
31
  3
ACAD_GROUP
350
2D
  3
ACAD_LAYOUT
350
B
  3
ACAD_MATERIAL
350
30
  3
ACAD_MLEADERSTYLE
350
2C4A
  3
ACAD_MLINESTYLE
350
2E
  3
ACAD_PLOTSETTINGS
350
2F
  3
ACAD_PLOTSTYLENAME
350
6
  3
ACAD_SCALELIST
350
2C28
  3
ACAD_TABLESTYLE
350
DF2
  3
ACAD_VISUALSTYLE
350
19A4
  3
ACDB_RECOMPOSE_DATA
350
33D7
  3
AcDbVariableDictionary
350
E04
  3
AEC_CLASSIFICATION_SYSTEM_DEFS
350
3C3
  3
AEC_PROPERTY_SET_DEFS
350
3C4
  3
ASE_INDEX_DICTIONARY
350
2BF9
  3
CONLABELDictionary
350
204D
  3
CONLDEFDictionary
350
203C
  3
DWGPROPS
350
33D8
  0
DICTIONARY
  5
12
330
11
100
AcDbDictionary
280
     1
281
     1
  3
ACAD_LAYERSTATES
360
13
  0
DICTIONARY
  5
2C56
330
4
100
AcDbDictionary
280
     1
281
     1
  3
ADSK_XREC_LAYER_RECONCILED
360
2C57
  0
DICTIONARY
  5
2C5E
330
15E
100
AcDbDictionary
280
     1
281
     1
  3
ADSK_XREC_LAYER_RECONCILED
360
2C5F
  0
DICTIONARY
  5
2C62
330
143
100
AcDbDictionary
280
     1
281
     1
  3
ADSK_XREC_LAYER_RECONCILED
360
2C63
  0
DICTIONARY
  5
2C90
330
19BF
100
AcDbDictionary
280
     1
281
     1
  3
ADSK_XREC_LAYER_RECONCILED
360
2C91
  0
DICTIONARY
  5
2CA2
330
1B86
100
AcDbDictionary
280
     1
281
     1
  3
ADSK_XREC_LAYER_RECONCILED
360
2CA3
  0
DICTIONARY
  5
2CA4
330
1B87
100
AcDbDictionary
280
     1
281
     1
  3
ADSK_XREC_LAYER_RECONCILED
360
2CA5
  0
DICTIONARY
  5
2CAA
330
2516
100
AcDbDictionary
280
     1
281
     1
  3
ADSK_XREC_LAYER_RECONCILED
360
2CAB
  0
DICTIONARY
  5
2964
330
2
100
AcDbDictionary
280
     1
281
     1
  3
ACAD_SORTENTS
360
2965
  0
DICTIONARY
  5
24
330
23
100
AcDbDictionary
280
     1
281
     1
  3
ACAD_SORTENTS
360
13F2
  0
DICTIONARY
  5
31
102
{ACAD_REACTORS
330
7
102
}
330
7
100
AcDbDictionary
281
     1
  0
DICTIONARY
  5
2D
102
{ACAD_REACTORS
330
7
102
}
330
7
100
AcDbDictionary
281
     1
  0
DICTIONARY
  5
B
102
{ACAD_REACTORS
330
7
102
}
330
7
100
AcDbDictionary
281
     1
  3
Layout1
350
10
  3
Model
350
A
  0
DICTIONARY
  5
30
102
{ACAD_REACTORS
330
7
102
}
330
7
100
AcDbDictionary
281
     1
  3
ByBlock
350
19A2
  3
ByLayer
350
19A1
  3
Global
350
19A3
  0
DICTIONARY
  5
2C4A
102
{ACAD_REACTORS
330
7
102
}
330
7
100
AcDbDictionary
281
     1
  0
DICTIONARY
  5
2E
102
{ACAD_REACTORS
330
7
102
}
330
7
100
AcDbDictionary
281
     1
  3
Standard
350
33
  0
DICTIONARY
  5
2F
102
{ACAD_REACTORS
330
7
102
}
330
7
100
AcDbDictionary
281
     1
  0
ACDBDICTIONARYWDFLT
  5
6
102
{ACAD_REACTORS
330
7
102
}
330
7
100
AcDbDictionary
281
     1
  3
Normal
350
5
100
AcDbDictionaryWithDefault
340
5
  0
DICTIONARY
  5
2C28
102
{ACAD_REACTORS
330
7
102
}
330
7
100
AcDbDictionary
281
     1
  3
*A1
350
2D58
  3
*A10
350
2D61
  3
*A100
350
30C4
  3
*A101
350
30C5
  3
*A102
350
30C6
  3
*A103
350
30C7
  3
*A104
350
30C8
  3
*A105
350
30C9
  3
*A106
350
30CA
  3
*A107
350
31A3
  3
*A108
350
31A4
  3
*A109
350
31A5
  3
*A11
350
2D62
  3
*A110
350
31A6
  3
*A111
350
31A7
  3
*A112
350
31A8
  3
*A113
350
31A9
  3
*A12
350
2D63
  3
*A13
350
2D64
  3
*A14
350
2D65
  3
*A15
350
2D66
  3
*A16
350
2D67
  3
*A17
350
2D68
  3
*A18
350
2D69
  3
*A19
350
2D6A
  3
*A2
350
2D59
  3
*A20
350
2D6B
  3
*A21
350
2D6C
  3
*A22
350
2D6D
  3
*A23
350
2D6E
  3
*A24
350
2D6F
  3
*A25
350
2D70
  3
*A26
350
2D71
  3
*A27
350
2D72
  3
*A28
350
2D73
  3
*A29
350
2D74
  3
*A3
350
2D5A
  3
*A30
350
2D75
  3
*A31
350
2D76
  3
*A32
350
2D77
  3
*A33
350
2D78
  3
*A34
350
2D79
  3
*A35
350
2D7A
  3
*A36
350
2D7B
  3
*A37
350
2D7C
  3
*A38
350
2D7D
  3
*A39
350
2D7E
  3
*A4
350
2D5B
  3
*A40
350
2D7F
  3
*A41
350
2D80
  3
*A42
350
2D81
  3
*A43
350
2D82
  3
*A44
350
2D83
  3
*A45
350
2D84
  3
*A46
350
2D85
  3
*A47
350
2D86
  3
*A48
350
2D87
  3
*A49
350
2D88
  3
*A5
350
2D5C
  3
*A50
350
2D89
  3
*A51
350
2D8A
  3
*A52
350
2D8B
  3
*A53
350
2D8C
  3
*A54
350
2D8D
  3
*A55
350
2D8E
  3
*A56
350
2D8F
  3
*A57
350
2D90
  3
*A58
350
2D91
  3
*A59
350
2D92
  3
*A6
350
2D5D
  3
*A60
350
2D93
  3
*A61
350
2D94
  3
*A62
350
2D95
  3
*A63
350
2D96
  3
*A64
350
2D97
  3
*A65
350
2D98
  3
*A66
350
2D99
  3
*A67
350
2D9A
  3
*A68
350
2D9B
  3
*A69
350
2D9C
  3
*A7
350
2D5E
  3
*A70
350
2D9D
  3
*A71
350
2D9E
  3
*A72
350
2D9F
  3
*A73
350
2DA0
  3
*A74
350
2DA1
  3
*A75
350
2DA2
  3
*A76
350
2DA3
  3
*A77
350
2DA4
  3
*A78
350
2DA5
  3
*A79
350
2DA6
  3
*A8
350
2D5F
  3
*A80
350
2DA7
  3
*A81
350
2DA8
  3
*A82
350
2DA9
  3
*A83
350
2DAA
  3
*A84
350
2DAB
  3
*A85
350
2DAC
  3
*A86
350
2FCB
  3
*A87
350
2FCC
  3
*A88
350
2FCD
  3
*A89
350
2FCE
  3
*A9
350
2D60
  3
*A90
350
2FCF
  3
*A91
350
2FD0
  3
*A92
350
2FD1
  3
*A93
350
3018
  3
*A94
350
3019
  3
*A95
350
301A
  3
*A96
350
301B
  3
*A97
350
301C
  3
*A98
350
301D
  3
*A99
350
301E
  3
A0
350
2C29
  3
A1
350
2C2A
  3
A2
350
2C2B
  3
A3
350
2C2C
  3
A4
350
2C2D
  3
A5
350
2C2E
  3
A6
350
2C2F
  3
A7
350
2C30
  3
A8
350
2C31
  3
A9
350
2C32
  3
B0
350
2C33
  3
B1
350
2C34
  3
B2
350
2C35
  3
B3
350
2C36
  3
B4
350
2C37
  3
B5
350
2C38
  3
B6
350
2C39
  3
B7
350
2C3A
  3
B8
350
2C3B
  3
B9
350
2C3C
  3
C0
350
2C3D
  3
C1
350
2C3E
  3
C2
350
2C3F
  3
C3
350
2C40
  3
C4
350
2C41
  3
C5
350
2C42
  3
C6
350
2C43
  3
C7
350
2C44
  3
C8
350
2C45
  3
C9
350
2C46
  3
D0
350
2C47
  3
D1
350
2C48
  3
D2
350
2C49
  0
DICTIONARY
  5
DF2
102
{ACAD_REACTORS
330
7
102
}
330
7
100
AcDbDictionary
281
     1
  3
Standard
350
DF3
  0
DICTIONARY
  5
19A4
102
{ACAD_REACTORS
330
7
102
}
330
7
100
AcDbDictionary
281
     1
  3
2dWireframe
350
19AA
  3
3D Hidden
350
19AC
  3
3dWireframe
350
19AB
  3
Basic
350
19A9
  3
Brighten
350
19B0
  3
ColorChange
350
19B4
  3
Conceptual
350
19AD
  3
Dim
350
19AF
  3
Facepattern
350
19B3
  3
Flat
350
19A5
  3
FlatWithEdges
350
19A6
  3
Gouraud
350
19A7
  3
GouraudWithEdges
350
19A8
  3
Linepattern
350
19B2
  3
Phong
350
2C54
  3
PhongWithEdges
350
2C55
  3
Realistic
350
19AE
  3
Thicken
350
19B1
  0
XRECORD
  5
33D7
102
{ACAD_REACTORS
330
7
102
}
330
7
100
AcDbXrecord
280
     1
 90
        1
330
DF3
  0
DICTIONARY
  5
E04
102
{ACAD_REACTORS
330
7
102
}
330
7
100
AcDbDictionary
281
     1
  3
CANNOSCALE
350
33D0
  3
CTABLESTYLE
350
E05
  3
DIMASSOC
350
33D4
  3
HIDETEXT
350
33D3
  3
INDEXCTL
350
33D2
  3
SORTENTS
350
33D1
  0
DICTIONARY
  5
3C3
102
{ACAD_REACTORS
330
7
102
}
330
7
100
AcDbDictionary
281
     1
  0
DICTIONARY
  5
3C4
102
{ACAD_REACTORS
330
7
102
}
330
7
100
AcDbDictionary
281
     1
  0
DICTIONARY
  5
2BF9
102
{ACAD_REACTORS
330
7
102
}
330
7
100
AcDbDictionary
281
     1
  3
_elementy_wiezby_Link1
350
2C09
  3
_materialy_przegrod_pl_Link1
350
2C08
  3
_nazwy_przegrod_pl_Link1
350
2C07
  3
_nazwy_rysunkow_Arial37
350
2C06
  3
_opisy_rozne_II_Link1
350
2C05
  3
_opisy_rozne_II_Link2
350
2C04
  3
_posadzki_do_zestawienia_pomieszczen_Link1
350
2C03
  3
_rozne_opisy_rys_Link1
350
2C02
  3
_tabelka_-_inform_i_etykiety_Link1
350
2C01
  3
_uwagi_ogolne_na_arkuszu_Link1
350
2C00
  3
ALFABETLink1
350
2BFF
  3
ASEBlockHierarchyIndexRecord
350
2C0A
  3
jednostkiLink1
350
2BFE
  3
miesiaceLink1
350
2BFD
  3
pomieszczeniaLink1
350
2BFC
  3
stolarkaLink1
350
2BFB
  3
tbl_PRZEGRODYLink1
350
2BFA
1001
DCO15
1040
1602225562.015
  0
DICTIONARY
  5
204D
102
{ACAD_REACTORS
330
7
102
}
330
7
100
AcDbDictionary
281
     1
  3
_el_wzb_Left_nazw_romans16
350
206F
  3
_elementy_wiezby_SKROT_Romans16
350
206E
  3
_materialy_przegrod_pl_Label1
350
206D
  3
_nazwy_przegrod_romans18
350
206C
  3
_nazwy_rysunkow_Arial37
350
206B
  3
_nazwy_rysunkow_Romans18
350
206A
  3
_opisy_rozne_II_Label1
350
2069
  3
_opisy_rozne_II_Link1Label1
350
2068
  3
_posadzki_do_zestawienia_pomieszczen_Romans17
350
2067
  3
_rozne_opisy_rys_R16_right
350
2066
  3
_rozne_opisy_rys_Romans12
350
2065
  3
_rozne_opisy_rys_Romans16
350
2064
  3
_tabelka_-_inform_i_etykiety_Romans13
350
2063
  3
_tabelka_Arial15-center
350
2062
  3
_tabelka_Arial151
350
2061
  3
_tabelka_Romans 10
350
2060
  3
_tabelka_Romans13
350
205F
  3
_tabelka_Romans19
350
205E
  3
ALFABET-Arial20
350
205D
  3
ALFABET-Arial26
350
205C
  3
ALFABET-Arial37
350
205B
  3
Arial_27
350
205A
  3
jednostki-Arial18
350
2059
  3
jednostki-Arial30
350
2058
  3
jednostki-Romans16
350
2057
  3
miesiace-Romans17
350
2056
  3
pomieszczenia-Arial 15
350
2055
  3
pomieszczenia-Romans17
350
2054
  3
romans16
350
2053
  3
Romans_17
350
2052
  3
stolarka-Arial14
350
2051
  3
stolarkaLabel1
350
2050
  3
tbl_PRZEGRODY
350
204F
  3
uwag_og_na_ark_Arial18
350
204E
  0
DICTIONARY
  5
203C
102
{ACAD_REACTORS
330
7
102
}
330
7
100
AcDbDictionary
281
     1
  3
_elementy_wiezby_Link1
350
204C
  3
_materialy_przegrod_pl_Link1
350
204B
  3
_nazwy_przegrod_pl_Link1
350
204A
  3
_nazwy_rysunkow_Arial37
350
2049
  3
_opisy_rozne_II_Link1
350
2048
  3
_opisy_rozne_II_Link2
350
2047
  3
_posadzki_do_zestawienia_pomieszczen_Link1
350
2046
  3
_rozne_opisy_rys_Link1
350
2045
  3
_tabelka_-_inform_i_etykiety_Link1
350
2044
  3
_uwagi_ogolne_na_arkuszu_Link1
350
2043
  3
ALFABETLink1
350
2042
  3
jednostkiLink1
350
2041
  3
miesiaceLink1
350
2040
  3
pomieszczeniaLink1
350
203F
  3
stolarkaLink1
350
203E
  3
tbl_PRZEGRODYLink1
350
203D
  0
XRECORD
  5
33D8
102
{ACAD_REACTORS
330
7
102
}
330
7
100
AcDbXrecord
280
     1
  1
DWGPROPS COOKIE
  2

  3

  4

  6

  7

  8
beata.rzonca
  9

300
=
301
=
302
=
303
=
304
=
305
=
306
=
307
=
308
=
309
=
 40
7.786634976851852
 41
2452027.670547454
 42
2454978.553779838
  1

 90
        0
  0
DICTIONARY
  5
13
102
{ACAD_REACTORS
330
12
102
}
330
12
100
AcDbDictionary
281
     1
  0
XRECORD
  5
2C57
102
{ACAD_REACTORS
330
2C56
102
}
330
2C56
100
AcDbXrecord
280
     1
290
     1
  0
XRECORD
  5
2C5F
102
{ACAD_REACTORS
330
2C5E
102
}
330
2C5E
100
AcDbXrecord
280
     1
290
     1
  0
XRECORD
  5
2C63
102
{ACAD_REACTORS
330
2C62
102
}
330
2C62
100
AcDbXrecord
280
     1
290
     1
  0
XRECORD
  5
2C91
102
{ACAD_REACTORS
330
2C90
102
}
330
2C90
100
AcDbXrecord
280
     1
290
     1
  0
XRECORD
  5
2CA3
102
{ACAD_REACTORS
330
2CA2
102
}
330
2CA2
100
AcDbXrecord
280
     1
290
     1
  0
XRECORD
  5
2CA5
102
{ACAD_REACTORS
330
2CA4
102
}
330
2CA4
100
AcDbXrecord
280
     1
290
     1
  0
XRECORD
  5
2CAB
102
{ACAD_REACTORS
330
2CAA
102
}
330
2CAA
100
AcDbXrecord
280
     1
290
     1
  0
SORTENTSTABLE
  5
2965
102
{ACAD_REACTORS
330
2964
102
}
330
2964
100
AcDbSortentsTable
330
2
331
2FFE
  5
2FFE
331
3046
  5
304E
331
3059
  5
3062
331
3008
  5
3008
331
2FFA
  5
2FFA
331
3055
  5
305D
331
3017
  5
3017
331
3051
  5
3059
331
3005
  5
3005
331
304D
  5
3055
331
300F
  5
300F
331
3001
  5
3001
331
15C
  5
17C7
331
3049
  5
3051
331
305C
  5
3065
331
300B
  5
300B
331
2FFD
  5
2FFD
331
3045
  5
304D
331
3058
  5
3061
331
2FF9
  5
2FF9
331
3062
  5
306C
331
3054
  5
305C
331
3050
  5
3058
331
3071
  5
3071
331
3004
  5
3004
331
304C
  5
3054
331
306D
  5
306D
331
305F
  5
306A
331
300E
  5
300E
331
3000
  5
3000
331
15B
  5
15D
331
3048
  5
3050
331
305B
  5
3064
331
300A
  5
300A
331
2FFC
  5
2FFC
331
3044
  5
304C
331
3057
  5
305F
331
2FF8
  5
2FF8
331
3061
  5
306B
331
3053
  5
305B
331
3074
  5
3074
331
3015
  5
3015
331
3007
  5
3007
331
304F
  5
3057
331
3011
  5
3011
331
3003
  5
3003
331
304B
  5
3053
331
305E
  5
3067
331
300D
  5
300D
331
2FFF
  5
2FFF
331
3047
  5
304F
331
305A
  5
3063
331
3009
  5
3009
331
2FFB
  5
2FFB
331
3056
  5
305E
331
142
  5
142
331
3052
  5
305A
331
3073
  5
3073
331
3014
  5
3014
331
3006
  5
3006
331
304E
  5
3056
331
3010
  5
3010
331
3002
  5
3002
331
15D
  5
17C8
331
304A
  5
3052
331
306B
  5
304A
331
305D
  5
3066
331
300C
  5
300C
  0
SORTENTSTABLE
  5
13F2
102
{ACAD_REACTORS
330
24
102
}
330
24
100
AcDbSortentsTable
330
23
  0
LAYOUT
  5
10
102
{ACAD_XDICTIONARY
360
33DB
102
}
102
{ACAD_REACTORS
330
B
102
}
330
B
100
AcDbPlotSettings
  1

  2
C:\PROGRAM FILES\AUTOCAD LT 2000\plotters\DWF ePlot.pc3
  4

  6

 40
0.0
 41
0.0
 42
0.0
 43
0.0
 44
0.0
 45
0.0
 46
0.0
 47
0.0
 48
0.0
 49
0.0
140
0.0
141
0.0
142
1.0
143
1.0
 70
   688
 72
     0
 73
     0
 74
     5
  7
monochrome_140.ctb
 75
    16
147
1.0
148
0.0
149
0.0
100
AcDbLayout
  1
Layout1
 70
     1
 71
     1
 10
0.0
 20
0.0
 11
420.0
 21
297.0
 12
0.0
 22
0.0
 32
0.0
 14
1.000000000000000E+20
 24
1.000000000000000E+20
 34
1.000000000000000E+20
 15
-1.000000000000000E+20
 25
-1.000000000000000E+20
 35
-1.000000000000000E+20
146
0.0
 13
0.0
 23
0.0
 33
0.0
 16
1.0
 26
0.0
 36
0.0
 17
0.0
 27
1.0
 37
0.0
 76
     0
330
D
  0
LAYOUT
  5
A
102
{ACAD_XDICTIONARY
360
33D9
102
}
102
{ACAD_REACTORS
330
B
102
}
330
B
100
AcDbPlotSettings
  1

  2
\\KOMP-NR-31\HP LaserJet 1200 Series PCL
  4
A4
  6
RODODENDRON 5
 40
6.805083274841308
 41
5.027085304260253
 42
6.805084228515625
 43
5.027069091796875
 44
209.9733276367187
 45
296.9683227539062
 46
0.0
 47
4.0
 48
215187.2000545948
 49
127657.5157057546
140
225387.2000545948
141
141677.5157057546
142
1.0
143
50.0
 70
 11952
 72
     1
 73
     0
 74
     4
  7
monochrome_140.ctb
 75
    25
147
0.02
148
-215187.2000545948
149
-127657.5157057546
100
AcDbLayout
  1
Model
 70
     1
 71
     0
 10
0.0
 20
0.0
 11
12.0
 21
9.0
 12
0.0
 22
0.0
 32
0.0
 14
0.0
 24
0.0
 34
0.0
 15
0.0
 25
0.0
 35
0.0
146
0.0
 13
0.0
 23
0.0
 33
0.0
 16
1.0
 26
0.0
 36
0.0
 17
0.0
 27
1.0
 37
0.0
 76
     0
330
2
331
199F
  0
MATERIAL
  5
19A2
102
{ACAD_XDICTIONARY
360
33E0
102
}
102
{ACAD_REACTORS
330
30
102
}
330
30
100
AcDbMaterial
  1
ByBlock
 73
     1
 78
     1
172
     1
176
     1
270
     1
274
     1
  0
MATERIAL
  5
19A1
102
{ACAD_XDICTIONARY
360
33DE
102
}
102
{ACAD_REACTORS
330
30
102
}
330
30
100
AcDbMaterial
  1
ByLayer
 73
     1
 78
     1
172
     1
176
     1
270
     1
274
     1
  0
MATERIAL
  5
19A3
102
{ACAD_XDICTIONARY
360
33E2
102
}
102
{ACAD_REACTORS
330
30
102
}
330
30
100
AcDbMaterial
  1
Global
 73
     1
 78
     1
172
     1
176
     1
270
     1
274
     1
  0
MLINESTYLE
  5
33
102
{ACAD_REACTORS
330
2E
102
}
330
2E
100
AcDbMlineStyle
  2
STANDARD
 70
     0
  3

 62
   256
 51
90.0
 52
90.0
 71
     2
 49
0.5
 62
   256
  6
BYLAYER
 49
-0.5
 62
   256
  6
BYLAYER
  0
ACDBPLACEHOLDER
  5
5
102
{ACAD_REACTORS
330
6
102
}
330
6
  0
SCALE
  5
2D58
102
{ACAD_REACTORS
330
2C28
102
}
330
2C28
100
AcDbScale
 70
     0
300
1:1_2
140
1.0
141
1.0
290
     0
  0
SCALE
  5
2D61
102
{ACAD_REACTORS
330
2C28
102
}
330
2C28
100
AcDbScale
 70
     0
300
1:50_3_1
140
1.0
141
50.0
290
     0
  0
SCALE
  5
30C4
102
{ACAD_REACTORS
330
2C28
102
}
330
2C28
100
AcDbScale
 70
     0
300
1:1_10
140
1.0
141
0.1
290
     0
  0
SCALE
  5
30C5
102
{ACAD_REACTORS
330
2C28
102
}
330
2C28
100
AcDbScale
 70
     0
300
1:2_10
140
1.0
141
0.2
290
     0
  0
SCALE
  5
30C6
102
{ACAD_REACTORS
330
2C28
102
}
330
2C28
100
AcDbScale
 70
     0
300
1:5_10
140
1.0
141
0.5
290
     0
  0
SCALE
  5
30C7
102
{ACAD_REACTORS
330
2C28
102
}
330
2C28
100
AcDbScale
 70
     0
300
1:10_10
140
1.0
141
1.0
290
     0
  0
SCALE
  5
30C8
102
{ACAD_REACTORS
330
2C28
102
}
330
2C28
100
AcDbScale
 70
     0
300
1:20_10
140
1.0
141
2.0
290
     0
  0
SCALE
  5
30C9
102
{ACAD_REACTORS
330
2C28
102
}
330
2C28
100
AcDbScale
 70
     0
300
1:50_10
140
1.0
141
5.0
290
     0
  0
SCALE
  5
30CA
102
{ACAD_REACTORS
330
2C28
102
}
330
2C28
100
AcDbScale
 70
     0
300
1:100_10
140
1.0
141
10.0
290
     0
  0
SCALE
  5
31A3
102
{ACAD_REACTORS
330
2C28
102
}
330
2C28
100
AcDbScale
 70
     0
300
1:1_11
140
1.0
141
0.1
290
     0
  0
SCALE
  5
31A4
102
{ACAD_REACTORS
330
2C28
102
}
330
2C28
100
AcDbScale
 70
     0
300
1:2_11
140
1.0
141
0.2
290
     0
  0
SCALE
  5
31A5
102
{ACAD_REACTORS
330
2C28
102
}
330
2C28
100
AcDbScale
 70
     0
300
1:5_11
140
1.0
141
0.5
290
     0
  0
SCALE
  5
2D62
102
{ACAD_REACTORS
330
2C28
102
}
330
2C28
100
AcDbScale
 70
     0
300
1:20_4
140
1.0
141
20.0
290
     0
  0
SCALE
  5
31A6
102
{ACAD_REACTORS
330
2C28
102
}
330
2C28
100
AcDbScale
 70
     0
300
1:10_11
140
1.0
141
1.0
290
     0
  0
SCALE
  5
31A7
102
{ACAD_REACTORS
330
2C28
102
}
330
2C28
100
AcDbScale
 70
     0
300
1:20_11
140
1.0
141
2.0
290
     0
  0
SCALE
  5
31A8
102
{ACAD_REACTORS
330
2C28
102
}
330
2C28
100
AcDbScale
 70
     0
300
1:50_11
140
1.0
141
5.0
290
     0
  0
SCALE
  5
31A9
102
{ACAD_REACTORS
330
2C28
102
}
330
2C28
100
AcDbScale
 70
     0
300
1:100_11
140
1.0
141
10.0
290
     0
  0
SCALE
  5
2D63
102
{ACAD_REACTORS
330
2C28
102
}
330
2C28
100
AcDbScale
 70
     0
300
1:100_3_1
140
1.0
141
100.0
290
     0
  0
SCALE
  5
2D64
102
{ACAD_REACTORS
330
2C28
102
}
330
2C28
100
AcDbScale
 70
     0
300
1:100_1
140
1.0
141
100.0
290
     0
  0
SCALE
  5
2D65
102
{ACAD_REACTORS
330
2C28
102
}
330
2C28
100
AcDbScale
 70
     0
300
1:5_2
140
1.0
141
5.0
290
     0
  0
SCALE
  5
2D66
102
{ACAD_REACTORS
330
2C28
102
}
330
2C28
100
AcDbScale
 70
     0
300
1:20_2
140
1.0
141
20.0
290
     0
  0
SCALE
  5
2D67
102
{ACAD_REACTORS
330
2C28
102
}
330
2C28
100
AcDbScale
 70
     0
300
1:2_1
140
1.0
141
2.0
290
     0
  0
SCALE
  5
2D68
102
{ACAD_REACTORS
330
2C28
102
}
330
2C28
100
AcDbScale
 70
     0
300
1:2_2
140
1.0
141
2.0
290
     0
  0
SCALE
  5
2D69
102
{ACAD_REACTORS
330
2C28
102
}
330
2C28
100
AcDbScale
 70
     0
300
1:10_3
140
1.0
141
1.0
290
     0
  0
SCALE
  5
2D6A
102
{ACAD_REACTORS
330
2C28
102
}
330
2C28
100
AcDbScale
 70
     0
300
1:50_3
140
1.0
141
5.0
290
     0
  0
SCALE
  5
2D59
102
{ACAD_REACTORS
330
2C28
102
}
330
2C28
100
AcDbScale
 70
     0
300
1:1_3_1
140
1.0
141
1.0
290
     0
  0
SCALE
  5
2D6B
102
{ACAD_REACTORS
330
2C28
102
}
330
2C28
100
AcDbScale
 70
     0
300
1:10_1
140
1.0
141
10.0
290
     0
  0
SCALE
  5
2D6C
102
{ACAD_REACTORS
330
2C28
102
}
330
2C28
100
AcDbScale
 70
     0
300
1:1_5
140
1.0
141
1.0
290
     0
  0
SCALE
  5
2D6D
102
{ACAD_REACTORS
330
2C28
102
}
330
2C28
100
AcDbScale
 70
     0
300
1:2_5
140
1.0
141
2.0
290
     0
  0
SCALE
  5
2D6E
102
{ACAD_REACTORS
330
2C28
102
}
330
2C28
100
AcDbScale
 70
     0
300
1:2_3
140
1.0
141
0.2
290
     0
  0
SCALE
  5
2D6F
102
{ACAD_REACTORS
330
2C28
102
}
330
2C28
100
AcDbScale
 70
     0
300
1:2_4
140
1.0
141
2.0
290
     0
  0
SCALE
  5
2D70
102
{ACAD_REACTORS
330
2C28
102
}
330
2C28
100
AcDbScale
 70
     0
300
1:5_5
140
1.0
141
5.0
290
     0
  0
SCALE
  5
2D71
102
{ACAD_REACTORS
330
2C28
102
}
330
2C28
100
AcDbScale
 70
     0
300
1:10_5
140
1.0
141
10.0
290
     0
  0
SCALE
  5
2D72
102
{ACAD_REACTORS
330
2C28
102
}
330
2C28
100
AcDbScale
 70
     0
300
1:50_1
140
1.0
141
50.0
290
     0
  0
SCALE
  5
2D73
102
{ACAD_REACTORS
330
2C28
102
}
330
2C28
100
AcDbScale
 70
     0
300
1:20_5
140
1.0
141
20.0
290
     0
  0
SCALE
  5
2D74
102
{ACAD_REACTORS
330
2C28
102
}
330
2C28
100
AcDbScale
 70
     0
300
1:50_4
140
1.0
141
50.0
290
     0
  0
SCALE
  5
2D5A
102
{ACAD_REACTORS
330
2C28
102
}
330
2C28
100
AcDbScale
 70
     0
300
1:2_3_1
140
1.0
141
2.0
290
     0
  0
SCALE
  5
2D75
102
{ACAD_REACTORS
330
2C28
102
}
330
2C28
100
AcDbScale
 70
     0
300
1:50_5
140
1.0
141
50.0
290
     0
  0
SCALE
  5
2D76
102
{ACAD_REACTORS
330
2C28
102
}
330
2C28
100
AcDbScale
 70
     0
300
1:100_5
140
1.0
141
100.0
290
     0
  0
SCALE
  5
2D77
102
{ACAD_REACTORS
330
2C28
102
}
330
2C28
100
AcDbScale
 70
     0
300
1:5_1
140
1.0
141
5.0
290
     0
  0
SCALE
  5
2D78
102
{ACAD_REACTORS
330
2C28
102
}
330
2C28
100
AcDbScale
 70
     0
300
1:1_6
140
1.0
141
1.0
290
     0
  0
SCALE
  5
2D79
102
{ACAD_REACTORS
330
2C28
102
}
330
2C28
100
AcDbScale
 70
     0
300
1:2_6
140
1.0
141
2.0
290
     0
  0
SCALE
  5
2D7A
102
{ACAD_REACTORS
330
2C28
102
}
330
2C28
100
AcDbScale
 70
     0
300
1:50_2
140
1.0
141
50.0
290
     0
  0
SCALE
  5
2D7B
102
{ACAD_REACTORS
330
2C28
102
}
330
2C28
100
AcDbScale
 70
     0
300
1:5_6
140
1.0
141
5.0
290
     0
  0
SCALE
  5
2D7C
102
{ACAD_REACTORS
330
2C28
102
}
330
2C28
100
AcDbScale
 70
     0
300
1:100_3
140
1.0
141
10.0
290
     0
  0
SCALE
  5
2D7D
102
{ACAD_REACTORS
330
2C28
102
}
330
2C28
100
AcDbScale
 70
     0
300
1:10_6
140
1.0
141
10.0
290
     0
  0
SCALE
  5
2D7E
102
{ACAD_REACTORS
330
2C28
102
}
330
2C28
100
AcDbScale
 70
     0
300
1:20_6
140
1.0
141
20.0
290
     0
  0
SCALE
  5
2D5B
102
{ACAD_REACTORS
330
2C28
102
}
330
2C28
100
AcDbScale
 70
     0
300
1:10_4
140
1.0
141
10.0
290
     0
  0
SCALE
  5
2D7F
102
{ACAD_REACTORS
330
2C28
102
}
330
2C28
100
AcDbScale
 70
     0
300
1:50_6
140
1.0
141
50.0
290
     0
  0
SCALE
  5
2D80
102
{ACAD_REACTORS
330
2C28
102
}
330
2C28
100
AcDbScale
 70
     0
300
1:100_6
140
1.0
141
100.0
290
     0
  0
SCALE
  5
2D81
102
{ACAD_REACTORS
330
2C28
102
}
330
2C28
100
AcDbScale
 70
     0
300
1:100_2
140
1.0
141
100.0
290
     0
  0
SCALE
  5
2D82
102
{ACAD_REACTORS
330
2C28
102
}
330
2C28
100
AcDbScale
 70
     0
300
1:5_3
140
1.0
141
0.5
290
     0
  0
SCALE
  5
2D83
102
{ACAD_REACTORS
330
2C28
102
}
330
2C28
100
AcDbScale
 70
     0
300
1:1_1
140
1.0
141
1.0
290
     0
  0
SCALE
  5
2D84
102
{ACAD_REACTORS
330
2C28
102
}
330
2C28
100
AcDbScale
 70
     0
300
1:20_1
140
1.0
141
20.0
290
     0
  0
SCALE
  5
2D85
102
{ACAD_REACTORS
330
2C28
102
}
330
2C28
100
AcDbScale
 70
     0
300
1:1_3
140
1.0
141
0.1
290
     0
  0
SCALE
  5
2D86
102
{ACAD_REACTORS
330
2C28
102
}
330
2C28
100
AcDbScale
 70
     0
300
1/64" = 1'-0"_XREF
140
0.015625
141
12.0
290
     0
1001
ACAD
1000
AcRTDxfName
1000
SCALE
  0
SCALE
  5
2D87
102
{ACAD_REACTORS
330
2C28
102
}
330
2C28
100
AcDbScale
 70
     0
300
1 1/2" = 1'-0"_XREF
140
1.5
141
12.0
290
     0
1001
ACAD
1000
AcRTDxfName
1000
SCALE
  0
SCALE
  5
2D88
102
{ACAD_REACTORS
330
2C28
102
}
330
2C28
100
AcDbScale
 70
     0
300
3" = 1'-0"_XREF
140
3.0
141
12.0
290
     0
1001
ACAD
1000
AcRTDxfName
1000
SCALE
  0
SCALE
  5
2D5C
102
{ACAD_REACTORS
330
2C28
102
}
330
2C28
100
AcDbScale
 70
     0
300
1:5_3_1
140
1.0
141
5.0
290
     0
  0
SCALE
  5
2D89
102
{ACAD_REACTORS
330
2C28
102
}
330
2C28
100
AcDbScale
 70
     0
300
6" = 1'-0"_XREF
140
6.0
141
12.0
290
     0
1001
ACAD
1000
AcRTDxfName
1000
SCALE
  0
SCALE
  5
2D8A
102
{ACAD_REACTORS
330
2C28
102
}
330
2C28
100
AcDbScale
 70
     0
300
1'-0" = 1'-0"_XREF
140
12.0
141
12.0
290
     0
1001
ACAD
1000
AcRTDxfName
1000
SCALE
  0
SCALE
  5
2D8B
102
{ACAD_REACTORS
330
2C28
102
}
330
2C28
100
AcDbScale
 70
     0
300
1/32" = 1'-0"_XREF
140
0.03125
141
12.0
290
     0
1001
ACAD
1000
AcRTDxfName
1000
SCALE
  0
SCALE
  5
2D8C
102
{ACAD_REACTORS
330
2C28
102
}
330
2C28
100
AcDbScale
 70
     0
300
1:20_3
140
1.0
141
2.0
290
     0
  0
SCALE
  5
2D8D
102
{ACAD_REACTORS
330
2C28
102
}
330
2C28
100
AcDbScale
 70
     0
300
1/16" = 1'-0"_XREF
140
0.0625
141
12.0
290
     0
1001
ACAD
1000
AcRTDxfName
1000
SCALE
  0
SCALE
  5
2D8E
102
{ACAD_REACTORS
330
2C28
102
}
330
2C28
100
AcDbScale
 70
     0
300
3/32" = 1'-0"_XREF
140
0.09375
141
12.0
290
     0
1001
ACAD
1000
AcRTDxfName
1000
SCALE
  0
SCALE
  5
2D8F
102
{ACAD_REACTORS
330
2C28
102
}
330
2C28
100
AcDbScale
 70
     0
300
1/8" = 1'-0"_XREF
140
0.125
141
12.0
290
     0
1001
ACAD
1000
AcRTDxfName
1000
SCALE
  0
SCALE
  5
2D90
102
{ACAD_REACTORS
330
2C28
102
}
330
2C28
100
AcDbScale
 70
     0
300
3/16" = 1'-0"_XREF
140
0.1875
141
12.0
290
     0
1001
ACAD
1000
AcRTDxfName
1000
SCALE
  0
SCALE
  5
2D91
102
{ACAD_REACTORS
330
2C28
102
}
330
2C28
100
AcDbScale
 70
     0
300
1/4" = 1'-0"_XREF
140
0.25
141
12.0
290
     0
1001
ACAD
1000
AcRTDxfName
1000
SCALE
  0
SCALE
  5
2D92
102
{ACAD_REACTORS
330
2C28
102
}
330
2C28
100
AcDbScale
 70
     0
300
3/8" = 1'-0"_XREF
140
0.375
141
12.0
290
     0
1001
ACAD
1000
AcRTDxfName
1000
SCALE
  0
SCALE
  5
2D5D
102
{ACAD_REACTORS
330
2C28
102
}
330
2C28
100
AcDbScale
 70
     0
300
1:1_4
140
1.0
141
1.0
290
     0
  0
SCALE
  5
2D93
102
{ACAD_REACTORS
330
2C28
102
}
330
2C28
100
AcDbScale
 70
     0
300
1/2" = 1'-0"_XREF
140
0.5
141
12.0
290
     0
1001
ACAD
1000
AcRTDxfName
1000
SCALE
  0
SCALE
  5
2D94
102
{ACAD_REACTORS
330
2C28
102
}
330
2C28
100
AcDbScale
 70
     0
300
3/4" = 1'-0"_XREF
140
0.75
141
12.0
290
     0
1001
ACAD
1000
AcRTDxfName
1000
SCALE
  0
SCALE
  5
2D95
102
{ACAD_REACTORS
330
2C28
102
}
330
2C28
100
AcDbScale
 70
     0
300
1:5_4
140
1.0
141
5.0
290
     0
  0
SCALE
  5
2D96
102
{ACAD_REACTORS
330
2C28
102
}
330
2C28
100
AcDbScale
 70
     0
300
1:100_4
140
1.0
141
100.0
290
     0
  0
SCALE
  5
2D97
102
{ACAD_REACTORS
330
2C28
102
}
330
2C28
100
AcDbScale
 70
     0
300
1" = 1'-0"_XREF
140
1.0
141
12.0
290
     0
1001
ACAD
1000
AcRTDxfName
1000
SCALE
  0
SCALE
  5
2D98
102
{ACAD_REACTORS
330
2C28
102
}
330
2C28
100
AcDbScale
 70
     0
300
1:1_7
140
1.0
141
0.1
290
     0
  0
SCALE
  5
2D99
102
{ACAD_REACTORS
330
2C28
102
}
330
2C28
100
AcDbScale
 70
     0
300
1:2_7
140
1.0
141
0.2
290
     0
  0
SCALE
  5
2D9A
102
{ACAD_REACTORS
330
2C28
102
}
330
2C28
100
AcDbScale
 70
     0
300
1:2.5
140
1.0
141
0.25
290
     0
  0
SCALE
  5
2D9B
102
{ACAD_REACTORS
330
2C28
102
}
330
2C28
100
AcDbScale
 70
     0
300
1:5_7
140
1.0
141
0.5
290
     0
  0
SCALE
  5
2D9C
102
{ACAD_REACTORS
330
2C28
102
}
330
2C28
100
AcDbScale
 70
     0
300
1:7.5
140
1.0
141
0.75
290
     0
  0
SCALE
  5
2D5E
102
{ACAD_REACTORS
330
2C28
102
}
330
2C28
100
AcDbScale
 70
     0
300
1:10_3_1
140
1.0
141
10.0
290
     0
  0
SCALE
  5
2D9D
102
{ACAD_REACTORS
330
2C28
102
}
330
2C28
100
AcDbScale
 70
     0
300
1:10_7
140
1.0
141
1.0
290
     0
  0
SCALE
  5
2D9E
102
{ACAD_REACTORS
330
2C28
102
}
330
2C28
100
AcDbScale
 70
     0
300
1:20_7
140
1.0
141
2.0
290
     0
  0
SCALE
  5
2D9F
102
{ACAD_REACTORS
330
2C28
102
}
330
2C28
100
AcDbScale
 70
     0
300
1:25
140
1.0
141
2.5
290
     0
  0
SCALE
  5
2DA0
102
{ACAD_REACTORS
330
2C28
102
}
330
2C28
100
AcDbScale
 70
     0
300
1:50_7
140
1.0
141
5.0
290
     0
  0
SCALE
  5
2DA1
102
{ACAD_REACTORS
330
2C28
102
}
330
2C28
100
AcDbScale
 70
     0
300
1:75
140
1.0
141
7.5
290
     0
  0
SCALE
  5
2DA2
102
{ACAD_REACTORS
330
2C28
102
}
330
2C28
100
AcDbScale
 70
     0
300
1:100_7
140
1.0
141
10.0
290
     0
  0
SCALE
  5
2DA3
102
{ACAD_REACTORS
330
2C28
102
}
330
2C28
100
AcDbScale
 70
     0
300
1:150
140
1.0
141
15.0
290
     0
  0
SCALE
  5
2DA4
102
{ACAD_REACTORS
330
2C28
102
}
330
2C28
100
AcDbScale
 70
     0
300
1:200
140
1.0
141
20.0
290
     0
  0
SCALE
  5
2DA5
102
{ACAD_REACTORS
330
2C28
102
}
330
2C28
100
AcDbScale
 70
     0
300
1:250
140
1.0
141
25.0
290
     0
  0
SCALE
  5
2DA6
102
{ACAD_REACTORS
330
2C28
102
}
330
2C28
100
AcDbScale
 70
     0
300
1:500
140
1.0
141
50.0
290
     0
  0
SCALE
  5
2D5F
102
{ACAD_REACTORS
330
2C28
102
}
330
2C28
100
AcDbScale
 70
     0
300
1:20_3_1
140
1.0
141
20.0
290
     0
  0
SCALE
  5
2DA7
102
{ACAD_REACTORS
330
2C28
102
}
330
2C28
100
AcDbScale
 70
     0
300
1:750
140
1.0
141
75.0
290
     0
  0
SCALE
  5
2DA8
102
{ACAD_REACTORS
330
2C28
102
}
330
2C28
100
AcDbScale
 70
     0
300
1:1000
140
1.0
141
100.0
290
     0
  0
SCALE
  5
2DA9
102
{ACAD_REACTORS
330
2C28
102
}
330
2C28
100
AcDbScale
 70
     0
300
1:1250
140
1.0
141
125.0
290
     0
  0
SCALE
  5
2DAA
102
{ACAD_REACTORS
330
2C28
102
}
330
2C28
100
AcDbScale
 70
     0
300
1:2000
140
1.0
141
200.0
290
     0
  0
SCALE
  5
2DAB
102
{ACAD_REACTORS
330
2C28
102
}
330
2C28
100
AcDbScale
 70
     0
300
1:2500
140
1.0
141
250.0
290
     0
  0
SCALE
  5
2DAC
102
{ACAD_REACTORS
330
2C28
102
}
330
2C28
100
AcDbScale
 70
     0
300
1:5000
140
1.0
141
500.0
290
     0
  0
SCALE
  5
2FCB
102
{ACAD_REACTORS
330
2C28
102
}
330
2C28
100
AcDbScale
 70
     0
300
1:10_8
140
1.0
141
1.0
290
     0
  0
SCALE
  5
2FCC
102
{ACAD_REACTORS
330
2C28
102
}
330
2C28
100
AcDbScale
 70
     0
300
1:1_8
140
1.0
141
0.1
290
     0
  0
SCALE
  5
2FCD
102
{ACAD_REACTORS
330
2C28
102
}
330
2C28
100
AcDbScale
 70
     0
300
1:2_8
140
1.0
141
0.2
290
     0
  0
SCALE
  5
2FCE
102
{ACAD_REACTORS
330
2C28
102
}
330
2C28
100
AcDbScale
 70
     0
300
1:5_8
140
1.0
141
0.5
290
     0
  0
SCALE
  5
2D60
102
{ACAD_REACTORS
330
2C28
102
}
330
2C28
100
AcDbScale
 70
     0
300
1:10_2
140
1.0
141
10.0
290
     0
  0
SCALE
  5
2FCF
102
{ACAD_REACTORS
330
2C28
102
}
330
2C28
100
AcDbScale
 70
     0
300
1:20_8
140
1.0
141
2.0
290
     0
  0
SCALE
  5
2FD0
102
{ACAD_REACTORS
330
2C28
102
}
330
2C28
100
AcDbScale
 70
     0
300
1:50_8
140
1.0
141
5.0
290
     0
  0
SCALE
  5
2FD1
102
{ACAD_REACTORS
330
2C28
102
}
330
2C28
100
AcDbScale
 70
     0
300
1:100_8
140
1.0
141
10.0
290
     0
  0
SCALE
  5
3018
102
{ACAD_REACTORS
330
2C28
102
}
330
2C28
100
AcDbScale
 70
     0
300
1:10_9
140
1.0
141
1.0
290
     0
  0
SCALE
  5
3019
102
{ACAD_REACTORS
330
2C28
102
}
330
2C28
100
AcDbScale
 70
     0
300
1:1_9
140
1.0
141
0.1
290
     0
  0
SCALE
  5
301A
102
{ACAD_REACTORS
330
2C28
102
}
330
2C28
100
AcDbScale
 70
     0
300
1:2_9
140
1.0
141
0.2
290
     0
  0
SCALE
  5
301B
102
{ACAD_REACTORS
330
2C28
102
}
330
2C28
100
AcDbScale
 70
     0
300
1:5_9
140
1.0
141
0.5
290
     0
  0
SCALE
  5
301C
102
{ACAD_REACTORS
330
2C28
102
}
330
2C28
100
AcDbScale
 70
     0
300
1:20_9
140
1.0
141
2.0
290
     0
  0
SCALE
  5
301D
102
{ACAD_REACTORS
330
2C28
102
}
330
2C28
100
AcDbScale
 70
     0
300
1:50_9
140
1.0
141
5.0
290
     0
  0
SCALE
  5
301E
102
{ACAD_REACTORS
330
2C28
102
}
330
2C28
100
AcDbScale
 70
     0
300
1:100_9
140
1.0
141
10.0
290
     0
  0
SCALE
  5
2C29
102
{ACAD_REACTORS
330
2C28
102
}
330
2C28
100
AcDbScale
 70
     0
300
1:1
140
1.0
141
1.0
290
     1
  0
SCALE
  5
2C2A
102
{ACAD_REACTORS
330
2C28
102
}
330
2C28
100
AcDbScale
 70
     0
300
1:2
140
1.0
141
2.0
290
     0
  0
SCALE
  5
2C2B
102
{ACAD_REACTORS
330
2C28
102
}
330
2C28
100
AcDbScale
 70
     0
300
1:4
140
1.0
141
4.0
290
     0
  0
SCALE
  5
2C2C
102
{ACAD_REACTORS
330
2C28
102
}
330
2C28
100
AcDbScale
 70
     0
300
1:5
140
1.0
141
5.0
290
     0
  0
SCALE
  5
2C2D
102
{ACAD_REACTORS
330
2C28
102
}
330
2C28
100
AcDbScale
 70
     0
300
1:8
140
1.0
141
8.0
290
     0
  0
SCALE
  5
2C2E
102
{ACAD_REACTORS
330
2C28
102
}
330
2C28
100
AcDbScale
 70
     0
300
1:10
140
1.0
141
10.0
290
     0
  0
SCALE
  5
2C2F
102
{ACAD_REACTORS
330
2C28
102
}
330
2C28
100
AcDbScale
 70
     0
300
1:16
140
1.0
141
16.0
290
     0
  0
SCALE
  5
2C30
102
{ACAD_REACTORS
330
2C28
102
}
330
2C28
100
AcDbScale
 70
     0
300
1:20
140
1.0
141
20.0
290
     0
  0
SCALE
  5
2C31
102
{ACAD_REACTORS
330
2C28
102
}
330
2C28
100
AcDbScale
 70
     0
300
1:30
140
1.0
141
30.0
290
     0
  0
SCALE
  5
2C32
102
{ACAD_REACTORS
330
2C28
102
}
330
2C28
100
AcDbScale
 70
     0
300
1:40
140
1.0
141
40.0
290
     0
  0
SCALE
  5
2C33
102
{ACAD_REACTORS
330
2C28
102
}
330
2C28
100
AcDbScale
 70
     0
300
1:50
140
1.0
141
50.0
290
     0
  0
SCALE
  5
2C34
102
{ACAD_REACTORS
330
2C28
102
}
330
2C28
100
AcDbScale
 70
     0
300
1:100
140
1.0
141
100.0
290
     0
  0
SCALE
  5
2C35
102
{ACAD_REACTORS
330
2C28
102
}
330
2C28
100
AcDbScale
 70
     0
300
2:1
140
2.0
141
1.0
290
     0
  0
SCALE
  5
2C36
102
{ACAD_REACTORS
330
2C28
102
}
330
2C28
100
AcDbScale
 70
     0
300
4:1
140
4.0
141
1.0
290
     0
  0
SCALE
  5
2C37
102
{ACAD_REACTORS
330
2C28
102
}
330
2C28
100
AcDbScale
 70
     0
300
8:1
140
8.0
141
1.0
290
     0
  0
SCALE
  5
2C38
102
{ACAD_REACTORS
330
2C28
102
}
330
2C28
100
AcDbScale
 70
     0
300
10:1
140
10.0
141
1.0
290
     0
  0
SCALE
  5
2C39
102
{ACAD_REACTORS
330
2C28
102
}
330
2C28
100
AcDbScale
 70
     0
300
100:1
140
100.0
141
1.0
290
     0
  0
SCALE
  5
2C3A
102
{ACAD_REACTORS
330
2C28
102
}
330
2C28
100
AcDbScale
 70
     0
300
1/128" = 1'-0"
140
0.0078125
141
12.0
290
     0
  0
SCALE
  5
2C3B
102
{ACAD_REACTORS
330
2C28
102
}
330
2C28
100
AcDbScale
 70
     0
300
1/64" = 1'-0"
140
0.015625
141
12.0
290
     0
  0
SCALE
  5
2C3C
102
{ACAD_REACTORS
330
2C28
102
}
330
2C28
100
AcDbScale
 70
     0
300
1/32" = 1'-0"
140
0.03125
141
12.0
290
     0
  0
SCALE
  5
2C3D
102
{ACAD_REACTORS
330
2C28
102
}
330
2C28
100
AcDbScale
 70
     0
300
1/16" = 1'-0"
140
0.0625
141
12.0
290
     0
  0
SCALE
  5
2C3E
102
{ACAD_REACTORS
330
2C28
102
}
330
2C28
100
AcDbScale
 70
     0
300
3/32" = 1'-0"
140
0.09375
141
12.0
290
     0
  0
SCALE
  5
2C3F
102
{ACAD_REACTORS
330
2C28
102
}
330
2C28
100
AcDbScale
 70
     0
300
1/8" = 1'-0"
140
0.125
141
12.0
290
     0
  0
SCALE
  5
2C40
102
{ACAD_REACTORS
330
2C28
102
}
330
2C28
100
AcDbScale
 70
     0
300
3/16" = 1'-0"
140
0.1875
141
12.0
290
     0
  0
SCALE
  5
2C41
102
{ACAD_REACTORS
330
2C28
102
}
330
2C28
100
AcDbScale
 70
     0
300
1/4" = 1'-0"
140
0.25
141
12.0
290
     0
  0
SCALE
  5
2C42
102
{ACAD_REACTORS
330
2C28
102
}
330
2C28
100
AcDbScale
 70
     0
300
3/8" = 1'-0"
140
0.375
141
12.0
290
     0
  0
SCALE
  5
2C43
102
{ACAD_REACTORS
330
2C28
102
}
330
2C28
100
AcDbScale
 70
     0
300
1/2" = 1'-0"
140
0.5
141
12.0
290
     0
  0
SCALE
  5
2C44
102
{ACAD_REACTORS
330
2C28
102
}
330
2C28
100
AcDbScale
 70
     0
300
3/4" = 1'-0"
140
0.75
141
12.0
290
     0
  0
SCALE
  5
2C45
102
{ACAD_REACTORS
330
2C28
102
}
330
2C28
100
AcDbScale
 70
     0
300
1" = 1'-0"
140
1.0
141
12.0
290
     0
  0
SCALE
  5
2C46
102
{ACAD_REACTORS
330
2C28
102
}
330
2C28
100
AcDbScale
 70
     0
300
1-1/2" = 1'-0"
140
1.5
141
12.0
290
     0
  0
SCALE
  5
2C47
102
{ACAD_REACTORS
330
2C28
102
}
330
2C28
100
AcDbScale
 70
     0
300
3" = 1'-0"
140
3.0
141
12.0
290
     0
  0
SCALE
  5
2C48
102
{ACAD_REACTORS
330
2C28
102
}
330
2C28
100
AcDbScale
 70
     0
300
6" = 1'-0"
140
6.0
141
12.0
290
     0
  0
SCALE
  5
2C49
102
{ACAD_REACTORS
330
2C28
102
}
330
2C28
100
AcDbScale
 70
     0
300
1'-0" = 1'-0"
140
12.0
141
12.0
290
     0
  0
TABLESTYLE
  5
DF3
102
{ACAD_XDICTIONARY
360
33D5
102
}
102
{ACAD_REACTORS
330
DF2
102
}
330
DF2
100
AcDbTableStyle
  3
Standard
 70
     0
 71
     0
 40
0.06
 41
0.06
280
     0
281
     0
  7
Standard
140
0.18
170
     2
 62
     0
 63
     7
283
     0
274
    -2
284
     1
 64
     0
275
    -2
285
     1
 65
     0
276
    -2
286
     1
 66
     0
277
    -2
287
     1
 67
     0
278
    -2
288
     1
 68
     0
279
    -2
289
     1
 69
     0
  7
Standard
140
0.25
170
     5
 62
     0
 63
     7
283
     0
274
    -2
284
     1
 64
     0
275
    -2
285
     1
 65
     0
276
    -2
286
     1
 66
     0
277
    -2
287
     1
 67
     0
278
    -2
288
     1
 68
     0
279
    -2
289
     1
 69
     0
  7
Standard
140
0.18
170
     5
 62
     0
 63
     7
283
     0
274
    -2
284
     1
 64
     0
275
    -2
285
     1
 65
     0
276
    -2
286
     1
 66
     0
277
    -2
287
     1
 67
     0
278
    -2
288
     1
 68
     0
279
    -2
289
     1
 69
     0
  0
VISUALSTYLE
  5
19AA
102
{ACAD_REACTORS
330
19A4
102
}
330
19A4
100
AcDbVisualStyle
  2
2dWireframe
 70
     4
 71
     0
 72
     2
 73
     0
 90
        0
 40
-0.6
 41
-30.0
 62
     5
 63
     7
 74
     1
 91
        4
 64
     7
 65
   257
 75
     1
175
     1
 42
1.0
 92
        0
 66
   257
 43
1.0
 76
     1
 77
     6
 78
     2
 67
     7
 79
     5
170
     0
171
     0
290
     0
174
     0
 93
        1
 44
0.0
173
     0
291
     0
 45
0.0
1001
ACAD
1000
AcDbSavedByObjectVersion
1070
     0
  0
VISUALSTYLE
  5
19AC
102
{ACAD_REACTORS
330
19A4
102
}
330
19A4
100
AcDbVisualStyle
  2
3D Hidden
 70
     6
 71
     1
 72
     2
 73
     2
 90
        0
 40
-0.6
 41
-30.0
 62
     5
 63
     7
 74
     2
 91
        2
 64
     7
 65
   257
 75
     2
175
     1
 42
40.0
 92
        0
 66
   257
 43
1.0
 76
     1
 77
     6
 78
     2
 67
     7
 79
     3
170
     0
171
     0
290
     0
174
     0
 93
        1
 44
0.0
173
     0
291
     0
 45
0.0
1001
ACAD
1000
AcDbSavedByObjectVersion
1070
     0
  0
VISUALSTYLE
  5
19AB
102
{ACAD_REACTORS
330
19A4
102
}
330
19A4
100
AcDbVisualStyle
  2
3dWireframe
 70
     5
 71
     0
 72
     2
 73
     0
 90
        0
 40
-0.6
 41
-30.0
 62
     5
 63
     7
 74
     1
 91
        4
 64
     7
 65
   257
 75
     1
175
     1
 42
1.0
 92
        0
 66
   257
 43
1.0
 76
     1
 77
     6
 78
     2
 67
     7
 79
     5
170
     0
171
     0
290
     0
174
     0
 93
        1
 44
0.0
173
     0
291
     0
 45
0.0
1001
ACAD
1000
AcDbSavedByObjectVersion
1070
     0
  0
VISUALSTYLE
  5
19A9
102
{ACAD_REACTORS
330
19A4
102
}
330
19A4
100
AcDbVisualStyle
  2
Basic
 70
     7
 71
     1
 72
     0
 73
     1
 90
        0
 40
-0.6
 41
-30.0
 62
     5
 63
     7
 74
     0
 91
        4
 64
     7
 65
   257
 75
     1
175
     1
 42
1.0
 92
        8
 66
     7
 43
1.0
 76
     1
 77
     6
 78
     2
 67
     7
 79
     5
170
     0
171
     0
290
     0
174
     0
 93
        1
 44
0.0
173
     0
291
     1
 45
0.0
1001
ACAD
1000
AcDbSavedByObjectVersion
1070
     0
  0
VISUALSTYLE
  5
19B0
102
{ACAD_REACTORS
330
19A4
102
}
330
19A4
100
AcDbVisualStyle
  2
Brighten
 70
    12
 71
     2
 72
     2
 73
     0
 90
        0
 40
-0.6
 41
-30.0
 62
     5
 63
     7
 74
     1
 91
        4
 64
     7
 65
   257
 75
     1
175
     1
 42
1.0
 92
        8
 66
     7
 43
1.0
 76
     1
 77
     6
 78
     2
 67
     7
 79
     5
170
     0
171
     0
290
     0
174
     0
 93
        1
 44
50.0
173
     0
291
     1
 45
0.0
1001
ACAD
1000
AcDbSavedByObjectVersion
1070
     0
  0
VISUALSTYLE
  5
19B4
102
{ACAD_REACTORS
330
19A4
102
}
330
19A4
100
AcDbVisualStyle
  2
ColorChange
 70
    16
 71
     2
 72
     2
 73
     3
 90
        0
 40
-0.6
 41
-30.0
 62
     5
 63
     8
 74
     1
 91
        4
 64
     7
 65
   257
 75
     1
175
     1
 42
1.0
 92
        8
 66
     8
 43
1.0
 76
     1
 77
     6
 78
     2
 67
     7
 79
     5
170
     0
171
     0
290
     0
174
     0
 93
        1
 44
0.0
173
     0
291
     1
 45
0.0
1001
ACAD
1000
AcDbSavedByObjectVersion
1070
     0
  0
VISUALSTYLE
  5
19AD
102
{ACAD_REACTORS
330
19A4
102
}
330
19A4
100
AcDbVisualStyle
  2
Conceptual
 70
     9
 71
     3
 72
     2
 73
     0
 90
        0
 40
-0.6
 41
-30.0
 62
     5
 63
     7
 74
     2
 91
        2
 64
     7
 65
   257
 75
     1
175
     1
 42
40.0
 92
        8
 66
     7
 43
1.0
 76
     1
 77
     6
 78
     2
 67
     7
 79
     3
170
     0
171
     0
290
     0
174
     0
 93
        1
 44
0.0
173
     0
291
     0
 45
0.0
1001
ACAD
1000
AcDbSavedByObjectVersion
1070
     0
  0
VISUALSTYLE
  5
19AF
102
{ACAD_REACTORS
330
19A4
102
}
330
19A4
100
AcDbVisualStyle
  2
Dim
 70
    11
 71
     2
 72
     2
 73
     0
 90
        0
 40
-0.6
 41
-30.0
 62
     5
 63
     7
 74
     1
 91
        4
 64
     7
 65
   257
 75
     1
175
     1
 42
1.0
 92
        8
 66
     7
 43
1.0
 76
     1
 77
     6
 78
     2
 67
     7
 79
     5
170
     0
171
     0
290
     0
174
     0
 93
        1
 44
-50.0
173
     0
291
     1
 45
0.0
1001
ACAD
1000
AcDbSavedByObjectVersion
1070
     0
  0
VISUALSTYLE
  5
19B3
102
{ACAD_REACTORS
330
19A4
102
}
330
19A4
100
AcDbVisualStyle
  2
Facepattern
 70
    15
 71
     2
 72
     2
 73
     0
 90
        0
 40
-0.6
 41
-30.0
 62
     5
 63
     7
 74
     1
 91
        4
 64
     7
 65
   257
 75
     1
175
     1
 42
1.0
 92
        8
 66
     7
 43
1.0
 76
     1
 77
     6
 78
     2
 67
     7
 79
     5
170
     0
171
     0
290
     0
174
     0
 93
        1
 44
0.0
173
     0
291
     1
 45
0.0
1001
ACAD
1000
AcDbSavedByObjectVersion
1070
     0
  0
VISUALSTYLE
  5
19A5
102
{ACAD_REACTORS
330
19A4
102
}
330
19A4
100
AcDbVisualStyle
  2
Flat
 70
     0
 71
     2
 72
     1
 73
     1
 90
        2
 40
-0.6
 41
30.0
 62
     5
 63
     7
 74
     0
 91
        4
 64
     7
 65
   257
 75
     1
175
     1
 42
1.0
 92
        8
 66
     7
 43
1.0
 76
     1
 77
     6
 78
     2
 67
     7
 79
     5
170
     0
171
     0
290
     0
174
     0
 93
       13
 44
0.0
173
     0
291
     0
 45
0.0
1001
ACAD
1000
AcDbSavedByObjectVersion
1070
     0
  0
VISUALSTYLE
  5
19A6
102
{ACAD_REACTORS
330
19A4
102
}
330
19A4
100
AcDbVisualStyle
  2
FlatWithEdges
 70
     1
 71
     2
 72
     1
 73
     1
 90
        2
 40
-0.6
 41
30.0
 62
     5
 63
     7
 74
     1
 91
        4
 64
     7
 65
   257
 75
     1
175
     1
 42
1.0
 92
        0
 66
   257
 43
1.0
 76
     1
 77
     6
 78
     2
 67
     7
 79
     5
170
     0
171
     0
290
     0
174
     0
 93
       13
 44
0.0
173
     0
291
     0
 45
0.0
1001
ACAD
1000
AcDbSavedByObjectVersion
1070
     0
  0
VISUALSTYLE
  5
19A7
102
{ACAD_REACTORS
330
19A4
102
}
330
19A4
100
AcDbVisualStyle
  2
Gouraud
 70
     2
 71
     2
 72
     2
 73
     1
 90
        2
 40
-0.6
 41
30.0
 62
     5
 63
     7
 74
     0
 91
        4
 64
     7
 65
   257
 75
     1
175
     1
 42
1.0
 92
        0
 66
     7
 43
1.0
 76
     1
 77
     6
 78
     2
 67
     7
 79
     5
170
     0
171
     0
290
     0
174
     0
 93
       13
 44
0.0
173
     0
291
     0
 45
0.0
1001
ACAD
1000
AcDbSavedByObjectVersion
1070
     0
  0
VISUALSTYLE
  5
19A8
102
{ACAD_REACTORS
330
19A4
102
}
330
19A4
100
AcDbVisualStyle
  2
GouraudWithEdges
 70
     3
 71
     2
 72
     2
 73
     1
 90
        2
 40
-0.6
 41
30.0
 62
     5
 63
     7
 74
     1
 91
        4
 64
     7
 65
   257
 75
     1
175
     1
 42
1.0
 92
        0
 66
   257
 43
1.0
 76
     1
 77
     6
 78
     2
 67
     7
 79
     5
170
     0
171
     0
290
     0
174
     0
 93
       13
 44
0.0
173
     0
291
     0
 45
0.0
1001
ACAD
1000
AcDbSavedByObjectVersion
1070
     0
  0
VISUALSTYLE
  5
19B2
102
{ACAD_REACTORS
330
19A4
102
}
330
19A4
100
AcDbVisualStyle
  2
Linepattern
 70
    14
 71
     2
 72
     2
 73
     0
 90
        0
 40
-0.6
 41
-30.0
 62
     5
 63
     7
 74
     1
 91
        4
 64
     7
 65
   257
 75
     7
175
     7
 42
1.0
 92
        8
 66
     7
 43
1.0
 76
     1
 77
     6
 78
     2
 67
     7
 79
     5
170
     0
171
     0
290
     0
174
     0
 93
        1
 44
0.0
173
     0
291
     1
 45
0.0
1001
ACAD
1000
AcDbSavedByObjectVersion
1070
     0
  0
VISUALSTYLE
  5
2C54
102
{ACAD_REACTORS
330
19A4
102
}
330
19A4
100
AcDbVisualStyle
  2

 70
     8
 71
     2
 72
     2
 73
     0
 90
        0
 40
-0.6
 41
-30.0
 62
     5
 63
     7
 74
     0
 91
        0
 64
     7
 65
   257
 75
     1
175
     1
 42
1.0
 92
        8
 66
     8
 43
1.0
 76
     1
 77
     6
 78
     2
 67
     7
 79
     5
170
     0
171
     0
290
     0
174
     0
 93
       13
 44
0.0
173
     0
291
     0
 45
0.0
1001
ACAD
1000
AcDbSavedByObjectVersion
1070
     0
  0
VISUALSTYLE
  5
2C55
102
{ACAD_REACTORS
330
19A4
102
}
330
19A4
100
AcDbVisualStyle
  2

 70
     8
 71
     2
 72
     2
 73
     0
 90
        0
 40
-0.6
 41
-30.0
 62
     5
 63
     7
 74
     1
 91
        0
 64
     7
 65
   257
 75
     1
175
     1
 42
1.0
 92
        8
 66
     8
 43
1.0
 76
     1
 77
     6
 78
     2
 67
     7
 79
     5
170
     0
171
     0
290
     0
174
     0
 93
       13
 44
0.0
173
     0
291
     0
 45
0.0
1001
ACAD
1000
AcDbSavedByObjectVersion
1070
     0
  0
VISUALSTYLE
  5
19AE
102
{ACAD_REACTORS
330
19A4
102
}
330
19A4
100
AcDbVisualStyle
  2
Realistic
 70
     8
 71
     2
 72
     2
 73
     0
 90
        0
 40
-0.6
 41
-30.0
 62
     5
 63
     7
 74
     1
 91
        0
 64
     7
 65
   257
 75
     1
175
     1
 42
1.0
 92
        8
 66
     8
 43
1.0
 76
     1
 77
     6
 78
     2
 67
     7
 79
     5
170
     0
171
     0
290
     0
174
     0
 93
       13
 44
0.0
173
     0
291
     0
 45
0.0
1001
ACAD
1000
AcDbSavedByObjectVersion
1070
     0
  0
VISUALSTYLE
  5
19B1
102
{ACAD_REACTORS
330
19A4
102
}
330
19A4
100
AcDbVisualStyle
  2
Thicken
 70
    13
 71
     2
 72
     2
 73
     0
 90
        0
 40
-0.6
 41
-30.0
 62
     5
 63
     7
 74
     1
 91
        4
 64
     7
 65
   257
 75
     1
175
     1
 42
1.0
 92
       12
 66
     7
 43
1.0
 76
     1
 77
     6
 78
     2
 67
     7
 79
     5
170
     0
171
     0
290
     0
174
     0
 93
        1
 44
0.0
173
     0
291
     1
 45
0.0
1001
ACAD
1000
AcDbSavedByObjectVersion
1070
     0
  0
DICTIONARYVAR
  5
33D0
102
{ACAD_REACTORS
330
E04
102
}
330
E04
100
DictionaryVariables
280
     0
  1
1:1
  0
DICTIONARYVAR
  5
E05
102
{ACAD_REACTORS
330
E04
102
}
330
E04
100
DictionaryVariables
280
     0
  1
STANDARD
  0
DICTIONARYVAR
  5
33D4
102
{ACAD_REACTORS
330
E04
102
}
330
E04
100
DictionaryVariables
280
     0
  1
1
  0
DICTIONARYVAR
  5
33D3
102
{ACAD_REACTORS
330
E04
102
}
330
E04
100
DictionaryVariables
280
     0
  1
1
  0
DICTIONARYVAR
  5
33D2
102
{ACAD_REACTORS
330
E04
102
}
330
E04
100
DictionaryVariables
280
     0
  1
0
  0
DICTIONARYVAR
  5
33D1
102
{ACAD_REACTORS
330
E04
102
}
330
E04
100
DictionaryVariables
280
     0
  1
127
  0
XRECORD
  5
2C09
102
{ACAD_REACTORS
330
2BF9
102
}
330
2BF9
100
AcDbXrecord
280
     1
  0
XRECORD
  5
2C08
102
{ACAD_REACTORS
330
2BF9
102
}
330
2BF9
100
AcDbXrecord
280
     1
  0
XRECORD
  5
2C07
102
{ACAD_REACTORS
330
2BF9
102
}
330
2BF9
100
AcDbXrecord
280
     1
  0
XRECORD
  5
2C06
102
{ACAD_REACTORS
330
2BF9
102
}
330
2BF9
100
AcDbXrecord
280
     1
  0
XRECORD
  5
2C05
102
{ACAD_REACTORS
330
2BF9
102
}
330
2BF9
100
AcDbXrecord
280
     1
  0
XRECORD
  5
2C04
102
{ACAD_REACTORS
330
2BF9
102
}
330
2BF9
100
AcDbXrecord
280
     1
  0
XRECORD
  5
2C03
102
{ACAD_REACTORS
330
2BF9
102
}
330
2BF9
100
AcDbXrecord
280
     1
  0
XRECORD
  5
2C02
102
{ACAD_REACTORS
330
2BF9
102
}
330
2BF9
100
AcDbXrecord
280
     1
  0
XRECORD
  5
2C01
102
{ACAD_REACTORS
330
2BF9
102
}
330
2BF9
100
AcDbXrecord
280
     1
  0
XRECORD
  5
2C00
102
{ACAD_REACTORS
330
2BF9
102
}
330
2BF9
100
AcDbXrecord
280
     1
  0
XRECORD
  5
2BFF
102
{ACAD_REACTORS
330
2BF9
102
}
330
2BF9
100
AcDbXrecord
280
     1
330
19C5
1004
01000000200000000000000001000000
1000
ALFABET-Arial20
  0
XRECORD
  5
2C0A
102
{ACAD_REACTORS
330
2BF9
102
}
330
2BF9
100
AcDbXrecord
280
     1
330
182
330
183
330
E60
330
E61
330
E63
330
E64
330
E65
330
E66
330
E67
330
E68
330
1AEE
330
1AEF
330
1AF1
330
1AF2
330
1AF3
330
1AF4
330
2BC8
330
2BC9
330
2BCF
330
2BD0
330
2BD6
330
2BD7
330
2BDD
330
2BDE
330
2BE4
330
2BE5
330
2BEB
330
2BEC
330
2BF2
330
2BF3
  0
XRECORD
  5
2BFE
102
{ACAD_REACTORS
330
2BF9
102
}
330
2BF9
100
AcDbXrecord
280
     1
  0
XRECORD
  5
2BFD
102
{ACAD_REACTORS
330
2BF9
102
}
330
2BF9
100
AcDbXrecord
280
     1
  0
XRECORD
  5
2BFC
102
{ACAD_REACTORS
330
2BF9
102
}
330
2BF9
100
AcDbXrecord
280
     1
  0
XRECORD
  5
2BFB
102
{ACAD_REACTORS
330
2BF9
102
}
330
2BF9
100
AcDbXrecord
280
     1
  0
XRECORD
  5
2BFA
102
{ACAD_REACTORS
330
2BF9
102
}
330
2BF9
100
AcDbXrecord
280
     1
  0
ACAD_PROXY_OBJECT
  5
206F
102
{ACAD_REACTORS
330
204D
102
}
330
204D
100
AcDbProxyObject
 90
      499
 91
      755
 95
   131099
 70
     0
 93
        1
310
4C
 94
        0
1001
DCO15
1000
jet_dbsamples..."elementy wiezby"(_el_wzb_Left_nazw_romans16)
1000
nazw_el_wiezb
1040
1.0
1040
1.0
1040
0.0
1040
0.0
1040
0.0
1040
0.0
1040
0.0
1040
15.0
1071
        0
1071
      256
1071
        7
1071
        5
1071
        1
1000
ROMANS
1000
ByLayer
1000
#(nazw_el_wiezb)
1001
ACAD
1000
AcRTDxfName
1000
OBJECT_PTR
  0
ACAD_PROXY_OBJECT
  5
206E
102
{ACAD_REACTORS
330
204D
102
}
330
204D
100
AcDbProxyObject
 90
      499
 91
      755
 95
   131099
 70
     0
 93
        1
310
4C
 94
        0
1001
DCO15
1000
jet_dbsamples..."elementy wiezby"(_elementy_wiezby_SKROT_Romans16)
1000
skrot_el_wiezb
1040
1.0
1040
1.0
1040
0.0
1040
0.0
1040
0.0
1040
0.0
1040
0.0
1040
16.0
1071
        0
1071
      256
1071
        9
1071
        5
1071
        1
1000
ROMANS
1000
ByLayer
1000
#(skrot_el_wiezb)
1001
ACAD
1000
AcRTDxfName
1000
OBJECT_PTR
  0
ACAD_PROXY_OBJECT
  5
206D
102
{ACAD_REACTORS
330
204D
102
}
330
204D
100
AcDbProxyObject
 90
      499
 91
      755
 95
   131099
 70
     0
 93
        1
310
4C
 94
        0
1001
DCO15
1000
jet_dbsamples..."materialy przegrod pl"(_materialy_przegrod_pl_Label1)
1000
nazw_mat
1040
1.0
1040
1.0
1040
0.0
1040
0.0
1040
0.0
1040
0.0
1040
0.0
1040
17.0
1071
        0
1071
      256
1071
        7
1071
        5
1071
        1
1000
Romans17
1000
ByLayer
1000
#(nazw_mat)
1001
ACAD
1000
AcRTDxfName
1000
OBJECT_PTR
  0
ACAD_PROXY_OBJECT
  5
206C
102
{ACAD_REACTORS
330
204D
102
}
330
204D
100
AcDbProxyObject
 90
      499
 91
      755
 95
   131099
 70
     0
 93
        1
310
4C
 94
        0
1001
DCO15
1000
jet_dbsamples..."nazwy przegrod pl"(_nazwy_przegrod_romans18)
1000
nzw_przegrody
1040
1.0
1040
1.0
1040
0.0
1040
0.0
1040
0.0
1040
0.0
1040
0.0
1040
17.0
1071
        0
1071
      256
1071
        7
1071
        5
1071
        1
1000
Romans17
1000
ByLayer
1000
{\L\C2;#(nzw_przegrody)}
1001
ACAD
1000
AcRTDxfName
1000
OBJECT_PTR
  0
ACAD_PROXY_OBJECT
  5
206B
102
{ACAD_REACTORS
330
204D
102
}
330
204D
100
AcDbProxyObject
 90
      499
 91
      755
 95
   131099
 70
     0
 93
        1
310
4C
 94
        0
1001
DCO15
1000
jet_dbsamples..."nazwy rysunkow"(_nazwy_rysunkow_Arial37)
1000
1linia
1000
2linia
1000
3linia
1040
1.0
1040
1.0
1040
0.0
1040
0.0
1040
0.0
1040
0.0
1040
0.0
1040
37.0
1071
        0
1071
      256
1071
        1
1071
        5
1071
        1
1000
Romans17
1000
ByLayer
1000
{\fArial|b0|i0|c238|p34;#(1linia)\P#(2linia)\P#(3linia)}
1001
ACAD
1000
AcRTDxfName
1000
OBJECT_PTR
  0
ACAD_PROXY_OBJECT
  5
206A
102
{ACAD_REACTORS
330
204D
102
}
330
204D
100
AcDbProxyObject
 90
      499
 91
      755
 95
   131099
 70
     0
 93
        1
310
4C
 94
        0
1001
DCO15
1000
jet_dbsamples..."nazwy rysunkow"(_nazwy_rysunkow_Romans18)
1000
1linia
1000
2linia
1000
3linia
1040
1.0
1040
1.0
1040
0.0
1040
0.0
1040
0.0
1040
0.0
1040
0.0
1040
18.0
1071
        0
1071
      256
1071
        2
1071
        5
1071
        1
1000
Romans17
1000
ByLayer
1000
{\Fromans.shx|c238;#(1linia)\P#(2linia)\P#(3linia)}
1001
ACAD
1000
AcRTDxfName
1000
OBJECT_PTR
  0
ACAD_PROXY_OBJECT
  5
2069
102
{ACAD_REACTORS
330
204D
102
}
330
204D
100
AcDbProxyObject
 90
      499
 91
      755
 95
   131099
 70
     0
 93
        1
310
4C
 94
        0
1001
DCO15
1000
jet_dbsamples..."opisy rozne II"(_opisy_rozne_II_Label1)
1000
opis różny
1040
1.0
1040
1.0
1040
0.0
1040
0.0
1040
0.0
1040
0.0
1040
0.0
1040
10.0
1071
        0
1071
      256
1071
        1
1071
        5
1071
        1
1000
ROMANS
1000
ByLayer
1000
#(opis różny)
1001
ACAD
1000
AcRTDxfName
1000
OBJECT_PTR
  0
ACAD_PROXY_OBJECT
  5
2068
102
{ACAD_REACTORS
330
204D
102
}
330
204D
100
AcDbProxyObject
 90
      499
 91
      755
 95
   131099
 70
     0
 93
        1
310
4C
 94
        0
1001
DCO15
1000
jet_dbsamples..."opisy rozne II"(_opisy_rozne_II_Link1Label1)
1000
opis różny
1040
1.0
1040
1.0
1040
0.0
1040
0.0
1040
0.0
1040
0.0
1040
0.0
1040
10.0
1071
        0
1071
      256
1071
        1
1071
        5
1071
        1
1000
ROMANS
1000
ByLayer
1000
#(opis różny)
1001
ACAD
1000
AcRTDxfName
1000
OBJECT_PTR
  0
ACAD_PROXY_OBJECT
  5
2067
102
{ACAD_REACTORS
330
204D
102
}
330
204D
100
AcDbProxyObject
 90
      499
 91
      755
 95
   131099
 70
     0
 93
        1
310
4C
 94
        0
1001
DCO15
1000
jet_dbsamples..."posadzki do zestawienia pomieszczen"(_posadzki_do_zestawienia_pomieszczen_Romans17)
1000
nazwa_pos
1040
1.0
1040
1.0
1040
0.0
1040
0.0
1040
0.0
1040
0.0
1040
0.0
1040
17.0
1071
        0
1071
      256
1071
        7
1071
        5
1071
        1
1000
ROMANS
1000
ByLayer
1000
#(nazwa_pos)
1001
ACAD
1000
AcRTDxfName
1000
OBJECT_PTR
  0
ACAD_PROXY_OBJECT
  5
2066
102
{ACAD_REACTORS
330
204D
102
}
330
204D
100
AcDbProxyObject
 90
      499
 91
      755
 95
   131099
 70
     0
 93
        1
310
4C
 94
        0
1001
DCO15
1000
jet_dbsamples..."rozne opisy rys"(_rozne_opisy_rys_R16_right)
1000
1L
1000
2L
1000
3L
1000
4L
1000
5L
1040
1.0
1040
1.0
1040
0.0
1040
0.0
1040
0.0
1040
0.0
1040
0.0
1040
16.0
1071
        0
1071
      256
1071
        3
1071
        5
1071
        1
1000
ROMANS
1000
ByLayer
1000
#(1L)\P#(2L)\P#(3L)\P#(4L)\P#(5L)
1001
ACAD
1000
AcRTDxfName
1000
OBJECT_PTR
  0
ACAD_PROXY_OBJECT
  5
2065
102
{ACAD_REACTORS
330
204D
102
}
330
204D
100
AcDbProxyObject
 90
      499
 91
      755
 95
   131099
 70
     0
 93
        1
310
4C
 94
        0
1001
DCO15
1000
jet_dbsamples..."rozne opisy rys"(_rozne_opisy_rys_Romans12)
1000
1L
1000
2L
1000
3L
1000
4L
1000
5L
1040
1.0
1040
1.0
1040
0.0
1040
0.0
1040
0.0
1040
0.0
1040
0.0
1040
13.0
1071
        0
1071
      256
1071
        1
1071
        5
1071
        1
1000
ROMANS
1000
ByLayer
1000
#(1L)\P#(2L)\P#(3L)\P#(4L)\P#(5L)
1001
ACAD
1000
AcRTDxfName
1000
OBJECT_PTR
  0
ACAD_PROXY_OBJECT
  5
2064
102
{ACAD_REACTORS
330
204D
102
}
330
204D
100
AcDbProxyObject
 90
      499
 91
      755
 95
   131099
 70
     0
 93
        1
310
4C
 94
        0
1001
DCO15
1000
jet_dbsamples..."rozne opisy rys"(_rozne_opisy_rys_Romans16)
1000
1L
1000
2L
1000
3L
1000
4L
1000
5L
1040
1.0
1040
1.0
1040
0.0
1040
0.0
1040
0.0
1040
0.0
1040
0.0
1040
16.0
1071
        0
1071
      256
1071
        1
1071
        5
1071
        1
1000
ROMANS
1000
ByLayer
1000
#(1L)\P#(2L)\P#(3L)\P#(4L)\P#(5L)
1001
ACAD
1000
AcRTDxfName
1000
OBJECT_PTR
  0
ACAD_PROXY_OBJECT
  5
2063
102
{ACAD_REACTORS
330
204D
102
}
330
204D
100
AcDbProxyObject
 90
      499
 91
      755
 95
   131099
 70
     0
 93
        1
310
4C
 94
        0
1001
DCO15
1000
jet_dbsamples..."tabelka - inform i etykiety"(_tabelka_-_inform_i_etykiety_Romans13)
1000
1linia
1000
2linia_ewentualna
1000
3linia_ewentualna
1040
1.0
1040
1.0
1040
0.0
1040
0.0
1040
0.0
1040
0.0
1040
0.0
1040
13.0
1071
        0
1071
      256
1071
        1
1071
        5
1071
        1
1000
ROMANS
1000
ByLayer
1000
#(1linia)\P#(2linia_ewentualna)\P#(3linia_ewentualna)
1001
ACAD
1000
AcRTDxfName
1000
OBJECT_PTR
  0
ACAD_PROXY_OBJECT
  5
2062
102
{ACAD_REACTORS
330
204D
102
}
330
204D
100
AcDbProxyObject
 90
      499
 91
      755
 95
   131099
 70
     0
 93
        1
310
4C
 94
        0
1001
DCO15
1000
jet_dbsamples..."tabelka - inform i etykiety"(_tabelka_Arial15-center)
1000
1linia
1000
2linia_ewentualna
1000
3linia_ewentualna
1040
1.0
1040
1.0
1040
0.0
1040
0.0
1040
0.0
1040
0.0
1040
0.0
1040
15.0
1071
        0
1071
      256
1071
        2
1071
        5
1071
        1
1000
ROMANS
1000
ByLayer
1000
{\fArial|b0|i0|c238|p34;#(1linia)\P#(2linia_ewentualna)\P#(3linia_ewentualna)}
1001
ACAD
1000
AcRTDxfName
1000
OBJECT_PTR
  0
ACAD_PROXY_OBJECT
  5
2061
102
{ACAD_REACTORS
330
204D
102
}
330
204D
100
AcDbProxyObject
 90
      499
 91
      755
 95
   131099
 70
     0
 93
        1
310
4C
 94
        0
1001
DCO15
1000
jet_dbsamples..."tabelka - inform i etykiety"(_tabelka_Arial151)
1000
1linia
1040
1.0
1040
1.0
1040
0.0
1040
0.0
1040
0.0
1040
0.0
1040
0.0
1040
15.0
1071
        0
1071
      256
1071
        1
1071
        5
1071
        1
1000
ARIAL
1000
ByLayer
1000
{\fArial|b0|i0|c238|p34;#(1linia)}
1001
ACAD
1000
AcRTDxfName
1000
OBJECT_PTR
  0
ACAD_PROXY_OBJECT
  5
2060
102
{ACAD_REACTORS
330
204D
102
}
330
204D
100
AcDbProxyObject
 90
      499
 91
      755
 95
   131099
 70
     0
 93
        1
310
4C
 94
        0
1001
DCO15
1000
jet_dbsamples..."tabelka - inform i etykiety"(_tabelka_Romans 10)
1000
1linia
1000
2linia_ewentualna
1000
3linia_ewentualna
1040
1.0
1040
1.0
1040
0.0
1040
0.0
1040
0.0
1040
0.0
1040
0.0
1040
10.0
1071
        0
1071
      256
1071
        1
1071
        5
1071
        1
1000
ARIAL
1000
ByLayer
1000
#(1linia)\P#(2linia_ewentualna)\P#(3linia_ewentualna)
1001
ACAD
1000
AcRTDxfName
1000
OBJECT_PTR
  0
ACAD_PROXY_OBJECT
  5
205F
102
{ACAD_REACTORS
330
204D
102
}
330
204D
100
AcDbProxyObject
 90
      499
 91
      755
 95
   131099
 70
     0
 93
        1
310
4C
 94
        0
1001
DCO15
1000
jet_dbsamples..."tabelka - inform i etykiety"(_tabelka_Romans13)
1000
1linia
1000
2linia_ewentualna
1000
3linia_ewentualna
1040
1.0
1040
1.0
1040
0.0
1040
0.0
1040
0.0
1040
0.0
1040
0.0
1040
13.0
1071
        0
1071
      256
1071
        1
1071
        5
1071
        1
1000
ARIAL
1000
ByLayer
1000
#(1linia)\P#(2linia_ewentualna)\P#(3linia_ewentualna)
1001
ACAD
1000
AcRTDxfName
1000
OBJECT_PTR
  0
ACAD_PROXY_OBJECT
  5
205E
102
{ACAD_REACTORS
330
204D
102
}
330
204D
100
AcDbProxyObject
 90
      499
 91
      755
 95
   131099
 70
     0
 93
        1
310
4C
 94
        0
1001
DCO15
1000
jet_dbsamples..."tabelka - inform i etykiety"(_tabelka_Romans19)
1000
1linia
1000
2linia_ewentualna
1000
3linia_ewentualna
1040
1.0
1040
1.0
1040
0.0
1040
0.0
1040
0.0
1040
0.0
1040
0.0
1040
19.0
1071
        0
1071
      256
1071
        2
1071
        5
1071
        1
1000
ARIAL
1000
ByLayer
1000
#(1linia)\P#(2linia_ewentualna)\P#(3linia_ewentualna)
1001
ACAD
1000
AcRTDxfName
1000
OBJECT_PTR
  0
ACAD_PROXY_OBJECT
  5
205D
102
{ACAD_REACTORS
330
204D
102
}
330
204D
100
AcDbProxyObject
 90
      499
 91
      755
 95
   131099
 70
     0
 93
        1
310
4C
 94
        0
1001
DCO15
1000
jet_dbsamples...ALFABET(ALFABET-Arial20)
1000
liter_alf
1040
1.0
1040
1.0
1040
0.0
1040
0.0
1040
0.0
1040
0.0
1040
0.0
1040
20.0
1071
        0
1071
      256
1071
        7
1071
        5
1071
        1
1000
Arial20
1000
ByLayer
1000
{\fArial|b0|i0|c238|p34;#(liter_alf)}
1001
ACAD
1000
AcRTDxfName
1000
OBJECT_PTR
  0
ACAD_PROXY_OBJECT
  5
205C
102
{ACAD_REACTORS
330
204D
102
}
330
204D
100
AcDbProxyObject
 90
      499
 91
      755
 95
   131099
 70
     0
 93
        1
310
4C
 94
        0
1001
DCO15
1000
jet_dbsamples...ALFABET(ALFABET-Arial26)
1000
liter_alf
1040
1.0
1040
1.0
1040
0.0
1040
0.0
1040
0.0
1040
0.0
1040
0.0
1040
26.0
1071
        0
1071
      256
1071
        7
1071
        5
1071
        1
1000
Arial20
1000
ByLayer
1000
{\fArial|b0|i0|c238|p34;\C140;#(liter_alf)}
1001
ACAD
1000
AcRTDxfName
1000
OBJECT_PTR
  0
ACAD_PROXY_OBJECT
  5
205B
102
{ACAD_REACTORS
330
204D
102
}
330
204D
100
AcDbProxyObject
 90
      499
 91
      755
 95
   131099
 70
     0
 93
        1
310
4C
 94
        0
1001
DCO15
1000
jet_dbsamples...ALFABET(ALFABET-Arial37)
1000
liter_alf
1040
1.0
1040
1.0
1040
0.0
1040
0.0
1040
0.0
1040
0.0
1040
0.0
1040
37.0
1071
        0
1071
      256
1071
        7
1071
        5
1071
        1
1000
Arial20
1000
ByLayer
1000
{\fArial|b0|i0|c238|p34;#(liter_alf)}
1001
ACAD
1000
AcRTDxfName
1000
OBJECT_PTR
  0
ACAD_PROXY_OBJECT
  5
205A
102
{ACAD_REACTORS
330
204D
102
}
330
204D
100
AcDbProxyObject
 90
      499
 91
      755
 95
   131099
 70
     0
 93
        1
310
4C
 94
        0
1001
DCO15
1000
jet_dbsamples..."uwagi ogolne na arkuszu"(Arial_27)
1000
1naglowek
1000
1linia
1000
2linia
1000
3linia
1000
4linia
1000
5linia
1000
6linia
1000
7linia
1000
8linia
1000
9linia
1000
10linia
1000
11linia
1000
12linia
1040
1.0
1040
1.0
1040
0.0
1040
0.0
1040
0.0
1040
0.0
1040
0.0
1040
26.0
1071
        0
1071
      256
1071
        1
1071
        5
1071
        1
1000
Arial20
1000
ByLayer
1000
{\fArial|b0|i0|c238|p34;#(1naglowek)\P#(1linia)\P#(2linia)\P#(3linia)\P#(4linia)\P#(5linia)\P#(6linia)\P#(7linia)\P#(8linia)\P#(9linia)\P#(10linia)\P#(11linia)\P#(12linia)}
1001
ACAD
1000
AcRTDxfName
1000
OBJECT_PTR
  0
ACAD_PROXY_OBJECT
  5
2059
102
{ACAD_REACTORS
330
204D
102
}
330
204D
100
AcDbProxyObject
 90
      499
 91
      755
 95
   131099
 70
     0
 93
        1
310
4C
 94
        0
1001
DCO15
1000
jet_dbsamples...jednostki(jednostki-Arial18)
1000
jedn
1040
1.0
1040
1.0
1040
0.0
1040
0.0
1040
0.0
1040
0.0
1040
0.0
1040
18.0
1071
        0
1071
      256
1071
        7
1071
        5
1071
        1
1000
Arial20
1000
ByLayer
1000
{\fArial|b0|i0|c238|p34;#(jedn)}
1001
ACAD
1000
AcRTDxfName
1000
OBJECT_PTR
  0
ACAD_PROXY_OBJECT
  5
2058
102
{ACAD_REACTORS
330
204D
102
}
330
204D
100
AcDbProxyObject
 90
      499
 91
      755
 95
   131099
 70
     0
 93
        1
310
4C
 94
        0
1001
DCO15
1000
jet_dbsamples...jednostki(jednostki-Arial30)
1000
jedn
1040
1.0
1040
1.0
1040
0.0
1040
0.0
1040
0.0
1040
0.0
1040
0.0
1040
30.0
1071
        0
1071
      256
1071
        7
1071
        5
1071
        1
1000
Arial20
1000
ByLayer
1000
{\fArial|b0|i0|c238|p34;#(jedn)}
1001
ACAD
1000
AcRTDxfName
1000
OBJECT_PTR
  0
ACAD_PROXY_OBJECT
  5
2057
102
{ACAD_REACTORS
330
204D
102
}
330
204D
100
AcDbProxyObject
 90
      499
 91
      755
 95
   131099
 70
     0
 93
        1
310
4C
 94
        0
1001
DCO15
1000
jet_dbsamples...jednostki(jednostki-Romans16)
1000
jedn
1040
1.0
1040
1.0
1040
0.0
1040
0.0
1040
0.0
1040
0.0
1040
0.0
1040
16.0
1071
        0
1071
      256
1071
        7
1071
        5
1071
        1
1000
Arial20
1000
ByLayer
1000
#(jedn)
1001
ACAD
1000
AcRTDxfName
1000
OBJECT_PTR
  0
ACAD_PROXY_OBJECT
  5
2056
102
{ACAD_REACTORS
330
204D
102
}
330
204D
100
AcDbProxyObject
 90
      499
 91
      755
 95
   131099
 70
     0
 93
        1
310
4C
 94
        0
1001
DCO15
1000
jet_dbsamples...miesiace(miesiace-Romans17)
1000
nzw_mies
1040
1.0
1040
1.0
1040
0.0
1040
0.0
1040
0.0
1040
0.0
1040
0.0
1040
17.0
1071
        0
1071
      256
1071
        1
1071
        5
1071
        1
1000
Arial20
1000
ByLayer
1000
#(nzw_mies)
1001
ACAD
1000
AcRTDxfName
1000
OBJECT_PTR
  0
ACAD_PROXY_OBJECT
  5
2055
102
{ACAD_REACTORS
330
204D
102
}
330
204D
100
AcDbProxyObject
 90
      499
 91
      755
 95
   131099
 70
     0
 93
        1
310
4C
 94
        0
1001
DCO15
1000
jet_dbsamples...pomieszczenia(pomieszczenia-Arial 15)
1000
nazwa
1040
1.0
1040
1.0
1040
0.0
1040
0.0
1040
0.0
1040
0.0
1040
0.0
1040
15.0
1071
        0
1071
      256
1071
        8
1071
        5
1071
        1
1000
Arial20
1000
ByLayer
1000
{\fArial|b0|i0|c238|p34;#(nazwa)}
1001
ACAD
1000
AcRTDxfName
1000
OBJECT_PTR
  0
ACAD_PROXY_OBJECT
  5
2054
102
{ACAD_REACTORS
330
204D
102
}
330
204D
100
AcDbProxyObject
 90
      499
 91
      755
 95
   131099
 70
     0
 93
        1
310
4C
 94
        0
1001
DCO15
1000
jet_dbsamples...pomieszczenia(pomieszczenia-Romans17)
1000
nazwa
1040
1.0
1040
1.0
1040
0.0
1040
0.0
1040
0.0
1040
0.0
1040
0.0
1040
17.0
1071
        0
1071
      256
1071
        7
1071
        5
1071
        1
1000
Romans17
1000
ByLayer
1000
#(nazwa)
1001
ACAD
1000
AcRTDxfName
1000
OBJECT_PTR
  0
ACAD_PROXY_OBJECT
  5
2053
102
{ACAD_REACTORS
330
204D
102
}
330
204D
100
AcDbProxyObject
 90
      499
 91
      755
 95
   131099
 70
     0
 93
        1
310
4C
 94
        0
1001
DCO15
1000
jet_dbsamples..."elementy wiezby"(romans16)
1000
nazw_el_wiezb
1040
1.0
1040
1.0
1040
0.0
1040
0.0
1040
0.0
1040
0.0
1040
0.0
1040
16.0
1071
        0
1071
      256
1071
        1
1071
        5
1071
        1
1000
Romans17
1000
ByLayer
1000
#(nazw_el_wiezb)
1001
ACAD
1000
AcRTDxfName
1000
OBJECT_PTR
  0
ACAD_PROXY_OBJECT
  5
2052
102
{ACAD_REACTORS
330
204D
102
}
330
204D
100
AcDbProxyObject
 90
      499
 91
      755
 95
   131099
 70
     0
 93
        1
310
4C
 94
        0
1001
DCO15
1000
jet_dbsamples..."uwagi ogolne na arkuszu"(Romans_17)
1000
1naglowek
1000
1linia
1000
2linia
1000
3linia
1000
4linia
1000
5linia
1000
6linia
1000
7linia
1000
8linia
1000
9linia
1000
10linia
1000
11linia
1000
12linia
1040
1.0
1040
1.0
1040
0.0
1040
0.0
1040
0.0
1040
0.0
1040
0.0
1040
17.0
1071
        0
1071
      256
1071
        1
1071
        5
1071
        1
1000
Romans17
1000
ByLayer
1000
#(1naglowek)\P#(1linia)\P#(2linia)\P#(3linia)\P#(4linia)\P#(5linia)\P#(6linia)\P#(7linia)\P#(8linia)\P#(9linia)\P#(10linia)\P#(11linia)\P#(12linia)
1001
ACAD
1000
AcRTDxfName
1000
OBJECT_PTR
  0
ACAD_PROXY_OBJECT
  5
2051
102
{ACAD_REACTORS
330
204D
102
}
330
204D
100
AcDbProxyObject
 90
      499
 91
      755
 95
   131099
 70
     0
 93
        1
310
4C
 94
        0
1001
DCO15
1000
jet_dbsamples...stolarka(stolarka-Arial14)
1000
STOL_TKST
1000
STOL_TKST_2linia
1040
1.0
1040
1.0
1040
0.0
1040
0.0
1040
0.0
1040
0.0
1040
0.0
1040
14.0
1071
        0
1071
      256
1071
        1
1071
        5
1071
        1
1000
Romans17
1000
ByLayer
1000
{\fArial|b0|i0|c238|p34;#(STOL_TKST)\P#(STOL_TKST_2linia)}
1001
ACAD
1000
AcRTDxfName
1000
OBJECT_PTR
  0
ACAD_PROXY_OBJECT
  5
2050
102
{ACAD_REACTORS
330
204D
102
}
330
204D
100
AcDbProxyObject
 90
      499
 91
      755
 95
   131099
 70
     0
 93
        1
310
4C
 94
        0
1001
DCO15
1000
jet_dbsamples...stolarka(stolarkaLabel1)
1000
STOL_TKST
1000
STOL_TKST_2linia
1040
1.0
1040
1.0
1040
0.0
1040
0.0
1040
0.0
1040
0.0
1040
0.0
1040
25.0
1071
        0
1071
      256
1071
        1
1071
        5
1071
        1
1000
Romans17
1000
ByLayer
1000
{\fArial|b0|i0|c238|p34;#(STOL_TKST)\P#(STOL_TKST_2linia)}
1001
ACAD
1000
AcRTDxfName
1000
OBJECT_PTR
  0
ACAD_PROXY_OBJECT
  5
204F
102
{ACAD_REACTORS
330
204D
102
}
330
204D
100
AcDbProxyObject
 90
      499
 91
      755
 95
   131099
 70
     0
 93
        1
310
4C
 94
        0
1001
DCO15
1000
jet_dbsamples...tbl_PRZEGRODY(tbl_PRZEGRODY)
1000
nazwa przegrody
1000
1w
1000
2w
1000
3w
1000
4w
1000
5w
1000
6w
1000
7w
1000
8w
1000
9w
1000
10w
1000
11w
1000
12w
1000
13w
1000
14w
1000
15w
1000
16w
1040
1.0
1040
1.0
1040
0.0
1040
0.0
1040
0.0
1040
0.0
1040
0.0
1040
17.0
1071
        0
1071
      256
1071
        1
1071
        5
1071
        1
1000
Romans17
1000
ByLayer
1000
{\Fromans.shx|c238;\L\C2;#(nazwa przegrody)\C4;\P}#(1w)\P#(2w)\P#(3w)\P#(4w)\P#(5w)\P#(6w)\P#(7w)\P#(8w)\P#(9w)\P#(10w)\P#(11w)\P#(12w)\P#(13w)\P#(14w)\P#(15w)\P#(16w)
1001
ACAD
1000
AcRTDxfName
1000
OBJECT_PTR
  0
ACAD_PROXY_OBJECT
  5
204E
102
{ACAD_REACTORS
330
204D
102
}
330
204D
100
AcDbProxyObject
 90
      499
 91
      755
 95
   131099
 70
     0
 93
        1
310
4C
 94
        0
1001
DCO15
1000
jet_dbsamples..."uwagi ogolne na arkuszu"(uwag_og_na_ark_Arial18)
1000
1naglowek
1000
1linia
1000
2linia
1000
3linia
1000
4linia
1000
5linia
1000
6linia
1000
7linia
1000
8linia
1000
9linia
1000
10linia
1000
11linia
1000
12linia
1040
1.0
1040
1.0
1040
0.0
1040
0.0
1040
0.0
1040
0.0
1040
0.0
1040
18.0
1071
        0
1071
      256
1071
        1
1071
        5
1071
        1
1000
Romans17
1000
ByLayer
1000
{\fArial|b0|i0|c238|p34;#(1naglowek)\P#(1linia)\P#(2linia)\P#(3linia)\P#(4linia)\P#(5linia)\P#(6linia)\P#(7linia)\P#(8linia)\P#(9linia)\P#(10linia)\P#(11linia)\P#(12linia)}
1001
ACAD
1000
AcRTDxfName
1000
OBJECT_PTR
  0
ACAD_PROXY_OBJECT
  5
204C
102
{ACAD_REACTORS
330
203C
102
}
330
203C
100
AcDbProxyObject
 90
      499
 91
      755
 95
   131099
 70
     0
 93
        1
310
4C
 94
        0
1001
DCO15
1000
jet_dbsamples..."elementy wiezby"(_elementy_wiezby_Link1)
1000
IDENTYFIKATOR
1000

1000

1070
     4
1070
     0
1070
     0
1070
     0
1070
  1024
1001
ACAD
1000
AcRTDxfName
1000
OBJECT_PTR
  0
ACAD_PROXY_OBJECT
  5
204B
102
{ACAD_REACTORS
330
203C
102
}
330
203C
100
AcDbProxyObject
 90
      499
 91
      755
 95
   131099
 70
     0
 93
        1
310
4C
 94
        0
1001
DCO15
1000
jet_dbsamples..."materialy przegrod pl"(_materialy_przegrod_pl_Link1)
1000
IDENTYFIKATOR
1000

1000

1070
     4
1070
     0
1070
     0
1070
     0
1070
  1024
1001
ACAD
1000
AcRTDxfName
1000
OBJECT_PTR
  0
ACAD_PROXY_OBJECT
  5
204A
102
{ACAD_REACTORS
330
203C
102
}
330
203C
100
AcDbProxyObject
 90
      499
 91
      755
 95
   131099
 70
     0
 93
        1
310
4C
 94
        0
1001
DCO15
1000
jet_dbsamples..."nazwy przegrod pl"(_nazwy_przegrod_pl_Link1)
1000
IDENTYFIKATOR
1000

1000

1070
     4
1070
     0
1070
     0
1070
     0
1070
  1024
1001
ACAD
1000
AcRTDxfName
1000
OBJECT_PTR
  0
ACAD_PROXY_OBJECT
  5
2049
102
{ACAD_REACTORS
330
203C
102
}
330
203C
100
AcDbProxyObject
 90
      499
 91
      755
 95
   131099
 70
     0
 93
        1
310
4C
 94
        0
1001
DCO15
1000
jet_dbsamples..."nazwy rysunkow"(_nazwy_rysunkow_Arial37)
1000
IDENTYFIKATOR
1000

1000

1070
     4
1070
     0
1070
     0
1070
     0
1070
  1024
1001
ACAD
1000
AcRTDxfName
1000
OBJECT_PTR
  0
ACAD_PROXY_OBJECT
  5
2048
102
{ACAD_REACTORS
330
203C
102
}
330
203C
100
AcDbProxyObject
 90
      499
 91
      755
 95
   131099
 70
     0
 93
        1
310
4C
 94
        0
1001
DCO15
1000
jet_dbsamples..."opisy rozne II"(_opisy_rozne_II_Link1)
1000
"opis różny"
1000
1250
1000
ASCII
1070
    12
1070
   200
1070
     0
1070
     0
1070
  1024
1001
ACAD
1000
AcRTDxfName
1000
OBJECT_PTR
  0
ACAD_PROXY_OBJECT
  5
2047
102
{ACAD_REACTORS
330
203C
102
}
330
203C
100
AcDbProxyObject
 90
      499
 91
      755
 95
   131099
 70
     0
 93
        1
310
4C
 94
        0
1001
DCO15
1000
jet_dbsamples..."opisy rozne II"(_opisy_rozne_II_Link2)
1000
IDENTYFIKATOR
1000

1000

1070
     4
1070
     0
1070
     0
1070
     0
1070
  1024
1001
ACAD
1000
AcRTDxfName
1000
OBJECT_PTR
  0
ACAD_PROXY_OBJECT
  5
2046
102
{ACAD_REACTORS
330
203C
102
}
330
203C
100
AcDbProxyObject
 90
      499
 91
      755
 95
   131099
 70
     0
 93
        1
310
4C
 94
        0
1001
DCO15
1000
jet_dbsamples..."posadzki do zestawienia pomieszczen"(_posadzki_do_zestawienia_pomieszczen_Link1)
1000
IDENTYFIKATOR
1000

1000

1070
     4
1070
     0
1070
     0
1070
     0
1070
  1024
1001
ACAD
1000
AcRTDxfName
1000
OBJECT_PTR
  0
ACAD_PROXY_OBJECT
  5
2045
102
{ACAD_REACTORS
330
203C
102
}
330
203C
100
AcDbProxyObject
 90
      499
 91
      755
 95
   131099
 70
     0
 93
        1
310
4C
 94
        0
1001
DCO15
1000
jet_dbsamples..."rozne opisy rys"(_rozne_opisy_rys_Link1)
1000
IDENTYFIKATOR
1000

1000

1070
     4
1070
     0
1070
     0
1070
     0
1070
  1024
1001
ACAD
1000
AcRTDxfName
1000
OBJECT_PTR
  0
ACAD_PROXY_OBJECT
  5
2044
102
{ACAD_REACTORS
330
203C
102
}
330
203C
100
AcDbProxyObject
 90
      499
 91
      755
 95
   131099
 70
     0
 93
        1
310
4C
 94
        0
1001
DCO15
1000
jet_dbsamples..."tabelka - inform i etykiety"(_tabelka_-_inform_i_etykiety_Link1)
1000
IDENTYFIKATOR
1000

1000

1070
     4
1070
     0
1070
     0
1070
     0
1070
  1024
1001
ACAD
1000
AcRTDxfName
1000
OBJECT_PTR
  0
ACAD_PROXY_OBJECT
  5
2043
102
{ACAD_REACTORS
330
203C
102
}
330
203C
100
AcDbProxyObject
 90
      499
 91
      755
 95
   131099
 70
     0
 93
        1
310
4C
 94
        0
1001
DCO15
1000
jet_dbsamples..."uwagi ogolne na arkuszu"(_uwagi_ogolne_na_arkuszu_Link1)
1000
IDENTYFIKATOR
1000

1000

1070
     4
1070
     0
1070
     0
1070
     0
1070
  1024
1001
ACAD
1000
AcRTDxfName
1000
OBJECT_PTR
  0
ACAD_PROXY_OBJECT
  5
2042
102
{ACAD_REACTORS
330
203C
102
}
330
203C
100
AcDbProxyObject
 90
      499
 91
      755
 95
   131099
 70
     0
 93
        1
310
4C
 94
        0
1001
DCO15
1000
jet_dbsamples...ALFABET(ALFABETLink1)
1000
IDENTYFIKATOR
1000

1000

1070
     4
1070
     0
1070
     0
1070
     0
1070
  1024
1001
ACAD
1000
AcRTDxfName
1000
OBJECT_PTR
  0
ACAD_PROXY_OBJECT
  5
2041
102
{ACAD_REACTORS
330
203C
102
}
330
203C
100
AcDbProxyObject
 90
      499
 91
      755
 95
   131099
 70
     0
 93
        1
310
4C
 94
        0
1001
DCO15
1000
jet_dbsamples...jednostki(jednostkiLink1)
1000
IDENTYFIKATOR
1000

1000

1070
     4
1070
     0
1070
     0
1070
     0
1070
  1024
1001
ACAD
1000
AcRTDxfName
1000
OBJECT_PTR
  0
ACAD_PROXY_OBJECT
  5
2040
102
{ACAD_REACTORS
330
203C
102
}
330
203C
100
AcDbProxyObject
 90
      499
 91
      755
 95
   131099
 70
     0
 93
        1
310
4C
 94
        0
1001
DCO15
1000
jet_dbsamples...miesiace(miesiaceLink1)
1000
IDENTYFIKATOR
1000

1000

1070
     4
1070
     0
1070
     0
1070
     0
1070
  1024
1001
ACAD
1000
AcRTDxfName
1000
OBJECT_PTR
  0
ACAD_PROXY_OBJECT
  5
203F
102
{ACAD_REACTORS
330
203C
102
}
330
203C
100
AcDbProxyObject
 90
      499
 91
      755
 95
   131099
 70
     0
 93
        1
310
4C
 94
        0
1001
DCO15
1000
jet_dbsamples...pomieszczenia(pomieszczeniaLink1)
1000
IDENTYFIKATOR
1000

1000

1070
     4
1070
     0
1070
     0
1070
     0
1070
  1024
1001
ACAD
1000
AcRTDxfName
1000
OBJECT_PTR
  0
ACAD_PROXY_OBJECT
  5
203E
102
{ACAD_REACTORS
330
203C
102
}
330
203C
100
AcDbProxyObject
 90
      499
 91
      755
 95
   131099
 70
     0
 93
        1
310
4C
 94
        0
1001
DCO15
1000
jet_dbsamples...stolarka(stolarkaLink1)
1000
IDENTYFIKATOR
1000

1000

1070
     4
1070
     0
1070
     0
1070
     0
1070
  1024
1001
ACAD
1000
AcRTDxfName
1000
OBJECT_PTR
  0
ACAD_PROXY_OBJECT
  5
203D
102
{ACAD_REACTORS
330
203C
102
}
330
203C
100
AcDbProxyObject
 90
      499
 91
      755
 95
   131099
 70
     0
 93
        1
310
4C
 94
        0
1001
DCO15
1000
jet_dbsamples...tbl_PRZEGRODY(tbl_PRZEGRODYLink1)
1000
IDENTYFIKATOR
1000

1000

1070
     4
1070
     0
1070
     0
1070
     0
1070
  1024
1001
ACAD
1000
AcRTDxfName
1000
OBJECT_PTR
  0
DICTIONARY
  5
33DB
330
10
100
AcDbDictionary
280
     1
281
     1
  3
ACAD_XREC_ROUNDTRIP
360
33DC
  0
DICTIONARY
  5
33D9
330
A
100
AcDbDictionary
280
     1
281
     1
  3
ACAD_XREC_ROUNDTRIP
360
33DA
  0
DICTIONARY
  5
33E0
330
19A2
100
AcDbDictionary
280
     1
281
     1
  3
ACAD_XREC_ROUNDTRIP
360
33E1
  0
DICTIONARY
  5
33DE
330
19A1
100
AcDbDictionary
280
     1
281
     1
  3
ACAD_XREC_ROUNDTRIP
360
33DF
  0
DICTIONARY
  5
33E2
330
19A3
100
AcDbDictionary
280
     1
281
     1
  3
ACAD_XREC_ROUNDTRIP
360
33E3
  0
DICTIONARY
  5
33D5
330
DF3
100
AcDbDictionary
280
     1
281
     1
  3
ACAD_ROUNDTRIP_2008_TABLESTYLE_CELLSTYLEMAP
360
33D6
  3
ACAD_XREC_ROUNDTRIP
360
33DD
  0
XRECORD
  5
33DC
102
{ACAD_REACTORS
330
33DB
102
}
330
33DB
100
AcDbXrecord
280
     1
102
SHADEPLOT
 70
     0
102
SHADEPLOTRESLEVEL
 70
     2
102
SHADEPLOTCUSTOMDPI
 70
   300
  0
XRECORD
  5
33DA
102
{ACAD_REACTORS
330
33D9
102
}
330
33D9
100
AcDbXrecord
280
     1
102
SHADEPLOT
 70
     1
102
SHADEPLOTRESLEVEL
 70
     2
102
SHADEPLOTCUSTOMDPI
 70
   300
  0
XRECORD
  5
33E1
102
{ACAD_REACTORS
330
33E0
102
}
330
33E0
100
AcDbXrecord
280
     1
102
MATERIAL
148
0.0
149
0.0
149
0.0
 93
        0
 94
       63
282
     0
 72
     1
 77
     1
171
     1
175
     1
179
     1
273
     0
  0
XRECORD
  5
33DF
102
{ACAD_REACTORS
330
33DE
102
}
330
33DE
100
AcDbXrecord
280
     1
102
MATERIAL
148
0.0
149
0.0
149
0.0
 93
        0
 94
       63
282
     0
 72
     1
 77
     1
171
     1
175
     1
179
     1
273
     0
  0
XRECORD
  5
33E3
102
{ACAD_REACTORS
330
33E2
102
}
330
33E2
100
AcDbXrecord
280
     1
102
MATERIAL
148
0.0
149
0.0
149
0.0
 93
        0
 94
       63
282
     0
 72
     1
 77
     1
171
     1
175
     1
179
     1
273
     0
  0
CELLSTYLEMAP
  5
33D6
102
{ACAD_REACTORS
330
33D5
102
}
330
33D5
100
AcDbCellStyleMap
 90
        3
300
CELLSTYLE
  1
TABLEFORMAT_BEGIN
 90
        5
170
     1
 91
        0
 92
    32768
 62
   257
 93
        1
300
CONTENTFORMAT
  1
CONTENTFORMAT_BEGIN
 90
        0
 91
        0
 92
        4
 93
        0
300

 40
0.0
140
1.0
 94
        5
 62
     0
340
15
144
0.25
309
CONTENTFORMAT_END
171
     0
 94
        6
 95
        1
302
GRIDFORMAT
  1
GRIDFORMAT_BEGIN
 90
        0
 91
        1
 62
     0
 92
       -2
340
0
 93
        0
 40
0.045
309
GRIDFORMAT_END
 95
        2
302
GRIDFORMAT
  1
GRIDFORMAT_BEGIN
 90
        0
 91
        1
 62
     0
 92
       -2
340
0
 93
        0
 40
0.045
309
GRIDFORMAT_END
 95
        4
302
GRIDFORMAT
  1
GRIDFORMAT_BEGIN
 90
        0
 91
        1
 62
     0
 92
       -2
340
0
 93
        0
 40
0.045
309
GRIDFORMAT_END
 95
        8
302
GRIDFORMAT
  1
GRIDFORMAT_BEGIN
 90
        0
 91
        1
 62
     0
 92
       -2
340
0
 93
        0
 40
0.045
309
GRIDFORMAT_END
 95
       16
302
GRIDFORMAT
  1
GRIDFORMAT_BEGIN
 90
        0
 91
        1
 62
     0
 92
       -2
340
0
 93
        0
 40
0.045
309
GRIDFORMAT_END
 95
       32
302
GRIDFORMAT
  1
GRIDFORMAT_BEGIN
 90
        0
 91
        1
 62
     0
 92
       -2
340
0
 93
        0
 40
0.045
309
GRIDFORMAT_END
309
TABLEFORMAT_END
  1
CELLSTYLE_BEGIN
 90
        1
 91
        1
300
_TITLE
309
CELLSTYLE_END
300
CELLSTYLE
  1
TABLEFORMAT_BEGIN
 90
        5
170
     1
 91
        0
 92
        0
 62
   257
 93
        1
300
CONTENTFORMAT
  1
CONTENTFORMAT_BEGIN
 90
        0
 91
        0
 92
        4
 93
        0
300

 40
0.0
140
1.0
 94
        5
 62
     0
340
15
144
0.18
309
CONTENTFORMAT_END
171
     0
 94
        6
 95
        1
302
GRIDFORMAT
  1
GRIDFORMAT_BEGIN
 90
        0
 91
        1
 62
     0
 92
       -2
340
0
 93
        0
 40
0.045
309
GRIDFORMAT_END
 95
        2
302
GRIDFORMAT
  1
GRIDFORMAT_BEGIN
 90
        0
 91
        1
 62
     0
 92
       -2
340
0
 93
        0
 40
0.045
309
GRIDFORMAT_END
 95
        4
302
GRIDFORMAT
  1
GRIDFORMAT_BEGIN
 90
        0
 91
        1
 62
     0
 92
       -2
340
0
 93
        0
 40
0.045
309
GRIDFORMAT_END
 95
        8
302
GRIDFORMAT
  1
GRIDFORMAT_BEGIN
 90
        0
 91
        1
 62
     0
 92
       -2
340
0
 93
        0
 40
0.045
309
GRIDFORMAT_END
 95
       16
302
GRIDFORMAT
  1
GRIDFORMAT_BEGIN
 90
        0
 91
        1
 62
     0
 92
       -2
340
0
 93
        0
 40
0.045
309
GRIDFORMAT_END
 95
       32
302
GRIDFORMAT
  1
GRIDFORMAT_BEGIN
 90
        0
 91
        1
 62
     0
 92
       -2
340
0
 93
        0
 40
0.045
309
GRIDFORMAT_END
309
TABLEFORMAT_END
  1
CELLSTYLE_BEGIN
 90
        2
 91
        1
300
_HEADER
309
CELLSTYLE_END
300
CELLSTYLE
  1
TABLEFORMAT_BEGIN
 90
        5
170
     1
 91
        0
 92
        0
 62
   257
 93
        1
300
CONTENTFORMAT
  1
CONTENTFORMAT_BEGIN
 90
        0
 91
        0
 92
        4
 93
        0
300

 40
0.0
140
1.0
 94
        2
 62
     0
340
15
144
0.18
309
CONTENTFORMAT_END
171
     0
 94
        6
 95
        1
302
GRIDFORMAT
  1
GRIDFORMAT_BEGIN
 90
        0
 91
        1
 62
     0
 92
       -2
340
0
 93
        0
 40
0.045
309
GRIDFORMAT_END
 95
        2
302
GRIDFORMAT
  1
GRIDFORMAT_BEGIN
 90
        0
 91
        1
 62
     0
 92
       -2
340
0
 93
        0
 40
0.045
309
GRIDFORMAT_END
 95
        4
302
GRIDFORMAT
  1
GRIDFORMAT_BEGIN
 90
        0
 91
        1
 62
     0
 92
       -2
340
0
 93
        0
 40
0.045
309
GRIDFORMAT_END
 95
        8
302
GRIDFORMAT
  1
GRIDFORMAT_BEGIN
 90
        0
 91
        1
 62
     0
 92
       -2
340
0
 93
        0
 40
0.045
309
GRIDFORMAT_END
 95
       16
302
GRIDFORMAT
  1
GRIDFORMAT_BEGIN
 90
        0
 91
        1
 62
     0
 92
       -2
340
0
 93
        0
 40
0.045
309
GRIDFORMAT_END
 95
       32
302
GRIDFORMAT
  1
GRIDFORMAT_BEGIN
 90
        0
 91
        1
 62
     0
 92
       -2
340
0
 93
        0
 40
0.045
309
GRIDFORMAT_END
309
TABLEFORMAT_END
  1
CELLSTYLE_BEGIN
 90
        3
 91
        2
300
_DATA
309
CELLSTYLE_END
  0
XRECORD
  5
33DD
102
{ACAD_REACTORS
330
33D5
102
}
330
33D5
100
AcDbXrecord
280
     1
102
ACAD_ROUNDTRIP_PRE2007_TABLESTYLE
 90
        4
 91
        0
  1

 92
        4
 93
        0
  2

 94
        4
 95
        0
  3

  0
ENDSEC
  0
EOF
