  0
SECTION
  2
HEADER
  9
$ACADVER
  1
AC1015
  9
$ACADMAINTVER
 70
    20
  9
$DWGCODEPAGE
  3
ANSI_1250
  9
$INSBASE
 10
9677.351579171606
 20
1189.596440029025
 30
0.0000000000031697
  9
$EXTMIN
 10
55955.29776981013
 20
-12830.40384687605
 30
-294.0
  9
$EXTMAX
 10
77797.71966494214
 20
1189.596167944735
 30
0.0
  9
$LIMMIN
 10
0.0
 20
0.0
  9
$LIMMAX
 10
12.0
 20
9.0
  9
$ORTHOMODE
 70
     1
  9
$REGENMODE
 70
     1
  9
$FILLMODE
 70
     1
  9
$QTEXTMODE
 70
     0
  9
$MIRRTEXT
 70
     0
  9
$LTSCALE
 40
75.0
  9
$ATTMODE
 70
     1
  9
$TEXTSIZE
 40
0.2
  9
$TRACEWID
 40
40.0
  9
$TEXTSTYLE
  7
STANDARD
  9
$CLAYER
  8
0Wymiary-PL
  9
$CELTYPE
  6
BYLAYER
  9
$CECOLOR
 62
    54
  9
$CELTSCALE
 40
4.0
  9
$DISPSILH
 70
     0
  9
$DIMSCALE
 40
1.0
  9
$DIMASZ
 40
30.0
  9
$DIMEXO
 40
43.0
  9
$DIMDLI
 40
0.0
  9
$DIMRND
 40
0.5
  9
$DIMDLE
 40
12.0
  9
$DIMEXE
 40
13.0
  9
$DIMTP
 40
0.0
  9
$DIMTM
 40
0.0
  9
$DIMTXT
 40
80.0
  9
$DIMCEN
 40
0.0
  9
$DIMTSZ
 40
0.0
  9
$DIMTOL
 70
     0
  9
$DIMLIM
 70
     0
  9
$DIMTIH
 70
     0
  9
$DIMTOH
 70
     0
  9
$DIMSE1
 70
     1
  9
$DIMSE2
 70
     1
  9
$DIMTAD
 70
     0
  9
$DIMZIN
 70
    12
  9
$DIMBLK
  1
B-DIM
  9
$DIMASO
 70
     1
  9
$DIMSHO
 70
     1
  9
$DIMPOST
  1

  9
$DIMAPOST
  1

  9
$DIMALT
 70
     0
  9
$DIMALTD
 70
     2
  9
$DIMALTF
 40
25.4
  9
$DIMLFAC
 40
1.0
  9
$DIMTOFL
 70
     1
  9
$DIMTVP
 40
1.0
  9
$DIMTIX
 70
     1
  9
$DIMSOXD
 70
     0
  9
$DIMSAH
 70
     0
  9
$DIMBLK1
  1

  9
$DIMBLK2
  1

  9
$DIMSTYLE
  2
500
  9
$DIMCLRD
 70
     1
  9
$DIMCLRE
 70
     1
  9
$DIMCLRT
 70
   140
  9
$DIMTFAC
 40
1.0
  9
$DIMGAP
 40
0.0
  9
$DIMJUST
 70
     0
  9
$DIMSD1
 70
     0
  9
$DIMSD2
 70
     0
  9
$DIMTOLJ
 70
     1
  9
$DIMTZIN
 70
     0
  9
$DIMALTZ
 70
     0
  9
$DIMALTTZ
 70
     0
  9
$DIMUPT
 70
     0
  9
$DIMDEC
 70
     1
  9
$DIMTDEC
 70
     1
  9
$DIMALTU
 70
     2
  9
$DIMALTTD
 70
     2
  9
$DIMTXSTY
  7
ROMANS
  9
$DIMAUNIT
 70
     0
  9
$DIMADEC
 70
     0
  9
$DIMALTRND
 40
0.0
  9
$DIMAZIN
 70
     0
  9
$DIMDSEP
 70
    46
  9
$DIMATFIT
 70
     3
  9
$DIMFRAC
 70
     0
  9
$DIMLDRBLK
  1
B-DIM
  9
$DIMLUNIT
 70
     2
  9
$DIMLWD
 70
    -2
  9
$DIMLWE
 70
    -2
  9
$DIMTMOVE
 70
     2
  9
$LUNITS
 70
     2
  9
$LUPREC
 70
     2
  9
$SKETCHINC
 40
0.1
  9
$FILLETRAD
 40
0.0
  9
$AUNITS
 70
     0
  9
$AUPREC
 70
     1
  9
$MENU
  1
acad
  9
$ELEVATION
 40
0.0
  9
$PELEVATION
 40
0.0
  9
$THICKNESS
 40
0.0
  9
$LIMCHECK
 70
     0
  9
$CHAMFERA
 40
30.0
  9
$CHAMFERB
 40
30.0
  9
$CHAMFERC
 40
0.0
  9
$CHAMFERD
 40
0.0
  9
$SKPOLY
 70
     0
  9
$TDCREATE
 40
2450817.525937848
  9
$TDUCREATE
 40
2450817.442604514
  9
$TDUPDATE
 40
2454979.519771586
  9
$TDUUPDATE
 40
2454979.436438252
  9
$TDINDWG
 40
21.7537007176
  9
$TDUSRTIMER
 40
21.7537007176
  9
$USRTIMER
 70
     1
  9
$ANGBASE
 50
0.0
  9
$ANGDIR
 70
     0
  9
$PDMODE
 70
     3
  9
$PDSIZE
 40
10.0
  9
$PLINEWID
 40
60.0
  9
$SPLFRAME
 70
     0
  9
$SPLINETYPE
 70
     6
  9
$SPLINESEGS
 70
     8
  9
$HANDSEED
  5
27AC
  9
$SURFTAB1
 70
     6
  9
$SURFTAB2
 70
     6
  9
$SURFTYPE
 70
     6
  9
$SURFU
 70
     6
  9
$SURFV
 70
     6
  9
$UCSBASE
  2

  9
$UCSNAME
  2

  9
$UCSORG
 10
0.0
 20
0.0
 30
0.0
  9
$UCSXDIR
 10
1.0
 20
0.0
 30
0.0
  9
$UCSYDIR
 10
0.0
 20
1.0
 30
0.0
  9
$UCSORTHOREF
  2

  9
$UCSORTHOVIEW
 70
     0
  9
$UCSORGTOP
 10
0.0
 20
0.0
 30
0.0
  9
$UCSORGBOTTOM
 10
0.0
 20
0.0
 30
0.0
  9
$UCSORGLEFT
 10
0.0
 20
0.0
 30
0.0
  9
$UCSORGRIGHT
 10
0.0
 20
0.0
 30
0.0
  9
$UCSORGFRONT
 10
0.0
 20
0.0
 30
0.0
  9
$UCSORGBACK
 10
0.0
 20
0.0
 30
0.0
  9
$PUCSBASE
  2

  9
$PUCSNAME
  2

  9
$PUCSORG
 10
0.0
 20
0.0
 30
0.0
  9
$PUCSXDIR
 10
1.0
 20
0.0
 30
0.0
  9
$PUCSYDIR
 10
0.0
 20
1.0
 30
0.0
  9
$PUCSORTHOREF
  2

  9
$PUCSORTHOVIEW
 70
     0
  9
$PUCSORGTOP
 10
0.0
 20
0.0
 30
0.0
  9
$PUCSORGBOTTOM
 10
0.0
 20
0.0
 30
0.0
  9
$PUCSORGLEFT
 10
0.0
 20
0.0
 30
0.0
  9
$PUCSORGRIGHT
 10
0.0
 20
0.0
 30
0.0
  9
$PUCSORGFRONT
 10
0.0
 20
0.0
 30
0.0
  9
$PUCSORGBACK
 10
0.0
 20
0.0
 30
0.0
  9
$USERI1
 70
     0
  9
$USERI2
 70
     0
  9
$USERI3
 70
     0
  9
$USERI4
 70
     0
  9
$USERI5
 70
     0
  9
$USERR1
 40
0.0
  9
$USERR2
 40
0.0
  9
$USERR3
 40
0.0
  9
$USERR4
 40
0.0
  9
$USERR5
 40
0.0
  9
$WORLDVIEW
 70
     1
  9
$SHADEDGE
 70
     3
  9
$SHADEDIF
 70
    70
  9
$TILEMODE
 70
     1
  9
$MAXACTVP
 70
    16
  9
$PINSBASE
 10
0.0
 20
0.0
 30
0.0
  9
$PLIMCHECK
 70
     0
  9
$PEXTMIN
 10
0.0
 20
0.0
 30
0.0
  9
$PEXTMAX
 10
0.0
 20
0.0
 30
0.0
  9
$PLIMMIN
 10
0.0
 20
0.0
  9
$PLIMMAX
 10
12.0
 20
9.0
  9
$UNITMODE
 70
     0
  9
$VISRETAIN
 70
     0
  9
$PLINEGEN
 70
     0
  9
$PSLTSCALE
 70
     1
  9
$TREEDEPTH
 70
  3020
  9
$CMLSTYLE
  2
STANDARD
  9
$CMLJUST
 70
     0
  9
$CMLSCALE
 40
1.0
  9
$PROXYGRAPHICS
 70
     1
  9
$MEASUREMENT
 70
     0
  9
$CELWEIGHT
370
    -1
  9
$ENDCAPS
280
     0
  9
$JOINSTYLE
280
     0
  9
$LWDISPLAY
290
     0
  9
$INSUNITS
 70
     0
  9
$HYPERLINKBASE
  1

  9
$STYLESHEET
  1
monochrome_140.ctb
  9
$XEDIT
290
     1
  9
$CEPSNTYPE
380
     0
  9
$PSTYLEMODE
290
     1
  9
$FINGERPRINTGUID
  2
{2D5E65A9-1F91-4A53-BA94-481E1C74241D}
  9
$VERSIONGUID
  2
{42ACCE55-8C9B-4A97-91BA-3281EDAD2F67}
  9
$EXTNAMES
290
     1
  9
$PSVPSCALE
 40
0.0
  9
$OLESTARTUP
290
     0
  0
ENDSEC
  0
SECTION
  2
CLASSES
  0
CLASS
  1
DICTIONARYVAR
  2
AcDbDictionaryVar
  3
ObjectDBX Classes
 90
        0
280
     0
281
     0
  0
CLASS
  1
ACDBDICTIONARYWDFLT
  2
AcDbDictionaryWithDefault
  3
ObjectDBX Classes
 90
        0
280
     0
281
     0
  0
CLASS
  1
ACDBPLACEHOLDER
  2
AcDbPlaceHolder
  3
ObjectDBX Classes
 90
        0
280
     0
281
     0
  0
CLASS
  1
LAYOUT
  2
AcDbLayout
  3
ObjectDBX Classes
 90
        0
280
     0
281
     0
  0
CLASS
  1
AEC_VARS_DWG_SETUP
  2
AecDbVarsDwgSetup
  3
AecBase50|Product Desc: Autodesk Architectural Desktop 2007 |Company: Autodesk,Inc. |WEB Address: www.autodesk.com
 90
    32897
280
     0
281
     0
  0
CLASS
  1
AEC_DISP_REP_CONFIG
  2
AecDbDispRepConfig
  3
AecBase50|Product Desc: Autodesk Architectural Desktop 2007 |Company: Autodesk,Inc. |WEB Address: www.autodesk.com
 90
    32897
280
     0
281
     0
  0
CLASS
  1
AEC_DISP_REP_SET
  2
AecDbDispRepSet
  3
AecBase50|Product Desc: Autodesk Architectural Desktop 2007 |Company: Autodesk,Inc. |WEB Address: www.autodesk.com
 90
    32897
280
     0
281
     0
  0
CLASS
  1
AEC_DISP_REP_2D_SECTION
  2
AecDbDispRep2dSection
  3
AecBase50|Product Desc: Autodesk Architectural Desktop 2007 |Company: Autodesk,Inc. |WEB Address: www.autodesk.com
 90
    32897
280
     0
281
     0
  0
CLASS
  1
AEC_DISP_REP_ANCHOR_BUB_TO_GRID
  2
AecDbDispRepAnchorBubToGrid
  3
AecStructureBase50|Product Desc: Autodesk Architectural Desktop 2007 |Company: Autodesk,Inc. |WEB Address: www.autodesk.com
 90
    32897
280
     0
281
     0
  0
CLASS
  1
AEC_DISP_REP_ANCHOR_BUB_TO_GRID_MODEL
  2
AecDbDispRepAnchorBubToGridMdl
  3
AecStructureBase50|Product Desc: Autodesk Architectural Desktop 2007 |Company: Autodesk,Inc. |WEB Address: www.autodesk.com
 90
    32897
280
     0
281
     0
  0
CLASS
  1
AEC_DISP_REP_ANCHOR_ENT_TO_NODE
  2
AecDbDispRepAnchorEntToNode
  3
AecBase50|Product Desc: Autodesk Architectural Desktop 2007 |Company: Autodesk,Inc. |WEB Address: www.autodesk.com
 90
    32897
280
     0
281
     0
  0
CLASS
  1
AEC_DISP_REP_ANCHOR_TAG_TO_ENT
  2
AecDbDispRepAnchorTagToEnt
  3
AecScheduleData50|Product Desc: Autodesk Architectural Desktop 2007 |Company: Autodesk,Inc. |WEB Address: www.autodesk.com
 90
    32897
280
     0
281
     0
  0
CLASS
  1
AEC_DISP_REP_AREA
  2
AecDbDispRepArea
  3
AecAreaCalculationBase50|Product Desc: Autodesk Architectural Desktop 2007 |Company: Autodesk,Inc. |WEB Address: www.autodesk.com
 90
    32897
280
     0
281
     0
  0
CLASS
  1
AEC_DISP_REP_AREA_DECOMPOSED
  2
AecDbDispRepAreaDecomposed
  3
AecAreaCalculationBase50|Product Desc: Autodesk Architectural Desktop 2007 |Company: Autodesk,Inc. |WEB Address: www.autodesk.com
 90
    32897
280
     0
281
     0
  0
CLASS
  1
AEC_DISP_REP_AREAGROUP
  2
AecDbDispRepAreaGroup
  3
AecAreaCalculationBase50|Product Desc: Autodesk Architectural Desktop 2007 |Company: Autodesk,Inc. |WEB Address: www.autodesk.com
 90
    32897
280
     0
281
     0
  0
CLASS
  1
AEC_DISP_REP_BDG_ELEVLINE_MODEL
  2
AecDbDispRepBdgElevLineModel
  3
AecArchBase50|Product Desc: Autodesk Architectural Desktop 2007 |Company: Autodesk,Inc. |WEB Address: www.autodesk.com
 90
    32897
280
     0
281
     0
  0
CLASS
  1
AEC_DISP_REP_BDG_SECTIONLINE_PLAN
  2
AecDbDispRepBdgElevLinePlan
  3
AecArchBase50|Product Desc: Autodesk Architectural Desktop 2007 |Company: Autodesk,Inc. |WEB Address: www.autodesk.com
 90
    32897
280
     0
281
     0
  0
CLASS
  1
AEC_DISP_REP_BDG_SECTIONLINE_MODEL
  2
AecDbDispRepBdgSectionLineModel
  3
AecArchBase50|Product Desc: Autodesk Architectural Desktop 2007 |Company: Autodesk,Inc. |WEB Address: www.autodesk.com
 90
    32897
280
     0
281
     0
  0
CLASS
  1
AEC_DISP_REP_BDG_SECTIONLINE_PLAN
  2
AecDbDispRepBdgSectionLinePlan
  3
AecArchBase50|Product Desc: Autodesk Architectural Desktop 2007 |Company: Autodesk,Inc. |WEB Address: www.autodesk.com
 90
    32897
280
     0
281
     0
  0
CLASS
  1
AEC_DISP_REP_BDG_SECTION_SUBDIV
  2
AecDbDispRepBdgSectionSubDiv
  3
AecArchBase50|Product Desc: Autodesk Architectural Desktop 2007 |Company: Autodesk,Inc. |WEB Address: www.autodesk.com
 90
    32897
280
     0
281
     0
  0
CLASS
  1
AEC_DISP_REP_CAMERA
  2
AecDbDispRepCamera
  3
AecBase50|Product Desc: Autodesk Architectural Desktop 2007 |Company: Autodesk,Inc. |WEB Address: www.autodesk.com
 90
    32897
280
     0
281
     0
  0
CLASS
  1
AEC_DISP_REP_CEILING_GRID
  2
AecDbDispRepCeilingGrid
  3
AecArchBase50|Product Desc: Autodesk Architectural Desktop 2007 |Company: Autodesk,Inc. |WEB Address: www.autodesk.com
 90
    33661
280
     0
281
     0
  0
CLASS
  1
AEC_DISP_REP_CEILING_GRID_MODEL
  2
AecDbDispRepCeilingGridModel
  3
AecArchBase50|Product Desc: Autodesk Architectural Desktop 2007 |Company: Autodesk,Inc. |WEB Address: www.autodesk.com
 90
    32897
280
     0
281
     0
  0
CLASS
  1
AEC_DISP_REP_CEILING_GRID_RCP
  2
AecDbDispRepCeilingGridRcp
  3
AecArchBase50|Product Desc: Autodesk Architectural Desktop 2007 |Company: Autodesk,Inc. |WEB Address: www.autodesk.com
 90
    32897
280
     0
281
     0
  0
CLASS
  1
AEC_DISP_REP_CLIP_VOLUME_MODEL
  2
AecDbDispRepClipVolModel
  3
AecBase50|Product Desc: Autodesk Architectural Desktop 2007 |Company: Autodesk,Inc. |WEB Address: www.autodesk.com
 90
    32897
280
     0
281
     0
  0
CLASS
  1
AEC_DISP_REP_CLIP_VOLUME_PLAN
  2
AecDbDispRepClipVolPlan
  3
AecBase50|Product Desc: Autodesk Architectural Desktop 2007 |Company: Autodesk,Inc. |WEB Address: www.autodesk.com
 90
    32897
280
     0
281
     0
  0
CLASS
  1
AEC_DISP_REP_CLIP_VOLUME_RESULT_SUBDIV
  2
AecDbDispRepClipVolResSubDiv
  3
AecBase50|Product Desc: Autodesk Architectural Desktop 2007 |Company: Autodesk,Inc. |WEB Address: www.autodesk.com
 90
    32897
280
     0
281
     0
  0
CLASS
  1
AEC_DISP_REP_CLIP_VOLUME_RESULT
  2
AecDbDispRepClipVolResult
  3
AecBase50|Product Desc: Autodesk Architectural Desktop 2007 |Company: Autodesk,Inc. |WEB Address: www.autodesk.com
 90
    32897
280
     0
281
     0
  0
CLASS
  1
AEC_DISP_REP_COLUMN_GRID
  2
AecDbDispRepColumnGrid
  3
AecStructureBase50|Product Desc: Autodesk Architectural Desktop 2007 |Company: Autodesk,Inc. |WEB Address: www.autodesk.com
 90
    32897
280
     0
281
     0
  0
CLASS
  1
AEC_DISP_REP_COLUMN_GRID_MODEL
  2
AecDbDispRepColumnGridModel
  3
AecStructureBase50|Product Desc: Autodesk Architectural Desktop 2007 |Company: Autodesk,Inc. |WEB Address: www.autodesk.com
 90
    32897
280
     0
281
     0
  0
CLASS
  1
AEC_DISP_REP_CURTAIN_WALL_LAYOUT_MODEL
  2
AecDbDispRepCurtainWallLayoutModel
  3
AecArchBase50|Product Desc: Autodesk Architectural Desktop 2007 |Company: Autodesk,Inc. |WEB Address: www.autodesk.com
 90
    32897
280
     0
281
     0
  0
CLASS
  1
AEC_DISP_REP_CURTAIN_WALL_LAYOUT_PLAN
  2
AecDbDispRepCurtainWallLayoutPlan
  3
AecArchBase50|Product Desc: Autodesk Architectural Desktop 2007 |Company: Autodesk,Inc. |WEB Address: www.autodesk.com
 90
    32897
280
     0
281
     0
  0
CLASS
  1
AEC_DISP_REP_CURTAIN_WALL_UNIT_MODEL
  2
AecDbDispRepCurtainWallUnitModel
  3
AecArchBase50|Product Desc: Autodesk Architectural Desktop 2007 |Company: Autodesk,Inc. |WEB Address: www.autodesk.com
 90
    32897
280
     0
281
     0
  0
CLASS
  1
AEC_DISP_REP_CURTAIN_WALL_UNIT_PLAN
  2
AecDbDispRepCurtainWallUnitPlan
  3
AecArchBase50|Product Desc: Autodesk Architectural Desktop 2007 |Company: Autodesk,Inc. |WEB Address: www.autodesk.com
 90
    32897
280
     0
281
     0
  0
CLASS
  1
AEC_DB_DISP_REP_DIM_GROUP_PLAN
  2
AecDbDispRepDimGroupPlan
  3
AecArchDACHBase50|Product Desc: Autodesk Architectural Desktop 2007 |Company: Autodesk,Inc. |WEB Address: www.autodesk.com
 90
    32897
280
     0
281
     0
  0
CLASS
  1
AEC_DISP_REP_DOOR_MODEL
  2
AecDbDispRepDoorModel
  3
AecArchBase50|Product Desc: Autodesk Architectural Desktop 2007 |Company: Autodesk,Inc. |WEB Address: www.autodesk.com
 90
    32897
280
     0
281
     0
  0
CLASS
  1
AEC_DISP_REP_DOOR_NOMINAL
  2
AecDbDispRepDoorNominal
  3
AecArchBase50|Product Desc: Autodesk Architectural Desktop 2007 |Company: Autodesk,Inc. |WEB Address: www.autodesk.com
 90
    32897
280
     0
281
     0
  0
CLASS
  1
AEC_DISP_REP_DOOR_PLAN
  2
AecDbDispRepDoorPlan
  3
AecArchBase50|Product Desc: Autodesk Architectural Desktop 2007 |Company: Autodesk,Inc. |WEB Address: www.autodesk.com
 90
    32897
280
     0
281
     0
  0
CLASS
  1
AEC_DISP_REP_EDITINPLACEPROFILE
  2
AecDbDispRepEditInPlaceProfile
  3
AecBase50|Product Desc: Autodesk Architectural Desktop 2007 |Company: Autodesk,Inc. |WEB Address: www.autodesk.com
 90
    32897
280
     0
281
     0
  0
CLASS
  1
AEC_DISP_REP_ENT_REF
  2
AecDbDispRepEntRef
  3
AecBase50|Product Desc: Autodesk Architectural Desktop 2007 |Company: Autodesk,Inc. |WEB Address: www.autodesk.com
 90
    32897
280
     0
281
     0
  0
CLASS
  1
AEC_DISP_REP_LAYOUT_CURVE
  2
AecDbDispRepLayoutCurve
  3
AecBase50|Product Desc: Autodesk Architectural Desktop 2007 |Company: Autodesk,Inc. |WEB Address: www.autodesk.com
 90
    32897
280
     0
281
     0
  0
CLASS
  1
AEC_DISP_REP_LAYOUT_GRID2D
  2
AecDbDispRepLayoutGrid2d
  3
AecBase50|Product Desc: Autodesk Architectural Desktop 2007 |Company: Autodesk,Inc. |WEB Address: www.autodesk.com
 90
    32897
280
     0
281
     0
  0
CLASS
  1
AEC_DISP_REP_LAYOUT_GRID3D
  2
AecDbDispRepLayoutGrid3d
  3
AecBase50|Product Desc: Autodesk Architectural Desktop 2007 |Company: Autodesk,Inc. |WEB Address: www.autodesk.com
 90
    32897
280
     0
281
     0
  0
CLASS
  1
AEC_DISP_REP_MASKBLOCK_REF
  2
AecDbDispRepMaskBlockRef
  3
AecBase50|Product Desc: Autodesk Architectural Desktop 2007 |Company: Autodesk,Inc. |WEB Address: www.autodesk.com
 90
    32897
280
     0
281
     0
  0
CLASS
  1
AEC_DISP_REP_MASKBLOCK_REF_RCP
  2
AecDbDispRepMaskBlockRefRcp
  3
AecArchBase50|Product Desc: Autodesk Architectural Desktop 2007 |Company: Autodesk,Inc. |WEB Address: www.autodesk.com
 90
    32897
280
     0
281
     0
  0
CLASS
  1
AEC_DISP_REP_MASS_ELEM_MODEL
  2
AecDbDispRepMassElemModel
  3
AecBaseEx50|Product Desc: Autodesk Architectural Desktop 2007 |Company: Autodesk,Inc. |WEB Address: www.autodesk.com
 90
    32897
280
     0
281
     0
  0
CLASS
  1
AEC_DISP_REP_MASS_ELEM_SCHEM
  2
AecDbDispRepMassElemSchem
  3
AecBaseEx50|Product Desc: Autodesk Architectural Desktop 2007 |Company: Autodesk,Inc. |WEB Address: www.autodesk.com
 90
    32897
280
     0
281
     0
  0
CLASS
  1
AEC_DISP_REP_MASS_GROUP_MODEL
  2
AecDbDispRepMassGroupModel
  3
AecBaseEx50|Product Desc: Autodesk Architectural Desktop 2007 |Company: Autodesk,Inc. |WEB Address: www.autodesk.com
 90
    32897
280
     0
281
     0
  0
CLASS
  1
AEC_DISP_REP_MASS_GROUP_PLAN
  2
AecDbDispRepMassGroupPlan
  3
AecBaseEx50|Product Desc: Autodesk Architectural Desktop 2007 |Company: Autodesk,Inc. |WEB Address: www.autodesk.com
 90
    32897
280
     0
281
     0
  0
CLASS
  1
AEC_DISP_REP_MATERIAL
  2
AecDbDispRepMaterial
  3
AecBase50|Product Desc: Autodesk Architectural Desktop 2007 |Company: Autodesk,Inc. |WEB Address: www.autodesk.com
 90
    32897
280
     0
281
     0
  0
CLASS
  1
AEC_DISP_REP_MVBLOCK_REF
  2
AecDbDispRepMvBlockRef
  3
AecBase50|Product Desc: Autodesk Architectural Desktop 2007 |Company: Autodesk,Inc. |WEB Address: www.autodesk.com
 90
    32897
280
     0
281
     0
  0
CLASS
  1
AEC_DISP_REP_MVBLOCK_REF_MODEL
  2
AecDbDispRepMvBlockRefModel
  3
AecBase50|Product Desc: Autodesk Architectural Desktop 2007 |Company: Autodesk,Inc. |WEB Address: www.autodesk.com
 90
    32897
280
     0
281
     0
  0
CLASS
  1
AEC_DISP_REP_OPENING
  2
AecDbDispRepOpening
  3
AecArchBase50|Product Desc: Autodesk Architectural Desktop 2007 |Company: Autodesk,Inc. |WEB Address: www.autodesk.com
 90
    32897
280
     0
281
     0
  0
CLASS
  1
AEC_DISP_REP_OPENING_MODEL
  2
AecDbDispRepOpeningModel
  3
AecArchBase50|Product Desc: Autodesk Architectural Desktop 2007 |Company: Autodesk,Inc. |WEB Address: www.autodesk.com
 90
    32897
280
     0
281
     0
  0
CLASS
  1
AEC_DISP_REP_POLYGON_MODEL
  2
AecDbDispRepPolygonModel
  3
AecBase50|Product Desc: Autodesk Architectural Desktop 2007 |Company: Autodesk,Inc. |WEB Address: www.autodesk.com
 90
    32897
280
     0
281
     0
  0
CLASS
  1
AEC_DISP_REP_RAILING_MODEL
  2
AecDbDispRepRailingModel
  3
AecArchBase50|Product Desc: Autodesk Architectural Desktop 2007 |Company: Autodesk,Inc. |WEB Address: www.autodesk.com
 90
    32897
280
     0
281
     0
  0
CLASS
  1
AEC_DISP_REP_RAILING_PLAN
  2
AecDbDispRepRailingPlan
  3
AecArchBase50|Product Desc: Autodesk Architectural Desktop 2007 |Company: Autodesk,Inc. |WEB Address: www.autodesk.com
 90
    32897
280
     0
281
     0
  0
CLASS
  1
AEC_DISP_REP_ROOF_MODEL
  2
AecDbDispRepRoofModel
  3
AecArchBase50|Product Desc: Autodesk Architectural Desktop 2007 |Company: Autodesk,Inc. |WEB Address: www.autodesk.com
 90
    32897
280
     0
281
     0
  0
CLASS
  1
AEC_DISP_REP_ROOF_PLAN
  2
AecDbDispRepRoofPlan
  3
AecArchBase50|Product Desc: Autodesk Architectural Desktop 2007 |Company: Autodesk,Inc. |WEB Address: www.autodesk.com
 90
    32897
280
     0
281
     0
  0
CLASS
  1
AEC_DISP_REP_ROOFSLAB_MODEL
  2
AecDbDispRepRoofSlabModel
  3
AecArchBase50|Product Desc: Autodesk Architectural Desktop 2007 |Company: Autodesk,Inc. |WEB Address: www.autodesk.com
 90
    32897
280
     0
281
     0
  0
CLASS
  1
AEC_DISP_REP_ROOFSLAB_PLAN
  2
AecDbDispRepRoofSlabPlan
  3
AecArchBase50|Product Desc: Autodesk Architectural Desktop 2007 |Company: Autodesk,Inc. |WEB Address: www.autodesk.com
 90
    32897
280
     0
281
     0
  0
CLASS
  1
AEC_DISP_REP_SCHEDULE_TABLE
  2
AecDbDispRepScheduleTable
  3
AecSchedule50|Product Desc: Autodesk Architectural Desktop 2007 |Company: Autodesk,Inc. |WEB Address: www.autodesk.com
 90
    32897
280
     0
281
     0
  0
CLASS
  1
AEC_DISP_REP_SLAB_MODEL
  2
AecDbDispRepSlabModel
  3
AecArchBase50|Product Desc: Autodesk Architectural Desktop 2007 |Company: Autodesk,Inc. |WEB Address: www.autodesk.com
 90
    32897
280
     0
281
     0
  0
CLASS
  1
AEC_DISP_REP_SLAB_PLAN
  2
AecDbDispRepSlabPlan
  3
AecArchBase50|Product Desc: Autodesk Architectural Desktop 2007 |Company: Autodesk,Inc. |WEB Address: www.autodesk.com
 90
    32897
280
     0
281
     0
  0
CLASS
  1
AEC_DISP_REP_SLICE
  2
AecDbDispRepSlice
  3
AecBase50|Product Desc: Autodesk Architectural Desktop 2007 |Company: Autodesk,Inc. |WEB Address: www.autodesk.com
 90
    32897
280
     0
281
     0
  0
CLASS
  1
AEC_DISP_REP_SPACE_BOUNDARY_MODEL
  2
AecDbDispRepSpaceBoundaryModel
  3
AecArchBase50|Product Desc: Autodesk Architectural Desktop 2007 |Company: Autodesk,Inc. |WEB Address: www.autodesk.com
 90
    32897
280
     0
281
     0
  0
CLASS
  1
AEC_DISP_REP_SPACE_BOUNDARY_PLAN
  2
AecDbDispRepSpaceBoundaryPlan
  3
AecArchBase50|Product Desc: Autodesk Architectural Desktop 2007 |Company: Autodesk,Inc. |WEB Address: www.autodesk.com
 90
    32897
280
     0
281
     0
  0
CLASS
  1
AEC_DISP_REP_SPACE_BOUNDARY_SCHEM
  2
AecDbDispRepSpaceBoundarySketch
  3
AecArchBase50|Product Desc: Autodesk Architectural Desktop 2007 |Company: Autodesk,Inc. |WEB Address: www.autodesk.com
 90
    32897
280
     0
281
     0
  0
CLASS
  1
AEC_DISP_REP_SPACE_MODEL
  2
AecDbDispRepSpaceModel
  3
AecArchBase50|Product Desc: Autodesk Architectural Desktop 2007 |Company: Autodesk,Inc. |WEB Address: www.autodesk.com
 90
    32897
280
     0
281
     0
  0
CLASS
  1
AEC_DISP_REP_SPACE_PLAN
  2
AecDbDispRepSpacePlan
  3
AecArchBase50|Product Desc: Autodesk Architectural Desktop 2007 |Company: Autodesk,Inc. |WEB Address: www.autodesk.com
 90
    32897
280
     0
281
     0
  0
CLASS
  1
AEC_DISP_REP_STAIR_MODEL
  2
AecDbDispRepStairModel
  3
AecArchBase50|Product Desc: Autodesk Architectural Desktop 2007 |Company: Autodesk,Inc. |WEB Address: www.autodesk.com
 90
    32897
280
     0
281
     0
  0
CLASS
  1
AEC_DISP_REP_STAIR_PLAN
  2
AecDbDispRepStairPlan
  3
AecArchBase50|Product Desc: Autodesk Architectural Desktop 2007 |Company: Autodesk,Inc. |WEB Address: www.autodesk.com
 90
    32897
280
     0
281
     0
  0
CLASS
  1
AEC_DISP_REP_WALL_GRAPH
  2
AecDbDispRepWallGraph
  3
AecArchBase50|Product Desc: Autodesk Architectural Desktop 2007 |Company: Autodesk,Inc. |WEB Address: www.autodesk.com
 90
    32897
280
     0
281
     0
  0
CLASS
  1
AEC_DISP_REP_WALL_MODEL
  2
AecDbDispRepWallModel
  3
AecArchBase50|Product Desc: Autodesk Architectural Desktop 2007 |Company: Autodesk,Inc. |WEB Address: www.autodesk.com
 90
    32897
280
     0
281
     0
  0
CLASS
  1
AEC_DISP_REP_WALL_PLAN
  2
AecDbDispRepWallPlan
  3
AecArchBase50|Product Desc: Autodesk Architectural Desktop 2007 |Company: Autodesk,Inc. |WEB Address: www.autodesk.com
 90
    32897
280
     0
281
     0
  0
CLASS
  1
AEC_DISP_REP_WALL_SCHEM
  2
AecDbDispRepWallSchem
  3
AecArchBase50|Product Desc: Autodesk Architectural Desktop 2007 |Company: Autodesk,Inc. |WEB Address: www.autodesk.com
 90
    32897
280
     0
281
     0
  0
CLASS
  1
AEC_DISP_REP_WINDOW_ASSEMBLY_MODEL
  2
AecDbDispRepWindowAssemblyModel
  3
AecArchBase50|Product Desc: Autodesk Architectural Desktop 2007 |Company: Autodesk,Inc. |WEB Address: www.autodesk.com
 90
    32897
280
     0
281
     0
  0
CLASS
  1
AEC_DISP_REP_WINDOW_ASSEMBLY_PLAN
  2
AecDbDispRepWindowAssemblyPlan
  3
AecArchBase50|Product Desc: Autodesk Architectural Desktop 2007 |Company: Autodesk,Inc. |WEB Address: www.autodesk.com
 90
    32897
280
     0
281
     0
  0
CLASS
  1
AEC_AECDBDISPREPWINDOWASSEMBLYPLAN100
  2
AecDbDispRepWindowAssemblyPlan100
  3
AecArchDACHBase50|Product Desc: Autodesk Architectural Desktop 2007 |Company: Autodesk,Inc. |WEB Address: www.autodesk.com
 90
    32897
280
     0
281
     0
  0
CLASS
  1
AEC_DISP_REP_WINDOW_MODEL
  2
AecDbDispRepWindowModel
  3
AecArchBase50|Product Desc: Autodesk Architectural Desktop 2007 |Company: Autodesk,Inc. |WEB Address: www.autodesk.com
 90
    32897
280
     0
281
     0
  0
CLASS
  1
AEC_DISP_REP_WINDOW_NOMINAL
  2
AecDbDispRepWindowNominal
  3
AecArchBase50|Product Desc: Autodesk Architectural Desktop 2007 |Company: Autodesk,Inc. |WEB Address: www.autodesk.com
 90
    32897
280
     0
281
     0
  0
CLASS
  1
AEC_DISP_REP_WINDOW_PLAN
  2
AecDbDispRepWindowPlan
  3
AecArchBase50|Product Desc: Autodesk Architectural Desktop 2007 |Company: Autodesk,Inc. |WEB Address: www.autodesk.com
 90
    32897
280
     0
281
     0
  0
CLASS
  1
AECS_DISP_REP_MEMBER_LOGICAL
  2
AecsDbDispRepMemberLogical
  3
AecStructureBase50|Product Desc: Autodesk Architectural Desktop 2007 |Company: Autodesk,Inc. |WEB Address: www.autodesk.com
 90
    32897
280
     0
281
     0
  0
CLASS
  1
AECS_DISP_REP_MEMBER_MODEL_DESIGN
  2
AecsDbDispRepMemberModelDesign
  3
AecStructureBase50|Product Desc: Autodesk Architectural Desktop 2007 |Company: Autodesk,Inc. |WEB Address: www.autodesk.com
 90
    32897
280
     0
281
     0
  0
CLASS
  1
AECS_DISP_REP_MEMBER_PLAN_DESIGN
  2
AecsDbDispRepMemberPlanDesign
  3
AecStructureBase50|Product Desc: Autodesk Architectural Desktop 2007 |Company: Autodesk,Inc. |WEB Address: www.autodesk.com
 90
    32897
280
     0
281
     0
  0
CLASS
  1
AEC_DISP_PROPS_ENT
  2
AecDbDispPropsEnt
  3
AecBase50|Product Desc: Autodesk Architectural Desktop 2007 |Company: Autodesk,Inc. |WEB Address: www.autodesk.com
 90
    32897
280
     0
281
     0
  0
CLASS
  1
AEC_DISP_PROPS_CLIP_VOLUME
  2
AecDbDispPropsClipVol
  3
AecBase50|Product Desc: Autodesk Architectural Desktop 2007 |Company: Autodesk,Inc. |WEB Address: www.autodesk.com
 90
    32897
280
     0
281
     0
  0
CLASS
  1
AEC_DISP_PROPS_SLICE
  2
AecDbDispPropsSlice
  3
AecBase50|Product Desc: Autodesk Architectural Desktop 2007 |Company: Autodesk,Inc. |WEB Address: www.autodesk.com
 90
    32897
280
     0
281
     0
  0
CLASS
  1
AEC_DISP_PROPS_ROOFSLAB_PLAN
  2
AecDbDispPropsRoofSlabPlan
  3
AecArchBase50|Product Desc: Autodesk Architectural Desktop 2007 |Company: Autodesk,Inc. |WEB Address: www.autodesk.com
 90
    32897
280
     0
281
     0
  0
CLASS
  1
AEC_DISP_PROPS_GRID_ASSEMBLY_MODEL
  2
AecDbDispPropsGridAssemblyModel
  3
AecArchBase50|Product Desc: Autodesk Architectural Desktop 2007 |Company: Autodesk,Inc. |WEB Address: www.autodesk.com
 90
    32897
280
     0
281
     0
  0
CLASS
  1
AEC_DISP_PROPS_ROOF
  2
AecDbDispPropsRoof
  3
AecArchBase50|Product Desc: Autodesk Architectural Desktop 2007 |Company: Autodesk,Inc. |WEB Address: www.autodesk.com
 90
    32897
280
     0
281
     0
  0
CLASS
  1
AEC_DISP_PROPS_SPACE_MODEL
  2
AecDbDispPropsSpaceModel
  3
AecArchBase50|Product Desc: Autodesk Architectural Desktop 2007 |Company: Autodesk,Inc. |WEB Address: www.autodesk.com
 90
    32897
280
     0
281
     0
  0
CLASS
  1
AEC_DISP_PROPS_EDITINPLACEPROFILE_MODEL
  2
AecDbDispPropsEditInPlaceProfile
  3
AecBase50|Product Desc: Autodesk Architectural Desktop 2007 |Company: Autodesk,Inc. |WEB Address: www.autodesk.com
 90
    32897
280
     0
281
     0
  0
CLASS
  1
AEC_DISP_PROPS_DOOR
  2
AecDbDispPropsDoor
  3
AecArchBase50|Product Desc: Autodesk Architectural Desktop 2007 |Company: Autodesk,Inc. |WEB Address: www.autodesk.com
 90
    32897
280
     0
281
     0
  0
CLASS
  1
AEC_DISP_PROPS_MASKBLOCK
  2
AecDbDispPropsMaskBlock
  3
AecBase50|Product Desc: Autodesk Architectural Desktop 2007 |Company: Autodesk,Inc. |WEB Address: www.autodesk.com
 90
    32897
280
     0
281
     0
  0
CLASS
  1
AEC_DISP_PROPS_SPACE_PLAN
  2
AecDbDispPropsSpacePlan
  3
AecArchBase50|Product Desc: Autodesk Architectural Desktop 2007 |Company: Autodesk,Inc. |WEB Address: www.autodesk.com
 90
    32897
280
     0
281
     0
  0
CLASS
  1
AEC_DISP_PROPS_RAILING_PLAN
  2
AecDbDispPropsRailingPlan
  3
AecArchBase50|Product Desc: Autodesk Architectural Desktop 2007 |Company: Autodesk,Inc. |WEB Address: www.autodesk.com
 90
    32897
280
     0
281
     0
  0
CLASS
  1
AEC_DISP_PROPS_LAYOUT_GRID2D
  2
AecDbDispPropsLayoutGrid2d
  3
AecBase50|Product Desc: Autodesk Architectural Desktop 2007 |Company: Autodesk,Inc. |WEB Address: www.autodesk.com
 90
    32897
280
     0
281
     0
  0
CLASS
  1
AEC_DISP_PROPS_CLIP_VOLUME_RESULT
  2
AecDbDispPropsClipVolResSubDiv
  3
AecBase50|Product Desc: Autodesk Architectural Desktop 2007 |Company: Autodesk,Inc. |WEB Address: www.autodesk.com
 90
    32897
280
     0
281
     0
  0
CLASS
  1
AEC_DISP_PROPS_STAIR_MODEL
  2
AecDbDispPropsStairModel
  3
AecArchBase50|Product Desc: Autodesk Architectural Desktop 2007 |Company: Autodesk,Inc. |WEB Address: www.autodesk.com
 90
    32897
280
     0
281
     0
  0
CLASS
  1
AEC_DISP_PROPS_LAYOUT_CURVE
  2
AecDbDispPropsLayoutCurve
  3
AecBase50|Product Desc: Autodesk Architectural Desktop 2007 |Company: Autodesk,Inc. |WEB Address: www.autodesk.com
 90
    32897
280
     0
281
     0
  0
CLASS
  1
AEC_DISP_PROPS_POLYGON_MODEL
  2
AecDbDispPropsPolygonModel
  3
AecBase50|Product Desc: Autodesk Architectural Desktop 2007 |Company: Autodesk,Inc. |WEB Address: www.autodesk.com
 90
    32897
280
     0
281
     0
  0
CLASS
  1
AEC_DISP_PROPS_MASS_GROUP
  2
AecDbDispPropsMassGroup
  3
AecBaseEx50|Product Desc: Autodesk Architectural Desktop 2007 |Company: Autodesk,Inc. |WEB Address: www.autodesk.com
 90
    32897
280
     0
281
     0
  0
CLASS
  1
AEC_DISP_PROPS_STAIR_PLAN
  2
AecDbDispPropsStairPlan
  3
AecArchBase50|Product Desc: Autodesk Architectural Desktop 2007 |Company: Autodesk,Inc. |WEB Address: www.autodesk.com
 90
    32897
280
     0
281
     0
  0
CLASS
  1
AEC_DISP_PROPS_OPENING
  2
AecDbDispPropsOpening
  3
AecArchBase50|Product Desc: Autodesk Architectural Desktop 2007 |Company: Autodesk,Inc. |WEB Address: www.autodesk.com
 90
    32897
280
     0
281
     0
  0
CLASS
  1
AEC_DISP_PROPS_WALL_GRAPH
  2
AecDbDispPropsWallGraph
  3
AecArchBase50|Product Desc: Autodesk Architectural Desktop 2007 |Company: Autodesk,Inc. |WEB Address: www.autodesk.com
 90
    32897
280
     0
281
     0
  0
CLASS
  1
AEC_DISP_PROPS_DOOR_NOMINAL
  2
AecDbDispPropsDoorNominal
  3
AecArchBase50|Product Desc: Autodesk Architectural Desktop 2007 |Company: Autodesk,Inc. |WEB Address: www.autodesk.com
 90
    32897
280
     0
281
     0
  0
CLASS
  1
AEC_DISP_PROPS_SLAB
  2
AecDbDispPropsSlab
  3
AecArchBase50|Product Desc: Autodesk Architectural Desktop 2007 |Company: Autodesk,Inc. |WEB Address: www.autodesk.com
 90
    32897
280
     0
281
     0
  0
CLASS
  1
AEC_DISP_PROPS_WALL_MODEL
  2
AecDbDispPropsWallModel
  3
AecArchBase50|Product Desc: Autodesk Architectural Desktop 2007 |Company: Autodesk,Inc. |WEB Address: www.autodesk.com
 90
    32897
280
     0
281
     0
  0
CLASS
  1
AEC_DISP_PROPS_MATERIAL
  2
AecDbDispPropsMaterial
  3
AecBase50|Product Desc: Autodesk Architectural Desktop 2007 |Company: Autodesk,Inc. |WEB Address: www.autodesk.com
 90
    32897
280
     0
281
     0
  0
CLASS
  1
AEC_DISP_PROPS_WINDOW
  2
AecDbDispPropsWindow
  3
AecArchBase50|Product Desc: Autodesk Architectural Desktop 2007 |Company: Autodesk,Inc. |WEB Address: www.autodesk.com
 90
    32897
280
     0
281
     0
  0
CLASS
  1
AEC_DISP_PROPS_LAYOUT_GRID3D
  2
AecDbDispPropsLayoutGrid3d
  3
AecBase50|Product Desc: Autodesk Architectural Desktop 2007 |Company: Autodesk,Inc. |WEB Address: www.autodesk.com
 90
    32897
280
     0
281
     0
  0
CLASS
  1
AEC_DISP_PROPS_GRID_ASSEMBLY_PLAN
  2
AecDbDispPropsGridAssemblyPlan
  3
AecArchBase50|Product Desc: Autodesk Architectural Desktop 2007 |Company: Autodesk,Inc. |WEB Address: www.autodesk.com
 90
    32897
280
     0
281
     0
  0
CLASS
  1
AEC_DISP_PROPS_WALL_SCHEM
  2
AecDbDispPropsWallSchem
  3
AecArchBase50|Product Desc: Autodesk Architectural Desktop 2007 |Company: Autodesk,Inc. |WEB Address: www.autodesk.com
 90
    32897
280
     0
281
     0
  0
CLASS
  1
AEC_DISP_PROPS_WALL_PLAN
  2
AecDbDispPropsWallPlan
  3
AecArchBase50|Product Desc: Autodesk Architectural Desktop 2007 |Company: Autodesk,Inc. |WEB Address: www.autodesk.com
 90
    32897
280
     0
281
     0
  0
CLASS
  1
AEC_DISP_PROPS_SPACE_BOUNDARY
  2
AecDbDispPropsSpaceBoundary
  3
AecArchBase50|Product Desc: Autodesk Architectural Desktop 2007 |Company: Autodesk,Inc. |WEB Address: www.autodesk.com
 90
    32897
280
     0
281
     0
  0
CLASS
  1
AEC_DISP_PROPS_SLAB_PLAN
  2
AecDbDispPropsSlabPlan
  3
AecArchBase50|Product Desc: Autodesk Architectural Desktop 2007 |Company: Autodesk,Inc. |WEB Address: www.autodesk.com
 90
    32897
280
     0
281
     0
  0
CLASS
  1
AEC_DISP_PROPS_RAILING_MODEL
  2
AecDbDispPropsRailingModel
  3
AecArchBase50|Product Desc: Autodesk Architectural Desktop 2007 |Company: Autodesk,Inc. |WEB Address: www.autodesk.com
 90
    32897
280
     0
281
     0
  0
CLASS
  1
AEC_DISP_PROPS_MASS_ELEM_MODEL
  2
AecDbDispPropsMassElem
  3
AecBaseEx50|Product Desc: Autodesk Architectural Desktop 2007 |Company: Autodesk,Inc. |WEB Address: www.autodesk.com
 90
    32897
280
     0
281
     0
  0
CLASS
  1
AEC_DISP_PROPS_DIM
  2
AecDbDispPropsDimGroup
  3
AecArchDACHBase50|Product Desc: Autodesk Architectural Desktop 2007 |Company: Autodesk,Inc. |WEB Address: www.autodesk.com
 90
    32897
280
     0
281
     0
  0
CLASS
  1
AEC_DISP_PROPS_ROOFSLAB
  2
AecDbDispPropsRoofSlab
  3
AecArchBase50|Product Desc: Autodesk Architectural Desktop 2007 |Company: Autodesk,Inc. |WEB Address: www.autodesk.com
 90
    32897
280
     0
281
     0
  0
CLASS
  1
AEC_DISP_PROPS_ENT_REF
  2
AecDbDispPropsEntRef
  3
AecBase50|Product Desc: Autodesk Architectural Desktop 2007 |Company: Autodesk,Inc. |WEB Address: www.autodesk.com
 90
    32897
280
     0
281
     0
  0
CLASS
  1
AEC_DISP_PROPS_2D_SECTION
  2
AecDbDispProps2dSection
  3
AecBase50|Product Desc: Autodesk Architectural Desktop 2007 |Company: Autodesk,Inc. |WEB Address: www.autodesk.com
 90
    32897
280
     0
281
     0
  0
CLASS
  1
AECS_DISP_PROPS_MEMBER_LOGICAL
  2
AecsDbDispPropsMemberLogical
  3
AecStructureBase50|Product Desc: Autodesk Architectural Desktop 2007 |Company: Autodesk,Inc. |WEB Address: www.autodesk.com
 90
    32897
280
     0
281
     0
  0
CLASS
  1
AEC_DISP_PROPS_AREA_DECOMPOSED
  2
AecDbDispPropsAreaDecomposed
  3
AecAreaCalculationBase50|Product Desc: Autodesk Architectural Desktop 2007 |Company: Autodesk,Inc. |WEB Address: www.autodesk.com
 90
    32897
280
     0
281
     0
  0
CLASS
  1
AEC_DISP_PROPS_CAMERA
  2
AecDbDispPropsCamera
  3
AecBase50|Product Desc: Autodesk Architectural Desktop 2007 |Company: Autodesk,Inc. |WEB Address: www.autodesk.com
 90
    32897
280
     0
281
     0
  0
CLASS
  1
AECS_DISP_PROPS_MEMBER
  2
AecsDbDispPropsMember
  3
AecStructureBase50|Product Desc: Autodesk Architectural Desktop 2007 |Company: Autodesk,Inc. |WEB Address: www.autodesk.com
 90
    32897
280
     0
281
     0
  0
CLASS
  1
AECS_DISP_PROPS_MEMBER_PLAN
  2
AecsDbDispPropsMemberPlan
  3
AecStructureBase50|Product Desc: Autodesk Architectural Desktop 2007 |Company: Autodesk,Inc. |WEB Address: www.autodesk.com
 90
    32897
280
     0
281
     0
  0
CLASS
  1
AEC_DISP_PROPS_AREAGROUP
  2
AecDbDispPropsAreaGroup
  3
AecAreaCalculationBase50|Product Desc: Autodesk Architectural Desktop 2007 |Company: Autodesk,Inc. |WEB Address: www.autodesk.com
 90
    32897
280
     0
281
     0
  0
CLASS
  1
AEC_DISP_PROPS_WINDOW_NOMINAL
  2
AecDbDispPropsWindowNominal
  3
AecArchBase50|Product Desc: Autodesk Architectural Desktop 2007 |Company: Autodesk,Inc. |WEB Address: www.autodesk.com
 90
    32897
280
     0
281
     0
  0
CLASS
  1
AEC_DISP_PROPS_AREA
  2
AecDbDispPropsArea
  3
AecAreaCalculationBase50|Product Desc: Autodesk Architectural Desktop 2007 |Company: Autodesk,Inc. |WEB Address: www.autodesk.com
 90
    32897
280
     0
281
     0
  0
CLASS
  1
AEC_DISP_PROPS_SCHEDULE_TABLE
  2
AecDbDispPropsScheduleTable
  3
AecSchedule50|Product Desc: Autodesk Architectural Desktop 2007 |Company: Autodesk,Inc. |WEB Address: www.autodesk.com
 90
    32897
280
     0
281
     0
  0
CLASS
  1
AEC_LAYERKEY_STYLE
  2
AecDbLayerKeyStyle
  3
AecBase50|Product Desc: Autodesk Architectural Desktop 2007 |Company: Autodesk,Inc. |WEB Address: www.autodesk.com
 90
    32897
280
     0
281
     0
  0
CLASS
  1
AEC_VARS_ARCHBASE
  2
AecDbVarsArchBase
  3
AecArchBase50|Product Desc: Autodesk Architectural Desktop 2007 |Company: Autodesk,Inc. |WEB Address: www.autodesk.com
 90
    32897
280
     0
281
     0
  0
CLASS
  1
AEC_VARS_MUNICH
  2
AecDbVarsMunich
  3
AecArchDACHBase50|Product Desc: Autodesk Architectural Desktop 2007 |Company: Autodesk,Inc. |WEB Address: www.autodesk.com
 90
    32897
280
     0
281
     0
  0
CLASS
  1
AEC_NOTIFICATION_TRACKER
  2
AecDbNotificationTracker
  3
AecBase50|Product Desc: Autodesk Architectural Desktop 2007 |Company: Autodesk,Inc. |WEB Address: www.autodesk.com
 90
    32897
280
     0
281
     0
  0
CLASS
  1
AEC_DISP_REP_ANCHOR
  2
AecDbDispRepAnchor
  3
AecBase50|Product Desc: Autodesk Architectural Desktop 2007 |Company: Autodesk,Inc. |WEB Address: www.autodesk.com
 90
    32897
280
     0
281
     0
  0
CLASS
  1
AEC_DISP_REP_POLYGON_TRUECOLOUR
  2
AecDbDispRepPolygonTrueColour
  3
AecBase50|Product Desc: Autodesk Architectural Desktop 2007 |Company: Autodesk,Inc. |WEB Address: www.autodesk.com
 90
    32897
280
     0
281
     0
  0
CLASS
  1
AEC_DISP_PROPS_POLYGON_TRUECOLOUR
  2
AecDbDispPropsPolygonTrueColour
  3
AecBase50|Product Desc: Autodesk Architectural Desktop 2007 |Company: Autodesk,Inc. |WEB Address: www.autodesk.com
 90
    32897
280
     0
281
     0
  0
CLASS
  1
AEC_DISP_REP_BDG_ELEVLINE_RCP
  2
AecDbDispRepBdgElevLineRcp
  3
AecArchBase50|Product Desc: Autodesk Architectural Desktop 2007 |Company: Autodesk,Inc. |WEB Address: www.autodesk.com
 90
    32897
280
     0
281
     0
  0
CLASS
  1
AEC_DISP_REP_BDG_SECTIONLINE_RCP
  2
AecDbDispRepBdgSectionLineRcp
  3
AecArchBase50|Product Desc: Autodesk Architectural Desktop 2007 |Company: Autodesk,Inc. |WEB Address: www.autodesk.com
 90
    32897
280
     0
281
     0
  0
CLASS
  1
AEC_DISP_REP_BDG_SECTION_MODEL
  2
AecDbDispRepBdgSectionModel
  3
AecArchBase50|Product Desc: Autodesk Architectural Desktop 2007 |Company: Autodesk,Inc. |WEB Address: www.autodesk.com
 90
    32897
280
     0
281
     0
  0
CLASS
  1
AEC_DISP_REP_DOOR_ELEV
  2
AecDbDispRepDoorElev
  3
AecArchBase50|Product Desc: Autodesk Architectural Desktop 2007 |Company: Autodesk,Inc. |WEB Address: www.autodesk.com
 90
    32897
280
     0
281
     0
  0
CLASS
  1
AEC_DISP_REP_DOOR_RCP
  2
AecDbDispRepDoorRcp
  3
AecArchBase50|Product Desc: Autodesk Architectural Desktop 2007 |Company: Autodesk,Inc. |WEB Address: www.autodesk.com
 90
    32897
280
     0
281
     0
  0
CLASS
  1
AEC_DISP_REP_DOOR_THRESHOLD_PLAN
  2
AecDbDispRepDoorThresholdPlan
  3
AecArchBase50|Product Desc: Autodesk Architectural Desktop 2007 |Company: Autodesk,Inc. |WEB Address: www.autodesk.com
 90
    32897
280
     0
281
     0
  0
CLASS
  1
AEC_DISP_PROPS_DOOR_THRESHOLD_PLAN
  2
AecDbDispPropsDoorThresholdPlan
  3
AecArchBase50|Product Desc: Autodesk Architectural Desktop 2007 |Company: Autodesk,Inc. |WEB Address: www.autodesk.com
 90
    32897
280
     0
281
     0
  0
CLASS
  1
AEC_DISP_REP_MASS_ELEM_RCP
  2
AecDbDispRepMassElemRcp
  3
AecArchBase50|Product Desc: Autodesk Architectural Desktop 2007 |Company: Autodesk,Inc. |WEB Address: www.autodesk.com
 90
    32897
280
     0
281
     0
  0
CLASS
  1
AEC_DISP_REP_MASS_GROUP_RCP
  2
AecDbDispRepMassGroupRcp
  3
AecArchBase50|Product Desc: Autodesk Architectural Desktop 2007 |Company: Autodesk,Inc. |WEB Address: www.autodesk.com
 90
    32897
280
     0
281
     0
  0
CLASS
  1
AEC_DISP_REP_MVBLOCK_REF_RCP
  2
AecDbDispRepMvBlockRefRcp
  3
AecArchBase50|Product Desc: Autodesk Architectural Desktop 2007 |Company: Autodesk,Inc. |WEB Address: www.autodesk.com
 90
    32897
280
     0
281
     0
  0
CLASS
  1
AEC_DISP_REP_ROOF_RCP
  2
AecDbDispRepRoofRcp
  3
AecArchBase50|Product Desc: Autodesk Architectural Desktop 2007 |Company: Autodesk,Inc. |WEB Address: www.autodesk.com
 90
    32897
280
     0
281
     0
  0
CLASS
  1
AEC_DISP_REP_SPACE_BOUNDARY_DIAGRAM
  2
AecDbDispRepSpaceBoundaryDgrm
  3
AecArchBase50|Product Desc: Autodesk Architectural Desktop 2007 |Company: Autodesk,Inc. |WEB Address: www.autodesk.com
 90
    32897
280
     0
281
     0
  0
CLASS
  1
AEC_DISP_REP_SPACE_RCP
  2
AecDbDispRepSpaceRcp
  3
AecArchBase50|Product Desc: Autodesk Architectural Desktop 2007 |Company: Autodesk,Inc. |WEB Address: www.autodesk.com
 90
    32897
280
     0
281
     0
  0
CLASS
  1
AEC_DISP_REP_SPACE_VOLUME
  2
AecDbDispRepSpaceVolume
  3
AecArchBase50|Product Desc: Autodesk Architectural Desktop 2007 |Company: Autodesk,Inc. |WEB Address: www.autodesk.com
 90
    32897
280
     0
281
     0
  0
CLASS
  1
AEC_DISP_REP_STAIR_PLAN_OVERLAPPING
  2
AecDbDispRepStairPlanOverlapping
  3
AecArchBase50|Product Desc: Autodesk Architectural Desktop 2007 |Company: Autodesk,Inc. |WEB Address: www.autodesk.com
 90
    32897
280
     0
281
     0
  0
CLASS
  1
AEC_DISP_PROPS_STAIR_PLAN_OVERLAPPING
  2
AecDbDispPropsStairPlanOverlapping
  3
AecArchBase50|Product Desc: Autodesk Architectural Desktop 2007 |Company: Autodesk,Inc. |WEB Address: www.autodesk.com
 90
    32897
280
     0
281
     0
  0
CLASS
  1
AEC_DISP_REP_STAIR_RCP
  2
AecDbDispRepStairRcp
  3
AecArchBase50|Product Desc: Autodesk Architectural Desktop 2007 |Company: Autodesk,Inc. |WEB Address: www.autodesk.com
 90
    32897
280
     0
281
     0
  0
CLASS
  1
AEC_DISP_REP_WALL_RCP
  2
AecDbDispRepWallRcp
  3
AecArchBase50|Product Desc: Autodesk Architectural Desktop 2007 |Company: Autodesk,Inc. |WEB Address: www.autodesk.com
 90
    32897
280
     0
281
     0
  0
CLASS
  1
AEC_DISP_REP_WINDOWASSEMBLY_SILL_PLAN
  2
AecDbDispRepWindowAssemblySillPlan
  3
AecArchBase50|Product Desc: Autodesk Architectural Desktop 2007 |Company: Autodesk,Inc. |WEB Address: www.autodesk.com
 90
    32897
280
     0
281
     0
  0
CLASS
  1
AEC_DISP_PROPS_WINDOW_ASSEMBLY_SILL_PLAN
  2
AecDbDispPropsWindowAssemblySillPlan
  3
AecArchBase50|Product Desc: Autodesk Architectural Desktop 2007 |Company: Autodesk,Inc. |WEB Address: www.autodesk.com
 90
    32897
280
     0
281
     0
  0
CLASS
  1
AEC_DISP_REP_WINDOW_ELEV
  2
AecDbDispRepWindowElev
  3
AecArchBase50|Product Desc: Autodesk Architectural Desktop 2007 |Company: Autodesk,Inc. |WEB Address: www.autodesk.com
 90
    32897
280
     0
281
     0
  0
CLASS
  1
AEC_DISP_REP_WINDOW_RCP
  2
AecDbDispRepWindowRcp
  3
AecArchBase50|Product Desc: Autodesk Architectural Desktop 2007 |Company: Autodesk,Inc. |WEB Address: www.autodesk.com
 90
    32897
280
     0
281
     0
  0
CLASS
  1
AEC_DISP_REP_WINDOW_SILL_PLAN
  2
AecDbDispRepWindowSillPlan
  3
AecArchBase50|Product Desc: Autodesk Architectural Desktop 2007 |Company: Autodesk,Inc. |WEB Address: www.autodesk.com
 90
    32897
280
     0
281
     0
  0
CLASS
  1
AEC_DISP_PROPS_WINDOW_SILL_PLAN
  2
AecDbDispPropsWindowSillPlan
  3
AecArchBase50|Product Desc: Autodesk Architectural Desktop 2007 |Company: Autodesk,Inc. |WEB Address: www.autodesk.com
 90
    32897
280
     0
281
     0
  0
CLASS
  1
AEC_DISP_REP_ANCHOR_BUB_TO_GRID_RCP
  2
AecDbDispRepAnchorBubToGridRcp
  3
AecStructureBase50|Product Desc: Autodesk Architectural Desktop 2007 |Company: Autodesk,Inc. |WEB Address: www.autodesk.com
 90
    32897
280
     0
281
     0
  0
CLASS
  1
AEC_DISP_REP_COLUMN_GRID_RCP
  2
AecDbDispRepColumnGridRcp
  3
AecStructureBase50|Product Desc: Autodesk Architectural Desktop 2007 |Company: Autodesk,Inc. |WEB Address: www.autodesk.com
 90
    32897
280
     0
281
     0
  0
CLASS
  1
AECS_DISP_REP_MEMBER_ELEVATION_DESIGN
  2
AecsDbDispRepMemberElevationDesign
  3
AecStructureBase50|Product Desc: Autodesk Architectural Desktop 2007 |Company: Autodesk,Inc. |WEB Address: www.autodesk.com
 90
    32897
280
     0
281
     0
  0
CLASS
  1
AECS_DISP_PROPS_MEMBER_PROJECTED
  2
AecsDbDispPropsMemberProjected
  3
AecStructureBase50|Product Desc: Autodesk Architectural Desktop 2007 |Company: Autodesk,Inc. |WEB Address: www.autodesk.com
 90
    32897
280
     0
281
     0
  0
CLASS
  1
AECS_DISP_REP_MEMBER_ELEVATION_DETAIL
  2
AecsDbDispRepMemberElevationDetail
  3
AecStructureBase50|Product Desc: Autodesk Architectural Desktop 2007 |Company: Autodesk,Inc. |WEB Address: www.autodesk.com
 90
    32897
280
     0
281
     0
  0
CLASS
  1
AECS_DISP_REP_MEMBER_MODEL_DETAIL
  2
AecsDbDispRepMemberModelDetail
  3
AecStructureBase50|Product Desc: Autodesk Architectural Desktop 2007 |Company: Autodesk,Inc. |WEB Address: www.autodesk.com
 90
    32897
280
     0
281
     0
  0
CLASS
  1
AECS_DISP_REP_MEMBER_PLAN_DETAIL
  2
AecsDbDispRepMemberPlanDetail
  3
AecStructureBase50|Product Desc: Autodesk Architectural Desktop 2007 |Company: Autodesk,Inc. |WEB Address: www.autodesk.com
 90
    32897
280
     0
281
     0
  0
CLASS
  1
AECS_DISP_REP_MEMBER_PLAN_SKETCH
  2
AecsDbDispRepMemberPlanSketch
  3
AecStructureBase50|Product Desc: Autodesk Architectural Desktop 2007 |Company: Autodesk,Inc. |WEB Address: www.autodesk.com
 90
    32897
280
     0
281
     0
  0
CLASS
  1
AECS_DISP_PROPS_MEMBER_PLAN_SKETCH
  2
AecsDbDispPropsMemberPlanSketch
  3
AecStructureBase50|Product Desc: Autodesk Architectural Desktop 2007 |Company: Autodesk,Inc. |WEB Address: www.autodesk.com
 90
    32897
280
     0
281
     0
  0
CLASS
  1
AEC_AECDBDISPREPAREA100
  2
AecDbDispRepArea100
  3
AecArchDACHBase50|Product Desc: Autodesk Architectural Desktop 2007 |Company: Autodesk,Inc. |WEB Address: www.autodesk.com
 90
    32897
280
     0
281
     0
  0
CLASS
  1
AEC_AECDBDISPREPAREAGROUP100
  2
AecDbDispRepAreaGroup100
  3
AecArchDACHBase50|Product Desc: Autodesk Architectural Desktop 2007 |Company: Autodesk,Inc. |WEB Address: www.autodesk.com
 90
    32897
280
     0
281
     0
  0
CLASS
  1
AEC_AECDBDISPREPBDGELEVLINEPLAN100
  2
AecDbDispRepBdgElevLinePlan100
  3
AecArchDACHBase50|Product Desc: Autodesk Architectural Desktop 2007 |Company: Autodesk,Inc. |WEB Address: www.autodesk.com
 90
    32897
280
     0
281
     0
  0
CLASS
  1
AEC_AECDBDISPREPBDGSECTIONLINEPLAN100
  2
AecDbDispRepBdgSectionLinePlan100
  3
AecArchDACHBase50|Product Desc: Autodesk Architectural Desktop 2007 |Company: Autodesk,Inc. |WEB Address: www.autodesk.com
 90
    32897
280
     0
281
     0
  0
CLASS
  1
AEC_AECDBDISPREPCEILINGGRIDPLAN100
  2
AecDbDispRepCeilingGridPlan100
  3
AecArchDACHBase50|Product Desc: Autodesk Architectural Desktop 2007 |Company: Autodesk,Inc. |WEB Address: www.autodesk.com
 90
    32897
280
     0
281
     0
  0
CLASS
  1
AEC_AECDBDISPREPCOLUMNGRIDPLAN100
  2
AecDbDispRepColumnGridPlan100
  3
AecArchDACHBase50|Product Desc: Autodesk Architectural Desktop 2007 |Company: Autodesk,Inc. |WEB Address: www.autodesk.com
 90
    32897
280
     0
281
     0
  0
CLASS
  1
AEC_AECDBDISPREPCURTAINWALLLAYOUTPLAN100
  2
AecDbDispRepCurtainWallLayoutPlan100
  3
AecArchDACHBase50|Product Desc: Autodesk Architectural Desktop 2007 |Company: Autodesk,Inc. |WEB Address: www.autodesk.com
 90
    32897
280
     0
281
     0
  0
CLASS
  1
AEC_AECDBDISPREPCURTAINWALLUNITPLAN100
  2
AecDbDispRepCurtainWallUnitPlan100
  3
AecArchDACHBase50|Product Desc: Autodesk Architectural Desktop 2007 |Company: Autodesk,Inc. |WEB Address: www.autodesk.com
 90
    32897
280
     0
281
     0
  0
CLASS
  1
AEC_AECDBDISPREPMVBLOCKREFPLAN100
  2
AecDbDispRepMvBlockRefPlan100
  3
AecArchDACHBase50|Product Desc: Autodesk Architectural Desktop 2007 |Company: Autodesk,Inc. |WEB Address: www.autodesk.com
 90
    32897
280
     0
281
     0
  0
CLASS
  1
AEC_AECDBDISPREPROOFPLAN100
  2
AecDbDispRepRoofPlan100
  3
AecArchDACHBase50|Product Desc: Autodesk Architectural Desktop 2007 |Company: Autodesk,Inc. |WEB Address: www.autodesk.com
 90
    32897
280
     0
281
     0
  0
CLASS
  1
AEC_AECDBDISPREPROOFSLABPLAN100
  2
AecDbDispRepRoofSlabPlan100
  3
AecArchDACHBase50|Product Desc: Autodesk Architectural Desktop 2007 |Company: Autodesk,Inc. |WEB Address: www.autodesk.com
 90
    32897
280
     0
281
     0
  0
CLASS
  1
AEC_AECDBDISPREPSLABPLAN100
  2
AecDbDispRepSlabPlan100
  3
AecArchDACHBase50|Product Desc: Autodesk Architectural Desktop 2007 |Company: Autodesk,Inc. |WEB Address: www.autodesk.com
 90
    32897
280
     0
281
     0
  0
CLASS
  1
AEC_AECDBDISPREPSPACEBOUNDARYPLAN100
  2
AecDbDispRepSpaceBoundaryPlan100
  3
AecArchDACHBase50|Product Desc: Autodesk Architectural Desktop 2007 |Company: Autodesk,Inc. |WEB Address: www.autodesk.com
 90
    32897
280
     0
281
     0
  0
CLASS
  1
AEC_AECDBDISPREPSPACEPLAN100
  2
AecDbDispRepSpacePlan100
  3
AecArchDACHBase50|Product Desc: Autodesk Architectural Desktop 2007 |Company: Autodesk,Inc. |WEB Address: www.autodesk.com
 90
    32897
280
     0
281
     0
  0
CLASS
  1
AEC_AECDBDISPREPWALLPLAN100
  2
AecDbDispRepWallPlan100
  3
AecArchDACHBase50|Product Desc: Autodesk Architectural Desktop 2007 |Company: Autodesk,Inc. |WEB Address: www.autodesk.com
 90
    32897
280
     0
281
     0
  0
CLASS
  1
AEC_AECDBDISPREPAREA50
  2
AecDbDispRepArea50
  3
AecArchDACHBase50|Product Desc: Autodesk Architectural Desktop 2007 |Company: Autodesk,Inc. |WEB Address: www.autodesk.com
 90
    32897
280
     0
281
     0
  0
CLASS
  1
AEC_AECDBDISPREPAREAGROUP50
  2
AecDbDispRepAreaGroup50
  3
AecArchDACHBase50|Product Desc: Autodesk Architectural Desktop 2007 |Company: Autodesk,Inc. |WEB Address: www.autodesk.com
 90
    32897
280
     0
281
     0
  0
CLASS
  1
AEC_AECDBDISPREPBDGELEVLINEPLAN50
  2
AecDbDispRepBdgElevLinePlan50
  3
AecArchDACHBase50|Product Desc: Autodesk Architectural Desktop 2007 |Company: Autodesk,Inc. |WEB Address: www.autodesk.com
 90
    32897
280
     0
281
     0
  0
CLASS
  1
AEC_AECDBDISPREPBDGSECTIONLINEPLAN50
  2
AecDbDispRepBdgSectionLinePlan50
  3
AecArchDACHBase50|Product Desc: Autodesk Architectural Desktop 2007 |Company: Autodesk,Inc. |WEB Address: www.autodesk.com
 90
    32897
280
     0
281
     0
  0
CLASS
  1
AEC_AECDBDISPREPCEILINGGRIDPLAN50
  2
AecDbDispRepCeilingGridPlan50
  3
AecArchDACHBase50|Product Desc: Autodesk Architectural Desktop 2007 |Company: Autodesk,Inc. |WEB Address: www.autodesk.com
 90
    32897
280
     0
281
     0
  0
CLASS
  1
AEC_AECDBDISPREPCOLUMNGRIDPLAN50
  2
AecDbDispRepColumnGridPlan50
  3
AecArchDACHBase50|Product Desc: Autodesk Architectural Desktop 2007 |Company: Autodesk,Inc. |WEB Address: www.autodesk.com
 90
    32897
280
     0
281
     0
  0
CLASS
  1
AEC_AECDBDISPREPCURTAINWALLLAYOUTPLAN50
  2
AecDbDispRepCurtainWallLayoutPlan50
  3
AecArchDACHBase50|Product Desc: Autodesk Architectural Desktop 2007 |Company: Autodesk,Inc. |WEB Address: www.autodesk.com
 90
    32897
280
     0
281
     0
  0
CLASS
  1
AEC_AECDBDISPREPCURTAINWALLUNITPLAN50
  2
AecDbDispRepCurtainWallUnitPlan50
  3
AecArchDACHBase50|Product Desc: Autodesk Architectural Desktop 2007 |Company: Autodesk,Inc. |WEB Address: www.autodesk.com
 90
    32897
280
     0
281
     0
  0
CLASS
  1
AEC_AECDBDISPREPMVBLOCKREFPLAN50
  2
AecDbDispRepMvBlockRefPlan50
  3
AecArchDACHBase50|Product Desc: Autodesk Architectural Desktop 2007 |Company: Autodesk,Inc. |WEB Address: www.autodesk.com
 90
    32897
280
     0
281
     0
  0
CLASS
  1
AEC_AECDBDISPREPROOFPLAN50
  2
AecDbDispRepRoofPlan50
  3
AecArchDACHBase50|Product Desc: Autodesk Architectural Desktop 2007 |Company: Autodesk,Inc. |WEB Address: www.autodesk.com
 90
    32897
280
     0
281
     0
  0
CLASS
  1
AEC_AECDBDISPREPROOFSLABPLAN50
  2
AecDbDispRepRoofSlabPlan50
  3
AecArchDACHBase50|Product Desc: Autodesk Architectural Desktop 2007 |Company: Autodesk,Inc. |WEB Address: www.autodesk.com
 90
    32897
280
     0
281
     0
  0
CLASS
  1
AEC_AECDBDISPREPSLABPLAN50
  2
AecDbDispRepSlabPlan50
  3
AecArchDACHBase50|Product Desc: Autodesk Architectural Desktop 2007 |Company: Autodesk,Inc. |WEB Address: www.autodesk.com
 90
    32897
280
     0
281
     0
  0
CLASS
  1
AEC_AECDBDISPREPSPACEBOUNDARYPLAN50
  2
AecDbDispRepSpaceBoundaryPlan50
  3
AecArchDACHBase50|Product Desc: Autodesk Architectural Desktop 2007 |Company: Autodesk,Inc. |WEB Address: www.autodesk.com
 90
    32897
280
     0
281
     0
  0
CLASS
  1
AEC_AECDBDISPREPSPACEPLAN50
  2
AecDbDispRepSpacePlan50
  3
AecArchDACHBase50|Product Desc: Autodesk Architectural Desktop 2007 |Company: Autodesk,Inc. |WEB Address: www.autodesk.com
 90
    32897
280
     0
281
     0
  0
CLASS
  1
AEC_AECDBDISPREPWALLPLAN50
  2
AecDbDispRepWallPlan50
  3
AecArchDACHBase50|Product Desc: Autodesk Architectural Desktop 2007 |Company: Autodesk,Inc. |WEB Address: www.autodesk.com
 90
    32897
280
     0
281
     0
  0
CLASS
  1
AEC_AECDBDISPREPWINDOWASSEMBLYPLAN50
  2
AecDbDispRepWindowAssemblyPlan50
  3
AecArchDACHBase50|Product Desc: Autodesk Architectural Desktop 2007 |Company: Autodesk,Inc. |WEB Address: www.autodesk.com
 90
    32897
280
     0
281
     0
  0
CLASS
  1
AEC_DB_DISP_REP_DIM_GROUP_PLAN100
  2
AecDbDispRepDimGroupPlan100
  3
AecArchDACHBase50|Product Desc: Autodesk Architectural Desktop 2007 |Company: Autodesk,Inc. |WEB Address: www.autodesk.com
 90
    32897
280
     0
281
     0
  0
CLASS
  1
AEC_DB_DISP_REP_DIM_GROUP_PLAN50
  2
AecDbDispRepDimGroupPlan50
  3
AecArchDACHBase50|Product Desc: Autodesk Architectural Desktop 2007 |Company: Autodesk,Inc. |WEB Address: www.autodesk.com
 90
    32897
280
     0
281
     0
  0
CLASS
  1
AEC_DISP_REP_DOOR_PLAN_50
  2
AecDbDispRepDoorPlan50
  3
AecArchDACHBase50|Product Desc: Autodesk Architectural Desktop 2007 |Company: Autodesk,Inc. |WEB Address: www.autodesk.com
 90
    32897
280
     0
281
     0
  0
CLASS
  1
AEC_DISP_PROPS_DOOR_PLAN_50
  2
AecDbDispPropsDoorPlan50
  3
AecArchDACHBase50|Product Desc: Autodesk Architectural Desktop 2007 |Company: Autodesk,Inc. |WEB Address: www.autodesk.com
 90
    32897
280
     0
281
     0
  0
CLASS
  1
AEC_DISP_REP_DOOR_PLAN_HEKTO
  2
AecDbDispRepDoorPlanHekto
  3
AecArchDACHBase50|Product Desc: Autodesk Architectural Desktop 2007 |Company: Autodesk,Inc. |WEB Address: www.autodesk.com
 90
    32897
280
     0
281
     0
  0
CLASS
  1
AEC_DISP_PROPS_DOOR_PLAN_100
  2
AecDbDispPropsDoorPlan100
  3
AecArchDACHBase50|Product Desc: Autodesk Architectural Desktop 2007 |Company: Autodesk,Inc. |WEB Address: www.autodesk.com
 90
    32897
280
     0
281
     0
  0
CLASS
  1
AEC_DISP_REP_DOOR_THRESHOLD_SYMBOL_PLAN
  2
AecDbDispRepDoorThresholdSymbolPlan
  3
AecArchDACHBase50|Product Desc: Autodesk Architectural Desktop 2007 |Company: Autodesk,Inc. |WEB Address: www.autodesk.com
 90
    32897
280
     0
281
     0
  0
CLASS
  1
AEC_DISP_PROPS_DOOR_THRESHOLD_SYMBOL_PLAN
  2
AecDbDispPropsDoorThresholdSymbolPlan
  3
AecArchDACHBase50|Product Desc: Autodesk Architectural Desktop 2007 |Company: Autodesk,Inc. |WEB Address: www.autodesk.com
 90
    32897
280
     0
281
     0
  0
CLASS
  1
AEC_DISPREPAECDBDISPREPMASSELEMPLAN100
  2
AecDbDispRepMassElemPlan100
  3
AecArchDACHBase50|Product Desc: Autodesk Architectural Desktop 2007 |Company: Autodesk,Inc. |WEB Address: www.autodesk.com
 90
    32897
280
     0
281
     0
  0
CLASS
  1
AEC_DISPROPSMASSELEMPLANCOMMON
  2
AecDbDispPropsMassElemPlanCommon
  3
AecArchDACHBase50|Product Desc: Autodesk Architectural Desktop 2007 |Company: Autodesk,Inc. |WEB Address: www.autodesk.com
 90
    32897
280
     0
281
     0
  0
CLASS
  1
AEC_DISPREPAECDBDISPREPMASSELEMPLAN50
  2
AecDbDispRepMassElemPlan50
  3
AecArchDACHBase50|Product Desc: Autodesk Architectural Desktop 2007 |Company: Autodesk,Inc. |WEB Address: www.autodesk.com
 90
    32897
280
     0
281
     0
  0
CLASS
  1
AEC_DISPREPAECDBDISPREPMASSGROUPPLAN100
  2
AecDbDispRepMassGroupPlan100
  3
AecArchDACHBase50|Product Desc: Autodesk Architectural Desktop 2007 |Company: Autodesk,Inc. |WEB Address: www.autodesk.com
 90
    32897
280
     0
281
     0
  0
CLASS
  1
AEC_DISPROPSMASSGROUPPLANCOMMON
  2
AecDbDispPropsMassGroupPlanCommon
  3
AecArchDACHBase50|Product Desc: Autodesk Architectural Desktop 2007 |Company: Autodesk,Inc. |WEB Address: www.autodesk.com
 90
    32897
280
     0
281
     0
  0
CLASS
  1
AEC_DISPREPAECDBDISPREPMASSGROUPPLAN50
  2
AecDbDispRepMassGroupPlan50
  3
AecArchDACHBase50|Product Desc: Autodesk Architectural Desktop 2007 |Company: Autodesk,Inc. |WEB Address: www.autodesk.com
 90
    32897
280
     0
281
     0
  0
CLASS
  1
AEC_DISPREPAECDBDISPREPOPENINGPLAN100
  2
AecDbDispRepOpeningPlan100
  3
AecArchDACHBase50|Product Desc: Autodesk Architectural Desktop 2007 |Company: Autodesk,Inc. |WEB Address: www.autodesk.com
 90
    32897
280
     0
281
     0
  0
CLASS
  1
AEC_DISPROPSOPENINGPLANCOMMONHATCHED
  2
AecDbDispPropsOpeningPlanCommonHatched
  3
AecArchDACHBase50|Product Desc: Autodesk Architectural Desktop 2007 |Company: Autodesk,Inc. |WEB Address: www.autodesk.com
 90
    32897
280
     0
281
     0
  0
CLASS
  1
AEC_DISPREPAECDBDISPREPOPENINGPLAN50
  2
AecDbDispRepOpeningPlan50
  3
AecArchDACHBase50|Product Desc: Autodesk Architectural Desktop 2007 |Company: Autodesk,Inc. |WEB Address: www.autodesk.com
 90
    32897
280
     0
281
     0
  0
CLASS
  1
AEC_DISPREPAECDBDISPREPOPENINGPLANREFLECTED
  2
AecDbDispRepOpeningPlanReflected
  3
AecArchDACHBase50|Product Desc: Autodesk Architectural Desktop 2007 |Company: Autodesk,Inc. |WEB Address: www.autodesk.com
 90
    32897
280
     0
281
     0
  0
CLASS
  1
AEC_DISPROPSOPENINGPLANCOMMON
  2
AecDbDispPropsOpeningPlanCommon
  3
AecArchDACHBase50|Product Desc: Autodesk Architectural Desktop 2007 |Company: Autodesk,Inc. |WEB Address: www.autodesk.com
 90
    32897
280
     0
281
     0
  0
CLASS
  1
AEC_DISPREPAECDBDISPREPOPENINGSILLPLAN
  2
AecDbDispRepOpeningSillPlan
  3
AecArchDACHBase50|Product Desc: Autodesk Architectural Desktop 2007 |Company: Autodesk,Inc. |WEB Address: www.autodesk.com
 90
    32897
280
     0
281
     0
  0
CLASS
  1
AEC_DISPROPSOPENINGSILLPLAN
  2
AecDbDispPropsOpeningSillPlan
  3
AecArchDACHBase50|Product Desc: Autodesk Architectural Desktop 2007 |Company: Autodesk,Inc. |WEB Address: www.autodesk.com
 90
    32897
280
     0
281
     0
  0
CLASS
  1
AEC_DISP_REP_RAILING_PLAN_100
  2
AecDbDispRepRailingPlan100
  3
AecArchDACHBase50|Product Desc: Autodesk Architectural Desktop 2007 |Company: Autodesk,Inc. |WEB Address: www.autodesk.com
 90
    32897
280
     0
281
     0
  0
CLASS
  1
AEC_DISP_ROPS_RAILING_PLAN_100
  2
AecDbDispPropsRailingPlan100
  3
AecArchDACHBase50|Product Desc: Autodesk Architectural Desktop 2007 |Company: Autodesk,Inc. |WEB Address: www.autodesk.com
 90
    32897
280
     0
281
     0
  0
CLASS
  1
AEC_DISP_REP_RAILING_PLAN_50
  2
AecDbDispRepRailingPlan50
  3
AecArchDACHBase50|Product Desc: Autodesk Architectural Desktop 2007 |Company: Autodesk,Inc. |WEB Address: www.autodesk.com
 90
    32897
280
     0
281
     0
  0
CLASS
  1
AEC_DISP_ROPS_RAILING_PLAN_50
  2
AecDbDispPropsRailingPlan50
  3
AecArchDACHBase50|Product Desc: Autodesk Architectural Desktop 2007 |Company: Autodesk,Inc. |WEB Address: www.autodesk.com
 90
    32897
280
     0
281
     0
  0
CLASS
  1
AEC_DISP_REP_STAIR_PLAN_100
  2
AecDbDispRepStairPlan100
  3
AecArchDACHBase50|Product Desc: Autodesk Architectural Desktop 2007 |Company: Autodesk,Inc. |WEB Address: www.autodesk.com
 90
    32897
280
     0
281
     0
  0
CLASS
  1
AEC_DISP_ROPS_STAIR_PLAN_100
  2
AecDbDispPropsStairPlan100
  3
AecArchDACHBase50|Product Desc: Autodesk Architectural Desktop 2007 |Company: Autodesk,Inc. |WEB Address: www.autodesk.com
 90
    32897
280
     0
281
     0
  0
CLASS
  1
AEC_DISP_REP_STAIR_PLAN_50
  2
AecDbDispRepStairPlan50
  3
AecArchDACHBase50|Product Desc: Autodesk Architectural Desktop 2007 |Company: Autodesk,Inc. |WEB Address: www.autodesk.com
 90
    32897
280
     0
281
     0
  0
CLASS
  1
AEC_DISP_ROPS_STAIR_PLAN_50
  2
AecDbDispPropsStairPlan50
  3
AecArchDACHBase50|Product Desc: Autodesk Architectural Desktop 2007 |Company: Autodesk,Inc. |WEB Address: www.autodesk.com
 90
    32897
280
     0
281
     0
  0
CLASS
  1
AEC_DISP_REP_WINDOW_PLAN_100
  2
AecDbDispRepWindowPlan100
  3
AecArchDACHBase50|Product Desc: Autodesk Architectural Desktop 2007 |Company: Autodesk,Inc. |WEB Address: www.autodesk.com
 90
    32897
280
     0
281
     0
  0
CLASS
  1
AEC_DISP_PROPS_WINDOW_PLAN_100
  2
AecDbDispPropsWindowPlan100
  3
AecArchDACHBase50|Product Desc: Autodesk Architectural Desktop 2007 |Company: Autodesk,Inc. |WEB Address: www.autodesk.com
 90
    32897
280
     0
281
     0
  0
CLASS
  1
AEC_DISP_REP_WINDOW_PLAN_50
  2
AecDbDispRepWindowPlan50
  3
AecArchDACHBase50|Product Desc: Autodesk Architectural Desktop 2007 |Company: Autodesk,Inc. |WEB Address: www.autodesk.com
 90
    32897
280
     0
281
     0
  0
CLASS
  1
AEC_DISP_PROPS_WINDOW_PLAN_50
  2
AecDbDispPropsWindowPlan50
  3
AecArchDACHBase50|Product Desc: Autodesk Architectural Desktop 2007 |Company: Autodesk,Inc. |WEB Address: www.autodesk.com
 90
    32897
280
     0
281
     0
  0
CLASS
  1
BINRECORD
  2
AcAecBinRecord
  3
AecBase50|Product Desc: Autodesk Architectural Desktop 2007 |Company: Autodesk,Inc. |WEB Address: www.autodesk.com
 90
    32897
280
     0
281
     0
  0
CLASS
  1
SORTENTSTABLE
  2
AcDbSortentsTable
  3
ObjectDBX Classes
 90
        0
280
     0
281
     0
  0
CLASS
  1
AEC_MASS_ELEM
  2
AecDbMassElem
  3
AecBaseEx50|Product Desc: Autodesk Architectural Desktop 2007 |Company: Autodesk,Inc. |WEB Address: www.autodesk.com
 90
    33661
280
     0
281
     1
  0
CLASS
  1
MATERIAL
  2
AcDbMaterial
  3
ObjectDBX Classes
 90
     1153
280
     0
281
     0
  0
CLASS
  1
AECS_MEMBER
  2
AecsDbMember
  3
AecStructureBase50|Product Desc: Autodesk Architectural Desktop 2007 |Company: Autodesk,Inc. |WEB Address: www.autodesk.com
 90
    33661
280
     0
281
     1
  0
CLASS
  1
AEC_WALL
  2
AecDbWall
  3
AecArchBase50|Product Desc: Autodesk Architectural Desktop 2007 |Company: Autodesk,Inc. |WEB Address: www.autodesk.com
 90
    33661
280
     0
281
     1
  0
CLASS
  1
AEC_DOOR
  2
AecDbDoor
  3
AecArchBase50|Product Desc: Autodesk Architectural Desktop 2007 |Company: Autodesk,Inc. |WEB Address: www.autodesk.com
 90
    33661
280
     0
281
     1
  0
CLASS
  1
AEC_ANCHOR_OPENINGBASE_TO_WALL
  2
AecDbAnchorOpeningBaseToWall
  3
AecArchBase50|Product Desc: Autodesk Architectural Desktop 2007 |Company: Autodesk,Inc. |WEB Address: www.autodesk.com
 90
    32897
280
     0
281
     0
  0
CLASS
  1
AEC_SPACE_BOUNDARY
  2
AecDbSpaceBoundary
  3
AecArchBase50|Product Desc: Autodesk Architectural Desktop 2007 |Company: Autodesk,Inc. |WEB Address: www.autodesk.com
 90
    33661
280
     0
281
     1
  0
CLASS
  1
AEC_SPACE
  2
AecDbSpace
  3
AecArchBase50|Product Desc: Autodesk Architectural Desktop 2007 |Company: Autodesk,Inc. |WEB Address: www.autodesk.com
 90
    33661
280
     0
281
     1
  0
CLASS
  1
AecDbPropertySet
  2
AecDbPropertySet
  3
AecScheduleData50|Product Desc: Autodesk Architectural Desktop 2007 |Company: Autodesk,Inc. |WEB Address: www.autodesk.com
 90
    32897
280
     0
281
     0
  0
CLASS
  1
AEC_MVBLOCK_REF
  2
AecDbMvBlockRef
  3
AecBase50|Product Desc: Autodesk Architectural Desktop 2007 |Company: Autodesk,Inc. |WEB Address: www.autodesk.com
 90
    33661
280
     0
281
     1
  0
CLASS
  1
AEC_ANCHOR_TAG_TO_ENT
  2
AecDbAnchorTagToEnt
  3
AecScheduleData50|Product Desc: Autodesk Architectural Desktop 2007 |Company: Autodesk,Inc. |WEB Address: www.autodesk.com
 90
    32897
280
     0
281
     0
  0
CLASS
  1
AEC_WINDOW
  2
AecDbWindow
  3
AecArchBase50|Product Desc: Autodesk Architectural Desktop 2007 |Company: Autodesk,Inc. |WEB Address: www.autodesk.com
 90
    33661
280
     0
281
     1
  0
CLASS
  1
AEC_OPENING
  2
AecDbOpening
  3
AecArchBase50|Product Desc: Autodesk Architectural Desktop 2007 |Company: Autodesk,Inc. |WEB Address: www.autodesk.com
 90
    33661
280
     0
281
     1
  0
CLASS
  1
AEC_CLASSIFICATION_SYSTEM_DEF
  2
AecDbClassificationSystemDef
  3
AecBase50|Product Desc: Autodesk Architectural Desktop 2007 |Company: Autodesk,Inc. |WEB Address: www.autodesk.com
 90
    32897
280
     0
281
     0
  0
CLASS
  1
AEC_CLASSIFICATION_DEF
  2
AecDbClassificationDef
  3
AecBase50|Product Desc: Autodesk Architectural Desktop 2007 |Company: Autodesk,Inc. |WEB Address: www.autodesk.com
 90
    32897
280
     0
281
     0
  0
CLASS
  1
AEC_CLEANUP_GROUP_DEF
  2
AecDbCleanupGroupDef
  3
AecArchBase50|Product Desc: Autodesk Architectural Desktop 2007 |Company: Autodesk,Inc. |WEB Address: www.autodesk.com
 90
    32897
280
     0
281
     0
  0
CLASS
  1
AEC_DOOR_STYLE
  2
AecDbDoorStyle
  3
AecArchBase50|Product Desc: Autodesk Architectural Desktop 2007 |Company: Autodesk,Inc. |WEB Address: www.autodesk.com
 90
    32897
280
     0
281
     0
  0
CLASS
  1
AEC_STDSIZE_OPENINGS
  2
AecDbStdSizeOpeningList
  3
AecArchBase50|Product Desc: Autodesk Architectural Desktop 2007 |Company: Autodesk,Inc. |WEB Address: www.autodesk.com
 90
    32897
280
     0
281
     0
  0
CLASS
  1
AEC_ENDCAP_STYLE
  2
AecDbEndcapStyle
  3
AecArchBase50|Product Desc: Autodesk Architectural Desktop 2007 |Company: Autodesk,Inc. |WEB Address: www.autodesk.com
 90
    32897
280
     0
281
     0
  0
CLASS
  1
AEC_MASS_ELEM_STYLE
  2
AecDbMassElemStyle
  3
AecBaseEx50|Product Desc: Autodesk Architectural Desktop 2007 |Company: Autodesk,Inc. |WEB Address: www.autodesk.com
 90
    32897
280
     0
281
     0
  0
CLASS
  1
AEC_MATERIAL_DEF
  2
AecDbMaterialDef
  3
AecBase50|Product Desc: Autodesk Architectural Desktop 2007 |Company: Autodesk,Inc. |WEB Address: www.autodesk.com
 90
    32897
280
     0
281
     0
  0
CLASS
  1
AEC_MVBLOCK_DEF
  2
AecDbMvBlockDef
  3
AecBase50|Product Desc: Autodesk Architectural Desktop 2007 |Company: Autodesk,Inc. |WEB Address: www.autodesk.com
 90
    32897
280
     0
281
     0
  0
CLASS
  1
AEC_FRAME_DEF
  2
AecDbOpeningEndcapStyle
  3
AecArchBase50|Product Desc: Autodesk Architectural Desktop 2007 |Company: Autodesk,Inc. |WEB Address: www.autodesk.com
 90
    32897
280
     0
281
     0
  0
CLASS
  1
AEC_PROFILE_DEF
  2
AecDbProfileDef
  3
AecBase50|Product Desc: Autodesk Architectural Desktop 2007 |Company: Autodesk,Inc. |WEB Address: www.autodesk.com
 90
    32897
280
     0
281
     0
  0
CLASS
  1
AEC_SCHEDULE_DATA_FORMAT
  2
AecDbScheduleDataFormat
  3
AecScheduleData50|Product Desc: Autodesk Architectural Desktop 2007 |Company: Autodesk,Inc. |WEB Address: www.autodesk.com
 90
    32897
280
     0
281
     0
  0
CLASS
  1
AEC_PROPERTY_SET_DEF
  2
AecDbPropertySetDef
  3
AecScheduleData50|Product Desc: Autodesk Architectural Desktop 2007 |Company: Autodesk,Inc. |WEB Address: www.autodesk.com
 90
    32897
280
     0
281
     0
  0
CLASS
  1
AEC_SPACE_STYLES
  2
AecDbSpaceStyle
  3
AecArchBase50|Product Desc: Autodesk Architectural Desktop 2007 |Company: Autodesk,Inc. |WEB Address: www.autodesk.com
 90
    32897
280
     0
281
     0
  0
CLASS
  1
AEC_TEXT_NOTE
  2
AecDbTextNote
  3
AecBase50|Product Desc: Autodesk Architectural Desktop 2007 |Company: Autodesk,Inc. |WEB Address: www.autodesk.com
 90
    32897
280
     0
281
     0
  0
CLASS
  1
AECS_MEMBER_STYLE
  2
AecsDbMemberStyle
  3
AecStructureBase50|Product Desc: Autodesk Architectural Desktop 2007 |Company: Autodesk,Inc. |WEB Address: www.autodesk.com
 90
    32897
280
     0
281
     0
  0
CLASS
  1
AEC_VARS_STRUCTUREBASE
  2
AecsDbVarsStructureBase
  3
AecStructureBase50|Product Desc: Autodesk Architectural Desktop 2007 |Company: Autodesk,Inc. |WEB Address: www.autodesk.com
 90
    32897
280
     0
281
     0
  0
CLASS
  1
AEC_WALL_STYLE
  2
AecDbWallStyle
  3
AecArchBase50|Product Desc: Autodesk Architectural Desktop 2007 |Company: Autodesk,Inc. |WEB Address: www.autodesk.com
 90
    32897
280
     0
281
     0
  0
CLASS
  1
AEC_WINDOW_STYLE
  2
AecDbWindowStyle
  3
AecArchBase50|Product Desc: Autodesk Architectural Desktop 2007 |Company: Autodesk,Inc. |WEB Address: www.autodesk.com
 90
    32897
280
     0
281
     0
  0
CLASS
  1
AECS_MEMBER_NODE_SHAPE
  2
AecsDbMemberNodeShape
  3
AecStructureBase50|Product Desc: Autodesk Architectural Desktop 2007 |Company: Autodesk,Inc. |WEB Address: www.autodesk.com
 90
    32897
280
     0
281
     0
  0
CLASS
  1
AEC_SCHEDULE_TABLE
  2
AecDbScheduleTable
  3
AecSchedule50|Product Desc: Autodesk Architectural Desktop 2007 |Company: Autodesk,Inc. |WEB Address: www.autodesk.com
 90
    33661
280
     0
281
     1
  0
CLASS
  1
AEC_SCHEDULE_TABLE_STYLE
  2
AecDbScheduleTableStyle
  3
AecSchedule50|Product Desc: Autodesk Architectural Desktop 2007 |Company: Autodesk,Inc. |WEB Address: www.autodesk.com
 90
    32897
280
     0
281
     0
  0
CLASS
  1
AEC_ANCHOR_MVB_TO_UCS
  2
AecDbAnchorMVBToUCS
  3
AecBase50|Product Desc: Autodesk Architectural Desktop 2007 |Company: Autodesk,Inc. |WEB Address: www.autodesk.com
 90
    32897
280
     0
281
     0
  0
CLASS
  1
IMAGEDEF
  2
AcDbRasterImageDef
  3
ISM
 90
    32768
280
     0
281
     0
  0
CLASS
  1
AEC_ANCHOR_ENT_TO_GRID_ASSEMBLY
  2
AecDbAnchorEntToGridAssembly
  3
AecBase50|Product Desc: Autodesk Architectural Desktop 2007 |Company: Autodesk,Inc. |WEB Address: www.autodesk.com
 90
    32897
280
     0
281
     0
  0
CLASS
  1
AEC_WINDOW_ASSEMBLY
  2
AecDbWindowAssembly
  3
AecArchBase50|Product Desc: Autodesk Architectural Desktop 2007 |Company: Autodesk,Inc. |WEB Address: www.autodesk.com
 90
    33661
280
     0
281
     1
  0
CLASS
  1
AEC_ANCHOR_WINASSEMBLY_TO_WALL
  2
AecDbAnchorWinAssemblyToWall
  3
AecArchBase50|Product Desc: Autodesk Architectural Desktop 2007 |Company: Autodesk,Inc. |WEB Address: www.autodesk.com
 90
    32897
280
     0
281
     0
  0
CLASS
  1
AEC_STAIR
  2
AecDbStair
  3
AecArchBase50|Product Desc: Autodesk Architectural Desktop 2007 |Company: Autodesk,Inc. |WEB Address: www.autodesk.com
 90
    33661
280
     0
281
     1
  0
CLASS
  1
AEC_RAILING
  2
AecDbRailing
  3
AecArchBase50|Product Desc: Autodesk Architectural Desktop 2007 |Company: Autodesk,Inc. |WEB Address: www.autodesk.com
 90
    33661
280
     0
281
     1
  0
CLASS
  1
AEC_ANCHOR_RAILING_TO_STAIR
  2
AecDbAnchorRailingToStair
  3
AecArchBase50|Product Desc: Autodesk Architectural Desktop 2007 |Company: Autodesk,Inc. |WEB Address: www.autodesk.com
 90
    32897
280
     0
281
     0
  0
CLASS
  1
AEC_RAILING_STYLE
  2
AecDbRailingStyle
  3
AecArchBase50|Product Desc: Autodesk Architectural Desktop 2007 |Company: Autodesk,Inc. |WEB Address: www.autodesk.com
 90
    32897
280
     0
281
     0
  0
CLASS
  1
AEC_STAIR_STYLE
  2
AecDbStairStyle
  3
AecArchBase50|Product Desc: Autodesk Architectural Desktop 2007 |Company: Autodesk,Inc. |WEB Address: www.autodesk.com
 90
    32897
280
     0
281
     0
  0
CLASS
  1
AEC_STAIR_WINDER_STYLE
  2
AecDbStairWinderStyle
  3
AecArchBase50|Product Desc: Autodesk Architectural Desktop 2007 |Company: Autodesk,Inc. |WEB Address: www.autodesk.com
 90
    32897
280
     0
281
     0
  0
CLASS
  1
AEC_STAIR_WINDER_TYPE_SINGLE_POINT
  2
AecDbStairWinderTypeSinglePoint
  3
AecArchBase50|Product Desc: Autodesk Architectural Desktop 2007 |Company: Autodesk,Inc. |WEB Address: www.autodesk.com
 90
    32897
280
     0
281
     0
  0
CLASS
  1
AEC_WINDOW_ASSEMBLY_STYLE
  2
AecDbWindowAssemblyStyle
  3
AecArchBase50|Product Desc: Autodesk Architectural Desktop 2007 |Company: Autodesk,Inc. |WEB Address: www.autodesk.com
 90
    32897
280
     0
281
     0
  0
CLASS
  1
AEC_AECDBAREASTYLE
  2
AecDbAreaStyle
  3
AecAreaCalculationBase50|Product Desc: Autodesk Architectural Desktop 2007 |Company: Autodesk,Inc. |WEB Address: www.autodesk.com
 90
    32897
280
     0
281
     0
  0
CLASS
  1
AEC_AECDBAREAPROPOSALNAMES
  2
AecDbAreaProposalNames
  3
AecAreaCalculationBase50|Product Desc: Autodesk Architectural Desktop 2007 |Company: Autodesk,Inc. |WEB Address: www.autodesk.com
 90
    32897
280
     0
281
     0
  0
CLASS
  1
AEC_AREA
  2
AecDbArea
  3
AecAreaCalculationBase50|Product Desc: Autodesk Architectural Desktop 2007 |Company: Autodesk,Inc. |WEB Address: www.autodesk.com
 90
    33661
280
     0
281
     1
  0
CLASS
  1
OBJECT_PTR
  2
CAseDLPNTableRecord
  3
ASE-LPNTableRecord
 90
    32769
280
     1
281
     0
  0
CLASS
  1
TABLESTYLE
  2
AcDbTableStyle
  3
ObjectDBX Classes
 90
     4095
280
     0
281
     0
  0
CLASS
  1
AEC_DISP_REP_DISPLAYTHEME
  2
AecDbDispRepDisplayTheme
  3
AecBase50|Product Desc: Autodesk Architectural Desktop 2007 |Company: Autodesk,Inc. |WEB Address: www.autodesk.com
 90
    32897
280
     0
281
     0
  0
CLASS
  1
AEC_DISP_PROPS_DISPLAYTHEME
  2
AecDbDispPropsDisplayTheme
  3
AecBase50|Product Desc: Autodesk Architectural Desktop 2007 |Company: Autodesk,Inc. |WEB Address: www.autodesk.com
 90
    32897
280
     0
281
     0
  0
CLASS
  1
AEC_DISP_REP_ANCHOR_EXT_TAG_TO_ENT
  2
AecDbDispRepAnchorExtendedTagToEnt
  3
AecScheduleData50|Product Desc: Autodesk Architectural Desktop 2007 |Company: Autodesk,Inc. |WEB Address: www.autodesk.com
 90
    32897
280
     0
281
     0
  0
CLASS
  1
VISUALSTYLE
  2
AcDbVisualStyle
  3
ObjectDBX Classes
 90
     4095
280
     0
281
     0
  0
CLASS
  1
AEC_AECDBDISPREPZONE100
  2
AecDbDispRepZonePlan100
  3
AecArchDACHBase50|Product Desc: Autodesk Architectural Desktop 2007 |Company: Autodesk,Inc. |WEB Address: www.autodesk.com
 90
    32897
280
     0
281
     0
  0
CLASS
  1
AEC_DISP_PROPS_ZONE
  2
AecDbDispPropsZone
  3
AecArchBase50|Product Desc: Autodesk Architectural Desktop 2007 |Company: Autodesk,Inc. |WEB Address: www.autodesk.com
 90
    32897
280
     0
281
     0
  0
CLASS
  1
AEC_AECDBDISPREPZONE50
  2
AecDbDispRepZonePlan50
  3
AecArchDACHBase50|Product Desc: Autodesk Architectural Desktop 2007 |Company: Autodesk,Inc. |WEB Address: www.autodesk.com
 90
    32897
280
     0
281
     0
  0
CLASS
  1
AEC_DISP_REP_SPACE_DECOMPOSED
  2
AecDbDispRepSpaceDecomposed
  3
AecArchBase50|Product Desc: Autodesk Architectural Desktop 2007 |Company: Autodesk,Inc. |WEB Address: www.autodesk.com
 90
    32897
280
     0
281
     0
  0
CLASS
  1
AEC_DISP_PROPS_SPACE_DECOMPOSED
  2
AecDbDispPropsSpaceDecomposed
  3
AecArchBase50|Product Desc: Autodesk Architectural Desktop 2007 |Company: Autodesk,Inc. |WEB Address: www.autodesk.com
 90
    32897
280
     0
281
     0
  0
CLASS
  1
AEC_DISP_REP_ZONE
  2
AecDbDispRepZone
  3
AecArchBase50|Product Desc: Autodesk Architectural Desktop 2007 |Company: Autodesk,Inc. |WEB Address: www.autodesk.com
 90
    32897
280
     0
281
     0
  0
CLASS
  1
AEC_LIST_DEF
  2
AecDbListDefinition
  3
AecBase50|Product Desc: Autodesk Architectural Desktop 2007 |Company: Autodesk,Inc. |WEB Address: www.autodesk.com
 90
    32897
280
     0
281
     0
  0
CLASS
  1
EXACXREFPANELOBJECT
  2
ExAcXREFPanelObject
  3
EXAC_ESW
 90
    33793
280
     1
281
     0
  0
CLASS
  1
NPOCOLLECTION
  2
AcDbImpNonPersistentObjectsCollection
  3
ObjectDBX Classes
 90
    33921
280
     0
281
     0
  0
CLASS
  1
ACAD_EVALUATION_GRAPH
  2
AcDbEvalGraph
  3
ObjectDBX Classes
 90
    33921
280
     0
281
     0
  0
CLASS
  1
BLOCKLINEARPARAMETER
  2
AcDbBlockLinearParameter
  3
ObjectDBX Classes
 90
    33921
280
     0
281
     0
  0
CLASS
  1
BLOCKLINEARGRIP
  2
AcDbBlockLinearGrip
  3
ObjectDBX Classes
 90
    33921
280
     0
281
     0
  0
CLASS
  1
BLOCKGRIPLOCATIONCOMPONENT
  2
AcDbBlockGripExpr
  3
ObjectDBX Classes
 90
    33921
280
     0
281
     0
  0
CLASS
  1
BLOCKSTRETCHACTION
  2
AcDbBlockStretchAction
  3
ObjectDBX Classes
 90
    33921
280
     0
281
     0
  0
CLASS
  1
BLOCKFLIPPARAMETER
  2
AcDbBlockFlipParameter
  3
ObjectDBX Classes
 90
    33921
280
     0
281
     0
  0
CLASS
  1
BLOCKFLIPGRIP
  2
AcDbBlockFlipGrip
  3
ObjectDBX Classes
 90
    33921
280
     0
281
     0
  0
CLASS
  1
BLOCKFLIPACTION
  2
AcDbBlockFlipAction
  3
ObjectDBX Classes
 90
    33921
280
     0
281
     0
  0
CLASS
  1
ACDB_DYNAMICBLOCKPURGEPREVENTER_VERSION
  2
AcDbDynamicBlockPurgePreventer
  3
ObjectDBX Classes
 90
    33921
280
     0
281
     0
  0
CLASS
  1
ACDB_BLOCKREPRESENTATION_DATA
  2
AcDbBlockRepresentationData
  3
ObjectDBX Classes
 90
    33921
280
     0
281
     0
  0
CLASS
  1
AEC_SLAB
  2
AecDbSlab
  3
AecArchBase50|Product Desc: Autodesk Architectural Desktop 2007 |Company: Autodesk,Inc. |WEB Address: www.autodesk.com
 90
    33661
280
     0
281
     1
  0
CLASS
  1
AEC_LIST_DEF
  2
AecDbListItem
  3
AecBase50|Product Desc: Autodesk Architectural Desktop 2007 |Company: Autodesk,Inc. |WEB Address: www.autodesk.com
 90
    32897
280
     0
281
     0
  0
CLASS
  1
AEC_ROOFSLAB_STYLE
  2
AecDbRoofSlabStyle
  3
AecArchBase50|Product Desc: Autodesk Architectural Desktop 2007 |Company: Autodesk,Inc. |WEB Address: www.autodesk.com
 90
    32897
280
     0
281
     0
  0
CLASS
  1
AEC_ROOFSLABEDGE_STYLE
  2
AecDbRoofSlabEdgeStyle
  3
AecArchBase50|Product Desc: Autodesk Architectural Desktop 2007 |Company: Autodesk,Inc. |WEB Address: www.autodesk.com
 90
    32897
280
     0
281
     0
  0
CLASS
  1
AEC_SLAB_STYLE
  2
AecDbSlabStyle
  3
AecArchBase50|Product Desc: Autodesk Architectural Desktop 2007 |Company: Autodesk,Inc. |WEB Address: www.autodesk.com
 90
    32897
280
     0
281
     0
  0
CLASS
  1
AEC_SLABEDGE_STYLE
  2
AecDbSlabEdgeStyle
  3
AecArchBase50|Product Desc: Autodesk Architectural Desktop 2007 |Company: Autodesk,Inc. |WEB Address: www.autodesk.com
 90
    32897
280
     0
281
     0
  0
CLASS
  1
EXACTERMXREFMAP
  2
ExAcTermXrefMap
  3
EXAC_SERVICE
 90
    33793
280
     1
281
     0
  0
CLASS
  1
AEC_AECDBZONESTYLE
  2
AecDbZoneStyle
  3
AecArchBase50|Product Desc: Autodesk Architectural Desktop 2007 |Company: Autodesk,Inc. |WEB Address: www.autodesk.com
 90
    32897
280
     0
281
     0
  0
CLASS
  1
AEC_ZONE
  2
AecDbZone
  3
AecArchBase50|Product Desc: Autodesk Architectural Desktop 2007 |Company: Autodesk,Inc. |WEB Address: www.autodesk.com
 90
    33661
280
     0
281
     1
  0
CLASS
  1
ACAD_TABLE
  2
AcDbTable
  3
ObjectDBX Classes
 90
    33793
280
     0
281
     1
  0
CLASS
  1
AEC_DISPLAYTHEME_STYLE
  2
AecDbDisplayThemeStyle
  3
AecBase50|Product Desc: Autodesk Architectural Desktop 2007 |Company: Autodesk,Inc. |WEB Address: www.autodesk.com
 90
    32897
280
     0
281
     0
  0
CLASS
  1
DIMASSOC
  2
AcDbDimAssoc
  3
"AcDbDimAssoc|Product Desc:     AcDim ARX App For Dimension|Company:          Autodesk, Inc.|WEB Address:      www.autodesk.com"
 90
        0
280
     0
281
     0
  0
CLASS
  1
AEC_MASS_GROUP
  2
AecDbMassGroup
  3
AecBaseEx50|Product Desc: Autodesk Architectural Desktop 2007 |Company: Autodesk,Inc. |WEB Address: www.autodesk.com
 90
    33661
280
     0
281
     1
  0
CLASS
  1
AEC_ANCHOR_ENT_TO_ENT
  2
AecDbAnchorEntToEnt
  3
AecBase50|Product Desc: Autodesk Architectural Desktop 2007 |Company: Autodesk,Inc. |WEB Address: www.autodesk.com
 90
    32897
280
     0
281
     0
  0
CLASS
  1
AEC_2D_SECTION
  2
AecDb2dSection
  3
AecBase50|Product Desc: Autodesk Architectural Desktop 2007 |Company: Autodesk,Inc. |WEB Address: www.autodesk.com
 90
    33661
280
     0
281
     1
  0
CLASS
  1
AEC_2DSECTION_STYLE
  2
AecDb2dSectionStyle
  3
AecBase50|Product Desc: Autodesk Architectural Desktop 2007 |Company: Autodesk,Inc. |WEB Address: www.autodesk.com
 90
    32897
280
     0
281
     0
  0
CLASS
  1
SCALE
  2
AcDbScale
  3
ObjectDBX Classes
 90
     1153
280
     0
281
     0
  0
CLASS
  1
MLEADERSTYLE
  2
AcDbMLeaderStyle
  3
ACDB_MLEADERSTYLE_CLASS
 90
     4095
280
     0
281
     0
  0
CLASS
  1
AEC_REFEDIT_STATUS_TRACKER
  2
AecDbRefEditStatusTracker
  3
AecArchBase50|Product Desc: Autodesk Architectural Desktop 2007 |Company: Autodesk,Inc. |WEB Address: www.autodesk.com
 90
    32897
280
     0
281
     0
  0
CLASS
  1
CELLSTYLEMAP
  2
AcDbCellStyleMap
  3
ObjectDBX Classes
 90
     1152
280
     0
281
     0
  0
CLASS
  1
BLOCKARRAYACTION
  2
AcDbBlockArrayAction
  3
ObjectDBX Classes
 90
    33921
280
     0
281
     0
  0
CLASS
  1
BLOCKBASEPOINTPARAMETER
  2
AcDbBlockBasepointParameter
  3
ObjectDBX Classes
 90
    33921
280
     0
281
     0
  0
CLASS
  1
SOLID_BACKGROUND
  2
AcDbSolidBackground
  3
SCENEOE
 90
    36863
280
     0
281
     0
  0
ENDSEC
  0
SECTION
  2
TABLES
  0
TABLE
  2
VPORT
  5
28
330
0
100
AcDbSymbolTable
 70
     1
  0
VPORT
  5
29
330
28
100
AcDbSymbolTableRecord
100
AcDbViewportTableRecord
  2
*Active
 70
     0
 10
0.0
 20
0.0
 11
1.0
 21
1.0
 12
72443.6479209207
 22
-6177.268305836228
 13
-3534.953416816247
 23
4038.000000000049
 14
1.0
 24
1.0
 15
1.0
 25
1.0
 16
0.0
 26
0.0
 36
1.0
 17
0.0
 27
0.0
 37
0.0
 40
17585.16484317391
 41
1.574498567335243
 42
50.0
 43
0.0
 44
0.0
 50
0.0
 51
0.0
 71
     0
 72
  2000
 73
     1
 74
     1
 75
     0
 76
     0
 77
     0
 78
     0
281
     0
 65
     1
110
0.0
120
0.0
130
0.0
111
1.0
121
0.0
131
0.0
112
0.0
122
1.0
132
0.0
 79
     0
146
0.0
  0
ENDTAB
  0
TABLE
  2
LTYPE
  5
23
330
0
100
AcDbSymbolTable
 70
     5
  0
LTYPE
  5
24
330
23
100
AcDbSymbolTableRecord
100
AcDbLinetypeTableRecord
  2
BYBLOCK
 70
     0
  3

 72
    65
 73
     0
 40
0.0
  0
LTYPE
  5
25
330
23
100
AcDbSymbolTableRecord
100
AcDbLinetypeTableRecord
  2
BYLAYER
 70
     0
  3

 72
    65
 73
     0
 40
0.0
  0
LTYPE
  5
E
330
23
100
AcDbSymbolTableRecord
100
AcDbLinetypeTableRecord
  2
CONTINUOUS
 70
     0
  3
Solid line
 72
    65
 73
     0
 40
0.0
  0
LTYPE
  5
77
330
23
100
AcDbSymbolTableRecord
100
AcDbLinetypeTableRecord
  2
DASHED
 70
     0
  3
Dashed __ __ __ __ __ __ __ __ __ __ __ __ __ _
 72
    65
 73
     2
 40
0.75
 49
0.5
 74
     0
 49
-0.25
 74
     0
  0
ENDTAB
  0
TABLE
  2
LAYER
  5
1D
102
{ACAD_XDICTIONARY
360
1E
102
}
330
0
100
AcDbSymbolTable
 70
    18
  0
LAYER
  5
6
102
{ACAD_XDICTIONARY
360
7
102
}
330
1D
100
AcDbSymbolTableRecord
100
AcDbLayerTableRecord
  2
0
 70
     0
 62
     7
  6
CONTINUOUS
370
    -3
390
9
1001
RAK
1000
{ACET-LAYISO
1070
     0
1070
     7
1000
CONTINUOUS
1070
     1
1071
       -3
1071
        1
1005
9
1000
ACET-LAYISO}
  0
LAYER
  5
74
102
{ACAD_XDICTIONARY
360
75
102
}
330
1D
100
AcDbSymbolTableRecord
100
AcDbLayerTableRecord
  2
NAPISY
 70
     0
 62
   140
  6
CONTINUOUS
370
    -3
390
9
1001
RAK
1000
{ACET-LAYISO
1070
     0
1070
   140
1000
CONTINUOUS
1071
       -3
1071
        1
1005
9
1000
ACET-LAYISO}
  0
LAYER
  5
3B5
330
1D
100
AcDbSymbolTableRecord
100
AcDbLayerTableRecord
  2
Defpoints
 70
     0
 62
     7
  6
CONTINUOUS
290
     0
370
    -3
390
9
1001
RAK
1000
{ACET-LAYISO
1070
     0
1070
     7
1000
CONTINUOUS
1071
       -3
1071
        0
1005
9
1000
ACET-LAYISO}
  0
LAYER
  5
56
102
{ACAD_XDICTIONARY
360
57
102
}
330
1D
100
AcDbSymbolTableRecord
100
AcDbLayerTableRecord
  2
0Wymiary-PL
 70
     0
 62
     1
  6
CONTINUOUS
370
     5
390
9
  0
LAYER
  5
3A3
102
{ACAD_XDICTIONARY
360
3A4
102
}
330
1D
100
AcDbSymbolTableRecord
100
AcDbLayerTableRecord
  2
0Hatch
 70
     0
 62
   122
  6
CONTINUOUS
370
     5
390
9
  0
LAYER
  5
7E
102
{ACAD_XDICTIONARY
360
7F
102
}
330
1D
100
AcDbSymbolTableRecord
100
AcDbLayerTableRecord
  2
RAMKI-A4
 70
     0
 62
     2
  6
CONTINUOUS
290
     0
370
    -3
390
9
1001
RAK
1000
{ACET-LAYISO
1070
     0
1070
     2
1000
Continuous
1071
       -3
1071
        0
1005
9
1000
ACET-LAYISO}
  0
LAYER
  5
2019
330
1D
100
AcDbSymbolTableRecord
100
AcDbLayerTableRecord
  2
-widok
 70
     0
 62
   114
  6
CONTINUOUS
370
     9
390
9
  0
LAYER
  5
2616
330
1D
100
AcDbSymbolTableRecord
100
AcDbLayerTableRecord
  2
teren-mały$0$A-MassElement-G
 70
     0
 62
   210
  6
CONTINUOUS
370
    -3
390
9
  0
LAYER
  5
2618
330
1D
100
AcDbSymbolTableRecord
100
AcDbLayerTableRecord
  2
Teren1$0$A-MassElement-G
 70
     0
 62
   210
  6
CONTINUOUS
370
    -3
390
9
  0
LAYER
  5
2619
330
1D
100
AcDbSymbolTableRecord
100
AcDbLayerTableRecord
  2
A-MassElement-G
 70
     0
 62
   210
  6
CONTINUOUS
370
    -3
390
9
  0
ENDTAB
  0
TABLE
  2
STYLE
  5
20
330
0
100
AcDbSymbolTable
 70
     4
  0
STYLE
  5
21
330
20
100
AcDbSymbolTableRecord
100
AcDbTextStyleTableRecord
  2
STANDARD
 70
     0
 40
0.0
 41
1.0
 50
0.0
 71
     0
 42
0.2
  3
txt
  4

  0
STYLE
  5
2E
330
20
100
AcDbSymbolTableRecord
100
AcDbTextStyleTableRecord
  2
ROMANS
 70
     0
 40
0.0
 41
0.9
 50
0.0
 71
     0
 42
5.0
  3
romans.shx
  4

  0
STYLE
  5
79
330
20
100
AcDbSymbolTableRecord
100
AcDbTextStyleTableRecord
  2
AVA
 70
     0
 40
0.0
 41
1.0
 50
0.0
 71
     0
 42
20.0
  3
ARIAL.TTF
  4

1001
ACAD
1000
Arial CE
1071
    60962
  0
ENDTAB
  0
TABLE
  2
VIEW
  5
26
330
0
100
AcDbSymbolTable
 70
     1
  0
VIEW
  5
13
330
26
100
AcDbSymbolTableRecord
100
AcDbViewTableRecord
  2
10-ele
 70
     0
 40
2040.000000000001
 10
597.6361962217097
 20
4133.999999999996
 41
2803.999999999998
 11
0.0
 21
0.0
 31
1.0
 12
0.0
 22
0.0
 32
0.0
 42
50.0
 43
0.0
 44
0.0
 50
0.0
 71
     0
281
     0
 72
     1
110
0.0
120
0.0
130
0.0
111
1.0
121
0.0
131
0.0
112
0.0
122
1.0
132
0.0
 79
     0
146
0.0
  0
ENDTAB
  0
TABLE
  2
UCS
  5
27
330
0
100
AcDbSymbolTable
 70
     0
  0
ENDTAB
  0
TABLE
  2
APPID
  5
2A
330
0
100
AcDbSymbolTable
 70
     7
  0
APPID
  5
2B
330
2A
100
AcDbSymbolTableRecord
100
AcDbRegAppTableRecord
  2
ACAD
 70
     0
  0
APPID
  5
F
330
2A
100
AcDbSymbolTableRecord
100
AcDbRegAppTableRecord
  2
RAK
 70
     0
  0
APPID
  5
16
330
2A
100
AcDbSymbolTableRecord
100
AcDbRegAppTableRecord
  2
ACAD_PSEXT
 70
     0
  0
APPID
  5
7AA
330
2A
100
AcDbSymbolTableRecord
100
AcDbRegAppTableRecord
  2
ACAD_MLEADERVER
 70
     0
  0
APPID
  5
B8E
330
2A
100
AcDbSymbolTableRecord
100
AcDbRegAppTableRecord
  2
ACAD_EXEMPT_FROM_CAD_STANDARDS
 70
     0
  0
APPID
  5
132A
330
2A
100
AcDbSymbolTableRecord
100
AcDbRegAppTableRecord
  2
AcAecLayerStandard
 70
     0
  0
APPID
  5
2020
330
2A
100
AcDbSymbolTableRecord
100
AcDbRegAppTableRecord
  2
AcLayerTools
 70
     0
  0
ENDTAB
  0
TABLE
  2
DIMSTYLE
  5
2C
330
0
100
AcDbSymbolTable
 70
     9
100
AcDbDimStyleTable
 71
     1
340
2D
  0
DIMSTYLE
105
2D
102
{ACAD_REACTORS
330
252A
330
252B
330
252C
330
252D
330
2530
330
2531
330
26FE
330
26FF
330
2700
330
2701
330
2704
330
2705
102
}
330
2C
100
AcDbSymbolTableRecord
100
AcDbDimStyleTableRecord
  2
500
 70
     0
 41
30.0
 42
43.0
 43
0.0
 44
13.0
 45
0.5
 46
12.0
 73
     0
 74
     0
 75
     1
 76
     1
 78
    12
140
80.0
141
0.0
145
1.0
147
0.0
172
     1
174
     1
176
     1
177
     1
178
   140
271
     1
272
     1
279
     2
340
2E
341
2F
342
2F
  0
ENDTAB
  0
TABLE
  2
BLOCK_RECORD
  5
1
330
0
100
AcDbSymbolTable
 70
    78
  0
BLOCK_RECORD
  5
2
102
{ACAD_XDICTIONARY
360
3
102
}
330
1
100
AcDbSymbolTableRecord
100
AcDbBlockTableRecord
  2
*MODEL_SPACE
340
11
  0
BLOCK_RECORD
  5
1942
330
1
100
AcDbSymbolTableRecord
100
AcDbBlockTableRecord
  2
*Paper_Space
340
1943
  0
BLOCK_RECORD
  5
2F
102
{ACAD_XDICTIONARY
360
30
102
}
330
1
100
AcDbSymbolTableRecord
100
AcDbBlockTableRecord
  2
B-DIM
340
0
102
{BLKREFS
331
1BB3
331
1BB4
331
1BBA
331
1BBB
331
1BC1
331
1BC2
331
1BCF
331
1BD0
331
1BD6
331
1BD7
331
1BDD
331
1BDE
331
1BE6
331
1BE7
331
1BF6
331
1BF7
331
1BFD
331
1BFE
331
1C04
331
1C05
331
1C0B
331
1C0C
331
1C14
331
1C15
331
1C22
331
1C23
331
1C29
331
1C2A
331
1C34
331
1C35
331
1C3D
331
1C3E
331
1C46
331
1C47
331
1C4D
331
1C4E
331
2008
331
2009
331
2012
331
2013
331
20A3
331
20A4
331
20AA
331
20AB
331
2112
331
2113
331
211D
331
211E
331
212A
331
212B
331
2149
331
214A
331
2150
331
2151
331
2157
331
2158
331
215E
331
215F
331
2165
331
2166
331
216C
331
216D
331
2175
331
2176
331
217C
331
217D
331
220D
331
220E
331
2214
331
2215
331
221B
331
221C
331
2222
331
2223
331
2229
331
222A
331
2230
331
2231
331
2239
331
223A
331
2240
331
2241
331
2252
331
2253
331
225C
331
225D
331
2266
331
2267
331
2270
331
2271
331
227A
331
227B
331
2284
331
2285
331
228E
331
228F
331
2298
331
2299
331
22A2
331
22A3
331
22AC
331
22AD
331
22B6
331
22B7
331
22C0
331
22C1
331
25B5
331
25B6
331
25BC
331
25BD
331
25C3
331
25C4
331
25CA
331
25CB
331
25D1
331
25D2
331
25D8
331
25D9
331
260E
331
260F
331
2695
331
2696
331
26CD
331
26CE
331
26D4
331
26D5
331
26DB
331
26DC
331
26E2
331
26E3
331
26E9
331
26EA
331
26F0
331
26F1
331
276E
331
276F
331
2775
331
2776
331
277C
331
277D
331
2783
331
2784
331
278A
331
278B
331
2791
331
2792
102
}
  0
BLOCK_RECORD
  5
2578
330
1
100
AcDbSymbolTableRecord
100
AcDbBlockTableRecord
  2
*D62
340
0
  0
BLOCK_RECORD
  5
2582
330
1
100
AcDbSymbolTableRecord
100
AcDbBlockTableRecord
  2
*D63
340
0
  0
BLOCK_RECORD
  5
258C
330
1
100
AcDbSymbolTableRecord
100
AcDbBlockTableRecord
  2
*D64
340
0
  0
BLOCK_RECORD
  5
2596
330
1
100
AcDbSymbolTableRecord
100
AcDbBlockTableRecord
  2
*D65
340
0
  0
BLOCK_RECORD
  5
25A0
330
1
100
AcDbSymbolTableRecord
100
AcDbBlockTableRecord
  2
*D66
340
0
  0
BLOCK_RECORD
  5
25AA
330
1
100
AcDbSymbolTableRecord
100
AcDbBlockTableRecord
  2
*D67
340
0
  0
BLOCK_RECORD
  5
2731
330
1
100
AcDbSymbolTableRecord
100
AcDbBlockTableRecord
  2
*D72
340
0
  0
BLOCK_RECORD
  5
273B
330
1
100
AcDbSymbolTableRecord
100
AcDbBlockTableRecord
  2
*D73
340
0
  0
BLOCK_RECORD
  5
2745
330
1
100
AcDbSymbolTableRecord
100
AcDbBlockTableRecord
  2
*D74
340
0
  0
BLOCK_RECORD
  5
274F
330
1
100
AcDbSymbolTableRecord
100
AcDbBlockTableRecord
  2
*D75
340
0
  0
BLOCK_RECORD
  5
2759
330
1
100
AcDbSymbolTableRecord
100
AcDbBlockTableRecord
  2
*D76
340
0
  0
BLOCK_RECORD
  5
2763
330
1
100
AcDbSymbolTableRecord
100
AcDbBlockTableRecord
  2
*D77
340
0
  0
ENDTAB
  0
ENDSEC
  0
SECTION
  2
BLOCKS
  0
BLOCK
  5
5
330
2
100
AcDbEntity
  8
0
100
AcDbBlockBegin
  2
*MODEL_SPACE
 70
     0
 10
0.0
 20
0.0
 30
0.0
  3
*MODEL_SPACE
  1

  0
ENDBLK
  5
10
330
2
100
AcDbEntity
  8
0
100
AcDbBlockEnd
  0
BLOCK
  5
1944
330
1942
100
AcDbEntity
 67
     1
  8
0
 48
4.0
100
AcDbBlockBegin
  2
*Paper_Space
 70
     0
 10
0.0
 20
0.0
 30
0.0
  3
*Paper_Space
  1

  0
ENDBLK
  5
1945
330
1942
100
AcDbEntity
 67
     1
  8
0
 48
4.0
100
AcDbBlockEnd
  0
BLOCK
  5
32
330
2F
100
AcDbEntity
  8
0
100
AcDbBlockBegin
  2
B-DIM
 70
     0
 10
0.0
 20
0.0
 30
0.0
  3
B-DIM
  1

  0
LINE
  5
33
330
2F
100
AcDbEntity
  8
0
 62
     1
100
AcDbLine
 10
0.000000000000091
 20
-1.1
 30
0.0
 11
0.000000000000091
 21
1.1
 31
0.0
  0
LWPOLYLINE
  5
34
330
2F
100
AcDbEntity
  8
0
 62
     1
100
AcDbPolyline
 90
        2
 70
     0
 43
0.3
 10
-0.7071067811864851
 20
-0.7071067811864851
 10
0.707106781186576
 20
0.707106781186576
  0
LINE
  5
35
330
2F
100
AcDbEntity
  8
0
 62
     1
100
AcDbLine
 10
1.20000000000009
 20
0.0
 30
0.0
 11
-1.199999999999909
 21
0.0
 31
0.0
  0
ENDBLK
  5
36
330
2F
100
AcDbEntity
  8
0
100
AcDbBlockEnd
  0
BLOCK
  5
2579
330
2578
100
AcDbEntity
  8
0
 62
    54
 48
4.0
100
AcDbBlockBegin
  2
*D62
 70
     1
 10
0.0
 20
0.0
 30
0.0
  3
*D62
  1

  0
LINE
  5
26EF
330
2578
100
AcDbEntity
  8
-widok
  6
Continuous
 62
     1
370
    -2
100
AcDbLine
 10
74338.79336583308
 20
-6329.255902576944
 30
0.0
 11
73672.79336583305
 21
-6329.255902576944
 31
0.0
  0
INSERT
  5
26F0
330
2578
100
AcDbEntity
  8
-widok
  6
Continuous
 62
     1
370
    -2
100
AcDbBlockReference
  2
B-DIM
 10
74368.79336583307
 20
-6329.255902576944
 30
0.0
 41
30.0
 42
30.0
 43
30.0
  0
INSERT
  5
26F1
330
2578
100
AcDbEntity
  8
-widok
  6
Continuous
 62
     1
370
    -2
100
AcDbBlockReference
  2
B-DIM
 10
73642.79336583305
 20
-6329.255902576944
 30
0.0
 41
30.0
 42
30.0
 43
30.0
 50
180.0
  0
MTEXT
  5
26F2
330
2578
100
AcDbEntity
  8
-widok
  6
Continuous
 62
   140
370
     5
100
AcDbMText
 10
74005.79336583306
 20
-6249.255902576944
 30
0.0
 40
80.0
 41
0.0
 71
     5
 72
     1
  1
\A1;726
  7
ROMANS
 73
     1
 44
1.0
1001
ACAD
1000
MTEXTBEGIN
1070
    73
1070
     1
1070
    44
1040
1.0
1070
    74
1070
     0
1000
MTEXTEND
  0
POINT
  5
26F3
330
2578
100
AcDbEntity
  8
Defpoints
  6
Continuous
 62
     0
100
AcDbPoint
 10
74368.79336583307
 20
-5339.255902576944
 30
0.0
  0
POINT
  5
26F4
330
2578
100
AcDbEntity
  8
Defpoints
  6
Continuous
 62
     0
100
AcDbPoint
 10
73642.79336583305
 20
-5729.255902576944
 30
0.0
  0
POINT
  5
26F5
330
2578
100
AcDbEntity
  8
Defpoints
  6
Continuous
 62
     0
100
AcDbPoint
 10
73642.79336583305
 20
-6329.255902576944
 30
0.0
  0
ENDBLK
  5
257A
330
2578
100
AcDbEntity
  8
0
 62
    54
 48
4.0
100
AcDbBlockEnd
  0
BLOCK
  5
2583
330
2582
100
AcDbEntity
  8
0
 62
    54
 48
4.0
100
AcDbBlockBegin
  2
*D63
 70
     1
 10
0.0
 20
0.0
 30
0.0
  3
*D63
  1

  0
LINE
  5
26CC
330
2582
100
AcDbEntity
  8
0Wymiary-PL
 62
     1
370
    -2
100
AcDbLine
 10
74568.79336583307
 20
-4444.256605165995
 30
0.0
 11
74568.79336583307
 21
-5309.255902576945
 31
0.0
  0
INSERT
  5
26CD
330
2582
100
AcDbEntity
  8
0Wymiary-PL
 62
     1
370
    -2
100
AcDbBlockReference
  2
B-DIM
 10
74568.79336583307
 20
-4414.256605165996
 30
0.0
 41
30.0
 42
30.0
 43
30.0
 50
90.0
  0
INSERT
  5
26CE
330
2582
100
AcDbEntity
  8
0Wymiary-PL
 62
     1
370
    -2
100
AcDbBlockReference
  2
B-DIM
 10
74568.79336583307
 20
-5339.255902576944
 30
0.0
 41
30.0
 42
30.0
 43
30.0
 50
270.0
  0
MTEXT
  5
26CF
330
2582
100
AcDbEntity
  8
0Wymiary-PL
 62
   140
100
AcDbMText
 10
74488.79336583307
 20
-4876.756253871459
 30
0.0
 40
80.0
 41
0.0
 71
     5
 72
     1
  1
\A1;925
  7
ROMANS
 11
0.0000000000000001
 21
1.0
 31
0.0
 73
     1
 44
1.0
1001
ACAD
1000
MTEXTBEGIN
1070
    73
1070
     1
1070
    44
1040
1.0
1070
    74
1070
     0
1000
MTEXTEND
  0
POINT
  5
26D0
330
2582
100
AcDbEntity
  8
Defpoints
 62
     0
100
AcDbPoint
 10
74368.79336583304
 20
-4414.256605165996
 30
0.0
  0
POINT
  5
26D1
330
2582
100
AcDbEntity
  8
Defpoints
 62
     0
100
AcDbPoint
 10
74026.7933658331
 20
-5339.255902576944
 30
0.0
  0
POINT
  5
26D2
330
2582
100
AcDbEntity
  8
Defpoints
 62
     0
100
AcDbPoint
 10
74568.79336583307
 20
-5339.255902576944
 30
0.0
  0
ENDBLK
  5
2584
330
2582
100
AcDbEntity
  8
0
 62
    54
 48
4.0
100
AcDbBlockEnd
  0
BLOCK
  5
258D
330
258C
100
AcDbEntity
  8
0
 62
    54
 48
4.0
100
AcDbBlockBegin
  2
*D64
 70
     1
 10
0.0
 20
0.0
 30
0.0
  3
*D64
  1

  0
LINE
  5
26D3
330
258C
100
AcDbEntity
  8
0Wymiary-PL
 62
     1
370
    -2
100
AcDbLine
 10
74568.79336583307
 20
-5369.255902576944
 30
0.0
 11
74568.79336583307
 21
-5699.255902577003
 31
0.0
  0
INSERT
  5
26D4
330
258C
100
AcDbEntity
  8
0Wymiary-PL
 62
     1
370
    -2
100
AcDbBlockReference
  2
B-DIM
 10
74568.79336583307
 20
-5339.255902576944
 30
0.0
 41
30.0
 42
30.0
 43
30.0
 50
90.0
  0
INSERT
  5
26D5
330
258C
100
AcDbEntity
  8
0Wymiary-PL
 62
     1
370
    -2
100
AcDbBlockReference
  2
B-DIM
 10
74568.79336583307
 20
-5729.255902577002
 30
0.0
 41
30.0
 42
30.0
 43
30.0
 50
270.0
  0
MTEXT
  5
26D6
330
258C
100
AcDbEntity
  8
0Wymiary-PL
 62
   140
100
AcDbMText
 10
74488.79336583307
 20
-5534.255902576962
 30
0.0
 40
80.0
 41
0.0
 71
     5
 72
     1
  1
\A1;390
  7
ROMANS
 11
0.0000000000000001
 21
1.0
 31
0.0
 73
     1
 44
1.0
1001
ACAD
1000
MTEXTBEGIN
1070
    73
1070
     1
1070
    44
1040
1.0
1070
    74
1070
     0
1000
MTEXTEND
  0
POINT
  5
26D7
330
258C
100
AcDbEntity
  8
Defpoints
 62
     0
100
AcDbPoint
 10
74026.7933658331
 20
-5339.255902576944
 30
0.0
  0
POINT
  5
26D8
330
258C
100
AcDbEntity
  8
Defpoints
 62
     0
100
AcDbPoint
 10
73642.79336583307
 20
-5729.255902577002
 30
0.0
  0
POINT
  5
26D9
330
258C
100
AcDbEntity
  8
Defpoints
 62
     0
100
AcDbPoint
 10
74568.79336583307
 20
-5729.255902577002
 30
0.0
  0
ENDBLK
  5
258E
330
258C
100
AcDbEntity
  8
0
 62
    54
 48
4.0
100
AcDbBlockEnd
  0
BLOCK
  5
2597
330
2596
100
AcDbEntity
  8
0
 62
    54
 48
4.0
100
AcDbBlockBegin
  2
*D65
 70
     1
 10
0.0
 20
0.0
 30
0.0
  3
*D65
  1

  0
LINE
  5
26DA
330
2596
100
AcDbEntity
  8
0Wymiary-PL
 62
     1
370
    -2
100
AcDbLine
 10
74768.79336583307
 20
-5699.255902577003
 30
0.0
 11
74768.79336583307
 21
-4444.256605165995
 31
0.0
  0
INSERT
  5
26DB
330
2596
100
AcDbEntity
  8
0Wymiary-PL
 62
     1
370
    -2
100
AcDbBlockReference
  2
B-DIM
 10
74768.79336583307
 20
-5729.255902577002
 30
0.0
 41
30.0
 42
30.0
 43
30.0
 50
270.0
  0
INSERT
  5
26DC
330
2596
100
AcDbEntity
  8
0Wymiary-PL
 62
     1
370
    -2
100
AcDbBlockReference
  2
B-DIM
 10
74768.79336583307
 20
-4414.256605165996
 30
0.0
 41
30.0
 42
30.0
 43
30.0
 50
90.0
  0
MTEXT
  5
26DD
330
2596
100
AcDbEntity
  8
0Wymiary-PL
 62
   140
100
AcDbMText
 10
74688.79336583307
 20
-5071.756253871487
 30
0.0
 40
80.0
 41
0.0
 71
     5
 72
     1
  1
\A1;1315
  7
ROMANS
 11
0.0000000000000001
 21
1.0
 31
0.0
 73
     1
 44
1.0
1001
ACAD
1000
MTEXTBEGIN
1070
    73
1070
     1
1070
    44
1040
1.0
1070
    74
1070
     0
1000
MTEXTEND
  0
POINT
  5
26DE
330
2596
100
AcDbEntity
  8
Defpoints
 62
     0
100
AcDbPoint
 10
73642.79336583307
 20
-5729.255902577002
 30
0.0
  0
POINT
  5
26DF
330
2596
100
AcDbEntity
  8
Defpoints
 62
     0
100
AcDbPoint
 10
74368.79336583304
 20
-4414.256605165996
 30
0.0
  0
POINT
  5
26E0
330
2596
100
AcDbEntity
  8
Defpoints
 62
     0
100
AcDbPoint
 10
74768.79336583307
 20
-4414.256605165996
 30
0.0
  0
ENDBLK
  5
2598
330
2596
100
AcDbEntity
  8
0
 62
    54
 48
4.0
100
AcDbBlockEnd
  0
BLOCK
  5
25A1
330
25A0
100
AcDbEntity
  8
0
 62
    54
 48
4.0
100
AcDbBlockBegin
  2
*D66
 70
     1
 10
0.0
 20
0.0
 30
0.0
  3
*D66
  1

  0
LINE
  5
26E8
330
25A0
100
AcDbEntity
  8
0Wymiary-PL
 62
     1
370
    -2
100
AcDbLine
 10
74338.79336583308
 20
-6129.255902576944
 30
0.0
 11
74036.79336583304
 21
-6129.255902576944
 31
0.0
  0
INSERT
  5
26E9
330
25A0
100
AcDbEntity
  8
0Wymiary-PL
 62
     1
370
    -2
100
AcDbBlockReference
  2
B-DIM
 10
74368.79336583307
 20
-6129.255902576944
 30
0.0
 41
30.0
 42
30.0
 43
30.0
  0
INSERT
  5
26EA
330
25A0
100
AcDbEntity
  8
0Wymiary-PL
 62
     1
370
    -2
100
AcDbBlockReference
  2
B-DIM
 10
74006.79336583304
 20
-6129.255902576944
 30
0.0
 41
30.0
 42
30.0
 43
30.0
 50
180.0
  0
MTEXT
  5
26EB
330
25A0
100
AcDbEntity
  8
0Wymiary-PL
 62
   140
100
AcDbMText
 10
74187.79336583305
 20
-6049.255902576945
 30
0.0
 40
80.0
 41
0.0
 71
     5
 72
     1
  1
\A1;362
  7
ROMANS
 73
     1
 44
1.0
1001
ACAD
1000
MTEXTBEGIN
1070
    73
1070
     1
1070
    44
1040
1.0
1070
    74
1070
     0
1000
MTEXTEND
  0
POINT
  5
26EC
330
25A0
100
AcDbEntity
  8
Defpoints
 62
     0
100
AcDbPoint
 10
74368.79336583307
 20
-5339.255902576944
 30
0.0
  0
POINT
  5
26ED
330
25A0
100
AcDbEntity
  8
Defpoints
 62
     0
100
AcDbPoint
 10
74006.79336583304
 20
-5339.255902577002
 30
0.0
  0
POINT
  5
26EE
330
25A0
100
AcDbEntity
  8
Defpoints
 62
     0
100
AcDbPoint
 10
74006.79336583304
 20
-6129.255902576944
 30
0.0
  0
ENDBLK
  5
25A2
330
25A0
100
AcDbEntity
  8
0
 62
    54
 48
4.0
100
AcDbBlockEnd
  0
BLOCK
  5
25AB
330
25AA
100
AcDbEntity
  8
0
 62
    54
 48
4.0
100
AcDbBlockBegin
  2
*D67
 70
     1
 10
0.0
 20
0.0
 30
0.0
  3
*D67
  1

  0
LINE
  5
26E1
330
25AA
100
AcDbEntity
  8
0Wymiary-PL
 62
     1
370
    -2
100
AcDbLine
 10
73976.79336583308
 20
-6129.255902576944
 30
0.0
 11
73672.79336583307
 21
-6129.255902576944
 31
0.0
  0
INSERT
  5
26E2
330
25AA
100
AcDbEntity
  8
0Wymiary-PL
 62
     1
370
    -2
100
AcDbBlockReference
  2
B-DIM
 10
74006.79336583307
 20
-6129.255902576944
 30
0.0
 41
30.0
 42
30.0
 43
30.0
  0
INSERT
  5
26E3
330
25AA
100
AcDbEntity
  8
0Wymiary-PL
 62
     1
370
    -2
100
AcDbBlockReference
  2
B-DIM
 10
73642.79336583307
 20
-6129.255902576944
 30
0.0
 41
30.0
 42
30.0
 43
30.0
 50
180.0
  0
MTEXT
  5
26E4
330
25AA
100
AcDbEntity
  8
0Wymiary-PL
 62
   140
100
AcDbMText
 10
73824.79336583307
 20
-6049.255902576945
 30
0.0
 40
80.0
 41
0.0
 71
     5
 72
     1
  1
\A1;364
  7
ROMANS
 73
     1
 44
1.0
1001
ACAD
1000
MTEXTBEGIN
1070
    73
1070
     1
1070
    44
1040
1.0
1070
    74
1070
     0
1000
MTEXTEND
  0
POINT
  5
26E5
330
25AA
100
AcDbEntity
  8
Defpoints
 62
     0
100
AcDbPoint
 10
74006.79336583307
 20
-5729.255902576944
 30
0.0
  0
POINT
  5
26E6
330
25AA
100
AcDbEntity
  8
Defpoints
 62
     0
100
AcDbPoint
 10
73642.79336583307
 20
-5729.255902576944
 30
0.0
  0
POINT
  5
26E7
330
25AA
100
AcDbEntity
  8
Defpoints
 62
     0
100
AcDbPoint
 10
73642.79336583307
 20
-6129.255902576944
 30
0.0
  0
ENDBLK
  5
25AC
330
25AA
100
AcDbEntity
  8
0
 62
    54
 48
4.0
100
AcDbBlockEnd
  0
BLOCK
  5
2732
330
2731
100
AcDbEntity
  8
0
 62
    54
 48
4.0
100
AcDbBlockBegin
  2
*D72
 70
     1
 10
0.0
 20
0.0
 30
0.0
  3
*D72
  1

  0
LINE
  5
276D
330
2731
100
AcDbEntity
  8
-widok
  6
Continuous
 62
     1
370
    -2
100
AcDbLine
 10
70786.41955372355
 20
-6329.255902576944
 30
0.0
 11
71452.41955372358
 21
-6329.255902576944
 31
0.0
  0
INSERT
  5
276E
330
2731
100
AcDbEntity
  8
-widok
  6
Continuous
 62
     1
370
    -2
100
AcDbBlockReference
  2
B-DIM
 10
70756.41955372355
 20
-6329.255902576944
 30
0.0
 41
30.0
 42
30.0
 43
30.0
 50
180.0
  0
INSERT
  5
276F
330
2731
100
AcDbEntity
  8
-widok
  6
Continuous
 62
     1
370
    -2
100
AcDbBlockReference
  2
B-DIM
 10
71482.41955372358
 20
-6329.255902576944
 30
0.0
 41
30.0
 42
30.0
 43
30.0
  0
MTEXT
  5
2770
330
2731
100
AcDbEntity
  8
-widok
  6
Continuous
 62
   140
370
     5
100
AcDbMText
 10
71119.41955372357
 20
-6249.255902576944
 30
0.0
 40
80.0
 41
0.0
 71
     5
 72
     1
  1
\A1;726
  7
ROMANS
 73
     1
 44
1.0
1001
ACAD
1000
MTEXTBEGIN
1070
    73
1070
     1
1070
    44
1040
1.0
1070
    74
1070
     0
1000
MTEXTEND
  0
POINT
  5
2771
330
2731
100
AcDbEntity
  8
Defpoints
  6
Continuous
 62
     0
100
AcDbPoint
 10
70756.41955372355
 20
-5339.255902576944
 30
0.0
  0
POINT
  5
2772
330
2731
100
AcDbEntity
  8
Defpoints
  6
Continuous
 62
     0
100
AcDbPoint
 10
71482.41955372358
 20
-5729.255902576944
 30
0.0
  0
POINT
  5
2773
330
2731
100
AcDbEntity
  8
Defpoints
  6
Continuous
 62
     0
100
AcDbPoint
 10
71482.41955372358
 20
-6329.255902576944
 30
0.0
  0
ENDBLK
  5
2733
330
2731
100
AcDbEntity
  8
0
 62
    54
 48
4.0
100
AcDbBlockEnd
  0
BLOCK
  5
273C
330
273B
100
AcDbEntity
  8
0
 62
    54
 48
4.0
100
AcDbBlockBegin
  2
*D73
 70
     1
 10
0.0
 20
0.0
 30
0.0
  3
*D73
  1

  0
LINE
  5
2774
330
273B
100
AcDbEntity
  8
0Wymiary-PL
 62
     1
370
    -2
100
AcDbLine
 10
70556.41955372355
 20
-4444.256605165995
 30
0.0
 11
70556.41955372355
 21
-5309.255902576945
 31
0.0
  0
INSERT
  5
2775
330
273B
100
AcDbEntity
  8
0Wymiary-PL
 62
     1
370
    -2
100
AcDbBlockReference
  2
B-DIM
 10
70556.41955372355
 20
-4414.256605165996
 30
0.0
 41
30.0
 42
30.0
 43
30.0
 50
90.0
  0
INSERT
  5
2776
330
273B
100
AcDbEntity
  8
0Wymiary-PL
 62
     1
370
    -2
100
AcDbBlockReference
  2
B-DIM
 10
70556.41955372355
 20
-5339.255902576944
 30
0.0
 41
30.0
 42
30.0
 43
30.0
 50
270.0
  0
MTEXT
  5
2777
330
273B
100
AcDbEntity
  8
0Wymiary-PL
 62
   140
100
AcDbMText
 10
70476.41955372355
 20
-4876.756253871459
 30
0.0
 40
80.0
 41
0.0
 71
     5
 72
     1
  1
\A1;925
  7
ROMANS
 11
0.0000000000000001
 21
1.0
 31
0.0
 73
     1
 44
1.0
1001
ACAD
1000
MTEXTBEGIN
1070
    73
1070
     1
1070
    44
1040
1.0
1070
    74
1070
     0
1000
MTEXTEND
  0
POINT
  5
2778
330
273B
100
AcDbEntity
  8
Defpoints
 62
     0
100
AcDbPoint
 10
70756.41955372358
 20
-4414.256605165996
 30
0.0
  0
POINT
  5
2779
330
273B
100
AcDbEntity
  8
Defpoints
 62
     0
100
AcDbPoint
 10
71098.41955372352
 20
-5339.255902576944
 30
0.0
  0
POINT
  5
277A
330
273B
100
AcDbEntity
  8
Defpoints
 62
     0
100
AcDbPoint
 10
70556.41955372355
 20
-5339.255902576944
 30
0.0
  0
ENDBLK
  5
273D
330
273B
100
AcDbEntity
  8
0
 62
    54
 48
4.0
100
AcDbBlockEnd
  0
BLOCK
  5
2746
330
2745
100
AcDbEntity
  8
0
 62
    54
 48
4.0
100
AcDbBlockBegin
  2
*D74
 70
     1
 10
0.0
 20
0.0
 30
0.0
  3
*D74
  1

  0
LINE
  5
277B
330
2745
100
AcDbEntity
  8
0Wymiary-PL
 62
     1
370
    -2
100
AcDbLine
 10
70556.41955372355
 20
-5369.255902576944
 30
0.0
 11
70556.41955372355
 21
-5699.255902577003
 31
0.0
  0
INSERT
  5
277C
330
2745
100
AcDbEntity
  8
0Wymiary-PL
 62
     1
370
    -2
100
AcDbBlockReference
  2
B-DIM
 10
70556.41955372355
 20
-5339.255902576944
 30
0.0
 41
30.0
 42
30.0
 43
30.0
 50
90.0
  0
INSERT
  5
277D
330
2745
100
AcDbEntity
  8
0Wymiary-PL
 62
     1
370
    -2
100
AcDbBlockReference
  2
B-DIM
 10
70556.41955372355
 20
-5729.255902577002
 30
0.0
 41
30.0
 42
30.0
 43
30.0
 50
270.0
  0
MTEXT
  5
277E
330
2745
100
AcDbEntity
  8
0Wymiary-PL
 62
   140
100
AcDbMText
 10
70476.41955372355
 20
-5534.255902576962
 30
0.0
 40
80.0
 41
0.0
 71
     5
 72
     1
  1
\A1;390
  7
ROMANS
 11
0.0000000000000001
 21
1.0
 31
0.0
 73
     1
 44
1.0
1001
ACAD
1000
MTEXTBEGIN
1070
    73
1070
     1
1070
    44
1040
1.0
1070
    74
1070
     0
1000
MTEXTEND
  0
POINT
  5
277F
330
2745
100
AcDbEntity
  8
Defpoints
 62
     0
100
AcDbPoint
 10
71098.41955372352
 20
-5339.255902576944
 30
0.0
  0
POINT
  5
2780
330
2745
100
AcDbEntity
  8
Defpoints
 62
     0
100
AcDbPoint
 10
71482.41955372355
 20
-5729.255902577002
 30
0.0
  0
POINT
  5
2781
330
2745
100
AcDbEntity
  8
Defpoints
 62
     0
100
AcDbPoint
 10
70556.41955372355
 20
-5729.255902577002
 30
0.0
  0
ENDBLK
  5
2747
330
2745
100
AcDbEntity
  8
0
 62
    54
 48
4.0
100
AcDbBlockEnd
  0
BLOCK
  5
2750
330
274F
100
AcDbEntity
  8
0
 62
    54
 48
4.0
100
AcDbBlockBegin
  2
*D75
 70
     1
 10
0.0
 20
0.0
 30
0.0
  3
*D75
  1

  0
LINE
  5
2782
330
274F
100
AcDbEntity
  8
0Wymiary-PL
 62
     1
370
    -2
100
AcDbLine
 10
70356.41955372355
 20
-5699.255902577003
 30
0.0
 11
70356.41955372355
 21
-4444.256605165995
 31
0.0
  0
INSERT
  5
2783
330
274F
100
AcDbEntity
  8
0Wymiary-PL
 62
     1
370
    -2
100
AcDbBlockReference
  2
B-DIM
 10
70356.41955372355
 20
-5729.255902577002
 30
0.0
 41
30.0
 42
30.0
 43
30.0
 50
270.0
  0
INSERT
  5
2784
330
274F
100
AcDbEntity
  8
0Wymiary-PL
 62
     1
370
    -2
100
AcDbBlockReference
  2
B-DIM
 10
70356.41955372355
 20
-4414.256605165996
 30
0.0
 41
30.0
 42
30.0
 43
30.0
 50
90.0
  0
MTEXT
  5
2785
330
274F
100
AcDbEntity
  8
0Wymiary-PL
 62
   140
100
AcDbMText
 10
70276.41955372355
 20
-5071.756253871488
 30
0.0
 40
80.0
 41
0.0
 71
     5
 72
     1
  1
\A1;1315
  7
ROMANS
 11
0.0000000000000001
 21
1.0
 31
0.0
 73
     1
 44
1.0
1001
ACAD
1000
MTEXTBEGIN
1070
    73
1070
     1
1070
    44
1040
1.0
1070
    74
1070
     0
1000
MTEXTEND
  0
POINT
  5
2786
330
274F
100
AcDbEntity
  8
Defpoints
 62
     0
100
AcDbPoint
 10
71482.41955372355
 20
-5729.255902577002
 30
0.0
  0
POINT
  5
2787
330
274F
100
AcDbEntity
  8
Defpoints
 62
     0
100
AcDbPoint
 10
70756.41955372358
 20
-4414.256605165996
 30
0.0
  0
POINT
  5
2788
330
274F
100
AcDbEntity
  8
Defpoints
 62
     0
100
AcDbPoint
 10
70356.41955372355
 20
-4414.256605165996
 30
0.0
  0
ENDBLK
  5
2751
330
274F
100
AcDbEntity
  8
0
 62
    54
 48
4.0
100
AcDbBlockEnd
  0
BLOCK
  5
275A
330
2759
100
AcDbEntity
  8
0
 62
    54
 48
4.0
100
AcDbBlockBegin
  2
*D76
 70
     1
 10
0.0
 20
0.0
 30
0.0
  3
*D76
  1

  0
LINE
  5
2789
330
2759
100
AcDbEntity
  8
0Wymiary-PL
 62
     1
370
    -2
100
AcDbLine
 10
70786.41955372355
 20
-6129.255902576944
 30
0.0
 11
71088.41955372358
 21
-6129.255902576944
 31
0.0
  0
INSERT
  5
278A
330
2759
100
AcDbEntity
  8
0Wymiary-PL
 62
     1
370
    -2
100
AcDbBlockReference
  2
B-DIM
 10
70756.41955372355
 20
-6129.255902576944
 30
0.0
 41
30.0
 42
30.0
 43
30.0
 50
180.0
  0
INSERT
  5
278B
330
2759
100
AcDbEntity
  8
0Wymiary-PL
 62
     1
370
    -2
100
AcDbBlockReference
  2
B-DIM
 10
71118.41955372358
 20
-6129.255902576944
 30
0.0
 41
30.0
 42
30.0
 43
30.0
  0
MTEXT
  5
278C
330
2759
100
AcDbEntity
  8
0Wymiary-PL
 62
   140
100
AcDbMText
 10
70937.41955372356
 20
-6049.255902576945
 30
0.0
 40
80.0
 41
0.0
 71
     5
 72
     1
  1
\A1;362
  7
ROMANS
 73
     1
 44
1.0
1001
ACAD
1000
MTEXTBEGIN
1070
    73
1070
     1
1070
    44
1040
1.0
1070
    74
1070
     0
1000
MTEXTEND
  0
POINT
  5
278D
330
2759
100
AcDbEntity
  8
Defpoints
 62
     0
100
AcDbPoint
 10
70756.41955372355
 20
-5339.255902576944
 30
0.0
  0
POINT
  5
278E
330
2759
100
AcDbEntity
  8
Defpoints
 62
     0
100
AcDbPoint
 10
71118.41955372358
 20
-5339.255902577002
 30
0.0
  0
POINT
  5
278F
330
2759
100
AcDbEntity
  8
Defpoints
 62
     0
100
AcDbPoint
 10
71118.41955372358
 20
-6129.255902576944
 30
0.0
  0
ENDBLK
  5
275B
330
2759
100
AcDbEntity
  8
0
 62
    54
 48
4.0
100
AcDbBlockEnd
  0
BLOCK
  5
2764
330
2763
100
AcDbEntity
  8
0
 62
    54
 48
4.0
100
AcDbBlockBegin
  2
*D77
 70
     1
 10
0.0
 20
0.0
 30
0.0
  3
*D77
  1

  0
LINE
  5
2790
330
2763
100
AcDbEntity
  8
0Wymiary-PL
 62
     1
370
    -2
100
AcDbLine
 10
71148.41955372355
 20
-6129.255902576944
 30
0.0
 11
71452.41955372354
 21
-6129.255902576944
 31
0.0
  0
INSERT
  5
2791
330
2763
100
AcDbEntity
  8
0Wymiary-PL
 62
     1
370
    -2
100
AcDbBlockReference
  2
B-DIM
 10
71118.41955372355
 20
-6129.255902576944
 30
0.0
 41
30.0
 42
30.0
 43
30.0
 50
180.0
  0
INSERT
  5
2792
330
2763
100
AcDbEntity
  8
0Wymiary-PL
 62
     1
370
    -2
100
AcDbBlockReference
  2
B-DIM
 10
71482.41955372355
 20
-6129.255902576944
 30
0.0
 41
30.0
 42
30.0
 43
30.0
  0
MTEXT
  5
2793
330
2763
100
AcDbEntity
  8
0Wymiary-PL
 62
   140
100
AcDbMText
 10
71300.41955372355
 20
-6049.255902576945
 30
0.0
 40
80.0
 41
0.0
 71
     5
 72
     1
  1
\A1;364
  7
ROMANS
 73
     1
 44
1.0
1001
ACAD
1000
MTEXTBEGIN
1070
    73
1070
     1
1070
    44
1040
1.0
1070
    74
1070
     0
1000
MTEXTEND
  0
POINT
  5
2794
330
2763
100
AcDbEntity
  8
Defpoints
 62
     0
100
AcDbPoint
 10
71118.41955372355
 20
-5729.255902576944
 30
0.0
  0
POINT
  5
2795
330
2763
100
AcDbEntity
  8
Defpoints
 62
     0
100
AcDbPoint
 10
71482.41955372355
 20
-5729.255902576944
 30
0.0
  0
POINT
  5
2796
330
2763
100
AcDbEntity
  8
Defpoints
 62
     0
100
AcDbPoint
 10
71482.41955372355
 20
-6129.255902576944
 30
0.0
  0
ENDBLK
  5
2765
330
2763
100
AcDbEntity
  8
0
 62
    54
 48
4.0
100
AcDbBlockEnd
  0
ENDSEC
  0
SECTION
  2
ENTITIES
  0
TEXT
  5
2501
330
2
100
AcDbEntity
  8
NAPISY
100
AcDbText
 10
69057.0716116171
 20
-12164.84774915273
 30
0.0
 40
100.0
  1
   O B R Y S   B U D Y N K U           S K A L A   1 : 5 0 0 
  7
AVA
100
AcDbText
  0
LWPOLYLINE
  5
2502
330
2
100
AcDbEntity
  8
RAMKI-A4
100
AcDbPolyline
 90
        4
 70
     1
 43
0.0
 10
67597.71966494211
 20
-12830.40383205526
 10
67597.71966494211
 20
1189.596167944735
 10
77797.71966494214
 20
1189.596167944735
 10
77797.71966494214
 20
-12830.40383205526
  0
TEXT
  5
2503
330
2
100
AcDbEntity
  8
NAPISY
100
AcDbText
 10
69153.28466273496
 20
298.5175117291656
 30
0.0
 40
150.0
  1
MOŻNA WKLEIĆ DO PROJEKTU ZAGOSPODAROWANIA TERENU
  7
AVA
100
AcDbText
  0
TEXT
  5
2505
330
2
100
AcDbEntity
  8
NAPISY
100
AcDbText
 10
69146.46209726361
 20
579.706114280023
 30
0.0
 40
150.0
  1
"DOM W KLEMATISACH  5(S)"
  7
AVA
100
AcDbText
  0
TEXT
  5
2520
330
2
100
AcDbEntity
  8
NAPISY
100
AcDbText
 10
72516.35086645761
 20
-9499.050969001705
 30
0.0
 40
100.0
  1
OŚ ODBICIA LUSTRZANEGO
 50
90.0
  7
AVA
100
AcDbText
  0
LINE
  5
2521
330
2
100
AcDbEntity
  8
NAPISY
  6
DASHED
 62
     1
 48
25.0
370
     5
100
AcDbLine
 10
72562.60645977831
 20
-2237.66588090481
 30
0.0
 11
72562.60645977831
 21
-9492.062563717642
 31
0.0
  0
HATCH
  5
2522
330
2
100
AcDbEntity
  8
0Hatch
100
AcDbHatch
 10
0.0
 20
0.0
 30
0.0
210
0.0
220
0.0
230
1.0
  2
SOLID
 70
     1
 71
     0
 91
        4
 92
        7
 72
     0
 73
     1
 93
        8
 10
74101.79336583304
 20
-4414.256605165996
 10
74368.79336583304
 20
-4414.256605165996
 10
74368.79336583304
 20
-5339.255902576944
 10
74126.79336583307
 20
-5339.255902576944
 10
74126.79336583307
 20
-5279.255902576944
 10
74308.79336583304
 20
-5279.255902576944
 10
74308.79336583301
 20
-4474.256605165996
 10
74101.79336583304
 20
-4474.256605165996
 97
        0
 92
        7
 72
     0
 73
     1
 93
        4
 10
73702.79336583304
 20
-4414.256605165996
 10
73935.79336583305
 20
-4414.256605165996
 10
73935.79336583305
 20
-4474.256605165996
 10
73702.79336583304
 20
-4474.256605165996
 97
        0
 92
        7
 72
     0
 73
     1
 93
        4
 10
73642.79336583307
 20
-4414.256605165996
 10
73702.79336583301
 20
-4414.256605165996
 10
73702.79336583304
 20
-5729.255902576886
 10
73642.79336583307
 20
-5729.255902576944
 97
        0
 92
        7
 72
     0
 73
     1
 93
        7
 10
73946.79336583307
 20
-5279.255902576944
 10
74026.79336583307
 20
-5279.255902576944
 10
74026.7933658331
 20
-5339.255902576944
 10
74006.79336583307
 20
-5339.255902576944
 10
74006.7933658331
 20
-5729.255902576944
 10
73946.7933658331
 20
-5729.255902576944
 10
73946.79336583307
 20
-5669.255902576944
 97
        0
 75
     0
 76
     1
 47
4.597927802793703
 98
        4
 10
74221.87662571955
 20
-4454.181742023662
 10
73849.2347452893
 20
-4449.583807350936
 10
73660.61357385122
 20
-4803.624219531878
 10
73964.24770683572
 20
-5580.674063984115
1001
ACAD
1010
0.0
1020
0.0
1030
0.0
  0
LWPOLYLINE
  5
2523
330
2
100
AcDbEntity
  8
0Hatch
100
AcDbPolyline
 90
        6
 70
     0
 43
0.0
 10
73642.79336583305
 20
-4414.256605165996
 10
74368.79336583304
 20
-4414.256605165996
 10
74368.79336583307
 20
-5339.255902576944
 10
74006.79336583304
 20
-5339.255902576944
 10
74006.79336583307
 20
-5729.255902576944
 10
73642.79336583305
 20
-5729.255902576944
  0
LWPOLYLINE
  5
2524
330
2
100
AcDbEntity
  8
0Hatch
100
AcDbPolyline
 90
        6
 70
     0
 43
0.0
 10
73702.79336583304
 20
-4474.256605165996
 10
74308.79336583304
 20
-4474.256605165996
 10
74308.79336583307
 20
-5279.255902576944
 10
73946.79336583304
 20
-5279.255902576944
 10
73946.79336583307
 20
-5669.255902576944
 10
73702.79336583304
 20
-5669.255902576944
  0
LINE
  5
2525
330
2
100
AcDbEntity
  8
0Hatch
100
AcDbLine
 10
73946.79336583307
 20
-5669.255902576944
 30
0.0
 11
73946.79336583307
 21
-5729.261560065308
 31
0.0
  0
LINE
  5
2526
330
2
100
AcDbEntity
  8
0Hatch
100
AcDbLine
 10
74101.79336583304
 20
-4474.256605165996
 30
0.0
 11
74101.79336583304
 21
-4414.256605165996
 31
0.0
  0
LINE
  5
2527
330
2
100
AcDbEntity
  8
0Hatch
100
AcDbLine
 10
73935.79336583305
 20
-4474.256605165996
 30
0.0
 11
73935.79336583305
 21
-4414.256605165996
 31
0.0
  0
LINE
  5
2528
330
2
100
AcDbEntity
  8
0Hatch
100
AcDbLine
 10
74126.79336583307
 20
-5279.255902576944
 30
0.0
 11
74126.79336583307
 21
-5339.255902576944
 31
0.0
  0
LINE
  5
2529
330
2
100
AcDbEntity
  8
0Hatch
100
AcDbLine
 10
74026.79336583307
 20
-5279.255902576944
 30
0.0
 11
74026.79336583307
 21
-5339.255902576944
 31
0.0
  0
DIMENSION
  5
252A
330
2
100
AcDbEntity
  8
-widok
  6
Continuous
370
     5
100
AcDbDimension
  2
*D62
 10
73642.79336583305
 20
-6329.255902576944
 30
0.0
 11
74005.79336583306
 21
-6249.255902576944
 31
0.0
 70
    32
 71
     5
 42
726.0000000000291
  3
500
100
AcDbAlignedDimension
 13
74368.79336583307
 23
-5339.255902576944
 33
0.0
 14
73642.79336583305
 24
-5729.255902576944
 34
0.0
 50
180.0
100
AcDbRotatedDimension
  0
DIMENSION
  5
252B
330
2
100
AcDbEntity
  8
0Wymiary-PL
100
AcDbDimension
  2
*D63
 10
74568.79336583307
 20
-5339.255902576944
 30
0.0
 11
74488.79336583307
 21
-4876.756253871459
 31
0.0
 70
    32
 71
     5
 42
924.9992974109481
  3
500
100
AcDbAlignedDimension
 13
74368.79336583304
 23
-4414.256605165996
 33
0.0
 14
74026.7933658331
 24
-5339.255902576944
 34
0.0
 50
90.0
100
AcDbRotatedDimension
  0
DIMENSION
  5
252C
330
2
100
AcDbEntity
  8
0Wymiary-PL
100
AcDbDimension
  2
*D64
 10
74568.79336583307
 20
-5729.255902577002
 30
0.0
 11
74488.79336583307
 21
-5534.255902576962
 31
0.0
 70
    32
 71
     5
 42
390.0000000000582
  3
500
100
AcDbAlignedDimension
 13
74026.7933658331
 23
-5339.255902576944
 33
0.0
 14
73642.79336583307
 24
-5729.255902577002
 34
0.0
 50
90.0
100
AcDbRotatedDimension
  0
DIMENSION
  5
252D
330
2
100
AcDbEntity
  8
0Wymiary-PL
100
AcDbDimension
  2
*D65
 10
74768.79336583307
 20
-4414.256605165996
 30
0.0
 11
74688.79336583307
 21
-5071.756253871487
 31
0.0
 70
    32
 71
     5
 42
1314.999297411006
  3
500
100
AcDbAlignedDimension
 13
73642.79336583307
 23
-5729.255902577002
 33
0.0
 14
74368.79336583304
 24
-4414.256605165996
 34
0.0
 50
90.0
100
AcDbRotatedDimension
  0
LINE
  5
252E
330
2
100
AcDbEntity
  8
0Hatch
100
AcDbLine
 10
73642.79336583305
 20
-5729.255902576944
 30
0.0
 11
73642.79336583305
 21
-4414.256605165996
 31
0.0
  0
LINE
  5
252F
330
2
100
AcDbEntity
  8
0Hatch
100
AcDbLine
 10
73702.79336583304
 20
-5729.255902576944
 30
0.0
 11
73702.79336583304
 21
-4414.256605165996
 31
0.0
  0
DIMENSION
  5
2530
330
2
100
AcDbEntity
  8
0Wymiary-PL
100
AcDbDimension
  2
*D66
 10
74006.79336583304
 20
-6129.255902576944
 30
0.0
 11
74187.79336583305
 21
-6049.255902576945
 31
0.0
 70
    32
 71
     5
 42
362.0000000000291
  3
500
100
AcDbAlignedDimension
 13
74368.79336583307
 23
-5339.255902576944
 33
0.0
 14
74006.79336583304
 24
-5339.255902577002
 34
0.0
 50
180.0
100
AcDbRotatedDimension
  0
DIMENSION
  5
2531
330
2
100
AcDbEntity
  8
0Wymiary-PL
100
AcDbDimension
  2
*D67
 10
73642.79336583307
 20
-6129.255902576944
 30
0.0
 11
73824.79336583307
 21
-6049.255902576945
 31
0.0
 70
    32
 71
     5
 42
364.0
  3
500
100
AcDbAlignedDimension
 13
74006.79336583307
 23
-5729.255902576944
 33
0.0
 14
73642.79336583307
 24
-5729.255902576944
 34
0.0
 50
180.0
100
AcDbRotatedDimension
  0
LINE
  5
2532
330
2
100
AcDbEntity
  8
0Hatch
100
AcDbLine
 10
73640.79336583304
 20
-5729.255902576944
 30
0.0
 11
73640.79336583304
 21
-4414.256605165996
 31
0.0
  0
LINE
  5
269B
330
2
100
AcDbEntity
  8
teren-mały$0$A-MassElement-G
100
AcDbLine
 10
74038.29102702907
 20
-4234.256605166042
 30
0.0
 11
74038.29102702907
 21
-4034.254194410518
 31
0.0
  0
LINE
  5
269C
330
2
100
AcDbEntity
  8
teren-mały$0$A-MassElement-G
100
AcDbLine
 10
74038.29102702907
 20
-4034.256605166033
 30
0.0
 11
74373.2910270291
 21
-4034.25660516602
 31
0.0
  0
LINE
  5
269D
330
2
100
AcDbEntity
  8
teren-mały$0$A-MassElement-G
  6
Continuous
 62
   210
370
    -3
100
AcDbLine
 10
74006.7933658331
 20
-5928.244530854086
 30
0.0
 11
73641.79336583308
 21
-5928.244530854087
 31
0.0
  0
LINE
  5
269E
330
2
100
AcDbEntity
  8
teren-mały$0$A-MassElement-G
  6
Continuous
 62
   210
370
    -3
100
AcDbLine
 10
74006.7933658331
 20
-5928.244530854086
 30
0.0
 11
74006.7933658331
 21
-5729.255902576941
 31
0.0
  0
LINE
  5
269F
330
2
100
AcDbEntity
  8
teren-mały$0$A-MassElement-G
  6
Continuous
 62
   210
370
    -3
100
AcDbLine
 10
74006.7933658331
 20
-5809.25590257694
 30
0.0
 11
73641.79336583308
 21
-5809.255902576943
 31
0.0
  0
LINE
  5
26A0
330
2
100
AcDbEntity
  8
teren-mały$0$A-MassElement-G
  6
Continuous
 62
   210
370
    -3
100
AcDbLine
 10
74038.29102702907
 20
-4199.256605166029
 30
0.0
 11
73641.79336583308
 21
-4199.256605166019
 31
0.0
  0
LINE
  5
26A1
330
2
100
AcDbEntity
  8
teren-mały$0$A-MassElement-G
  6
Continuous
 62
   210
370
    -3
100
AcDbLine
 10
74367.79336583307
 20
-4094.256605166021
 30
0.0
 11
74038.29102702907
 21
-4094.256605166036
 31
0.0
  0
LINE
  5
26A2
330
2
100
AcDbEntity
  8
teren-mały$0$A-MassElement-G
  6
Continuous
 62
   210
370
    -3
100
AcDbLine
 10
74038.29102702911
 20
-4234.256605166017
 30
0.0
 11
74038.29102702907
 21
-4094.256605166035
 31
0.0
  0
LINE
  5
26A3
330
2
100
AcDbEntity
  8
teren-mały$0$A-MassElement-G
  6
Continuous
 62
   210
370
    -3
100
AcDbLine
 10
74038.29102702911
 20
-4234.256605166017
 30
0.0
 11
73706.79102702913
 21
-4234.256605166034
 31
0.0
  0
LINE
  5
26A4
330
2
100
AcDbEntity
  8
teren-mały$0$A-MassElement-G
  6
Continuous
 62
   210
370
    -3
100
AcDbLine
 10
73706.79102702913
 20
-4414.256605166035
 30
0.0
 11
73706.79102702914
 21
-4199.256605166021
 31
0.0
  0
LINE
  5
26A5
330
2
100
AcDbEntity
  8
teren-mały$0$A-MassElement-G
  6
Continuous
 62
   210
370
    -3
100
AcDbLine
 10
74006.7933658331
 20
-5928.244530854086
 30
0.0
 11
73824.29336583308
 21
-5809.255902576942
 31
0.0
  0
LINE
  5
26A6
330
2
100
AcDbEntity
  8
teren-mały$0$A-MassElement-G
  6
Continuous
 62
   210
370
    -3
100
AcDbLine
 10
73824.29336583308
 20
-5809.255902576942
 30
0.0
 11
73642.7933658331
 21
-5928.244530854087
 31
0.0
  0
LINE
  5
26A7
330
2
100
AcDbEntity
  8
teren-mały$0$A-MassElement-G
  6
Continuous
 62
   210
370
    -3
100
AcDbLine
 10
73642.7933658331
 20
-5729.255902576943
 30
0.0
 11
73642.7933658331
 21
-5928.244530854087
 31
0.0
  0
LINE
  5
26A8
330
2
100
AcDbEntity
  8
teren-mały$0$A-MassElement-G
  6
Continuous
 62
   210
370
    -3
100
AcDbLine
 10
73641.79336583308
 20
-4199.256605166019
 30
0.0
 11
73641.79336583308
 21
-4414.256605166023
 31
0.0
  0
LINE
  5
26A9
330
2
100
AcDbEntity
  8
Teren1$0$A-MassElement-G
100
AcDbLine
 10
74373.29102702912
 20
-4034.254194410507
 30
0.0
 11
74373.29102702912
 21
-4414.254194410513
 31
0.0
  0
LINE
  5
26AA
330
2
100
AcDbEntity
  8
A-MassElement-G
  6
Continuous
 62
   210
370
    -3
100
AcDbLine
 10
73642.76915756042
 20
-4350.264540504077
 30
0.0
 11
73642.76915756042
 21
-4370.264540504076
 31
0.0
  0
LINE
  5
26AB
330
2
100
AcDbEntity
  8
A-MassElement-G
  6
Continuous
 62
   210
370
    -3
100
AcDbLine
 10
73640.76915756043
 20
-4370.264540504076
 30
0.0
 11
73640.76915756043
 21
-4350.264540504077
 31
0.0
  0
LINE
  5
26AC
330
2
100
AcDbEntity
  8
A-MassElement-G
  6
Continuous
 62
   210
370
    -3
100
AcDbLine
 10
73640.76915756043
 20
-4350.264540504077
 30
0.0
 11
73642.76915756042
 21
-4350.264540504077
 31
0.0
  0
LINE
  5
26AD
330
2
100
AcDbEntity
  8
A-MassElement-G
  6
Continuous
 62
   210
370
    -3
100
AcDbLine
 10
73647.79156731698
 20
-4226.267816152041
 30
0.0
 11
73647.79156731698
 21
-4214.26781615204
 31
0.0
  0
LINE
  5
26AE
330
2
100
AcDbEntity
  8
A-MassElement-G
  6
Continuous
 62
   210
370
    -3
100
AcDbLine
 10
73647.79156731698
 20
-4214.26781615204
 30
0.0
 11
73635.79156731698
 21
-4214.26781615204
 31
0.0
  0
LINE
  5
26AF
330
2
100
AcDbEntity
  8
A-MassElement-G
  6
Continuous
 62
   210
370
    -3
100
AcDbLine
 10
73635.79156731698
 20
-4214.26781615204
 30
0.0
 11
73635.79156731698
 21
-4226.267816152041
 31
0.0
  0
LINE
  5
26B0
330
2
100
AcDbEntity
  8
A-MassElement-G
  6
Continuous
 62
   210
370
    -3
100
AcDbLine
 10
73635.79156731698
 20
-4226.267816152041
 30
0.0
 11
73647.79156731698
 21
-4226.267816152041
 31
0.0
  0
LINE
  5
26B1
330
2
100
AcDbEntity
  8
A-MassElement-G
  6
Continuous
 62
   210
370
    -3
100
AcDbLine
 10
73642.76915756042
 20
-4326.264540504076
 30
0.0
 11
73642.76915756042
 21
-4346.264540504076
 31
0.0
  0
LINE
  5
26B2
330
2
100
AcDbEntity
  8
A-MassElement-G
  6
Continuous
 62
   210
370
    -3
100
AcDbLine
 10
73642.76915756042
 20
-4346.264540504076
 30
0.0
 11
73640.76915756043
 21
-4346.264540504076
 31
0.0
  0
LINE
  5
26B3
330
2
100
AcDbEntity
  8
A-MassElement-G
  6
Continuous
 62
   210
370
    -3
100
AcDbLine
 10
73640.76915756043
 20
-4346.264540504076
 30
0.0
 11
73640.76915756043
 21
-4326.264540504076
 31
0.0
  0
LINE
  5
26B4
330
2
100
AcDbEntity
  8
A-MassElement-G
  6
Continuous
 62
   210
370
    -3
100
AcDbLine
 10
73640.76915756043
 20
-4326.264540504076
 30
0.0
 11
73642.76915756042
 21
-4326.264540504076
 31
0.0
  0
LINE
  5
26B5
330
2
100
AcDbEntity
  8
A-MassElement-G
  6
Continuous
 62
   210
370
    -3
100
AcDbLine
 10
73642.76915756042
 20
-4302.264540504077
 30
0.0
 11
73642.76915756042
 21
-4322.264540504076
 31
0.0
  0
LINE
  5
26B6
330
2
100
AcDbEntity
  8
A-MassElement-G
  6
Continuous
 62
   210
370
    -3
100
AcDbLine
 10
73642.76915756042
 20
-4322.264540504076
 30
0.0
 11
73640.76915756043
 21
-4322.264540504076
 31
0.0
  0
LINE
  5
26B7
330
2
100
AcDbEntity
  8
A-MassElement-G
  6
Continuous
 62
   210
370
    -3
100
AcDbLine
 10
73640.76915756043
 20
-4322.264540504076
 30
0.0
 11
73640.76915756043
 21
-4302.264540504077
 31
0.0
  0
LINE
  5
26B8
330
2
100
AcDbEntity
  8
A-MassElement-G
  6
Continuous
 62
   210
370
    -3
100
AcDbLine
 10
73640.76915756043
 20
-4302.264540504077
 30
0.0
 11
73642.76915756042
 21
-4302.264540504077
 31
0.0
  0
LINE
  5
26B9
330
2
100
AcDbEntity
  8
A-MassElement-G
  6
Continuous
 62
   210
370
    -3
100
AcDbLine
 10
73642.76915756042
 20
-4278.264540504077
 30
0.0
 11
73642.76915756042
 21
-4298.264540504077
 31
0.0
  0
LINE
  5
26BA
330
2
100
AcDbEntity
  8
A-MassElement-G
  6
Continuous
 62
   210
370
    -3
100
AcDbLine
 10
73642.76915756042
 20
-4298.264540504077
 30
0.0
 11
73640.76915756043
 21
-4298.264540504077
 31
0.0
  0
LINE
  5
26BB
330
2
100
AcDbEntity
  8
A-MassElement-G
  6
Continuous
 62
   210
370
    -3
100
AcDbLine
 10
73640.76915756043
 20
-4298.264540504077
 30
0.0
 11
73640.76915756043
 21
-4278.264540504077
 31
0.0
  0
LINE
  5
26BC
330
2
100
AcDbEntity
  8
A-MassElement-G
  6
Continuous
 62
   210
370
    -3
100
AcDbLine
 10
73640.76915756043
 20
-4278.264540504077
 30
0.0
 11
73642.76915756042
 21
-4278.264540504077
 31
0.0
  0
LINE
  5
26BD
330
2
100
AcDbEntity
  8
A-MassElement-G
  6
Continuous
 62
   210
370
    -3
100
AcDbLine
 10
73642.76915756042
 20
-4254.264540504077
 30
0.0
 11
73642.76915756042
 21
-4274.264540504076
 31
0.0
  0
LINE
  5
26BE
330
2
100
AcDbEntity
  8
A-MassElement-G
  6
Continuous
 62
   210
370
    -3
100
AcDbLine
 10
73642.76915756042
 20
-4274.264540504076
 30
0.0
 11
73640.76915756043
 21
-4274.264540504076
 31
0.0
  0
LINE
  5
26BF
330
2
100
AcDbEntity
  8
A-MassElement-G
  6
Continuous
 62
   210
370
    -3
100
AcDbLine
 10
73640.76915756043
 20
-4274.264540504076
 30
0.0
 11
73640.76915756043
 21
-4254.264540504077
 31
0.0
  0
LINE
  5
26C0
330
2
100
AcDbEntity
  8
A-MassElement-G
  6
Continuous
 62
   210
370
    -3
100
AcDbLine
 10
73640.76915756043
 20
-4254.264540504077
 30
0.0
 11
73642.76915756042
 21
-4254.264540504077
 31
0.0
  0
LINE
  5
26C1
330
2
100
AcDbEntity
  8
A-MassElement-G
  6
Continuous
 62
   210
370
    -3
100
AcDbLine
 10
73642.76915756042
 20
-4230.264540504077
 30
0.0
 11
73642.76915756042
 21
-4250.264540504076
 31
0.0
  0
LINE
  5
26C2
330
2
100
AcDbEntity
  8
A-MassElement-G
  6
Continuous
 62
   210
370
    -3
100
AcDbLine
 10
73642.76915756042
 20
-4250.264540504076
 30
0.0
 11
73640.76915756043
 21
-4250.264540504076
 31
0.0
  0
LINE
  5
26C3
330
2
100
AcDbEntity
  8
A-MassElement-G
  6
Continuous
 62
   210
370
    -3
100
AcDbLine
 10
73640.76915756043
 20
-4250.264540504076
 30
0.0
 11
73640.76915756043
 21
-4230.264540504077
 31
0.0
  0
LINE
  5
26C4
330
2
100
AcDbEntity
  8
A-MassElement-G
  6
Continuous
 62
   210
370
    -3
100
AcDbLine
 10
73640.76915756043
 20
-4230.264540504077
 30
0.0
 11
73642.76915756042
 21
-4230.264540504077
 31
0.0
  0
HATCH
  5
26F6
330
2
100
AcDbEntity
  8
0Hatch
100
AcDbHatch
 10
0.0
 20
0.0
 30
0.0
210
0.0
220
0.0
230
1.0
  2
SOLID
 70
     1
 71
     0
 91
        4
 92
        7
 72
     0
 73
     1
 93
        8
 10
71023.41955372358
 20
-4414.256605165996
 10
70756.41955372358
 20
-4414.256605165996
 10
70756.41955372358
 20
-5339.255902576944
 10
70998.41955372355
 20
-5339.255902576944
 10
70998.41955372355
 20
-5279.255902576944
 10
70816.41955372358
 20
-5279.255902576944
 10
70816.41955372361
 20
-4474.256605165996
 10
71023.41955372358
 20
-4474.256605165996
 97
        0
 92
        7
 72
     0
 73
     1
 93
        4
 10
71422.41955372358
 20
-4414.256605165996
 10
71189.41955372358
 20
-4414.256605165996
 10
71189.41955372358
 20
-4474.256605165996
 10
71422.41955372358
 20
-4474.256605165996
 97
        0
 92
        7
 72
     0
 73
     1
 93
        4
 10
71482.41955372355
 20
-4414.256605165996
 10
71422.41955372361
 20
-4414.256605165996
 10
71422.41955372358
 20
-5729.255902576886
 10
71482.41955372355
 20
-5729.255902576944
 97
        0
 92
        7
 72
     0
 73
     1
 93
        7
 10
71178.41955372355
 20
-5279.255902576944
 10
71098.41955372355
 20
-5279.255902576944
 10
71098.41955372352
 20
-5339.255902576944
 10
71118.41955372355
 20
-5339.255902576944
 10
71118.41955372352
 20
-5729.255902576944
 10
71178.41955372352
 20
-5729.255902576944
 10
71178.41955372355
 20
-5669.255902576944
 97
        0
 75
     0
 76
     1
 47
4.597927802793703
 98
        4
 10
70903.33629383707
 20
-4454.181742023662
 10
71275.97817426732
 20
-4449.583807350936
 10
71464.5993457054
 20
-4803.624219531878
 10
71160.9652127209
 20
-5580.674063984115
1001
ACAD
1010
0.0
1020
0.0
1030
0.0
  0
LWPOLYLINE
  5
26F7
330
2
100
AcDbEntity
  8
0Hatch
100
AcDbPolyline
 90
        6
 70
     0
 43
0.0
 10
71482.41955372358
 20
-4414.256605165996
 10
70756.41955372358
 20
-4414.256605165996
 10
70756.41955372355
 20
-5339.255902576944
 10
71118.41955372358
 20
-5339.255902576944
 10
71118.41955372355
 20
-5729.255902576944
 10
71482.41955372358
 20
-5729.255902576944
  0
LWPOLYLINE
  5
26F8
330
2
100
AcDbEntity
  8
0Hatch
100
AcDbPolyline
 90
        6
 70
     0
 43
0.0
 10
71422.41955372358
 20
-4474.256605165996
 10
70816.41955372358
 20
-4474.256605165996
 10
70816.41955372355
 20
-5279.255902576944
 10
71178.41955372358
 20
-5279.255902576944
 10
71178.41955372355
 20
-5669.255902576944
 10
71422.41955372358
 20
-5669.255902576944
  0
LINE
  5
26F9
330
2
100
AcDbEntity
  8
0Hatch
100
AcDbLine
 10
71178.41955372355
 20
-5669.255902576944
 30
0.0
 11
71178.41955372355
 21
-5729.261560065308
 31
0.0
  0
LINE
  5
26FA
330
2
100
AcDbEntity
  8
0Hatch
100
AcDbLine
 10
71023.41955372358
 20
-4474.256605165996
 30
0.0
 11
71023.41955372358
 21
-4414.256605165996
 31
0.0
  0
LINE
  5
26FB
330
2
100
AcDbEntity
  8
0Hatch
100
AcDbLine
 10
71189.41955372358
 20
-4474.256605165996
 30
0.0
 11
71189.41955372358
 21
-4414.256605165996
 31
0.0
  0
LINE
  5
26FC
330
2
100
AcDbEntity
  8
0Hatch
100
AcDbLine
 10
70998.41955372355
 20
-5279.255902576944
 30
0.0
 11
70998.41955372355
 21
-5339.255902576944
 31
0.0
  0
LINE
  5
26FD
330
2
100
AcDbEntity
  8
0Hatch
100
AcDbLine
 10
71098.41955372355
 20
-5279.255902576944
 30
0.0
 11
71098.41955372355
 21
-5339.255902576944
 31
0.0
  0
DIMENSION
  5
26FE
330
2
100
AcDbEntity
  8
-widok
  6
Continuous
370
     5
100
AcDbDimension
  2
*D72
 10
71482.41955372358
 20
-6329.255902576944
 30
0.0
 11
71119.41955372357
 21
-6249.255902576944
 31
0.0
 70
    32
 71
     5
 42
726.0000000000291
  3
500
100
AcDbAlignedDimension
 13
70756.41955372355
 23
-5339.255902576944
 33
0.0
 14
71482.41955372358
 24
-5729.255902576944
 34
0.0
 50
0.000000000000007
100
AcDbRotatedDimension
  0
DIMENSION
  5
26FF
330
2
100
AcDbEntity
  8
0Wymiary-PL
100
AcDbDimension
  2
*D73
 10
70556.41955372355
 20
-5339.255902576944
 30
0.0
 11
70476.41955372355
 21
-4876.756253871459
 31
0.0
 70
    32
 71
     5
 42
924.9992974109481
  3
500
100
AcDbAlignedDimension
 13
70756.41955372358
 23
-4414.256605165996
 33
0.0
 14
71098.41955372352
 24
-5339.255902576944
 34
0.0
 50
90.0
100
AcDbRotatedDimension
  0
DIMENSION
  5
2700
330
2
100
AcDbEntity
  8
0Wymiary-PL
100
AcDbDimension
  2
*D74
 10
70556.41955372355
 20
-5729.255902577002
 30
0.0
 11
70476.41955372355
 21
-5534.255902576962
 31
0.0
 70
    32
 71
     5
 42
390.0000000000582
  3
500
100
AcDbAlignedDimension
 13
71098.41955372352
 23
-5339.255902576944
 33
0.0
 14
71482.41955372355
 24
-5729.255902577002
 34
0.0
 50
90.0
100
AcDbRotatedDimension
  0
DIMENSION
  5
2701
330
2
100
AcDbEntity
  8
0Wymiary-PL
100
AcDbDimension
  2
*D75
 10
70356.41955372355
 20
-4414.256605165996
 30
0.0
 11
70276.41955372355
 21
-5071.756253871488
 31
0.0
 70
    32
 71
     5
 42
1314.999297411006
  3
500
100
AcDbAlignedDimension
 13
71482.41955372355
 23
-5729.255902577002
 33
0.0
 14
70756.41955372358
 24
-4414.256605165996
 34
0.0
 50
90.0
100
AcDbRotatedDimension
  0
LINE
  5
2702
330
2
100
AcDbEntity
  8
0Hatch
100
AcDbLine
 10
71482.41955372358
 20
-5729.255902576944
 30
0.0
 11
71482.41955372358
 21
-4414.256605165996
 31
0.0
  0
LINE
  5
2703
330
2
100
AcDbEntity
  8
0Hatch
100
AcDbLine
 10
71422.41955372358
 20
-5729.255902576944
 30
0.0
 11
71422.41955372358
 21
-4414.256605165996
 31
0.0
  0
DIMENSION
  5
2704
330
2
100
AcDbEntity
  8
0Wymiary-PL
100
AcDbDimension
  2
*D76
 10
71118.41955372358
 20
-6129.255902576944
 30
0.0
 11
70937.41955372356
 21
-6049.255902576945
 31
0.0
 70
    32
 71
     5
 42
362.0000000000291
  3
500
100
AcDbAlignedDimension
 13
70756.41955372355
 23
-5339.255902576944
 33
0.0
 14
71118.41955372358
 24
-5339.255902577002
 34
0.0
 50
0.000000000000007
100
AcDbRotatedDimension
  0
DIMENSION
  5
2705
330
2
100
AcDbEntity
  8
0Wymiary-PL
100
AcDbDimension
  2
*D77
 10
71482.41955372355
 20
-6129.255902576944
 30
0.0
 11
71300.41955372355
 21
-6049.255902576945
 31
0.0
 70
    32
 71
     5
 42
364.0
  3
500
100
AcDbAlignedDimension
 13
71118.41955372355
 23
-5729.255902576944
 33
0.0
 14
71482.41955372355
 24
-5729.255902576944
 34
0.0
 50
0.000000000000007
100
AcDbRotatedDimension
  0
LINE
  5
2706
330
2
100
AcDbEntity
  8
0Hatch
100
AcDbLine
 10
71484.41955372358
 20
-5729.255902576944
 30
0.0
 11
71484.41955372358
 21
-4414.256605165996
 31
0.0
  0
LINE
  5
2707
330
2
100
AcDbEntity
  8
teren-mały$0$A-MassElement-G
100
AcDbLine
 10
71086.92189252755
 20
-4234.256605166042
 30
0.0
 11
71086.92189252755
 21
-4034.254194410518
 31
0.0
  0
LINE
  5
2708
330
2
100
AcDbEntity
  8
teren-mały$0$A-MassElement-G
100
AcDbLine
 10
71086.92189252755
 20
-4034.256605166033
 30
0.0
 11
70751.92189252752
 21
-4034.25660516602
 31
0.0
  0
LINE
  5
2709
330
2
100
AcDbEntity
  8
teren-mały$0$A-MassElement-G
  6
Continuous
 62
   210
370
    -3
100
AcDbLine
 10
71118.41955372352
 20
-5928.244530854086
 30
0.0
 11
71483.41955372353
 21
-5928.244530854087
 31
0.0
  0
LINE
  5
270A
330
2
100
AcDbEntity
  8
teren-mały$0$A-MassElement-G
  6
Continuous
 62
   210
370
    -3
100
AcDbLine
 10
71118.41955372352
 20
-5928.244530854086
 30
0.0
 11
71118.41955372352
 21
-5729.255902576941
 31
0.0
  0
LINE
  5
270B
330
2
100
AcDbEntity
  8
teren-mały$0$A-MassElement-G
  6
Continuous
 62
   210
370
    -3
100
AcDbLine
 10
71118.41955372352
 20
-5809.25590257694
 30
0.0
 11
71483.41955372353
 21
-5809.255902576943
 31
0.0
  0
LINE
  5
270C
330
2
100
AcDbEntity
  8
teren-mały$0$A-MassElement-G
  6
Continuous
 62
   210
370
    -3
100
AcDbLine
 10
71086.92189252755
 20
-4199.256605166029
 30
0.0
 11
71483.41955372353
 21
-4199.256605166019
 31
0.0
  0
LINE
  5
270D
330
2
100
AcDbEntity
  8
teren-mały$0$A-MassElement-G
  6
Continuous
 62
   210
370
    -3
100
AcDbLine
 10
70757.41955372355
 20
-4094.256605166021
 30
0.0
 11
71086.92189252755
 21
-4094.256605166036
 31
0.0
  0
LINE
  5
270E
330
2
100
AcDbEntity
  8
teren-mały$0$A-MassElement-G
  6
Continuous
 62
   210
370
    -3
100
AcDbLine
 10
71086.92189252752
 20
-4234.256605166017
 30
0.0
 11
71086.92189252755
 21
-4094.256605166035
 31
0.0
  0
LINE
  5
270F
330
2
100
AcDbEntity
  8
teren-mały$0$A-MassElement-G
  6
Continuous
 62
   210
370
    -3
100
AcDbLine
 10
71086.92189252752
 20
-4234.256605166017
 30
0.0
 11
71418.42189252749
 21
-4234.256605166034
 31
0.0
  0
LINE
  5
2710
330
2
100
AcDbEntity
  8
teren-mały$0$A-MassElement-G
  6
Continuous
 62
   210
370
    -3
100
AcDbLine
 10
71418.42189252749
 20
-4414.256605166035
 30
0.0
 11
71418.42189252748
 21
-4199.256605166021
 31
0.0
  0
LINE
  5
2711
330
2
100
AcDbEntity
  8
teren-mały$0$A-MassElement-G
  6
Continuous
 62
   210
370
    -3
100
AcDbLine
 10
71118.41955372352
 20
-5928.244530854086
 30
0.0
 11
71300.91955372353
 21
-5809.255902576942
 31
0.0
  0
LINE
  5
2712
330
2
100
AcDbEntity
  8
teren-mały$0$A-MassElement-G
  6
Continuous
 62
   210
370
    -3
100
AcDbLine
 10
71300.91955372353
 20
-5809.255902576942
 30
0.0
 11
71482.41955372352
 21
-5928.244530854087
 31
0.0
  0
LINE
  5
2713
330
2
100
AcDbEntity
  8
teren-mały$0$A-MassElement-G
  6
Continuous
 62
   210
370
    -3
100
AcDbLine
 10
71482.41955372352
 20
-5729.255902576943
 30
0.0
 11
71482.41955372352
 21
-5928.244530854087
 31
0.0
  0
LINE
  5
2714
330
2
100
AcDbEntity
  8
teren-mały$0$A-MassElement-G
  6
Continuous
 62
   210
370
    -3
100
AcDbLine
 10
71483.41955372353
 20
-4199.256605166019
 30
0.0
 11
71483.41955372353
 21
-4414.256605166023
 31
0.0
  0
LINE
  5
2715
330
2
100
AcDbEntity
  8
Teren1$0$A-MassElement-G
100
AcDbLine
 10
70751.9218925275
 20
-4034.254194410507
 30
0.0
 11
70751.9218925275
 21
-4414.254194410513
 31
0.0
  0
LINE
  5
2716
330
2
100
AcDbEntity
  8
A-MassElement-G
  6
Continuous
 62
   210
370
    -3
100
AcDbLine
 10
71482.44376199619
 20
-4350.264540504077
 30
0.0
 11
71482.44376199619
 21
-4370.264540504076
 31
0.0
  0
LINE
  5
2717
330
2
100
AcDbEntity
  8
A-MassElement-G
  6
Continuous
 62
   210
370
    -3
100
AcDbLine
 10
71484.4437619962
 20
-4370.264540504076
 30
0.0
 11
71484.4437619962
 21
-4350.264540504077
 31
0.0
  0
LINE
  5
2718
330
2
100
AcDbEntity
  8
A-MassElement-G
  6
Continuous
 62
   210
370
    -3
100
AcDbLine
 10
71484.4437619962
 20
-4350.264540504077
 30
0.0
 11
71482.44376199619
 21
-4350.264540504077
 31
0.0
  0
LINE
  5
2719
330
2
100
AcDbEntity
  8
A-MassElement-G
  6
Continuous
 62
   210
370
    -3
100
AcDbLine
 10
71477.42135223964
 20
-4226.267816152041
 30
0.0
 11
71477.42135223964
 21
-4214.26781615204
 31
0.0
  0
LINE
  5
271A
330
2
100
AcDbEntity
  8
A-MassElement-G
  6
Continuous
 62
   210
370
    -3
100
AcDbLine
 10
71477.42135223964
 20
-4214.26781615204
 30
0.0
 11
71489.42135223965
 21
-4214.26781615204
 31
0.0
  0
LINE
  5
271B
330
2
100
AcDbEntity
  8
A-MassElement-G
  6
Continuous
 62
   210
370
    -3
100
AcDbLine
 10
71489.42135223965
 20
-4214.26781615204
 30
0.0
 11
71489.42135223965
 21
-4226.267816152041
 31
0.0
  0
LINE
  5
271C
330
2
100
AcDbEntity
  8
A-MassElement-G
  6
Continuous
 62
   210
370
    -3
100
AcDbLine
 10
71489.42135223965
 20
-4226.267816152041
 30
0.0
 11
71477.42135223964
 21
-4226.267816152041
 31
0.0
  0
LINE
  5
271D
330
2
100
AcDbEntity
  8
A-MassElement-G
  6
Continuous
 62
   210
370
    -3
100
AcDbLine
 10
71482.44376199619
 20
-4326.264540504076
 30
0.0
 11
71482.44376199619
 21
-4346.264540504076
 31
0.0
  0
LINE
  5
271E
330
2
100
AcDbEntity
  8
A-MassElement-G
  6
Continuous
 62
   210
370
    -3
100
AcDbLine
 10
71482.44376199619
 20
-4346.264540504076
 30
0.0
 11
71484.4437619962
 21
-4346.264540504076
 31
0.0
  0
LINE
  5
271F
330
2
100
AcDbEntity
  8
A-MassElement-G
  6
Continuous
 62
   210
370
    -3
100
AcDbLine
 10
71484.4437619962
 20
-4346.264540504076
 30
0.0
 11
71484.4437619962
 21
-4326.264540504076
 31
0.0
  0
LINE
  5
2720
330
2
100
AcDbEntity
  8
A-MassElement-G
  6
Continuous
 62
   210
370
    -3
100
AcDbLine
 10
71484.4437619962
 20
-4326.264540504076
 30
0.0
 11
71482.44376199619
 21
-4326.264540504076
 31
0.0
  0
LINE
  5
2721
330
2
100
AcDbEntity
  8
A-MassElement-G
  6
Continuous
 62
   210
370
    -3
100
AcDbLine
 10
71482.44376199619
 20
-4302.264540504077
 30
0.0
 11
71482.44376199619
 21
-4322.264540504076
 31
0.0
  0
LINE
  5
2722
330
2
100
AcDbEntity
  8
A-MassElement-G
  6
Continuous
 62
   210
370
    -3
100
AcDbLine
 10
71482.44376199619
 20
-4322.264540504076
 30
0.0
 11
71484.4437619962
 21
-4322.264540504076
 31
0.0
  0
LINE
  5
2723
330
2
100
AcDbEntity
  8
A-MassElement-G
  6
Continuous
 62
   210
370
    -3
100
AcDbLine
 10
71484.4437619962
 20
-4322.264540504076
 30
0.0
 11
71484.4437619962
 21
-4302.264540504077
 31
0.0
  0
LINE
  5
2724
330
2
100
AcDbEntity
  8
A-MassElement-G
  6
Continuous
 62
   210
370
    -3
100
AcDbLine
 10
71484.4437619962
 20
-4302.264540504077
 30
0.0
 11
71482.44376199619
 21
-4302.264540504077
 31
0.0
  0
LINE
  5
2725
330
2
100
AcDbEntity
  8
A-MassElement-G
  6
Continuous
 62
   210
370
    -3
100
AcDbLine
 10
71482.44376199619
 20
-4278.264540504077
 30
0.0
 11
71482.44376199619
 21
-4298.264540504077
 31
0.0
  0
LINE
  5
2726
330
2
100
AcDbEntity
  8
A-MassElement-G
  6
Continuous
 62
   210
370
    -3
100
AcDbLine
 10
71482.44376199619
 20
-4298.264540504077
 30
0.0
 11
71484.4437619962
 21
-4298.264540504077
 31
0.0
  0
LINE
  5
2727
330
2
100
AcDbEntity
  8
A-MassElement-G
  6
Continuous
 62
   210
370
    -3
100
AcDbLine
 10
71484.4437619962
 20
-4298.264540504077
 30
0.0
 11
71484.4437619962
 21
-4278.264540504077
 31
0.0
  0
LINE
  5
2728
330
2
100
AcDbEntity
  8
A-MassElement-G
  6
Continuous
 62
   210
370
    -3
100
AcDbLine
 10
71484.4437619962
 20
-4278.264540504077
 30
0.0
 11
71482.44376199619
 21
-4278.264540504077
 31
0.0
  0
LINE
  5
2729
330
2
100
AcDbEntity
  8
A-MassElement-G
  6
Continuous
 62
   210
370
    -3
100
AcDbLine
 10
71482.44376199619
 20
-4254.264540504077
 30
0.0
 11
71482.44376199619
 21
-4274.264540504076
 31
0.0
  0
LINE
  5
272A
330
2
100
AcDbEntity
  8
A-MassElement-G
  6
Continuous
 62
   210
370
    -3
100
AcDbLine
 10
71482.44376199619
 20
-4274.264540504076
 30
0.0
 11
71484.4437619962
 21
-4274.264540504076
 31
0.0
  0
LINE
  5
272B
330
2
100
AcDbEntity
  8
A-MassElement-G
  6
Continuous
 62
   210
370
    -3
100
AcDbLine
 10
71484.4437619962
 20
-4274.264540504076
 30
0.0
 11
71484.4437619962
 21
-4254.264540504077
 31
0.0
  0
LINE
  5
272C
330
2
100
AcDbEntity
  8
A-MassElement-G
  6
Continuous
 62
   210
370
    -3
100
AcDbLine
 10
71484.4437619962
 20
-4254.264540504077
 30
0.0
 11
71482.44376199619
 21
-4254.264540504077
 31
0.0
  0
LINE
  5
272D
330
2
100
AcDbEntity
  8
A-MassElement-G
  6
Continuous
 62
   210
370
    -3
100
AcDbLine
 10
71482.44376199619
 20
-4230.264540504077
 30
0.0
 11
71482.44376199619
 21
-4250.264540504076
 31
0.0
  0
LINE
  5
272E
330
2
100
AcDbEntity
  8
A-MassElement-G
  6
Continuous
 62
   210
370
    -3
100
AcDbLine
 10
71482.44376199619
 20
-4250.264540504076
 30
0.0
 11
71484.4437619962
 21
-4250.264540504076
 31
0.0
  0
LINE
  5
272F
330
2
100
AcDbEntity
  8
A-MassElement-G
  6
Continuous
 62
   210
370
    -3
100
AcDbLine
 10
71484.4437619962
 20
-4250.264540504076
 30
0.0
 11
71484.4437619962
 21
-4230.264540504077
 31
0.0
  0
LINE
  5
2730
330
2
100
AcDbEntity
  8
A-MassElement-G
  6
Continuous
 62
   210
370
    -3
100
AcDbLine
 10
71484.4437619962
 20
-4230.264540504077
 30
0.0
 11
71482.44376199619
 21
-4230.264540504077
 31
0.0
  0
ENDSEC
  0
SECTION
  2
OBJECTS
  0
DICTIONARY
  5
B
330
0
100
AcDbDictionary
281
     1
  3
ACAD_COLOR
350
53
  3
ACAD_GROUP
350
4E
  3
ACAD_LAYOUT
350
12
  3
ACAD_MATERIAL
350
D
  3
ACAD_MLEADERSTYLE
350
7A8
  3
ACAD_MLINESTYLE
350
4F
  3
ACAD_PLOTSETTINGS
350
50
  3
ACAD_PLOTSTYLENAME
350
A
  3
ACAD_SCALELIST
350
54
  3
ACAD_TABLESTYLE
350
55
  3
ACAD_VISUALSTYLE
350
15
  3
ACDB_RECOMPOSE_DATA
350
794
  3
AcDbVariableDictionary
350
795
  3
AEC_PROPERTY_SET_DEFS
350
952
  3
DWGPROPS
350
279F
  0
DICTIONARY
  5
1E
330
1D
100
AcDbDictionary
280
     1
281
     1
  3
ACAD_LAYERSTATES
360
1F
  0
DICTIONARY
  5
7
330
6
100
AcDbDictionary
280
     1
281
     1
  3
ADSK_XREC_LAYER_RECONCILED
360
8
  0
DICTIONARY
  5
75
330
74
100
AcDbDictionary
280
     1
281
     1
  3
ADSK_XREC_LAYER_RECONCILED
360
76
  0
DICTIONARY
  5
57
330
56
100
AcDbDictionary
280
     1
281
     1
  3
ADSK_XREC_LAYER_RECONCILED
360
58
  0
DICTIONARY
  5
3A4
330
3A3
100
AcDbDictionary
280
     1
281
     1
  3
ADSK_XREC_LAYER_RECONCILED
360
3A5
  0
DICTIONARY
  5
7F
330
7E
100
AcDbDictionary
280
     1
281
     1
  3
ADSK_XREC_LAYER_RECONCILED
360
80
  0
DICTIONARY
  5
3
330
2
100
AcDbDictionary
280
     1
281
     1
  3
ACAD_SORTENTS
360
790
  0
DICTIONARY
  5
30
330
2F
100
AcDbDictionary
280
     1
281
     1
  3
ACAD_SORTENTS
360
78F
  0
DICTIONARY
  5
53
102
{ACAD_REACTORS
330
B
102
}
330
B
100
AcDbDictionary
281
     1
  0
DICTIONARY
  5
4E
102
{ACAD_REACTORS
330
B
102
}
330
B
100
AcDbDictionary
281
     1
  0
DICTIONARY
  5
12
102
{ACAD_REACTORS
330
B
102
}
330
B
100
AcDbDictionary
281
     1
  3
Layout1
350
1943
  3
Model
350
11
  0
DICTIONARY
  5
D
102
{ACAD_REACTORS
330
B
102
}
330
B
100
AcDbDictionary
281
     1
  3
ByBlock
350
52
  3
ByLayer
350
51
  3
Global
350
C
  0
DICTIONARY
  5
7A8
102
{ACAD_REACTORS
330
B
102
}
330
B
100
AcDbDictionary
281
     1
  0
DICTIONARY
  5
4F
102
{ACAD_REACTORS
330
B
102
}
330
B
100
AcDbDictionary
281
     1
  3
STANDARD
350
59
  0
DICTIONARY
  5
50
102
{ACAD_REACTORS
330
B
102
}
330
B
100
AcDbDictionary
281
     1
  0
ACDBDICTIONARYWDFLT
  5
A
102
{ACAD_REACTORS
330
B
102
}
330
B
100
AcDbDictionary
281
     1
  3
Normal
350
9
100
AcDbDictionaryWithDefault
340
9
  0
DICTIONARY
  5
54
102
{ACAD_REACTORS
330
B
102
}
330
B
100
AcDbDictionary
281
     1
  3
*A1
350
85B
  3
*A10
350
87C
  3
*A100
350
22D3
  3
*A101
350
22D4
  3
*A102
350
22D5
  3
*A103
350
22D6
  3
*A104
350
22D7
  3
*A105
350
22D8
  3
*A106
350
22D9
  3
*A107
350
22DA
  3
*A108
350
22DB
  3
*A109
350
22DC
  3
*A11
350
87D
  3
*A110
350
22DD
  3
*A111
350
22DE
  3
*A112
350
22DF
  3
*A113
350
22E0
  3
*A114
350
22E1
  3
*A115
350
22E2
  3
*A116
350
22E3
  3
*A117
350
22E4
  3
*A118
350
22E5
  3
*A119
350
22E6
  3
*A12
350
1331
  3
*A120
350
22E7
  3
*A121
350
22E8
  3
*A122
350
22E9
  3
*A123
350
22EA
  3
*A124
350
22EB
  3
*A125
350
22EC
  3
*A126
350
22ED
  3
*A127
350
22EE
  3
*A128
350
22EF
  3
*A129
350
22F0
  3
*A13
350
865
  3
*A130
350
22F1
  3
*A131
350
22F2
  3
*A132
350
22F3
  3
*A133
350
22F4
  3
*A134
350
22F5
  3
*A135
350
22F6
  3
*A136
350
22F7
  3
*A137
350
22F8
  3
*A138
350
22F9
  3
*A139
350
22FA
  3
*A14
350
860
  3
*A140
350
22FB
  3
*A141
350
22FC
  3
*A142
350
22FD
  3
*A143
350
22FE
  3
*A144
350
22FF
  3
*A145
350
2300
  3
*A146
350
2301
  3
*A147
350
2302
  3
*A148
350
2303
  3
*A149
350
2304
  3
*A15
350
862
  3
*A150
350
2305
  3
*A151
350
2306
  3
*A152
350
2307
  3
*A153
350
2308
  3
*A154
350
2309
  3
*A155
350
230A
  3
*A156
350
230B
  3
*A157
350
230C
  3
*A158
350
230D
  3
*A159
350
230E
  3
*A16
350
132D
  3
*A160
350
230F
  3
*A161
350
2310
  3
*A162
350
2311
  3
*A163
350
2312
  3
*A164
350
2313
  3
*A165
350
2314
  3
*A166
350
2315
  3
*A167
350
2316
  3
*A168
350
2317
  3
*A169
350
2318
  3
*A17
350
87E
  3
*A170
350
2319
  3
*A171
350
231A
  3
*A172
350
231B
  3
*A173
350
231C
  3
*A174
350
231D
  3
*A175
350
231E
  3
*A176
350
231F
  3
*A177
350
2320
  3
*A178
350
2321
  3
*A179
350
2322
  3
*A18
350
168F
  3
*A180
350
2323
  3
*A181
350
2324
  3
*A182
350
2325
  3
*A183
350
2326
  3
*A184
350
2327
  3
*A185
350
2328
  3
*A186
350
2329
  3
*A187
350
232A
  3
*A188
350
232B
  3
*A189
350
232C
  3
*A19
350
1690
  3
*A190
350
232D
  3
*A191
350
232E
  3
*A192
350
232F
  3
*A193
350
2330
  3
*A194
350
2331
  3
*A195
350
2332
  3
*A196
350
2333
  3
*A197
350
2334
  3
*A198
350
2335
  3
*A199
350
2336
  3
*A2
350
1335
  3
*A20
350
1691
  3
*A200
350
2337
  3
*A201
350
2338
  3
*A202
350
2339
  3
*A203
350
233A
  3
*A204
350
233B
  3
*A205
350
233C
  3
*A206
350
233D
  3
*A207
350
233E
  3
*A208
350
233F
  3
*A209
350
2340
  3
*A21
350
868
  3
*A210
350
2341
  3
*A211
350
2342
  3
*A212
350
2343
  3
*A213
350
2344
  3
*A214
350
2345
  3
*A215
350
2346
  3
*A216
350
2347
  3
*A217
350
2348
  3
*A218
350
2349
  3
*A219
350
234A
  3
*A22
350
86A
  3
*A220
350
234B
  3
*A221
350
234C
  3
*A222
350
234D
  3
*A223
350
234E
  3
*A224
350
234F
  3
*A225
350
2350
  3
*A226
350
2351
  3
*A227
350
2352
  3
*A228
350
2353
  3
*A229
350
2354
  3
*A23
350
1332
  3
*A230
350
2355
  3
*A231
350
2356
  3
*A232
350
2357
  3
*A233
350
2358
  3
*A234
350
2359
  3
*A235
350
235A
  3
*A236
350
235B
  3
*A237
350
235C
  3
*A238
350
235D
  3
*A239
350
235E
  3
*A24
350
1692
  3
*A240
350
235F
  3
*A241
350
2360
  3
*A242
350
2361
  3
*A243
350
2362
  3
*A244
350
2363
  3
*A245
350
2364
  3
*A246
350
2365
  3
*A247
350
2366
  3
*A248
350
2367
  3
*A249
350
2368
  3
*A25
350
1693
  3
*A250
350
2369
  3
*A251
350
236A
  3
*A252
350
236B
  3
*A253
350
236C
  3
*A254
350
236D
  3
*A255
350
236E
  3
*A256
350
236F
  3
*A257
350
2370
  3
*A258
350
2371
  3
*A259
350
2372
  3
*A26
350
85E
  3
*A260
350
2373
  3
*A261
350
2374
  3
*A262
350
2375
  3
*A263
350
2376
  3
*A264
350
2377
  3
*A265
350
2378
  3
*A266
350
2379
  3
*A267
350
237A
  3
*A268
350
237B
  3
*A269
350
237C
  3
*A27
350
1694
  3
*A270
350
237D
  3
*A271
350
237E
  3
*A272
350
237F
  3
*A273
350
2380
  3
*A274
350
2381
  3
*A275
350
2382
  3
*A276
350
2383
  3
*A277
350
2384
  3
*A278
350
2385
  3
*A279
350
2386
  3
*A28
350
86F
  3
*A280
350
2387
  3
*A281
350
2388
  3
*A282
350
2389
  3
*A283
350
238A
  3
*A284
350
238B
  3
*A285
350
238C
  3
*A286
350
238D
  3
*A287
350
238E
  3
*A288
350
238F
  3
*A289
350
2390
  3
*A29
350
871
  3
*A290
350
2391
  3
*A291
350
2392
  3
*A292
350
2393
  3
*A293
350
2394
  3
*A294
350
2395
  3
*A295
350
2396
  3
*A296
350
2397
  3
*A297
350
2398
  3
*A298
350
2399
  3
*A299
350
239A
  3
*A3
350
1336
  3
*A30
350
1695
  3
*A300
350
239B
  3
*A301
350
239C
  3
*A302
350
239D
  3
*A303
350
239E
  3
*A304
350
239F
  3
*A305
350
23A0
  3
*A306
350
23A1
  3
*A307
350
23A2
  3
*A308
350
23A3
  3
*A309
350
23A4
  3
*A31
350
882
  3
*A310
350
23A5
  3
*A311
350
23A6
  3
*A312
350
23A7
  3
*A313
350
23A8
  3
*A314
350
23A9
  3
*A315
350
23AA
  3
*A316
350
23AB
  3
*A317
350
23AC
  3
*A318
350
23AD
  3
*A319
350
23AE
  3
*A32
350
866
  3
*A320
350
23AF
  3
*A321
350
23B0
  3
*A322
350
23B1
  3
*A323
350
23B2
  3
*A324
350
23B3
  3
*A325
350
23B4
  3
*A326
350
23B5
  3
*A327
350
23B6
  3
*A328
350
23B7
  3
*A329
350
23B8
  3
*A33
350
86D
  3
*A330
350
23B9
  3
*A331
350
23BA
  3
*A332
350
23BB
  3
*A333
350
23BC
  3
*A334
350
23BD
  3
*A335
350
23BE
  3
*A336
350
23BF
  3
*A337
350
23C0
  3
*A338
350
23C1
  3
*A339
350
23C2
  3
*A34
350
876
  3
*A340
350
23C3
  3
*A341
350
23C4
  3
*A342
350
23C5
  3
*A343
350
23C6
  3
*A344
350
23C7
  3
*A345
350
23C8
  3
*A346
350
23C9
  3
*A347
350
23CA
  3
*A348
350
23CB
  3
*A349
350
23CC
  3
*A35
350
85D
  3
*A350
350
23CD
  3
*A351
350
23CE
  3
*A352
350
23CF
  3
*A353
350
23D0
  3
*A354
350
23D1
  3
*A355
350
23D2
  3
*A356
350
23D3
  3
*A357
350
23D4
  3
*A358
350
23D5
  3
*A359
350
23D6
  3
*A36
350
85F
  3
*A360
350
23D7
  3
*A361
350
23D8
  3
*A362
350
23D9
  3
*A363
350
23DA
  3
*A364
350
23DB
  3
*A365
350
23DC
  3
*A366
350
23DD
  3
*A367
350
23DE
  3
*A368
350
23DF
  3
*A369
350
23E0
  3
*A37
350
863
  3
*A370
350
23E1
  3
*A371
350
23E2
  3
*A372
350
23E3
  3
*A373
350
23E4
  3
*A374
350
23E5
  3
*A375
350
23E6
  3
*A376
350
23E7
  3
*A377
350
23E8
  3
*A378
350
23E9
  3
*A379
350
23EA
  3
*A38
350
85C
  3
*A380
350
23EB
  3
*A381
350
23EC
  3
*A382
350
23ED
  3
*A383
350
23EE
  3
*A384
350
23EF
  3
*A385
350
23F0
  3
*A386
350
23F1
  3
*A387
350
23F2
  3
*A388
350
23F3
  3
*A389
350
23F4
  3
*A39
350
874
  3
*A390
350
23F5
  3
*A391
350
23F6
  3
*A392
350
23F7
  3
*A393
350
23F8
  3
*A394
350
23F9
  3
*A395
350
23FA
  3
*A396
350
23FB
  3
*A397
350
23FC
  3
*A398
350
23FD
  3
*A399
350
23FE
  3
*A4
350
132C
  3
*A40
350
132E
  3
*A400
350
23FF
  3
*A401
350
2400
  3
*A402
350
2401
  3
*A403
350
2402
  3
*A404
350
2403
  3
*A405
350
2404
  3
*A406
350
2405
  3
*A407
350
2406
  3
*A408
350
2407
  3
*A409
350
2408
  3
*A41
350
867
  3
*A410
350
2409
  3
*A411
350
240A
  3
*A412
350
240B
  3
*A413
350
240C
  3
*A414
350
240D
  3
*A415
350
240E
  3
*A416
350
240F
  3
*A417
350
2410
  3
*A418
350
2411
  3
*A419
350
2412
  3
*A42
350
1A1C
  3
*A420
350
2413
  3
*A421
350
2414
  3
*A422
350
2415
  3
*A423
350
2416
  3
*A424
350
2417
  3
*A425
350
2418
  3
*A426
350
2419
  3
*A427
350
241A
  3
*A428
350
241B
  3
*A429
350
241C
  3
*A43
350
864
  3
*A430
350
241D
  3
*A431
350
241E
  3
*A432
350
241F
  3
*A433
350
2420
  3
*A434
350
2421
  3
*A435
350
2422
  3
*A436
350
2423
  3
*A437
350
2424
  3
*A438
350
2425
  3
*A439
350
2426
  3
*A44
350
1A1D
  3
*A440
350
2427
  3
*A441
350
2428
  3
*A442
350
2429
  3
*A443
350
242A
  3
*A444
350
242B
  3
*A445
350
242C
  3
*A446
350
242D
  3
*A447
350
242E
  3
*A448
350
242F
  3
*A449
350
2430
  3
*A45
350
1333
  3
*A450
350
2431
  3
*A451
350
2432
  3
*A452
350
2433
  3
*A453
350
2434
  3
*A454
350
2435
  3
*A455
350
2436
  3
*A456
350
2437
  3
*A457
350
2438
  3
*A458
350
2439
  3
*A459
350
243A
  3
*A46
350
1A1E
  3
*A460
350
243B
  3
*A461
350
243C
  3
*A462
350
243D
  3
*A463
350
243E
  3
*A464
350
243F
  3
*A465
350
2440
  3
*A466
350
2441
  3
*A467
350
2442
  3
*A468
350
2443
  3
*A469
350
2444
  3
*A47
350
1A1F
  3
*A470
350
2445
  3
*A471
350
2446
  3
*A472
350
2447
  3
*A473
350
2448
  3
*A474
350
2449
  3
*A475
350
244A
  3
*A476
350
244B
  3
*A477
350
244C
  3
*A478
350
244D
  3
*A479
350
244E
  3
*A48
350
86C
  3
*A480
350
244F
  3
*A481
350
2450
  3
*A482
350
2451
  3
*A483
350
2452
  3
*A484
350
2453
  3
*A485
350
2454
  3
*A486
350
2455
  3
*A487
350
2456
  3
*A488
350
2457
  3
*A489
350
2458
  3
*A49
350
1A20
  3
*A490
350
2459
  3
*A491
350
245A
  3
*A492
350
245B
  3
*A493
350
245C
  3
*A494
350
245D
  3
*A495
350
245E
  3
*A496
350
245F
  3
*A497
350
2460
  3
*A498
350
2461
  3
*A499
350
2462
  3
*A5
350
1337
  3
*A50
350
1A21
  3
*A500
350
2463
  3
*A501
350
2464
  3
*A502
350
2465
  3
*A503
350
2466
  3
*A504
350
2467
  3
*A505
350
2468
  3
*A506
350
2469
  3
*A507
350
246A
  3
*A508
350
246B
  3
*A509
350
246C
  3
*A51
350
1A22
  3
*A510
350
246D
  3
*A511
350
246E
  3
*A512
350
246F
  3
*A513
350
2470
  3
*A514
350
2471
  3
*A515
350
2472
  3
*A516
350
2473
  3
*A517
350
2474
  3
*A518
350
2475
  3
*A519
350
2476
  3
*A52
350
873
  3
*A520
350
2477
  3
*A521
350
2478
  3
*A522
350
2479
  3
*A523
350
247A
  3
*A524
350
247B
  3
*A525
350
247C
  3
*A526
350
247D
  3
*A527
350
247E
  3
*A528
350
247F
  3
*A529
350
2480
  3
*A53
350
86B
  3
*A530
350
2481
  3
*A531
350
2482
  3
*A532
350
2483
  3
*A533
350
2484
  3
*A534
350
2485
  3
*A535
350
2486
  3
*A536
350
2487
  3
*A537
350
2488
  3
*A538
350
2489
  3
*A539
350
248A
  3
*A54
350
87A
  3
*A540
350
248B
  3
*A541
350
248C
  3
*A542
350
248D
  3
*A543
350
248E
  3
*A544
350
248F
  3
*A545
350
2490
  3
*A546
350
2491
  3
*A547
350
2492
  3
*A548
350
2493
  3
*A549
350
2494
  3
*A55
350
86E
  3
*A550
350
2495
  3
*A551
350
2496
  3
*A552
350
2497
  3
*A553
350
2498
  3
*A554
350
2499
  3
*A555
350
249A
  3
*A556
350
249B
  3
*A557
350
249C
  3
*A558
350
249D
  3
*A559
350
249E
  3
*A56
350
879
  3
*A560
350
249F
  3
*A561
350
24A0
  3
*A562
350
24A1
  3
*A563
350
24A2
  3
*A564
350
24A3
  3
*A565
350
24A4
  3
*A566
350
24A5
  3
*A567
350
24A6
  3
*A568
350
24A7
  3
*A569
350
24A8
  3
*A57
350
872
  3
*A570
350
24A9
  3
*A571
350
24AA
  3
*A572
350
24AB
  3
*A573
350
24AC
  3
*A574
350
24AD
  3
*A575
350
24AE
  3
*A576
350
24AF
  3
*A577
350
24B0
  3
*A578
350
24B1
  3
*A579
350
24B2
  3
*A58
350
880
  3
*A580
350
24B3
  3
*A581
350
24B4
  3
*A582
350
24B5
  3
*A583
350
24B6
  3
*A584
350
24B7
  3
*A585
350
24B8
  3
*A586
350
24B9
  3
*A587
350
24BA
  3
*A588
350
24BB
  3
*A589
350
24BC
  3
*A59
350
875
  3
*A590
350
24BD
  3
*A591
350
24BE
  3
*A592
350
24BF
  3
*A6
350
87F
  3
*A60
350
1D01
  3
*A61
350
878
  3
*A62
350
1D02
  3
*A63
350
1D03
  3
*A64
350
132F
  3
*A65
350
1D04
  3
*A66
350
1D05
  3
*A67
350
87B
  3
*A68
350
1D06
  3
*A69
350
1D07
  3
*A7
350
881
  3
*A70
350
861
  3
*A71
350
132B
  3
*A72
350
869
  3
*A73
350
1330
  3
*A74
350
2021
  3
*A75
350
2022
  3
*A76
350
2023
  3
*A77
350
2024
  3
*A78
350
870
  3
*A79
350
2025
  3
*A8
350
877
  3
*A80
350
2026
  3
*A81
350
2027
  3
*A82
350
2028
  3
*A83
350
2029
  3
*A84
350
202A
  3
*A85
350
202B
  3
*A86
350
202C
  3
*A87
350
202D
  3
*A88
350
202E
  3
*A89
350
1334
  3
*A9
350
1338
  3
*A90
350
202F
  3
*A91
350
22CA
  3
*A92
350
22CB
  3
*A93
350
22CC
  3
*A94
350
22CD
  3
*A95
350
22CE
  3
*A96
350
22CF
  3
*A97
350
22D0
  3
*A98
350
22D1
  3
*A99
350
22D2
  3
A0
350
5E
  3
A1
350
5F
  3
A2
350
60
  3
A3
350
61
  3
A4
350
62
  3
A5
350
63
  3
A6
350
64
  3
A7
350
65
  3
A8
350
66
  3
A9
350
67
  3
B0
350
68
  3
B1
350
69
  3
B2
350
6A
  3
B3
350
6B
  3
B4
350
6C
  3
B5
350
6D
  3
B6
350
6E
  3
B7
350
6F
  3
B8
350
70
  3
B9
350
71
  3
C0
350
72
  0
DICTIONARY
  5
55
102
{ACAD_REACTORS
330
B
102
}
330
B
100
AcDbDictionary
281
     1
  3
Standard
350
5A
  0
DICTIONARY
  5
15
102
{ACAD_REACTORS
330
B
102
}
330
B
100
AcDbDictionary
281
     1
  3
2dWireframe
350
14
  3
3D Hidden
350
7A0
  3
3dWireframe
350
5D
  3
Basic
350
79F
  3
Brighten
350
7A3
  3
ColorChange
350
7A7
  3
Conceptual
350
7A1
  3
Dim
350
7A2
  3
Facepattern
350
7A6
  3
Flat
350
79B
  3
FlatWithEdges
350
79C
  3
Gouraud
350
79D
  3
GouraudWithEdges
350
79E
  3
Linepattern
350
7A5
  3
Phong
350
7B1
  3
PhongWithEdges
350
7B2
  3
Realistic
350
5C
  3
Thicken
350
7A4
  0
XRECORD
  5
794
102
{ACAD_REACTORS
330
B
102
}
330
B
100
AcDbXrecord
280
     1
 90
        1
330
5A
  0
DICTIONARY
  5
795
102
{ACAD_REACTORS
330
B
102
}
330
B
100
AcDbDictionary
281
     1
  3
CANNOSCALE
350
798
  3
CMLEADERSTYLE
350
797
  3
CTABLESTYLE
350
796
  3
DIMASSOC
350
279D
  3
HIDETEXT
350
279C
  3
INDEXCTL
350
279B
  3
LIGHTINGUNITS
350
799
  3
MSLTSCALE
350
2799
  3
SORTENTS
350
279A
  0
DICTIONARY
  5
952
102
{ACAD_REACTORS
330
B
102
}
330
B
100
AcDbDictionary
281
     1
  0
XRECORD
  5
279F
102
{ACAD_REACTORS
330
B
102
}
330
B
100
AcDbXrecord
280
     1
  1
DWGPROPS COOKIE
  2

  3

  4

  6

  7

  8
beata.rzonca
  9

300
=
301
=
302
=
303
=
304
=
305
=
306
=
307
=
308
=
309
=
 40
21.75370053240741
 41
2450817.525937848
 42
2454979.519771586
  1

 90
        0
  0
DICTIONARY
  5
1F
102
{ACAD_REACTORS
330
1E
102
}
330
1E
100
AcDbDictionary
281
     1
  0
XRECORD
  5
8
102
{ACAD_REACTORS
330
7
102
}
330
7
100
AcDbXrecord
280
     1
290
     1
  0
XRECORD
  5
76
102
{ACAD_REACTORS
330
75
102
}
330
75
100
AcDbXrecord
280
     1
290
     1
  0
XRECORD
  5
58
102
{ACAD_REACTORS
330
57
102
}
330
57
100
AcDbXrecord
280
     1
290
     1
  0
XRECORD
  5
3A5
102
{ACAD_REACTORS
330
3A4
102
}
330
3A4
100
AcDbXrecord
280
     1
290
     1
  0
XRECORD
  5
80
102
{ACAD_REACTORS
330
7F
102
}
330
7F
100
AcDbXrecord
280
     1
290
     1
  0
SORTENTSTABLE
  5
790
102
{ACAD_REACTORS
330
3
102
}
330
3
100
AcDbSortentsTable
330
2
331
26B7
  5
26B7
331
26BF
  5
26BF
331
252A
  5
252A
331
2532
  5
2532
331
2503
  5
2503
331
26A0
  5
26A0
331
26A8
  5
26A8
331
2523
  5
2523
331
26B0
  5
26B0
331
26B8
  5
26B8
331
26C0
  5
26C0
331
252B
  5
252B
331
26A1
  5
26A1
331
26A9
  5
26A9
331
2524
  5
2524
331
26B1
  5
26B1
331
26B9
  5
26B9
331
26C1
  5
26C1
331
252C
  5
252C
331
2505
  5
2505
331
26A2
  5
26A2
331
26AA
  5
26AA
331
2525
  5
2525
331
26B2
  5
26B2
331
26BA
  5
26BA
331
26C2
  5
26C2
331
252D
  5
252D
331
269B
  5
269B
331
26A3
  5
26A3
331
26AB
  5
26AB
331
2526
  5
2526
331
26B3
  5
26B3
331
26BB
  5
26BB
331
26C3
  5
26C3
331
252E
  5
252E
331
269C
  5
269C
331
26A4
  5
26A4
331
26AC
  5
26AC
331
2527
  5
2527
331
26B4
  5
26B4
331
26BC
  5
26BC
331
26C4
  5
26C4
331
252F
  5
252F
331
269D
  5
269D
331
26A5
  5
26A5
331
26AD
  5
26AD
331
2520
  5
2520
331
26B5
  5
26B5
331
26BD
  5
26BD
331
2528
  5
2528
331
2530
  5
2530
331
2501
  5
2501
331
269E
  5
269E
331
26A6
  5
26A6
331
26AE
  5
26AE
331
2521
  5
2521
331
26B6
  5
26B6
331
26BE
  5
26BE
331
2529
  5
2529
331
2531
  5
2531
331
2502
  5
2502
331
269F
  5
269F
331
26A7
  5
26A7
331
26AF
  5
26AF
331
2522
  5
2522
  0
SORTENTSTABLE
  5
78F
102
{ACAD_REACTORS
330
30
102
}
330
30
100
AcDbSortentsTable
330
2F
  0
LAYOUT
  5
1943
102
{ACAD_XDICTIONARY
360
27A9
102
}
102
{ACAD_REACTORS
330
12
102
}
330
12
100
AcDbPlotSettings
  1

  2
CutePDF Writer
  4

  6

 40
0.0
 41
0.0
 42
0.0
 43
0.0
 44
0.0
 45
0.0
 46
0.0
 47
0.0
 48
0.0
 49
0.0
140
0.0
141
0.0
142
1.0
143
1.0
 70
   688
 72
     0
 73
     0
 74
     5
  7

 75
    16
147
1.0
148
0.0
149
0.0
100
AcDbLayout
  1
Layout1
 70
     1
 71
     1
 10
0.0
 20
0.0
 11
12.0
 21
9.0
 12
0.0
 22
0.0
 32
0.0
 14
0.0
 24
0.0
 34
0.0
 15
0.0
 25
0.0
 35
0.0
146
0.0
 13
0.0
 23
0.0
 33
0.0
 16
1.0
 26
0.0
 36
0.0
 17
0.0
 27
1.0
 37
0.0
 76
     0
330
1942
  0
LAYOUT
  5
11
102
{ACAD_XDICTIONARY
360
27A2
102
}
102
{ACAD_REACTORS
330
12
102
}
330
12
100
AcDbPlotSettings
  1

  2
RICOH Aficio AP610N PCL 5e
  4
A4
  6
10-ele
 40
6.805083274841308
 41
5.027085781097412
 42
6.974411010742187
 43
5.027069091796875
 44
209.9733276367187
 45
296.9259948730469
 46
-3.903083324432671
 47
3.235920000076276
 48
67057.75918130524
 49
-45526.33714755503
140
77257.75918130527
141
-31506.33714755504
142
1.0
143
50.0
 70
 11940
 72
     1
 73
     0
 74
     4
  7
monochrome_140.ctb
 75
     0
147
0.0192346895442289
148
-67057.75918130524
149
45526.33714755503
100
AcDbLayout
  1
Model
 70
     1
 71
     0
 10
0.0
 20
0.0
 11
12.0
 21
9.0
 12
0.0
 22
0.0
 32
0.0
 14
0.0
 24
0.0
 34
0.0
 15
0.0
 25
0.0
 35
0.0
146
0.0
 13
0.0
 23
0.0
 33
0.0
 16
1.0
 26
0.0
 36
0.0
 17
0.0
 27
1.0
 37
0.0
 76
     0
330
2
331
29
1001
ACAD_PSEXT
1000
RICOH Aficio AP610N PCL 5e
1000
RICOH Aficio AP610N PCL 5e
1000
IP_192.168.0.252_tech
1000

1070
     0
  0
MATERIAL
  5
52
102
{ACAD_XDICTIONARY
360
27A6
102
}
102
{ACAD_REACTORS
330
D
102
}
330
D
100
AcDbMaterial
  1
ByBlock
 73
     1
 78
     1
172
     1
176
     1
270
     1
274
     1
  0
MATERIAL
  5
51
102
{ACAD_XDICTIONARY
360
27A4
102
}
102
{ACAD_REACTORS
330
D
102
}
330
D
100
AcDbMaterial
  1
ByLayer
 73
     1
 78
     1
172
     1
176
     1
270
     1
274
     1
  0
MATERIAL
  5
C
102
{ACAD_XDICTIONARY
360
27A0
102
}
102
{ACAD_REACTORS
330
D
102
}
330
D
100
AcDbMaterial
  1
Global
 73
     1
 78
     1
172
     1
176
     1
270
     1
274
     1
  0
MLINESTYLE
  5
59
102
{ACAD_REACTORS
330
4F
102
}
330
4F
100
AcDbMlineStyle
  2
STANDARD
 70
     0
  3

 62
     0
 51
90.0
 52
90.0
 71
     2
 49
0.5
 62
   256
  6
BYLAYER
 49
-0.5
 62
   256
  6
BYLAYER
  0
ACDBPLACEHOLDER
  5
9
102
{ACAD_REACTORS
330
A
102
}
330
A
  0
SCALE
  5
85B
102
{ACAD_REACTORS
330
54
102
}
330
54
100
AcDbScale
 70
     0
300
1:1_2
140
1.0
141
1.0
290
     0
  0
SCALE
  5
87C
102
{ACAD_REACTORS
330
54
102
}
330
54
100
AcDbScale
 70
     0
300
1/2" = 1'-0"
140
0.5
141
12.0
290
     0
  0
SCALE
  5
22D3
102
{ACAD_REACTORS
330
54
102
}
330
54
100
AcDbScale
 70
     0
300
1:10_18
140
1.0
141
10.0
290
     0
  0
SCALE
  5
22D4
102
{ACAD_REACTORS
330
54
102
}
330
54
100
AcDbScale
 70
     0
300
1:100_1_11
140
1.0
141
100.0
290
     0
  0
SCALE
  5
22D5
102
{ACAD_REACTORS
330
54
102
}
330
54
100
AcDbScale
 70
     0
300
1:20_18
140
1.0
141
20.0
290
     0
  0
SCALE
  5
22D6
102
{ACAD_REACTORS
330
54
102
}
330
54
100
AcDbScale
 70
     0
300
1:1_1_3
140
1.0
141
1.0
290
     0
  0
SCALE
  5
22D7
102
{ACAD_REACTORS
330
54
102
}
330
54
100
AcDbScale
 70
     0
300
1:50_18
140
1.0
141
50.0
290
     0
  0
SCALE
  5
22D8
102
{ACAD_REACTORS
330
54
102
}
330
54
100
AcDbScale
 70
     0
300
1:50_1_3
140
1.0
141
50.0
290
     0
  0
SCALE
  5
22D9
102
{ACAD_REACTORS
330
54
102
}
330
54
100
AcDbScale
 70
     0
300
1:2_1_15
140
1.0
141
2.0
290
     0
  0
SCALE
  5
22DA
102
{ACAD_REACTORS
330
54
102
}
330
54
100
AcDbScale
 70
     0
300
1:1_1_1_4
140
1.0
141
0.1
290
     0
  0
SCALE
  5
22DB
102
{ACAD_REACTORS
330
54
102
}
330
54
100
AcDbScale
 70
     0
300
1:2_1_1
140
1.0
141
0.2
290
     0
  0
SCALE
  5
22DC
102
{ACAD_REACTORS
330
54
102
}
330
54
100
AcDbScale
 70
     0
300
1:100_1_1_1_3
140
1.0
141
100.0
290
     0
  0
SCALE
  5
87D
102
{ACAD_REACTORS
330
54
102
}
330
54
100
AcDbScale
 70
     0
300
3/4" = 1'-0"
140
0.75
141
12.0
290
     0
  0
SCALE
  5
22DD
102
{ACAD_REACTORS
330
54
102
}
330
54
100
AcDbScale
 70
     0
300
1:100_18
140
1.0
141
100.0
290
     0
  0
SCALE
  5
22DE
102
{ACAD_REACTORS
330
54
102
}
330
54
100
AcDbScale
 70
     0
300
1:5_1_1_13
140
1.0
141
5.0
290
     0
  0
SCALE
  5
22DF
102
{ACAD_REACTORS
330
54
102
}
330
54
100
AcDbScale
 70
     0
300
1:50_1_1_13
140
1.0
141
50.0
290
     0
  0
SCALE
  5
22E0
102
{ACAD_REACTORS
330
54
102
}
330
54
100
AcDbScale
 70
     0
300
1:10_1_1_12
140
1.0
141
10.0
290
     0
  0
SCALE
  5
22E1
102
{ACAD_REACTORS
330
54
102
}
330
54
100
AcDbScale
 70
     0
300
1:100_1_9
140
1.0
141
100.0
290
     0
  0
SCALE
  5
22E2
102
{ACAD_REACTORS
330
54
102
}
330
54
100
AcDbScale
 70
     0
300
1:100_1_1_12
140
1.0
141
100.0
290
     0
  0
SCALE
  5
22E3
102
{ACAD_REACTORS
330
54
102
}
330
54
100
AcDbScale
 70
     0
300
1:10_2_12
140
1.0
141
1.0
290
     0
  0
SCALE
  5
22E4
102
{ACAD_REACTORS
330
54
102
}
330
54
100
AcDbScale
 70
     0
300
1:20_1_1_1_12
140
1.0
141
2.0
290
     0
  0
SCALE
  5
22E5
102
{ACAD_REACTORS
330
54
102
}
330
54
100
AcDbScale
 70
     0
300
1:10_1_1_2
140
1.0
141
1.0
290
     0
  0
SCALE
  5
22E6
102
{ACAD_REACTORS
330
54
102
}
330
54
100
AcDbScale
 70
     0
300
1:20_1_1_1_4
140
1.0
141
20.0
290
     0
  0
SCALE
  5
1331
102
{ACAD_REACTORS
330
54
102
}
330
54
100
AcDbScale
 70
     0
300
1:2_3
140
1.0
141
0.2
290
     0
  0
SCALE
  5
22E7
102
{ACAD_REACTORS
330
54
102
}
330
54
100
AcDbScale
 70
     0
300
1:100_1_1_4_2
140
1.0
141
10.0
290
     0
  0
SCALE
  5
22E8
102
{ACAD_REACTORS
330
54
102
}
330
54
100
AcDbScale
 70
     0
300
1:10_1_1_4_2
140
1.0
141
1.0
290
     0
  0
SCALE
  5
22E9
102
{ACAD_REACTORS
330
54
102
}
330
54
100
AcDbScale
 70
     0
300
1:100_11
140
1.0
141
10.0
290
     0
  0
SCALE
  5
22EA
102
{ACAD_REACTORS
330
54
102
}
330
54
100
AcDbScale
 70
     0
300
1:50_1_1_6
140
1.0
141
5.0
290
     0
  0
SCALE
  5
22EB
102
{ACAD_REACTORS
330
54
102
}
330
54
100
AcDbScale
 70
     0
300
1:1_2_12
140
1.0
141
0.1
290
     0
  0
SCALE
  5
22EC
102
{ACAD_REACTORS
330
54
102
}
330
54
100
AcDbScale
 70
     0
300
1:20_1_1_4
140
1.0
141
2.0
290
     0
  0
SCALE
  5
22ED
102
{ACAD_REACTORS
330
54
102
}
330
54
100
AcDbScale
 70
     0
300
1:100_1_3
140
1.0
141
100.0
290
     0
  0
SCALE
  5
22EE
102
{ACAD_REACTORS
330
54
102
}
330
54
100
AcDbScale
 70
     0
300
1:10_19
140
1.0
141
1.0
290
     0
  0
SCALE
  5
22EF
102
{ACAD_REACTORS
330
54
102
}
330
54
100
AcDbScale
 70
     0
300
1:1_19
140
1.0
141
0.1
290
     0
  0
SCALE
  5
22F0
102
{ACAD_REACTORS
330
54
102
}
330
54
100
AcDbScale
 70
     0
300
1:2_19
140
1.0
141
0.2
290
     0
  0
SCALE
  5
865
102
{ACAD_REACTORS
330
54
102
}
330
54
100
AcDbScale
 70
     0
300
1:5_1
140
1.0
141
5.0
290
     0
  0
SCALE
  5
22F1
102
{ACAD_REACTORS
330
54
102
}
330
54
100
AcDbScale
 70
     0
300
1:5_19
140
1.0
141
0.5
290
     0
  0
SCALE
  5
22F2
102
{ACAD_REACTORS
330
54
102
}
330
54
100
AcDbScale
 70
     0
300
1:50_2_6
140
1.0
141
50.0
290
     0
  0
SCALE
  5
22F3
102
{ACAD_REACTORS
330
54
102
}
330
54
100
AcDbScale
 70
     0
300
1:20_19
140
1.0
141
2.0
290
     0
  0
SCALE
  5
22F4
102
{ACAD_REACTORS
330
54
102
}
330
54
100
AcDbScale
 70
     0
300
1:50_19
140
1.0
141
5.0
290
     0
  0
SCALE
  5
22F5
102
{ACAD_REACTORS
330
54
102
}
330
54
100
AcDbScale
 70
     0
300
1:10_12
140
1.0
141
1.0
290
     0
  0
SCALE
  5
22F6
102
{ACAD_REACTORS
330
54
102
}
330
54
100
AcDbScale
 70
     0
300
1:20_15
140
1.0
141
2.0
290
     0
  0
SCALE
  5
22F7
102
{ACAD_REACTORS
330
54
102
}
330
54
100
AcDbScale
 70
     0
300
1:10_1_1_1_1
140
1.0
141
1.0
290
     0
  0
SCALE
  5
22F8
102
{ACAD_REACTORS
330
54
102
}
330
54
100
AcDbScale
 70
     0
300
1:5_9
140
1.0
141
0.5
290
     0
  0
SCALE
  5
22F9
102
{ACAD_REACTORS
330
54
102
}
330
54
100
AcDbScale
 70
     0
300
1:100_19
140
1.0
141
10.0
290
     0
  0
SCALE
  5
22FA
102
{ACAD_REACTORS
330
54
102
}
330
54
100
AcDbScale
 70
     0
300
1:50_1_8
140
1.0
141
50.0
290
     0
  0
SCALE
  5
860
102
{ACAD_REACTORS
330
54
102
}
330
54
100
AcDbScale
 70
     0
300
1:50_2
140
1.0
141
50.0
290
     0
  0
SCALE
  5
22FB
102
{ACAD_REACTORS
330
54
102
}
330
54
100
AcDbScale
 70
     0
300
1:100_1_1_1_12
140
1.0
141
10.0
290
     0
  0
SCALE
  5
22FC
102
{ACAD_REACTORS
330
54
102
}
330
54
100
AcDbScale
 70
     0
300
1:10_1_1_1_12
140
1.0
141
1.0
290
     0
  0
SCALE
  5
22FD
102
{ACAD_REACTORS
330
54
102
}
330
54
100
AcDbScale
 70
     0
300
1:2_1_1_1_12
140
1.0
141
0.2
290
     0
  0
SCALE
  5
22FE
102
{ACAD_REACTORS
330
54
102
}
330
54
100
AcDbScale
 70
     0
300
1:2_7
140
1.0
141
0.2
290
     0
  0
SCALE
  5
22FF
102
{ACAD_REACTORS
330
54
102
}
330
54
100
AcDbScale
 70
     0
300
1:10_4_1
140
1.0
141
1.0
290
     0
  0
SCALE
  5
2300
102
{ACAD_REACTORS
330
54
102
}
330
54
100
AcDbScale
 70
     0
300
1:1_1_1_1_12
140
1.0
141
0.1
290
     0
  0
SCALE
  5
2301
102
{ACAD_REACTORS
330
54
102
}
330
54
100
AcDbScale
 70
     0
300
1:2_2_12
140
1.0
141
0.2
290
     0
  0
SCALE
  5
2302
102
{ACAD_REACTORS
330
54
102
}
330
54
100
AcDbScale
 70
     0
300
1:2_1_1_1_1
140
1.0
141
0.2
290
     0
  0
SCALE
  5
2303
102
{ACAD_REACTORS
330
54
102
}
330
54
100
AcDbScale
 70
     0
300
1:20_1_1_1_1_2
140
1.0
141
20.0
290
     0
  0
SCALE
  5
2304
102
{ACAD_REACTORS
330
54
102
}
330
54
100
AcDbScale
 70
     0
300
1:1_1_1_1_1_2
140
1.0
141
1.0
290
     0
  0
SCALE
  5
862
102
{ACAD_REACTORS
330
54
102
}
330
54
100
AcDbScale
 70
     0
300
1:1_1
140
1.0
141
1.0
290
     0
  0
SCALE
  5
2305
102
{ACAD_REACTORS
330
54
102
}
330
54
100
AcDbScale
 70
     0
300
1:20_16
140
1.0
141
2.0
290
     0
  0
SCALE
  5
2306
102
{ACAD_REACTORS
330
54
102
}
330
54
100
AcDbScale
 70
     0
300
1:10_1_1_1_1_2
140
1.0
141
10.0
290
     0
  0
SCALE
  5
2307
102
{ACAD_REACTORS
330
54
102
}
330
54
100
AcDbScale
 70
     0
300
1:10_1_1_9
140
1.0
141
1.0
290
     0
  0
SCALE
  5
2308
102
{ACAD_REACTORS
330
54
102
}
330
54
100
AcDbScale
 70
     0
300
1:20_1_13
140
1.0
141
20.0
290
     0
  0
SCALE
  5
2309
102
{ACAD_REACTORS
330
54
102
}
330
54
100
AcDbScale
 70
     0
300
1:2_1_1_1_1_2
140
1.0
141
2.0
290
     0
  0
SCALE
  5
230A
102
{ACAD_REACTORS
330
54
102
}
330
54
100
AcDbScale
 70
     0
300
1:10_2_2
140
1.0
141
10.0
290
     0
  0
SCALE
  5
230B
102
{ACAD_REACTORS
330
54
102
}
330
54
100
AcDbScale
 70
     0
300
1:10_2_1_2
140
1.0
141
10.0
290
     0
  0
SCALE
  5
230C
102
{ACAD_REACTORS
330
54
102
}
330
54
100
AcDbScale
 70
     0
300
1:1_2_1_2
140
1.0
141
1.0
290
     0
  0
SCALE
  5
230D
102
{ACAD_REACTORS
330
54
102
}
330
54
100
AcDbScale
 70
     0
300
1:10_2_10
140
1.0
141
10.0
290
     0
  0
SCALE
  5
230E
102
{ACAD_REACTORS
330
54
102
}
330
54
100
AcDbScale
 70
     0
300
1:20_2_12
140
1.0
141
2.0
290
     0
  0
SCALE
  5
132D
102
{ACAD_REACTORS
330
54
102
}
330
54
100
AcDbScale
 70
     0
300
1:20_3
140
1.0
141
2.0
290
     0
  0
SCALE
  5
230F
102
{ACAD_REACTORS
330
54
102
}
330
54
100
AcDbScale
 70
     0
300
1:1_1_1_12
140
1.0
141
1.0
290
     0
  0
SCALE
  5
2310
102
{ACAD_REACTORS
330
54
102
}
330
54
100
AcDbScale
 70
     0
300
1:5_XREF
140
1.0
141
5.0
290
     0
  0
SCALE
  5
2311
102
{ACAD_REACTORS
330
54
102
}
330
54
100
AcDbScale
 70
     0
300
1:5_4_1
140
1.0
141
0.5
290
     0
  0
SCALE
  5
2312
102
{ACAD_REACTORS
330
54
102
}
330
54
100
AcDbScale
 70
     0
300
1:20_1_2
140
1.0
141
20.0
290
     0
  0
SCALE
  5
2313
102
{ACAD_REACTORS
330
54
102
}
330
54
100
AcDbScale
 70
     0
300
1:50_2_12
140
1.0
141
5.0
290
     0
  0
SCALE
  5
2314
102
{ACAD_REACTORS
330
54
102
}
330
54
100
AcDbScale
 70
     0
300
1:100_2_12
140
1.0
141
10.0
290
     0
  0
SCALE
  5
2315
102
{ACAD_REACTORS
330
54
102
}
330
54
100
AcDbScale
 70
     0
300
1:100_1_1_1_1_2
140
1.0
141
100.0
290
     0
  0
SCALE
  5
2316
102
{ACAD_REACTORS
330
54
102
}
330
54
100
AcDbScale
 70
     0
300
1:50_7
140
1.0
141
5.0
290
     0
  0
SCALE
  5
2317
102
{ACAD_REACTORS
330
54
102
}
330
54
100
AcDbScale
 70
     0
300
1:10_1_1_3
140
1.0
141
1.0
290
     0
  0
SCALE
  5
2318
102
{ACAD_REACTORS
330
54
102
}
330
54
100
AcDbScale
 70
     0
300
1:50_1_15
140
1.0
141
50.0
290
     0
  0
SCALE
  5
87E
102
{ACAD_REACTORS
330
54
102
}
330
54
100
AcDbScale
 70
     0
300
1" = 1'-0"
140
1.0
141
12.0
290
     0
  0
SCALE
  5
2319
102
{ACAD_REACTORS
330
54
102
}
330
54
100
AcDbScale
 70
     0
300
1:100_2_3
140
1.0
141
100.0
290
     0
  0
SCALE
  5
231A
102
{ACAD_REACTORS
330
54
102
}
330
54
100
AcDbScale
 70
     0
300
1:2_2_1_2
140
1.0
141
2.0
290
     0
  0
SCALE
  5
231B
102
{ACAD_REACTORS
330
54
102
}
330
54
100
AcDbScale
 70
     0
300
1:5_1_1_2_2
140
1.0
141
0.5
290
     0
  0
SCALE
  5
231C
102
{ACAD_REACTORS
330
54
102
}
330
54
100
AcDbScale
 70
     0
300
1:20_2_1_2
140
1.0
141
20.0
290
     0
  0
SCALE
  5
231D
102
{ACAD_REACTORS
330
54
102
}
330
54
100
AcDbScale
 70
     0
300
1:50_2_1_2
140
1.0
141
50.0
290
     0
  0
SCALE
  5
231E
102
{ACAD_REACTORS
330
54
102
}
330
54
100
AcDbScale
 70
     0
300
1:50_1_1_2_2
140
1.0
141
5.0
290
     0
  0
SCALE
  5
231F
102
{ACAD_REACTORS
330
54
102
}
330
54
100
AcDbScale
 70
     0
300
1:50_16
140
1.0
141
5.0
290
     0
  0
SCALE
  5
2320
102
{ACAD_REACTORS
330
54
102
}
330
54
100
AcDbScale
 70
     0
300
1:100_2_1_2
140
1.0
141
100.0
290
     0
  0
SCALE
  5
2321
102
{ACAD_REACTORS
330
54
102
}
330
54
100
AcDbScale
 70
     0
300
1:2_1_1_12
140
1.0
141
2.0
290
     0
  0
SCALE
  5
2322
102
{ACAD_REACTORS
330
54
102
}
330
54
100
AcDbScale
 70
     0
300
1:1_1_1_1_4
140
1.0
141
1.0
290
     0
  0
SCALE
  5
168F
102
{ACAD_REACTORS
330
54
102
}
330
54
100
AcDbScale
 70
     0
300
1:1_3_1
140
1.0
141
1.0
290
     0
  0
SCALE
  5
2323
102
{ACAD_REACTORS
330
54
102
}
330
54
100
AcDbScale
 70
     0
300
1:1_1_1
140
1.0
141
0.1
290
     0
  0
SCALE
  5
2324
102
{ACAD_REACTORS
330
54
102
}
330
54
100
AcDbScale
 70
     0
300
1:100_4_1
140
1.0
141
10.0
290
     0
  0
SCALE
  5
2325
102
{ACAD_REACTORS
330
54
102
}
330
54
100
AcDbScale
 70
     0
300
1:20_1_1_12
140
1.0
141
20.0
290
     0
  0
SCALE
  5
2326
102
{ACAD_REACTORS
330
54
102
}
330
54
100
AcDbScale
 70
     0
300
1:10_1_1_1
140
1.0
141
10.0
290
     0
  0
SCALE
  5
2327
102
{ACAD_REACTORS
330
54
102
}
330
54
100
AcDbScale
 70
     0
300
1:50_1_13
140
1.0
141
50.0
290
     0
  0
SCALE
  5
2328
102
{ACAD_REACTORS
330
54
102
}
330
54
100
AcDbScale
 70
     0
300
1:2_1_1_7_2
140
1.0
141
0.2
290
     0
  0
SCALE
  5
2329
102
{ACAD_REACTORS
330
54
102
}
330
54
100
AcDbScale
 70
     0
300
1:20_1_1_1
140
1.0
141
20.0
290
     0
  0
SCALE
  5
232A
102
{ACAD_REACTORS
330
54
102
}
330
54
100
AcDbScale
 70
     0
300
1:1_1_1_7_2
140
1.0
141
0.1
290
     0
  0
SCALE
  5
232B
102
{ACAD_REACTORS
330
54
102
}
330
54
100
AcDbScale
 70
     0
300
1:20_1_1_7_2
140
1.0
141
2.0
290
     0
  0
SCALE
  5
232C
102
{ACAD_REACTORS
330
54
102
}
330
54
100
AcDbScale
 70
     0
300
1:100_16
140
1.0
141
10.0
290
     0
  0
SCALE
  5
1690
102
{ACAD_REACTORS
330
54
102
}
330
54
100
AcDbScale
 70
     0
300
1:2_3_1
140
1.0
141
2.0
290
     0
  0
SCALE
  5
232D
102
{ACAD_REACTORS
330
54
102
}
330
54
100
AcDbScale
 70
     0
300
1:5_1_1
140
1.0
141
0.5
290
     0
  0
SCALE
  5
232E
102
{ACAD_REACTORS
330
54
102
}
330
54
100
AcDbScale
 70
     0
300
1:100_1_1_10
140
1.0
141
10.0
290
     0
  0
SCALE
  5
232F
102
{ACAD_REACTORS
330
54
102
}
330
54
100
AcDbScale
 70
     0
300
1:10_1_1_1_4
140
1.0
141
10.0
290
     0
  0
SCALE
  5
2330
102
{ACAD_REACTORS
330
54
102
}
330
54
100
AcDbScale
 70
     0
300
1:20_4_1
140
1.0
141
2.0
290
     0
  0
SCALE
  5
2331
102
{ACAD_REACTORS
330
54
102
}
330
54
100
AcDbScale
 70
     0
300
1:1_4_1
140
1.0
141
0.1
290
     0
  0
SCALE
  5
2332
102
{ACAD_REACTORS
330
54
102
}
330
54
100
AcDbScale
 70
     0
300
1:2_4_1
140
1.0
141
0.2
290
     0
  0
SCALE
  5
2333
102
{ACAD_REACTORS
330
54
102
}
330
54
100
AcDbScale
 70
     0
300
1:20_XREF
140
1.0
141
20.0
290
     0
  0
SCALE
  5
2334
102
{ACAD_REACTORS
330
54
102
}
330
54
100
AcDbScale
 70
     0
300
1:50_4_1
140
1.0
141
5.0
290
     0
  0
SCALE
  5
2335
102
{ACAD_REACTORS
330
54
102
}
330
54
100
AcDbScale
 70
     0
300
1:10_XREF
140
1.0
141
10.0
290
     0
  0
SCALE
  5
2336
102
{ACAD_REACTORS
330
54
102
}
330
54
100
AcDbScale
 70
     0
300
1:1_1_4
140
1.0
141
1.0
290
     0
  0
SCALE
  5
1335
102
{ACAD_REACTORS
330
54
102
}
330
54
100
AcDbScale
 70
     0
300
1:10_4
140
1.0
141
10.0
290
     0
  0
SCALE
  5
1691
102
{ACAD_REACTORS
330
54
102
}
330
54
100
AcDbScale
 70
     0
300
1:5_3_1
140
1.0
141
5.0
290
     0
  0
SCALE
  5
2337
102
{ACAD_REACTORS
330
54
102
}
330
54
100
AcDbScale
 70
     0
300
1:2_1_4
140
1.0
141
2.0
290
     0
  0
SCALE
  5
2338
102
{ACAD_REACTORS
330
54
102
}
330
54
100
AcDbScale
 70
     0
300
1:2_1_1_9
140
1.0
141
0.2
290
     0
  0
SCALE
  5
2339
102
{ACAD_REACTORS
330
54
102
}
330
54
100
AcDbScale
 70
     0
300
1:1_7
140
1.0
141
0.1
290
     0
  0
SCALE
  5
233A
102
{ACAD_REACTORS
330
54
102
}
330
54
100
AcDbScale
 70
     0
300
1:1_1_1_1_1
140
1.0
141
0.1
290
     0
  0
SCALE
  5
233B
102
{ACAD_REACTORS
330
54
102
}
330
54
100
AcDbScale
 70
     0
300
1:2_1_1_1_8
140
1.0
141
2.0
290
     0
  0
SCALE
  5
233C
102
{ACAD_REACTORS
330
54
102
}
330
54
100
AcDbScale
 70
     0
300
1:2_1_1_1_4
140
1.0
141
2.0
290
     0
  0
SCALE
  5
233D
102
{ACAD_REACTORS
330
54
102
}
330
54
100
AcDbScale
 70
     0
300
1:20_1_1
140
1.0
141
2.0
290
     0
  0
SCALE
  5
233E
102
{ACAD_REACTORS
330
54
102
}
330
54
100
AcDbScale
 70
     0
300
1:5_1_4
140
1.0
141
5.0
290
     0
  0
SCALE
  5
233F
102
{ACAD_REACTORS
330
54
102
}
330
54
100
AcDbScale
 70
     0
300
1:10_1_4
140
1.0
141
10.0
290
     0
  0
SCALE
  5
2340
102
{ACAD_REACTORS
330
54
102
}
330
54
100
AcDbScale
 70
     0
300
1:20_1_4
140
1.0
141
20.0
290
     0
  0
SCALE
  5
868
102
{ACAD_REACTORS
330
54
102
}
330
54
100
AcDbScale
 70
     0
300
1:16
140
1.0
141
16.0
290
     0
  0
SCALE
  5
2341
102
{ACAD_REACTORS
330
54
102
}
330
54
100
AcDbScale
 70
     0
300
1:50_1_4
140
1.0
141
50.0
290
     0
  0
SCALE
  5
2342
102
{ACAD_REACTORS
330
54
102
}
330
54
100
AcDbScale
 70
     0
300
1:100_1_4
140
1.0
141
100.0
290
     0
  0
SCALE
  5
2343
102
{ACAD_REACTORS
330
54
102
}
330
54
100
AcDbScale
 70
     0
300
1:100_1_13
140
1.0
141
100.0
290
     0
  0
SCALE
  5
2344
102
{ACAD_REACTORS
330
54
102
}
330
54
100
AcDbScale
 70
     0
300
1:2_2_1
140
1.0
141
0.2
290
     0
  0
SCALE
  5
2345
102
{ACAD_REACTORS
330
54
102
}
330
54
100
AcDbScale
 70
     0
300
1:10_5_1
140
1.0
141
1.0
290
     0
  0
SCALE
  5
2346
102
{ACAD_REACTORS
330
54
102
}
330
54
100
AcDbScale
 70
     0
300
1:20_1_3
140
1.0
141
2.0
290
     0
  0
SCALE
  5
2347
102
{ACAD_REACTORS
330
54
102
}
330
54
100
AcDbScale
 70
     0
300
1:50_1_1_11
140
1.0
141
5.0
290
     0
  0
SCALE
  5
2348
102
{ACAD_REACTORS
330
54
102
}
330
54
100
AcDbScale
 70
     0
300
1:1_1_16
140
1.0
141
1.0
290
     0
  0
SCALE
  5
2349
102
{ACAD_REACTORS
330
54
102
}
330
54
100
AcDbScale
 70
     0
300
1:5_5_1
140
1.0
141
0.5
290
     0
  0
SCALE
  5
234A
102
{ACAD_REACTORS
330
54
102
}
330
54
100
AcDbScale
 70
     0
300
1:20_2_9
140
1.0
141
20.0
290
     0
  0
SCALE
  5
86A
102
{ACAD_REACTORS
330
54
102
}
330
54
100
AcDbScale
 70
     0
300
1:30
140
1.0
141
30.0
290
     0
  0
SCALE
  5
234B
102
{ACAD_REACTORS
330
54
102
}
330
54
100
AcDbScale
 70
     0
300
1:100_5_1
140
1.0
141
10.0
290
     0
  0
SCALE
  5
234C
102
{ACAD_REACTORS
330
54
102
}
330
54
100
AcDbScale
 70
     0
300
1:50_XREF
140
1.0
141
50.0
290
     0
  0
SCALE
  5
234D
102
{ACAD_REACTORS
330
54
102
}
330
54
100
AcDbScale
 70
     0
300
1:20_5_1
140
1.0
141
2.0
290
     0
  0
SCALE
  5
234E
102
{ACAD_REACTORS
330
54
102
}
330
54
100
AcDbScale
 70
     0
300
1:1_5_1
140
1.0
141
0.1
290
     0
  0
SCALE
  5
234F
102
{ACAD_REACTORS
330
54
102
}
330
54
100
AcDbScale
 70
     0
300
1:20_1_1_1_1_1
140
1.0
141
20.0
290
     0
  0
SCALE
  5
2350
102
{ACAD_REACTORS
330
54
102
}
330
54
100
AcDbScale
 70
     0
300
1:2_5_1
140
1.0
141
0.2
290
     0
  0
SCALE
  5
2351
102
{ACAD_REACTORS
330
54
102
}
330
54
100
AcDbScale
 70
     0
300
1:50_5_1
140
1.0
141
5.0
290
     0
  0
SCALE
  5
2352
102
{ACAD_REACTORS
330
54
102
}
330
54
100
AcDbScale
 70
     0
300
1:10_14
140
1.0
141
1.0
290
     0
  0
SCALE
  5
2353
102
{ACAD_REACTORS
330
54
102
}
330
54
100
AcDbScale
 70
     0
300
1:50_2_4
140
1.0
141
50.0
290
     0
  0
SCALE
  5
2354
102
{ACAD_REACTORS
330
54
102
}
330
54
100
AcDbScale
 70
     0
300
1:10_2_4
140
1.0
141
10.0
290
     0
  0
SCALE
  5
1332
102
{ACAD_REACTORS
330
54
102
}
330
54
100
AcDbScale
 70
     0
300
1:1_4
140
1.0
141
1.0
290
     0
  0
SCALE
  5
2355
102
{ACAD_REACTORS
330
54
102
}
330
54
100
AcDbScale
 70
     0
300
1:1_1_5
140
1.0
141
1.0
290
     0
  0
SCALE
  5
2356
102
{ACAD_REACTORS
330
54
102
}
330
54
100
AcDbScale
 70
     0
300
1:2_1_16
140
1.0
141
2.0
290
     0
  0
SCALE
  5
2357
102
{ACAD_REACTORS
330
54
102
}
330
54
100
AcDbScale
 70
     0
300
1:2_1_5
140
1.0
141
2.0
290
     0
  0
SCALE
  5
2358
102
{ACAD_REACTORS
330
54
102
}
330
54
100
AcDbScale
 70
     0
300
1:100_1_1
140
1.0
141
10.0
290
     0
  0
SCALE
  5
2359
102
{ACAD_REACTORS
330
54
102
}
330
54
100
AcDbScale
 70
     0
300
1:5_1_5
140
1.0
141
5.0
290
     0
  0
SCALE
  5
235A
102
{ACAD_REACTORS
330
54
102
}
330
54
100
AcDbScale
 70
     0
300
1:20_1_1_5
140
1.0
141
2.0
290
     0
  0
SCALE
  5
235B
102
{ACAD_REACTORS
330
54
102
}
330
54
100
AcDbScale
 70
     0
300
1:1_1_1_9
140
1.0
141
0.1
290
     0
  0
SCALE
  5
235C
102
{ACAD_REACTORS
330
54
102
}
330
54
100
AcDbScale
 70
     0
300
1:1_1_2
140
1.0
141
0.1
290
     0
  0
SCALE
  5
235D
102
{ACAD_REACTORS
330
54
102
}
330
54
100
AcDbScale
 70
     0
300
1:10_1_5
140
1.0
141
10.0
290
     0
  0
SCALE
  5
235E
102
{ACAD_REACTORS
330
54
102
}
330
54
100
AcDbScale
 70
     0
300
1:20_1_5
140
1.0
141
20.0
290
     0
  0
SCALE
  5
1692
102
{ACAD_REACTORS
330
54
102
}
330
54
100
AcDbScale
 70
     0
300
1:10_3_1
140
1.0
141
10.0
290
     0
  0
SCALE
  5
235F
102
{ACAD_REACTORS
330
54
102
}
330
54
100
AcDbScale
 70
     0
300
1:1_1_7
140
1.0
141
1.0
290
     0
  0
SCALE
  5
2360
102
{ACAD_REACTORS
330
54
102
}
330
54
100
AcDbScale
 70
     0
300
1:50_1_5
140
1.0
141
50.0
290
     0
  0
SCALE
  5
2361
102
{ACAD_REACTORS
330
54
102
}
330
54
100
AcDbScale
 70
     0
300
1:100_1_1_1_2
140
1.0
141
100.0
290
     0
  0
SCALE
  5
2362
102
{ACAD_REACTORS
330
54
102
}
330
54
100
AcDbScale
 70
     0
300
1:5_1_16
140
1.0
141
5.0
290
     0
  0
SCALE
  5
2363
102
{ACAD_REACTORS
330
54
102
}
330
54
100
AcDbScale
 70
     0
300
1:100_1_5
140
1.0
141
100.0
290
     0
  0
SCALE
  5
2364
102
{ACAD_REACTORS
330
54
102
}
330
54
100
AcDbScale
 70
     0
300
1:100_1_1_4_1
140
1.0
141
10.0
290
     0
  0
SCALE
  5
2365
102
{ACAD_REACTORS
330
54
102
}
330
54
100
AcDbScale
 70
     0
300
1:5_1_1_1
140
1.0
141
5.0
290
     0
  0
SCALE
  5
2366
102
{ACAD_REACTORS
330
54
102
}
330
54
100
AcDbScale
 70
     0
300
1:1_1_10
140
1.0
141
1.0
290
     0
  0
SCALE
  5
2367
102
{ACAD_REACTORS
330
54
102
}
330
54
100
AcDbScale
 70
     0
300
1:1_1_1_1_5
140
1.0
141
1.0
290
     0
  0
SCALE
  5
2368
102
{ACAD_REACTORS
330
54
102
}
330
54
100
AcDbScale
 70
     0
300
1:2_11
140
1.0
141
0.2
290
     0
  0
SCALE
  5
1693
102
{ACAD_REACTORS
330
54
102
}
330
54
100
AcDbScale
 70
     0
300
1:20_3_1
140
1.0
141
20.0
290
     0
  0
SCALE
  5
2369
102
{ACAD_REACTORS
330
54
102
}
330
54
100
AcDbScale
 70
     0
300
1:20_1_1_1_9
140
1.0
141
20.0
290
     0
  0
SCALE
  5
236A
102
{ACAD_REACTORS
330
54
102
}
330
54
100
AcDbScale
 70
     0
300
1:20_1_1_8
140
1.0
141
2.0
290
     0
  0
SCALE
  5
236B
102
{ACAD_REACTORS
330
54
102
}
330
54
100
AcDbScale
 70
     0
300
1:5_1_1_4
140
1.0
141
0.5
290
     0
  0
SCALE
  5
236C
102
{ACAD_REACTORS
330
54
102
}
330
54
100
AcDbScale
 70
     0
300
1:2_1_10
140
1.0
141
2.0
290
     0
  0
SCALE
  5
236D
102
{ACAD_REACTORS
330
54
102
}
330
54
100
AcDbScale
 70
     0
300
1:5_1_10
140
1.0
141
5.0
290
     0
  0
SCALE
  5
236E
102
{ACAD_REACTORS
330
54
102
}
330
54
100
AcDbScale
 70
     0
300
1:1_1_1_1_1_1
140
1.0
141
1.0
290
     0
  0
SCALE
  5
236F
102
{ACAD_REACTORS
330
54
102
}
330
54
100
AcDbScale
 70
     0
300
1:10_1_16
140
1.0
141
10.0
290
     0
  0
SCALE
  5
2370
102
{ACAD_REACTORS
330
54
102
}
330
54
100
AcDbScale
 70
     0
300
1:10_1_1_11
140
1.0
141
1.0
290
     0
  0
SCALE
  5
2371
102
{ACAD_REACTORS
330
54
102
}
330
54
100
AcDbScale
 70
     0
300
1:10_1_10
140
1.0
141
10.0
290
     0
  0
SCALE
  5
2372
102
{ACAD_REACTORS
330
54
102
}
330
54
100
AcDbScale
 70
     0
300
1:20_1_10
140
1.0
141
20.0
290
     0
  0
SCALE
  5
85E
102
{ACAD_REACTORS
330
54
102
}
330
54
100
AcDbScale
 70
     0
300
1:10_2
140
1.0
141
10.0
290
     0
  0
SCALE
  5
2373
102
{ACAD_REACTORS
330
54
102
}
330
54
100
AcDbScale
 70
     0
300
1:50_1_10
140
1.0
141
50.0
290
     0
  0
SCALE
  5
2374
102
{ACAD_REACTORS
330
54
102
}
330
54
100
AcDbScale
 70
     0
300
1:100_1_10
140
1.0
141
100.0
290
     0
  0
SCALE
  5
2375
102
{ACAD_REACTORS
330
54
102
}
330
54
100
AcDbScale
 70
     0
300
1:10_11
140
1.0
141
1.0
290
     0
  0
SCALE
  5
2376
102
{ACAD_REACTORS
330
54
102
}
330
54
100
AcDbScale
 70
     0
300
1:10_1_1_8
140
1.0
141
1.0
290
     0
  0
SCALE
  5
2377
102
{ACAD_REACTORS
330
54
102
}
330
54
100
AcDbScale
 70
     0
300
1:10_1_1_1_1_1
140
1.0
141
10.0
290
     0
  0
SCALE
  5
2378
102
{ACAD_REACTORS
330
54
102
}
330
54
100
AcDbScale
 70
     0
300
1:2_12
140
1.0
141
0.2
290
     0
  0
SCALE
  5
2379
102
{ACAD_REACTORS
330
54
102
}
330
54
100
AcDbScale
 70
     0
300
1:2_1_1_8
140
1.0
141
0.2
290
     0
  0
SCALE
  5
237A
102
{ACAD_REACTORS
330
54
102
}
330
54
100
AcDbScale
 70
     0
300
1:2_1_1_5
140
1.0
141
0.2
290
     0
  0
SCALE
  5
237B
102
{ACAD_REACTORS
330
54
102
}
330
54
100
AcDbScale
 70
     0
300
1:20_1_16
140
1.0
141
20.0
290
     0
  0
SCALE
  5
237C
102
{ACAD_REACTORS
330
54
102
}
330
54
100
AcDbScale
 70
     0
300
1:10_1_1_1_5
140
1.0
141
10.0
290
     0
  0
SCALE
  5
1694
102
{ACAD_REACTORS
330
54
102
}
330
54
100
AcDbScale
 70
     0
300
1:50_3_1
140
1.0
141
50.0
290
     0
  0
SCALE
  5
237D
102
{ACAD_REACTORS
330
54
102
}
330
54
100
AcDbScale
 70
     0
300
1:10_2_8
140
1.0
141
10.0
290
     0
  0
SCALE
  5
237E
102
{ACAD_REACTORS
330
54
102
}
330
54
100
AcDbScale
 70
     0
300
1:20_2_8
140
1.0
141
20.0
290
     0
  0
SCALE
  5
237F
102
{ACAD_REACTORS
330
54
102
}
330
54
100
AcDbScale
 70
     0
300
1:20_2_3
140
1.0
141
20.0
290
     0
  0
SCALE
  5
2380
102
{ACAD_REACTORS
330
54
102
}
330
54
100
AcDbScale
 70
     0
300
1:2_1_7
140
1.0
141
2.0
290
     0
  0
SCALE
  5
2381
102
{ACAD_REACTORS
330
54
102
}
330
54
100
AcDbScale
 70
     0
300
1:100_1_1_1_9
140
1.0
141
100.0
290
     0
  0
SCALE
  5
2382
102
{ACAD_REACTORS
330
54
102
}
330
54
100
AcDbScale
 70
     0
300
1:2_1_1_1_1_1
140
1.0
141
2.0
290
     0
  0
SCALE
  5
2383
102
{ACAD_REACTORS
330
54
102
}
330
54
100
AcDbScale
 70
     0
300
1:5_1_1_2
140
1.0
141
5.0
290
     0
  0
SCALE
  5
2384
102
{ACAD_REACTORS
330
54
102
}
330
54
100
AcDbScale
 70
     0
300
1:50_12
140
1.0
141
5.0
290
     0
  0
SCALE
  5
2385
102
{ACAD_REACTORS
330
54
102
}
330
54
100
AcDbScale
 70
     0
300
1:1_1_1_1_9
140
1.0
141
1.0
290
     0
  0
SCALE
  5
2386
102
{ACAD_REACTORS
330
54
102
}
330
54
100
AcDbScale
 70
     0
300
1:10_1_1_1_9
140
1.0
141
10.0
290
     0
  0
SCALE
  5
86F
102
{ACAD_REACTORS
330
54
102
}
330
54
100
AcDbScale
 70
     0
300
4:1
140
4.0
141
1.0
290
     0
  0
SCALE
  5
2387
102
{ACAD_REACTORS
330
54
102
}
330
54
100
AcDbScale
 70
     0
300
1:2_1_2
140
1.0
141
0.2
290
     0
  0
SCALE
  5
2388
102
{ACAD_REACTORS
330
54
102
}
330
54
100
AcDbScale
 70
     0
300
1:5_1_1_9
140
1.0
141
0.5
290
     0
  0
SCALE
  5
2389
102
{ACAD_REACTORS
330
54
102
}
330
54
100
AcDbScale
 70
     0
300
1:2_1_1_1_9
140
1.0
141
2.0
290
     0
  0
SCALE
  5
238A
102
{ACAD_REACTORS
330
54
102
}
330
54
100
AcDbScale
 70
     0
300
1:20_6_1
140
1.0
141
2.0
290
     0
  0
SCALE
  5
238B
102
{ACAD_REACTORS
330
54
102
}
330
54
100
AcDbScale
 70
     0
300
1:2_1_1_11
140
1.0
141
0.2
290
     0
  0
SCALE
  5
238C
102
{ACAD_REACTORS
330
54
102
}
330
54
100
AcDbScale
 70
     0
300
1:50_2_10
140
1.0
141
50.0
290
     0
  0
SCALE
  5
238D
102
{ACAD_REACTORS
330
54
102
}
330
54
100
AcDbScale
 70
     0
300
1:2_1_3
140
1.0
141
2.0
290
     0
  0
SCALE
  5
238E
102
{ACAD_REACTORS
330
54
102
}
330
54
100
AcDbScale
 70
     0
300
1:100_1_1_1_8
140
1.0
141
100.0
290
     0
  0
SCALE
  5
238F
102
{ACAD_REACTORS
330
54
102
}
330
54
100
AcDbScale
 70
     0
300
1:10_2_9
140
1.0
141
10.0
290
     0
  0
SCALE
  5
2390
102
{ACAD_REACTORS
330
54
102
}
330
54
100
AcDbScale
 70
     0
300
1:50_2_9
140
1.0
141
50.0
290
     0
  0
SCALE
  5
871
102
{ACAD_REACTORS
330
54
102
}
330
54
100
AcDbScale
 70
     0
300
10:1
140
10.0
141
1.0
290
     0
  0
SCALE
  5
2391
102
{ACAD_REACTORS
330
54
102
}
330
54
100
AcDbScale
 70
     0
300
1:1_2_9
140
1.0
141
1.0
290
     0
  0
SCALE
  5
2392
102
{ACAD_REACTORS
330
54
102
}
330
54
100
AcDbScale
 70
     0
300
1:2_1_8
140
1.0
141
2.0
290
     0
  0
SCALE
  5
2393
102
{ACAD_REACTORS
330
54
102
}
330
54
100
AcDbScale
 70
     0
300
1:5_12
140
1.0
141
0.5
290
     0
  0
SCALE
  5
2394
102
{ACAD_REACTORS
330
54
102
}
330
54
100
AcDbScale
 70
     0
300
1:10_6_1
140
1.0
141
1.0
290
     0
  0
SCALE
  5
2395
102
{ACAD_REACTORS
330
54
102
}
330
54
100
AcDbScale
 70
     0
300
1:1_1_1_1_3
140
1.0
141
1.0
290
     0
  0
SCALE
  5
2396
102
{ACAD_REACTORS
330
54
102
}
330
54
100
AcDbScale
 70
     0
300
1:2_2_9
140
1.0
141
2.0
290
     0
  0
SCALE
  5
2397
102
{ACAD_REACTORS
330
54
102
}
330
54
100
AcDbScale
 70
     0
300
1:100_12
140
1.0
141
10.0
290
     0
  0
SCALE
  5
2398
102
{ACAD_REACTORS
330
54
102
}
330
54
100
AcDbScale
 70
     0
300
1:100_1_15
140
1.0
141
100.0
290
     0
  0
SCALE
  5
2399
102
{ACAD_REACTORS
330
54
102
}
330
54
100
AcDbScale
 70
     0
300
1:50_1_1_7
140
1.0
141
5.0
290
     0
  0
SCALE
  5
239A
102
{ACAD_REACTORS
330
54
102
}
330
54
100
AcDbScale
 70
     0
300
1:100_1_1_1
140
1.0
141
100.0
290
     0
  0
SCALE
  5
1336
102
{ACAD_REACTORS
330
54
102
}
330
54
100
AcDbScale
 70
     0
300
1:20_4
140
1.0
141
20.0
290
     0
  0
SCALE
  5
1695
102
{ACAD_REACTORS
330
54
102
}
330
54
100
AcDbScale
 70
     0
300
1:100_3_1
140
1.0
141
100.0
290
     0
  0
SCALE
  5
239B
102
{ACAD_REACTORS
330
54
102
}
330
54
100
AcDbScale
 70
     0
300
1:20_2_11
140
1.0
141
20.0
290
     0
  0
SCALE
  5
239C
102
{ACAD_REACTORS
330
54
102
}
330
54
100
AcDbScale
 70
     0
300
1:5_1_1_10
140
1.0
141
0.5
290
     0
  0
SCALE
  5
239D
102
{ACAD_REACTORS
330
54
102
}
330
54
100
AcDbScale
 70
     0
300
1:20_1_1_2
140
1.0
141
2.0
290
     0
  0
SCALE
  5
239E
102
{ACAD_REACTORS
330
54
102
}
330
54
100
AcDbScale
 70
     0
300
1:50_1_1_10
140
1.0
141
5.0
290
     0
  0
SCALE
  5
239F
102
{ACAD_REACTORS
330
54
102
}
330
54
100
AcDbScale
 70
     0
300
1:100_2_9
140
1.0
141
100.0
290
     0
  0
SCALE
  5
23A0
102
{ACAD_REACTORS
330
54
102
}
330
54
100
AcDbScale
 70
     0
300
1:20_12
140
1.0
141
2.0
290
     0
  0
SCALE
  5
23A1
102
{ACAD_REACTORS
330
54
102
}
330
54
100
AcDbScale
 70
     0
300
1:1_6_1
140
1.0
141
0.1
290
     0
  0
SCALE
  5
23A2
102
{ACAD_REACTORS
330
54
102
}
330
54
100
AcDbScale
 70
     0
300
1:50_2_2
140
1.0
141
50.0
290
     0
  0
SCALE
  5
23A3
102
{ACAD_REACTORS
330
54
102
}
330
54
100
AcDbScale
 70
     0
300
1:2_1_9
140
1.0
141
2.0
290
     0
  0
SCALE
  5
23A4
102
{ACAD_REACTORS
330
54
102
}
330
54
100
AcDbScale
 70
     0
300
1:10_2_1_1
140
1.0
141
10.0
290
     0
  0
SCALE
  5
882
102
{ACAD_REACTORS
330
54
102
}
330
54
100
AcDbScale
 70
     0
300
1'-0" = 1'-0"
140
12.0
141
12.0
290
     0
  0
SCALE
  5
23A5
102
{ACAD_REACTORS
330
54
102
}
330
54
100
AcDbScale
 70
     0
300
1:1_12
140
1.0
141
0.1
290
     0
  0
SCALE
  5
23A6
102
{ACAD_REACTORS
330
54
102
}
330
54
100
AcDbScale
 70
     0
300
1:5_1_7
140
1.0
141
5.0
290
     0
  0
SCALE
  5
23A7
102
{ACAD_REACTORS
330
54
102
}
330
54
100
AcDbScale
 70
     0
300
1:20_1_1_9
140
1.0
141
2.0
290
     0
  0
SCALE
  5
23A8
102
{ACAD_REACTORS
330
54
102
}
330
54
100
AcDbScale
 70
     0
300
1:5_1_8
140
1.0
141
5.0
290
     0
  0
SCALE
  5
23A9
102
{ACAD_REACTORS
330
54
102
}
330
54
100
AcDbScale
 70
     0
300
1:100_1_1_9
140
1.0
141
10.0
290
     0
  0
SCALE
  5
23AA
102
{ACAD_REACTORS
330
54
102
}
330
54
100
AcDbScale
 70
     0
300
1:1_1_1_11
140
1.0
141
0.1
290
     0
  0
SCALE
  5
23AB
102
{ACAD_REACTORS
330
54
102
}
330
54
100
AcDbScale
 70
     0
300
1:1_1_12
140
1.0
141
1.0
290
     0
  0
SCALE
  5
23AC
102
{ACAD_REACTORS
330
54
102
}
330
54
100
AcDbScale
 70
     0
300
1:50_1_1
140
1.0
141
5.0
290
     0
  0
SCALE
  5
23AD
102
{ACAD_REACTORS
330
54
102
}
330
54
100
AcDbScale
 70
     0
300
1:50_11
140
1.0
141
5.0
290
     0
  0
SCALE
  5
23AE
102
{ACAD_REACTORS
330
54
102
}
330
54
100
AcDbScale
 70
     0
300
1:2_1_12
140
1.0
141
2.0
290
     0
  0
SCALE
  5
866
102
{ACAD_REACTORS
330
54
102
}
330
54
100
AcDbScale
 70
     0
300
1:8
140
1.0
141
8.0
290
     0
  0
SCALE
  5
23AF
102
{ACAD_REACTORS
330
54
102
}
330
54
100
AcDbScale
 70
     0
300
1:1_2_1_1
140
1.0
141
1.0
290
     0
  0
SCALE
  5
23B0
102
{ACAD_REACTORS
330
54
102
}
330
54
100
AcDbScale
 70
     0
300
1:5_1_12
140
1.0
141
5.0
290
     0
  0
SCALE
  5
23B1
102
{ACAD_REACTORS
330
54
102
}
330
54
100
AcDbScale
 70
     0
300
1:50_1_16
140
1.0
141
50.0
290
     0
  0
SCALE
  5
23B2
102
{ACAD_REACTORS
330
54
102
}
330
54
100
AcDbScale
 70
     0
300
1:10_1_7
140
1.0
141
10.0
290
     0
  0
SCALE
  5
23B3
102
{ACAD_REACTORS
330
54
102
}
330
54
100
AcDbScale
 70
     0
300
1:10_1_12
140
1.0
141
10.0
290
     0
  0
SCALE
  5
23B4
102
{ACAD_REACTORS
330
54
102
}
330
54
100
AcDbScale
 70
     0
300
1:20_1_12
140
1.0
141
20.0
290
     0
  0
SCALE
  5
23B5
102
{ACAD_REACTORS
330
54
102
}
330
54
100
AcDbScale
 70
     0
300
1:50_1_12
140
1.0
141
50.0
290
     0
  0
SCALE
  5
23B6
102
{ACAD_REACTORS
330
54
102
}
330
54
100
AcDbScale
 70
     0
300
1:100_1_12
140
1.0
141
100.0
290
     0
  0
SCALE
  5
23B7
102
{ACAD_REACTORS
330
54
102
}
330
54
100
AcDbScale
 70
     0
300
1:20_1_1_3
140
1.0
141
2.0
290
     0
  0
SCALE
  5
23B8
102
{ACAD_REACTORS
330
54
102
}
330
54
100
AcDbScale
 70
     0
300
1:20_2_2
140
1.0
141
20.0
290
     0
  0
SCALE
  5
86D
102
{ACAD_REACTORS
330
54
102
}
330
54
100
AcDbScale
 70
     0
300
1:100_1
140
1.0
141
100.0
290
     0
  0
SCALE
  5
23B9
102
{ACAD_REACTORS
330
54
102
}
330
54
100
AcDbScale
 70
     0
300
1:20_1_1_1_11
140
1.0
141
20.0
290
     0
  0
SCALE
  5
23BA
102
{ACAD_REACTORS
330
54
102
}
330
54
100
AcDbScale
 70
     0
300
1:10_13
140
1.0
141
1.0
290
     0
  0
SCALE
  5
23BB
102
{ACAD_REACTORS
330
54
102
}
330
54
100
AcDbScale
 70
     0
300
1:2_1_1_2
140
1.0
141
0.2
290
     0
  0
SCALE
  5
23BC
102
{ACAD_REACTORS
330
54
102
}
330
54
100
AcDbScale
 70
     0
300
1:10_1_8
140
1.0
141
10.0
290
     0
  0
SCALE
  5
23BD
102
{ACAD_REACTORS
330
54
102
}
330
54
100
AcDbScale
 70
     0
300
1:20_1_7
140
1.0
141
20.0
290
     0
  0
SCALE
  5
23BE
102
{ACAD_REACTORS
330
54
102
}
330
54
100
AcDbScale
 70
     0
300
1:2_XREF
140
1.0
141
2.0
290
     0
  0
SCALE
  5
23BF
102
{ACAD_REACTORS
330
54
102
}
330
54
100
AcDbScale
 70
     0
300
1:1_1_1_1_8
140
1.0
141
1.0
290
     0
  0
SCALE
  5
23C0
102
{ACAD_REACTORS
330
54
102
}
330
54
100
AcDbScale
 70
     0
300
1:1_1_1_1
140
1.0
141
1.0
290
     0
  0
SCALE
  5
23C1
102
{ACAD_REACTORS
330
54
102
}
330
54
100
AcDbScale
 70
     0
300
1:10_1_1_10
140
1.0
141
1.0
290
     0
  0
SCALE
  5
23C2
102
{ACAD_REACTORS
330
54
102
}
330
54
100
AcDbScale
 70
     0
300
1:2_1_1_10
140
1.0
141
0.2
290
     0
  0
SCALE
  5
876
102
{ACAD_REACTORS
330
54
102
}
330
54
100
AcDbScale
 70
     0
300
1/16" = 1'-0"
140
0.0625
141
12.0
290
     0
  0
SCALE
  5
23C3
102
{ACAD_REACTORS
330
54
102
}
330
54
100
AcDbScale
 70
     0
300
1:20_2_10
140
1.0
141
20.0
290
     0
  0
SCALE
  5
23C4
102
{ACAD_REACTORS
330
54
102
}
330
54
100
AcDbScale
 70
     0
300
1:5_1_11
140
1.0
141
5.0
290
     0
  0
SCALE
  5
23C5
102
{ACAD_REACTORS
330
54
102
}
330
54
100
AcDbScale
 70
     0
300
1:1_1_1_10
140
1.0
141
0.1
290
     0
  0
SCALE
  5
23C6
102
{ACAD_REACTORS
330
54
102
}
330
54
100
AcDbScale
 70
     0
300
1:20_1_1_1_10
140
1.0
141
20.0
290
     0
  0
SCALE
  5
23C7
102
{ACAD_REACTORS
330
54
102
}
330
54
100
AcDbScale
 70
     0
300
1:100_1_8
140
1.0
141
100.0
290
     0
  0
SCALE
  5
23C8
102
{ACAD_REACTORS
330
54
102
}
330
54
100
AcDbScale
 70
     0
300
1:2_13
140
1.0
141
0.2
290
     0
  0
SCALE
  5
23C9
102
{ACAD_REACTORS
330
54
102
}
330
54
100
AcDbScale
 70
     0
300
1:1_1_1_2
140
1.0
141
0.1
290
     0
  0
SCALE
  5
23CA
102
{ACAD_REACTORS
330
54
102
}
330
54
100
AcDbScale
 70
     0
300
1:50_1_7
140
1.0
141
50.0
290
     0
  0
SCALE
  5
23CB
102
{ACAD_REACTORS
330
54
102
}
330
54
100
AcDbScale
 70
     0
300
1:100_1_1_1_10
140
1.0
141
100.0
290
     0
  0
SCALE
  5
23CC
102
{ACAD_REACTORS
330
54
102
}
330
54
100
AcDbScale
 70
     0
300
1:5_13
140
1.0
141
0.5
290
     0
  0
SCALE
  5
85D
102
{ACAD_REACTORS
330
54
102
}
330
54
100
AcDbScale
 70
     0
300
1:5_2
140
1.0
141
5.0
290
     0
  0
SCALE
  5
23CD
102
{ACAD_REACTORS
330
54
102
}
330
54
100
AcDbScale
 70
     0
300
1:50_13
140
1.0
141
5.0
290
     0
  0
SCALE
  5
23CE
102
{ACAD_REACTORS
330
54
102
}
330
54
100
AcDbScale
 70
     0
300
1:1_1_1_1_10
140
1.0
141
1.0
290
     0
  0
SCALE
  5
23CF
102
{ACAD_REACTORS
330
54
102
}
330
54
100
AcDbScale
 70
     0
300
1:20_2_1
140
1.0
141
2.0
290
     0
  0
SCALE
  5
23D0
102
{ACAD_REACTORS
330
54
102
}
330
54
100
AcDbScale
 70
     0
300
1:2_14
140
1.0
141
0.2
290
     0
  0
SCALE
  5
23D1
102
{ACAD_REACTORS
330
54
102
}
330
54
100
AcDbScale
 70
     0
300
1:100_1_1_1_11
140
1.0
141
100.0
290
     0
  0
SCALE
  5
23D2
102
{ACAD_REACTORS
330
54
102
}
330
54
100
AcDbScale
 70
     0
300
1:2_1_1_3
140
1.0
141
0.2
290
     0
  0
SCALE
  5
23D3
102
{ACAD_REACTORS
330
54
102
}
330
54
100
AcDbScale
 70
     0
300
1:50_14
140
1.0
141
5.0
290
     0
  0
SCALE
  5
23D4
102
{ACAD_REACTORS
330
54
102
}
330
54
100
AcDbScale
 70
     0
300
1:50_2_8
140
1.0
141
50.0
290
     0
  0
SCALE
  5
23D5
102
{ACAD_REACTORS
330
54
102
}
330
54
100
AcDbScale
 70
     0
300
1:100_1_1_3
140
1.0
141
10.0
290
     0
  0
SCALE
  5
23D6
102
{ACAD_REACTORS
330
54
102
}
330
54
100
AcDbScale
 70
     0
300
1:1_1_1_5
140
1.0
141
0.1
290
     0
  0
SCALE
  5
85F
102
{ACAD_REACTORS
330
54
102
}
330
54
100
AcDbScale
 70
     0
300
1:20_2
140
1.0
141
20.0
290
     0
  0
SCALE
  5
23D7
102
{ACAD_REACTORS
330
54
102
}
330
54
100
AcDbScale
 70
     0
300
1:1_1_1_1_11
140
1.0
141
1.0
290
     0
  0
SCALE
  5
23D8
102
{ACAD_REACTORS
330
54
102
}
330
54
100
AcDbScale
 70
     0
300
1:50_1_2
140
1.0
141
50.0
290
     0
  0
SCALE
  5
23D9
102
{ACAD_REACTORS
330
54
102
}
330
54
100
AcDbScale
 70
     0
300
1:10_1_1_4
140
1.0
141
10.0
290
     0
  0
SCALE
  5
23DA
102
{ACAD_REACTORS
330
54
102
}
330
54
100
AcDbScale
 70
     0
300
1:50_1_1_2
140
1.0
141
50.0
290
     0
  0
SCALE
  5
23DB
102
{ACAD_REACTORS
330
54
102
}
330
54
100
AcDbScale
 70
     0
300
1:10_1_1_1_11
140
1.0
141
10.0
290
     0
  0
SCALE
  5
23DC
102
{ACAD_REACTORS
330
54
102
}
330
54
100
AcDbScale
 70
     0
300
1:2_1_1_1_11
140
1.0
141
2.0
290
     0
  0
SCALE
  5
23DD
102
{ACAD_REACTORS
330
54
102
}
330
54
100
AcDbScale
 70
     0
300
1:10_2_11
140
1.0
141
10.0
290
     0
  0
SCALE
  5
23DE
102
{ACAD_REACTORS
330
54
102
}
330
54
100
AcDbScale
 70
     0
300
1:50_2_11
140
1.0
141
50.0
290
     0
  0
SCALE
  5
23DF
102
{ACAD_REACTORS
330
54
102
}
330
54
100
AcDbScale
 70
     0
300
1:1_2_11
140
1.0
141
1.0
290
     0
  0
SCALE
  5
23E0
102
{ACAD_REACTORS
330
54
102
}
330
54
100
AcDbScale
 70
     0
300
1:1_1_2_1
140
1.0
141
1.0
290
     0
  0
SCALE
  5
863
102
{ACAD_REACTORS
330
54
102
}
330
54
100
AcDbScale
 70
     0
300
1:2_1
140
1.0
141
2.0
290
     0
  0
SCALE
  5
23E1
102
{ACAD_REACTORS
330
54
102
}
330
54
100
AcDbScale
 70
     0
300
1:100_1_7
140
1.0
141
100.0
290
     0
  0
SCALE
  5
23E2
102
{ACAD_REACTORS
330
54
102
}
330
54
100
AcDbScale
 70
     0
300
1:10_9
140
1.0
141
1.0
290
     0
  0
SCALE
  5
23E3
102
{ACAD_REACTORS
330
54
102
}
330
54
100
AcDbScale
 70
     0
300
1:5_14
140
1.0
141
0.5
290
     0
  0
SCALE
  5
23E4
102
{ACAD_REACTORS
330
54
102
}
330
54
100
AcDbScale
 70
     0
300
1:1_1_1_7
140
1.0
141
1.0
290
     0
  0
SCALE
  5
23E5
102
{ACAD_REACTORS
330
54
102
}
330
54
100
AcDbScale
 70
     0
300
1:50_2_3
140
1.0
141
50.0
290
     0
  0
SCALE
  5
23E6
102
{ACAD_REACTORS
330
54
102
}
330
54
100
AcDbScale
 70
     0
300
1:2_2_6
140
1.0
141
2.0
290
     0
  0
SCALE
  5
23E7
102
{ACAD_REACTORS
330
54
102
}
330
54
100
AcDbScale
 70
     0
300
1:2_2_11
140
1.0
141
2.0
290
     0
  0
SCALE
  5
23E8
102
{ACAD_REACTORS
330
54
102
}
330
54
100
AcDbScale
 70
     0
300
1:20_1_8
140
1.0
141
20.0
290
     0
  0
SCALE
  5
23E9
102
{ACAD_REACTORS
330
54
102
}
330
54
100
AcDbScale
 70
     0
300
1:100_14
140
1.0
141
10.0
290
     0
  0
SCALE
  5
23EA
102
{ACAD_REACTORS
330
54
102
}
330
54
100
AcDbScale
 70
     0
300
1:1_1_1_1_2
140
1.0
141
1.0
290
     0
  0
SCALE
  5
85C
102
{ACAD_REACTORS
330
54
102
}
330
54
100
AcDbScale
 70
     0
300
1:2_2
140
1.0
141
2.0
290
     0
  0
SCALE
  5
23EB
102
{ACAD_REACTORS
330
54
102
}
330
54
100
AcDbScale
 70
     0
300
1:1_1_1_3
140
1.0
141
0.1
290
     0
  0
SCALE
  5
23EC
102
{ACAD_REACTORS
330
54
102
}
330
54
100
AcDbScale
 70
     0
300
1:5_1_1_12
140
1.0
141
0.5
290
     0
  0
SCALE
  5
23ED
102
{ACAD_REACTORS
330
54
102
}
330
54
100
AcDbScale
 70
     0
300
1:1_2_1
140
1.0
141
0.1
290
     0
  0
SCALE
  5
23EE
102
{ACAD_REACTORS
330
54
102
}
330
54
100
AcDbScale
 70
     0
300
1:50_1_1_12
140
1.0
141
5.0
290
     0
  0
SCALE
  5
23EF
102
{ACAD_REACTORS
330
54
102
}
330
54
100
AcDbScale
 70
     0
300
1:50_2_1
140
1.0
141
5.0
290
     0
  0
SCALE
  5
23F0
102
{ACAD_REACTORS
330
54
102
}
330
54
100
AcDbScale
 70
     0
300
1:100_2_11
140
1.0
141
100.0
290
     0
  0
SCALE
  5
23F1
102
{ACAD_REACTORS
330
54
102
}
330
54
100
AcDbScale
 70
     0
300
1:20_14
140
1.0
141
2.0
290
     0
  0
SCALE
  5
23F2
102
{ACAD_REACTORS
330
54
102
}
330
54
100
AcDbScale
 70
     0
300
1:2_1_2_1
140
1.0
141
2.0
290
     0
  0
SCALE
  5
23F3
102
{ACAD_REACTORS
330
54
102
}
330
54
100
AcDbScale
 70
     0
300
1:100_1_16
140
1.0
141
100.0
290
     0
  0
SCALE
  5
23F4
102
{ACAD_REACTORS
330
54
102
}
330
54
100
AcDbScale
 70
     0
300
1:1_14
140
1.0
141
0.1
290
     0
  0
SCALE
  5
874
102
{ACAD_REACTORS
330
54
102
}
330
54
100
AcDbScale
 70
     0
300
1/64" = 1'-0"
140
0.015625
141
12.0
290
     0
  0
SCALE
  5
23F5
102
{ACAD_REACTORS
330
54
102
}
330
54
100
AcDbScale
 70
     0
300
1:1_2_8
140
1.0
141
1.0
290
     0
  0
SCALE
  5
23F6
102
{ACAD_REACTORS
330
54
102
}
330
54
100
AcDbScale
 70
     0
300
1:10_1_1_1_10
140
1.0
141
10.0
290
     0
  0
SCALE
  5
23F7
102
{ACAD_REACTORS
330
54
102
}
330
54
100
AcDbScale
 70
     0
300
1:20_1_1_11
140
1.0
141
2.0
290
     0
  0
SCALE
  5
23F8
102
{ACAD_REACTORS
330
54
102
}
330
54
100
AcDbScale
 70
     0
300
1:100_1_1_1_6
140
1.0
141
100.0
290
     0
  0
SCALE
  5
23F9
102
{ACAD_REACTORS
330
54
102
}
330
54
100
AcDbScale
 70
     0
300
1:10_8
140
1.0
141
1.0
290
     0
  0
SCALE
  5
23FA
102
{ACAD_REACTORS
330
54
102
}
330
54
100
AcDbScale
 70
     0
300
1:100_1_1_5
140
1.0
141
10.0
290
     0
  0
SCALE
  5
23FB
102
{ACAD_REACTORS
330
54
102
}
330
54
100
AcDbScale
 70
     0
300
1:100_1_1_11
140
1.0
141
10.0
290
     0
  0
SCALE
  5
23FC
102
{ACAD_REACTORS
330
54
102
}
330
54
100
AcDbScale
 70
     0
300
1:1_1_14
140
1.0
141
1.0
290
     0
  0
SCALE
  5
23FD
102
{ACAD_REACTORS
330
54
102
}
330
54
100
AcDbScale
 70
     0
300
1:10_1_1_1_2
140
1.0
141
10.0
290
     0
  0
SCALE
  5
23FE
102
{ACAD_REACTORS
330
54
102
}
330
54
100
AcDbScale
 70
     0
300
1:2_1_14
140
1.0
141
2.0
290
     0
  0
SCALE
  5
132C
102
{ACAD_REACTORS
330
54
102
}
330
54
100
AcDbScale
 70
     0
300
1:10_3
140
1.0
141
1.0
290
     0
  0
SCALE
  5
132E
102
{ACAD_REACTORS
330
54
102
}
330
54
100
AcDbScale
 70
     0
300
1:50_3
140
1.0
141
5.0
290
     0
  0
SCALE
  5
23FF
102
{ACAD_REACTORS
330
54
102
}
330
54
100
AcDbScale
 70
     0
300
1:5_1_14
140
1.0
141
5.0
290
     0
  0
SCALE
  5
2400
102
{ACAD_REACTORS
330
54
102
}
330
54
100
AcDbScale
 70
     0
300
1:10_1_2
140
1.0
141
10.0
290
     0
  0
SCALE
  5
2401
102
{ACAD_REACTORS
330
54
102
}
330
54
100
AcDbScale
 70
     0
300
1:10_17
140
1.0
141
1.0
290
     0
  0
SCALE
  5
2402
102
{ACAD_REACTORS
330
54
102
}
330
54
100
AcDbScale
 70
     0
300
1:20_1_1_1_3
140
1.0
141
20.0
290
     0
  0
SCALE
  5
2403
102
{ACAD_REACTORS
330
54
102
}
330
54
100
AcDbScale
 70
     0
300
1:10_1_14
140
1.0
141
10.0
290
     0
  0
SCALE
  5
2404
102
{ACAD_REACTORS
330
54
102
}
330
54
100
AcDbScale
 70
     0
300
1:5_1_2
140
1.0
141
5.0
290
     0
  0
SCALE
  5
2405
102
{ACAD_REACTORS
330
54
102
}
330
54
100
AcDbScale
 70
     0
300
1:100_2_1
140
1.0
141
10.0
290
     0
  0
SCALE
  5
2406
102
{ACAD_REACTORS
330
54
102
}
330
54
100
AcDbScale
 70
     0
300
1:1_1_1_8
140
1.0
141
0.1
290
     0
  0
SCALE
  5
2407
102
{ACAD_REACTORS
330
54
102
}
330
54
100
AcDbScale
 70
     0
300
1:2_1_1_1_10
140
1.0
141
2.0
290
     0
  0
SCALE
  5
2408
102
{ACAD_REACTORS
330
54
102
}
330
54
100
AcDbScale
 70
     0
300
1:5_11
140
1.0
141
0.5
290
     0
  0
SCALE
  5
867
102
{ACAD_REACTORS
330
54
102
}
330
54
100
AcDbScale
 70
     0
300
1:10_1
140
1.0
141
10.0
290
     0
  0
SCALE
  5
2409
102
{ACAD_REACTORS
330
54
102
}
330
54
100
AcDbScale
 70
     0
300
1:20_1_14
140
1.0
141
20.0
290
     0
  0
SCALE
  5
240A
102
{ACAD_REACTORS
330
54
102
}
330
54
100
AcDbScale
 70
     0
300
1:50_1_14
140
1.0
141
50.0
290
     0
  0
SCALE
  5
240B
102
{ACAD_REACTORS
330
54
102
}
330
54
100
AcDbScale
 70
     0
300
1:100_1_14
140
1.0
141
100.0
290
     0
  0
SCALE
  5
240C
102
{ACAD_REACTORS
330
54
102
}
330
54
100
AcDbScale
 70
     0
300
1:1_2_6
140
1.0
141
1.0
290
     0
  0
SCALE
  5
240D
102
{ACAD_REACTORS
330
54
102
}
330
54
100
AcDbScale
 70
     0
300
1:10_15
140
1.0
141
1.0
290
     0
  0
SCALE
  5
240E
102
{ACAD_REACTORS
330
54
102
}
330
54
100
AcDbScale
 70
     0
300
1:1_17
140
1.0
141
0.1
290
     0
  0
SCALE
  5
240F
102
{ACAD_REACTORS
330
54
102
}
330
54
100
AcDbScale
 70
     0
300
1:2_1_1_1_2
140
1.0
141
2.0
290
     0
  0
SCALE
  5
2410
102
{ACAD_REACTORS
330
54
102
}
330
54
100
AcDbScale
 70
     0
300
1:100_XREF
140
1.0
141
100.0
290
     0
  0
SCALE
  5
2411
102
{ACAD_REACTORS
330
54
102
}
330
54
100
AcDbScale
 70
     0
300
1:100_1_1_1_1_1
140
1.0
141
100.0
290
     0
  0
SCALE
  5
2412
102
{ACAD_REACTORS
330
54
102
}
330
54
100
AcDbScale
 70
     0
300
1:1_15
140
1.0
141
0.1
290
     0
  0
SCALE
  5
1A1C
102
{ACAD_REACTORS
330
54
102
}
330
54
100
AcDbScale
 70
     0
300
1:1_5
140
1.0
141
1.0
290
     0
  0
SCALE
  5
2413
102
{ACAD_REACTORS
330
54
102
}
330
54
100
AcDbScale
 70
     0
300
1:5_1_15
140
1.0
141
5.0
290
     0
  0
SCALE
  5
2414
102
{ACAD_REACTORS
330
54
102
}
330
54
100
AcDbScale
 70
     0
300
1:2_15
140
1.0
141
0.2
290
     0
  0
SCALE
  5
2415
102
{ACAD_REACTORS
330
54
102
}
330
54
100
AcDbScale
 70
     0
300
1:5_15
140
1.0
141
0.5
290
     0
  0
SCALE
  5
2416
102
{ACAD_REACTORS
330
54
102
}
330
54
100
AcDbScale
 70
     0
300
1:2_17
140
1.0
141
0.2
290
     0
  0
SCALE
  5
2417
102
{ACAD_REACTORS
330
54
102
}
330
54
100
AcDbScale
 70
     0
300
1:50_1_1_9
140
1.0
141
5.0
290
     0
  0
SCALE
  5
2418
102
{ACAD_REACTORS
330
54
102
}
330
54
100
AcDbScale
 70
     0
300
1:5_17
140
1.0
141
0.5
290
     0
  0
SCALE
  5
2419
102
{ACAD_REACTORS
330
54
102
}
330
54
100
AcDbScale
 70
     0
300
1:20_17
140
1.0
141
2.0
290
     0
  0
SCALE
  5
241A
102
{ACAD_REACTORS
330
54
102
}
330
54
100
AcDbScale
 70
     0
300
1:50_17
140
1.0
141
5.0
290
     0
  0
SCALE
  5
241B
102
{ACAD_REACTORS
330
54
102
}
330
54
100
AcDbScale
 70
     0
300
1:2_2_10
140
1.0
141
2.0
290
     0
  0
SCALE
  5
241C
102
{ACAD_REACTORS
330
54
102
}
330
54
100
AcDbScale
 70
     0
300
1:10_16
140
1.0
141
1.0
290
     0
  0
SCALE
  5
864
102
{ACAD_REACTORS
330
54
102
}
330
54
100
AcDbScale
 70
     0
300
1:4
140
1.0
141
4.0
290
     0
  0
SCALE
  5
241D
102
{ACAD_REACTORS
330
54
102
}
330
54
100
AcDbScale
 70
     0
300
1:100_17
140
1.0
141
10.0
290
     0
  0
SCALE
  5
241E
102
{ACAD_REACTORS
330
54
102
}
330
54
100
AcDbScale
 70
     0
300
1:1_1_17
140
1.0
141
1.0
290
     0
  0
SCALE
  5
241F
102
{ACAD_REACTORS
330
54
102
}
330
54
100
AcDbScale
 70
     0
300
1:100_1_1_2
140
1.0
141
10.0
290
     0
  0
SCALE
  5
2420
102
{ACAD_REACTORS
330
54
102
}
330
54
100
AcDbScale
 70
     0
300
1:50_15
140
1.0
141
5.0
290
     0
  0
SCALE
  5
2421
102
{ACAD_REACTORS
330
54
102
}
330
54
100
AcDbScale
 70
     0
300
1:100_1_2
140
1.0
141
100.0
290
     0
  0
SCALE
  5
2422
102
{ACAD_REACTORS
330
54
102
}
330
54
100
AcDbScale
 70
     0
300
1:10_1_1_1_3
140
1.0
141
10.0
290
     0
  0
SCALE
  5
2423
102
{ACAD_REACTORS
330
54
102
}
330
54
100
AcDbScale
 70
     0
300
1:100_9
140
1.0
141
10.0
290
     0
  0
SCALE
  5
2424
102
{ACAD_REACTORS
330
54
102
}
330
54
100
AcDbScale
 70
     0
300
1:2_1_17
140
1.0
141
2.0
290
     0
  0
SCALE
  5
2425
102
{ACAD_REACTORS
330
54
102
}
330
54
100
AcDbScale
 70
     0
300
1:5_1_17
140
1.0
141
5.0
290
     0
  0
SCALE
  5
2426
102
{ACAD_REACTORS
330
54
102
}
330
54
100
AcDbScale
 70
     0
300
1:2_2_1_1
140
1.0
141
2.0
290
     0
  0
SCALE
  5
1A1D
102
{ACAD_REACTORS
330
54
102
}
330
54
100
AcDbScale
 70
     0
300
1:2_5
140
1.0
141
2.0
290
     0
  0
SCALE
  5
2427
102
{ACAD_REACTORS
330
54
102
}
330
54
100
AcDbScale
 70
     0
300
1:10_1_17
140
1.0
141
10.0
290
     0
  0
SCALE
  5
2428
102
{ACAD_REACTORS
330
54
102
}
330
54
100
AcDbScale
 70
     0
300
1:20_1_17
140
1.0
141
20.0
290
     0
  0
SCALE
  5
2429
102
{ACAD_REACTORS
330
54
102
}
330
54
100
AcDbScale
 70
     0
300
1:1_XREF
140
1.0
141
1.0
290
     0
  0
SCALE
  5
242A
102
{ACAD_REACTORS
330
54
102
}
330
54
100
AcDbScale
 70
     0
300
1:100_1_1_1_5
140
1.0
141
100.0
290
     0
  0
SCALE
  5
242B
102
{ACAD_REACTORS
330
54
102
}
330
54
100
AcDbScale
 70
     0
300
1:50_1_17
140
1.0
141
50.0
290
     0
  0
SCALE
  5
242C
102
{ACAD_REACTORS
330
54
102
}
330
54
100
AcDbScale
 70
     0
300
1:2_6_1
140
1.0
141
0.2
290
     0
  0
SCALE
  5
242D
102
{ACAD_REACTORS
330
54
102
}
330
54
100
AcDbScale
 70
     0
300
1:100_1_17
140
1.0
141
100.0
290
     0
  0
SCALE
  5
242E
102
{ACAD_REACTORS
330
54
102
}
330
54
100
AcDbScale
 70
     0
300
1:2_1_1_1_3
140
1.0
141
2.0
290
     0
  0
SCALE
  5
242F
102
{ACAD_REACTORS
330
54
102
}
330
54
100
AcDbScale
 70
     0
300
1:100_1_1_4
140
1.0
141
100.0
290
     0
  0
SCALE
  5
2430
102
{ACAD_REACTORS
330
54
102
}
330
54
100
AcDbScale
 70
     0
300
1:5_1_1_2_1
140
1.0
141
0.5
290
     0
  0
SCALE
  5
1333
102
{ACAD_REACTORS
330
54
102
}
330
54
100
AcDbScale
 70
     0
300
1:2_4
140
1.0
141
2.0
290
     0
  0
SCALE
  5
2431
102
{ACAD_REACTORS
330
54
102
}
330
54
100
AcDbScale
 70
     0
300
1:10_2_3
140
1.0
141
10.0
290
     0
  0
SCALE
  5
2432
102
{ACAD_REACTORS
330
54
102
}
330
54
100
AcDbScale
 70
     0
300
1:1_1_6
140
1.0
141
1.0
290
     0
  0
SCALE
  5
2433
102
{ACAD_REACTORS
330
54
102
}
330
54
100
AcDbScale
 70
     0
300
1:5_1_1_7
140
1.0
141
0.5
290
     0
  0
SCALE
  5
2434
102
{ACAD_REACTORS
330
54
102
}
330
54
100
AcDbScale
 70
     0
300
1:100_2_8
140
1.0
141
100.0
290
     0
  0
SCALE
  5
2435
102
{ACAD_REACTORS
330
54
102
}
330
54
100
AcDbScale
 70
     0
300
1:2_1_6
140
1.0
141
2.0
290
     0
  0
SCALE
  5
2436
102
{ACAD_REACTORS
330
54
102
}
330
54
100
AcDbScale
 70
     0
300
1:2_1_1_1
140
1.0
141
2.0
290
     0
  0
SCALE
  5
2437
102
{ACAD_REACTORS
330
54
102
}
330
54
100
AcDbScale
 70
     0
300
1:100_15
140
1.0
141
10.0
290
     0
  0
SCALE
  5
2438
102
{ACAD_REACTORS
330
54
102
}
330
54
100
AcDbScale
 70
     0
300
1:5_1_6
140
1.0
141
5.0
290
     0
  0
SCALE
  5
2439
102
{ACAD_REACTORS
330
54
102
}
330
54
100
AcDbScale
 70
     0
300
1:10_1_6
140
1.0
141
10.0
290
     0
  0
SCALE
  5
243A
102
{ACAD_REACTORS
330
54
102
}
330
54
100
AcDbScale
 70
     0
300
1:5_1_3
140
1.0
141
5.0
290
     0
  0
SCALE
  5
1A1E
102
{ACAD_REACTORS
330
54
102
}
330
54
100
AcDbScale
 70
     0
300
1:5_5
140
1.0
141
5.0
290
     0
  0
SCALE
  5
243B
102
{ACAD_REACTORS
330
54
102
}
330
54
100
AcDbScale
 70
     0
300
1:20_1_6
140
1.0
141
20.0
290
     0
  0
SCALE
  5
243C
102
{ACAD_REACTORS
330
54
102
}
330
54
100
AcDbScale
 70
     0
300
1:50_1_6
140
1.0
141
50.0
290
     0
  0
SCALE
  5
243D
102
{ACAD_REACTORS
330
54
102
}
330
54
100
AcDbScale
 70
     0
300
1:50_1_1_3
140
1.0
141
5.0
290
     0
  0
SCALE
  5
243E
102
{ACAD_REACTORS
330
54
102
}
330
54
100
AcDbScale
 70
     0
300
1:100_1_6
140
1.0
141
100.0
290
     0
  0
SCALE
  5
243F
102
{ACAD_REACTORS
330
54
102
}
330
54
100
AcDbScale
 70
     0
300
1:20_11
140
1.0
141
2.0
290
     0
  0
SCALE
  5
2440
102
{ACAD_REACTORS
330
54
102
}
330
54
100
AcDbScale
 70
     0
300
1:1_2_5
140
1.0
141
1.0
290
     0
  0
SCALE
  5
2441
102
{ACAD_REACTORS
330
54
102
}
330
54
100
AcDbScale
 70
     0
300
1:10_7
140
1.0
141
1.0
290
     0
  0
SCALE
  5
2442
102
{ACAD_REACTORS
330
54
102
}
330
54
100
AcDbScale
 70
     0
300
1:100_1_1_1_4
140
1.0
141
100.0
290
     0
  0
SCALE
  5
2443
102
{ACAD_REACTORS
330
54
102
}
330
54
100
AcDbScale
 70
     0
300
1:10_2_5
140
1.0
141
10.0
290
     0
  0
SCALE
  5
2444
102
{ACAD_REACTORS
330
54
102
}
330
54
100
AcDbScale
 70
     0
300
1:10_1_1_5
140
1.0
141
1.0
290
     0
  0
SCALE
  5
1A1F
102
{ACAD_REACTORS
330
54
102
}
330
54
100
AcDbScale
 70
     0
300
1:10_5
140
1.0
141
10.0
290
     0
  0
SCALE
  5
2445
102
{ACAD_REACTORS
330
54
102
}
330
54
100
AcDbScale
 70
     0
300
1:1_1_15
140
1.0
141
1.0
290
     0
  0
SCALE
  5
2446
102
{ACAD_REACTORS
330
54
102
}
330
54
100
AcDbScale
 70
     0
300
1:100_13
140
1.0
141
10.0
290
     0
  0
SCALE
  5
2447
102
{ACAD_REACTORS
330
54
102
}
330
54
100
AcDbScale
 70
     0
300
1:10_2_1
140
1.0
141
1.0
290
     0
  0
SCALE
  5
2448
102
{ACAD_REACTORS
330
54
102
}
330
54
100
AcDbScale
 70
     0
300
1:20_2_6
140
1.0
141
20.0
290
     0
  0
SCALE
  5
2449
102
{ACAD_REACTORS
330
54
102
}
330
54
100
AcDbScale
 70
     0
300
1:1_2_4
140
1.0
141
1.0
290
     0
  0
SCALE
  5
244A
102
{ACAD_REACTORS
330
54
102
}
330
54
100
AcDbScale
 70
     0
300
1:5_7
140
1.0
141
0.5
290
     0
  0
SCALE
  5
244B
102
{ACAD_REACTORS
330
54
102
}
330
54
100
AcDbScale
 70
     0
300
1:2_2_4
140
1.0
141
2.0
290
     0
  0
SCALE
  5
244C
102
{ACAD_REACTORS
330
54
102
}
330
54
100
AcDbScale
 70
     0
300
1:100_2_6
140
1.0
141
100.0
290
     0
  0
SCALE
  5
244D
102
{ACAD_REACTORS
330
54
102
}
330
54
100
AcDbScale
 70
     0
300
1:100_7
140
1.0
141
10.0
290
     0
  0
SCALE
  5
244E
102
{ACAD_REACTORS
330
54
102
}
330
54
100
AcDbScale
 70
     0
300
1:5_1_1_5
140
1.0
141
0.5
290
     0
  0
SCALE
  5
86C
102
{ACAD_REACTORS
330
54
102
}
330
54
100
AcDbScale
 70
     0
300
1:50_1
140
1.0
141
50.0
290
     0
  0
SCALE
  5
244F
102
{ACAD_REACTORS
330
54
102
}
330
54
100
AcDbScale
 70
     0
300
1:10_1_1_4_1
140
1.0
141
1.0
290
     0
  0
SCALE
  5
2450
102
{ACAD_REACTORS
330
54
102
}
330
54
100
AcDbScale
 70
     0
300
1:20_2_4
140
1.0
141
20.0
290
     0
  0
SCALE
  5
2451
102
{ACAD_REACTORS
330
54
102
}
330
54
100
AcDbScale
 70
     0
300
1:5_8
140
1.0
141
0.5
290
     0
  0
SCALE
  5
2452
102
{ACAD_REACTORS
330
54
102
}
330
54
100
AcDbScale
 70
     0
300
1:100_2_10
140
1.0
141
100.0
290
     0
  0
SCALE
  5
2453
102
{ACAD_REACTORS
330
54
102
}
330
54
100
AcDbScale
 70
     0
300
1:2_2_5
140
1.0
141
2.0
290
     0
  0
SCALE
  5
2454
102
{ACAD_REACTORS
330
54
102
}
330
54
100
AcDbScale
 70
     0
300
1:100_8
140
1.0
141
10.0
290
     0
  0
SCALE
  5
2455
102
{ACAD_REACTORS
330
54
102
}
330
54
100
AcDbScale
 70
     0
300
1:5_1_1_6
140
1.0
141
0.5
290
     0
  0
SCALE
  5
2456
102
{ACAD_REACTORS
330
54
102
}
330
54
100
AcDbScale
 70
     0
300
1:10_1_15
140
1.0
141
10.0
290
     0
  0
SCALE
  5
2457
102
{ACAD_REACTORS
330
54
102
}
330
54
100
AcDbScale
 70
     0
300
1:20_2_5
140
1.0
141
20.0
290
     0
  0
SCALE
  5
2458
102
{ACAD_REACTORS
330
54
102
}
330
54
100
AcDbScale
 70
     0
300
1:50_2_5
140
1.0
141
50.0
290
     0
  0
SCALE
  5
1A20
102
{ACAD_REACTORS
330
54
102
}
330
54
100
AcDbScale
 70
     0
300
1:20_5
140
1.0
141
20.0
290
     0
  0
SCALE
  5
2459
102
{ACAD_REACTORS
330
54
102
}
330
54
100
AcDbScale
 70
     0
300
1:1_1_13
140
1.0
141
1.0
290
     0
  0
SCALE
  5
245A
102
{ACAD_REACTORS
330
54
102
}
330
54
100
AcDbScale
 70
     0
300
1:50_1_1_5
140
1.0
141
5.0
290
     0
  0
SCALE
  5
245B
102
{ACAD_REACTORS
330
54
102
}
330
54
100
AcDbScale
 70
     0
300
1:50_1_1_4
140
1.0
141
5.0
290
     0
  0
SCALE
  5
245C
102
{ACAD_REACTORS
330
54
102
}
330
54
100
AcDbScale
 70
     0
300
1:10_10
140
1.0
141
1.0
290
     0
  0
SCALE
  5
245D
102
{ACAD_REACTORS
330
54
102
}
330
54
100
AcDbScale
 70
     0
300
1:1_8
140
1.0
141
0.1
290
     0
  0
SCALE
  5
245E
102
{ACAD_REACTORS
330
54
102
}
330
54
100
AcDbScale
 70
     0
300
1:2_8
140
1.0
141
0.2
290
     0
  0
SCALE
  5
245F
102
{ACAD_REACTORS
330
54
102
}
330
54
100
AcDbScale
 70
     0
300
1:2_1_1_1_5
140
1.0
141
2.0
290
     0
  0
SCALE
  5
2460
102
{ACAD_REACTORS
330
54
102
}
330
54
100
AcDbScale
 70
     0
300
1:5_6_1
140
1.0
141
0.5
290
     0
  0
SCALE
  5
2461
102
{ACAD_REACTORS
330
54
102
}
330
54
100
AcDbScale
 70
     0
300
1:20_9
140
1.0
141
2.0
290
     0
  0
SCALE
  5
2462
102
{ACAD_REACTORS
330
54
102
}
330
54
100
AcDbScale
 70
     0
300
1:20_2_1_1
140
1.0
141
20.0
290
     0
  0
SCALE
  5
1337
102
{ACAD_REACTORS
330
54
102
}
330
54
100
AcDbScale
 70
     0
300
1:50_4
140
1.0
141
50.0
290
     0
  0
SCALE
  5
1A21
102
{ACAD_REACTORS
330
54
102
}
330
54
100
AcDbScale
 70
     0
300
1:50_5
140
1.0
141
50.0
290
     0
  0
SCALE
  5
2463
102
{ACAD_REACTORS
330
54
102
}
330
54
100
AcDbScale
 70
     0
300
1:20_8
140
1.0
141
2.0
290
     0
  0
SCALE
  5
2464
102
{ACAD_REACTORS
330
54
102
}
330
54
100
AcDbScale
 70
     0
300
1:100_2_4
140
1.0
141
100.0
290
     0
  0
SCALE
  5
2465
102
{ACAD_REACTORS
330
54
102
}
330
54
100
AcDbScale
 70
     0
300
1:50_8
140
1.0
141
5.0
290
     0
  0
SCALE
  5
2466
102
{ACAD_REACTORS
330
54
102
}
330
54
100
AcDbScale
 70
     0
300
1:100_6_1
140
1.0
141
10.0
290
     0
  0
SCALE
  5
2467
102
{ACAD_REACTORS
330
54
102
}
330
54
100
AcDbScale
 70
     0
300
1:1_9
140
1.0
141
0.1
290
     0
  0
SCALE
  5
2468
102
{ACAD_REACTORS
330
54
102
}
330
54
100
AcDbScale
 70
     0
300
1:100_1_1_8
140
1.0
141
10.0
290
     0
  0
SCALE
  5
2469
102
{ACAD_REACTORS
330
54
102
}
330
54
100
AcDbScale
 70
     0
300
1:20_1_1_6
140
1.0
141
2.0
290
     0
  0
SCALE
  5
246A
102
{ACAD_REACTORS
330
54
102
}
330
54
100
AcDbScale
 70
     0
300
1:100_1_1_6
140
1.0
141
10.0
290
     0
  0
SCALE
  5
246B
102
{ACAD_REACTORS
330
54
102
}
330
54
100
AcDbScale
 70
     0
300
1:100_2_5
140
1.0
141
100.0
290
     0
  0
SCALE
  5
246C
102
{ACAD_REACTORS
330
54
102
}
330
54
100
AcDbScale
 70
     0
300
1:20_13
140
1.0
141
2.0
290
     0
  0
SCALE
  5
1A22
102
{ACAD_REACTORS
330
54
102
}
330
54
100
AcDbScale
 70
     0
300
1:100_5
140
1.0
141
100.0
290
     0
  0
SCALE
  5
246D
102
{ACAD_REACTORS
330
54
102
}
330
54
100
AcDbScale
 70
     0
300
1:10_1_11
140
1.0
141
10.0
290
     0
  0
SCALE
  5
246E
102
{ACAD_REACTORS
330
54
102
}
330
54
100
AcDbScale
 70
     0
300
1:2_2_8
140
1.0
141
2.0
290
     0
  0
SCALE
  5
246F
102
{ACAD_REACTORS
330
54
102
}
330
54
100
AcDbScale
 70
     0
300
1:20_1_1_1_1
140
1.0
141
2.0
290
     0
  0
SCALE
  5
2470
102
{ACAD_REACTORS
330
54
102
}
330
54
100
AcDbScale
 70
     0
300
1:10_1_1_6
140
1.0
141
1.0
290
     0
  0
SCALE
  5
2471
102
{ACAD_REACTORS
330
54
102
}
330
54
100
AcDbScale
 70
     0
300
1:5_1_1_3
140
1.0
141
0.5
290
     0
  0
SCALE
  5
2472
102
{ACAD_REACTORS
330
54
102
}
330
54
100
AcDbScale
 70
     0
300
1:1_2_2
140
1.0
141
1.0
290
     0
  0
SCALE
  5
2473
102
{ACAD_REACTORS
330
54
102
}
330
54
100
AcDbScale
 70
     0
300
1:2_1_1_6
140
1.0
141
0.2
290
     0
  0
SCALE
  5
2474
102
{ACAD_REACTORS
330
54
102
}
330
54
100
AcDbScale
 70
     0
300
1:1_1_1_6
140
1.0
141
0.1
290
     0
  0
SCALE
  5
2475
102
{ACAD_REACTORS
330
54
102
}
330
54
100
AcDbScale
 70
     0
300
1:20_1_1_1_6
140
1.0
141
20.0
290
     0
  0
SCALE
  5
2476
102
{ACAD_REACTORS
330
54
102
}
330
54
100
AcDbScale
 70
     0
300
1:1_1_11
140
1.0
141
1.0
290
     0
  0
SCALE
  5
873
102
{ACAD_REACTORS
330
54
102
}
330
54
100
AcDbScale
 70
     0
300
1/128" = 1'-0"
140
0.0078125
141
12.0
290
     0
  0
SCALE
  5
2477
102
{ACAD_REACTORS
330
54
102
}
330
54
100
AcDbScale
 70
     0
300
1:20_1_1_10
140
1.0
141
2.0
290
     0
  0
SCALE
  5
2478
102
{ACAD_REACTORS
330
54
102
}
330
54
100
AcDbScale
 70
     0
300
1:50_2_1_1
140
1.0
141
50.0
290
     0
  0
SCALE
  5
2479
102
{ACAD_REACTORS
330
54
102
}
330
54
100
AcDbScale
 70
     0
300
1:2_9
140
1.0
141
0.2
290
     0
  0
SCALE
  5
247A
102
{ACAD_REACTORS
330
54
102
}
330
54
100
AcDbScale
 70
     0
300
1:50_9
140
1.0
141
5.0
290
     0
  0
SCALE
  5
247B
102
{ACAD_REACTORS
330
54
102
}
330
54
100
AcDbScale
 70
     0
300
1:1_13
140
1.0
141
0.1
290
     0
  0
SCALE
  5
247C
102
{ACAD_REACTORS
330
54
102
}
330
54
100
AcDbScale
 70
     0
300
1:20_7
140
1.0
141
2.0
290
     0
  0
SCALE
  5
247D
102
{ACAD_REACTORS
330
54
102
}
330
54
100
AcDbScale
 70
     0
300
1:20_1_15
140
1.0
141
20.0
290
     0
  0
SCALE
  5
247E
102
{ACAD_REACTORS
330
54
102
}
330
54
100
AcDbScale
 70
     0
300
1:1_1_1_1_6
140
1.0
141
1.0
290
     0
  0
SCALE
  5
247F
102
{ACAD_REACTORS
330
54
102
}
330
54
100
AcDbScale
 70
     0
300
1:10_1_1_1_6
140
1.0
141
10.0
290
     0
  0
SCALE
  5
2480
102
{ACAD_REACTORS
330
54
102
}
330
54
100
AcDbScale
 70
     0
300
1:50_1_1_1
140
1.0
141
50.0
290
     0
  0
SCALE
  5
86B
102
{ACAD_REACTORS
330
54
102
}
330
54
100
AcDbScale
 70
     0
300
1:40
140
1.0
141
40.0
290
     0
  0
SCALE
  5
2481
102
{ACAD_REACTORS
330
54
102
}
330
54
100
AcDbScale
 70
     0
300
1:1_2_3
140
1.0
141
1.0
290
     0
  0
SCALE
  5
2482
102
{ACAD_REACTORS
330
54
102
}
330
54
100
AcDbScale
 70
     0
300
1:50_1_1_2_1
140
1.0
141
5.0
290
     0
  0
SCALE
  5
2483
102
{ACAD_REACTORS
330
54
102
}
330
54
100
AcDbScale
 70
     0
300
1:2_1_1_1_6
140
1.0
141
2.0
290
     0
  0
SCALE
  5
2484
102
{ACAD_REACTORS
330
54
102
}
330
54
100
AcDbScale
 70
     0
300
1:10_2_6
140
1.0
141
10.0
290
     0
  0
SCALE
  5
2485
102
{ACAD_REACTORS
330
54
102
}
330
54
100
AcDbScale
 70
     0
300
1:1_1_9
140
1.0
141
1.0
290
     0
  0
SCALE
  5
2486
102
{ACAD_REACTORS
330
54
102
}
330
54
100
AcDbScale
 70
     0
300
1:2_1_11
140
1.0
141
2.0
290
     0
  0
SCALE
  5
2487
102
{ACAD_REACTORS
330
54
102
}
330
54
100
AcDbScale
 70
     0
300
1:100_2_1_1
140
1.0
141
100.0
290
     0
  0
SCALE
  5
2488
102
{ACAD_REACTORS
330
54
102
}
330
54
100
AcDbScale
 70
     0
300
1:1_16
140
1.0
141
0.1
290
     0
  0
SCALE
  5
2489
102
{ACAD_REACTORS
330
54
102
}
330
54
100
AcDbScale
 70
     0
300
1:20_1_1_1_5
140
1.0
141
20.0
290
     0
  0
SCALE
  5
248A
102
{ACAD_REACTORS
330
54
102
}
330
54
100
AcDbScale
 70
     0
300
1:100_2_2
140
1.0
141
100.0
290
     0
  0
SCALE
  5
87A
102
{ACAD_REACTORS
330
54
102
}
330
54
100
AcDbScale
 70
     0
300
1/4" = 1'-0"
140
0.25
141
12.0
290
     0
  0
SCALE
  5
248B
102
{ACAD_REACTORS
330
54
102
}
330
54
100
AcDbScale
 70
     0
300
1:2_1_1_7
140
1.0
141
2.0
290
     0
  0
SCALE
  5
248C
102
{ACAD_REACTORS
330
54
102
}
330
54
100
AcDbScale
 70
     0
300
1:2_1_1_4
140
1.0
141
0.2
290
     0
  0
SCALE
  5
248D
102
{ACAD_REACTORS
330
54
102
}
330
54
100
AcDbScale
 70
     0
300
1:20_1_1_7
140
1.0
141
20.0
290
     0
  0
SCALE
  5
248E
102
{ACAD_REACTORS
330
54
102
}
330
54
100
AcDbScale
 70
     0
300
1:2_2_2
140
1.0
141
2.0
290
     0
  0
SCALE
  5
248F
102
{ACAD_REACTORS
330
54
102
}
330
54
100
AcDbScale
 70
     0
300
1:5_1_9
140
1.0
141
5.0
290
     0
  0
SCALE
  5
2490
102
{ACAD_REACTORS
330
54
102
}
330
54
100
AcDbScale
 70
     0
300
1:20_1_1_1_2
140
1.0
141
20.0
290
     0
  0
SCALE
  5
2491
102
{ACAD_REACTORS
330
54
102
}
330
54
100
AcDbScale
 70
     0
300
1:10_1_1_7
140
1.0
141
1.0
290
     0
  0
SCALE
  5
2492
102
{ACAD_REACTORS
330
54
102
}
330
54
100
AcDbScale
 70
     0
300
1:10_1_3
140
1.0
141
10.0
290
     0
  0
SCALE
  5
2493
102
{ACAD_REACTORS
330
54
102
}
330
54
100
AcDbScale
 70
     0
300
1:1_1_8
140
1.0
141
1.0
290
     0
  0
SCALE
  5
2494
102
{ACAD_REACTORS
330
54
102
}
330
54
100
AcDbScale
 70
     0
300
1:2_1_1_7_1
140
1.0
141
0.2
290
     0
  0
SCALE
  5
86E
102
{ACAD_REACTORS
330
54
102
}
330
54
100
AcDbScale
 70
     0
300
2:1
140
2.0
141
1.0
290
     0
  0
SCALE
  5
2495
102
{ACAD_REACTORS
330
54
102
}
330
54
100
AcDbScale
 70
     0
300
1:1_2_10
140
1.0
141
1.0
290
     0
  0
SCALE
  5
2496
102
{ACAD_REACTORS
330
54
102
}
330
54
100
AcDbScale
 70
     0
300
1:20_2_7
140
1.0
141
20.0
290
     0
  0
SCALE
  5
2497
102
{ACAD_REACTORS
330
54
102
}
330
54
100
AcDbScale
 70
     0
300
1:1_1_1_7_1
140
1.0
141
0.1
290
     0
  0
SCALE
  5
2498
102
{ACAD_REACTORS
330
54
102
}
330
54
100
AcDbScale
 70
     0
300
1:10_1_1_1_8
140
1.0
141
10.0
290
     0
  0
SCALE
  5
2499
102
{ACAD_REACTORS
330
54
102
}
330
54
100
AcDbScale
 70
     0
300
1:20_1_1_1_7
140
1.0
141
20.0
290
     0
  0
SCALE
  5
249A
102
{ACAD_REACTORS
330
54
102
}
330
54
100
AcDbScale
 70
     0
300
1:100_1_1_1_1
140
1.0
141
10.0
290
     0
  0
SCALE
  5
249B
102
{ACAD_REACTORS
330
54
102
}
330
54
100
AcDbScale
 70
     0
300
1:2_2_3
140
1.0
141
2.0
290
     0
  0
SCALE
  5
249C
102
{ACAD_REACTORS
330
54
102
}
330
54
100
AcDbScale
 70
     0
300
1:2_10
140
1.0
141
0.2
290
     0
  0
SCALE
  5
249D
102
{ACAD_REACTORS
330
54
102
}
330
54
100
AcDbScale
 70
     0
300
1:100_1_1_1_7
140
1.0
141
100.0
290
     0
  0
SCALE
  5
249E
102
{ACAD_REACTORS
330
54
102
}
330
54
100
AcDbScale
 70
     0
300
1:2_1_13
140
1.0
141
2.0
290
     0
  0
SCALE
  5
879
102
{ACAD_REACTORS
330
54
102
}
330
54
100
AcDbScale
 70
     0
300
3/16" = 1'-0"
140
0.1875
141
12.0
290
     0
  0
SCALE
  5
249F
102
{ACAD_REACTORS
330
54
102
}
330
54
100
AcDbScale
 70
     0
300
1:50_10
140
1.0
141
5.0
290
     0
  0
SCALE
  5
24A0
102
{ACAD_REACTORS
330
54
102
}
330
54
100
AcDbScale
 70
     0
300
1:1_1_1_1_7
140
1.0
141
1.0
290
     0
  0
SCALE
  5
24A1
102
{ACAD_REACTORS
330
54
102
}
330
54
100
AcDbScale
 70
     0
300
1:10_1_1_1_7
140
1.0
141
10.0
290
     0
  0
SCALE
  5
24A2
102
{ACAD_REACTORS
330
54
102
}
330
54
100
AcDbScale
 70
     0
300
1:50_6_1
140
1.0
141
5.0
290
     0
  0
SCALE
  5
24A3
102
{ACAD_REACTORS
330
54
102
}
330
54
100
AcDbScale
 70
     0
300
1:20_1_11
140
1.0
141
20.0
290
     0
  0
SCALE
  5
24A4
102
{ACAD_REACTORS
330
54
102
}
330
54
100
AcDbScale
 70
     0
300
1:5_1_1_11
140
1.0
141
0.5
290
     0
  0
SCALE
  5
24A5
102
{ACAD_REACTORS
330
54
102
}
330
54
100
AcDbScale
 70
     0
300
1:10_1_9
140
1.0
141
10.0
290
     0
  0
SCALE
  5
24A6
102
{ACAD_REACTORS
330
54
102
}
330
54
100
AcDbScale
 70
     0
300
1:2_1_1_1_7
140
1.0
141
2.0
290
     0
  0
SCALE
  5
24A7
102
{ACAD_REACTORS
330
54
102
}
330
54
100
AcDbScale
 70
     0
300
1:10_2_7
140
1.0
141
10.0
290
     0
  0
SCALE
  5
24A8
102
{ACAD_REACTORS
330
54
102
}
330
54
100
AcDbScale
 70
     0
300
1:50_2_7
140
1.0
141
50.0
290
     0
  0
SCALE
  5
872
102
{ACAD_REACTORS
330
54
102
}
330
54
100
AcDbScale
 70
     0
300
100:1
140
100.0
141
1.0
290
     0
  0
SCALE
  5
24A9
102
{ACAD_REACTORS
330
54
102
}
330
54
100
AcDbScale
 70
     0
300
1:1_2_7
140
1.0
141
1.0
290
     0
  0
SCALE
  5
24AA
102
{ACAD_REACTORS
330
54
102
}
330
54
100
AcDbScale
 70
     0
300
1:5_10
140
1.0
141
0.5
290
     0
  0
SCALE
  5
24AB
102
{ACAD_REACTORS
330
54
102
}
330
54
100
AcDbScale
 70
     0
300
1:5_1_13
140
1.0
141
5.0
290
     0
  0
SCALE
  5
24AC
102
{ACAD_REACTORS
330
54
102
}
330
54
100
AcDbScale
 70
     0
300
1:2_2_7
140
1.0
141
2.0
290
     0
  0
SCALE
  5
24AD
102
{ACAD_REACTORS
330
54
102
}
330
54
100
AcDbScale
 70
     0
300
1:100_10
140
1.0
141
10.0
290
     0
  0
SCALE
  5
24AE
102
{ACAD_REACTORS
330
54
102
}
330
54
100
AcDbScale
 70
     0
300
1:2_16
140
1.0
141
0.2
290
     0
  0
SCALE
  5
24AF
102
{ACAD_REACTORS
330
54
102
}
330
54
100
AcDbScale
 70
     0
300
1:20_1_9
140
1.0
141
20.0
290
     0
  0
SCALE
  5
24B0
102
{ACAD_REACTORS
330
54
102
}
330
54
100
AcDbScale
 70
     0
300
1:5_1_1_8
140
1.0
141
0.5
290
     0
  0
SCALE
  5
24B1
102
{ACAD_REACTORS
330
54
102
}
330
54
100
AcDbScale
 70
     0
300
1:50_1_1_8
140
1.0
141
5.0
290
     0
  0
SCALE
  5
24B2
102
{ACAD_REACTORS
330
54
102
}
330
54
100
AcDbScale
 70
     0
300
1:20_1_1_1_8
140
1.0
141
20.0
290
     0
  0
SCALE
  5
880
102
{ACAD_REACTORS
330
54
102
}
330
54
100
AcDbScale
 70
     0
300
3" = 1'-0"
140
3.0
141
12.0
290
     0
  0
SCALE
  5
24B3
102
{ACAD_REACTORS
330
54
102
}
330
54
100
AcDbScale
 70
     0
300
1:50_1_11
140
1.0
141
50.0
290
     0
  0
SCALE
  5
24B4
102
{ACAD_REACTORS
330
54
102
}
330
54
100
AcDbScale
 70
     0
300
1:100_2_7
140
1.0
141
100.0
290
     0
  0
SCALE
  5
24B5
102
{ACAD_REACTORS
330
54
102
}
330
54
100
AcDbScale
 70
     0
300
1:20_1_3_1
140
1.0
141
20.0
290
     0
  0
SCALE
  5
24B6
102
{ACAD_REACTORS
330
54
102
}
330
54
100
AcDbScale
 70
     0
300
1:20_10
140
1.0
141
2.0
290
     0
  0
SCALE
  5
24B7
102
{ACAD_REACTORS
330
54
102
}
330
54
100
AcDbScale
 70
     0
300
1:1_10
140
1.0
141
0.1
290
     0
  0
SCALE
  5
24B8
102
{ACAD_REACTORS
330
54
102
}
330
54
100
AcDbScale
 70
     0
300
1:10_1_13
140
1.0
141
10.0
290
     0
  0
SCALE
  5
24B9
102
{ACAD_REACTORS
330
54
102
}
330
54
100
AcDbScale
 70
     0
300
1:1_20
140
1.0
141
1.0
290
     0
  0
SCALE
  5
24BA
102
{ACAD_REACTORS
330
54
102
}
330
54
100
AcDbScale
 70
     0
300
1:2_20
140
1.0
141
2.0
290
     0
  0
SCALE
  5
24BB
102
{ACAD_REACTORS
330
54
102
}
330
54
100
AcDbScale
 70
     0
300
1:5_20
140
1.0
141
5.0
290
     0
  0
SCALE
  5
24BC
102
{ACAD_REACTORS
330
54
102
}
330
54
100
AcDbScale
 70
     0
300
1:10_20
140
1.0
141
10.0
290
     0
  0
SCALE
  5
875
102
{ACAD_REACTORS
330
54
102
}
330
54
100
AcDbScale
 70
     0
300
1/32" = 1'-0"
140
0.03125
141
12.0
290
     0
  0
SCALE
  5
24BD
102
{ACAD_REACTORS
330
54
102
}
330
54
100
AcDbScale
 70
     0
300
1:20_20
140
1.0
141
20.0
290
     0
  0
SCALE
  5
24BE
102
{ACAD_REACTORS
330
54
102
}
330
54
100
AcDbScale
 70
     0
300
1:50_20
140
1.0
141
50.0
290
     0
  0
SCALE
  5
24BF
102
{ACAD_REACTORS
330
54
102
}
330
54
100
AcDbScale
 70
     0
300
1:100_20
140
1.0
141
100.0
290
     0
  0
SCALE
  5
87F
102
{ACAD_REACTORS
330
54
102
}
330
54
100
AcDbScale
 70
     0
300
1-1/2" = 1'-0"
140
1.5
141
12.0
290
     0
  0
SCALE
  5
1D01
102
{ACAD_REACTORS
330
54
102
}
330
54
100
AcDbScale
 70
     0
300
1:1_6
140
1.0
141
1.0
290
     0
  0
SCALE
  5
878
102
{ACAD_REACTORS
330
54
102
}
330
54
100
AcDbScale
 70
     0
300
1/8" = 1'-0"
140
0.125
141
12.0
290
     0
  0
SCALE
  5
1D02
102
{ACAD_REACTORS
330
54
102
}
330
54
100
AcDbScale
 70
     0
300
1:2_6
140
1.0
141
2.0
290
     0
  0
SCALE
  5
1D03
102
{ACAD_REACTORS
330
54
102
}
330
54
100
AcDbScale
 70
     0
300
1:5_6
140
1.0
141
5.0
290
     0
  0
SCALE
  5
132F
102
{ACAD_REACTORS
330
54
102
}
330
54
100
AcDbScale
 70
     0
300
1:100_3
140
1.0
141
10.0
290
     0
  0
SCALE
  5
1D04
102
{ACAD_REACTORS
330
54
102
}
330
54
100
AcDbScale
 70
     0
300
1:10_6
140
1.0
141
10.0
290
     0
  0
SCALE
  5
1D05
102
{ACAD_REACTORS
330
54
102
}
330
54
100
AcDbScale
 70
     0
300
1:20_6
140
1.0
141
20.0
290
     0
  0
SCALE
  5
87B
102
{ACAD_REACTORS
330
54
102
}
330
54
100
AcDbScale
 70
     0
300
3/8" = 1'-0"
140
0.375
141
12.0
290
     0
  0
SCALE
  5
1D06
102
{ACAD_REACTORS
330
54
102
}
330
54
100
AcDbScale
 70
     0
300
1:50_6
140
1.0
141
50.0
290
     0
  0
SCALE
  5
1D07
102
{ACAD_REACTORS
330
54
102
}
330
54
100
AcDbScale
 70
     0
300
1:100_6
140
1.0
141
100.0
290
     0
  0
SCALE
  5
881
102
{ACAD_REACTORS
330
54
102
}
330
54
100
AcDbScale
 70
     0
300
6" = 1'-0"
140
6.0
141
12.0
290
     0
  0
SCALE
  5
861
102
{ACAD_REACTORS
330
54
102
}
330
54
100
AcDbScale
 70
     0
300
1:100_2
140
1.0
141
100.0
290
     0
  0
SCALE
  5
132B
102
{ACAD_REACTORS
330
54
102
}
330
54
100
AcDbScale
 70
     0
300
1:5_3
140
1.0
141
0.5
290
     0
  0
SCALE
  5
869
102
{ACAD_REACTORS
330
54
102
}
330
54
100
AcDbScale
 70
     0
300
1:20_1
140
1.0
141
20.0
290
     0
  0
SCALE
  5
1330
102
{ACAD_REACTORS
330
54
102
}
330
54
100
AcDbScale
 70
     0
300
1:1_3
140
1.0
141
0.1
290
     0
  0
SCALE
  5
2021
102
{ACAD_REACTORS
330
54
102
}
330
54
100
AcDbScale
 70
     0
300
1/64" = 1'-0"_XREF
140
0.015625
141
12.0
290
     0
1001
ACAD
1000
AcRTDxfName
1000
SCALE
  0
SCALE
  5
2022
102
{ACAD_REACTORS
330
54
102
}
330
54
100
AcDbScale
 70
     0
300
1 1/2" = 1'-0"_XREF
140
1.5
141
12.0
290
     0
1001
ACAD
1000
AcRTDxfName
1000
SCALE
  0
SCALE
  5
2023
102
{ACAD_REACTORS
330
54
102
}
330
54
100
AcDbScale
 70
     0
300
3" = 1'-0"_XREF
140
3.0
141
12.0
290
     0
1001
ACAD
1000
AcRTDxfName
1000
SCALE
  0
SCALE
  5
2024
102
{ACAD_REACTORS
330
54
102
}
330
54
100
AcDbScale
 70
     0
300
6" = 1'-0"_XREF
140
6.0
141
12.0
290
     0
1001
ACAD
1000
AcRTDxfName
1000
SCALE
  0
SCALE
  5
870
102
{ACAD_REACTORS
330
54
102
}
330
54
100
AcDbScale
 70
     0
300
8:1
140
8.0
141
1.0
290
     0
  0
SCALE
  5
2025
102
{ACAD_REACTORS
330
54
102
}
330
54
100
AcDbScale
 70
     0
300
1'-0" = 1'-0"_XREF
140
12.0
141
12.0
290
     0
1001
ACAD
1000
AcRTDxfName
1000
SCALE
  0
SCALE
  5
877
102
{ACAD_REACTORS
330
54
102
}
330
54
100
AcDbScale
 70
     0
300
3/32" = 1'-0"
140
0.09375
141
12.0
290
     0
  0
SCALE
  5
2026
102
{ACAD_REACTORS
330
54
102
}
330
54
100
AcDbScale
 70
     0
300
1/32" = 1'-0"_XREF
140
0.03125
141
12.0
290
     0
1001
ACAD
1000
AcRTDxfName
1000
SCALE
  0
SCALE
  5
2027
102
{ACAD_REACTORS
330
54
102
}
330
54
100
AcDbScale
 70
     0
300
1/16" = 1'-0"_XREF
140
0.0625
141
12.0
290
     0
1001
ACAD
1000
AcRTDxfName
1000
SCALE
  0
SCALE
  5
2028
102
{ACAD_REACTORS
330
54
102
}
330
54
100
AcDbScale
 70
     0
300
3/32" = 1'-0"_XREF
140
0.09375
141
12.0
290
     0
1001
ACAD
1000
AcRTDxfName
1000
SCALE
  0
SCALE
  5
2029
102
{ACAD_REACTORS
330
54
102
}
330
54
100
AcDbScale
 70
     0
300
1/8" = 1'-0"_XREF
140
0.125
141
12.0
290
     0
1001
ACAD
1000
AcRTDxfName
1000
SCALE
  0
SCALE
  5
202A
102
{ACAD_REACTORS
330
54
102
}
330
54
100
AcDbScale
 70
     0
300
3/16" = 1'-0"_XREF
140
0.1875
141
12.0
290
     0
1001
ACAD
1000
AcRTDxfName
1000
SCALE
  0
SCALE
  5
202B
102
{ACAD_REACTORS
330
54
102
}
330
54
100
AcDbScale
 70
     0
300
1/4" = 1'-0"_XREF
140
0.25
141
12.0
290
     0
1001
ACAD
1000
AcRTDxfName
1000
SCALE
  0
SCALE
  5
202C
102
{ACAD_REACTORS
330
54
102
}
330
54
100
AcDbScale
 70
     0
300
3/8" = 1'-0"_XREF
140
0.375
141
12.0
290
     0
1001
ACAD
1000
AcRTDxfName
1000
SCALE
  0
SCALE
  5
202D
102
{ACAD_REACTORS
330
54
102
}
330
54
100
AcDbScale
 70
     0
300
1/2" = 1'-0"_XREF
140
0.5
141
12.0
290
     0
1001
ACAD
1000
AcRTDxfName
1000
SCALE
  0
SCALE
  5
202E
102
{ACAD_REACTORS
330
54
102
}
330
54
100
AcDbScale
 70
     0
300
3/4" = 1'-0"_XREF
140
0.75
141
12.0
290
     0
1001
ACAD
1000
AcRTDxfName
1000
SCALE
  0
SCALE
  5
1334
102
{ACAD_REACTORS
330
54
102
}
330
54
100
AcDbScale
 70
     0
300
1:5_4
140
1.0
141
5.0
290
     0
  0
SCALE
  5
1338
102
{ACAD_REACTORS
330
54
102
}
330
54
100
AcDbScale
 70
     0
300
1:100_4
140
1.0
141
100.0
290
     0
  0
SCALE
  5
202F
102
{ACAD_REACTORS
330
54
102
}
330
54
100
AcDbScale
 70
     0
300
1" = 1'-0"_XREF
140
1.0
141
12.0
290
     0
1001
ACAD
1000
AcRTDxfName
1000
SCALE
  0
SCALE
  5
22CA
102
{ACAD_REACTORS
330
54
102
}
330
54
100
AcDbScale
 70
     0
300
1:10_1_1
140
1.0
141
1.0
290
     0
  0
SCALE
  5
22CB
102
{ACAD_REACTORS
330
54
102
}
330
54
100
AcDbScale
 70
     0
300
1:50_1_9
140
1.0
141
50.0
290
     0
  0
SCALE
  5
22CC
102
{ACAD_REACTORS
330
54
102
}
330
54
100
AcDbScale
 70
     0
300
1:20_1_1_7_1
140
1.0
141
2.0
290
     0
  0
SCALE
  5
22CD
102
{ACAD_REACTORS
330
54
102
}
330
54
100
AcDbScale
 70
     0
300
1:1_11
140
1.0
141
0.1
290
     0
  0
SCALE
  5
22CE
102
{ACAD_REACTORS
330
54
102
}
330
54
100
AcDbScale
 70
     0
300
1:5_16
140
1.0
141
0.5
290
     0
  0
SCALE
  5
22CF
102
{ACAD_REACTORS
330
54
102
}
330
54
100
AcDbScale
 70
     0
300
1:100_1_1_7
140
1.0
141
10.0
290
     0
  0
SCALE
  5
22D0
102
{ACAD_REACTORS
330
54
102
}
330
54
100
AcDbScale
 70
     0
300
1:1_18
140
1.0
141
1.0
290
     0
  0
SCALE
  5
22D1
102
{ACAD_REACTORS
330
54
102
}
330
54
100
AcDbScale
 70
     0
300
1:2_18
140
1.0
141
2.0
290
     0
  0
SCALE
  5
22D2
102
{ACAD_REACTORS
330
54
102
}
330
54
100
AcDbScale
 70
     0
300
1:5_18
140
1.0
141
5.0
290
     0
  0
SCALE
  5
5E
102
{ACAD_REACTORS
330
54
102
}
330
54
100
AcDbScale
 70
     0
300
1:1
140
1.0
141
0.1
290
     0
  0
SCALE
  5
5F
102
{ACAD_REACTORS
330
54
102
}
330
54
100
AcDbScale
 70
     0
300
1:2
140
1.0
141
0.2
290
     0
  0
SCALE
  5
60
102
{ACAD_REACTORS
330
54
102
}
330
54
100
AcDbScale
 70
     0
300
1:2.5
140
1.0
141
0.25
290
     0
  0
SCALE
  5
61
102
{ACAD_REACTORS
330
54
102
}
330
54
100
AcDbScale
 70
     0
300
1:5
140
1.0
141
0.5
290
     0
  0
SCALE
  5
62
102
{ACAD_REACTORS
330
54
102
}
330
54
100
AcDbScale
 70
     0
300
1:7.5
140
1.0
141
0.75
290
     0
  0
SCALE
  5
63
102
{ACAD_REACTORS
330
54
102
}
330
54
100
AcDbScale
 70
     0
300
1:10
140
1.0
141
1.0
290
     1
  0
SCALE
  5
64
102
{ACAD_REACTORS
330
54
102
}
330
54
100
AcDbScale
 70
     0
300
1:20
140
1.0
141
2.0
290
     0
  0
SCALE
  5
65
102
{ACAD_REACTORS
330
54
102
}
330
54
100
AcDbScale
 70
     0
300
1:25
140
1.0
141
2.5
290
     0
  0
SCALE
  5
66
102
{ACAD_REACTORS
330
54
102
}
330
54
100
AcDbScale
 70
     0
300
1:50
140
1.0
141
5.0
290
     0
  0
SCALE
  5
67
102
{ACAD_REACTORS
330
54
102
}
330
54
100
AcDbScale
 70
     0
300
1:75
140
1.0
141
7.5
290
     0
  0
SCALE
  5
68
102
{ACAD_REACTORS
330
54
102
}
330
54
100
AcDbScale
 70
     0
300
1:100
140
1.0
141
10.0
290
     0
  0
SCALE
  5
69
102
{ACAD_REACTORS
330
54
102
}
330
54
100
AcDbScale
 70
     0
300
1:150
140
1.0
141
15.0
290
     0
  0
SCALE
  5
6A
102
{ACAD_REACTORS
330
54
102
}
330
54
100
AcDbScale
 70
     0
300
1:200
140
1.0
141
20.0
290
     0
  0
SCALE
  5
6B
102
{ACAD_REACTORS
330
54
102
}
330
54
100
AcDbScale
 70
     0
300
1:250
140
1.0
141
25.0
290
     0
  0
SCALE
  5
6C
102
{ACAD_REACTORS
330
54
102
}
330
54
100
AcDbScale
 70
     0
300
1:500
140
1.0
141
50.0
290
     0
  0
SCALE
  5
6D
102
{ACAD_REACTORS
330
54
102
}
330
54
100
AcDbScale
 70
     0
300
1:750
140
1.0
141
75.0
290
     0
  0
SCALE
  5
6E
102
{ACAD_REACTORS
330
54
102
}
330
54
100
AcDbScale
 70
     0
300
1:1000
140
1.0
141
100.0
290
     0
  0
SCALE
  5
6F
102
{ACAD_REACTORS
330
54
102
}
330
54
100
AcDbScale
 70
     0
300
1:1250
140
1.0
141
125.0
290
     0
  0
SCALE
  5
70
102
{ACAD_REACTORS
330
54
102
}
330
54
100
AcDbScale
 70
     0
300
1:2000
140
1.0
141
200.0
290
     0
  0
SCALE
  5
71
102
{ACAD_REACTORS
330
54
102
}
330
54
100
AcDbScale
 70
     0
300
1:2500
140
1.0
141
250.0
290
     0
  0
SCALE
  5
72
102
{ACAD_REACTORS
330
54
102
}
330
54
100
AcDbScale
 70
     0
300
1:5000
140
1.0
141
500.0
290
     0
  0
TABLESTYLE
  5
5A
102
{ACAD_XDICTIONARY
360
5B
102
}
102
{ACAD_REACTORS
330
55
102
}
330
55
100
AcDbTableStyle
  3
Standard
 70
     0
 71
     0
 40
0.06
 41
0.06
280
     0
281
     0
  7
STANDARD
140
0.18
170
     2
 62
     0
 63
     7
283
     0
274
    -2
284
     1
 64
     0
275
    -2
285
     1
 65
     0
276
    -2
286
     1
 66
     0
277
    -2
287
     1
 67
     0
278
    -2
288
     1
 68
     0
279
    -2
289
     1
 69
     0
  7
STANDARD
140
0.25
170
     5
 62
     0
 63
     7
283
     0
274
    -2
284
     1
 64
     0
275
    -2
285
     1
 65
     0
276
    -2
286
     1
 66
     0
277
    -2
287
     1
 67
     0
278
    -2
288
     1
 68
     0
279
    -2
289
     1
 69
     0
  7
STANDARD
140
0.18
170
     5
 62
     0
 63
     7
283
     0
274
    -2
284
     1
 64
     0
275
    -2
285
     1
 65
     0
276
    -2
286
     1
 66
     0
277
    -2
287
     1
 67
     0
278
    -2
288
     1
 68
     0
279
    -2
289
     1
 69
     0
  0
VISUALSTYLE
  5
14
102
{ACAD_REACTORS
330
15
102
}
330
15
100
AcDbVisualStyle
  2
2dWireframe
 70
     4
 71
     0
 72
     2
 73
     0
 90
        0
 40
-0.6
 41
-30.0
 62
     5
 63
     7
 74
     1
 91
        4
 64
     7
 65
   257
 75
     1
175
     1
 42
1.0
 92
        0
 66
   257
 43
1.0
 76
     1
 77
     6
 78
     2
 67
     7
 79
     5
170
     0
171
     0
290
     0
174
     0
 93
        1
 44
0.0
173
     0
291
     0
 45
0.0
1001
ACAD
1000
AcDbSavedByObjectVersion
1070
     0
  0
VISUALSTYLE
  5
7A0
102
{ACAD_REACTORS
330
15
102
}
330
15
100
AcDbVisualStyle
  2
3D Hidden
 70
     6
 71
     1
 72
     2
 73
     2
 90
        0
 40
-0.6
 41
-30.0
 62
     5
 63
     7
 74
     2
 91
        2
 64
     7
 65
   257
 75
     2
175
     1
 42
40.0
 92
        0
 66
   257
 43
1.0
 76
     1
 77
     6
 78
     2
 67
     7
 79
     3
170
     0
171
     0
290
     0
174
     0
 93
        1
 44
0.0
173
     0
291
     0
 45
0.0
1001
ACAD
1000
AcDbSavedByObjectVersion
1070
     0
  0
VISUALSTYLE
  5
5D
102
{ACAD_REACTORS
330
15
102
}
330
15
100
AcDbVisualStyle
  2
3dWireframe
 70
     5
 71
     0
 72
     2
 73
     0
 90
        0
 40
-0.6
 41
-30.0
 62
     5
 63
     7
 74
     1
 91
        4
 64
     7
 65
   257
 75
     1
175
     1
 42
1.0
 92
        0
 66
   257
 43
1.0
 76
     1
 77
     6
 78
     2
 67
     7
 79
     5
170
     0
171
     0
290
     0
174
     0
 93
        1
 44
0.0
173
     0
291
     0
 45
0.0
1001
ACAD
1000
AcDbSavedByObjectVersion
1070
     0
  0
VISUALSTYLE
  5
79F
102
{ACAD_REACTORS
330
15
102
}
330
15
100
AcDbVisualStyle
  2
Basic
 70
     7
 71
     1
 72
     0
 73
     1
 90
        0
 40
-0.6
 41
-30.0
 62
     5
 63
     7
 74
     0
 91
        4
 64
     7
 65
   257
 75
     1
175
     1
 42
1.0
 92
        8
 66
     7
 43
1.0
 76
     1
 77
     6
 78
     2
 67
     7
 79
     5
170
     0
171
     0
290
     0
174
     0
 93
        1
 44
0.0
173
     0
291
     1
 45
0.0
1001
ACAD
1000
AcDbSavedByObjectVersion
1070
     0
  0
VISUALSTYLE
  5
7A3
102
{ACAD_REACTORS
330
15
102
}
330
15
100
AcDbVisualStyle
  2
Brighten
 70
    12
 71
     2
 72
     2
 73
     0
 90
        0
 40
-0.6
 41
-30.0
 62
     5
 63
     7
 74
     1
 91
        4
 64
     7
 65
   257
 75
     1
175
     1
 42
1.0
 92
        8
 66
     7
 43
1.0
 76
     1
 77
     6
 78
     2
 67
     7
 79
     5
170
     0
171
     0
290
     0
174
     0
 93
        1
 44
50.0
173
     0
291
     1
 45
0.0
1001
ACAD
1000
AcDbSavedByObjectVersion
1070
     0
  0
VISUALSTYLE
  5
7A7
102
{ACAD_REACTORS
330
15
102
}
330
15
100
AcDbVisualStyle
  2
ColorChange
 70
    16
 71
     2
 72
     2
 73
     3
 90
        0
 40
-0.6
 41
-30.0
 62
     5
 63
     8
 74
     1
 91
        4
 64
     7
 65
   257
 75
     1
175
     1
 42
1.0
 92
        8
 66
     8
 43
1.0
 76
     1
 77
     6
 78
     2
 67
     7
 79
     5
170
     0
171
     0
290
     0
174
     0
 93
        1
 44
0.0
173
     0
291
     1
 45
0.0
1001
ACAD
1000
AcDbSavedByObjectVersion
1070
     0
  0
VISUALSTYLE
  5
7A1
102
{ACAD_REACTORS
330
15
102
}
330
15
100
AcDbVisualStyle
  2
Conceptual
 70
     9
 71
     3
 72
     2
 73
     0
 90
        0
 40
-0.6
 41
-30.0
 62
     5
 63
     7
 74
     2
 91
        2
 64
     7
 65
   257
 75
     1
175
     1
 42
40.0
 92
        8
 66
     7
 43
1.0
 76
     1
 77
     6
 78
     2
 67
     7
 79
     3
170
     0
171
     0
290
     0
174
     0
 93
        1
 44
0.0
173
     0
291
     0
 45
0.0
1001
ACAD
1000
AcDbSavedByObjectVersion
1070
     0
  0
VISUALSTYLE
  5
7A2
102
{ACAD_REACTORS
330
15
102
}
330
15
100
AcDbVisualStyle
  2
Dim
 70
    11
 71
     2
 72
     2
 73
     0
 90
        0
 40
-0.6
 41
-30.0
 62
     5
 63
     7
 74
     1
 91
        4
 64
     7
 65
   257
 75
     1
175
     1
 42
1.0
 92
        8
 66
     7
 43
1.0
 76
     1
 77
     6
 78
     2
 67
     7
 79
     5
170
     0
171
     0
290
     0
174
     0
 93
        1
 44
-50.0
173
     0
291
     1
 45
0.0
1001
ACAD
1000
AcDbSavedByObjectVersion
1070
     0
  0
VISUALSTYLE
  5
7A6
102
{ACAD_REACTORS
330
15
102
}
330
15
100
AcDbVisualStyle
  2
Facepattern
 70
    15
 71
     2
 72
     2
 73
     0
 90
        0
 40
-0.6
 41
-30.0
 62
     5
 63
     7
 74
     1
 91
        4
 64
     7
 65
   257
 75
     1
175
     1
 42
1.0
 92
        8
 66
     7
 43
1.0
 76
     1
 77
     6
 78
     2
 67
     7
 79
     5
170
     0
171
     0
290
     0
174
     0
 93
        1
 44
0.0
173
     0
291
     1
 45
0.0
1001
ACAD
1000
AcDbSavedByObjectVersion
1070
     0
  0
VISUALSTYLE
  5
79B
102
{ACAD_REACTORS
330
15
102
}
330
15
100
AcDbVisualStyle
  2
Flat
 70
     0
 71
     2
 72
     1
 73
     1
 90
        2
 40
-0.6
 41
30.0
 62
     5
 63
     7
 74
     0
 91
        4
 64
     7
 65
   257
 75
     1
175
     1
 42
1.0
 92
        8
 66
     7
 43
1.0
 76
     1
 77
     6
 78
     2
 67
     7
 79
     5
170
     0
171
     0
290
     0
174
     0
 93
       13
 44
0.0
173
     0
291
     0
 45
0.0
1001
ACAD
1000
AcDbSavedByObjectVersion
1070
     0
  0
VISUALSTYLE
  5
79C
102
{ACAD_REACTORS
330
15
102
}
330
15
100
AcDbVisualStyle
  2
FlatWithEdges
 70
     1
 71
     2
 72
     1
 73
     1
 90
        2
 40
-0.6
 41
30.0
 62
     5
 63
     7
 74
     1
 91
        4
 64
     7
 65
   257
 75
     1
175
     1
 42
1.0
 92
        0
 66
   257
 43
1.0
 76
     1
 77
     6
 78
     2
 67
     7
 79
     5
170
     0
171
     0
290
     0
174
     0
 93
       13
 44
0.0
173
     0
291
     0
 45
0.0
1001
ACAD
1000
AcDbSavedByObjectVersion
1070
     0
  0
VISUALSTYLE
  5
79D
102
{ACAD_REACTORS
330
15
102
}
330
15
100
AcDbVisualStyle
  2
Gouraud
 70
     2
 71
     2
 72
     2
 73
     1
 90
        2
 40
-0.6
 41
30.0
 62
     5
 63
     7
 74
     0
 91
        4
 64
     7
 65
   257
 75
     1
175
     1
 42
1.0
 92
        0
 66
     7
 43
1.0
 76
     1
 77
     6
 78
     2
 67
     7
 79
     5
170
     0
171
     0
290
     0
174
     0
 93
       13
 44
0.0
173
     0
291
     0
 45
0.0
1001
ACAD
1000
AcDbSavedByObjectVersion
1070
     0
  0
VISUALSTYLE
  5
79E
102
{ACAD_REACTORS
330
15
102
}
330
15
100
AcDbVisualStyle
  2
GouraudWithEdges
 70
     3
 71
     2
 72
     2
 73
     1
 90
        2
 40
-0.6
 41
30.0
 62
     5
 63
     7
 74
     1
 91
        4
 64
     7
 65
   257
 75
     1
175
     1
 42
1.0
 92
        0
 66
   257
 43
1.0
 76
     1
 77
     6
 78
     2
 67
     7
 79
     5
170
     0
171
     0
290
     0
174
     0
 93
       13
 44
0.0
173
     0
291
     0
 45
0.0
1001
ACAD
1000
AcDbSavedByObjectVersion
1070
     0
  0
VISUALSTYLE
  5
7A5
102
{ACAD_REACTORS
330
15
102
}
330
15
100
AcDbVisualStyle
  2
Linepattern
 70
    14
 71
     2
 72
     2
 73
     0
 90
        0
 40
-0.6
 41
-30.0
 62
     5
 63
     7
 74
     1
 91
        4
 64
     7
 65
   257
 75
     7
175
     7
 42
1.0
 92
        8
 66
     7
 43
1.0
 76
     1
 77
     6
 78
     2
 67
     7
 79
     5
170
     0
171
     0
290
     0
174
     0
 93
        1
 44
0.0
173
     0
291
     1
 45
0.0
1001
ACAD
1000
AcDbSavedByObjectVersion
1070
     0
  0
VISUALSTYLE
  5
7B1
102
{ACAD_REACTORS
330
15
102
}
330
15
100
AcDbVisualStyle
  2

 70
     8
 71
     2
 72
     2
 73
     0
 90
        0
 40
-0.6
 41
-30.0
 62
     5
 63
     7
 74
     0
 91
        0
 64
     7
 65
   257
 75
     1
175
     1
 42
1.0
 92
        8
 66
     8
 43
1.0
 76
     1
 77
     6
 78
     2
 67
     7
 79
     5
170
     0
171
     0
290
     0
174
     0
 93
       13
 44
0.0
173
     0
291
     0
 45
0.0
1001
ACAD
1000
AcDbSavedByObjectVersion
1070
     0
  0
VISUALSTYLE
  5
7B2
102
{ACAD_REACTORS
330
15
102
}
330
15
100
AcDbVisualStyle
  2

 70
     8
 71
     2
 72
     2
 73
     0
 90
        0
 40
-0.6
 41
-30.0
 62
     5
 63
     7
 74
     1
 91
        0
 64
     7
 65
   257
 75
     1
175
     1
 42
1.0
 92
        8
 66
     8
 43
1.0
 76
     1
 77
     6
 78
     2
 67
     7
 79
     5
170
     0
171
     0
290
     0
174
     0
 93
       13
 44
0.0
173
     0
291
     0
 45
0.0
1001
ACAD
1000
AcDbSavedByObjectVersion
1070
     0
  0
VISUALSTYLE
  5
5C
102
{ACAD_REACTORS
330
15
102
}
330
15
100
AcDbVisualStyle
  2
Realistic
 70
     8
 71
     2
 72
     2
 73
     0
 90
        0
 40
-0.6
 41
-30.0
 62
     5
 63
     7
 74
     1
 91
        0
 64
     7
 65
   257
 75
     1
175
     1
 42
1.0
 92
        8
 66
     8
 43
1.0
 76
     1
 77
     6
 78
     2
 67
     7
 79
     5
170
     0
171
     0
290
     0
174
     0
 93
       13
 44
0.0
173
     0
291
     0
 45
0.0
1001
ACAD
1000
AcDbSavedByObjectVersion
1070
     0
  0
VISUALSTYLE
  5
7A4
102
{ACAD_REACTORS
330
15
102
}
330
15
100
AcDbVisualStyle
  2
Thicken
 70
    13
 71
     2
 72
     2
 73
     0
 90
        0
 40
-0.6
 41
-30.0
 62
     5
 63
     7
 74
     1
 91
        4
 64
     7
 65
   257
 75
     1
175
     1
 42
1.0
 92
       12
 66
     7
 43
1.0
 76
     1
 77
     6
 78
     2
 67
     7
 79
     5
170
     0
171
     0
290
     0
174
     0
 93
        1
 44
0.0
173
     0
291
     1
 45
0.0
1001
ACAD
1000
AcDbSavedByObjectVersion
1070
     0
  0
DICTIONARYVAR
  5
798
102
{ACAD_REACTORS
330
795
102
}
330
795
100
DictionaryVariables
280
     0
  1
1:1
  0
DICTIONARYVAR
  5
797
102
{ACAD_REACTORS
330
795
102
}
330
795
100
DictionaryVariables
280
     0
  1
STANDARD
  0
DICTIONARYVAR
  5
796
102
{ACAD_REACTORS
330
795
102
}
330
795
100
DictionaryVariables
280
     0
  1
STANDARD
  0
DICTIONARYVAR
  5
279D
102
{ACAD_REACTORS
330
795
102
}
330
795
100
DictionaryVariables
280
     0
  1
1
  0
DICTIONARYVAR
  5
279C
102
{ACAD_REACTORS
330
795
102
}
330
795
100
DictionaryVariables
280
     0
  1
1
  0
DICTIONARYVAR
  5
279B
102
{ACAD_REACTORS
330
795
102
}
330
795
100
DictionaryVariables
280
     0
  1
0
  0
DICTIONARYVAR
  5
799
102
{ACAD_REACTORS
330
795
102
}
330
795
100
DictionaryVariables
280
     0
  1
0
  0
DICTIONARYVAR
  5
2799
102
{ACAD_REACTORS
330
795
102
}
330
795
100
DictionaryVariables
280
     0
  1
1
  0
DICTIONARYVAR
  5
279A
102
{ACAD_REACTORS
330
795
102
}
330
795
100
DictionaryVariables
280
     0
  1
127
  0
DICTIONARY
  5
27A9
330
1943
100
AcDbDictionary
280
     1
281
     1
  3
ACAD_XREC_ROUNDTRIP
360
27AA
  0
DICTIONARY
  5
27A2
330
11
100
AcDbDictionary
280
     1
281
     1
  3
ACAD_XREC_ROUNDTRIP
360
27A3
  0
DICTIONARY
  5
27A6
330
52
100
AcDbDictionary
280
     1
281
     1
  3
ACAD_XREC_ROUNDTRIP
360
27A7
  0
DICTIONARY
  5
27A4
330
51
100
AcDbDictionary
280
     1
281
     1
  3
ACAD_XREC_ROUNDTRIP
360
27A5
  0
DICTIONARY
  5
27A0
330
C
100
AcDbDictionary
280
     1
281
     1
  3
ACAD_XREC_ROUNDTRIP
360
27A1
  0
DICTIONARY
  5
5B
330
5A
100
AcDbDictionary
280
     1
281
     1
  3
ACAD_ROUNDTRIP_2008_TABLESTYLE_CELLSTYLEMAP
360
279E
  3
ACAD_XREC_ROUNDTRIP
360
27A8
  0
XRECORD
  5
27AA
102
{ACAD_REACTORS
330
27A9
102
}
330
27A9
100
AcDbXrecord
280
     1
102
SHADEPLOT
 70
     0
102
SHADEPLOTRESLEVEL
 70
     2
102
SHADEPLOTCUSTOMDPI
 70
   300
  0
XRECORD
  5
27A3
102
{ACAD_REACTORS
330
27A2
102
}
330
27A2
100
AcDbXrecord
280
     1
102
SHADEPLOT
 70
     1
102
SHADEPLOTRESLEVEL
 70
     2
102
SHADEPLOTCUSTOMDPI
 70
   300
  0
XRECORD
  5
27A7
102
{ACAD_REACTORS
330
27A6
102
}
330
27A6
100
AcDbXrecord
280
     1
102
MATERIAL
148
0.0
149
0.0
149
0.0
 93
        0
 94
       63
282
     0
 72
     1
 77
     1
171
     1
175
     1
179
     1
273
     0
  0
XRECORD
  5
27A5
102
{ACAD_REACTORS
330
27A4
102
}
330
27A4
100
AcDbXrecord
280
     1
102
MATERIAL
148
0.0
149
0.0
149
0.0
 93
        0
 94
       63
282
     0
 72
     1
 77
     1
171
     1
175
     1
179
     1
273
     0
  0
XRECORD
  5
27A1
102
{ACAD_REACTORS
330
27A0
102
}
330
27A0
100
AcDbXrecord
280
     1
102
MATERIAL
148
0.0
149
0.0
149
0.0
 93
        0
 94
       63
282
     0
 72
     1
 77
     1
171
     1
175
     1
179
     1
273
     0
  0
CELLSTYLEMAP
  5
279E
102
{ACAD_REACTORS
330
5B
102
}
330
5B
100
AcDbCellStyleMap
 90
        3
300
CELLSTYLE
  1
TABLEFORMAT_BEGIN
 90
        5
170
     1
 91
        0
 92
    32768
 62
   257
 93
        1
300
CONTENTFORMAT
  1
CONTENTFORMAT_BEGIN
 90
        0
 91
        0
 92
        4
 93
        0
300

 40
0.0
140
1.0
 94
        5
 62
     0
340
21
144
0.25
309
CONTENTFORMAT_END
171
     0
 94
        6
 95
        1
302
GRIDFORMAT
  1
GRIDFORMAT_BEGIN
 90
        0
 91
        1
 62
     0
 92
       -2
340
0
 93
        0
 40
0.045
309
GRIDFORMAT_END
 95
        2
302
GRIDFORMAT
  1
GRIDFORMAT_BEGIN
 90
        0
 91
        1
 62
     0
 92
       -2
340
0
 93
        0
 40
0.045
309
GRIDFORMAT_END
 95
        4
302
GRIDFORMAT
  1
GRIDFORMAT_BEGIN
 90
        0
 91
        1
 62
     0
 92
       -2
340
0
 93
        0
 40
0.045
309
GRIDFORMAT_END
 95
        8
302
GRIDFORMAT
  1
GRIDFORMAT_BEGIN
 90
        0
 91
        1
 62
     0
 92
       -2
340
0
 93
        0
 40
0.045
309
GRIDFORMAT_END
 95
       16
302
GRIDFORMAT
  1
GRIDFORMAT_BEGIN
 90
        0
 91
        1
 62
     0
 92
       -2
340
0
 93
        0
 40
0.045
309
GRIDFORMAT_END
 95
       32
302
GRIDFORMAT
  1
GRIDFORMAT_BEGIN
 90
        0
 91
        1
 62
     0
 92
       -2
340
0
 93
        0
 40
0.045
309
GRIDFORMAT_END
309
TABLEFORMAT_END
  1
CELLSTYLE_BEGIN
 90
        1
 91
        1
300
_TITLE
309
CELLSTYLE_END
300
CELLSTYLE
  1
TABLEFORMAT_BEGIN
 90
        5
170
     1
 91
        0
 92
        0
 62
   257
 93
        1
300
CONTENTFORMAT
  1
CONTENTFORMAT_BEGIN
 90
        0
 91
        0
 92
        4
 93
        0
300

 40
0.0
140
1.0
 94
        5
 62
     0
340
21
144
0.18
309
CONTENTFORMAT_END
171
     0
 94
        6
 95
        1
302
GRIDFORMAT
  1
GRIDFORMAT_BEGIN
 90
        0
 91
        1
 62
     0
 92
       -2
340
0
 93
        0
 40
0.045
309
GRIDFORMAT_END
 95
        2
302
GRIDFORMAT
  1
GRIDFORMAT_BEGIN
 90
        0
 91
        1
 62
     0
 92
       -2
340
0
 93
        0
 40
0.045
309
GRIDFORMAT_END
 95
        4
302
GRIDFORMAT
  1
GRIDFORMAT_BEGIN
 90
        0
 91
        1
 62
     0
 92
       -2
340
0
 93
        0
 40
0.045
309
GRIDFORMAT_END
 95
        8
302
GRIDFORMAT
  1
GRIDFORMAT_BEGIN
 90
        0
 91
        1
 62
     0
 92
       -2
340
0
 93
        0
 40
0.045
309
GRIDFORMAT_END
 95
       16
302
GRIDFORMAT
  1
GRIDFORMAT_BEGIN
 90
        0
 91
        1
 62
     0
 92
       -2
340
0
 93
        0
 40
0.045
309
GRIDFORMAT_END
 95
       32
302
GRIDFORMAT
  1
GRIDFORMAT_BEGIN
 90
        0
 91
        1
 62
     0
 92
       -2
340
0
 93
        0
 40
0.045
309
GRIDFORMAT_END
309
TABLEFORMAT_END
  1
CELLSTYLE_BEGIN
 90
        2
 91
        1
300
_HEADER
309
CELLSTYLE_END
300
CELLSTYLE
  1
TABLEFORMAT_BEGIN
 90
        5
170
     1
 91
        0
 92
        0
 62
   257
 93
        1
300
CONTENTFORMAT
  1
CONTENTFORMAT_BEGIN
 90
        0
 91
        0
 92
        4
 93
        0
300

 40
0.0
140
1.0
 94
        2
 62
     0
340
21
144
0.18
309
CONTENTFORMAT_END
171
     0
 94
        6
 95
        1
302
GRIDFORMAT
  1
GRIDFORMAT_BEGIN
 90
        0
 91
        1
 62
     0
 92
       -2
340
0
 93
        0
 40
0.045
309
GRIDFORMAT_END
 95
        2
302
GRIDFORMAT
  1
GRIDFORMAT_BEGIN
 90
        0
 91
        1
 62
     0
 92
       -2
340
0
 93
        0
 40
0.045
309
GRIDFORMAT_END
 95
        4
302
GRIDFORMAT
  1
GRIDFORMAT_BEGIN
 90
        0
 91
        1
 62
     0
 92
       -2
340
0
 93
        0
 40
0.045
309
GRIDFORMAT_END
 95
        8
302
GRIDFORMAT
  1
GRIDFORMAT_BEGIN
 90
        0
 91
        1
 62
     0
 92
       -2
340
0
 93
        0
 40
0.045
309
GRIDFORMAT_END
 95
       16
302
GRIDFORMAT
  1
GRIDFORMAT_BEGIN
 90
        0
 91
        1
 62
     0
 92
       -2
340
0
 93
        0
 40
0.045
309
GRIDFORMAT_END
 95
       32
302
GRIDFORMAT
  1
GRIDFORMAT_BEGIN
 90
        0
 91
        1
 62
     0
 92
       -2
340
0
 93
        0
 40
0.045
309
GRIDFORMAT_END
309
TABLEFORMAT_END
  1
CELLSTYLE_BEGIN
 90
        3
 91
        2
300
_DATA
309
CELLSTYLE_END
  0
XRECORD
  5
27A8
102
{ACAD_REACTORS
330
5B
102
}
330
5B
100
AcDbXrecord
280
     1
102
ACAD_ROUNDTRIP_PRE2007_TABLESTYLE
 90
        4
 91
        0
  1

 92
        4
 93
        0
  2

 94
        4
 95
        0
  3

  0
ENDSEC
  0
EOF
