  0
SECTION
  2
HEADER
  9
$ACADVER
  1
AC1015
  9
$ACADMAINTVER
 70
    18
  9
$DWGCODEPAGE
  3
ANSI_1250
  9
$INSBASE
 10
9677.351579171606
 20
1189.596440029025
 30
0.0000000000031697
  9
$EXTMIN
 10
1.000000000000000E+20
 20
1.000000000000000E+20
 30
1.000000000000000E+20
  9
$EXTMAX
 10
0.0
 20
0.0
 30
0.0
  9
$LIMMIN
 10
0.0
 20
0.0
  9
$LIMMAX
 10
12.0
 20
9.0
  9
$ORTHOMODE
 70
     1
  9
$REGENMODE
 70
     1
  9
$FILLMODE
 70
     1
  9
$QTEXTMODE
 70
     0
  9
$MIRRTEXT
 70
     0
  9
$LTSCALE
 40
75.0
  9
$ATTMODE
 70
     1
  9
$TEXTSIZE
 40
0.2
  9
$TRACEWID
 40
40.0
  9
$TEXTSTYLE
  7
STANDARD
  9
$CLAYER
  8
0Wymiary-PL
  9
$CELTYPE
  6
BYLAYER
  9
$CECOLOR
 62
   256
  9
$CELTSCALE
 40
4.0
  9
$DISPSILH
 70
     0
  9
$DIMSCALE
 40
1.0
  9
$DIMASZ
 40
30.0
  9
$DIMEXO
 40
43.0
  9
$DIMDLI
 40
0.0
  9
$DIMRND
 40
0.5
  9
$DIMDLE
 40
12.0
  9
$DIMEXE
 40
13.0
  9
$DIMTP
 40
0.0
  9
$DIMTM
 40
0.0
  9
$DIMTXT
 40
80.0
  9
$DIMCEN
 40
0.0
  9
$DIMTSZ
 40
0.0
  9
$DIMTOL
 70
     0
  9
$DIMLIM
 70
     0
  9
$DIMTIH
 70
     0
  9
$DIMTOH
 70
     0
  9
$DIMSE1
 70
     1
  9
$DIMSE2
 70
     1
  9
$DIMTAD
 70
     0
  9
$DIMZIN
 70
    12
  9
$DIMBLK
  1
B-DIM
  9
$DIMASO
 70
     1
  9
$DIMSHO
 70
     1
  9
$DIMPOST
  1

  9
$DIMAPOST
  1

  9
$DIMALT
 70
     0
  9
$DIMALTD
 70
     2
  9
$DIMALTF
 40
25.4
  9
$DIMLFAC
 40
1.0
  9
$DIMTOFL
 70
     1
  9
$DIMTVP
 40
1.0
  9
$DIMTIX
 70
     1
  9
$DIMSOXD
 70
     0
  9
$DIMSAH
 70
     0
  9
$DIMBLK1
  1

  9
$DIMBLK2
  1

  9
$DIMSTYLE
  2
500
  9
$DIMCLRD
 70
     1
  9
$DIMCLRE
 70
     1
  9
$DIMCLRT
 70
   140
  9
$DIMTFAC
 40
1.0
  9
$DIMGAP
 40
0.0
  9
$DIMJUST
 70
     0
  9
$DIMSD1
 70
     0
  9
$DIMSD2
 70
     0
  9
$DIMTOLJ
 70
     1
  9
$DIMTZIN
 70
     0
  9
$DIMALTZ
 70
     0
  9
$DIMALTTZ
 70
     0
  9
$DIMUPT
 70
     0
  9
$DIMDEC
 70
     1
  9
$DIMTDEC
 70
     1
  9
$DIMALTU
 70
     2
  9
$DIMALTTD
 70
     2
  9
$DIMTXSTY
  7
ROMANS
  9
$DIMAUNIT
 70
     0
  9
$DIMADEC
 70
     0
  9
$DIMALTRND
 40
0.0
  9
$DIMAZIN
 70
     0
  9
$DIMDSEP
 70
    46
  9
$DIMATFIT
 70
     3
  9
$DIMFRAC
 70
     0
  9
$DIMLDRBLK
  1
B-DIM
  9
$DIMLUNIT
 70
     2
  9
$DIMLWD
 70
    -2
  9
$DIMLWE
 70
    -2
  9
$DIMTMOVE
 70
     2
  9
$LUNITS
 70
     2
  9
$LUPREC
 70
     2
  9
$SKETCHINC
 40
0.1
  9
$FILLETRAD
 40
0.0
  9
$AUNITS
 70
     0
  9
$AUPREC
 70
     1
  9
$MENU
  1
acad
  9
$ELEVATION
 40
0.0
  9
$PELEVATION
 40
0.0
  9
$THICKNESS
 40
0.0
  9
$LIMCHECK
 70
     0
  9
$CHAMFERA
 40
30.0
  9
$CHAMFERB
 40
30.0
  9
$CHAMFERC
 40
0.0
  9
$CHAMFERD
 40
0.0
  9
$SKPOLY
 70
     0
  9
$TDCREATE
 40
2450817.525937848
  9
$TDUCREATE
 40
2450817.442604514
  9
$TDUPDATE
 40
2455363.401555625
  9
$TDUUPDATE
 40
2455363.318222292
  9
$TDINDWG
 40
21.7585730440
  9
$TDUSRTIMER
 40
21.7585730440
  9
$USRTIMER
 70
     1
  9
$ANGBASE
 50
0.0
  9
$ANGDIR
 70
     0
  9
$PDMODE
 70
     3
  9
$PDSIZE
 40
10.0
  9
$PLINEWID
 40
60.0
  9
$SPLFRAME
 70
     0
  9
$SPLINETYPE
 70
     6
  9
$SPLINESEGS
 70
     8
  9
$HANDSEED
  5
26C
  9
$SURFTAB1
 70
     6
  9
$SURFTAB2
 70
     6
  9
$SURFTYPE
 70
     6
  9
$SURFU
 70
     6
  9
$SURFV
 70
     6
  9
$UCSBASE
  2

  9
$UCSNAME
  2

  9
$UCSORG
 10
0.0
 20
0.0
 30
0.0
  9
$UCSXDIR
 10
1.0
 20
0.0
 30
0.0
  9
$UCSYDIR
 10
0.0
 20
1.0
 30
0.0
  9
$UCSORTHOREF
  2

  9
$UCSORTHOVIEW
 70
     0
  9
$UCSORGTOP
 10
0.0
 20
0.0
 30
0.0
  9
$UCSORGBOTTOM
 10
0.0
 20
0.0
 30
0.0
  9
$UCSORGLEFT
 10
0.0
 20
0.0
 30
0.0
  9
$UCSORGRIGHT
 10
0.0
 20
0.0
 30
0.0
  9
$UCSORGFRONT
 10
0.0
 20
0.0
 30
0.0
  9
$UCSORGBACK
 10
0.0
 20
0.0
 30
0.0
  9
$PUCSBASE
  2

  9
$PUCSNAME
  2

  9
$PUCSORG
 10
0.0
 20
0.0
 30
0.0
  9
$PUCSXDIR
 10
1.0
 20
0.0
 30
0.0
  9
$PUCSYDIR
 10
0.0
 20
1.0
 30
0.0
  9
$PUCSORTHOREF
  2

  9
$PUCSORTHOVIEW
 70
     0
  9
$PUCSORGTOP
 10
0.0
 20
0.0
 30
0.0
  9
$PUCSORGBOTTOM
 10
0.0
 20
0.0
 30
0.0
  9
$PUCSORGLEFT
 10
0.0
 20
0.0
 30
0.0
  9
$PUCSORGRIGHT
 10
0.0
 20
0.0
 30
0.0
  9
$PUCSORGFRONT
 10
0.0
 20
0.0
 30
0.0
  9
$PUCSORGBACK
 10
0.0
 20
0.0
 30
0.0
  9
$USERI1
 70
     0
  9
$USERI2
 70
     0
  9
$USERI3
 70
     0
  9
$USERI4
 70
     0
  9
$USERI5
 70
     0
  9
$USERR1
 40
0.0
  9
$USERR2
 40
0.0
  9
$USERR3
 40
0.0
  9
$USERR4
 40
0.0
  9
$USERR5
 40
0.0
  9
$WORLDVIEW
 70
     1
  9
$SHADEDGE
 70
     3
  9
$SHADEDIF
 70
    70
  9
$TILEMODE
 70
     1
  9
$MAXACTVP
 70
    16
  9
$PINSBASE
 10
0.0
 20
0.0
 30
0.0
  9
$PLIMCHECK
 70
     0
  9
$PEXTMIN
 10
0.0
 20
0.0
 30
0.0
  9
$PEXTMAX
 10
0.0
 20
0.0
 30
0.0
  9
$PLIMMIN
 10
0.0
 20
0.0
  9
$PLIMMAX
 10
12.0
 20
9.0
  9
$UNITMODE
 70
     0
  9
$VISRETAIN
 70
     0
  9
$PLINEGEN
 70
     0
  9
$PSLTSCALE
 70
     1
  9
$TREEDEPTH
 70
  3020
  9
$CMLSTYLE
  2
STANDARD
  9
$CMLJUST
 70
     0
  9
$CMLSCALE
 40
1.0
  9
$PROXYGRAPHICS
 70
     1
  9
$MEASUREMENT
 70
     0
  9
$CELWEIGHT
370
    -1
  9
$ENDCAPS
280
     0
  9
$JOINSTYLE
280
     0
  9
$LWDISPLAY
290
     0
  9
$INSUNITS
 70
     0
  9
$HYPERLINKBASE
  1

  9
$STYLESHEET
  1

  9
$XEDIT
290
     1
  9
$CEPSNTYPE
380
     0
  9
$PSTYLEMODE
290
     1
  9
$FINGERPRINTGUID
  2
{D28E8541-0A09-48A0-969B-9474F3F4C4DA}
  9
$VERSIONGUID
  2
{0C7F60E3-073D-40F9-9973-82A1062FB1B5}
  9
$EXTNAMES
290
     1
  9
$PSVPSCALE
 40
0.0
  9
$OLESTARTUP
290
     0
  0
ENDSEC
  0
SECTION
  2
CLASSES
  0
CLASS
  1
DICTIONARYVAR
  2
AcDbDictionaryVar
  3
ObjectDBX Classes
 90
        0
280
     0
281
     0
  0
CLASS
  1
ACDBDICTIONARYWDFLT
  2
AcDbDictionaryWithDefault
  3
ObjectDBX Classes
 90
        0
280
     0
281
     0
  0
CLASS
  1
ACDBPLACEHOLDER
  2
AcDbPlaceHolder
  3
ObjectDBX Classes
 90
        0
280
     0
281
     0
  0
CLASS
  1
LAYOUT
  2
AcDbLayout
  3
ObjectDBX Classes
 90
        0
280
     0
281
     0
  0
CLASS
  1
AEC_VARS_DWG_SETUP
  2
AecDbVarsDwgSetup
  3
AecBase50|Product Desc: Autodesk Architectural Desktop 2007 |Company: Autodesk,Inc. |WEB Address: www.autodesk.com
 90
    32897
280
     0
281
     0
  0
CLASS
  1
AEC_DISP_REP_CONFIG
  2
AecDbDispRepConfig
  3
AecBase50|Product Desc: Autodesk Architectural Desktop 2007 |Company: Autodesk,Inc. |WEB Address: www.autodesk.com
 90
    32897
280
     0
281
     0
  0
CLASS
  1
AEC_DISP_REP_SET
  2
AecDbDispRepSet
  3
AecBase50|Product Desc: Autodesk Architectural Desktop 2007 |Company: Autodesk,Inc. |WEB Address: www.autodesk.com
 90
    32897
280
     0
281
     0
  0
CLASS
  1
AEC_DISP_REP_2D_SECTION
  2
AecDbDispRep2dSection
  3
AecBase50|Product Desc: Autodesk Architectural Desktop 2007 |Company: Autodesk,Inc. |WEB Address: www.autodesk.com
 90
    32897
280
     0
281
     0
  0
CLASS
  1
AEC_DISP_REP_ANCHOR_BUB_TO_GRID
  2
AecDbDispRepAnchorBubToGrid
  3
AecStructureBase50|Product Desc: Autodesk Architectural Desktop 2007 |Company: Autodesk,Inc. |WEB Address: www.autodesk.com
 90
    32897
280
     0
281
     0
  0
CLASS
  1
AEC_DISP_REP_ANCHOR_BUB_TO_GRID_MODEL
  2
AecDbDispRepAnchorBubToGridMdl
  3
AecStructureBase50|Product Desc: Autodesk Architectural Desktop 2007 |Company: Autodesk,Inc. |WEB Address: www.autodesk.com
 90
    32897
280
     0
281
     0
  0
CLASS
  1
AEC_DISP_REP_ANCHOR_ENT_TO_NODE
  2
AecDbDispRepAnchorEntToNode
  3
AecBaseEx50|Product Desc: Autodesk Architectural Desktop 2007 |Company: Autodesk,Inc. |WEB Address: www.autodesk.com
 90
    32897
280
     0
281
     0
  0
CLASS
  1
AEC_DISP_REP_ANCHOR_TAG_TO_ENT
  2
AecDbDispRepAnchorTagToEnt
  3
AecScheduleData50|Product Desc: Autodesk Architectural Desktop 2007 |Company: Autodesk,Inc. |WEB Address: www.autodesk.com
 90
    32897
280
     0
281
     0
  0
CLASS
  1
AEC_DISP_REP_AREA
  2
AecDbDispRepArea
  3
AecAreaCalculationBase50|Product Desc: Autodesk Architectural Desktop 2007 |Company: Autodesk,Inc. |WEB Address: www.autodesk.com
 90
    32897
280
     0
281
     0
  0
CLASS
  1
AEC_DISP_REP_AREA_DECOMPOSED
  2
AecDbDispRepAreaDecomposed
  3
AecAreaCalculationBase50|Product Desc: Autodesk Architectural Desktop 2007 |Company: Autodesk,Inc. |WEB Address: www.autodesk.com
 90
    32897
280
     0
281
     0
  0
CLASS
  1
AEC_DISP_REP_AREAGROUP
  2
AecDbDispRepAreaGroup
  3
AecAreaCalculationBase50|Product Desc: Autodesk Architectural Desktop 2007 |Company: Autodesk,Inc. |WEB Address: www.autodesk.com
 90
    32897
280
     0
281
     0
  0
CLASS
  1
AEC_DISP_REP_BDG_ELEVLINE_MODEL
  2
AecDbDispRepBdgElevLineModel
  3
AecArchBase50|Product Desc: Autodesk Architectural Desktop 2007 |Company: Autodesk,Inc. |WEB Address: www.autodesk.com
 90
    32897
280
     0
281
     0
  0
CLASS
  1
AEC_DISP_REP_BDG_SECTIONLINE_PLAN
  2
AecDbDispRepBdgElevLinePlan
  3
AecArchBase50|Product Desc: Autodesk Architectural Desktop 2007 |Company: Autodesk,Inc. |WEB Address: www.autodesk.com
 90
    32897
280
     0
281
     0
  0
CLASS
  1
AEC_DISP_REP_BDG_SECTIONLINE_MODEL
  2
AecDbDispRepBdgSectionLineModel
  3
AecArchBase50|Product Desc: Autodesk Architectural Desktop 2007 |Company: Autodesk,Inc. |WEB Address: www.autodesk.com
 90
    32897
280
     0
281
     0
  0
CLASS
  1
AEC_DISP_REP_BDG_SECTIONLINE_PLAN
  2
AecDbDispRepBdgSectionLinePlan
  3
AecArchBase50|Product Desc: Autodesk Architectural Desktop 2007 |Company: Autodesk,Inc. |WEB Address: www.autodesk.com
 90
    32897
280
     0
281
     0
  0
CLASS
  1
AEC_DISP_REP_BDG_SECTION_SUBDIV
  2
AecDbDispRepBdgSectionSubDiv
  3
AecArchBase50|Product Desc: Autodesk Architectural Desktop 2007 |Company: Autodesk,Inc. |WEB Address: www.autodesk.com
 90
    32897
280
     0
281
     0
  0
CLASS
  1
AEC_DISP_REP_CAMERA
  2
AecDbDispRepCamera
  3
AecBase50|Product Desc: Autodesk Architectural Desktop 2007 |Company: Autodesk,Inc. |WEB Address: www.autodesk.com
 90
    32897
280
     0
281
     0
  0
CLASS
  1
AEC_DISP_REP_CEILING_GRID
  2
AecDbDispRepCeilingGrid
  3
AecArchBase50|Product Desc: Autodesk Architectural Desktop 2007 |Company: Autodesk,Inc. |WEB Address: www.autodesk.com
 90
    33661
280
     0
281
     0
  0
CLASS
  1
AEC_DISP_REP_CEILING_GRID_MODEL
  2
AecDbDispRepCeilingGridModel
  3
AecArchBase50|Product Desc: Autodesk Architectural Desktop 2007 |Company: Autodesk,Inc. |WEB Address: www.autodesk.com
 90
    32897
280
     0
281
     0
  0
CLASS
  1
AEC_DISP_REP_CEILING_GRID_RCP
  2
AecDbDispRepCeilingGridRcp
  3
AecArchBase50|Product Desc: Autodesk Architectural Desktop 2007 |Company: Autodesk,Inc. |WEB Address: www.autodesk.com
 90
    32897
280
     0
281
     0
  0
CLASS
  1
AEC_DISP_REP_CLIP_VOLUME_MODEL
  2
AecDbDispRepClipVolModel
  3
AecBase50|Product Desc: Autodesk Architectural Desktop 2007 |Company: Autodesk,Inc. |WEB Address: www.autodesk.com
 90
    32897
280
     0
281
     0
  0
CLASS
  1
AEC_DISP_REP_CLIP_VOLUME_PLAN
  2
AecDbDispRepClipVolPlan
  3
AecBase50|Product Desc: Autodesk Architectural Desktop 2007 |Company: Autodesk,Inc. |WEB Address: www.autodesk.com
 90
    32897
280
     0
281
     0
  0
CLASS
  1
AEC_DISP_REP_CLIP_VOLUME_RESULT_SUBDIV
  2
AecDbDispRepClipVolResSubDiv
  3
AecBase50|Product Desc: Autodesk Architectural Desktop 2007 |Company: Autodesk,Inc. |WEB Address: www.autodesk.com
 90
    32897
280
     0
281
     0
  0
CLASS
  1
AEC_DISP_REP_CLIP_VOLUME_RESULT
  2
AecDbDispRepClipVolResult
  3
AecBase50|Product Desc: Autodesk Architectural Desktop 2007 |Company: Autodesk,Inc. |WEB Address: www.autodesk.com
 90
    32897
280
     0
281
     0
  0
CLASS
  1
AEC_DISP_REP_COLUMN_GRID
  2
AecDbDispRepColumnGrid
  3
AecStructureBase50|Product Desc: Autodesk Architectural Desktop 2007 |Company: Autodesk,Inc. |WEB Address: www.autodesk.com
 90
    32897
280
     0
281
     0
  0
CLASS
  1
AEC_DISP_REP_COLUMN_GRID_MODEL
  2
AecDbDispRepColumnGridModel
  3
AecStructureBase50|Product Desc: Autodesk Architectural Desktop 2007 |Company: Autodesk,Inc. |WEB Address: www.autodesk.com
 90
    32897
280
     0
281
     0
  0
CLASS
  1
AEC_DISP_REP_CURTAIN_WALL_LAYOUT_MODEL
  2
AecDbDispRepCurtainWallLayoutModel
  3
AecArchBase50|Product Desc: Autodesk Architectural Desktop 2007 |Company: Autodesk,Inc. |WEB Address: www.autodesk.com
 90
    32897
280
     0
281
     0
  0
CLASS
  1
AEC_DISP_REP_CURTAIN_WALL_LAYOUT_PLAN
  2
AecDbDispRepCurtainWallLayoutPlan
  3
AecArchBase50|Product Desc: Autodesk Architectural Desktop 2007 |Company: Autodesk,Inc. |WEB Address: www.autodesk.com
 90
    32897
280
     0
281
     0
  0
CLASS
  1
AEC_DISP_REP_CURTAIN_WALL_UNIT_MODEL
  2
AecDbDispRepCurtainWallUnitModel
  3
AecArchBase50|Product Desc: Autodesk Architectural Desktop 2007 |Company: Autodesk,Inc. |WEB Address: www.autodesk.com
 90
    32897
280
     0
281
     0
  0
CLASS
  1
AEC_DISP_REP_CURTAIN_WALL_UNIT_PLAN
  2
AecDbDispRepCurtainWallUnitPlan
  3
AecArchBase50|Product Desc: Autodesk Architectural Desktop 2007 |Company: Autodesk,Inc. |WEB Address: www.autodesk.com
 90
    32897
280
     0
281
     0
  0
CLASS
  1
AEC_DB_DISP_REP_DIM_GROUP_PLAN
  2
AecDbDispRepDimGroupPlan
  3
AecArchDACHBase50|Product Desc: Autodesk Architectural Desktop 2007 |Company: Autodesk,Inc. |WEB Address: www.autodesk.com
 90
    32897
280
     0
281
     0
  0
CLASS
  1
AEC_DISP_REP_DOOR_MODEL
  2
AecDbDispRepDoorModel
  3
AecArchBase50|Product Desc: Autodesk Architectural Desktop 2007 |Company: Autodesk,Inc. |WEB Address: www.autodesk.com
 90
    32897
280
     0
281
     0
  0
CLASS
  1
AEC_DISP_REP_DOOR_NOMINAL
  2
AecDbDispRepDoorNominal
  3
AecArchBase50|Product Desc: Autodesk Architectural Desktop 2007 |Company: Autodesk,Inc. |WEB Address: www.autodesk.com
 90
    32897
280
     0
281
     0
  0
CLASS
  1
AEC_DISP_REP_DOOR_PLAN
  2
AecDbDispRepDoorPlan
  3
AecArchBase50|Product Desc: Autodesk Architectural Desktop 2007 |Company: Autodesk,Inc. |WEB Address: www.autodesk.com
 90
    32897
280
     0
281
     0
  0
CLASS
  1
AEC_DISP_REP_EDITINPLACEPROFILE
  2
AecDbDispRepEditInPlaceProfile
  3
AecBase50|Product Desc: Autodesk Architectural Desktop 2007 |Company: Autodesk,Inc. |WEB Address: www.autodesk.com
 90
    32897
280
     0
281
     0
  0
CLASS
  1
AEC_DISP_REP_ENT_REF
  2
AecDbDispRepEntRef
  3
AecBase50|Product Desc: Autodesk Architectural Desktop 2007 |Company: Autodesk,Inc. |WEB Address: www.autodesk.com
 90
    32897
280
     0
281
     0
  0
CLASS
  1
AEC_DISP_REP_LAYOUT_CURVE
  2
AecDbDispRepLayoutCurve
  3
AecBase50|Product Desc: Autodesk Architectural Desktop 2007 |Company: Autodesk,Inc. |WEB Address: www.autodesk.com
 90
    32897
280
     0
281
     0
  0
CLASS
  1
AEC_DISP_REP_LAYOUT_GRID2D
  2
AecDbDispRepLayoutGrid2d
  3
AecBase50|Product Desc: Autodesk Architectural Desktop 2007 |Company: Autodesk,Inc. |WEB Address: www.autodesk.com
 90
    32897
280
     0
281
     0
  0
CLASS
  1
AEC_DISP_REP_LAYOUT_GRID3D
  2
AecDbDispRepLayoutGrid3d
  3
AecBase50|Product Desc: Autodesk Architectural Desktop 2007 |Company: Autodesk,Inc. |WEB Address: www.autodesk.com
 90
    32897
280
     0
281
     0
  0
CLASS
  1
AEC_DISP_REP_MASKBLOCK_REF
  2
AecDbDispRepMaskBlockRef
  3
AecBase50|Product Desc: Autodesk Architectural Desktop 2007 |Company: Autodesk,Inc. |WEB Address: www.autodesk.com
 90
    32897
280
     0
281
     0
  0
CLASS
  1
AEC_DISP_REP_MASKBLOCK_REF_RCP
  2
AecDbDispRepMaskBlockRefRcp
  3
AecArchBase50|Product Desc: Autodesk Architectural Desktop 2007 |Company: Autodesk,Inc. |WEB Address: www.autodesk.com
 90
    32897
280
     0
281
     0
  0
CLASS
  1
AEC_DISP_REP_MASS_ELEM_MODEL
  2
AecDbDispRepMassElemModel
  3
AecBaseEx50|Product Desc: Autodesk Architectural Desktop 2007 |Company: Autodesk,Inc. |WEB Address: www.autodesk.com
 90
    32897
280
     0
281
     0
  0
CLASS
  1
AEC_DISP_REP_MASS_ELEM_SCHEM
  2
AecDbDispRepMassElemSchem
  3
AecBaseEx50|Product Desc: Autodesk Architectural Desktop 2007 |Company: Autodesk,Inc. |WEB Address: www.autodesk.com
 90
    32897
280
     0
281
     0
  0
CLASS
  1
AEC_DISP_REP_MASS_GROUP_MODEL
  2
AecDbDispRepMassGroupModel
  3
AecBaseEx50|Product Desc: Autodesk Architectural Desktop 2007 |Company: Autodesk,Inc. |WEB Address: www.autodesk.com
 90
    32897
280
     0
281
     0
  0
CLASS
  1
AEC_DISP_REP_MASS_GROUP_PLAN
  2
AecDbDispRepMassGroupPlan
  3
AecBaseEx50|Product Desc: Autodesk Architectural Desktop 2007 |Company: Autodesk,Inc. |WEB Address: www.autodesk.com
 90
    32897
280
     0
281
     0
  0
CLASS
  1
AEC_DISP_REP_MATERIAL
  2
AecDbDispRepMaterial
  3
AecBase50|Product Desc: Autodesk Architectural Desktop 2007 |Company: Autodesk,Inc. |WEB Address: www.autodesk.com
 90
    32897
280
     0
281
     0
  0
CLASS
  1
AEC_DISP_REP_MVBLOCK_REF
  2
AecDbDispRepMvBlockRef
  3
AecBase50|Product Desc: Autodesk Architectural Desktop 2007 |Company: Autodesk,Inc. |WEB Address: www.autodesk.com
 90
    32897
280
     0
281
     0
  0
CLASS
  1
AEC_DISP_REP_MVBLOCK_REF_MODEL
  2
AecDbDispRepMvBlockRefModel
  3
AecBase50|Product Desc: Autodesk Architectural Desktop 2007 |Company: Autodesk,Inc. |WEB Address: www.autodesk.com
 90
    32897
280
     0
281
     0
  0
CLASS
  1
AEC_DISP_REP_OPENING
  2
AecDbDispRepOpening
  3
AecArchBase50|Product Desc: Autodesk Architectural Desktop 2007 |Company: Autodesk,Inc. |WEB Address: www.autodesk.com
 90
    32897
280
     0
281
     0
  0
CLASS
  1
AEC_DISP_REP_OPENING_MODEL
  2
AecDbDispRepOpeningModel
  3
AecArchBase50|Product Desc: Autodesk Architectural Desktop 2007 |Company: Autodesk,Inc. |WEB Address: www.autodesk.com
 90
    32897
280
     0
281
     0
  0
CLASS
  1
AEC_DISP_REP_POLYGON_MODEL
  2
AecDbDispRepPolygonModel
  3
AecBaseEx50|Product Desc: Autodesk Architectural Desktop 2007 |Company: Autodesk,Inc. |WEB Address: www.autodesk.com
 90
    32897
280
     0
281
     0
  0
CLASS
  1
AEC_DISP_REP_RAILING_MODEL
  2
AecDbDispRepRailingModel
  3
AecArchBase50|Product Desc: Autodesk Architectural Desktop 2007 |Company: Autodesk,Inc. |WEB Address: www.autodesk.com
 90
    32897
280
     0
281
     0
  0
CLASS
  1
AEC_DISP_REP_RAILING_PLAN
  2
AecDbDispRepRailingPlan
  3
AecArchBase50|Product Desc: Autodesk Architectural Desktop 2007 |Company: Autodesk,Inc. |WEB Address: www.autodesk.com
 90
    32897
280
     0
281
     0
  0
CLASS
  1
AEC_DISP_REP_ROOF_MODEL
  2
AecDbDispRepRoofModel
  3
AecArchBase50|Product Desc: Autodesk Architectural Desktop 2007 |Company: Autodesk,Inc. |WEB Address: www.autodesk.com
 90
    32897
280
     0
281
     0
  0
CLASS
  1
AEC_DISP_REP_ROOF_PLAN
  2
AecDbDispRepRoofPlan
  3
AecArchBase50|Product Desc: Autodesk Architectural Desktop 2007 |Company: Autodesk,Inc. |WEB Address: www.autodesk.com
 90
    32897
280
     0
281
     0
  0
CLASS
  1
AEC_DISP_REP_ROOFSLAB_MODEL
  2
AecDbDispRepRoofSlabModel
  3
AecArchBase50|Product Desc: Autodesk Architectural Desktop 2007 |Company: Autodesk,Inc. |WEB Address: www.autodesk.com
 90
    32897
280
     0
281
     0
  0
CLASS
  1
AEC_DISP_REP_ROOFSLAB_PLAN
  2
AecDbDispRepRoofSlabPlan
  3
AecArchBase50|Product Desc: Autodesk Architectural Desktop 2007 |Company: Autodesk,Inc. |WEB Address: www.autodesk.com
 90
    32897
280
     0
281
     0
  0
CLASS
  1
AEC_DISP_REP_SCHEDULE_TABLE
  2
AecDbDispRepScheduleTable
  3
AecSchedule50|Product Desc: Autodesk Architectural Desktop 2007 |Company: Autodesk,Inc. |WEB Address: www.autodesk.com
 90
    32897
280
     0
281
     0
  0
CLASS
  1
AEC_DISP_REP_SLAB_MODEL
  2
AecDbDispRepSlabModel
  3
AecArchBase50|Product Desc: Autodesk Architectural Desktop 2007 |Company: Autodesk,Inc. |WEB Address: www.autodesk.com
 90
    32897
280
     0
281
     0
  0
CLASS
  1
AEC_DISP_REP_SLAB_PLAN
  2
AecDbDispRepSlabPlan
  3
AecArchBase50|Product Desc: Autodesk Architectural Desktop 2007 |Company: Autodesk,Inc. |WEB Address: www.autodesk.com
 90
    32897
280
     0
281
     0
  0
CLASS
  1
AEC_DISP_REP_SLICE
  2
AecDbDispRepSlice
  3
AecBase50|Product Desc: Autodesk Architectural Desktop 2007 |Company: Autodesk,Inc. |WEB Address: www.autodesk.com
 90
    32897
280
     0
281
     0
  0
CLASS
  1
AEC_DISP_REP_SPACE_BOUNDARY_MODEL
  2
AecDbDispRepSpaceBoundaryModel
  3
AecArchBase50|Product Desc: Autodesk Architectural Desktop 2007 |Company: Autodesk,Inc. |WEB Address: www.autodesk.com
 90
    32897
280
     0
281
     0
  0
CLASS
  1
AEC_DISP_REP_SPACE_BOUNDARY_PLAN
  2
AecDbDispRepSpaceBoundaryPlan
  3
AecArchBase50|Product Desc: Autodesk Architectural Desktop 2007 |Company: Autodesk,Inc. |WEB Address: www.autodesk.com
 90
    32897
280
     0
281
     0
  0
CLASS
  1
AEC_DISP_REP_SPACE_BOUNDARY_SCHEM
  2
AecDbDispRepSpaceBoundarySketch
  3
AecArchBase50|Product Desc: Autodesk Architectural Desktop 2007 |Company: Autodesk,Inc. |WEB Address: www.autodesk.com
 90
    32897
280
     0
281
     0
  0
CLASS
  1
AEC_DISP_REP_SPACE_MODEL
  2
AecDbDispRepSpaceModel
  3
AecArchBase50|Product Desc: Autodesk Architectural Desktop 2007 |Company: Autodesk,Inc. |WEB Address: www.autodesk.com
 90
    32897
280
     0
281
     0
  0
CLASS
  1
AEC_DISP_REP_SPACE_PLAN
  2
AecDbDispRepSpacePlan
  3
AecArchBase50|Product Desc: Autodesk Architectural Desktop 2007 |Company: Autodesk,Inc. |WEB Address: www.autodesk.com
 90
    32897
280
     0
281
     0
  0
CLASS
  1
AEC_DISP_REP_STAIR_MODEL
  2
AecDbDispRepStairModel
  3
AecArchBase50|Product Desc: Autodesk Architectural Desktop 2007 |Company: Autodesk,Inc. |WEB Address: www.autodesk.com
 90
    32897
280
     0
281
     0
  0
CLASS
  1
AEC_DISP_REP_STAIR_PLAN
  2
AecDbDispRepStairPlan
  3
AecArchBase50|Product Desc: Autodesk Architectural Desktop 2007 |Company: Autodesk,Inc. |WEB Address: www.autodesk.com
 90
    32897
280
     0
281
     0
  0
CLASS
  1
AEC_DISP_REP_WALL_GRAPH
  2
AecDbDispRepWallGraph
  3
AecArchBase50|Product Desc: Autodesk Architectural Desktop 2007 |Company: Autodesk,Inc. |WEB Address: www.autodesk.com
 90
    32897
280
     0
281
     0
  0
CLASS
  1
AEC_DISP_REP_WALL_MODEL
  2
AecDbDispRepWallModel
  3
AecArchBase50|Product Desc: Autodesk Architectural Desktop 2007 |Company: Autodesk,Inc. |WEB Address: www.autodesk.com
 90
    32897
280
     0
281
     0
  0
CLASS
  1
AEC_DISP_REP_WALL_PLAN
  2
AecDbDispRepWallPlan
  3
AecArchBase50|Product Desc: Autodesk Architectural Desktop 2007 |Company: Autodesk,Inc. |WEB Address: www.autodesk.com
 90
    32897
280
     0
281
     0
  0
CLASS
  1
AEC_DISP_REP_WALL_SCHEM
  2
AecDbDispRepWallSchem
  3
AecArchBase50|Product Desc: Autodesk Architectural Desktop 2007 |Company: Autodesk,Inc. |WEB Address: www.autodesk.com
 90
    32897
280
     0
281
     0
  0
CLASS
  1
AEC_DISP_REP_WINDOW_ASSEMBLY_MODEL
  2
AecDbDispRepWindowAssemblyModel
  3
AecArchBase50|Product Desc: Autodesk Architectural Desktop 2007 |Company: Autodesk,Inc. |WEB Address: www.autodesk.com
 90
    32897
280
     0
281
     0
  0
CLASS
  1
AEC_DISP_REP_WINDOW_ASSEMBLY_PLAN
  2
AecDbDispRepWindowAssemblyPlan
  3
AecArchBase50|Product Desc: Autodesk Architectural Desktop 2007 |Company: Autodesk,Inc. |WEB Address: www.autodesk.com
 90
    32897
280
     0
281
     0
  0
CLASS
  1
AEC_AECDBDISPREPWINDOWASSEMBLYPLAN100
  2
AecDbDispRepWindowAssemblyPlan100
  3
AecArchDACHBase50|Product Desc: Autodesk Architectural Desktop 2007 |Company: Autodesk,Inc. |WEB Address: www.autodesk.com
 90
    32897
280
     0
281
     0
  0
CLASS
  1
AEC_DISP_REP_WINDOW_MODEL
  2
AecDbDispRepWindowModel
  3
AecArchBase50|Product Desc: Autodesk Architectural Desktop 2007 |Company: Autodesk,Inc. |WEB Address: www.autodesk.com
 90
    32897
280
     0
281
     0
  0
CLASS
  1
AEC_DISP_REP_WINDOW_NOMINAL
  2
AecDbDispRepWindowNominal
  3
AecArchBase50|Product Desc: Autodesk Architectural Desktop 2007 |Company: Autodesk,Inc. |WEB Address: www.autodesk.com
 90
    32897
280
     0
281
     0
  0
CLASS
  1
AEC_DISP_REP_WINDOW_PLAN
  2
AecDbDispRepWindowPlan
  3
AecArchBase50|Product Desc: Autodesk Architectural Desktop 2007 |Company: Autodesk,Inc. |WEB Address: www.autodesk.com
 90
    32897
280
     0
281
     0
  0
CLASS
  1
AECS_DISP_REP_MEMBER_LOGICAL
  2
AecsDbDispRepMemberLogical
  3
AecStructureBase50|Product Desc: Autodesk Architectural Desktop 2007 |Company: Autodesk,Inc. |WEB Address: www.autodesk.com
 90
    32897
280
     0
281
     0
  0
CLASS
  1
AECS_DISP_REP_MEMBER_MODEL_DESIGN
  2
AecsDbDispRepMemberModelDesign
  3
AecStructureBase50|Product Desc: Autodesk Architectural Desktop 2007 |Company: Autodesk,Inc. |WEB Address: www.autodesk.com
 90
    32897
280
     0
281
     0
  0
CLASS
  1
AECS_DISP_REP_MEMBER_PLAN_DESIGN
  2
AecsDbDispRepMemberPlanDesign
  3
AecStructureBase50|Product Desc: Autodesk Architectural Desktop 2007 |Company: Autodesk,Inc. |WEB Address: www.autodesk.com
 90
    32897
280
     0
281
     0
  0
CLASS
  1
AEC_DISP_PROPS_ENT
  2
AecDbDispPropsEnt
  3
AecBase50|Product Desc: Autodesk Architectural Desktop 2007 |Company: Autodesk,Inc. |WEB Address: www.autodesk.com
 90
    32897
280
     0
281
     0
  0
CLASS
  1
AEC_DISP_PROPS_CLIP_VOLUME
  2
AecDbDispPropsClipVol
  3
AecBase50|Product Desc: Autodesk Architectural Desktop 2007 |Company: Autodesk,Inc. |WEB Address: www.autodesk.com
 90
    32897
280
     0
281
     0
  0
CLASS
  1
AEC_DISP_PROPS_SLICE
  2
AecDbDispPropsSlice
  3
AecBase50|Product Desc: Autodesk Architectural Desktop 2007 |Company: Autodesk,Inc. |WEB Address: www.autodesk.com
 90
    32897
280
     0
281
     0
  0
CLASS
  1
AEC_DISP_PROPS_ROOFSLAB_PLAN
  2
AecDbDispPropsRoofSlabPlan
  3
AecArchBase50|Product Desc: Autodesk Architectural Desktop 2007 |Company: Autodesk,Inc. |WEB Address: www.autodesk.com
 90
    32897
280
     0
281
     0
  0
CLASS
  1
AEC_DISP_PROPS_GRID_ASSEMBLY_MODEL
  2
AecDbDispPropsGridAssemblyModel
  3
AecArchBase50|Product Desc: Autodesk Architectural Desktop 2007 |Company: Autodesk,Inc. |WEB Address: www.autodesk.com
 90
    32897
280
     0
281
     0
  0
CLASS
  1
AEC_DISP_PROPS_ROOF
  2
AecDbDispPropsRoof
  3
AecArchBase50|Product Desc: Autodesk Architectural Desktop 2007 |Company: Autodesk,Inc. |WEB Address: www.autodesk.com
 90
    32897
280
     0
281
     0
  0
CLASS
  1
AEC_DISP_PROPS_SPACE_MODEL
  2
AecDbDispPropsSpaceModel
  3
AecArchBase50|Product Desc: Autodesk Architectural Desktop 2007 |Company: Autodesk,Inc. |WEB Address: www.autodesk.com
 90
    32897
280
     0
281
     0
  0
CLASS
  1
AEC_DISP_PROPS_EDITINPLACEPROFILE_MODEL
  2
AecDbDispPropsEditInPlaceProfile
  3
AecBase50|Product Desc: Autodesk Architectural Desktop 2007 |Company: Autodesk,Inc. |WEB Address: www.autodesk.com
 90
    32897
280
     0
281
     0
  0
CLASS
  1
AEC_DISP_PROPS_DOOR
  2
AecDbDispPropsDoor
  3
AecArchBase50|Product Desc: Autodesk Architectural Desktop 2007 |Company: Autodesk,Inc. |WEB Address: www.autodesk.com
 90
    32897
280
     0
281
     0
  0
CLASS
  1
AEC_DISP_PROPS_MASKBLOCK
  2
AecDbDispPropsMaskBlock
  3
AecBase50|Product Desc: Autodesk Architectural Desktop 2007 |Company: Autodesk,Inc. |WEB Address: www.autodesk.com
 90
    32897
280
     0
281
     0
  0
CLASS
  1
AEC_DISP_PROPS_SPACE_PLAN
  2
AecDbDispPropsSpacePlan
  3
AecArchBase50|Product Desc: Autodesk Architectural Desktop 2007 |Company: Autodesk,Inc. |WEB Address: www.autodesk.com
 90
    32897
280
     0
281
     0
  0
CLASS
  1
AEC_DISP_PROPS_RAILING_PLAN
  2
AecDbDispPropsRailingPlan
  3
AecArchBase50|Product Desc: Autodesk Architectural Desktop 2007 |Company: Autodesk,Inc. |WEB Address: www.autodesk.com
 90
    32897
280
     0
281
     0
  0
CLASS
  1
AEC_DISP_PROPS_LAYOUT_GRID2D
  2
AecDbDispPropsLayoutGrid2d
  3
AecBase50|Product Desc: Autodesk Architectural Desktop 2007 |Company: Autodesk,Inc. |WEB Address: www.autodesk.com
 90
    32897
280
     0
281
     0
  0
CLASS
  1
AEC_DISP_PROPS_CLIP_VOLUME_RESULT
  2
AecDbDispPropsClipVolResSubDiv
  3
AecBase50|Product Desc: Autodesk Architectural Desktop 2007 |Company: Autodesk,Inc. |WEB Address: www.autodesk.com
 90
    32897
280
     0
281
     0
  0
CLASS
  1
AEC_DISP_PROPS_STAIR_MODEL
  2
AecDbDispPropsStairModel
  3
AecArchBase50|Product Desc: Autodesk Architectural Desktop 2007 |Company: Autodesk,Inc. |WEB Address: www.autodesk.com
 90
    32897
280
     0
281
     0
  0
CLASS
  1
AEC_DISP_PROPS_LAYOUT_CURVE
  2
AecDbDispPropsLayoutCurve
  3
AecBase50|Product Desc: Autodesk Architectural Desktop 2007 |Company: Autodesk,Inc. |WEB Address: www.autodesk.com
 90
    32897
280
     0
281
     0
  0
CLASS
  1
AEC_DISP_PROPS_POLYGON_MODEL
  2
AecDbDispPropsPolygonModel
  3
AecBaseEx50|Product Desc: Autodesk Architectural Desktop 2007 |Company: Autodesk,Inc. |WEB Address: www.autodesk.com
 90
    32897
280
     0
281
     0
  0
CLASS
  1
AEC_DISP_PROPS_MASS_GROUP
  2
AecDbDispPropsMassGroup
  3
AecBaseEx50|Product Desc: Autodesk Architectural Desktop 2007 |Company: Autodesk,Inc. |WEB Address: www.autodesk.com
 90
    32897
280
     0
281
     0
  0
CLASS
  1
AEC_DISP_PROPS_STAIR_PLAN
  2
AecDbDispPropsStairPlan
  3
AecArchBase50|Product Desc: Autodesk Architectural Desktop 2007 |Company: Autodesk,Inc. |WEB Address: www.autodesk.com
 90
    32897
280
     0
281
     0
  0
CLASS
  1
AEC_DISP_PROPS_OPENING
  2
AecDbDispPropsOpening
  3
AecArchBase50|Product Desc: Autodesk Architectural Desktop 2007 |Company: Autodesk,Inc. |WEB Address: www.autodesk.com
 90
    32897
280
     0
281
     0
  0
CLASS
  1
AEC_DISP_PROPS_WALL_GRAPH
  2
AecDbDispPropsWallGraph
  3
AecArchBase50|Product Desc: Autodesk Architectural Desktop 2007 |Company: Autodesk,Inc. |WEB Address: www.autodesk.com
 90
    32897
280
     0
281
     0
  0
CLASS
  1
AEC_DISP_PROPS_DOOR_NOMINAL
  2
AecDbDispPropsDoorNominal
  3
AecArchBase50|Product Desc: Autodesk Architectural Desktop 2007 |Company: Autodesk,Inc. |WEB Address: www.autodesk.com
 90
    32897
280
     0
281
     0
  0
CLASS
  1
AEC_DISP_PROPS_SLAB
  2
AecDbDispPropsSlab
  3
AecArchBase50|Product Desc: Autodesk Architectural Desktop 2007 |Company: Autodesk,Inc. |WEB Address: www.autodesk.com
 90
    32897
280
     0
281
     0
  0
CLASS
  1
AEC_DISP_PROPS_WALL_MODEL
  2
AecDbDispPropsWallModel
  3
AecArchBase50|Product Desc: Autodesk Architectural Desktop 2007 |Company: Autodesk,Inc. |WEB Address: www.autodesk.com
 90
    32897
280
     0
281
     0
  0
CLASS
  1
AEC_DISP_PROPS_MATERIAL
  2
AecDbDispPropsMaterial
  3
AecBase50|Product Desc: Autodesk Architectural Desktop 2007 |Company: Autodesk,Inc. |WEB Address: www.autodesk.com
 90
    32897
280
     0
281
     0
  0
CLASS
  1
AEC_DISP_PROPS_WINDOW
  2
AecDbDispPropsWindow
  3
AecArchBase50|Product Desc: Autodesk Architectural Desktop 2007 |Company: Autodesk,Inc. |WEB Address: www.autodesk.com
 90
    32897
280
     0
281
     0
  0
CLASS
  1
AEC_DISP_PROPS_LAYOUT_GRID3D
  2
AecDbDispPropsLayoutGrid3d
  3
AecBase50|Product Desc: Autodesk Architectural Desktop 2007 |Company: Autodesk,Inc. |WEB Address: www.autodesk.com
 90
    32897
280
     0
281
     0
  0
CLASS
  1
AEC_DISP_PROPS_GRID_ASSEMBLY_PLAN
  2
AecDbDispPropsGridAssemblyPlan
  3
AecArchBase50|Product Desc: Autodesk Architectural Desktop 2007 |Company: Autodesk,Inc. |WEB Address: www.autodesk.com
 90
    32897
280
     0
281
     0
  0
CLASS
  1
AEC_DISP_PROPS_WALL_SCHEM
  2
AecDbDispPropsWallSchem
  3
AecArchBase50|Product Desc: Autodesk Architectural Desktop 2007 |Company: Autodesk,Inc. |WEB Address: www.autodesk.com
 90
    32897
280
     0
281
     0
  0
CLASS
  1
AEC_DISP_PROPS_WALL_PLAN
  2
AecDbDispPropsWallPlan
  3
AecArchBase50|Product Desc: Autodesk Architectural Desktop 2007 |Company: Autodesk,Inc. |WEB Address: www.autodesk.com
 90
    32897
280
     0
281
     0
  0
CLASS
  1
AEC_DISP_PROPS_SPACE_BOUNDARY
  2
AecDbDispPropsSpaceBoundary
  3
AecArchBase50|Product Desc: Autodesk Architectural Desktop 2007 |Company: Autodesk,Inc. |WEB Address: www.autodesk.com
 90
    32897
280
     0
281
     0
  0
CLASS
  1
AEC_DISP_PROPS_SLAB_PLAN
  2
AecDbDispPropsSlabPlan
  3
AecArchBase50|Product Desc: Autodesk Architectural Desktop 2007 |Company: Autodesk,Inc. |WEB Address: www.autodesk.com
 90
    32897
280
     0
281
     0
  0
CLASS
  1
AEC_DISP_PROPS_RAILING_MODEL
  2
AecDbDispPropsRailingModel
  3
AecArchBase50|Product Desc: Autodesk Architectural Desktop 2007 |Company: Autodesk,Inc. |WEB Address: www.autodesk.com
 90
    32897
280
     0
281
     0
  0
CLASS
  1
AEC_DISP_PROPS_MASS_ELEM_MODEL
  2
AecDbDispPropsMassElem
  3
AecBaseEx50|Product Desc: Autodesk Architectural Desktop 2007 |Company: Autodesk,Inc. |WEB Address: www.autodesk.com
 90
    32897
280
     0
281
     0
  0
CLASS
  1
AEC_DISP_PROPS_DIM
  2
AecDbDispPropsDimGroup
  3
AecArchDACHBase50|Product Desc: Autodesk Architectural Desktop 2007 |Company: Autodesk,Inc. |WEB Address: www.autodesk.com
 90
    32897
280
     0
281
     0
  0
CLASS
  1
AEC_DISP_PROPS_ROOFSLAB
  2
AecDbDispPropsRoofSlab
  3
AecArchBase50|Product Desc: Autodesk Architectural Desktop 2007 |Company: Autodesk,Inc. |WEB Address: www.autodesk.com
 90
    32897
280
     0
281
     0
  0
CLASS
  1
AEC_DISP_PROPS_ENT_REF
  2
AecDbDispPropsEntRef
  3
AecBase50|Product Desc: Autodesk Architectural Desktop 2007 |Company: Autodesk,Inc. |WEB Address: www.autodesk.com
 90
    32897
280
     0
281
     0
  0
CLASS
  1
AEC_DISP_PROPS_2D_SECTION
  2
AecDbDispProps2dSection
  3
AecBase50|Product Desc: Autodesk Architectural Desktop 2007 |Company: Autodesk,Inc. |WEB Address: www.autodesk.com
 90
    32897
280
     0
281
     0
  0
CLASS
  1
AECS_DISP_PROPS_MEMBER_LOGICAL
  2
AecsDbDispPropsMemberLogical
  3
AecStructureBase50|Product Desc: Autodesk Architectural Desktop 2007 |Company: Autodesk,Inc. |WEB Address: www.autodesk.com
 90
    32897
280
     0
281
     0
  0
CLASS
  1
AEC_DISP_PROPS_AREA_DECOMPOSED
  2
AecDbDispPropsAreaDecomposed
  3
AecAreaCalculationBase50|Product Desc: Autodesk Architectural Desktop 2007 |Company: Autodesk,Inc. |WEB Address: www.autodesk.com
 90
    32897
280
     0
281
     0
  0
CLASS
  1
AEC_DISP_PROPS_CAMERA
  2
AecDbDispPropsCamera
  3
AecBase50|Product Desc: Autodesk Architectural Desktop 2007 |Company: Autodesk,Inc. |WEB Address: www.autodesk.com
 90
    32897
280
     0
281
     0
  0
CLASS
  1
AECS_DISP_PROPS_MEMBER
  2
AecsDbDispPropsMember
  3
AecStructureBase50|Product Desc: Autodesk Architectural Desktop 2007 |Company: Autodesk,Inc. |WEB Address: www.autodesk.com
 90
    32897
280
     0
281
     0
  0
CLASS
  1
AECS_DISP_PROPS_MEMBER_PLAN
  2
AecsDbDispPropsMemberPlan
  3
AecStructureBase50|Product Desc: Autodesk Architectural Desktop 2007 |Company: Autodesk,Inc. |WEB Address: www.autodesk.com
 90
    32897
280
     0
281
     0
  0
CLASS
  1
AEC_DISP_PROPS_AREAGROUP
  2
AecDbDispPropsAreaGroup
  3
AecAreaCalculationBase50|Product Desc: Autodesk Architectural Desktop 2007 |Company: Autodesk,Inc. |WEB Address: www.autodesk.com
 90
    32897
280
     0
281
     0
  0
CLASS
  1
AEC_DISP_PROPS_WINDOW_NOMINAL
  2
AecDbDispPropsWindowNominal
  3
AecArchBase50|Product Desc: Autodesk Architectural Desktop 2007 |Company: Autodesk,Inc. |WEB Address: www.autodesk.com
 90
    32897
280
     0
281
     0
  0
CLASS
  1
AEC_DISP_PROPS_AREA
  2
AecDbDispPropsArea
  3
AecAreaCalculationBase50|Product Desc: Autodesk Architectural Desktop 2007 |Company: Autodesk,Inc. |WEB Address: www.autodesk.com
 90
    32897
280
     0
281
     0
  0
CLASS
  1
AEC_DISP_PROPS_SCHEDULE_TABLE
  2
AecDbDispPropsScheduleTable
  3
AecSchedule50|Product Desc: Autodesk Architectural Desktop 2007 |Company: Autodesk,Inc. |WEB Address: www.autodesk.com
 90
    32897
280
     0
281
     0
  0
CLASS
  1
AEC_LAYERKEY_STYLE
  2
AecDbLayerKeyStyle
  3
AecBase50|Product Desc: Autodesk Architectural Desktop 2007 |Company: Autodesk,Inc. |WEB Address: www.autodesk.com
 90
    32897
280
     0
281
     0
  0
CLASS
  1
AEC_VARS_ARCHBASE
  2
AecDbVarsArchBase
  3
AecArchBase50|Product Desc: Autodesk Architectural Desktop 2007 |Company: Autodesk,Inc. |WEB Address: www.autodesk.com
 90
    32897
280
     0
281
     0
  0
CLASS
  1
AEC_VARS_MUNICH
  2
AecDbVarsMunich
  3
AecArchDACHBase50|Product Desc: Autodesk Architectural Desktop 2007 |Company: Autodesk,Inc. |WEB Address: www.autodesk.com
 90
    32897
280
     0
281
     0
  0
CLASS
  1
AEC_NOTIFICATION_TRACKER
  2
AecDbNotificationTracker
  3
AecBase50|Product Desc: Autodesk Architectural Desktop 2007 |Company: Autodesk,Inc. |WEB Address: www.autodesk.com
 90
    32897
280
     0
281
     0
  0
CLASS
  1
AEC_DISP_REP_ANCHOR
  2
AecDbDispRepAnchor
  3
AecBase50|Product Desc: Autodesk Architectural Desktop 2007 |Company: Autodesk,Inc. |WEB Address: www.autodesk.com
 90
    32897
280
     0
281
     0
  0
CLASS
  1
AEC_DISP_REP_POLYGON_TRUECOLOUR
  2
AecDbDispRepPolygonTrueColour
  3
AecBaseEx50|Product Desc: Autodesk Architectural Desktop 2007 |Company: Autodesk,Inc. |WEB Address: www.autodesk.com
 90
    32897
280
     0
281
     0
  0
CLASS
  1
AEC_DISP_PROPS_POLYGON_TRUECOLOUR
  2
AecDbDispPropsPolygonTrueColour
  3
AecBaseEx50|Product Desc: Autodesk Architectural Desktop 2007 |Company: Autodesk,Inc. |WEB Address: www.autodesk.com
 90
    32897
280
     0
281
     0
  0
CLASS
  1
AEC_DISP_REP_BDG_ELEVLINE_RCP
  2
AecDbDispRepBdgElevLineRcp
  3
AecArchBase50|Product Desc: Autodesk Architectural Desktop 2007 |Company: Autodesk,Inc. |WEB Address: www.autodesk.com
 90
    32897
280
     0
281
     0
  0
CLASS
  1
AEC_DISP_REP_BDG_SECTIONLINE_RCP
  2
AecDbDispRepBdgSectionLineRcp
  3
AecArchBase50|Product Desc: Autodesk Architectural Desktop 2007 |Company: Autodesk,Inc. |WEB Address: www.autodesk.com
 90
    32897
280
     0
281
     0
  0
CLASS
  1
AEC_DISP_REP_BDG_SECTION_MODEL
  2
AecDbDispRepBdgSectionModel
  3
AecArchBase50|Product Desc: Autodesk Architectural Desktop 2007 |Company: Autodesk,Inc. |WEB Address: www.autodesk.com
 90
    32897
280
     0
281
     0
  0
CLASS
  1
AEC_DISP_REP_DOOR_ELEV
  2
AecDbDispRepDoorElev
  3
AecArchBase50|Product Desc: Autodesk Architectural Desktop 2007 |Company: Autodesk,Inc. |WEB Address: www.autodesk.com
 90
    32897
280
     0
281
     0
  0
CLASS
  1
AEC_DISP_REP_DOOR_RCP
  2
AecDbDispRepDoorRcp
  3
AecArchBase50|Product Desc: Autodesk Architectural Desktop 2007 |Company: Autodesk,Inc. |WEB Address: www.autodesk.com
 90
    32897
280
     0
281
     0
  0
CLASS
  1
AEC_DISP_REP_DOOR_THRESHOLD_PLAN
  2
AecDbDispRepDoorThresholdPlan
  3
AecArchBase50|Product Desc: Autodesk Architectural Desktop 2007 |Company: Autodesk,Inc. |WEB Address: www.autodesk.com
 90
    32897
280
     0
281
     0
  0
CLASS
  1
AEC_DISP_PROPS_DOOR_THRESHOLD_PLAN
  2
AecDbDispPropsDoorThresholdPlan
  3
AecArchBase50|Product Desc: Autodesk Architectural Desktop 2007 |Company: Autodesk,Inc. |WEB Address: www.autodesk.com
 90
    32897
280
     0
281
     0
  0
CLASS
  1
AEC_DISP_REP_MASS_ELEM_RCP
  2
AecDbDispRepMassElemRcp
  3
AecArchBase50|Product Desc: Autodesk Architectural Desktop 2007 |Company: Autodesk,Inc. |WEB Address: www.autodesk.com
 90
    32897
280
     0
281
     0
  0
CLASS
  1
AEC_DISP_REP_MASS_GROUP_RCP
  2
AecDbDispRepMassGroupRcp
  3
AecArchBase50|Product Desc: Autodesk Architectural Desktop 2007 |Company: Autodesk,Inc. |WEB Address: www.autodesk.com
 90
    32897
280
     0
281
     0
  0
CLASS
  1
AEC_DISP_REP_MVBLOCK_REF_RCP
  2
AecDbDispRepMvBlockRefRcp
  3
AecArchBase50|Product Desc: Autodesk Architectural Desktop 2007 |Company: Autodesk,Inc. |WEB Address: www.autodesk.com
 90
    32897
280
     0
281
     0
  0
CLASS
  1
AEC_DISP_REP_ROOF_RCP
  2
AecDbDispRepRoofRcp
  3
AecArchBase50|Product Desc: Autodesk Architectural Desktop 2007 |Company: Autodesk,Inc. |WEB Address: www.autodesk.com
 90
    32897
280
     0
281
     0
  0
CLASS
  1
AEC_DISP_REP_SPACE_BOUNDARY_DIAGRAM
  2
AecDbDispRepSpaceBoundaryDgrm
  3
AecArchBase50|Product Desc: Autodesk Architectural Desktop 2007 |Company: Autodesk,Inc. |WEB Address: www.autodesk.com
 90
    32897
280
     0
281
     0
  0
CLASS
  1
AEC_DISP_REP_SPACE_RCP
  2
AecDbDispRepSpaceRcp
  3
AecArchBase50|Product Desc: Autodesk Architectural Desktop 2007 |Company: Autodesk,Inc. |WEB Address: www.autodesk.com
 90
    32897
280
     0
281
     0
  0
CLASS
  1
AEC_DISP_REP_SPACE_VOLUME
  2
AecDbDispRepSpaceVolume
  3
AecArchBase50|Product Desc: Autodesk Architectural Desktop 2007 |Company: Autodesk,Inc. |WEB Address: www.autodesk.com
 90
    32897
280
     0
281
     0
  0
CLASS
  1
AEC_DISP_REP_STAIR_PLAN_OVERLAPPING
  2
AecDbDispRepStairPlanOverlapping
  3
AecArchBase50|Product Desc: Autodesk Architectural Desktop 2007 |Company: Autodesk,Inc. |WEB Address: www.autodesk.com
 90
    32897
280
     0
281
     0
  0
CLASS
  1
AEC_DISP_PROPS_STAIR_PLAN_OVERLAPPING
  2
AecDbDispPropsStairPlanOverlapping
  3
AecArchBase50|Product Desc: Autodesk Architectural Desktop 2007 |Company: Autodesk,Inc. |WEB Address: www.autodesk.com
 90
    32897
280
     0
281
     0
  0
CLASS
  1
AEC_DISP_REP_STAIR_RCP
  2
AecDbDispRepStairRcp
  3
AecArchBase50|Product Desc: Autodesk Architectural Desktop 2007 |Company: Autodesk,Inc. |WEB Address: www.autodesk.com
 90
    32897
280
     0
281
     0
  0
CLASS
  1
AEC_DISP_REP_WALL_RCP
  2
AecDbDispRepWallRcp
  3
AecArchBase50|Product Desc: Autodesk Architectural Desktop 2007 |Company: Autodesk,Inc. |WEB Address: www.autodesk.com
 90
    32897
280
     0
281
     0
  0
CLASS
  1
AEC_DISP_REP_WINDOWASSEMBLY_SILL_PLAN
  2
AecDbDispRepWindowAssemblySillPlan
  3
AecArchBase50|Product Desc: Autodesk Architectural Desktop 2007 |Company: Autodesk,Inc. |WEB Address: www.autodesk.com
 90
    32897
280
     0
281
     0
  0
CLASS
  1
AEC_DISP_PROPS_WINDOW_ASSEMBLY_SILL_PLAN
  2
AecDbDispPropsWindowAssemblySillPlan
  3
AecArchBase50|Product Desc: Autodesk Architectural Desktop 2007 |Company: Autodesk,Inc. |WEB Address: www.autodesk.com
 90
    32897
280
     0
281
     0
  0
CLASS
  1
AEC_DISP_REP_WINDOW_ELEV
  2
AecDbDispRepWindowElev
  3
AecArchBase50|Product Desc: Autodesk Architectural Desktop 2007 |Company: Autodesk,Inc. |WEB Address: www.autodesk.com
 90
    32897
280
     0
281
     0
  0
CLASS
  1
AEC_DISP_REP_WINDOW_RCP
  2
AecDbDispRepWindowRcp
  3
AecArchBase50|Product Desc: Autodesk Architectural Desktop 2007 |Company: Autodesk,Inc. |WEB Address: www.autodesk.com
 90
    32897
280
     0
281
     0
  0
CLASS
  1
AEC_DISP_REP_WINDOW_SILL_PLAN
  2
AecDbDispRepWindowSillPlan
  3
AecArchBase50|Product Desc: Autodesk Architectural Desktop 2007 |Company: Autodesk,Inc. |WEB Address: www.autodesk.com
 90
    32897
280
     0
281
     0
  0
CLASS
  1
AEC_DISP_PROPS_WINDOW_SILL_PLAN
  2
AecDbDispPropsWindowSillPlan
  3
AecArchBase50|Product Desc: Autodesk Architectural Desktop 2007 |Company: Autodesk,Inc. |WEB Address: www.autodesk.com
 90
    32897
280
     0
281
     0
  0
CLASS
  1
AEC_DISP_REP_ANCHOR_BUB_TO_GRID_RCP
  2
AecDbDispRepAnchorBubToGridRcp
  3
AecStructureBase50|Product Desc: Autodesk Architectural Desktop 2007 |Company: Autodesk,Inc. |WEB Address: www.autodesk.com
 90
    32897
280
     0
281
     0
  0
CLASS
  1
AEC_DISP_REP_COLUMN_GRID_RCP
  2
AecDbDispRepColumnGridRcp
  3
AecStructureBase50|Product Desc: Autodesk Architectural Desktop 2007 |Company: Autodesk,Inc. |WEB Address: www.autodesk.com
 90
    32897
280
     0
281
     0
  0
CLASS
  1
AECS_DISP_REP_MEMBER_ELEVATION_DESIGN
  2
AecsDbDispRepMemberElevationDesign
  3
AecStructureBase50|Product Desc: Autodesk Architectural Desktop 2007 |Company: Autodesk,Inc. |WEB Address: www.autodesk.com
 90
    32897
280
     0
281
     0
  0
CLASS
  1
AECS_DISP_PROPS_MEMBER_PROJECTED
  2
AecsDbDispPropsMemberProjected
  3
AecStructureBase50|Product Desc: Autodesk Architectural Desktop 2007 |Company: Autodesk,Inc. |WEB Address: www.autodesk.com
 90
    32897
280
     0
281
     0
  0
CLASS
  1
AECS_DISP_REP_MEMBER_ELEVATION_DETAIL
  2
AecsDbDispRepMemberElevationDetail
  3
AecStructureBase50|Product Desc: Autodesk Architectural Desktop 2007 |Company: Autodesk,Inc. |WEB Address: www.autodesk.com
 90
    32897
280
     0
281
     0
  0
CLASS
  1
AECS_DISP_REP_MEMBER_MODEL_DETAIL
  2
AecsDbDispRepMemberModelDetail
  3
AecStructureBase50|Product Desc: Autodesk Architectural Desktop 2007 |Company: Autodesk,Inc. |WEB Address: www.autodesk.com
 90
    32897
280
     0
281
     0
  0
CLASS
  1
AECS_DISP_REP_MEMBER_PLAN_DETAIL
  2
AecsDbDispRepMemberPlanDetail
  3
AecStructureBase50|Product Desc: Autodesk Architectural Desktop 2007 |Company: Autodesk,Inc. |WEB Address: www.autodesk.com
 90
    32897
280
     0
281
     0
  0
CLASS
  1
AECS_DISP_REP_MEMBER_PLAN_SKETCH
  2
AecsDbDispRepMemberPlanSketch
  3
AecStructureBase50|Product Desc: Autodesk Architectural Desktop 2007 |Company: Autodesk,Inc. |WEB Address: www.autodesk.com
 90
    32897
280
     0
281
     0
  0
CLASS
  1
AECS_DISP_PROPS_MEMBER_PLAN_SKETCH
  2
AecsDbDispPropsMemberPlanSketch
  3
AecStructureBase50|Product Desc: Autodesk Architectural Desktop 2007 |Company: Autodesk,Inc. |WEB Address: www.autodesk.com
 90
    32897
280
     0
281
     0
  0
CLASS
  1
AEC_AECDBDISPREPAREA100
  2
AecDbDispRepArea100
  3
AecArchDACHBase50|Product Desc: Autodesk Architectural Desktop 2007 |Company: Autodesk,Inc. |WEB Address: www.autodesk.com
 90
    32897
280
     0
281
     0
  0
CLASS
  1
AEC_AECDBDISPREPAREAGROUP100
  2
AecDbDispRepAreaGroup100
  3
AecArchDACHBase50|Product Desc: Autodesk Architectural Desktop 2007 |Company: Autodesk,Inc. |WEB Address: www.autodesk.com
 90
    32897
280
     0
281
     0
  0
CLASS
  1
AEC_AECDBDISPREPBDGELEVLINEPLAN100
  2
AecDbDispRepBdgElevLinePlan100
  3
AecArchDACHBase50|Product Desc: Autodesk Architectural Desktop 2007 |Company: Autodesk,Inc. |WEB Address: www.autodesk.com
 90
    32897
280
     0
281
     0
  0
CLASS
  1
AEC_AECDBDISPREPBDGSECTIONLINEPLAN100
  2
AecDbDispRepBdgSectionLinePlan100
  3
AecArchDACHBase50|Product Desc: Autodesk Architectural Desktop 2007 |Company: Autodesk,Inc. |WEB Address: www.autodesk.com
 90
    32897
280
     0
281
     0
  0
CLASS
  1
AEC_AECDBDISPREPCEILINGGRIDPLAN100
  2
AecDbDispRepCeilingGridPlan100
  3
AecArchDACHBase50|Product Desc: Autodesk Architectural Desktop 2007 |Company: Autodesk,Inc. |WEB Address: www.autodesk.com
 90
    32897
280
     0
281
     0
  0
CLASS
  1
AEC_AECDBDISPREPCOLUMNGRIDPLAN100
  2
AecDbDispRepColumnGridPlan100
  3
AecArchDACHBase50|Product Desc: Autodesk Architectural Desktop 2007 |Company: Autodesk,Inc. |WEB Address: www.autodesk.com
 90
    32897
280
     0
281
     0
  0
CLASS
  1
AEC_AECDBDISPREPCURTAINWALLLAYOUTPLAN100
  2
AecDbDispRepCurtainWallLayoutPlan100
  3
AecArchDACHBase50|Product Desc: Autodesk Architectural Desktop 2007 |Company: Autodesk,Inc. |WEB Address: www.autodesk.com
 90
    32897
280
     0
281
     0
  0
CLASS
  1
AEC_AECDBDISPREPCURTAINWALLUNITPLAN100
  2
AecDbDispRepCurtainWallUnitPlan100
  3
AecArchDACHBase50|Product Desc: Autodesk Architectural Desktop 2007 |Company: Autodesk,Inc. |WEB Address: www.autodesk.com
 90
    32897
280
     0
281
     0
  0
CLASS
  1
AEC_AECDBDISPREPMVBLOCKREFPLAN100
  2
AecDbDispRepMvBlockRefPlan100
  3
AecArchDACHBase50|Product Desc: Autodesk Architectural Desktop 2007 |Company: Autodesk,Inc. |WEB Address: www.autodesk.com
 90
    32897
280
     0
281
     0
  0
CLASS
  1
AEC_AECDBDISPREPROOFPLAN100
  2
AecDbDispRepRoofPlan100
  3
AecArchDACHBase50|Product Desc: Autodesk Architectural Desktop 2007 |Company: Autodesk,Inc. |WEB Address: www.autodesk.com
 90
    32897
280
     0
281
     0
  0
CLASS
  1
AEC_AECDBDISPREPROOFSLABPLAN100
  2
AecDbDispRepRoofSlabPlan100
  3
AecArchDACHBase50|Product Desc: Autodesk Architectural Desktop 2007 |Company: Autodesk,Inc. |WEB Address: www.autodesk.com
 90
    32897
280
     0
281
     0
  0
CLASS
  1
AEC_AECDBDISPREPSLABPLAN100
  2
AecDbDispRepSlabPlan100
  3
AecArchDACHBase50|Product Desc: Autodesk Architectural Desktop 2007 |Company: Autodesk,Inc. |WEB Address: www.autodesk.com
 90
    32897
280
     0
281
     0
  0
CLASS
  1
AEC_AECDBDISPREPSPACEBOUNDARYPLAN100
  2
AecDbDispRepSpaceBoundaryPlan100
  3
AecArchDACHBase50|Product Desc: Autodesk Architectural Desktop 2007 |Company: Autodesk,Inc. |WEB Address: www.autodesk.com
 90
    32897
280
     0
281
     0
  0
CLASS
  1
AEC_AECDBDISPREPSPACEPLAN100
  2
AecDbDispRepSpacePlan100
  3
AecArchDACHBase50|Product Desc: Autodesk Architectural Desktop 2007 |Company: Autodesk,Inc. |WEB Address: www.autodesk.com
 90
    32897
280
     0
281
     0
  0
CLASS
  1
AEC_AECDBDISPREPWALLPLAN100
  2
AecDbDispRepWallPlan100
  3
AecArchDACHBase50|Product Desc: Autodesk Architectural Desktop 2007 |Company: Autodesk,Inc. |WEB Address: www.autodesk.com
 90
    32897
280
     0
281
     0
  0
CLASS
  1
AEC_AECDBDISPREPAREA50
  2
AecDbDispRepArea50
  3
AecArchDACHBase50|Product Desc: Autodesk Architectural Desktop 2007 |Company: Autodesk,Inc. |WEB Address: www.autodesk.com
 90
    32897
280
     0
281
     0
  0
CLASS
  1
AEC_AECDBDISPREPAREAGROUP50
  2
AecDbDispRepAreaGroup50
  3
AecArchDACHBase50|Product Desc: Autodesk Architectural Desktop 2007 |Company: Autodesk,Inc. |WEB Address: www.autodesk.com
 90
    32897
280
     0
281
     0
  0
CLASS
  1
AEC_AECDBDISPREPBDGELEVLINEPLAN50
  2
AecDbDispRepBdgElevLinePlan50
  3
AecArchDACHBase50|Product Desc: Autodesk Architectural Desktop 2007 |Company: Autodesk,Inc. |WEB Address: www.autodesk.com
 90
    32897
280
     0
281
     0
  0
CLASS
  1
AEC_AECDBDISPREPBDGSECTIONLINEPLAN50
  2
AecDbDispRepBdgSectionLinePlan50
  3
AecArchDACHBase50|Product Desc: Autodesk Architectural Desktop 2007 |Company: Autodesk,Inc. |WEB Address: www.autodesk.com
 90
    32897
280
     0
281
     0
  0
CLASS
  1
AEC_AECDBDISPREPCEILINGGRIDPLAN50
  2
AecDbDispRepCeilingGridPlan50
  3
AecArchDACHBase50|Product Desc: Autodesk Architectural Desktop 2007 |Company: Autodesk,Inc. |WEB Address: www.autodesk.com
 90
    32897
280
     0
281
     0
  0
CLASS
  1
AEC_AECDBDISPREPCOLUMNGRIDPLAN50
  2
AecDbDispRepColumnGridPlan50
  3
AecArchDACHBase50|Product Desc: Autodesk Architectural Desktop 2007 |Company: Autodesk,Inc. |WEB Address: www.autodesk.com
 90
    32897
280
     0
281
     0
  0
CLASS
  1
AEC_AECDBDISPREPCURTAINWALLLAYOUTPLAN50
  2
AecDbDispRepCurtainWallLayoutPlan50
  3
AecArchDACHBase50|Product Desc: Autodesk Architectural Desktop 2007 |Company: Autodesk,Inc. |WEB Address: www.autodesk.com
 90
    32897
280
     0
281
     0
  0
CLASS
  1
AEC_AECDBDISPREPCURTAINWALLUNITPLAN50
  2
AecDbDispRepCurtainWallUnitPlan50
  3
AecArchDACHBase50|Product Desc: Autodesk Architectural Desktop 2007 |Company: Autodesk,Inc. |WEB Address: www.autodesk.com
 90
    32897
280
     0
281
     0
  0
CLASS
  1
AEC_AECDBDISPREPMVBLOCKREFPLAN50
  2
AecDbDispRepMvBlockRefPlan50
  3
AecArchDACHBase50|Product Desc: Autodesk Architectural Desktop 2007 |Company: Autodesk,Inc. |WEB Address: www.autodesk.com
 90
    32897
280
     0
281
     0
  0
CLASS
  1
AEC_AECDBDISPREPROOFPLAN50
  2
AecDbDispRepRoofPlan50
  3
AecArchDACHBase50|Product Desc: Autodesk Architectural Desktop 2007 |Company: Autodesk,Inc. |WEB Address: www.autodesk.com
 90
    32897
280
     0
281
     0
  0
CLASS
  1
AEC_AECDBDISPREPROOFSLABPLAN50
  2
AecDbDispRepRoofSlabPlan50
  3
AecArchDACHBase50|Product Desc: Autodesk Architectural Desktop 2007 |Company: Autodesk,Inc. |WEB Address: www.autodesk.com
 90
    32897
280
     0
281
     0
  0
CLASS
  1
AEC_AECDBDISPREPSLABPLAN50
  2
AecDbDispRepSlabPlan50
  3
AecArchDACHBase50|Product Desc: Autodesk Architectural Desktop 2007 |Company: Autodesk,Inc. |WEB Address: www.autodesk.com
 90
    32897
280
     0
281
     0
  0
CLASS
  1
AEC_AECDBDISPREPSPACEBOUNDARYPLAN50
  2
AecDbDispRepSpaceBoundaryPlan50
  3
AecArchDACHBase50|Product Desc: Autodesk Architectural Desktop 2007 |Company: Autodesk,Inc. |WEB Address: www.autodesk.com
 90
    32897
280
     0
281
     0
  0
CLASS
  1
AEC_AECDBDISPREPSPACEPLAN50
  2
AecDbDispRepSpacePlan50
  3
AecArchDACHBase50|Product Desc: Autodesk Architectural Desktop 2007 |Company: Autodesk,Inc. |WEB Address: www.autodesk.com
 90
    32897
280
     0
281
     0
  0
CLASS
  1
AEC_AECDBDISPREPWALLPLAN50
  2
AecDbDispRepWallPlan50
  3
AecArchDACHBase50|Product Desc: Autodesk Architectural Desktop 2007 |Company: Autodesk,Inc. |WEB Address: www.autodesk.com
 90
    32897
280
     0
281
     0
  0
CLASS
  1
AEC_AECDBDISPREPWINDOWASSEMBLYPLAN50
  2
AecDbDispRepWindowAssemblyPlan50
  3
AecArchDACHBase50|Product Desc: Autodesk Architectural Desktop 2007 |Company: Autodesk,Inc. |WEB Address: www.autodesk.com
 90
    32897
280
     0
281
     0
  0
CLASS
  1
AEC_DB_DISP_REP_DIM_GROUP_PLAN100
  2
AecDbDispRepDimGroupPlan100
  3
AecArchDACHBase50|Product Desc: Autodesk Architectural Desktop 2007 |Company: Autodesk,Inc. |WEB Address: www.autodesk.com
 90
    32897
280
     0
281
     0
  0
CLASS
  1
AEC_DB_DISP_REP_DIM_GROUP_PLAN50
  2
AecDbDispRepDimGroupPlan50
  3
AecArchDACHBase50|Product Desc: Autodesk Architectural Desktop 2007 |Company: Autodesk,Inc. |WEB Address: www.autodesk.com
 90
    32897
280
     0
281
     0
  0
CLASS
  1
AEC_DISP_REP_DOOR_PLAN_50
  2
AecDbDispRepDoorPlan50
  3
AecArchDACHBase50|Product Desc: Autodesk Architectural Desktop 2007 |Company: Autodesk,Inc. |WEB Address: www.autodesk.com
 90
    32897
280
     0
281
     0
  0
CLASS
  1
AEC_DISP_PROPS_DOOR_PLAN_50
  2
AecDbDispPropsDoorPlan50
  3
AecArchDACHBase50|Product Desc: Autodesk Architectural Desktop 2007 |Company: Autodesk,Inc. |WEB Address: www.autodesk.com
 90
    32897
280
     0
281
     0
  0
CLASS
  1
AEC_DISP_REP_DOOR_PLAN_HEKTO
  2
AecDbDispRepDoorPlanHekto
  3
AecArchDACHBase50|Product Desc: Autodesk Architectural Desktop 2007 |Company: Autodesk,Inc. |WEB Address: www.autodesk.com
 90
    32897
280
     0
281
     0
  0
CLASS
  1
AEC_DISP_PROPS_DOOR_PLAN_100
  2
AecDbDispPropsDoorPlan100
  3
AecArchDACHBase50|Product Desc: Autodesk Architectural Desktop 2007 |Company: Autodesk,Inc. |WEB Address: www.autodesk.com
 90
    32897
280
     0
281
     0
  0
CLASS
  1
AEC_DISP_REP_DOOR_THRESHOLD_SYMBOL_PLAN
  2
AecDbDispRepDoorThresholdSymbolPlan
  3
AecArchDACHBase50|Product Desc: Autodesk Architectural Desktop 2007 |Company: Autodesk,Inc. |WEB Address: www.autodesk.com
 90
    32897
280
     0
281
     0
  0
CLASS
  1
AEC_DISP_PROPS_DOOR_THRESHOLD_SYMBOL_PLAN
  2
AecDbDispPropsDoorThresholdSymbolPlan
  3
AecArchDACHBase50|Product Desc: Autodesk Architectural Desktop 2007 |Company: Autodesk,Inc. |WEB Address: www.autodesk.com
 90
    32897
280
     0
281
     0
  0
CLASS
  1
AEC_DISPREPAECDBDISPREPMASSELEMPLAN100
  2
AecDbDispRepMassElemPlan100
  3
AecArchDACHBase50|Product Desc: Autodesk Architectural Desktop 2007 |Company: Autodesk,Inc. |WEB Address: www.autodesk.com
 90
    32897
280
     0
281
     0
  0
CLASS
  1
AEC_DISPROPSMASSELEMPLANCOMMON
  2
AecDbDispPropsMassElemPlanCommon
  3
AecArchDACHBase50|Product Desc: Autodesk Architectural Desktop 2007 |Company: Autodesk,Inc. |WEB Address: www.autodesk.com
 90
    32897
280
     0
281
     0
  0
CLASS
  1
AEC_DISPREPAECDBDISPREPMASSELEMPLAN50
  2
AecDbDispRepMassElemPlan50
  3
AecArchDACHBase50|Product Desc: Autodesk Architectural Desktop 2007 |Company: Autodesk,Inc. |WEB Address: www.autodesk.com
 90
    32897
280
     0
281
     0
  0
CLASS
  1
AEC_DISPREPAECDBDISPREPMASSGROUPPLAN100
  2
AecDbDispRepMassGroupPlan100
  3
AecArchDACHBase50|Product Desc: Autodesk Architectural Desktop 2007 |Company: Autodesk,Inc. |WEB Address: www.autodesk.com
 90
    32897
280
     0
281
     0
  0
CLASS
  1
AEC_DISPROPSMASSGROUPPLANCOMMON
  2
AecDbDispPropsMassGroupPlanCommon
  3
AecArchDACHBase50|Product Desc: Autodesk Architectural Desktop 2007 |Company: Autodesk,Inc. |WEB Address: www.autodesk.com
 90
    32897
280
     0
281
     0
  0
CLASS
  1
AEC_DISPREPAECDBDISPREPMASSGROUPPLAN50
  2
AecDbDispRepMassGroupPlan50
  3
AecArchDACHBase50|Product Desc: Autodesk Architectural Desktop 2007 |Company: Autodesk,Inc. |WEB Address: www.autodesk.com
 90
    32897
280
     0
281
     0
  0
CLASS
  1
AEC_DISPREPAECDBDISPREPOPENINGPLAN100
  2
AecDbDispRepOpeningPlan100
  3
AecArchDACHBase50|Product Desc: Autodesk Architectural Desktop 2007 |Company: Autodesk,Inc. |WEB Address: www.autodesk.com
 90
    32897
280
     0
281
     0
  0
CLASS
  1
AEC_DISPROPSOPENINGPLANCOMMONHATCHED
  2
AecDbDispPropsOpeningPlanCommonHatched
  3
AecArchDACHBase50|Product Desc: Autodesk Architectural Desktop 2007 |Company: Autodesk,Inc. |WEB Address: www.autodesk.com
 90
    32897
280
     0
281
     0
  0
CLASS
  1
AEC_DISPREPAECDBDISPREPOPENINGPLAN50
  2
AecDbDispRepOpeningPlan50
  3
AecArchDACHBase50|Product Desc: Autodesk Architectural Desktop 2007 |Company: Autodesk,Inc. |WEB Address: www.autodesk.com
 90
    32897
280
     0
281
     0
  0
CLASS
  1
AEC_DISPREPAECDBDISPREPOPENINGPLANREFLECTED
  2
AecDbDispRepOpeningPlanReflected
  3
AecArchDACHBase50|Product Desc: Autodesk Architectural Desktop 2007 |Company: Autodesk,Inc. |WEB Address: www.autodesk.com
 90
    32897
280
     0
281
     0
  0
CLASS
  1
AEC_DISPROPSOPENINGPLANCOMMON
  2
AecDbDispPropsOpeningPlanCommon
  3
AecArchDACHBase50|Product Desc: Autodesk Architectural Desktop 2007 |Company: Autodesk,Inc. |WEB Address: www.autodesk.com
 90
    32897
280
     0
281
     0
  0
CLASS
  1
AEC_DISPREPAECDBDISPREPOPENINGSILLPLAN
  2
AecDbDispRepOpeningSillPlan
  3
AecArchDACHBase50|Product Desc: Autodesk Architectural Desktop 2007 |Company: Autodesk,Inc. |WEB Address: www.autodesk.com
 90
    32897
280
     0
281
     0
  0
CLASS
  1
AEC_DISPROPSOPENINGSILLPLAN
  2
AecDbDispPropsOpeningSillPlan
  3
AecArchDACHBase50|Product Desc: Autodesk Architectural Desktop 2007 |Company: Autodesk,Inc. |WEB Address: www.autodesk.com
 90
    32897
280
     0
281
     0
  0
CLASS
  1
AEC_DISP_REP_RAILING_PLAN_100
  2
AecDbDispRepRailingPlan100
  3
AecArchDACHBase50|Product Desc: Autodesk Architectural Desktop 2007 |Company: Autodesk,Inc. |WEB Address: www.autodesk.com
 90
    32897
280
     0
281
     0
  0
CLASS
  1
AEC_DISP_ROPS_RAILING_PLAN_100
  2
AecDbDispPropsRailingPlan100
  3
AecArchDACHBase50|Product Desc: Autodesk Architectural Desktop 2007 |Company: Autodesk,Inc. |WEB Address: www.autodesk.com
 90
    32897
280
     0
281
     0
  0
CLASS
  1
AEC_DISP_REP_RAILING_PLAN_50
  2
AecDbDispRepRailingPlan50
  3
AecArchDACHBase50|Product Desc: Autodesk Architectural Desktop 2007 |Company: Autodesk,Inc. |WEB Address: www.autodesk.com
 90
    32897
280
     0
281
     0
  0
CLASS
  1
AEC_DISP_ROPS_RAILING_PLAN_50
  2
AecDbDispPropsRailingPlan50
  3
AecArchDACHBase50|Product Desc: Autodesk Architectural Desktop 2007 |Company: Autodesk,Inc. |WEB Address: www.autodesk.com
 90
    32897
280
     0
281
     0
  0
CLASS
  1
AEC_DISP_REP_STAIR_PLAN_100
  2
AecDbDispRepStairPlan100
  3
AecArchDACHBase50|Product Desc: Autodesk Architectural Desktop 2007 |Company: Autodesk,Inc. |WEB Address: www.autodesk.com
 90
    32897
280
     0
281
     0
  0
CLASS
  1
AEC_DISP_ROPS_STAIR_PLAN_100
  2
AecDbDispPropsStairPlan100
  3
AecArchDACHBase50|Product Desc: Autodesk Architectural Desktop 2007 |Company: Autodesk,Inc. |WEB Address: www.autodesk.com
 90
    32897
280
     0
281
     0
  0
CLASS
  1
AEC_DISP_REP_STAIR_PLAN_50
  2
AecDbDispRepStairPlan50
  3
AecArchDACHBase50|Product Desc: Autodesk Architectural Desktop 2007 |Company: Autodesk,Inc. |WEB Address: www.autodesk.com
 90
    32897
280
     0
281
     0
  0
CLASS
  1
AEC_DISP_ROPS_STAIR_PLAN_50
  2
AecDbDispPropsStairPlan50
  3
AecArchDACHBase50|Product Desc: Autodesk Architectural Desktop 2007 |Company: Autodesk,Inc. |WEB Address: www.autodesk.com
 90
    32897
280
     0
281
     0
  0
CLASS
  1
AEC_DISP_REP_WINDOW_PLAN_100
  2
AecDbDispRepWindowPlan100
  3
AecArchDACHBase50|Product Desc: Autodesk Architectural Desktop 2007 |Company: Autodesk,Inc. |WEB Address: www.autodesk.com
 90
    32897
280
     0
281
     0
  0
CLASS
  1
AEC_DISP_PROPS_WINDOW_PLAN_100
  2
AecDbDispPropsWindowPlan100
  3
AecArchDACHBase50|Product Desc: Autodesk Architectural Desktop 2007 |Company: Autodesk,Inc. |WEB Address: www.autodesk.com
 90
    32897
280
     0
281
     0
  0
CLASS
  1
AEC_DISP_REP_WINDOW_PLAN_50
  2
AecDbDispRepWindowPlan50
  3
AecArchDACHBase50|Product Desc: Autodesk Architectural Desktop 2007 |Company: Autodesk,Inc. |WEB Address: www.autodesk.com
 90
    32897
280
     0
281
     0
  0
CLASS
  1
AEC_DISP_PROPS_WINDOW_PLAN_50
  2
AecDbDispPropsWindowPlan50
  3
AecArchDACHBase50|Product Desc: Autodesk Architectural Desktop 2007 |Company: Autodesk,Inc. |WEB Address: www.autodesk.com
 90
    32897
280
     0
281
     0
  0
CLASS
  1
BINRECORD
  2
AcAecBinRecord
  3
AecBase50|Product Desc: Autodesk Architectural Desktop 2007 |Company: Autodesk,Inc. |WEB Address: www.autodesk.com
 90
    32897
280
     0
281
     0
  0
CLASS
  1
SORTENTSTABLE
  2
AcDbSortentsTable
  3
ObjectDBX Classes
 90
        0
280
     0
281
     0
  0
CLASS
  1
AEC_MASS_ELEM
  2
AecDbMassElem
  3
AecBaseEx50|Product Desc: Autodesk Architectural Desktop 2007 |Company: Autodesk,Inc. |WEB Address: www.autodesk.com
 90
    33661
280
     0
281
     1
  0
CLASS
  1
MATERIAL
  2
AcDbMaterial
  3
ObjectDBX Classes
 90
     1153
280
     0
281
     0
  0
CLASS
  1
AECS_MEMBER
  2
AecsDbMember
  3
AecStructureBase50|Product Desc: Autodesk Architectural Desktop 2007 |Company: Autodesk,Inc. |WEB Address: www.autodesk.com
 90
    33661
280
     0
281
     1
  0
CLASS
  1
AEC_WALL
  2
AecDbWall
  3
AecArchBase50|Product Desc: Autodesk Architectural Desktop 2007 |Company: Autodesk,Inc. |WEB Address: www.autodesk.com
 90
    33661
280
     0
281
     1
  0
CLASS
  1
AEC_DOOR
  2
AecDbDoor
  3
AecArchBase50|Product Desc: Autodesk Architectural Desktop 2007 |Company: Autodesk,Inc. |WEB Address: www.autodesk.com
 90
    33661
280
     0
281
     1
  0
CLASS
  1
AEC_ANCHOR_OPENINGBASE_TO_WALL
  2
AecDbAnchorOpeningBaseToWall
  3
AecArchBase50|Product Desc: Autodesk Architectural Desktop 2007 |Company: Autodesk,Inc. |WEB Address: www.autodesk.com
 90
    32897
280
     0
281
     0
  0
CLASS
  1
AEC_SPACE_BOUNDARY
  2
AecDbSpaceBoundary
  3
AecArchBase50|Product Desc: Autodesk Architectural Desktop 2007 |Company: Autodesk,Inc. |WEB Address: www.autodesk.com
 90
    33661
280
     0
281
     1
  0
CLASS
  1
AEC_SPACE
  2
AecDbSpace
  3
AecArchBase50|Product Desc: Autodesk Architectural Desktop 2007 |Company: Autodesk,Inc. |WEB Address: www.autodesk.com
 90
    33661
280
     0
281
     1
  0
CLASS
  1
AecDbPropertySet
  2
AecDbPropertySet
  3
AecScheduleData50|Product Desc: Autodesk Architectural Desktop 2007 |Company: Autodesk,Inc. |WEB Address: www.autodesk.com
 90
    32897
280
     0
281
     0
  0
CLASS
  1
AEC_MVBLOCK_REF
  2
AecDbMvBlockRef
  3
AecBase50|Product Desc: Autodesk Architectural Desktop 2007 |Company: Autodesk,Inc. |WEB Address: www.autodesk.com
 90
    33661
280
     0
281
     1
  0
CLASS
  1
AEC_ANCHOR_TAG_TO_ENT
  2
AecDbAnchorTagToEnt
  3
AecScheduleData50|Product Desc: Autodesk Architectural Desktop 2007 |Company: Autodesk,Inc. |WEB Address: www.autodesk.com
 90
    32897
280
     0
281
     0
  0
CLASS
  1
AEC_WINDOW
  2
AecDbWindow
  3
AecArchBase50|Product Desc: Autodesk Architectural Desktop 2007 |Company: Autodesk,Inc. |WEB Address: www.autodesk.com
 90
    33661
280
     0
281
     1
  0
CLASS
  1
AEC_OPENING
  2
AecDbOpening
  3
AecArchBase50|Product Desc: Autodesk Architectural Desktop 2007 |Company: Autodesk,Inc. |WEB Address: www.autodesk.com
 90
    33661
280
     0
281
     1
  0
CLASS
  1
AEC_CLASSIFICATION_SYSTEM_DEF
  2
AecDbClassificationSystemDef
  3
AecBase50|Product Desc: Autodesk Architectural Desktop 2007 |Company: Autodesk,Inc. |WEB Address: www.autodesk.com
 90
    32897
280
     0
281
     0
  0
CLASS
  1
AEC_CLASSIFICATION_DEF
  2
AecDbClassificationDef
  3
AecBase50|Product Desc: Autodesk Architectural Desktop 2007 |Company: Autodesk,Inc. |WEB Address: www.autodesk.com
 90
    32897
280
     0
281
     0
  0
CLASS
  1
AEC_CLEANUP_GROUP_DEF
  2
AecDbCleanupGroupDef
  3
AecArchBase50|Product Desc: Autodesk Architectural Desktop 2007 |Company: Autodesk,Inc. |WEB Address: www.autodesk.com
 90
    32897
280
     0
281
     0
  0
CLASS
  1
AEC_DOOR_STYLE
  2
AecDbDoorStyle
  3
AecArchBase50|Product Desc: Autodesk Architectural Desktop 2007 |Company: Autodesk,Inc. |WEB Address: www.autodesk.com
 90
    32897
280
     0
281
     0
  0
CLASS
  1
AEC_STDSIZE_OPENINGS
  2
AecDbStdSizeOpeningList
  3
AecArchBase50|Product Desc: Autodesk Architectural Desktop 2007 |Company: Autodesk,Inc. |WEB Address: www.autodesk.com
 90
    32897
280
     0
281
     0
  0
CLASS
  1
AEC_ENDCAP_STYLE
  2
AecDbEndcapStyle
  3
AecArchBase50|Product Desc: Autodesk Architectural Desktop 2007 |Company: Autodesk,Inc. |WEB Address: www.autodesk.com
 90
    32897
280
     0
281
     0
  0
CLASS
  1
AEC_MASS_ELEM_STYLE
  2
AecDbMassElemStyle
  3
AecBaseEx50|Product Desc: Autodesk Architectural Desktop 2007 |Company: Autodesk,Inc. |WEB Address: www.autodesk.com
 90
    32897
280
     0
281
     0
  0
CLASS
  1
AEC_MATERIAL_DEF
  2
AecDbMaterialDef
  3
AecBase50|Product Desc: Autodesk Architectural Desktop 2007 |Company: Autodesk,Inc. |WEB Address: www.autodesk.com
 90
    32897
280
     0
281
     0
  0
CLASS
  1
AEC_MVBLOCK_DEF
  2
AecDbMvBlockDef
  3
AecBase50|Product Desc: Autodesk Architectural Desktop 2007 |Company: Autodesk,Inc. |WEB Address: www.autodesk.com
 90
    32897
280
     0
281
     0
  0
CLASS
  1
AEC_FRAME_DEF
  2
AecDbOpeningEndcapStyle
  3
AecArchBase50|Product Desc: Autodesk Architectural Desktop 2007 |Company: Autodesk,Inc. |WEB Address: www.autodesk.com
 90
    32897
280
     0
281
     0
  0
CLASS
  1
AEC_PROFILE_DEF
  2
AecDbProfileDef
  3
AecBase50|Product Desc: Autodesk Architectural Desktop 2007 |Company: Autodesk,Inc. |WEB Address: www.autodesk.com
 90
    32897
280
     0
281
     0
  0
CLASS
  1
AEC_SCHEDULE_DATA_FORMAT
  2
AecDbScheduleDataFormat
  3
AecScheduleData50|Product Desc: Autodesk Architectural Desktop 2007 |Company: Autodesk,Inc. |WEB Address: www.autodesk.com
 90
    32897
280
     0
281
     0
  0
CLASS
  1
AEC_PROPERTY_SET_DEF
  2
AecDbPropertySetDef
  3
AecScheduleData50|Product Desc: Autodesk Architectural Desktop 2007 |Company: Autodesk,Inc. |WEB Address: www.autodesk.com
 90
    32897
280
     0
281
     0
  0
CLASS
  1
AEC_SPACE_STYLES
  2
AecDbSpaceStyle
  3
AecArchBase50|Product Desc: Autodesk Architectural Desktop 2007 |Company: Autodesk,Inc. |WEB Address: www.autodesk.com
 90
    32897
280
     0
281
     0
  0
CLASS
  1
AEC_TEXT_NOTE
  2
AecDbTextNote
  3
AecBase50|Product Desc: Autodesk Architectural Desktop 2007 |Company: Autodesk,Inc. |WEB Address: www.autodesk.com
 90
    32897
280
     0
281
     0
  0
CLASS
  1
AECS_MEMBER_STYLE
  2
AecsDbMemberStyle
  3
AecStructureBase50|Product Desc: Autodesk Architectural Desktop 2007 |Company: Autodesk,Inc. |WEB Address: www.autodesk.com
 90
    32897
280
     0
281
     0
  0
CLASS
  1
AEC_VARS_STRUCTUREBASE
  2
AecsDbVarsStructureBase
  3
AecStructureBase50|Product Desc: Autodesk Architectural Desktop 2007 |Company: Autodesk,Inc. |WEB Address: www.autodesk.com
 90
    32897
280
     0
281
     0
  0
CLASS
  1
AEC_WALL_STYLE
  2
AecDbWallStyle
  3
AecArchBase50|Product Desc: Autodesk Architectural Desktop 2007 |Company: Autodesk,Inc. |WEB Address: www.autodesk.com
 90
    32897
280
     0
281
     0
  0
CLASS
  1
AEC_WINDOW_STYLE
  2
AecDbWindowStyle
  3
AecArchBase50|Product Desc: Autodesk Architectural Desktop 2007 |Company: Autodesk,Inc. |WEB Address: www.autodesk.com
 90
    32897
280
     0
281
     0
  0
CLASS
  1
AECS_MEMBER_NODE_SHAPE
  2
AecsDbMemberNodeShape
  3
AecStructureBase50|Product Desc: Autodesk Architectural Desktop 2007 |Company: Autodesk,Inc. |WEB Address: www.autodesk.com
 90
    32897
280
     0
281
     0
  0
CLASS
  1
AEC_SCHEDULE_TABLE
  2
AecDbScheduleTable
  3
AecSchedule50|Product Desc: Autodesk Architectural Desktop 2007 |Company: Autodesk,Inc. |WEB Address: www.autodesk.com
 90
    33661
280
     0
281
     1
  0
CLASS
  1
AEC_SCHEDULE_TABLE_STYLE
  2
AecDbScheduleTableStyle
  3
AecSchedule50|Product Desc: Autodesk Architectural Desktop 2007 |Company: Autodesk,Inc. |WEB Address: www.autodesk.com
 90
    32897
280
     0
281
     0
  0
CLASS
  1
AEC_ANCHOR_MVB_TO_UCS
  2
AecDbAnchorMVBToUCS
  3
AecBase50|Product Desc: Autodesk Architectural Desktop 2007 |Company: Autodesk,Inc. |WEB Address: www.autodesk.com
 90
    32897
280
     0
281
     0
  0
CLASS
  1
IMAGEDEF
  2
AcDbRasterImageDef
  3
ISM
 90
    32768
280
     0
281
     0
  0
CLASS
  1
AEC_ANCHOR_ENT_TO_GRID_ASSEMBLY
  2
AecDbAnchorEntToGridAssembly
  3
AecBaseEx50|Product Desc: Autodesk Architectural Desktop 2007 |Company: Autodesk,Inc. |WEB Address: www.autodesk.com
 90
    32897
280
     0
281
     0
  0
CLASS
  1
AEC_WINDOW_ASSEMBLY
  2
AecDbWindowAssembly
  3
AecArchBase50|Product Desc: Autodesk Architectural Desktop 2007 |Company: Autodesk,Inc. |WEB Address: www.autodesk.com
 90
    33661
280
     0
281
     1
  0
CLASS
  1
AEC_ANCHOR_WINASSEMBLY_TO_WALL
  2
AecDbAnchorWinAssemblyToWall
  3
AecArchBase50|Product Desc: Autodesk Architectural Desktop 2007 |Company: Autodesk,Inc. |WEB Address: www.autodesk.com
 90
    32897
280
     0
281
     0
  0
CLASS
  1
AEC_STAIR
  2
AecDbStair
  3
AecArchBase50|Product Desc: Autodesk Architectural Desktop 2007 |Company: Autodesk,Inc. |WEB Address: www.autodesk.com
 90
    33661
280
     0
281
     1
  0
CLASS
  1
AEC_RAILING
  2
AecDbRailing
  3
AecArchBase50|Product Desc: Autodesk Architectural Desktop 2007 |Company: Autodesk,Inc. |WEB Address: www.autodesk.com
 90
    33661
280
     0
281
     1
  0
CLASS
  1
AEC_ANCHOR_RAILING_TO_STAIR
  2
AecDbAnchorRailingToStair
  3
AecArchBase50|Product Desc: Autodesk Architectural Desktop 2007 |Company: Autodesk,Inc. |WEB Address: www.autodesk.com
 90
    32897
280
     0
281
     0
  0
CLASS
  1
AEC_RAILING_STYLE
  2
AecDbRailingStyle
  3
AecArchBase50|Product Desc: Autodesk Architectural Desktop 2007 |Company: Autodesk,Inc. |WEB Address: www.autodesk.com
 90
    32897
280
     0
281
     0
  0
CLASS
  1
AEC_STAIR_STYLE
  2
AecDbStairStyle
  3
AecArchBase50|Product Desc: Autodesk Architectural Desktop 2007 |Company: Autodesk,Inc. |WEB Address: www.autodesk.com
 90
    32897
280
     0
281
     0
  0
CLASS
  1
AEC_STAIR_WINDER_STYLE
  2
AecDbStairWinderStyle
  3
AecArchBase50|Product Desc: Autodesk Architectural Desktop 2007 |Company: Autodesk,Inc. |WEB Address: www.autodesk.com
 90
    32897
280
     0
281
     0
  0
CLASS
  1
AEC_STAIR_WINDER_TYPE_SINGLE_POINT
  2
AecDbStairWinderTypeSinglePoint
  3
AecArchBase50|Product Desc: Autodesk Architectural Desktop 2007 |Company: Autodesk,Inc. |WEB Address: www.autodesk.com
 90
    32897
280
     0
281
     0
  0
CLASS
  1
AEC_WINDOW_ASSEMBLY_STYLE
  2
AecDbWindowAssemblyStyle
  3
AecArchBase50|Product Desc: Autodesk Architectural Desktop 2007 |Company: Autodesk,Inc. |WEB Address: www.autodesk.com
 90
    32897
280
     0
281
     0
  0
CLASS
  1
AEC_AECDBAREASTYLE
  2
AecDbAreaStyle
  3
AecAreaCalculationBase50|Product Desc: Autodesk Architectural Desktop 2007 |Company: Autodesk,Inc. |WEB Address: www.autodesk.com
 90
    32897
280
     0
281
     0
  0
CLASS
  1
AEC_AECDBAREAPROPOSALNAMES
  2
AecDbAreaProposalNames
  3
AecAreaCalculationBase50|Product Desc: Autodesk Architectural Desktop 2007 |Company: Autodesk,Inc. |WEB Address: www.autodesk.com
 90
    32897
280
     0
281
     0
  0
CLASS
  1
AEC_AREA
  2
AecDbArea
  3
AecAreaCalculationBase50|Product Desc: Autodesk Architectural Desktop 2007 |Company: Autodesk,Inc. |WEB Address: www.autodesk.com
 90
    33661
280
     0
281
     1
  0
CLASS
  1
OBJECT_PTR
  2
CAseDLPNTableRecord
  3
ASE-LPNTableRecord
 90
    32769
280
     0
281
     0
  0
CLASS
  1
TABLESTYLE
  2
AcDbTableStyle
  3
ObjectDBX Classes
 90
     4095
280
     0
281
     0
  0
CLASS
  1
AEC_DISP_REP_DISPLAYTHEME
  2
AecDbDispRepDisplayTheme
  3
AecBase50|Product Desc: Autodesk Architectural Desktop 2007 |Company: Autodesk,Inc. |WEB Address: www.autodesk.com
 90
    32897
280
     0
281
     0
  0
CLASS
  1
AEC_DISP_PROPS_DISPLAYTHEME
  2
AecDbDispPropsDisplayTheme
  3
AecBase50|Product Desc: Autodesk Architectural Desktop 2007 |Company: Autodesk,Inc. |WEB Address: www.autodesk.com
 90
    32897
280
     0
281
     0
  0
CLASS
  1
AEC_DISP_REP_ANCHOR_EXT_TAG_TO_ENT
  2
AecDbDispRepAnchorExtendedTagToEnt
  3
AecScheduleData50|Product Desc: Autodesk Architectural Desktop 2007 |Company: Autodesk,Inc. |WEB Address: www.autodesk.com
 90
    32897
280
     0
281
     0
  0
CLASS
  1
VISUALSTYLE
  2
AcDbVisualStyle
  3
ObjectDBX Classes
 90
     4095
280
     0
281
     0
  0
CLASS
  1
AEC_AECDBDISPREPZONE100
  2
AecDbDispRepZonePlan100
  3
AecArchDACHBase50|Product Desc: Autodesk Architectural Desktop 2007 |Company: Autodesk,Inc. |WEB Address: www.autodesk.com
 90
    32897
280
     0
281
     0
  0
CLASS
  1
AEC_DISP_PROPS_ZONE
  2
AecDbDispPropsZone
  3
AecArchBase50|Product Desc: Autodesk Architectural Desktop 2007 |Company: Autodesk,Inc. |WEB Address: www.autodesk.com
 90
    32897
280
     0
281
     0
  0
CLASS
  1
AEC_AECDBDISPREPZONE50
  2
AecDbDispRepZonePlan50
  3
AecArchDACHBase50|Product Desc: Autodesk Architectural Desktop 2007 |Company: Autodesk,Inc. |WEB Address: www.autodesk.com
 90
    32897
280
     0
281
     0
  0
CLASS
  1
AEC_DISP_REP_SPACE_DECOMPOSED
  2
AecDbDispRepSpaceDecomposed
  3
AecArchBase50|Product Desc: Autodesk Architectural Desktop 2007 |Company: Autodesk,Inc. |WEB Address: www.autodesk.com
 90
    32897
280
     0
281
     0
  0
CLASS
  1
AEC_DISP_PROPS_SPACE_DECOMPOSED
  2
AecDbDispPropsSpaceDecomposed
  3
AecArchBase50|Product Desc: Autodesk Architectural Desktop 2007 |Company: Autodesk,Inc. |WEB Address: www.autodesk.com
 90
    32897
280
     0
281
     0
  0
CLASS
  1
AEC_DISP_REP_ZONE
  2
AecDbDispRepZone
  3
AecArchBase50|Product Desc: Autodesk Architectural Desktop 2007 |Company: Autodesk,Inc. |WEB Address: www.autodesk.com
 90
    32897
280
     0
281
     0
  0
CLASS
  1
AEC_LIST_DEF
  2
AecDbListDefinition
  3
AecBase50|Product Desc: Autodesk Architectural Desktop 2007 |Company: Autodesk,Inc. |WEB Address: www.autodesk.com
 90
    32897
280
     0
281
     0
  0
CLASS
  1
EXACXREFPANELOBJECT
  2
ExAcXREFPanelObject
  3
EXAC_ESW
 90
    33793
280
     0
281
     0
  0
CLASS
  1
NPOCOLLECTION
  2
AcDbImpNonPersistentObjectsCollection
  3
ObjectDBX Classes
 90
    33921
280
     0
281
     0
  0
CLASS
  1
ACAD_EVALUATION_GRAPH
  2
AcDbEvalGraph
  3
ObjectDBX Classes
 90
    33921
280
     0
281
     0
  0
CLASS
  1
BLOCKLINEARPARAMETER
  2
AcDbBlockLinearParameter
  3
ObjectDBX Classes
 90
    33921
280
     0
281
     0
  0
CLASS
  1
BLOCKLINEARGRIP
  2
AcDbBlockLinearGrip
  3
ObjectDBX Classes
 90
    33921
280
     0
281
     0
  0
CLASS
  1
BLOCKGRIPLOCATIONCOMPONENT
  2
AcDbBlockGripExpr
  3
ObjectDBX Classes
 90
    33921
280
     0
281
     0
  0
CLASS
  1
BLOCKSTRETCHACTION
  2
AcDbBlockStretchAction
  3
ObjectDBX Classes
 90
    33921
280
     0
281
     0
  0
CLASS
  1
BLOCKFLIPPARAMETER
  2
AcDbBlockFlipParameter
  3
ObjectDBX Classes
 90
    33921
280
     0
281
     0
  0
CLASS
  1
BLOCKFLIPGRIP
  2
AcDbBlockFlipGrip
  3
ObjectDBX Classes
 90
    33921
280
     0
281
     0
  0
CLASS
  1
BLOCKFLIPACTION
  2
AcDbBlockFlipAction
  3
ObjectDBX Classes
 90
    33921
280
     0
281
     0
  0
CLASS
  1
ACDB_DYNAMICBLOCKPURGEPREVENTER_VERSION
  2
AcDbDynamicBlockPurgePreventer
  3
ObjectDBX Classes
 90
    33921
280
     0
281
     0
  0
CLASS
  1
ACDB_BLOCKREPRESENTATION_DATA
  2
AcDbBlockRepresentationData
  3
ObjectDBX Classes
 90
    33921
280
     0
281
     0
  0
CLASS
  1
AEC_SLAB
  2
AecDbSlab
  3
AecArchBase50|Product Desc: Autodesk Architectural Desktop 2007 |Company: Autodesk,Inc. |WEB Address: www.autodesk.com
 90
    33661
280
     0
281
     1
  0
CLASS
  1
AEC_LIST_DEF
  2
AecDbListItem
  3
AecBase50|Product Desc: Autodesk Architectural Desktop 2007 |Company: Autodesk,Inc. |WEB Address: www.autodesk.com
 90
    32897
280
     0
281
     0
  0
CLASS
  1
AEC_ROOFSLAB_STYLE
  2
AecDbRoofSlabStyle
  3
AecArchBase50|Product Desc: Autodesk Architectural Desktop 2007 |Company: Autodesk,Inc. |WEB Address: www.autodesk.com
 90
    32897
280
     0
281
     0
  0
CLASS
  1
AEC_ROOFSLABEDGE_STYLE
  2
AecDbRoofSlabEdgeStyle
  3
AecArchBase50|Product Desc: Autodesk Architectural Desktop 2007 |Company: Autodesk,Inc. |WEB Address: www.autodesk.com
 90
    32897
280
     0
281
     0
  0
CLASS
  1
AEC_SLAB_STYLE
  2
AecDbSlabStyle
  3
AecArchBase50|Product Desc: Autodesk Architectural Desktop 2007 |Company: Autodesk,Inc. |WEB Address: www.autodesk.com
 90
    32897
280
     0
281
     0
  0
CLASS
  1
AEC_SLABEDGE_STYLE
  2
AecDbSlabEdgeStyle
  3
AecArchBase50|Product Desc: Autodesk Architectural Desktop 2007 |Company: Autodesk,Inc. |WEB Address: www.autodesk.com
 90
    32897
280
     0
281
     0
  0
CLASS
  1
EXACTERMXREFMAP
  2
ExAcTermXrefMap
  3
EXAC_SERVICE
 90
    33793
280
     0
281
     0
  0
CLASS
  1
AEC_AECDBZONESTYLE
  2
AecDbZoneStyle
  3
AecArchBase50|Product Desc: Autodesk Architectural Desktop 2007 |Company: Autodesk,Inc. |WEB Address: www.autodesk.com
 90
    32897
280
     0
281
     0
  0
CLASS
  1
AEC_ZONE
  2
AecDbZone
  3
AecArchBase50|Product Desc: Autodesk Architectural Desktop 2007 |Company: Autodesk,Inc. |WEB Address: www.autodesk.com
 90
    33661
280
     0
281
     1
  0
CLASS
  1
ACAD_TABLE
  2
AcDbTable
  3
ObjectDBX Classes
 90
    33793
280
     0
281
     1
  0
CLASS
  1
AEC_DISPLAYTHEME_STYLE
  2
AecDbDisplayThemeStyle
  3
AecBase50|Product Desc: Autodesk Architectural Desktop 2007 |Company: Autodesk,Inc. |WEB Address: www.autodesk.com
 90
    32897
280
     0
281
     0
  0
CLASS
  1
DIMASSOC
  2
AcDbDimAssoc
  3
"AcDbDimAssoc|Product Desc:     AcDim ARX App For Dimension|Company:          Autodesk, Inc.|WEB Address:      www.autodesk.com"
 90
    32768
280
     0
281
     0
  0
CLASS
  1
AEC_MASS_GROUP
  2
AecDbMassGroup
  3
AecBaseEx50|Product Desc: Autodesk Architectural Desktop 2007 |Company: Autodesk,Inc. |WEB Address: www.autodesk.com
 90
    33661
280
     0
281
     1
  0
CLASS
  1
AEC_ANCHOR_ENT_TO_ENT
  2
AecDbAnchorEntToEnt
  3
AecBaseEx50|Product Desc: Autodesk Architectural Desktop 2007 |Company: Autodesk,Inc. |WEB Address: www.autodesk.com
 90
    32897
280
     0
281
     0
  0
CLASS
  1
AEC_2D_SECTION
  2
AecDb2dSection
  3
AecBase50|Product Desc: Autodesk Architectural Desktop 2007 |Company: Autodesk,Inc. |WEB Address: www.autodesk.com
 90
    33661
280
     0
281
     1
  0
CLASS
  1
AEC_2DSECTION_STYLE
  2
AecDb2dSectionStyle
  3
AecBase50|Product Desc: Autodesk Architectural Desktop 2007 |Company: Autodesk,Inc. |WEB Address: www.autodesk.com
 90
    32897
280
     0
281
     0
  0
CLASS
  1
SCALE
  2
AcDbScale
  3
ObjectDBX Classes
 90
     1153
280
     0
281
     0
  0
CLASS
  1
MLEADERSTYLE
  2
AcDbMLeaderStyle
  3
ACDB_MLEADERSTYLE_CLASS
 90
    36863
280
     0
281
     0
  0
CLASS
  1
AEC_REFEDIT_STATUS_TRACKER
  2
AecDbRefEditStatusTracker
  3
AecArchBase50|Product Desc: Autodesk Architectural Desktop 2007 |Company: Autodesk,Inc. |WEB Address: www.autodesk.com
 90
    32897
280
     0
281
     0
  0
CLASS
  1
CELLSTYLEMAP
  2
AcDbCellStyleMap
  3
ObjectDBX Classes
 90
     1152
280
     0
281
     0
  0
CLASS
  1
BLOCKARRAYACTION
  2
AcDbBlockArrayAction
  3
ObjectDBX Classes
 90
    33921
280
     0
281
     0
  0
CLASS
  1
BLOCKBASEPOINTPARAMETER
  2
AcDbBlockBasepointParameter
  3
ObjectDBX Classes
 90
    33921
280
     0
281
     0
  0
CLASS
  1
SOLID_BACKGROUND
  2
AcDbSolidBackground
  3
SCENEOE
 90
    36863
280
     0
281
     0
  0
ENDSEC
  0
SECTION
  2
TABLES
  0
TABLE
  2
VPORT
  5
1D1
330
0
100
AcDbSymbolTable
 70
     1
  0
VPORT
  5
1D2
330
1D1
100
AcDbSymbolTableRecord
100
AcDbViewportTableRecord
  2
*Active
 70
     0
 10
0.0
 20
0.0
 11
1.0
 21
1.0
 12
75223.82149386112
 22
-5495.107321889794
 13
-3534.953416816247
 23
4038.000000000049
 14
1.0
 24
1.0
 15
1.0
 25
1.0
 16
0.0
 26
0.0
 36
1.0
 17
0.0
 27
0.0
 37
0.0
 40
16529.53590841927
 41
2.19240837696335
 42
50.0
 43
0.0
 44
0.0
 50
0.0
 51
0.0
 71
     0
 72
  2000
 73
     1
 74
     1
 75
     0
 76
     0
 77
     0
 78
     0
281
     0
 65
     1
110
0.0
120
0.0
130
0.0
111
1.0
121
0.0
131
0.0
112
0.0
122
1.0
132
0.0
 79
     0
146
0.0
  0
ENDTAB
  0
TABLE
  2
LTYPE
  5
1CC
330
0
100
AcDbSymbolTable
 70
     3
  0
LTYPE
  5
1CD
330
1CC
100
AcDbSymbolTableRecord
100
AcDbLinetypeTableRecord
  2
BYBLOCK
 70
     0
  3

 72
    65
 73
     0
 40
0.0
  0
LTYPE
  5
1CE
330
1CC
100
AcDbSymbolTableRecord
100
AcDbLinetypeTableRecord
  2
BYLAYER
 70
     0
  3

 72
    65
 73
     0
 40
0.0
  0
LTYPE
  5
E
330
1CC
100
AcDbSymbolTableRecord
100
AcDbLinetypeTableRecord
  2
CONTINUOUS
 70
     0
  3
Solid line
 72
    65
 73
     0
 40
0.0
  0
LTYPE
  5
17
330
1CC
100
AcDbSymbolTableRecord
100
AcDbLinetypeTableRecord
  2
DASHED
 70
     0
  3
Dashed __ __ __ __ __ __ __ __ __ __ __ __ __ _
 72
    65
 73
     2
 40
0.75
 49
0.5
 74
     0
 49
-0.25
 74
     0
  0
LTYPE
  5
4A
330
1CC
100
AcDbSymbolTableRecord
100
AcDbLinetypeTableRecord
  2
PHANTOM2
 70
     0
  3
Phantom (.5x) ___ _ _ ___ _ _ ___ _ _ ___ _ _
 72
    65
 73
     6
 40
1.25
 49
0.625
 74
     0
 49
-0.125
 74
     0
 49
0.125
 74
     0
 49
-0.125
 74
     0
 49
0.125
 74
     0
 49
-0.125
 74
     0
  0
ENDTAB
  0
TABLE
  2
LAYER
  5
1C6
102
{ACAD_XDICTIONARY
360
1C7
102
}
330
0
100
AcDbSymbolTable
 70
     7
  0
LAYER
  5
6
102
{ACAD_XDICTIONARY
360
7
102
}
330
1C6
100
AcDbSymbolTableRecord
100
AcDbLayerTableRecord
  2
0
 70
     0
 62
     7
  6
CONTINUOUS
370
    -3
390
9
1001
RAK
1000
{ACET-LAYISO
1070
     0
1070
     7
1000
CONTINUOUS
1070
     1
1071
       -3
1071
        1
1005
9
1000
ACET-LAYISO}
  0
LAYER
  5
11
102
{ACAD_XDICTIONARY
360
12
102
}
330
1C6
100
AcDbSymbolTableRecord
100
AcDbLayerTableRecord
  2
NAPISY
 70
     0
 62
   140
  6
CONTINUOUS
370
    -3
390
9
1001
RAK
1000
{ACET-LAYISO
1070
     0
1070
   140
1000
CONTINUOUS
1071
       -3
1071
        1
1005
9
1000
ACET-LAYISO}
  0
LAYER
  5
7F
330
1C6
100
AcDbSymbolTableRecord
100
AcDbLayerTableRecord
  2
Defpoints
 70
     0
 62
     7
  6
CONTINUOUS
290
     0
370
    -3
390
9
1001
RAK
1000
{ACET-LAYISO
1070
     0
1070
     7
1000
CONTINUOUS
1071
       -3
1071
        0
1005
9
1000
ACET-LAYISO}
  0
LAYER
  5
6C
102
{ACAD_XDICTIONARY
360
6D
102
}
330
1C6
100
AcDbSymbolTableRecord
100
AcDbLayerTableRecord
  2
0Wymiary-PL
 70
     0
 62
     1
  6
CONTINUOUS
370
     5
390
9
  0
LAYER
  5
20
102
{ACAD_XDICTIONARY
360
21
102
}
330
1C6
100
AcDbSymbolTableRecord
100
AcDbLayerTableRecord
  2
0Hatch
 70
     0
 62
   122
  6
CONTINUOUS
370
     5
390
9
  0
LAYER
  5
1C
102
{ACAD_XDICTIONARY
360
1D
102
}
330
1C6
100
AcDbSymbolTableRecord
100
AcDbLayerTableRecord
  2
RAMKI-A4
 70
     0
 62
     2
  6
CONTINUOUS
290
     0
370
    -3
390
9
1001
RAK
1000
{ACET-LAYISO
1070
     0
1070
     2
1000
Continuous
1071
       -3
1071
        0
1005
9
1000
ACET-LAYISO}
  0
LAYER
  5
47
102
{ACAD_XDICTIONARY
360
48
102
}
330
1C6
100
AcDbSymbolTableRecord
100
AcDbLayerTableRecord
  2
G-Anno-Nplt
 70
     0
 62
   140
  6
CONTINUOUS
290
     0
370
    -3
390
9
1001
AcAecLayerStandard
1000
NCSv2
1001
RAK
1000
{ACET-LAYISO
1070
     0
1070
   140
1000
Continuous
1071
       18
1071
        0
1005
9
1000
ACET-LAYISO}
  0
ENDTAB
  0
TABLE
  2
STYLE
  5
1C9
330
0
100
AcDbSymbolTable
 70
     3
  0
STYLE
  5
1CA
330
1C9
100
AcDbSymbolTableRecord
100
AcDbTextStyleTableRecord
  2
STANDARD
 70
     0
 40
0.0
 41
1.0
 50
0.0
 71
     0
 42
0.2
  3
txt
  4

  0
STYLE
  5
7D
330
1C9
100
AcDbSymbolTableRecord
100
AcDbTextStyleTableRecord
  2
ROMANS
 70
     0
 40
0.0
 41
0.9
 50
0.0
 71
     0
 42
5.0
  3
romans.shx
  4

  0
STYLE
  5
14
330
1C9
100
AcDbSymbolTableRecord
100
AcDbTextStyleTableRecord
  2
AVA
 70
     0
 40
0.0
 41
1.0
 50
0.0
 71
     0
 42
20.0
  3
ARIAL.TTF
  4

1001
ACAD
1000
Arial CE
1071
    60962
  0
ENDTAB
  0
TABLE
  2
VIEW
  5
1CF
330
0
100
AcDbSymbolTable
 70
     1
  0
VIEW
  5
1BE
330
1CF
100
AcDbSymbolTableRecord
100
AcDbViewTableRecord
  2
10-ele
 70
     0
 40
2040.000000000001
 10
597.6361962217097
 20
4133.999999999996
 41
2803.999999999998
 11
0.0
 21
0.0
 31
1.0
 12
0.0
 22
0.0
 32
0.0
 42
50.0
 43
0.0
 44
0.0
 50
0.0
 71
     0
281
     0
 72
     1
110
0.0
120
0.0
130
0.0
111
1.0
121
0.0
131
0.0
112
0.0
122
1.0
132
0.0
 79
     0
146
0.0
  0
ENDTAB
  0
TABLE
  2
UCS
  5
1D0
330
0
100
AcDbSymbolTable
 70
     0
  0
ENDTAB
  0
TABLE
  2
APPID
  5
1D3
330
0
100
AcDbSymbolTable
 70
     4
  0
APPID
  5
15
330
1D3
100
AcDbSymbolTableRecord
100
AcDbRegAppTableRecord
  2
ACAD
 70
     0
  0
APPID
  5
F
330
1D3
100
AcDbSymbolTableRecord
100
AcDbRegAppTableRecord
  2
RAK
 70
     0
  0
APPID
  5
1C1
330
1D3
100
AcDbSymbolTableRecord
100
AcDbRegAppTableRecord
  2
ACAD_PSEXT
 70
     0
  0
APPID
  5
49
330
1D3
100
AcDbSymbolTableRecord
100
AcDbRegAppTableRecord
  2
AcAecLayerStandard
 70
     0
  0
ENDTAB
  0
TABLE
  2
DIMSTYLE
  5
1D4
330
0
100
AcDbSymbolTable
 70
     1
100
AcDbDimStyleTable
 71
     1
340
83
  0
DIMSTYLE
105
83
102
{ACAD_REACTORS
330
6B
330
84
330
8F
330
9A
330
A7
330
E0
330
BF
330
B2
330
ED
330
D5
330
CA
330
13C
330
147
330
152
330
15D
330
16A
330
175
330
182
330
18D
330
198
330
1A3
330
1B0
102
}
330
1D4
100
AcDbSymbolTableRecord
100
AcDbDimStyleTableRecord
  2
500
 70
     0
 41
30.0
 42
43.0
 43
0.0
 44
13.0
 45
0.5
 46
12.0
 73
     0
 74
     0
 75
     1
 76
     1
 78
    12
140
80.0
141
0.0
145
1.0
147
0.0
172
     1
174
     1
176
     1
177
     1
178
   140
271
     1
272
     1
279
     2
340
7D
341
73
342
73
  0
ENDTAB
  0
TABLE
  2
BLOCK_RECORD
  5
1
330
0
100
AcDbSymbolTable
 70
    23
  0
BLOCK_RECORD
  5
2
102
{ACAD_XDICTIONARY
360
3
102
}
330
1
100
AcDbSymbolTableRecord
100
AcDbBlockTableRecord
  2
*MODEL_SPACE
340
1BC
  0
BLOCK_RECORD
  5
1C2
330
1
100
AcDbSymbolTableRecord
100
AcDbBlockTableRecord
  2
*Paper_Space
340
1C5
  0
BLOCK_RECORD
  5
73
102
{ACAD_XDICTIONARY
360
74
102
}
330
1
100
AcDbSymbolTableRecord
100
AcDbBlockTableRecord
  2
B-DIM
340
0
102
{BLKREFS
331
72
331
7B
331
88
331
89
331
93
331
94
331
E6
331
E7
331
B8
331
B9
331
F1
331
F2
331
D9
331
DA
331
140
331
141
331
14B
331
14C
331
156
331
157
331
163
331
164
331
16E
331
16F
331
17B
331
17C
331
186
331
187
331
191
331
192
331
19C
331
19D
331
1A9
331
1AA
331
1B4
331
1B5
331
CE
331
CF
331
C3
331
C4
331
AB
331
AC
331
A0
331
A1
102
}
  0
BLOCK_RECORD
  5
6F
330
1
100
AcDbSymbolTableRecord
100
AcDbBlockTableRecord
  2
*D1
340
0
  0
BLOCK_RECORD
  5
85
330
1
100
AcDbSymbolTableRecord
100
AcDbBlockTableRecord
  2
*D2
340
0
  0
BLOCK_RECORD
  5
90
330
1
100
AcDbSymbolTableRecord
100
AcDbBlockTableRecord
  2
*D3
340
0
  0
BLOCK_RECORD
  5
9B
330
1
100
AcDbSymbolTableRecord
100
AcDbBlockTableRecord
  2
*D4
340
0
  0
BLOCK_RECORD
  5
A8
330
1
100
AcDbSymbolTableRecord
100
AcDbBlockTableRecord
  2
*D5
340
0
  0
BLOCK_RECORD
  5
B3
330
1
100
AcDbSymbolTableRecord
100
AcDbBlockTableRecord
  2
*D6
340
0
  0
BLOCK_RECORD
  5
C0
330
1
100
AcDbSymbolTableRecord
100
AcDbBlockTableRecord
  2
*D7
340
0
  0
BLOCK_RECORD
  5
CB
330
1
100
AcDbSymbolTableRecord
100
AcDbBlockTableRecord
  2
*D8
340
0
  0
BLOCK_RECORD
  5
D6
330
1
100
AcDbSymbolTableRecord
100
AcDbBlockTableRecord
  2
*D9
340
0
  0
BLOCK_RECORD
  5
E1
330
1
100
AcDbSymbolTableRecord
100
AcDbBlockTableRecord
  2
*D10
340
0
  0
BLOCK_RECORD
  5
EE
330
1
100
AcDbSymbolTableRecord
100
AcDbBlockTableRecord
  2
*D11
340
0
  0
BLOCK_RECORD
  5
13D
330
1
100
AcDbSymbolTableRecord
100
AcDbBlockTableRecord
  2
*D12
340
0
  0
BLOCK_RECORD
  5
148
330
1
100
AcDbSymbolTableRecord
100
AcDbBlockTableRecord
  2
*D13
340
0
  0
BLOCK_RECORD
  5
153
330
1
100
AcDbSymbolTableRecord
100
AcDbBlockTableRecord
  2
*D14
340
0
  0
BLOCK_RECORD
  5
15E
330
1
100
AcDbSymbolTableRecord
100
AcDbBlockTableRecord
  2
*D15
340
0
  0
BLOCK_RECORD
  5
16B
330
1
100
AcDbSymbolTableRecord
100
AcDbBlockTableRecord
  2
*D16
340
0
  0
BLOCK_RECORD
  5
176
330
1
100
AcDbSymbolTableRecord
100
AcDbBlockTableRecord
  2
*D17
340
0
  0
BLOCK_RECORD
  5
183
330
1
100
AcDbSymbolTableRecord
100
AcDbBlockTableRecord
  2
*D18
340
0
  0
BLOCK_RECORD
  5
18E
330
1
100
AcDbSymbolTableRecord
100
AcDbBlockTableRecord
  2
*D19
340
0
  0
BLOCK_RECORD
  5
199
330
1
100
AcDbSymbolTableRecord
100
AcDbBlockTableRecord
  2
*D20
340
0
  0
BLOCK_RECORD
  5
1A4
330
1
100
AcDbSymbolTableRecord
100
AcDbBlockTableRecord
  2
*D21
340
0
  0
BLOCK_RECORD
  5
1B1
330
1
100
AcDbSymbolTableRecord
100
AcDbBlockTableRecord
  2
*D22
340
0
  0
ENDTAB
  0
ENDSEC
  0
SECTION
  2
BLOCKS
  0
BLOCK
  5
5
330
2
100
AcDbEntity
  8
0
100
AcDbBlockBegin
  2
*MODEL_SPACE
 70
     0
 10
0.0
 20
0.0
 30
0.0
  3
*MODEL_SPACE
  1

  0
ENDBLK
  5
1BB
330
2
100
AcDbEntity
  8
0
100
AcDbBlockEnd
  0
BLOCK
  5
1C3
330
1C2
100
AcDbEntity
 67
     1
  8
0
 48
4.0
100
AcDbBlockBegin
  2
*Paper_Space
 70
     0
 10
0.0
 20
0.0
 30
0.0
  3
*Paper_Space
  1

  0
ENDBLK
  5
1C4
330
1C2
100
AcDbEntity
 67
     1
  8
0
 48
4.0
100
AcDbBlockEnd
  0
BLOCK
  5
76
330
73
100
AcDbEntity
  8
0
100
AcDbBlockBegin
  2
B-DIM
 70
     0
 10
0.0
 20
0.0
 30
0.0
  3
B-DIM
  1

  0
LINE
  5
77
330
73
100
AcDbEntity
  8
0
 62
     1
100
AcDbLine
 10
0.000000000000091
 20
-1.1
 30
0.0
 11
0.000000000000091
 21
1.1
 31
0.0
  0
LWPOLYLINE
  5
78
330
73
100
AcDbEntity
  8
0
 62
     1
100
AcDbPolyline
 90
        2
 70
     0
 43
0.3
 10
-0.7071067811864851
 20
-0.7071067811864851
 10
0.707106781186576
 20
0.707106781186576
  0
LINE
  5
79
330
73
100
AcDbEntity
  8
0
 62
     1
100
AcDbLine
 10
1.20000000000009
 20
0.0
 30
0.0
 11
-1.199999999999909
 21
0.0
 31
0.0
  0
ENDBLK
  5
7A
330
73
100
AcDbEntity
  8
0
100
AcDbBlockEnd
  0
BLOCK
  5
70
330
6F
100
AcDbEntity
  8
0
 48
4.0
100
AcDbBlockBegin
  2
*D1
 70
     1
 10
0.0
 20
0.0
 30
0.0
  3
*D1
  1

  0
LINE
  5
71
330
6F
100
AcDbEntity
  8
0Wymiary-PL
 62
     1
 48
4.0
370
    -2
100
AcDbLine
 10
70658.0363743001
 20
-4308.716773994563
 30
0.0
 11
70658.0363743001
 21
-4624.716773994558
 31
0.0
  0
INSERT
  5
72
330
6F
100
AcDbEntity
  8
0Wymiary-PL
 62
     1
 48
4.0
370
    -2
100
AcDbBlockReference
  2
B-DIM
 10
70658.0363743001
 20
-4278.716773994563
 30
0.0
 41
30.0
 42
30.0
 43
30.0
 50
90.0
  0
INSERT
  5
7B
330
6F
100
AcDbEntity
  8
0Wymiary-PL
 62
     1
 48
4.0
370
    -2
100
AcDbBlockReference
  2
B-DIM
 10
70658.0363743001
 20
-4654.716773994557
 30
0.0
 41
30.0
 42
30.0
 43
30.0
 50
270.0
  0
MTEXT
  5
7C
330
6F
100
AcDbEntity
  8
0Wymiary-PL
 62
   140
 48
4.0
100
AcDbMText
 10
70578.0363743001
 20
-4466.71677399455
 30
0.0
 40
80.0
 41
0.0
 71
     5
 72
     1
  1
\A1;376
  7
ROMANS
 11
0.0000000000000001
 21
1.0
 31
0.0
 73
     1
 44
1.0
1001
ACAD
1000
MTEXTBEGIN
1070
    73
1070
     1
1070
    44
1040
1.0
1070
    74
1070
     0
1000
MTEXTEND
  0
POINT
  5
7E
330
6F
100
AcDbEntity
  8
Defpoints
 62
     0
 48
4.0
100
AcDbPoint
 10
70898.37328370776
 20
-4278.716773994563
 30
0.0
  0
POINT
  5
80
330
6F
100
AcDbEntity
  8
Defpoints
 62
     0
 48
4.0
100
AcDbPoint
 10
70808.37328370786
 20
-4654.716773994557
 30
0.0
  0
POINT
  5
81
330
6F
100
AcDbEntity
  8
Defpoints
 62
     0
 48
4.0
100
AcDbPoint
 10
70658.0363743001
 20
-4654.716773994557
 30
0.0
  0
ENDBLK
  5
82
330
6F
100
AcDbEntity
  8
0
 48
4.0
100
AcDbBlockEnd
  0
BLOCK
  5
86
330
85
100
AcDbEntity
  8
0
 48
4.0
100
AcDbBlockBegin
  2
*D2
 70
     1
 10
0.0
 20
0.0
 30
0.0
  3
*D2
  1

  0
LINE
  5
87
330
85
100
AcDbEntity
  8
0Wymiary-PL
 62
     1
 48
4.0
370
    -2
100
AcDbLine
 10
70658.0363743001
 20
-4684.716773994558
 30
0.0
 11
70658.0363743001
 21
-4896.716773994558
 31
0.0
  0
INSERT
  5
88
330
85
100
AcDbEntity
  8
0Wymiary-PL
 62
     1
 48
4.0
370
    -2
100
AcDbBlockReference
  2
B-DIM
 10
70658.0363743001
 20
-4654.716773994557
 30
0.0
 41
30.0
 42
30.0
 43
30.0
 50
90.0
  0
INSERT
  5
89
330
85
100
AcDbEntity
  8
0Wymiary-PL
 62
     1
 48
4.0
370
    -2
100
AcDbBlockReference
  2
B-DIM
 10
70658.0363743001
 20
-4926.716773994558
 30
0.0
 41
30.0
 42
30.0
 43
30.0
 50
270.0
  0
MTEXT
  5
8A
330
85
100
AcDbEntity
  8
0Wymiary-PL
 62
   140
 48
4.0
100
AcDbMText
 10
70578.0363743001
 20
-4790.716773994547
 30
0.0
 40
80.0
 41
0.0
 71
     5
 72
     1
  1
\A1;272
  7
ROMANS
 11
0.0000000000000001
 21
1.0
 31
0.0
 73
     1
 44
1.0
1001
ACAD
1000
MTEXTBEGIN
1070
    73
1070
     1
1070
    44
1040
1.0
1070
    74
1070
     0
1000
MTEXTEND
  0
POINT
  5
8B
330
85
100
AcDbEntity
  8
Defpoints
 62
     0
 48
4.0
100
AcDbPoint
 10
70808.37328370786
 20
-4654.716773994557
 30
0.0
  0
POINT
  5
8C
330
85
100
AcDbEntity
  8
Defpoints
 62
     0
 48
4.0
100
AcDbPoint
 10
70808.37328370786
 20
-4926.716773994558
 30
0.0
  0
POINT
  5
8D
330
85
100
AcDbEntity
  8
Defpoints
 62
     0
 48
4.0
100
AcDbPoint
 10
70658.0363743001
 20
-4926.716773994558
 30
0.0
  0
ENDBLK
  5
8E
330
85
100
AcDbEntity
  8
0
 48
4.0
100
AcDbBlockEnd
  0
BLOCK
  5
91
330
90
100
AcDbEntity
  8
0
 48
4.0
100
AcDbBlockBegin
  2
*D3
 70
     1
 10
0.0
 20
0.0
 30
0.0
  3
*D3
  1

  0
LINE
  5
92
330
90
100
AcDbEntity
  8
0Wymiary-PL
 62
     1
 48
4.0
370
    -2
100
AcDbLine
 10
70658.0363743001
 20
-4956.716773994558
 30
0.0
 11
70658.0363743001
 21
-5272.716773994578
 31
0.0
  0
INSERT
  5
93
330
90
100
AcDbEntity
  8
0Wymiary-PL
 62
     1
 48
4.0
370
    -2
100
AcDbBlockReference
  2
B-DIM
 10
70658.0363743001
 20
-4926.716773994558
 30
0.0
 41
30.0
 42
30.0
 43
30.0
 50
90.0
  0
INSERT
  5
94
330
90
100
AcDbEntity
  8
0Wymiary-PL
 62
     1
 48
4.0
370
    -2
100
AcDbBlockReference
  2
B-DIM
 10
70658.0363743001
 20
-5302.716773994578
 30
0.0
 41
30.0
 42
30.0
 43
30.0
 50
270.0
  0
MTEXT
  5
95
330
90
100
AcDbEntity
  8
0Wymiary-PL
 62
   140
 48
4.0
100
AcDbMText
 10
70578.0363743001
 20
-5114.716773994557
 30
0.0
 40
80.0
 41
0.0
 71
     5
 72
     1
  1
\A1;376
  7
ROMANS
 11
0.0000000000000001
 21
1.0
 31
0.0
 73
     1
 44
1.0
1001
ACAD
1000
MTEXTBEGIN
1070
    73
1070
     1
1070
    44
1040
1.0
1070
    74
1070
     0
1000
MTEXTEND
  0
POINT
  5
96
330
90
100
AcDbEntity
  8
Defpoints
 62
     0
 48
4.0
100
AcDbPoint
 10
70808.37328370786
 20
-4926.716773994558
 30
0.0
  0
POINT
  5
97
330
90
100
AcDbEntity
  8
Defpoints
 62
     0
 48
4.0
100
AcDbPoint
 10
70898.37328370778
 20
-5302.716773994578
 30
0.0
  0
POINT
  5
98
330
90
100
AcDbEntity
  8
Defpoints
 62
     0
 48
4.0
100
AcDbPoint
 10
70658.0363743001
 20
-5302.716773994578
 30
0.0
  0
ENDBLK
  5
99
330
90
100
AcDbEntity
  8
0
 48
4.0
100
AcDbBlockEnd
  0
BLOCK
  5
9C
330
9B
100
AcDbEntity
  8
0
 48
4.0
100
AcDbBlockBegin
  2
*D4
 70
     1
 10
0.0
 20
0.0
 30
0.0
  3
*D4
  1

  0
LINE
  5
9D
330
9B
100
AcDbEntity
  8
0Hatch
 62
     1
 48
4.0
370
    -2
100
AcDbLine
 10
70658.0363743001
 20
-5272.716773994578
 30
0.0
 11
70658.0363743001
 21
-5242.716773994578
 31
0.0
  0
LINE
  5
9E
330
9B
100
AcDbEntity
  8
0Hatch
 62
     1
 48
4.0
370
    -2
100
AcDbLine
 10
70658.0363743001
 20
-5478.716773994679
 30
0.0
 11
70658.0363743001
 21
-5508.716773994679
 31
0.0
  0
LINE
  5
9F
330
9B
100
AcDbEntity
  8
0Hatch
 62
     1
 48
4.0
370
    -2
100
AcDbLine
 10
70658.0363743001
 20
-5302.716773994578
 30
0.0
 11
70658.0363743001
 21
-5448.716773994679
 31
0.0
  0
INSERT
  5
A0
330
9B
100
AcDbEntity
  8
0Hatch
 62
     1
 48
4.0
370
    -2
100
AcDbBlockReference
  2
B-DIM
 10
70658.0363743001
 20
-5302.716773994578
 30
0.0
 41
30.0
 42
30.0
 43
30.0
 50
270.0
  0
INSERT
  5
A1
330
9B
100
AcDbEntity
  8
0Hatch
 62
     1
 48
4.0
370
    -2
100
AcDbBlockReference
  2
B-DIM
 10
70658.0363743001
 20
-5448.716773994679
 30
0.0
 41
30.0
 42
30.0
 43
30.0
 50
90.0
  0
MTEXT
  5
A2
330
9B
100
AcDbEntity
  8
0Hatch
 62
   140
 48
4.0
100
AcDbMText
 10
70578.0363743001
 20
-5375.716773994617
 30
0.0
 40
80.0
 41
0.0
 71
     5
 72
     1
  1
\A1;146
  7
ROMANS
 11
0.0000000000000001
 21
1.0
 31
0.0
 73
     1
 44
1.0
1001
ACAD
1000
MTEXTBEGIN
1070
    73
1070
     1
1070
    44
1040
1.0
1070
    74
1070
     0
1000
MTEXTEND
  0
POINT
  5
A3
330
9B
100
AcDbEntity
  8
Defpoints
 62
     0
 48
4.0
100
AcDbPoint
 10
70898.37328370778
 20
-5302.716773994578
 30
0.0
  0
POINT
  5
A4
330
9B
100
AcDbEntity
  8
Defpoints
 62
     0
 48
4.0
100
AcDbPoint
 10
71316.37328370779
 20
-5448.716773994679
 30
0.0
  0
POINT
  5
A5
330
9B
100
AcDbEntity
  8
Defpoints
 62
     0
 48
4.0
100
AcDbPoint
 10
70658.0363743001
 20
-5448.716773994679
 30
0.0
  0
ENDBLK
  5
A6
330
9B
100
AcDbEntity
  8
0
 48
4.0
100
AcDbBlockEnd
  0
BLOCK
  5
A9
330
A8
100
AcDbEntity
  8
0
 48
4.0
100
AcDbBlockBegin
  2
*D5
 70
     1
 10
0.0
 20
0.0
 30
0.0
  3
*D5
  1

  0
LINE
  5
AA
330
A8
100
AcDbEntity
  8
0Hatch
 62
     1
 48
4.0
370
    -2
100
AcDbLine
 10
70438.86391208868
 20
-5418.716773994679
 30
0.0
 11
70438.86391208868
 21
-4308.716773994563
 31
0.0
  0
INSERT
  5
AB
330
A8
100
AcDbEntity
  8
0Hatch
 62
     1
 48
4.0
370
    -2
100
AcDbBlockReference
  2
B-DIM
 10
70438.86391208868
 20
-5448.716773994679
 30
0.0
 41
30.0
 42
30.0
 43
30.0
 50
270.0
  0
INSERT
  5
AC
330
A8
100
AcDbEntity
  8
0Hatch
 62
     1
 48
4.0
370
    -2
100
AcDbBlockReference
  2
B-DIM
 10
70438.86391208868
 20
-4278.716773994563
 30
0.0
 41
30.0
 42
30.0
 43
30.0
 50
90.0
  0
MTEXT
  5
AD
330
A8
100
AcDbEntity
  8
0Hatch
 62
   140
 48
4.0
100
AcDbMText
 10
70358.86391208868
 20
-4863.71677399461
 30
0.0
 40
80.0
 41
0.0
 71
     5
 72
     1
  1
\A1;1170
  7
ROMANS
 11
0.0000000000000001
 21
1.0
 31
0.0
 73
     1
 44
1.0
1001
ACAD
1000
MTEXTBEGIN
1070
    73
1070
     1
1070
    44
1040
1.0
1070
    74
1070
     0
1000
MTEXTEND
  0
POINT
  5
AE
330
A8
100
AcDbEntity
  8
Defpoints
 62
     0
 48
4.0
100
AcDbPoint
 10
71316.37328370779
 20
-5448.716773994679
 30
0.0
  0
POINT
  5
AF
330
A8
100
AcDbEntity
  8
Defpoints
 62
     0
 48
4.0
100
AcDbPoint
 10
70898.37328370776
 20
-4278.716773994563
 30
0.0
  0
POINT
  5
B0
330
A8
100
AcDbEntity
  8
Defpoints
 62
     0
 48
4.0
100
AcDbPoint
 10
70438.86391208868
 20
-4278.716773994563
 30
0.0
  0
ENDBLK
  5
B1
330
A8
100
AcDbEntity
  8
0
 48
4.0
100
AcDbBlockEnd
  0
BLOCK
  5
B4
330
B3
100
AcDbEntity
  8
0
 48
4.0
100
AcDbBlockBegin
  2
*D6
 70
     1
 10
0.0
 20
0.0
 30
0.0
  3
*D6
  1

  0
LINE
  5
B5
330
B3
100
AcDbEntity
  8
0
 62
     1
370
    -2
100
AcDbLine
 10
70778.37328370786
 20
-5865.86692359062
 30
0.0
 11
70748.37328370786
 21
-5865.86692359062
 31
0.0
  0
LINE
  5
B6
330
B3
100
AcDbEntity
  8
0
 62
     1
370
    -2
100
AcDbLine
 10
70928.37328370778
 20
-5865.86692359062
 30
0.0
 11
70958.37328370778
 21
-5865.86692359062
 31
0.0
  0
LINE
  5
B7
330
B3
100
AcDbEntity
  8
0
 62
     1
370
    -2
100
AcDbLine
 10
70808.37328370786
 20
-5865.86692359062
 30
0.0
 11
70898.37328370778
 21
-5865.86692359062
 31
0.0
  0
INSERT
  5
B8
330
B3
100
AcDbEntity
  8
0
 62
     1
370
    -2
100
AcDbBlockReference
  2
B-DIM
 10
70808.37328370786
 20
-5865.86692359062
 30
0.0
 41
30.0
 42
30.0
 43
30.0
  0
INSERT
  5
B9
330
B3
100
AcDbEntity
  8
0
 62
     1
370
    -2
100
AcDbBlockReference
  2
B-DIM
 10
70898.37328370778
 20
-5865.86692359062
 30
0.0
 41
30.0
 42
30.0
 43
30.0
 50
180.0
  0
MTEXT
  5
BA
330
B3
100
AcDbEntity
  8
0
 62
   140
370
     5
100
AcDbMText
 10
70853.37328370783
 20
-5785.86692359062
 30
0.0
 40
80.0
 41
0.0
 71
     5
 72
     1
  1
\A1;90
  7
ROMANS
 73
     1
 44
1.0
1001
ACAD
1000
MTEXTBEGIN
1070
    73
1070
     1
1070
    44
1040
1.0
1070
    74
1070
     0
1000
MTEXTEND
  0
POINT
  5
BB
330
B3
100
AcDbEntity
  8
Defpoints
 62
     0
100
AcDbPoint
 10
70808.37328370786
 20
-4926.716773994558
 30
0.0
  0
POINT
  5
BC
330
B3
100
AcDbEntity
  8
Defpoints
 62
     0
100
AcDbPoint
 10
70898.37328370778
 20
-5302.716773994578
 30
0.0
  0
POINT
  5
BD
330
B3
100
AcDbEntity
  8
Defpoints
 62
     0
100
AcDbPoint
 10
70898.37328370778
 20
-5865.86692359062
 30
0.0
  0
ENDBLK
  5
BE
330
B3
100
AcDbEntity
  8
0
 48
4.0
100
AcDbBlockEnd
  0
BLOCK
  5
C1
330
C0
100
AcDbEntity
  8
0
 48
4.0
100
AcDbBlockBegin
  2
*D7
 70
     1
 10
0.0
 20
0.0
 30
0.0
  3
*D7
  1

  0
LINE
  5
C2
330
C0
100
AcDbEntity
  8
0Hatch
 62
     1
 48
4.0
370
    -2
100
AcDbLine
 10
70928.37328370778
 20
-5865.86692359062
 30
0.0
 11
71286.37328370779
 21
-5865.86692359062
 31
0.0
  0
INSERT
  5
C3
330
C0
100
AcDbEntity
  8
0Hatch
 62
     1
 48
4.0
370
    -2
100
AcDbBlockReference
  2
B-DIM
 10
70898.37328370778
 20
-5865.86692359062
 30
0.0
 41
30.0
 42
30.0
 43
30.0
 50
180.0
  0
INSERT
  5
C4
330
C0
100
AcDbEntity
  8
0Hatch
 62
     1
 48
4.0
370
    -2
100
AcDbBlockReference
  2
B-DIM
 10
71316.37328370779
 20
-5865.86692359062
 30
0.0
 41
30.0
 42
30.0
 43
30.0
  0
MTEXT
  5
C5
330
C0
100
AcDbEntity
  8
0Hatch
 62
   140
 48
4.0
100
AcDbMText
 10
71107.3732837078
 20
-5785.86692359062
 30
0.0
 40
80.0
 41
0.0
 71
     5
 72
     1
  1
\A1;418
  7
ROMANS
 73
     1
 44
1.0
1001
ACAD
1000
MTEXTBEGIN
1070
    73
1070
     1
1070
    44
1040
1.0
1070
    74
1070
     0
1000
MTEXTEND
  0
POINT
  5
C6
330
C0
100
AcDbEntity
  8
Defpoints
 62
     0
 48
4.0
100
AcDbPoint
 10
70898.37328370778
 20
-5302.716773994578
 30
0.0
  0
POINT
  5
C7
330
C0
100
AcDbEntity
  8
Defpoints
 62
     0
 48
4.0
100
AcDbPoint
 10
71316.37328370779
 20
-5448.716773994568
 30
0.0
  0
POINT
  5
C8
330
C0
100
AcDbEntity
  8
Defpoints
 62
     0
 48
4.0
100
AcDbPoint
 10
71316.37328370779
 20
-5865.86692359062
 30
0.0
  0
ENDBLK
  5
C9
330
C0
100
AcDbEntity
  8
0
 48
4.0
100
AcDbBlockEnd
  0
BLOCK
  5
CC
330
CB
100
AcDbEntity
  8
0
 48
4.0
100
AcDbBlockBegin
  2
*D8
 70
     1
 10
0.0
 20
0.0
 30
0.0
  3
*D8
  1

  0
LINE
  5
CD
330
CB
100
AcDbEntity
  8
0Hatch
 62
     1
 48
4.0
370
    -2
100
AcDbLine
 10
71346.3732837078
 20
-5865.86692359062
 30
0.0
 11
71958.37328370777
 21
-5865.86692359062
 31
0.0
  0
INSERT
  5
CE
330
CB
100
AcDbEntity
  8
0Hatch
 62
     1
 48
4.0
370
    -2
100
AcDbBlockReference
  2
B-DIM
 10
71316.37328370779
 20
-5865.86692359062
 30
0.0
 41
30.0
 42
30.0
 43
30.0
 50
180.0
  0
INSERT
  5
CF
330
CB
100
AcDbEntity
  8
0Hatch
 62
     1
 48
4.0
370
    -2
100
AcDbBlockReference
  2
B-DIM
 10
71988.37328370776
 20
-5865.86692359062
 30
0.0
 41
30.0
 42
30.0
 43
30.0
  0
MTEXT
  5
D0
330
CB
100
AcDbEntity
  8
0Hatch
 62
   140
 48
4.0
100
AcDbMText
 10
71652.37328370778
 20
-5785.86692359062
 30
0.0
 40
80.0
 41
0.0
 71
     5
 72
     1
  1
\A1;672
  7
ROMANS
 73
     1
 44
1.0
1001
ACAD
1000
MTEXTBEGIN
1070
    73
1070
     1
1070
    44
1040
1.0
1070
    74
1070
     0
1000
MTEXTEND
  0
POINT
  5
D1
330
CB
100
AcDbEntity
  8
Defpoints
 62
     0
 48
4.0
100
AcDbPoint
 10
71316.37328370779
 20
-5448.716773994568
 30
0.0
  0
POINT
  5
D2
330
CB
100
AcDbEntity
  8
Defpoints
 62
     0
 48
4.0
100
AcDbPoint
 10
71988.37328370776
 20
-5448.716773994633
 30
0.0
  0
POINT
  5
D3
330
CB
100
AcDbEntity
  8
Defpoints
 62
     0
 48
4.0
100
AcDbPoint
 10
71988.37328370776
 20
-5865.86692359062
 30
0.0
  0
ENDBLK
  5
D4
330
CB
100
AcDbEntity
  8
0
 48
4.0
100
AcDbBlockEnd
  0
BLOCK
  5
D7
330
D6
100
AcDbEntity
  8
0
 48
4.0
100
AcDbBlockBegin
  2
*D9
 70
     1
 10
0.0
 20
0.0
 30
0.0
  3
*D9
  1

  0
LINE
  5
D8
330
D6
100
AcDbEntity
  8
0
 62
     1
370
    -2
100
AcDbLine
 10
72018.37328370777
 20
-5865.86692359062
 30
0.0
 11
72376.37328370779
 21
-5865.86692359062
 31
0.0
  0
INSERT
  5
D9
330
D6
100
AcDbEntity
  8
0
 62
     1
370
    -2
100
AcDbBlockReference
  2
B-DIM
 10
71988.37328370776
 20
-5865.86692359062
 30
0.0
 41
30.0
 42
30.0
 43
30.0
 50
180.0
  0
INSERT
  5
DA
330
D6
100
AcDbEntity
  8
0
 62
     1
370
    -2
100
AcDbBlockReference
  2
B-DIM
 10
72406.37328370779
 20
-5865.86692359062
 30
0.0
 41
30.0
 42
30.0
 43
30.0
  0
MTEXT
  5
DB
330
D6
100
AcDbEntity
  8
0
 62
   140
370
     5
100
AcDbMText
 10
72197.37328370778
 20
-5785.86692359062
 30
0.0
 40
80.0
 41
0.0
 71
     5
 72
     1
  1
\A1;418
  7
ROMANS
 73
     1
 44
1.0
1001
ACAD
1000
MTEXTBEGIN
1070
    73
1070
     1
1070
    44
1040
1.0
1070
    74
1070
     0
1000
MTEXTEND
  0
POINT
  5
DC
330
D6
100
AcDbEntity
  8
Defpoints
 62
     0
100
AcDbPoint
 10
71988.37328370776
 20
-5448.716773994633
 30
0.0
  0
POINT
  5
DD
330
D6
100
AcDbEntity
  8
Defpoints
 62
     0
100
AcDbPoint
 10
72406.37328370779
 20
-5302.716773994558
 30
0.0
  0
POINT
  5
DE
330
D6
100
AcDbEntity
  8
Defpoints
 62
     0
100
AcDbPoint
 10
72406.37328370779
 20
-5865.86692359062
 30
0.0
  0
ENDBLK
  5
DF
330
D6
100
AcDbEntity
  8
0
 48
4.0
100
AcDbBlockEnd
  0
BLOCK
  5
E2
330
E1
100
AcDbEntity
  8
0
 48
4.0
100
AcDbBlockBegin
  2
*D10
 70
     1
 10
0.0
 20
0.0
 30
0.0
  3
*D10
  1

  0
LINE
  5
E3
330
E1
100
AcDbEntity
  8
0Wymiary-PL
 62
     1
 48
4.0
370
    -2
100
AcDbLine
 10
72376.37328370779
 20
-5865.86692359062
 30
0.0
 11
72346.3732837078
 21
-5865.86692359062
 31
0.0
  0
LINE
  5
E4
330
E1
100
AcDbEntity
  8
0Wymiary-PL
 62
     1
 48
4.0
370
    -2
100
AcDbLine
 10
72526.37328370778
 20
-5865.86692359062
 30
0.0
 11
72556.37328370778
 21
-5865.86692359062
 31
0.0
  0
LINE
  5
E5
330
E1
100
AcDbEntity
  8
0Wymiary-PL
 62
     1
 48
4.0
370
    -2
100
AcDbLine
 10
72406.37328370779
 20
-5865.86692359062
 30
0.0
 11
72496.37328370778
 21
-5865.86692359062
 31
0.0
  0
INSERT
  5
E6
330
E1
100
AcDbEntity
  8
0Wymiary-PL
 62
     1
 48
4.0
370
    -2
100
AcDbBlockReference
  2
B-DIM
 10
72406.37328370779
 20
-5865.86692359062
 30
0.0
 41
30.0
 42
30.0
 43
30.0
  0
INSERT
  5
E7
330
E1
100
AcDbEntity
  8
0Wymiary-PL
 62
     1
 48
4.0
370
    -2
100
AcDbBlockReference
  2
B-DIM
 10
72496.37328370778
 20
-5865.86692359062
 30
0.0
 41
30.0
 42
30.0
 43
30.0
 50
180.0
  0
MTEXT
  5
E8
330
E1
100
AcDbEntity
  8
0Wymiary-PL
 62
   140
 48
4.0
100
AcDbMText
 10
72451.3732837078
 20
-5785.86692359062
 30
0.0
 40
80.0
 41
0.0
 71
     5
 72
     1
  1
\A1;90
  7
ROMANS
 73
     1
 44
1.0
1001
ACAD
1000
MTEXTBEGIN
1070
    73
1070
     1
1070
    44
1040
1.0
1070
    74
1070
     0
1000
MTEXTEND
  0
POINT
  5
E9
330
E1
100
AcDbEntity
  8
Defpoints
 62
     0
 48
4.0
100
AcDbPoint
 10
72406.37328370779
 20
-5302.716773994558
 30
0.0
  0
POINT
  5
EA
330
E1
100
AcDbEntity
  8
Defpoints
 62
     0
 48
4.0
100
AcDbPoint
 10
72496.37328370778
 20
-4926.716773994558
 30
0.0
  0
POINT
  5
EB
330
E1
100
AcDbEntity
  8
Defpoints
 62
     0
 48
4.0
100
AcDbPoint
 10
72496.37328370778
 20
-5865.86692359062
 30
0.0
  0
ENDBLK
  5
EC
330
E1
100
AcDbEntity
  8
0
 48
4.0
100
AcDbBlockEnd
  0
BLOCK
  5
EF
330
EE
100
AcDbEntity
  8
0
 48
4.0
100
AcDbBlockBegin
  2
*D11
 70
     1
 10
0.0
 20
0.0
 30
0.0
  3
*D11
  1

  0
LINE
  5
F0
330
EE
100
AcDbEntity
  8
0
 62
     1
370
    -2
100
AcDbLine
 10
70838.37328370785
 20
-6039.712917945639
 30
0.0
 11
72466.37328370778
 21
-6039.712917945639
 31
0.0
  0
INSERT
  5
F1
330
EE
100
AcDbEntity
  8
0
 62
     1
370
    -2
100
AcDbBlockReference
  2
B-DIM
 10
70808.37328370786
 20
-6039.712917945639
 30
0.0
 41
30.0
 42
30.0
 43
30.0
 50
180.0
  0
INSERT
  5
F2
330
EE
100
AcDbEntity
  8
0
 62
     1
370
    -2
100
AcDbBlockReference
  2
B-DIM
 10
72496.37328370778
 20
-6039.712917945639
 30
0.0
 41
30.0
 42
30.0
 43
30.0
  0
MTEXT
  5
F3
330
EE
100
AcDbEntity
  8
0
 62
   140
370
     5
100
AcDbMText
 10
71652.37328370783
 20
-5959.712917945639
 30
0.0
 40
80.0
 41
0.0
 71
     5
 72
     1
  1
\A1;1688
  7
ROMANS
 73
     1
 44
1.0
1001
ACAD
1000
MTEXTBEGIN
1070
    73
1070
     1
1070
    44
1040
1.0
1070
    74
1070
     0
1000
MTEXTEND
  0
POINT
  5
F4
330
EE
100
AcDbEntity
  8
Defpoints
 62
     0
100
AcDbPoint
 10
70808.37328370786
 20
-4926.716773994558
 30
0.0
  0
POINT
  5
F5
330
EE
100
AcDbEntity
  8
Defpoints
 62
     0
100
AcDbPoint
 10
72496.37328370778
 20
-4926.716773994558
 30
0.0
  0
POINT
  5
F6
330
EE
100
AcDbEntity
  8
Defpoints
 62
     0
100
AcDbPoint
 10
72496.37328370778
 20
-6039.712917945639
 30
0.0
  0
ENDBLK
  5
F7
330
EE
100
AcDbEntity
  8
0
 48
4.0
100
AcDbBlockEnd
  0
BLOCK
  5
13E
330
13D
100
AcDbEntity
  8
0
 48
4.0
100
AcDbBlockBegin
  2
*D12
 70
     1
 10
0.0
 20
0.0
 30
0.0
  3
*D12
  1

  0
LINE
  5
13F
330
13D
100
AcDbEntity
  8
0Wymiary-PL
 62
     1
 48
4.0
370
    -2
100
AcDbLine
 10
75997.11600031564
 20
-4308.716773994563
 30
0.0
 11
75997.11600031564
 21
-4624.716773994558
 31
0.0
  0
INSERT
  5
140
330
13D
100
AcDbEntity
  8
0Wymiary-PL
 62
     1
 48
4.0
370
    -2
100
AcDbBlockReference
  2
B-DIM
 10
75997.11600031564
 20
-4278.716773994564
 30
0.0
 41
30.0
 42
30.0
 43
30.0
 50
90.0
  0
INSERT
  5
141
330
13D
100
AcDbEntity
  8
0Wymiary-PL
 62
     1
 48
4.0
370
    -2
100
AcDbBlockReference
  2
B-DIM
 10
75997.11600031564
 20
-4654.716773994557
 30
0.0
 41
30.0
 42
30.0
 43
30.0
 50
270.0
  0
MTEXT
  5
142
330
13D
100
AcDbEntity
  8
0Wymiary-PL
 62
   140
 48
4.0
100
AcDbMText
 10
75917.11600031564
 20
-4466.716773994548
 30
0.0
 40
80.0
 41
0.0
 71
     5
 72
     1
  1
\A1;376
  7
ROMANS
 11
0.0000000000000001
 21
1.0
 31
0.0
 73
     1
 44
1.0
1001
ACAD
1000
MTEXTBEGIN
1070
    73
1070
     1
1070
    44
1040
1.0
1070
    74
1070
     0
1000
MTEXTEND
  0
POINT
  5
143
330
13D
100
AcDbEntity
  8
Defpoints
 62
     0
 48
4.0
100
AcDbPoint
 10
75756.77909090797
 20
-4278.716773994563
 30
0.0
  0
POINT
  5
144
330
13D
100
AcDbEntity
  8
Defpoints
 62
     0
 48
4.0
100
AcDbPoint
 10
75846.77909090789
 20
-4654.716773994557
 30
0.0
  0
POINT
  5
145
330
13D
100
AcDbEntity
  8
Defpoints
 62
     0
 48
4.0
100
AcDbPoint
 10
75997.11600031564
 20
-4654.716773994557
 30
0.0
  0
ENDBLK
  5
146
330
13D
100
AcDbEntity
  8
0
 48
4.0
100
AcDbBlockEnd
  0
BLOCK
  5
149
330
148
100
AcDbEntity
  8
0
 48
4.0
100
AcDbBlockBegin
  2
*D13
 70
     1
 10
0.0
 20
0.0
 30
0.0
  3
*D13
  1

  0
LINE
  5
14A
330
148
100
AcDbEntity
  8
0Wymiary-PL
 62
     1
 48
4.0
370
    -2
100
AcDbLine
 10
75997.11600031564
 20
-4684.716773994558
 30
0.0
 11
75997.11600031564
 21
-4896.716773994558
 31
0.0
  0
INSERT
  5
14B
330
148
100
AcDbEntity
  8
0Wymiary-PL
 62
     1
 48
4.0
370
    -2
100
AcDbBlockReference
  2
B-DIM
 10
75997.11600031564
 20
-4654.716773994557
 30
0.0
 41
30.0
 42
30.0
 43
30.0
 50
90.0
  0
INSERT
  5
14C
330
148
100
AcDbEntity
  8
0Wymiary-PL
 62
     1
 48
4.0
370
    -2
100
AcDbBlockReference
  2
B-DIM
 10
75997.11600031564
 20
-4926.716773994558
 30
0.0
 41
30.0
 42
30.0
 43
30.0
 50
270.0
  0
MTEXT
  5
14D
330
148
100
AcDbEntity
  8
0Wymiary-PL
 62
   140
 48
4.0
100
AcDbMText
 10
75917.11600031564
 20
-4790.716773994545
 30
0.0
 40
80.0
 41
0.0
 71
     5
 72
     1
  1
\A1;272
  7
ROMANS
 11
0.0000000000000001
 21
1.0
 31
0.0
 73
     1
 44
1.0
1001
ACAD
1000
MTEXTBEGIN
1070
    73
1070
     1
1070
    44
1040
1.0
1070
    74
1070
     0
1000
MTEXTEND
  0
POINT
  5
14E
330
148
100
AcDbEntity
  8
Defpoints
 62
     0
 48
4.0
100
AcDbPoint
 10
75846.77909090789
 20
-4654.716773994557
 30
0.0
  0
POINT
  5
14F
330
148
100
AcDbEntity
  8
Defpoints
 62
     0
 48
4.0
100
AcDbPoint
 10
75846.77909090789
 20
-4926.716773994558
 30
0.0
  0
POINT
  5
150
330
148
100
AcDbEntity
  8
Defpoints
 62
     0
 48
4.0
100
AcDbPoint
 10
75997.11600031564
 20
-4926.716773994558
 30
0.0
  0
ENDBLK
  5
151
330
148
100
AcDbEntity
  8
0
 48
4.0
100
AcDbBlockEnd
  0
BLOCK
  5
154
330
153
100
AcDbEntity
  8
0
 48
4.0
100
AcDbBlockBegin
  2
*D14
 70
     1
 10
0.0
 20
0.0
 30
0.0
  3
*D14
  1

  0
LINE
  5
155
330
153
100
AcDbEntity
  8
0Wymiary-PL
 62
     1
 48
4.0
370
    -2
100
AcDbLine
 10
75997.11600031564
 20
-4956.716773994558
 30
0.0
 11
75997.11600031564
 21
-5272.716773994579
 31
0.0
  0
INSERT
  5
156
330
153
100
AcDbEntity
  8
0Wymiary-PL
 62
     1
 48
4.0
370
    -2
100
AcDbBlockReference
  2
B-DIM
 10
75997.11600031564
 20
-4926.716773994558
 30
0.0
 41
30.0
 42
30.0
 43
30.0
 50
90.0
  0
INSERT
  5
157
330
153
100
AcDbEntity
  8
0Wymiary-PL
 62
     1
 48
4.0
370
    -2
100
AcDbBlockReference
  2
B-DIM
 10
75997.11600031564
 20
-5302.716773994578
 30
0.0
 41
30.0
 42
30.0
 43
30.0
 50
270.0
  0
MTEXT
  5
158
330
153
100
AcDbEntity
  8
0Wymiary-PL
 62
   140
 48
4.0
100
AcDbMText
 10
75917.11600031564
 20
-5114.716773994555
 30
0.0
 40
80.0
 41
0.0
 71
     5
 72
     1
  1
\A1;376
  7
ROMANS
 11
0.0000000000000001
 21
1.0
 31
0.0
 73
     1
 44
1.0
1001
ACAD
1000
MTEXTBEGIN
1070
    73
1070
     1
1070
    44
1040
1.0
1070
    74
1070
     0
1000
MTEXTEND
  0
POINT
  5
159
330
153
100
AcDbEntity
  8
Defpoints
 62
     0
 48
4.0
100
AcDbPoint
 10
75846.77909090789
 20
-4926.716773994558
 30
0.0
  0
POINT
  5
15A
330
153
100
AcDbEntity
  8
Defpoints
 62
     0
 48
4.0
100
AcDbPoint
 10
75756.77909090797
 20
-5302.716773994578
 30
0.0
  0
POINT
  5
15B
330
153
100
AcDbEntity
  8
Defpoints
 62
     0
 48
4.0
100
AcDbPoint
 10
75997.11600031564
 20
-5302.716773994578
 30
0.0
  0
ENDBLK
  5
15C
330
153
100
AcDbEntity
  8
0
 48
4.0
100
AcDbBlockEnd
  0
BLOCK
  5
15F
330
15E
100
AcDbEntity
  8
0
 48
4.0
100
AcDbBlockBegin
  2
*D15
 70
     1
 10
0.0
 20
0.0
 30
0.0
  3
*D15
  1

  0
LINE
  5
160
330
15E
100
AcDbEntity
  8
0Wymiary-PL
 62
     1
 48
4.0
370
    -2
100
AcDbLine
 10
75997.11600031564
 20
-5272.716773994579
 30
0.0
 11
75997.11600031564
 21
-5242.716773994579
 31
0.0
  0
LINE
  5
161
330
15E
100
AcDbEntity
  8
0Wymiary-PL
 62
     1
 48
4.0
370
    -2
100
AcDbLine
 10
75997.11600031564
 20
-5478.71677399468
 30
0.0
 11
75997.11600031564
 21
-5508.71677399468
 31
0.0
  0
LINE
  5
162
330
15E
100
AcDbEntity
  8
0Wymiary-PL
 62
     1
 48
4.0
370
    -2
100
AcDbLine
 10
75997.11600031564
 20
-5302.716773994578
 30
0.0
 11
75997.11600031564
 21
-5448.71677399468
 31
0.0
  0
INSERT
  5
163
330
15E
100
AcDbEntity
  8
0Wymiary-PL
 62
     1
 48
4.0
370
    -2
100
AcDbBlockReference
  2
B-DIM
 10
75997.11600031564
 20
-5302.716773994578
 30
0.0
 41
30.0
 42
30.0
 43
30.0
 50
270.0
  0
INSERT
  5
164
330
15E
100
AcDbEntity
  8
0Wymiary-PL
 62
     1
 48
4.0
370
    -2
100
AcDbBlockReference
  2
B-DIM
 10
75997.11600031564
 20
-5448.71677399468
 30
0.0
 41
30.0
 42
30.0
 43
30.0
 50
90.0
  0
MTEXT
  5
165
330
15E
100
AcDbEntity
  8
0Wymiary-PL
 62
   140
 48
4.0
100
AcDbMText
 10
75917.11600031564
 20
-5375.716773994617
 30
0.0
 40
80.0
 41
0.0
 71
     5
 72
     1
  1
\A1;146
  7
ROMANS
 11
0.0000000000000001
 21
1.0
 31
0.0
 73
     1
 44
1.0
1001
ACAD
1000
MTEXTBEGIN
1070
    73
1070
     1
1070
    44
1040
1.0
1070
    74
1070
     0
1000
MTEXTEND
  0
POINT
  5
166
330
15E
100
AcDbEntity
  8
Defpoints
 62
     0
 48
4.0
100
AcDbPoint
 10
75756.77909090797
 20
-5302.716773994578
 30
0.0
  0
POINT
  5
167
330
15E
100
AcDbEntity
  8
Defpoints
 62
     0
 48
4.0
100
AcDbPoint
 10
75338.77909090795
 20
-5448.716773994679
 30
0.0
  0
POINT
  5
168
330
15E
100
AcDbEntity
  8
Defpoints
 62
     0
 48
4.0
100
AcDbPoint
 10
75997.11600031564
 20
-5448.71677399468
 30
0.0
  0
ENDBLK
  5
169
330
15E
100
AcDbEntity
  8
0
 48
4.0
100
AcDbBlockEnd
  0
BLOCK
  5
16C
330
16B
100
AcDbEntity
  8
0
 48
4.0
100
AcDbBlockBegin
  2
*D16
 70
     1
 10
0.0
 20
0.0
 30
0.0
  3
*D16
  1

  0
LINE
  5
16D
330
16B
100
AcDbEntity
  8
0Wymiary-PL
 62
     1
 48
4.0
370
    -2
100
AcDbLine
 10
76216.28846252707
 20
-5418.71677399468
 30
0.0
 11
76216.28846252707
 21
-4308.716773994563
 31
0.0
  0
INSERT
  5
16E
330
16B
100
AcDbEntity
  8
0Wymiary-PL
 62
     1
 48
4.0
370
    -2
100
AcDbBlockReference
  2
B-DIM
 10
76216.28846252707
 20
-5448.71677399468
 30
0.0
 41
30.0
 42
30.0
 43
30.0
 50
270.0
  0
INSERT
  5
16F
330
16B
100
AcDbEntity
  8
0Wymiary-PL
 62
     1
 48
4.0
370
    -2
100
AcDbBlockReference
  2
B-DIM
 10
76216.28846252707
 20
-4278.716773994564
 30
0.0
 41
30.0
 42
30.0
 43
30.0
 50
90.0
  0
MTEXT
  5
170
330
16B
100
AcDbEntity
  8
0Wymiary-PL
 62
   140
 48
4.0
100
AcDbMText
 10
76136.28846252707
 20
-4863.71677399461
 30
0.0
 40
80.0
 41
0.0
 71
     5
 72
     1
  1
\A1;1170
  7
ROMANS
 11
0.0000000000000001
 21
1.0
 31
0.0
 73
     1
 44
1.0
1001
ACAD
1000
MTEXTBEGIN
1070
    73
1070
     1
1070
    44
1040
1.0
1070
    74
1070
     0
1000
MTEXTEND
  0
POINT
  5
171
330
16B
100
AcDbEntity
  8
Defpoints
 62
     0
 48
4.0
100
AcDbPoint
 10
75338.77909090795
 20
-5448.716773994679
 30
0.0
  0
POINT
  5
172
330
16B
100
AcDbEntity
  8
Defpoints
 62
     0
 48
4.0
100
AcDbPoint
 10
75756.77909090797
 20
-4278.716773994563
 30
0.0
  0
POINT
  5
173
330
16B
100
AcDbEntity
  8
Defpoints
 62
     0
 48
4.0
100
AcDbPoint
 10
76216.28846252707
 20
-4278.716773994564
 30
0.0
  0
ENDBLK
  5
174
330
16B
100
AcDbEntity
  8
0
 48
4.0
100
AcDbBlockEnd
  0
BLOCK
  5
177
330
176
100
AcDbEntity
  8
0
 48
4.0
100
AcDbBlockBegin
  2
*D17
 70
     1
 10
0.0
 20
0.0
 30
0.0
  3
*D17
  1

  0
LINE
  5
178
330
176
100
AcDbEntity
  8
0
 62
     1
370
    -2
100
AcDbLine
 10
75876.77909090789
 20
-5865.86692359062
 30
0.0
 11
75906.77909090789
 21
-5865.86692359062
 31
0.0
  0
LINE
  5
179
330
176
100
AcDbEntity
  8
0
 62
     1
370
    -2
100
AcDbLine
 10
75726.77909090796
 20
-5865.86692359062
 30
0.0
 11
75696.77909090796
 21
-5865.86692359062
 31
0.0
  0
LINE
  5
17A
330
176
100
AcDbEntity
  8
0
 62
     1
370
    -2
100
AcDbLine
 10
75846.77909090789
 20
-5865.86692359062
 30
0.0
 11
75756.77909090797
 21
-5865.86692359062
 31
0.0
  0
INSERT
  5
17B
330
176
100
AcDbEntity
  8
0
 62
     1
370
    -2
100
AcDbBlockReference
  2
B-DIM
 10
75846.77909090789
 20
-5865.86692359062
 30
0.0
 41
30.0
 42
30.0
 43
30.0
 50
180.0
  0
INSERT
  5
17C
330
176
100
AcDbEntity
  8
0
 62
     1
370
    -2
100
AcDbBlockReference
  2
B-DIM
 10
75756.77909090797
 20
-5865.86692359062
 30
0.0
 41
30.0
 42
30.0
 43
30.0
  0
MTEXT
  5
17D
330
176
100
AcDbEntity
  8
0
 62
   140
370
     5
100
AcDbMText
 10
75801.77909090791
 20
-5785.86692359062
 30
0.0
 40
80.0
 41
0.0
 71
     5
 72
     1
  1
\A1;90
  7
ROMANS
 73
     1
 44
1.0
1001
ACAD
1000
MTEXTBEGIN
1070
    73
1070
     1
1070
    44
1040
1.0
1070
    74
1070
     0
1000
MTEXTEND
  0
POINT
  5
17E
330
176
100
AcDbEntity
  8
Defpoints
 62
     0
100
AcDbPoint
 10
75846.77909090789
 20
-4926.716773994558
 30
0.0
  0
POINT
  5
17F
330
176
100
AcDbEntity
  8
Defpoints
 62
     0
100
AcDbPoint
 10
75756.77909090797
 20
-5302.716773994578
 30
0.0
  0
POINT
  5
180
330
176
100
AcDbEntity
  8
Defpoints
 62
     0
100
AcDbPoint
 10
75756.77909090797
 20
-5865.86692359062
 30
0.0
  0
ENDBLK
  5
181
330
176
100
AcDbEntity
  8
0
 48
4.0
100
AcDbBlockEnd
  0
BLOCK
  5
184
330
183
100
AcDbEntity
  8
0
 48
4.0
100
AcDbBlockBegin
  2
*D18
 70
     1
 10
0.0
 20
0.0
 30
0.0
  3
*D18
  1

  0
LINE
  5
185
330
183
100
AcDbEntity
  8
0
 62
     1
370
    -2
100
AcDbLine
 10
75726.77909090796
 20
-5865.86692359062
 30
0.0
 11
75368.77909090795
 21
-5865.86692359062
 31
0.0
  0
INSERT
  5
186
330
183
100
AcDbEntity
  8
0
 62
     1
370
    -2
100
AcDbBlockReference
  2
B-DIM
 10
75756.77909090797
 20
-5865.86692359062
 30
0.0
 41
30.0
 42
30.0
 43
30.0
  0
INSERT
  5
187
330
183
100
AcDbEntity
  8
0
 62
     1
370
    -2
100
AcDbBlockReference
  2
B-DIM
 10
75338.77909090795
 20
-5865.86692359062
 30
0.0
 41
30.0
 42
30.0
 43
30.0
 50
180.0
  0
MTEXT
  5
188
330
183
100
AcDbEntity
  8
0
 62
   140
370
     5
100
AcDbMText
 10
75547.77909090795
 20
-5785.86692359062
 30
0.0
 40
80.0
 41
0.0
 71
     5
 72
     1
  1
\A1;418
  7
ROMANS
 73
     1
 44
1.0
1001
ACAD
1000
MTEXTBEGIN
1070
    73
1070
     1
1070
    44
1040
1.0
1070
    74
1070
     0
1000
MTEXTEND
  0
POINT
  5
189
330
183
100
AcDbEntity
  8
Defpoints
 62
     0
100
AcDbPoint
 10
75756.77909090797
 20
-5302.716773994578
 30
0.0
  0
POINT
  5
18A
330
183
100
AcDbEntity
  8
Defpoints
 62
     0
100
AcDbPoint
 10
75338.77909090795
 20
-5448.716773994568
 30
0.0
  0
POINT
  5
18B
330
183
100
AcDbEntity
  8
Defpoints
 62
     0
100
AcDbPoint
 10
75338.77909090795
 20
-5865.86692359062
 30
0.0
  0
ENDBLK
  5
18C
330
183
100
AcDbEntity
  8
0
 48
4.0
100
AcDbBlockEnd
  0
BLOCK
  5
18F
330
18E
100
AcDbEntity
  8
0
 48
4.0
100
AcDbBlockBegin
  2
*D19
 70
     1
 10
0.0
 20
0.0
 30
0.0
  3
*D19
  1

  0
LINE
  5
190
330
18E
100
AcDbEntity
  8
0
 62
     1
370
    -2
100
AcDbLine
 10
75308.77909090794
 20
-5865.86692359062
 30
0.0
 11
74696.77909090798
 21
-5865.86692359062
 31
0.0
  0
INSERT
  5
191
330
18E
100
AcDbEntity
  8
0
 62
     1
370
    -2
100
AcDbBlockReference
  2
B-DIM
 10
75338.77909090795
 20
-5865.86692359062
 30
0.0
 41
30.0
 42
30.0
 43
30.0
  0
INSERT
  5
192
330
18E
100
AcDbEntity
  8
0
 62
     1
370
    -2
100
AcDbBlockReference
  2
B-DIM
 10
74666.77909090797
 20
-5865.86692359062
 30
0.0
 41
30.0
 42
30.0
 43
30.0
 50
180.0
  0
MTEXT
  5
193
330
18E
100
AcDbEntity
  8
0
 62
   140
370
     5
100
AcDbMText
 10
75002.77909090796
 20
-5785.86692359062
 30
0.0
 40
80.0
 41
0.0
 71
     5
 72
     1
  1
\A1;672
  7
ROMANS
 73
     1
 44
1.0
1001
ACAD
1000
MTEXTBEGIN
1070
    73
1070
     1
1070
    44
1040
1.0
1070
    74
1070
     0
1000
MTEXTEND
  0
POINT
  5
194
330
18E
100
AcDbEntity
  8
Defpoints
 62
     0
100
AcDbPoint
 10
75338.77909090795
 20
-5448.716773994568
 30
0.0
  0
POINT
  5
195
330
18E
100
AcDbEntity
  8
Defpoints
 62
     0
100
AcDbPoint
 10
74666.77909090797
 20
-5448.716773994633
 30
0.0
  0
POINT
  5
196
330
18E
100
AcDbEntity
  8
Defpoints
 62
     0
100
AcDbPoint
 10
74666.77909090797
 20
-5865.86692359062
 30
0.0
  0
ENDBLK
  5
197
330
18E
100
AcDbEntity
  8
0
 48
4.0
100
AcDbBlockEnd
  0
BLOCK
  5
19A
330
199
100
AcDbEntity
  8
0
 48
4.0
100
AcDbBlockBegin
  2
*D20
 70
     1
 10
0.0
 20
0.0
 30
0.0
  3
*D20
  1

  0
LINE
  5
19B
330
199
100
AcDbEntity
  8
0
 62
     1
370
    -2
100
AcDbLine
 10
74636.77909090797
 20
-5865.86692359062
 30
0.0
 11
74278.77909090795
 21
-5865.86692359062
 31
0.0
  0
INSERT
  5
19C
330
199
100
AcDbEntity
  8
0
 62
     1
370
    -2
100
AcDbBlockReference
  2
B-DIM
 10
74666.77909090797
 20
-5865.86692359062
 30
0.0
 41
30.0
 42
30.0
 43
30.0
  0
INSERT
  5
19D
330
199
100
AcDbEntity
  8
0
 62
     1
370
    -2
100
AcDbBlockReference
  2
B-DIM
 10
74248.77909090795
 20
-5865.86692359062
 30
0.0
 41
30.0
 42
30.0
 43
30.0
 50
180.0
  0
MTEXT
  5
19E
330
199
100
AcDbEntity
  8
0
 62
   140
370
     5
100
AcDbMText
 10
74457.77909090796
 20
-5785.86692359062
 30
0.0
 40
80.0
 41
0.0
 71
     5
 72
     1
  1
\A1;418
  7
ROMANS
 73
     1
 44
1.0
1001
ACAD
1000
MTEXTBEGIN
1070
    73
1070
     1
1070
    44
1040
1.0
1070
    74
1070
     0
1000
MTEXTEND
  0
POINT
  5
19F
330
199
100
AcDbEntity
  8
Defpoints
 62
     0
100
AcDbPoint
 10
74666.77909090797
 20
-5448.716773994633
 30
0.0
  0
POINT
  5
1A0
330
199
100
AcDbEntity
  8
Defpoints
 62
     0
100
AcDbPoint
 10
74248.77909090795
 20
-5302.716773994558
 30
0.0
  0
POINT
  5
1A1
330
199
100
AcDbEntity
  8
Defpoints
 62
     0
100
AcDbPoint
 10
74248.77909090795
 20
-5865.86692359062
 30
0.0
  0
ENDBLK
  5
1A2
330
199
100
AcDbEntity
  8
0
 48
4.0
100
AcDbBlockEnd
  0
BLOCK
  5
1A5
330
1A4
100
AcDbEntity
  8
0
 48
4.0
100
AcDbBlockBegin
  2
*D21
 70
     1
 10
0.0
 20
0.0
 30
0.0
  3
*D21
  1

  0
LINE
  5
1A6
330
1A4
100
AcDbEntity
  8
0Wymiary-PL
 62
     1
 48
4.0
370
    -2
100
AcDbLine
 10
74278.77909090795
 20
-5865.86692359062
 30
0.0
 11
74308.77909090795
 21
-5865.86692359062
 31
0.0
  0
LINE
  5
1A7
330
1A4
100
AcDbEntity
  8
0Wymiary-PL
 62
     1
 48
4.0
370
    -2
100
AcDbLine
 10
74128.77909090796
 20
-5865.86692359062
 30
0.0
 11
74098.77909090796
 21
-5865.86692359062
 31
0.0
  0
LINE
  5
1A8
330
1A4
100
AcDbEntity
  8
0Wymiary-PL
 62
     1
 48
4.0
370
    -2
100
AcDbLine
 10
74248.77909090795
 20
-5865.86692359062
 30
0.0
 11
74158.77909090796
 21
-5865.86692359062
 31
0.0
  0
INSERT
  5
1A9
330
1A4
100
AcDbEntity
  8
0Wymiary-PL
 62
     1
 48
4.0
370
    -2
100
AcDbBlockReference
  2
B-DIM
 10
74248.77909090795
 20
-5865.86692359062
 30
0.0
 41
30.0
 42
30.0
 43
30.0
 50
180.0
  0
INSERT
  5
1AA
330
1A4
100
AcDbEntity
  8
0Wymiary-PL
 62
     1
 48
4.0
370
    -2
100
AcDbBlockReference
  2
B-DIM
 10
74158.77909090796
 20
-5865.86692359062
 30
0.0
 41
30.0
 42
30.0
 43
30.0
  0
MTEXT
  5
1AB
330
1A4
100
AcDbEntity
  8
0Wymiary-PL
 62
   140
 48
4.0
100
AcDbMText
 10
74203.77909090794
 20
-5785.86692359062
 30
0.0
 40
80.0
 41
0.0
 71
     5
 72
     1
  1
\A1;90
  7
ROMANS
 73
     1
 44
1.0
1001
ACAD
1000
MTEXTBEGIN
1070
    73
1070
     1
1070
    44
1040
1.0
1070
    74
1070
     0
1000
MTEXTEND
  0
POINT
  5
1AC
330
1A4
100
AcDbEntity
  8
Defpoints
 62
     0
 48
4.0
100
AcDbPoint
 10
74248.77909090795
 20
-5302.716773994558
 30
0.0
  0
POINT
  5
1AD
330
1A4
100
AcDbEntity
  8
Defpoints
 62
     0
 48
4.0
100
AcDbPoint
 10
74158.77909090796
 20
-4926.716773994558
 30
0.0
  0
POINT
  5
1AE
330
1A4
100
AcDbEntity
  8
Defpoints
 62
     0
 48
4.0
100
AcDbPoint
 10
74158.77909090796
 20
-5865.86692359062
 30
0.0
  0
ENDBLK
  5
1AF
330
1A4
100
AcDbEntity
  8
0
 48
4.0
100
AcDbBlockEnd
  0
BLOCK
  5
1B2
330
1B1
100
AcDbEntity
  8
0
 48
4.0
100
AcDbBlockBegin
  2
*D22
 70
     1
 10
0.0
 20
0.0
 30
0.0
  3
*D22
  1

  0
LINE
  5
1B3
330
1B1
100
AcDbEntity
  8
0
 62
     1
370
    -2
100
AcDbLine
 10
75816.77909090789
 20
-6039.712917945639
 30
0.0
 11
74188.77909090796
 21
-6039.712917945639
 31
0.0
  0
INSERT
  5
1B4
330
1B1
100
AcDbEntity
  8
0
 62
     1
370
    -2
100
AcDbBlockReference
  2
B-DIM
 10
75846.77909090789
 20
-6039.712917945639
 30
0.0
 41
30.0
 42
30.0
 43
30.0
  0
INSERT
  5
1B5
330
1B1
100
AcDbEntity
  8
0
 62
     1
370
    -2
100
AcDbBlockReference
  2
B-DIM
 10
74158.77909090796
 20
-6039.712917945639
 30
0.0
 41
30.0
 42
30.0
 43
30.0
 50
180.0
  0
MTEXT
  5
1B6
330
1B1
100
AcDbEntity
  8
0
 62
   140
370
     5
100
AcDbMText
 10
75002.77909090792
 20
-5959.712917945639
 30
0.0
 40
80.0
 41
0.0
 71
     5
 72
     1
  1
\A1;1688
  7
ROMANS
 73
     1
 44
1.0
1001
ACAD
1000
MTEXTBEGIN
1070
    73
1070
     1
1070
    44
1040
1.0
1070
    74
1070
     0
1000
MTEXTEND
  0
POINT
  5
1B7
330
1B1
100
AcDbEntity
  8
Defpoints
 62
     0
100
AcDbPoint
 10
75846.77909090789
 20
-4926.716773994558
 30
0.0
  0
POINT
  5
1B8
330
1B1
100
AcDbEntity
  8
Defpoints
 62
     0
100
AcDbPoint
 10
74158.77909090796
 20
-4926.716773994558
 30
0.0
  0
POINT
  5
1B9
330
1B1
100
AcDbEntity
  8
Defpoints
 62
     0
100
AcDbPoint
 10
74158.77909090796
 20
-6039.712917945639
 30
0.0
  0
ENDBLK
  5
1BA
330
1B1
100
AcDbEntity
  8
0
 48
4.0
100
AcDbBlockEnd
  0
ENDSEC
  0
SECTION
  2
ENTITIES
  0
TEXT
  5
10
330
2
100
AcDbEntity
  8
NAPISY
100
AcDbText
 10
69574.23894370514
 20
-12164.84774743853
 30
0.0
 40
100.0
  1
   O B R Y S   B U D Y N K U           S K A L A   1 : 5 0 0 
  7
AVA
100
AcDbText
  0
LINE
  5
16
330
2
100
AcDbEntity
  8
NAPISY
  6
DASHED
 62
     1
 48
4.0
370
     5
100
AcDbLine
 10
73327.57618730787
 20
-7168.854589374081
 30
0.0
 11
73327.57618730787
 21
-2014.799720314768
 31
0.0
  0
TEXT
  5
18
330
2
100
AcDbEntity
  8
NAPISY
370
     5
100
AcDbText
 10
73268.05501031455
 20
-7125.168753730381
 30
0.0
 40
100.0
  1
OŚ ODBICIA LUSTRZANEGO
 50
90.0
  7
AVA
100
AcDbText
  0
TEXT
  5
19
330
2
100
AcDbEntity
  8
NAPISY
100
AcDbText
 10
69670.45199482305
 20
298.5175134433375
 30
0.0
 40
150.0
  1
MOŻNA WKLEIĆ DO PROJEKTU ZAGOSPODAROWANIA TERENU
  7
AVA
100
AcDbText
  0
TEXT
  5
1A
330
2
100
AcDbEntity
  8
NAPISY
100
AcDbText
 10
69594.1167241879
 20
628.3859908060986
 30
0.0
 40
150.0
  1
"DOM W KLEMATISACH 9"
  7
AVA
100
AcDbText
  0
LWPOLYLINE
  5
1B
330
2
100
AcDbEntity
  8
RAMKI-A4
100
AcDbPolyline
 90
        4
 70
     1
 43
0.0
 10
68114.88699703016
 20
-12830.40383034106
 10
68114.88699703016
 20
1189.596169658936
 10
78314.88699703019
 20
1189.596169658936
 10
78314.88699703019
 20
-12830.40383034106
  0
LWPOLYLINE
  5
1F
102
{ACAD_REACTORS
330
2F
330
30
330
31
330
32
330
35
102
}
330
2
100
AcDbEntity
  8
0Hatch
 62
    54
 48
4.0
100
AcDbPolyline
 90
       16
 70
     1
 43
0.0
 10
72406.37328370779
 20
-4278.716773994563
 10
72406.37328370779
 20
-4654.716773994557
 10
72496.37328370778
 20
-4654.716773994557
 10
72496.37328370778
 20
-4926.716773994558
 10
72406.37328370779
 20
-4926.925678037836
 10
72406.37328370779
 20
-5302.716773994558
 10
71988.37328370776
 20
-5302.716773994578
 10
71988.37328370776
 20
-5448.716773994633
 10
71316.37328370779
 20
-5448.716773994679
 10
71316.37328370779
 20
-5302.716773994578
 10
70898.37328370778
 20
-5302.716773994578
 10
70898.37328370778
 20
-4926.925678037832
 10
70808.37328370786
 20
-4926.716773994558
 10
70808.37328370786
 20
-4654.716773994557
 10
70898.37328370778
 20
-4654.716773994557
 10
70898.37328370776
 20
-4278.716773994563
  0
LINE
  5
23
102
{ACAD_REACTORS
330
30
102
}
330
2
100
AcDbEntity
  8
0Hatch
 62
    54
 48
4.0
100
AcDbLine
 10
71925.34328370778
 20
-5448.716773994638
 30
0.0
 11
71925.34328370778
 21
-5388.716773994637
 31
0.0
  0
LINE
  5
24
102
{ACAD_REACTORS
330
31
102
}
330
2
100
AcDbEntity
  8
0Hatch
 62
    54
 48
4.0
100
AcDbLine
 10
71685.34328370778
 20
-5448.716773994624
 30
0.0
 11
71685.34328370776
 21
-5388.716773994653
 31
0.0
  0
LINE
  5
25
102
{ACAD_REACTORS
330
31
102
}
330
2
100
AcDbEntity
  8
0Hatch
 62
    54
 48
4.0
100
AcDbLine
 10
71619.40328370778
 20
-5448.716773994624
 30
0.0
 11
71619.40328370778
 21
-5388.716773994659
 31
0.0
  0
LINE
  5
26
102
{ACAD_REACTORS
330
32
102
}
330
2
100
AcDbEntity
  8
0Hatch
 62
    54
 48
4.0
100
AcDbLine
 10
71379.40328370778
 20
-5448.716773994675
 30
0.0
 11
71379.40328370778
 21
-5388.716773994675
 31
0.0
  0
LINE
  5
27
102
{ACAD_REACTORS
330
32
102
}
330
2
100
AcDbEntity
  8
0Hatch
 62
    54
 48
4.0
100
AcDbLine
 10
71279.87328370778
 20
-5302.716773994578
 30
0.0
 11
71279.87328370778
 21
-5242.716773994578
 31
0.0
  0
LINE
  5
28
102
{ACAD_REACTORS
330
2F
102
}
330
2
100
AcDbEntity
  8
0Hatch
 62
    54
 48
4.0
100
AcDbLine
 10
71179.87328370778
 20
-5302.716773994578
 30
0.0
 11
71179.87328370778
 21
-5242.716773994578
 31
0.0
  0
LINE
  5
29
102
{ACAD_REACTORS
330
30
102
}
330
2
100
AcDbEntity
  8
0Hatch
 62
    54
 48
4.0
100
AcDbLine
 10
72024.87328370779
 20
-5302.716773994576
 30
0.0
 11
72024.87328370779
 21
-5242.716773994576
 31
0.0
  0
LINE
  5
2A
102
{ACAD_REACTORS
330
2F
102
}
330
2
100
AcDbEntity
  8
0Hatch
 62
    54
 48
4.0
100
AcDbLine
 10
72124.87328370778
 20
-5302.716773994571
 30
0.0
 11
72124.87328370778
 21
-5242.716773994572
 31
0.0
  0
LWPOLYLINE
  5
2B
102
{ACAD_REACTORS
330
33
102
}
330
2
100
AcDbEntity
  8
0Hatch
 62
    54
 48
4.0
100
AcDbPolyline
 90
        4
 70
     1
 43
0.0
 10
72161.37328370778
 20
-5412.716773994576
 10
72185.37328370778
 20
-5412.716773994576
 10
72185.37328370778
 20
-5436.716773994516
 10
72161.37328370778
 20
-5436.716773994516
  0
LWPOLYLINE
  5
2C
102
{ACAD_REACTORS
330
34
102
}
330
2
100
AcDbEntity
  8
0Hatch
 62
    54
 48
4.0
100
AcDbPolyline
 90
        4
 70
     1
 43
0.0
 10
71119.86785644505
 20
-5412.826990576633
 10
71143.37328370778
 20
-5412.826990576633
 10
71143.37328370778
 20
-5436.716773994516
 10
71119.86785644505
 20
-5436.716773994516
  0
LWPOLYLINE
  5
2D
102
{ACAD_REACTORS
330
35
102
}
330
2
100
AcDbEntity
  8
0Hatch
 62
    54
 48
4.0
100
AcDbPolyline
 90
        4
 70
     0
 43
0.0
 10
71640.37328370779
 20
-4278.716773994563
 10
71640.37328370779
 20
-4078.716773994558
 10
71664.37328370778
 20
-4078.716773994558
 10
71664.37328370776
 20
-4278.716773994558
  0
LWPOLYLINE
  5
2E
102
{ACAD_REACTORS
330
2F
330
30
330
31
330
32
102
}
330
2
100
AcDbEntity
  8
0Hatch
 62
    54
 48
4.0
100
AcDbPolyline
 90
       16
 70
     1
 43
0.0
 10
72346.37328370778
 20
-4338.716773994564
 10
72346.37328370778
 20
-4714.716773994558
 10
72436.37328370779
 20
-4714.716773994558
 10
72436.37328370779
 20
-4866.855881724001
 10
72346.37328370778
 20
-4867.064785767279
 10
72346.3732837078
 20
-5242.716773994562
 10
71928.37328370777
 20
-5242.716773994581
 10
71928.37328370777
 20
-5388.716773994637
 10
71376.3732837078
 20
-5388.716773994675
 10
71376.37328370778
 20
-5242.716773994578
 10
70958.37328370778
 20
-5242.716773994578
 10
70958.37328370778
 20
-4867.064785767274
 10
70868.37328370785
 20
-4866.855881723998
 10
70868.37328370785
 20
-4714.716773994558
 10
70958.37328370778
 20
-4714.716773994558
 10
70958.37328370777
 20
-4338.716773994562
  0
HATCH
  5
2F
330
2
100
AcDbEntity
  8
0Hatch
 62
    54
 48
4.0
100
AcDbHatch
 10
0.0
 20
0.0
 30
0.0
210
0.0
220
0.0
230
1.0
  2
SOLID
 70
     1
 71
     1
 91
        1
 92
        7
 72
     0
 73
     1
 93
       28
 10
72496.37328370778
 20
-4654.716773994557
 10
72406.37328370779
 20
-4654.716773994559
 10
72406.37328370779
 20
-4278.716773994563
 10
70898.37328370776
 20
-4278.716773994564
 10
70898.37328370778
 20
-4654.716773994557
 10
70808.37328370784
 20
-4654.716773994557
 10
70808.37328370786
 20
-4926.716773994559
 10
70898.37328370778
 20
-4926.925678037833
 10
70898.37328370778
 20
-5302.716773994578
 10
71179.87328370778
 20
-5302.716773994578
 10
71179.87328370778
 20
-5242.716773994578
 10
70958.37328370777
 20
-5242.716773994579
 10
70958.37328370778
 20
-4867.064785767276
 10
70868.37328370785
 20
-4866.855881723998
 10
70868.37328370785
 20
-4714.716773994559
 10
70958.37328370778
 20
-4714.716773994558
 10
70958.37328370777
 20
-4338.716773994561
 10
72346.37328370778
 20
-4338.716773994564
 10
72346.37328370778
 20
-4714.716773994559
 10
72436.37328370779
 20
-4714.716773994558
 10
72436.37328370779
 20
-4866.855881724001
 10
72346.37328370778
 20
-4867.064785767278
 10
72346.37328370778
 20
-5242.716773994561
 10
72124.87328370778
 20
-5242.716773994573
 10
72124.87328370779
 20
-5302.716773994571
 10
72406.37328370779
 20
-5302.716773994557
 10
72406.37328370779
 20
-4926.925678037838
 10
72496.37328370778
 20
-4926.716773994558
 97
        4
330
1F
330
28
330
2E
330
2A
 75
     0
 76
     1
 47
3.947155575955306
 98
        1
 10
72466.42764419885
 20
-4776.105993136487
1001
ACAD
1010
0.0
1020
0.0
1030
0.0
  0
HATCH
  5
30
330
2
100
AcDbEntity
  8
0Hatch
 62
    54
 48
4.0
100
AcDbHatch
 10
0.0
 20
0.0
 30
0.0
210
0.0
220
0.0
230
1.0
  2
SOLID
 70
     1
 71
     1
 91
        1
 92
        7
 72
     0
 73
     1
 93
        8
 10
72024.87328370779
 20
-5242.716773994575
 10
71928.37328370777
 20
-5242.71677399458
 10
71928.37328370777
 20
-5388.716773994637
 10
71925.34328370778
 20
-5388.716773994638
 10
71925.34328370778
 20
-5448.716773994637
 10
71988.37328370776
 20
-5448.716773994633
 10
71988.37328370776
 20
-5302.716773994578
 10
72024.87328370779
 20
-5302.716773994576
 97
        4
330
2E
330
23
330
1F
330
29
 75
     0
 76
     1
 47
3.947155575955306
 98
        1
 10
71980.58204875644
 20
-5293.183395177853
1001
ACAD
1010
0.0
1020
0.0
1030
0.0
  0
HATCH
  5
31
330
2
100
AcDbEntity
  8
0Hatch
 62
    54
 48
4.0
100
AcDbHatch
 10
0.0
 20
0.0
 30
0.0
210
0.0
220
0.0
230
1.0
  2
SOLID
 70
     1
 71
     1
 91
        1
 92
        7
 72
     0
 73
     1
 93
        4
 10
71685.34328370776
 20
-5388.716773994653
 10
71619.40328370778
 20
-5388.716773994659
 10
71619.40328370778
 20
-5448.716773994658
 10
71685.34328370778
 20
-5448.716773994654
 97
        4
330
2E
330
25
330
1F
330
24
 75
     0
 76
     1
 47
3.947155575955306
 98
        1
 10
71648.78514402316
 20
-5411.598065656792
1001
ACAD
1010
0.0
1020
0.0
1030
0.0
  0
HATCH
  5
32
330
2
100
AcDbEntity
  8
0Hatch
 62
    54
 48
4.0
100
AcDbHatch
 10
0.0
 20
0.0
 30
0.0
210
0.0
220
0.0
230
1.0
  2
SOLID
 70
     1
 71
     1
 91
        1
 92
        7
 72
     0
 73
     1
 93
        8
 10
71376.37328370778
 20
-5242.716773994578
 10
71279.87328370778
 20
-5242.716773994578
 10
71279.87328370778
 20
-5302.716773994578
 10
71316.37328370777
 20
-5302.716773994577
 10
71316.37328370779
 20
-5448.716773994679
 10
71379.40328370778
 20
-5448.716773994675
 10
71379.40328370778
 20
-5388.716773994675
 10
71376.37328370781
 20
-5388.716773994676
 97
        4
330
2E
330
27
330
1F
330
26
 75
     0
 76
     1
 47
3.947155575955306
 98
        1
 10
71336.73793747434
 20
-5387.915118503857
1001
ACAD
1010
0.0
1020
0.0
1030
0.0
  0
HATCH
  5
33
330
2
100
AcDbEntity
  8
0Hatch
 62
    54
 48
4.0
100
AcDbHatch
 10
0.0
 20
0.0
 30
0.0
210
0.0
220
0.0
230
1.0
  2
SOLID
 70
     1
 71
     1
 91
        1
 92
        7
 72
     0
 73
     1
 93
        4
 10
72185.37328370777
 20
-5412.716773994576
 10
72161.37328370778
 20
-5412.716773994576
 10
72161.37328370778
 20
-5436.716773994516
 10
72185.37328370778
 20
-5436.716773994516
 97
        1
330
2B
 75
     0
 76
     1
 47
3.947155575955306
 98
        1
 10
72174.13027896741
 20
-5427.386664449223
1001
ACAD
1010
0.0
1020
0.0
1030
0.0
  0
HATCH
  5
34
330
2
100
AcDbEntity
  8
0Hatch
 62
    54
 48
4.0
100
AcDbHatch
 10
0.0
 20
0.0
 30
0.0
210
0.0
220
0.0
230
1.0
  2
SOLID
 70
     1
 71
     1
 91
        1
 92
        7
 72
     0
 73
     1
 93
        4
 10
71143.3732837078
 20
-5412.826990576633
 10
71119.86785644505
 20
-5412.826990576633
 10
71119.86785644506
 20
-5436.716773994516
 10
71143.37328370778
 20
-5436.716773994517
 97
        1
330
2C
 75
     0
 76
     1
 47
3.947155575955306
 98
        1
 10
71127.38990577592
 20
-5427.386664449223
1001
ACAD
1010
0.0
1020
0.0
1030
0.0
  0
HATCH
  5
35
330
2
100
AcDbEntity
  8
0Hatch
 62
    54
 48
4.0
100
AcDbHatch
 10
0.0
 20
0.0
 30
0.0
210
0.0
220
0.0
230
1.0
  2
SOLID
 70
     1
 71
     1
 91
        1
 92
        7
 72
     0
 73
     1
 93
        4
 10
71664.37328370778
 20
-4078.716773994558
 10
71640.37328370779
 20
-4078.716773994557
 10
71640.37328370779
 20
-4278.716773994563
 10
71664.37328370776
 20
-4278.716773994563
 97
        2
330
2D
330
1F
 75
     0
 76
     1
 47
1.942795574514405
 98
        1
 10
71651.43424853353
 20
-4163.567104074318
1001
ACAD
1010
0.0
1020
0.0
1030
0.0
  0
LINE
  5
36
330
2
100
AcDbEntity
  8
0Hatch
 62
    54
 48
4.0
100
AcDbLine
 10
71640.37328370779
 20
-5508.716773994558
 30
0.0
 11
71640.37328370779
 21
-5698.716773994558
 31
0.0
  0
LINE
  5
37
330
2
100
AcDbEntity
  8
0Hatch
 62
    54
 48
4.0
100
AcDbLine
 10
71988.37328370776
 20
-5698.716773994558
 30
0.0
 11
71988.37328370776
 21
-5508.716773994558
 31
0.0
  0
LINE
  5
38
330
2
100
AcDbEntity
  8
0Hatch
 62
    54
 48
4.0
100
AcDbLine
 10
71640.37328370779
 20
-5448.716773994633
 30
0.0
 11
71640.37328370779
 21
-5508.716773994558
 31
0.0
  0
LINE
  5
39
330
2
100
AcDbEntity
  8
0Hatch
 62
    54
 48
4.0
100
AcDbLine
 10
71640.37328370779
 20
-5698.716773994558
 30
0.0
 11
71988.37328370776
 21
-5698.716773994558
 31
0.0
  0
LINE
  5
3A
330
2
100
AcDbEntity
  8
0Hatch
 62
    54
 48
4.0
390
3B
100
AcDbLine
 10
71988.37328370776
 20
-5508.716773994572
 30
0.0
 11
72317.37328370778
 21
-5508.716773994572
 31
0.0
  0
LINE
  5
3C
330
2
100
AcDbEntity
  8
0Hatch
 62
    54
 48
4.0
390
3B
100
AcDbLine
 10
72317.37328370778
 20
-5508.716773994572
 30
0.0
 11
72317.37328370778
 21
-5302.716773994562
 31
0.0
  0
3DFACE
  5
3D
330
2
100
AcDbEntity
  8
0Hatch
 62
    54
 48
4.0
100
AcDbFace
 10
71988.37328370776
 20
-5508.716773994572
 30
0.0
 11
72317.37328370778
 21
-5508.716773994572
 31
0.0
 12
72197.37328370778
 22
-5448.716773994568
 32
0.0
 13
71988.37328370776
 23
-5448.716773994568
 33
0.0
 70
     2
  0
3DFACE
  5
3E
330
2
100
AcDbEntity
  8
0Hatch
 62
    54
 48
4.0
100
AcDbFace
 10
72317.37328370778
 20
-5508.716773994572
 30
0.0
 11
71988.37328370776
 21
-5508.716773994572
 31
0.0
 12
71988.37328370776
 22
-5508.716773994572
 32
0.0
 13
72317.37328370778
 23
-5508.716773994572
 33
0.0
  0
3DFACE
  5
3F
330
2
100
AcDbEntity
  8
0Hatch
 62
    54
 48
4.0
100
AcDbFace
 10
72197.37328370778
 20
-5448.716773994568
 30
0.0
 11
72197.37328370778
 21
-5302.716773994558
 31
0.0
 12
72197.37328370778
 22
-5302.716773994558
 32
0.0
 13
72197.37328370778
 23
-5448.716773994568
 33
0.0
  0
LINE
  5
40
330
2
100
AcDbEntity
  8
0Hatch
 62
    54
 48
4.0
390
3B
100
AcDbLine
 10
72254.87328370778
 20
-4278.716773994558
 30
0.0
 11
72254.87328370778
 21
-4052.716773994557
 31
0.0
  0
LINE
  5
41
330
2
100
AcDbEntity
  8
0Hatch
 62
    54
 48
4.0
390
3B
100
AcDbLine
 10
72254.87328370778
 20
-4052.716773994557
 30
0.0
 11
71640.37328370779
 21
-4052.716773994558
 31
0.0
  0
3DFACE
  5
42
330
2
100
AcDbEntity
  8
0Hatch
 62
    54
 48
4.0
100
AcDbFace
 10
71640.37328370779
 20
-4078.716773994558
 30
0.0
 11
72254.87328370778
 21
-4052.716773994557
 31
0.0
 12
71640.37328370779
 22
-4052.716773994558
 32
0.0
 13
71640.37328370779
 23
-4078.716773994558
 33
0.0
 70
     1
  0
3DFACE
  5
43
330
2
100
AcDbEntity
  8
0Hatch
 62
    54
 48
4.0
100
AcDbFace
 10
71640.37328370779
 20
-4052.716773994558
 30
0.0
 11
72254.87328370778
 21
-4052.716773994557
 31
0.0
 12
72254.87328370778
 22
-4052.716773994557
 32
0.0
 13
71640.37328370779
 23
-4052.716773994558
 33
0.0
  0
3DFACE
  5
44
330
2
100
AcDbEntity
  8
0Hatch
 62
    54
 48
4.0
100
AcDbFace
 10
72254.87328370778
 20
-4052.716773994557
 30
0.0
 11
72254.87328370778
 21
-4278.716773994558
 31
0.0
 12
72254.87328370778
 22
-4278.716773994558
 32
0.0
 13
72254.87328370778
 23
-4052.716773994557
 33
0.0
  0
LINE
  5
45
330
2
100
AcDbEntity
  8
0Hatch
 62
    54
 48
4.0
390
3B
100
AcDbLine
 10
72396.87328370778
 20
-4278.716773994558
 30
0.0
 11
72396.87328370778
 21
-4017.716773994558
 31
0.0
  0
LINE
  5
46
330
2
100
AcDbEntity
  8
G-Anno-Nplt
  6
PHANTOM2
 62
   160
370
    18
390
3B
100
AcDbLine
 10
71787.87328370778
 20
-4017.716773994558
 30
0.0
 11
71787.87328370778
 21
-4052.716773994558
 31
0.0
  0
LINE
  5
4B
330
2
100
AcDbEntity
  8
0Hatch
 62
    54
 48
4.0
390
3B
100
AcDbLine
 10
71787.87328370778
 20
-4052.716773994558
 30
0.0
 11
72254.87328370778
 21
-4052.716773994558
 31
0.0
  0
LINE
  5
4C
330
2
100
AcDbEntity
  8
0Hatch
 62
    54
 48
4.0
390
3B
100
AcDbLine
 10
72254.87328370778
 20
-4052.716773994558
 30
0.0
 11
72254.87328370778
 21
-4278.716773994558
 31
0.0
  0
3DFACE
  5
4D
330
2
100
AcDbEntity
  8
0Hatch
 62
    54
 48
4.0
100
AcDbFace
 10
72396.87328370778
 20
-4278.716773994558
 30
0.0
 11
72396.87328370778
 21
-4017.716773994558
 31
0.0
 12
72254.87328370778
 22
-4052.716773994558
 32
0.0
 13
72254.87328370778
 23
-4278.716773994558
 33
0.0
 70
     2
  0
3DFACE
  5
4E
330
2
100
AcDbEntity
  8
0Hatch
 62
    54
 48
4.0
100
AcDbFace
 10
72254.87328370778
 20
-4278.716773994558
 30
0.0
 11
72254.87328370778
 21
-4052.716773994558
 31
0.0
 12
72254.87328370778
 22
-4052.716773994558
 32
0.0
 13
72254.87328370778
 23
-4278.716773994558
 33
0.0
  0
3DFACE
  5
4F
330
2
100
AcDbEntity
  8
0Hatch
 62
    54
 48
4.0
100
AcDbFace
 10
72254.87328370778
 20
-4052.716773994558
 30
0.0
 11
71787.87328370778
 21
-4052.716773994558
 31
0.0
 12
71787.87328370778
 22
-4052.716773994558
 32
0.0
 13
72254.87328370778
 23
-4052.716773994558
 33
0.0
  0
3DFACE
  5
50
330
2
100
AcDbEntity
  8
0Hatch
 62
    54
 48
4.0
100
AcDbFace
 10
71787.87328370778
 20
-4052.716773994558
 30
0.0
 11
71787.87328370778
 21
-4017.716773994558
 31
0.0
 12
71787.87328370778
 22
-4017.716773994558
 32
0.0
 13
71787.87328370778
 23
-4052.716773994558
 33
0.0
  0
3DFACE
  5
51
330
2
100
AcDbEntity
  8
0Hatch
 62
    54
 48
4.0
100
AcDbFace
 10
71787.87328370778
 20
-4017.716773994558
 30
0.0
 11
72396.87328370778
 21
-4017.716773994558
 31
0.0
 12
72396.87328370778
 22
-4017.716773994558
 32
0.0
 13
71787.87328370778
 23
-4017.716773994558
 33
0.0
  0
3DFACE
  5
52
330
2
100
AcDbEntity
  8
0Hatch
 62
    54
 48
4.0
100
AcDbFace
 10
72396.87328370778
 20
-4017.716773994558
 30
0.0
 11
72396.87328370778
 21
-4278.716773994558
 31
0.0
 12
72396.87328370778
 22
-4278.716773994558
 32
0.0
 13
72396.87328370778
 23
-4017.716773994558
 33
0.0
  0
LINE
  5
53
330
2
100
AcDbEntity
  8
0Hatch
 62
    54
 48
4.0
100
AcDbLine
 10
71664.37328370776
 20
-5508.716773994558
 30
0.0
 11
71664.37328370776
 21
-5698.716773994558
 31
0.0
  0
LINE
  5
54
330
2
100
AcDbEntity
  8
0Hatch
 62
    54
 48
4.0
100
AcDbLine
 10
71316.37328370779
 20
-5698.716773994558
 30
0.0
 11
71316.37328370779
 21
-5508.716773994558
 31
0.0
  0
LINE
  5
55
330
2
100
AcDbEntity
  8
0Hatch
 62
    54
 48
4.0
100
AcDbLine
 10
71664.37328370776
 20
-5448.716773994633
 30
0.0
 11
71664.37328370776
 21
-5508.716773994558
 31
0.0
  0
LINE
  5
56
330
2
100
AcDbEntity
  8
0Hatch
 62
    54
 48
4.0
100
AcDbLine
 10
71664.37328370776
 20
-5698.716773994558
 30
0.0
 11
71316.37328370779
 21
-5698.716773994558
 31
0.0
  0
LINE
  5
57
330
2
100
AcDbEntity
  8
0Hatch
 62
    54
 48
4.0
390
3B
100
AcDbLine
 10
71316.37328370779
 20
-5508.716773994572
 30
0.0
 11
70987.37328370777
 21
-5508.716773994572
 31
0.0
  0
3DFACE
  5
58
330
2
100
AcDbEntity
  8
0Hatch
 62
    54
 48
4.0
100
AcDbFace
 10
71316.37328370779
 20
-5448.716773994568
 30
0.0
 11
71107.37328370777
 21
-5448.716773994568
 31
0.0
 12
70987.37328370777
 22
-5508.716773994572
 32
0.0
 13
71316.37328370779
 23
-5508.716773994572
 33
0.0
 70
     2
  0
3DFACE
  5
59
330
2
100
AcDbEntity
  8
0Hatch
 62
    54
 48
4.0
100
AcDbFace
 10
70987.37328370777
 20
-5302.716773994578
 30
0.0
 11
70987.37328370777
 21
-5508.716773994572
 31
0.0
 12
70987.37328370777
 22
-5508.716773994572
 32
0.0
 13
70987.37328370777
 23
-5302.716773994578
 33
0.0
  0
3DFACE
  5
5A
330
2
100
AcDbEntity
  8
0Hatch
 62
    54
 48
4.0
100
AcDbFace
 10
70987.37328370777
 20
-5508.716773994572
 30
0.0
 11
71316.37328370779
 21
-5508.716773994572
 31
0.0
 12
71316.37328370779
 22
-5508.716773994572
 32
0.0
 13
70987.37328370777
 23
-5508.716773994572
 33
0.0
  0
3DFACE
  5
5B
330
2
100
AcDbEntity
  8
0Hatch
 62
    54
 48
4.0
100
AcDbFace
 10
71107.37328370777
 20
-5448.716773994568
 30
0.0
 11
71107.37328370777
 21
-5302.716773994558
 31
0.0
 12
71107.37328370777
 22
-5302.716773994558
 32
0.0
 13
71107.37328370777
 23
-5448.716773994568
 33
0.0
  0
LINE
  5
5C
330
2
100
AcDbEntity
  8
0Hatch
 62
    54
 48
4.0
390
3B
100
AcDbLine
 10
71049.87328370778
 20
-4278.716773994558
 30
0.0
 11
71049.87328370778
 21
-4052.716773994557
 31
0.0
  0
LINE
  5
5D
330
2
100
AcDbEntity
  8
0Hatch
 62
    54
 48
4.0
390
3B
100
AcDbLine
 10
71049.87328370778
 20
-4052.716773994557
 30
0.0
 11
71664.37328370778
 21
-4052.716773994558
 31
0.0
  0
3DFACE
  5
5E
330
2
100
AcDbEntity
  8
0Hatch
 62
    54
 48
4.0
100
AcDbFace
 10
71664.37328370778
 20
-4078.716773994558
 30
0.0
 11
71664.37328370778
 21
-4052.716773994558
 31
0.0
 12
71049.87328370778
 22
-4052.716773994557
 32
0.0
 13
71664.37328370778
 23
-4078.716773994558
 33
0.0
 70
     4
  0
3DFACE
  5
5F
330
2
100
AcDbEntity
  8
0Hatch
 62
    54
 48
4.0
100
AcDbFace
 10
71664.37328370778
 20
-4052.716773994558
 30
0.0
 11
71049.87328370778
 21
-4052.716773994557
 31
0.0
 12
71049.87328370778
 22
-4052.716773994557
 32
0.0
 13
71664.37328370778
 23
-4052.716773994558
 33
0.0
  0
3DFACE
  5
60
330
2
100
AcDbEntity
  8
0Hatch
 62
    54
 48
4.0
100
AcDbFace
 10
71049.87328370778
 20
-4052.716773994557
 30
0.0
 11
71049.87328370778
 21
-4278.716773994558
 31
0.0
 12
71049.87328370778
 22
-4278.716773994558
 32
0.0
 13
71049.87328370778
 23
-4052.716773994557
 33
0.0
  0
LINE
  5
61
330
2
100
AcDbEntity
  8
0Hatch
 62
    54
 48
4.0
390
3B
100
AcDbLine
 10
70907.87328370779
 20
-4278.716773994558
 30
0.0
 11
70907.87328370779
 21
-4017.716773994558
 31
0.0
  0
LINE
  5
62
330
2
100
AcDbEntity
  8
G-Anno-Nplt
  6
PHANTOM2
 62
   160
370
    18
390
3B
100
AcDbLine
 10
71516.87328370778
 20
-4017.716773994558
 30
0.0
 11
71516.87328370778
 21
-4052.716773994558
 31
0.0
  0
LINE
  5
63
330
2
100
AcDbEntity
  8
0Hatch
 62
    54
 48
4.0
390
3B
100
AcDbLine
 10
71516.87328370778
 20
-4052.716773994558
 30
0.0
 11
71049.87328370778
 21
-4052.716773994558
 31
0.0
  0
LINE
  5
64
330
2
100
AcDbEntity
  8
0Hatch
 62
    54
 48
4.0
390
3B
100
AcDbLine
 10
71049.87328370778
 20
-4052.716773994558
 30
0.0
 11
71049.87328370778
 21
-4278.716773994558
 31
0.0
  0
3DFACE
  5
65
330
2
100
AcDbEntity
  8
0Hatch
 62
    54
 48
4.0
100
AcDbFace
 10
71049.87328370778
 20
-4278.716773994558
 30
0.0
 11
71049.87328370778
 21
-4052.716773994558
 31
0.0
 12
70907.87328370779
 22
-4017.716773994558
 32
0.0
 13
70907.87328370779
 23
-4278.716773994558
 33
0.0
 70
     2
  0
3DFACE
  5
66
330
2
100
AcDbEntity
  8
0Hatch
 62
    54
 48
4.0
100
AcDbFace
 10
71049.87328370778
 20
-4278.716773994558
 30
0.0
 11
71049.87328370778
 21
-4052.716773994558
 31
0.0
 12
71049.87328370778
 22
-4052.716773994558
 32
0.0
 13
71049.87328370778
 23
-4278.716773994558
 33
0.0
  0
3DFACE
  5
67
330
2
100
AcDbEntity
  8
0Hatch
 62
    54
 48
4.0
100
AcDbFace
 10
71049.87328370778
 20
-4052.716773994558
 30
0.0
 11
71516.87328370778
 21
-4052.716773994558
 31
0.0
 12
71516.87328370778
 22
-4052.716773994558
 32
0.0
 13
71049.87328370778
 23
-4052.716773994558
 33
0.0
  0
3DFACE
  5
68
330
2
100
AcDbEntity
  8
0Hatch
 62
    54
 48
4.0
100
AcDbFace
 10
71516.87328370778
 20
-4052.716773994558
 30
0.0
 11
71516.87328370778
 21
-4017.716773994558
 31
0.0
 12
71516.87328370778
 22
-4017.716773994558
 32
0.0
 13
71516.87328370778
 23
-4052.716773994558
 33
0.0
  0
3DFACE
  5
69
330
2
100
AcDbEntity
  8
0Hatch
 62
    54
 48
4.0
100
AcDbFace
 10
71516.87328370778
 20
-4017.716773994558
 30
0.0
 11
70907.87328370779
 21
-4017.716773994558
 31
0.0
 12
70907.87328370779
 22
-4017.716773994558
 32
0.0
 13
71516.87328370778
 23
-4017.716773994558
 33
0.0
  0
3DFACE
  5
6A
330
2
100
AcDbEntity
  8
0Hatch
 62
    54
 48
4.0
100
AcDbFace
 10
70907.87328370779
 20
-4017.716773994558
 30
0.0
 11
70907.87328370779
 21
-4278.716773994558
 31
0.0
 12
70907.87328370779
 22
-4278.716773994558
 32
0.0
 13
70907.87328370779
 23
-4017.716773994558
 33
0.0
  0
DIMENSION
  5
6B
330
2
100
AcDbEntity
  8
0Wymiary-PL
 48
4.0
100
AcDbDimension
  2
*D1
 10
70658.0363743001
 20
-4654.716773994557
 30
0.0
 11
70578.0363743001
 21
-4466.71677399455
 31
0.0
 71
     5
 42
375.9999999999946
  3
500
100
AcDbAlignedDimension
 13
70898.37328370776
 23
-4278.716773994563
 33
0.0
 14
70808.37328370786
 24
-4654.716773994557
 34
0.0
 50
90.0
100
AcDbRotatedDimension
  0
DIMENSION
  5
84
330
2
100
AcDbEntity
  8
0Wymiary-PL
 48
4.0
100
AcDbDimension
  2
*D2
 10
70658.0363743001
 20
-4926.716773994558
 30
0.0
 11
70578.0363743001
 21
-4790.716773994547
 31
0.0
 71
     5
 42
272.0
  3
500
100
AcDbAlignedDimension
 13
70808.37328370786
 23
-4654.716773994557
 33
0.0
 14
70808.37328370786
 24
-4926.716773994558
 34
0.0
 50
90.0
100
AcDbRotatedDimension
  0
DIMENSION
  5
8F
330
2
100
AcDbEntity
  8
0Wymiary-PL
 48
4.0
100
AcDbDimension
  2
*D3
 10
70658.0363743001
 20
-5302.716773994578
 30
0.0
 11
70578.0363743001
 21
-5114.716773994557
 31
0.0
 71
     5
 42
376.00000000002
  3
500
100
AcDbAlignedDimension
 13
70808.37328370786
 23
-4926.716773994558
 33
0.0
 14
70898.37328370778
 24
-5302.716773994578
 34
0.0
 50
90.0
100
AcDbRotatedDimension
  0
DIMENSION
  5
9A
330
2
100
AcDbEntity
  8
0Hatch
 62
    54
 48
4.0
100
AcDbDimension
  2
*D4
 10
70658.0363743001
 20
-5448.716773994679
 30
0.0
 11
70578.0363743001
 21
-5375.716773994617
 31
0.0
 71
     5
 42
146.0000000001009
  3
500
100
AcDbAlignedDimension
 13
70898.37328370778
 23
-5302.716773994578
 33
0.0
 14
71316.37328370779
 24
-5448.716773994679
 34
0.0
 50
90.0
100
AcDbRotatedDimension
  0
DIMENSION
  5
A7
330
2
100
AcDbEntity
  8
0Hatch
 62
    54
 48
4.0
100
AcDbDimension
  2
*D5
 10
70438.86391208868
 20
-4278.716773994563
 30
0.0
 11
70358.86391208868
 21
-4863.71677399461
 31
0.0
 71
     5
 42
1170.000000000115
  3
500
100
AcDbAlignedDimension
 13
71316.37328370779
 23
-5448.716773994679
 33
0.0
 14
70898.37328370776
 24
-4278.716773994563
 34
0.0
 50
90.0
100
AcDbRotatedDimension
  0
DIMENSION
  5
B2
330
2
100
AcDbEntity
  8
0
 62
     7
370
     5
100
AcDbDimension
  2
*D6
 10
70898.37328370778
 20
-5865.86692359062
 30
0.0
 11
70853.37328370783
 21
-5785.86692359062
 31
0.0
 71
     5
 42
89.99999999992724
  3
500
100
AcDbAlignedDimension
 13
70808.37328370786
 23
-4926.716773994558
 33
0.0
 14
70898.37328370778
 24
-5302.716773994578
 34
0.0
100
AcDbRotatedDimension
  0
DIMENSION
  5
BF
330
2
100
AcDbEntity
  8
0Hatch
 62
    54
 48
4.0
100
AcDbDimension
  2
*D7
 10
71316.37328370779
 20
-5865.86692359062
 30
0.0
 11
71107.3732837078
 21
-5785.86692359062
 31
0.0
 71
     5
 42
418.0000000000145
  3
500
100
AcDbAlignedDimension
 13
70898.37328370778
 23
-5302.716773994578
 33
0.0
 14
71316.37328370779
 24
-5448.716773994568
 34
0.0
100
AcDbRotatedDimension
  0
DIMENSION
  5
CA
330
2
100
AcDbEntity
  8
0Hatch
 62
    54
 48
4.0
100
AcDbDimension
  2
*D8
 10
71988.37328370776
 20
-5865.86692359062
 30
0.0
 11
71652.37328370778
 21
-5785.86692359062
 31
0.0
 71
     5
 42
671.9999999999709
  3
500
100
AcDbAlignedDimension
 13
71316.37328370779
 23
-5448.716773994568
 33
0.0
 14
71988.37328370776
 24
-5448.716773994633
 34
0.0
100
AcDbRotatedDimension
  0
DIMENSION
  5
D5
330
2
100
AcDbEntity
  8
0
 62
     7
370
     5
100
AcDbDimension
  2
*D9
 10
72406.37328370779
 20
-5865.86692359062
 30
0.0
 11
72197.37328370778
 21
-5785.86692359062
 31
0.0
 71
     5
 42
418.0000000000291
  3
500
100
AcDbAlignedDimension
 13
71988.37328370776
 23
-5448.716773994633
 33
0.0
 14
72406.37328370779
 24
-5302.716773994558
 34
0.0
100
AcDbRotatedDimension
  0
DIMENSION
  5
E0
330
2
100
AcDbEntity
  8
0Wymiary-PL
 48
4.0
100
AcDbDimension
  2
*D10
 10
72496.37328370778
 20
-5865.86692359062
 30
0.0
 11
72451.3732837078
 21
-5785.86692359062
 31
0.0
 71
     5
 42
89.99999999998545
  3
500
100
AcDbAlignedDimension
 13
72406.37328370779
 23
-5302.716773994558
 33
0.0
 14
72496.37328370778
 24
-4926.716773994558
 34
0.0
100
AcDbRotatedDimension
  0
DIMENSION
  5
ED
330
2
100
AcDbEntity
  8
0
 62
     7
370
     5
100
AcDbDimension
  2
*D11
 10
72496.37328370778
 20
-6039.712917945639
 30
0.0
 11
71652.37328370783
 21
-5959.712917945639
 31
0.0
 71
     5
 42
1687.999999999927
  3
500
100
AcDbAlignedDimension
 13
70808.37328370786
 23
-4926.716773994558
 33
0.0
 14
72496.37328370778
 24
-4926.716773994558
 34
0.0
100
AcDbRotatedDimension
  0
HATCH
  5
F8
330
2
100
AcDbEntity
  8
0Hatch
 62
    54
 48
4.0
100
AcDbHatch
 10
0.0
 20
0.0
 30
0.0
210
0.0
220
0.0
230
1.0
  2
SOLID
 70
     1
 71
     1
 91
        1
 92
        7
 72
     0
 73
     1
 93
       28
 10
74158.77909090796
 20
-4926.716773994558
 10
74248.77909090796
 20
-4926.925678037836
 10
74248.77909090795
 20
-5302.716773994559
 10
74530.27909090796
 20
-5302.716773994571
 10
74530.27909090796
 20
-5242.716773994572
 10
74308.77909090795
 20
-5242.716773994562
 10
74308.77909090795
 20
-4867.064785767279
 10
74218.77909090796
 20
-4866.855881724001
 10
74218.77909090796
 20
-4714.716773994558
 10
74308.77909090797
 20
-4714.716773994559
 10
74308.77909090797
 20
-4338.716773994562
 10
75696.77909090797
 20
-4338.716773994561
 10
75696.77909090796
 20
-4714.716773994558
 10
75786.77909090789
 20
-4714.716773994559
 10
75786.77909090789
 20
-4866.855881723998
 10
75696.77909090796
 20
-4867.064785767274
 10
75696.77909090796
 20
-5242.716773994578
 10
75475.27909090796
 20
-5242.716773994578
 10
75475.27909090796
 20
-5302.716773994578
 10
75756.77909090797
 20
-5302.716773994578
 10
75756.77909090797
 20
-4926.925678037833
 10
75846.77909090789
 20
-4926.716773994557
 10
75846.77909090787
 20
-4654.716773994557
 10
75756.77909090795
 20
-4654.716773994556
 10
75756.77909090795
 20
-4278.716773994563
 10
74248.77909090797
 20
-4278.716773994563
 10
74248.77909090796
 20
-4654.716773994559
 10
74158.77909090795
 20
-4654.716773994557
 97
        4
330
FD
330
104
330
FE
330
106
 75
     0
 76
     1
 47
3.947155575955306
 98
        1
 10
74188.7247304169
 20
-4776.105993136487
1001
ACAD
1010
0.0
1020
0.0
1030
0.0
  0
HATCH
  5
F9
330
2
100
AcDbEntity
  8
0Hatch
 62
    54
 48
4.0
100
AcDbHatch
 10
0.0
 20
0.0
 30
0.0
210
0.0
220
0.0
230
1.0
  2
SOLID
 70
     1
 71
     1
 91
        1
 92
        7
 72
     0
 73
     1
 93
        8
 10
74666.77909090797
 20
-5302.716773994574
 10
74666.77909090797
 20
-5448.716773994632
 10
74729.80909090796
 20
-5448.716773994637
 10
74729.80909090796
 20
-5388.716773994637
 10
74726.77909090798
 20
-5388.716773994637
 10
74726.77909090798
 20
-5242.71677399458
 10
74630.27909090796
 20
-5242.716773994576
 10
74630.27909090796
 20
-5302.716773994577
 97
        4
330
FE
330
FF
330
FD
330
105
 75
     0
 76
     1
 47
3.947155575955306
 98
        1
 10
74674.57032585931
 20
-5293.183395177853
1001
ACAD
1010
0.0
1020
0.0
1030
0.0
  0
HATCH
  5
FA
330
2
100
AcDbEntity
  8
0Hatch
 62
    54
 48
4.0
100
AcDbHatch
 10
0.0
 20
0.0
 30
0.0
210
0.0
220
0.0
230
1.0
  2
SOLID
 70
     1
 71
     1
 91
        1
 92
        7
 72
     0
 73
     1
 93
        4
 10
74969.80909090799
 20
-5388.716773994655
 10
74969.80909090796
 20
-5448.716773994654
 10
75035.74909090796
 20
-5448.716773994659
 10
75035.74909090796
 20
-5388.716773994659
 97
        4
330
FE
330
101
330
FD
330
100
 75
     0
 76
     1
 47
3.947155575955306
 98
        1
 10
75006.36723059258
 20
-5411.598065656792
1001
ACAD
1010
0.0
1020
0.0
1030
0.0
  0
HATCH
  5
FB
330
2
100
AcDbEntity
  8
0Hatch
 62
    54
 48
4.0
100
AcDbHatch
 10
0.0
 20
0.0
 30
0.0
210
0.0
220
0.0
230
1.0
  2
SOLID
 70
     1
 71
     1
 91
        1
 92
        7
 72
     0
 73
     1
 93
        8
 10
75338.77909090796
 20
-5302.716773994577
 10
75375.27909090796
 20
-5302.716773994577
 10
75375.27909090795
 20
-5242.716773994577
 10
75278.77909090796
 20
-5242.716773994578
 10
75278.77909090796
 20
-5388.716773994676
 10
75275.74909090796
 20
-5388.716773994676
 10
75275.74909090796
 20
-5448.716773994675
 10
75338.77909090795
 20
-5448.71677399468
 97
        4
330
FE
330
103
330
FD
330
102
 75
     0
 76
     1
 47
3.947155575955306
 98
        1
 10
75318.4144371414
 20
-5387.915118503857
1001
ACAD
1010
0.0
1020
0.0
1030
0.0
  0
HATCH
  5
FC
330
2
100
AcDbEntity
  8
0Hatch
 62
    54
 48
4.0
100
AcDbHatch
 10
0.0
 20
0.0
 30
0.0
210
0.0
220
0.0
230
1.0
  2
SOLID
 70
     1
 71
     1
 91
        1
 92
        7
 72
     0
 73
     1
 93
        4
 10
75014.77909090795
 20
-4078.716773994558
 10
74990.77909090797
 20
-4078.716773994557
 10
74990.77909090799
 20
-4278.716773994563
 10
75014.77909090796
 20
-4278.716773994563
 97
        2
330
10B
330
FD
 75
     0
 76
     1
 47
1.942795574514405
 98
        1
 10
75003.71812608221
 20
-4163.567104074318
1001
ACAD
1010
0.0
1020
0.0
1030
0.0
  0
LWPOLYLINE
  5
FD
102
{ACAD_REACTORS
330
F8
330
F9
330
FA
330
FB
330
FC
102
}
330
2
100
AcDbEntity
  8
0Hatch
 62
    54
 48
4.0
100
AcDbPolyline
 90
       16
 70
     1
 43
0.0
 10
74248.77909090796
 20
-4278.716773994563
 10
74248.77909090796
 20
-4654.716773994557
 10
74158.77909090796
 20
-4654.716773994557
 10
74158.77909090796
 20
-4926.716773994558
 10
74248.77909090796
 20
-4926.925678037836
 10
74248.77909090795
 20
-5302.716773994558
 10
74666.77909090797
 20
-5302.716773994578
 10
74666.77909090797
 20
-5448.716773994633
 10
75338.77909090795
 20
-5448.716773994679
 10
75338.77909090796
 20
-5302.716773994578
 10
75756.77909090797
 20
-5302.716773994578
 10
75756.77909090797
 20
-4926.925678037832
 10
75846.77909090789
 20
-4926.716773994558
 10
75846.77909090789
 20
-4654.716773994557
 10
75756.77909090797
 20
-4654.716773994557
 10
75756.77909090797
 20
-4278.716773994563
  0
LWPOLYLINE
  5
FE
102
{ACAD_REACTORS
330
F8
330
F9
330
FA
330
FB
102
}
330
2
100
AcDbEntity
  8
0Hatch
 62
    54
 48
4.0
100
AcDbPolyline
 90
       16
 70
     1
 43
0.0
 10
74308.77909090797
 20
-4338.716773994564
 10
74308.77909090797
 20
-4714.716773994558
 10
74218.77909090796
 20
-4714.716773994558
 10
74218.77909090796
 20
-4866.855881724001
 10
74308.77909090797
 20
-4867.064785767279
 10
74308.77909090795
 20
-5242.716773994562
 10
74726.77909090798
 20
-5242.716773994581
 10
74726.77909090798
 20
-5388.716773994637
 10
75278.77909090794
 20
-5388.716773994675
 10
75278.77909090796
 20
-5242.716773994578
 10
75696.77909090796
 20
-5242.716773994578
 10
75696.77909090796
 20
-4867.064785767274
 10
75786.77909090789
 20
-4866.855881723998
 10
75786.77909090789
 20
-4714.716773994558
 10
75696.77909090796
 20
-4714.716773994558
 10
75696.77909090797
 20
-4338.716773994562
  0
LINE
  5
FF
102
{ACAD_REACTORS
330
F9
102
}
330
2
100
AcDbEntity
  8
0Hatch
 62
    54
 48
4.0
100
AcDbLine
 10
74729.80909090796
 20
-5448.716773994638
 30
0.0
 11
74729.80909090796
 21
-5388.716773994637
 31
0.0
  0
LINE
  5
100
102
{ACAD_REACTORS
330
FA
102
}
330
2
100
AcDbEntity
  8
0Hatch
 62
    54
 48
4.0
100
AcDbLine
 10
74969.80909090796
 20
-5448.716773994624
 30
0.0
 11
74969.80909090799
 21
-5388.716773994653
 31
0.0
  0
LINE
  5
101
102
{ACAD_REACTORS
330
FA
102
}
330
2
100
AcDbEntity
  8
0Hatch
 62
    54
 48
4.0
100
AcDbLine
 10
75035.74909090796
 20
-5448.716773994624
 30
0.0
 11
75035.74909090796
 21
-5388.716773994659
 31
0.0
  0
LINE
  5
102
102
{ACAD_REACTORS
330
FB
102
}
330
2
100
AcDbEntity
  8
0Hatch
 62
    54
 48
4.0
100
AcDbLine
 10
75275.74909090796
 20
-5448.716773994675
 30
0.0
 11
75275.74909090796
 21
-5388.716773994675
 31
0.0
  0
LINE
  5
103
102
{ACAD_REACTORS
330
FB
102
}
330
2
100
AcDbEntity
  8
0Hatch
 62
    54
 48
4.0
100
AcDbLine
 10
75375.27909090796
 20
-5302.716773994578
 30
0.0
 11
75375.27909090796
 21
-5242.716773994578
 31
0.0
  0
LINE
  5
104
102
{ACAD_REACTORS
330
F8
102
}
330
2
100
AcDbEntity
  8
0Hatch
 62
    54
 48
4.0
100
AcDbLine
 10
75475.27909090796
 20
-5302.716773994578
 30
0.0
 11
75475.27909090796
 21
-5242.716773994578
 31
0.0
  0
LINE
  5
105
102
{ACAD_REACTORS
330
F9
102
}
330
2
100
AcDbEntity
  8
0Hatch
 62
    54
 48
4.0
100
AcDbLine
 10
74630.27909090796
 20
-5302.716773994576
 30
0.0
 11
74630.27909090796
 21
-5242.716773994576
 31
0.0
  0
LINE
  5
106
102
{ACAD_REACTORS
330
F8
102
}
330
2
100
AcDbEntity
  8
0Hatch
 62
    54
 48
4.0
100
AcDbLine
 10
74530.27909090796
 20
-5302.716773994571
 30
0.0
 11
74530.27909090796
 21
-5242.716773994572
 31
0.0
  0
HATCH
  5
107
330
2
100
AcDbEntity
  8
0Hatch
 62
    54
 48
4.0
100
AcDbHatch
 10
0.0
 20
0.0
 30
0.0
210
0.0
220
0.0
230
1.0
  2
SOLID
 70
     1
 71
     1
 91
        1
 92
        7
 72
     0
 73
     1
 93
        4
 10
74493.77909090796
 20
-5436.716773994516
 10
74493.77909090796
 20
-5412.716773994576
 10
74469.77909090796
 20
-5412.716773994576
 10
74469.77909090796
 20
-5436.716773994516
 97
        1
330
108
 75
     0
 76
     1
 47
3.947155575955306
 98
        1
 10
74481.02209564834
 20
-5427.386664449223
1001
ACAD
1010
0.0
1020
0.0
1030
0.0
  0
LWPOLYLINE
  5
108
102
{ACAD_REACTORS
330
107
102
}
330
2
100
AcDbEntity
  8
0Hatch
 62
    54
 48
4.0
100
AcDbPolyline
 90
        4
 70
     1
 43
0.0
 10
74493.77909090796
 20
-5412.716773994576
 10
74469.77909090796
 20
-5412.716773994576
 10
74469.77909090796
 20
-5436.716773994516
 10
74493.77909090796
 20
-5436.716773994516
  0
HATCH
  5
109
330
2
100
AcDbEntity
  8
0Hatch
 62
    54
 48
4.0
100
AcDbHatch
 10
0.0
 20
0.0
 30
0.0
210
0.0
220
0.0
230
1.0
  2
SOLID
 70
     1
 71
     1
 91
        1
 92
        7
 72
     0
 73
     1
 93
        4
 10
75535.28451817069
 20
-5412.826990576633
 10
75511.77909090796
 20
-5412.826990576633
 10
75511.77909090796
 20
-5436.716773994516
 10
75535.28451817069
 20
-5436.716773994516
 97
        1
330
10A
 75
     0
 76
     1
 47
3.947155575955306
 98
        1
 10
75527.76246883982
 20
-5427.386664449223
1001
ACAD
1010
0.0
1020
0.0
1030
0.0
  0
LWPOLYLINE
  5
10A
102
{ACAD_REACTORS
330
109
102
}
330
2
100
AcDbEntity
  8
0Hatch
 62
    54
 48
4.0
100
AcDbPolyline
 90
        4
 70
     1
 43
0.0
 10
75535.28451817069
 20
-5412.826990576633
 10
75511.77909090796
 20
-5412.826990576633
 10
75511.77909090796
 20
-5436.716773994516
 10
75535.28451817069
 20
-5436.716773994516
  0
LWPOLYLINE
  5
10B
102
{ACAD_REACTORS
330
FC
102
}
330
2
100
AcDbEntity
  8
0Hatch
 62
    54
 48
4.0
100
AcDbPolyline
 90
        4
 70
     0
 43
0.0
 10
75014.77909090796
 20
-4278.716773994563
 10
75014.77909090796
 20
-4078.716773994558
 10
74990.77909090797
 20
-4078.716773994558
 10
74990.77909090799
 20
-4278.716773994558
  0
LINE
  5
10C
330
2
100
AcDbEntity
  8
0Hatch
 62
    54
 48
4.0
100
AcDbLine
 10
75014.77909090795
 20
-5508.716773994558
 30
0.0
 11
75014.77909090795
 21
-5698.716773994558
 31
0.0
  0
LINE
  5
10D
330
2
100
AcDbEntity
  8
0Hatch
 62
    54
 48
4.0
100
AcDbLine
 10
74666.77909090797
 20
-5698.716773994558
 30
0.0
 11
74666.77909090797
 21
-5508.716773994558
 31
0.0
  0
LINE
  5
10E
330
2
100
AcDbEntity
  8
0Hatch
 62
    54
 48
4.0
100
AcDbLine
 10
75014.77909090795
 20
-5448.716773994633
 30
0.0
 11
75014.77909090795
 21
-5508.716773994558
 31
0.0
  0
LINE
  5
10F
330
2
100
AcDbEntity
  8
0Hatch
 62
    54
 48
4.0
100
AcDbLine
 10
75014.77909090795
 20
-5698.716773994558
 30
0.0
 11
74666.77909090797
 21
-5698.716773994558
 31
0.0
  0
LINE
  5
110
330
2
100
AcDbEntity
  8
0Hatch
 62
    54
 48
4.0
390
3B
100
AcDbLine
 10
74666.77909090797
 20
-5508.716773994572
 30
0.0
 11
74337.77909090796
 21
-5508.716773994572
 31
0.0
  0
LINE
  5
111
330
2
100
AcDbEntity
  8
0Hatch
 62
    54
 48
4.0
390
3B
100
AcDbLine
 10
74337.77909090796
 20
-5508.716773994572
 30
0.0
 11
74337.77909090796
 21
-5302.716773994562
 31
0.0
  0
3DFACE
  5
112
330
2
100
AcDbEntity
  8
0Hatch
 62
    54
 48
4.0
100
AcDbFace
 10
74666.77909090797
 20
-5448.716773994568
 30
0.0
 11
74457.77909090796
 21
-5448.716773994568
 31
0.0
 12
74337.77909090796
 22
-5508.716773994572
 32
0.0
 13
74666.77909090797
 23
-5508.716773994572
 33
0.0
 70
     2
  0
3DFACE
  5
113
330
2
100
AcDbEntity
  8
0Hatch
 62
    54
 48
4.0
100
AcDbFace
 10
74337.77909090796
 20
-5508.716773994572
 30
0.0
 11
74666.77909090797
 21
-5508.716773994572
 31
0.0
 12
74666.77909090797
 22
-5508.716773994572
 32
0.0
 13
74337.77909090796
 23
-5508.716773994572
 33
0.0
  0
3DFACE
  5
114
330
2
100
AcDbEntity
  8
0Hatch
 62
    54
 48
4.0
100
AcDbFace
 10
74457.77909090796
 20
-5448.716773994568
 30
0.0
 11
74457.77909090796
 21
-5302.716773994558
 31
0.0
 12
74457.77909090796
 22
-5302.716773994558
 32
0.0
 13
74457.77909090796
 23
-5448.716773994568
 33
0.0
  0
LINE
  5
115
330
2
100
AcDbEntity
  8
0Hatch
 62
    54
 48
4.0
390
3B
100
AcDbLine
 10
74400.27909090797
 20
-4278.716773994558
 30
0.0
 11
74400.27909090797
 21
-4052.716773994557
 31
0.0
  0
LINE
  5
116
330
2
100
AcDbEntity
  8
0Hatch
 62
    54
 48
4.0
390
3B
100
AcDbLine
 10
74400.27909090797
 20
-4052.716773994557
 30
0.0
 11
75014.77909090796
 21
-4052.716773994558
 31
0.0
  0
3DFACE
  5
117
330
2
100
AcDbEntity
  8
0Hatch
 62
    54
 48
4.0
100
AcDbFace
 10
75014.77909090796
 20
-4078.716773994558
 30
0.0
 11
75014.77909090796
 21
-4052.716773994558
 31
0.0
 12
74400.27909090797
 22
-4052.716773994557
 32
0.0
 13
75014.77909090796
 23
-4078.716773994558
 33
0.0
 70
     4
  0
3DFACE
  5
118
330
2
100
AcDbEntity
  8
0Hatch
 62
    54
 48
4.0
100
AcDbFace
 10
75014.77909090796
 20
-4052.716773994558
 30
0.0
 11
74400.27909090797
 21
-4052.716773994557
 31
0.0
 12
74400.27909090797
 22
-4052.716773994557
 32
0.0
 13
75014.77909090796
 23
-4052.716773994558
 33
0.0
  0
3DFACE
  5
119
330
2
100
AcDbEntity
  8
0Hatch
 62
    54
 48
4.0
100
AcDbFace
 10
74400.27909090797
 20
-4052.716773994557
 30
0.0
 11
74400.27909090797
 21
-4278.716773994558
 31
0.0
 12
74400.27909090797
 22
-4278.716773994558
 32
0.0
 13
74400.27909090797
 23
-4052.716773994557
 33
0.0
  0
LINE
  5
11A
330
2
100
AcDbEntity
  8
0Hatch
 62
    54
 48
4.0
390
3B
100
AcDbLine
 10
74258.27909090796
 20
-4278.716773994558
 30
0.0
 11
74258.27909090796
 21
-4017.716773994558
 31
0.0
  0
LINE
  5
11B
330
2
100
AcDbEntity
  8
G-Anno-Nplt
  6
PHANTOM2
 62
   160
370
    18
390
3B
100
AcDbLine
 10
74867.27909090796
 20
-4017.716773994558
 30
0.0
 11
74867.27909090796
 21
-4052.716773994558
 31
0.0
  0
LINE
  5
11C
330
2
100
AcDbEntity
  8
0Hatch
 62
    54
 48
4.0
390
3B
100
AcDbLine
 10
74867.27909090796
 20
-4052.716773994558
 30
0.0
 11
74400.27909090797
 21
-4052.716773994558
 31
0.0
  0
LINE
  5
11D
330
2
100
AcDbEntity
  8
0Hatch
 62
    54
 48
4.0
390
3B
100
AcDbLine
 10
74400.27909090797
 20
-4052.716773994558
 30
0.0
 11
74400.27909090797
 21
-4278.716773994558
 31
0.0
  0
3DFACE
  5
11E
330
2
100
AcDbEntity
  8
0Hatch
 62
    54
 48
4.0
100
AcDbFace
 10
74400.27909090797
 20
-4278.716773994558
 30
0.0
 11
74400.27909090797
 21
-4052.716773994558
 31
0.0
 12
74258.27909090796
 22
-4017.716773994558
 32
0.0
 13
74258.27909090796
 23
-4278.716773994558
 33
0.0
 70
     2
  0
3DFACE
  5
11F
330
2
100
AcDbEntity
  8
0Hatch
 62
    54
 48
4.0
100
AcDbFace
 10
74400.27909090797
 20
-4278.716773994558
 30
0.0
 11
74400.27909090797
 21
-4052.716773994558
 31
0.0
 12
74400.27909090797
 22
-4052.716773994558
 32
0.0
 13
74400.27909090797
 23
-4278.716773994558
 33
0.0
  0
3DFACE
  5
120
330
2
100
AcDbEntity
  8
0Hatch
 62
    54
 48
4.0
100
AcDbFace
 10
74400.27909090797
 20
-4052.716773994558
 30
0.0
 11
74867.27909090796
 21
-4052.716773994558
 31
0.0
 12
74867.27909090796
 22
-4052.716773994558
 32
0.0
 13
74400.27909090797
 23
-4052.716773994558
 33
0.0
  0
3DFACE
  5
121
330
2
100
AcDbEntity
  8
0Hatch
 62
    54
 48
4.0
100
AcDbFace
 10
74867.27909090796
 20
-4052.716773994558
 30
0.0
 11
74867.27909090796
 21
-4017.716773994558
 31
0.0
 12
74867.27909090796
 22
-4017.716773994558
 32
0.0
 13
74867.27909090796
 23
-4052.716773994558
 33
0.0
  0
3DFACE
  5
122
330
2
100
AcDbEntity
  8
0Hatch
 62
    54
 48
4.0
100
AcDbFace
 10
74867.27909090796
 20
-4017.716773994558
 30
0.0
 11
74258.27909090796
 21
-4017.716773994558
 31
0.0
 12
74258.27909090796
 22
-4017.716773994558
 32
0.0
 13
74867.27909090796
 23
-4017.716773994558
 33
0.0
  0
3DFACE
  5
123
330
2
100
AcDbEntity
  8
0Hatch
 62
    54
 48
4.0
100
AcDbFace
 10
74258.27909090796
 20
-4017.716773994558
 30
0.0
 11
74258.27909090796
 21
-4278.716773994558
 31
0.0
 12
74258.27909090796
 22
-4278.716773994558
 32
0.0
 13
74258.27909090796
 23
-4017.716773994558
 33
0.0
  0
LINE
  5
124
330
2
100
AcDbEntity
  8
0Hatch
 62
    54
 48
4.0
100
AcDbLine
 10
74990.77909090797
 20
-5508.716773994558
 30
0.0
 11
74990.77909090797
 21
-5698.716773994558
 31
0.0
  0
LINE
  5
125
330
2
100
AcDbEntity
  8
0Hatch
 62
    54
 48
4.0
100
AcDbLine
 10
75338.77909090795
 20
-5698.716773994558
 30
0.0
 11
75338.77909090795
 21
-5508.716773994558
 31
0.0
  0
LINE
  5
126
330
2
100
AcDbEntity
  8
0Hatch
 62
    54
 48
4.0
100
AcDbLine
 10
74990.77909090797
 20
-5448.716773994633
 30
0.0
 11
74990.77909090797
 21
-5508.716773994558
 31
0.0
  0
LINE
  5
127
330
2
100
AcDbEntity
  8
0Hatch
 62
    54
 48
4.0
100
AcDbLine
 10
74990.77909090797
 20
-5698.716773994558
 30
0.0
 11
75338.77909090795
 21
-5698.716773994558
 31
0.0
  0
LINE
  5
128
330
2
100
AcDbEntity
  8
0Hatch
 62
    54
 48
4.0
390
3B
100
AcDbLine
 10
75338.77909090795
 20
-5508.716773994572
 30
0.0
 11
75667.77909090798
 21
-5508.716773994572
 31
0.0
  0
3DFACE
  5
129
330
2
100
AcDbEntity
  8
0Hatch
 62
    54
 48
4.0
100
AcDbFace
 10
75338.77909090795
 20
-5508.716773994572
 30
0.0
 11
75667.77909090798
 21
-5508.716773994572
 31
0.0
 12
75547.77909090797
 22
-5448.716773994568
 32
0.0
 13
75338.77909090795
 23
-5448.716773994568
 33
0.0
 70
     2
  0
3DFACE
  5
12A
330
2
100
AcDbEntity
  8
0Hatch
 62
    54
 48
4.0
100
AcDbFace
 10
75667.77909090798
 20
-5302.716773994578
 30
0.0
 11
75667.77909090798
 21
-5508.716773994572
 31
0.0
 12
75667.77909090798
 22
-5508.716773994572
 32
0.0
 13
75667.77909090798
 23
-5302.716773994578
 33
0.0
  0
3DFACE
  5
12B
330
2
100
AcDbEntity
  8
0Hatch
 62
    54
 48
4.0
100
AcDbFace
 10
75667.77909090798
 20
-5508.716773994572
 30
0.0
 11
75338.77909090795
 21
-5508.716773994572
 31
0.0
 12
75338.77909090795
 22
-5508.716773994572
 32
0.0
 13
75667.77909090798
 23
-5508.716773994572
 33
0.0
  0
3DFACE
  5
12C
330
2
100
AcDbEntity
  8
0Hatch
 62
    54
 48
4.0
100
AcDbFace
 10
75547.77909090797
 20
-5448.716773994568
 30
0.0
 11
75547.77909090797
 21
-5302.716773994558
 31
0.0
 12
75547.77909090797
 22
-5302.716773994558
 32
0.0
 13
75547.77909090797
 23
-5448.716773994568
 33
0.0
  0
LINE
  5
12D
330
2
100
AcDbEntity
  8
0Hatch
 62
    54
 48
4.0
390
3B
100
AcDbLine
 10
75605.27909090796
 20
-4278.716773994558
 30
0.0
 11
75605.27909090796
 21
-4052.716773994557
 31
0.0
  0
LINE
  5
12E
330
2
100
AcDbEntity
  8
0Hatch
 62
    54
 48
4.0
390
3B
100
AcDbLine
 10
75605.27909090796
 20
-4052.716773994557
 30
0.0
 11
74990.77909090797
 21
-4052.716773994558
 31
0.0
  0
3DFACE
  5
12F
330
2
100
AcDbEntity
  8
0Hatch
 62
    54
 48
4.0
100
AcDbFace
 10
74990.77909090797
 20
-4078.716773994558
 30
0.0
 11
75605.27909090796
 21
-4052.716773994557
 31
0.0
 12
74990.77909090797
 22
-4052.716773994558
 32
0.0
 13
74990.77909090797
 23
-4078.716773994558
 33
0.0
 70
     1
  0
3DFACE
  5
130
330
2
100
AcDbEntity
  8
0Hatch
 62
    54
 48
4.0
100
AcDbFace
 10
74990.77909090797
 20
-4052.716773994558
 30
0.0
 11
75605.27909090796
 21
-4052.716773994557
 31
0.0
 12
75605.27909090796
 22
-4052.716773994557
 32
0.0
 13
74990.77909090797
 23
-4052.716773994558
 33
0.0
  0
3DFACE
  5
131
330
2
100
AcDbEntity
  8
0Hatch
 62
    54
 48
4.0
100
AcDbFace
 10
75605.27909090796
 20
-4052.716773994557
 30
0.0
 11
75605.27909090796
 21
-4278.716773994558
 31
0.0
 12
75605.27909090796
 22
-4278.716773994558
 32
0.0
 13
75605.27909090796
 23
-4052.716773994557
 33
0.0
  0
LINE
  5
132
330
2
100
AcDbEntity
  8
0Hatch
 62
    54
 48
4.0
390
3B
100
AcDbLine
 10
75747.27909090796
 20
-4278.716773994558
 30
0.0
 11
75747.27909090796
 21
-4017.716773994558
 31
0.0
  0
LINE
  5
133
330
2
100
AcDbEntity
  8
G-Anno-Nplt
  6
PHANTOM2
 62
   160
370
    18
390
3B
100
AcDbLine
 10
75138.27909090796
 20
-4017.716773994558
 30
0.0
 11
75138.27909090796
 21
-4052.716773994558
 31
0.0
  0
LINE
  5
134
330
2
100
AcDbEntity
  8
0Hatch
 62
    54
 48
4.0
390
3B
100
AcDbLine
 10
75138.27909090796
 20
-4052.716773994558
 30
0.0
 11
75605.27909090796
 21
-4052.716773994558
 31
0.0
  0
LINE
  5
135
330
2
100
AcDbEntity
  8
0Hatch
 62
    54
 48
4.0
390
3B
100
AcDbLine
 10
75605.27909090796
 20
-4052.716773994558
 30
0.0
 11
75605.27909090796
 21
-4278.716773994558
 31
0.0
  0
3DFACE
  5
136
330
2
100
AcDbEntity
  8
0Hatch
 62
    54
 48
4.0
100
AcDbFace
 10
75747.27909090796
 20
-4278.716773994558
 30
0.0
 11
75747.27909090796
 21
-4017.716773994558
 31
0.0
 12
75605.27909090796
 22
-4052.716773994558
 32
0.0
 13
75605.27909090796
 23
-4278.716773994558
 33
0.0
 70
     2
  0
3DFACE
  5
137
330
2
100
AcDbEntity
  8
0Hatch
 62
    54
 48
4.0
100
AcDbFace
 10
75605.27909090796
 20
-4278.716773994558
 30
0.0
 11
75605.27909090796
 21
-4052.716773994558
 31
0.0
 12
75605.27909090796
 22
-4052.716773994558
 32
0.0
 13
75605.27909090796
 23
-4278.716773994558
 33
0.0
  0
3DFACE
  5
138
330
2
100
AcDbEntity
  8
0Hatch
 62
    54
 48
4.0
100
AcDbFace
 10
75605.27909090796
 20
-4052.716773994558
 30
0.0
 11
75138.27909090796
 21
-4052.716773994558
 31
0.0
 12
75138.27909090796
 22
-4052.716773994558
 32
0.0
 13
75605.27909090796
 23
-4052.716773994558
 33
0.0
  0
3DFACE
  5
139
330
2
100
AcDbEntity
  8
0Hatch
 62
    54
 48
4.0
100
AcDbFace
 10
75138.27909090796
 20
-4052.716773994558
 30
0.0
 11
75138.27909090796
 21
-4017.716773994558
 31
0.0
 12
75138.27909090796
 22
-4017.716773994558
 32
0.0
 13
75138.27909090796
 23
-4052.716773994558
 33
0.0
  0
3DFACE
  5
13A
330
2
100
AcDbEntity
  8
0Hatch
 62
    54
 48
4.0
100
AcDbFace
 10
75138.27909090796
 20
-4017.716773994558
 30
0.0
 11
75747.27909090796
 21
-4017.716773994558
 31
0.0
 12
75747.27909090796
 22
-4017.716773994558
 32
0.0
 13
75138.27909090796
 23
-4017.716773994558
 33
0.0
  0
3DFACE
  5
13B
330
2
100
AcDbEntity
  8
0Hatch
 62
    54
 48
4.0
100
AcDbFace
 10
75747.27909090796
 20
-4017.716773994558
 30
0.0
 11
75747.27909090796
 21
-4278.716773994558
 31
0.0
 12
75747.27909090796
 22
-4278.716773994558
 32
0.0
 13
75747.27909090796
 23
-4017.716773994558
 33
0.0
  0
DIMENSION
  5
13C
330
2
100
AcDbEntity
  8
0Wymiary-PL
 48
4.0
100
AcDbDimension
  2
*D12
 10
75997.11600031564
 20
-4654.716773994557
 30
0.0
 11
75917.11600031564
 21
-4466.716773994548
 31
0.0
 71
     5
 42
375.9999999999936
  3
500
100
AcDbAlignedDimension
 13
75756.77909090797
 23
-4278.716773994563
 33
0.0
 14
75846.77909090789
 24
-4654.716773994557
 34
0.0
 50
90.0
100
AcDbRotatedDimension
  0
DIMENSION
  5
147
330
2
100
AcDbEntity
  8
0Wymiary-PL
 48
4.0
100
AcDbDimension
  2
*D13
 10
75997.11600031564
 20
-4926.716773994558
 30
0.0
 11
75917.11600031564
 21
-4790.716773994545
 31
0.0
 71
     5
 42
272.0
  3
500
100
AcDbAlignedDimension
 13
75846.77909090789
 23
-4654.716773994557
 33
0.0
 14
75846.77909090789
 24
-4926.716773994558
 34
0.0
 50
90.0
100
AcDbRotatedDimension
  0
DIMENSION
  5
152
330
2
100
AcDbEntity
  8
0Wymiary-PL
 48
4.0
100
AcDbDimension
  2
*D14
 10
75997.11600031564
 20
-5302.716773994578
 30
0.0
 11
75917.11600031564
 21
-5114.716773994555
 31
0.0
 71
     5
 42
376.0000000000209
  3
500
100
AcDbAlignedDimension
 13
75846.77909090789
 23
-4926.716773994558
 33
0.0
 14
75756.77909090797
 24
-5302.716773994578
 34
0.0
 50
90.0
100
AcDbRotatedDimension
  0
DIMENSION
  5
15D
330
2
100
AcDbEntity
  8
0Wymiary-PL
 48
4.0
100
AcDbDimension
  2
*D15
 10
75997.11600031564
 20
-5448.71677399468
 30
0.0
 11
75917.11600031564
 21
-5375.716773994617
 31
0.0
 71
     5
 42
146.0000000001009
  3
500
100
AcDbAlignedDimension
 13
75756.77909090797
 23
-5302.716773994578
 33
0.0
 14
75338.77909090795
 24
-5448.716773994679
 34
0.0
 50
90.0
100
AcDbRotatedDimension
  0
DIMENSION
  5
16A
330
2
100
AcDbEntity
  8
0Wymiary-PL
 48
4.0
100
AcDbDimension
  2
*D16
 10
76216.28846252707
 20
-4278.716773994564
 30
0.0
 11
76136.28846252707
 21
-4863.71677399461
 31
0.0
 71
     5
 42
1170.000000000115
  3
500
100
AcDbAlignedDimension
 13
75338.77909090795
 23
-5448.716773994679
 33
0.0
 14
75756.77909090797
 24
-4278.716773994563
 34
0.0
 50
90.0
100
AcDbRotatedDimension
  0
DIMENSION
  5
175
330
2
100
AcDbEntity
  8
0
 62
     7
370
     5
100
AcDbDimension
  2
*D17
 10
75756.77909090797
 20
-5865.86692359062
 30
0.0
 11
75801.77909090791
 21
-5785.86692359062
 31
0.0
 71
     5
 42
89.99999999992724
  3
500
100
AcDbAlignedDimension
 13
75846.77909090789
 23
-4926.716773994558
 33
0.0
 14
75756.77909090797
 24
-5302.716773994578
 34
0.0
 50
180.0
100
AcDbRotatedDimension
  0
DIMENSION
  5
182
330
2
100
AcDbEntity
  8
0
 62
     7
370
     5
100
AcDbDimension
  2
*D18
 10
75338.77909090795
 20
-5865.86692359062
 30
0.0
 11
75547.77909090795
 21
-5785.86692359062
 31
0.0
 71
     5
 42
418.0000000000145
  3
500
100
AcDbAlignedDimension
 13
75756.77909090797
 23
-5302.716773994578
 33
0.0
 14
75338.77909090795
 24
-5448.716773994568
 34
0.0
 50
180.0
100
AcDbRotatedDimension
  0
DIMENSION
  5
18D
330
2
100
AcDbEntity
  8
0
 62
     7
370
     5
100
AcDbDimension
  2
*D19
 10
74666.77909090797
 20
-5865.86692359062
 30
0.0
 11
75002.77909090796
 21
-5785.86692359062
 31
0.0
 71
     5
 42
671.9999999999709
  3
500
100
AcDbAlignedDimension
 13
75338.77909090795
 23
-5448.716773994568
 33
0.0
 14
74666.77909090797
 24
-5448.716773994633
 34
0.0
 50
180.0
100
AcDbRotatedDimension
  0
DIMENSION
  5
198
330
2
100
AcDbEntity
  8
0
 62
     7
370
     5
100
AcDbDimension
  2
*D20
 10
74248.77909090795
 20
-5865.86692359062
 30
0.0
 11
74457.77909090796
 21
-5785.86692359062
 31
0.0
 71
     5
 42
418.0000000000291
  3
500
100
AcDbAlignedDimension
 13
74666.77909090797
 23
-5448.716773994633
 33
0.0
 14
74248.77909090795
 24
-5302.716773994558
 34
0.0
 50
180.0
100
AcDbRotatedDimension
  0
DIMENSION
  5
1A3
330
2
100
AcDbEntity
  8
0Wymiary-PL
 48
4.0
100
AcDbDimension
  2
*D21
 10
74158.77909090796
 20
-5865.86692359062
 30
0.0
 11
74203.77909090794
 21
-5785.86692359062
 31
0.0
 71
     5
 42
89.99999999998545
  3
500
100
AcDbAlignedDimension
 13
74248.77909090795
 23
-5302.716773994558
 33
0.0
 14
74158.77909090796
 24
-4926.716773994558
 34
0.0
 50
180.0
100
AcDbRotatedDimension
  0
DIMENSION
  5
1B0
330
2
100
AcDbEntity
  8
0
 62
     7
370
     5
100
AcDbDimension
  2
*D22
 10
74158.77909090796
 20
-6039.712917945639
 30
0.0
 11
75002.77909090792
 21
-5959.712917945639
 31
0.0
 71
     5
 42
1687.999999999927
  3
500
100
AcDbAlignedDimension
 13
75846.77909090789
 23
-4926.716773994558
 33
0.0
 14
74158.77909090796
 24
-4926.716773994558
 34
0.0
 50
180.0
100
AcDbRotatedDimension
  0
ENDSEC
  0
SECTION
  2
OBJECTS
  0
DICTIONARY
  5
B
330
0
100
AcDbDictionary
281
     1
  3
ACAD_COLOR
350
1DB
  3
ACAD_GROUP
350
1D6
  3
ACAD_LAYOUT
350
1BD
  3
ACAD_MATERIAL
350
D
  3
ACAD_MLINESTYLE
350
1D7
  3
ACAD_PLOTSETTINGS
350
1D8
  3
ACAD_PLOTSTYLENAME
350
A
  3
ACAD_SCALELIST
350
1DC
  3
ACAD_TABLESTYLE
350
1DD
  3
ACAD_VISUALSTYLE
350
1C0
  3
ACDB_RECOMPOSE_DATA
350
25F
  3
AcDbVariableDictionary
350
254
  3
DWGPROPS
350
260
  0
DICTIONARY
  5
1C7
330
1C6
100
AcDbDictionary
280
     1
281
     1
  3
ACAD_LAYERSTATES
360
1C8
  0
DICTIONARY
  5
7
330
6
100
AcDbDictionary
280
     1
281
     1
  3
ADSK_XREC_LAYER_RECONCILED
360
8
  0
DICTIONARY
  5
12
330
11
100
AcDbDictionary
280
     1
281
     1
  3
ADSK_XREC_LAYER_RECONCILED
360
13
  0
DICTIONARY
  5
6D
330
6C
100
AcDbDictionary
280
     1
281
     1
  3
ADSK_XREC_LAYER_RECONCILED
360
6E
  0
DICTIONARY
  5
21
330
20
100
AcDbDictionary
280
     1
281
     1
  3
ADSK_XREC_LAYER_RECONCILED
360
22
  0
DICTIONARY
  5
1D
330
1C
100
AcDbDictionary
280
     1
281
     1
  3
ADSK_XREC_LAYER_RECONCILED
360
1E
  0
DICTIONARY
  5
48
330
47
100
AcDbDictionary
280
     1
281
     1
  0
DICTIONARY
  5
3
330
2
100
AcDbDictionary
280
     1
281
     1
  3
ACAD_SORTENTS
360
253
  0
DICTIONARY
  5
74
330
73
100
AcDbDictionary
280
     1
281
     1
  3
ACAD_SORTENTS
360
252
  0
DICTIONARY
  5
1DB
102
{ACAD_REACTORS
330
B
102
}
330
B
100
AcDbDictionary
281
     1
  0
DICTIONARY
  5
1D6
102
{ACAD_REACTORS
330
B
102
}
330
B
100
AcDbDictionary
281
     1
  0
DICTIONARY
  5
1BD
102
{ACAD_REACTORS
330
B
102
}
330
B
100
AcDbDictionary
281
     1
  3
Layout1
350
1C5
  3
Model
350
1BC
  0
DICTIONARY
  5
D
102
{ACAD_REACTORS
330
B
102
}
330
B
100
AcDbDictionary
281
     1
  3
ByBlock
350
1DA
  3
ByLayer
350
1D9
  3
Global
350
C
  0
DICTIONARY
  5
1D7
102
{ACAD_REACTORS
330
B
102
}
330
B
100
AcDbDictionary
281
     1
  3
STANDARD
350
1DE
  0
DICTIONARY
  5
1D8
102
{ACAD_REACTORS
330
B
102
}
330
B
100
AcDbDictionary
281
     1
  0
ACDBDICTIONARYWDFLT
  5
A
102
{ACAD_REACTORS
330
B
102
}
330
B
100
AcDbDictionary
281
     1
  3
Normal
350
9
  3
Standard
350
3B
100
AcDbDictionaryWithDefault
340
9
  0
DICTIONARY
  5
1DC
102
{ACAD_REACTORS
330
B
102
}
330
B
100
AcDbDictionary
281
     1
  3
*A1
350
1E3
  3
*A10
350
1E4
  3
*A11
350
1E5
  3
*A12
350
1E6
  3
*A13
350
1E7
  3
*A14
350
1E8
  3
*A15
350
1E9
  3
*A16
350
1EA
  3
*A17
350
1EB
  3
*A18
350
1EC
  3
*A19
350
1ED
  3
*A2
350
1EE
  3
*A20
350
1EF
  3
*A21
350
1F0
  3
*A22
350
1F1
  3
*A23
350
1F2
  3
*A24
350
1F3
  3
*A25
350
1F4
  3
*A26
350
1F5
  3
*A27
350
1F6
  3
*A28
350
1F7
  3
*A29
350
1F8
  3
*A3
350
1F9
  3
*A30
350
1FA
  3
*A31
350
1FB
  3
*A32
350
1FC
  3
*A33
350
1FD
  3
*A34
350
1FE
  3
*A35
350
1FF
  3
*A36
350
200
  3
*A37
350
201
  3
*A38
350
202
  3
*A39
350
203
  3
*A4
350
204
  3
*A40
350
205
  3
*A41
350
206
  3
*A42
350
207
  3
*A43
350
208
  3
*A44
350
209
  3
*A45
350
20A
  3
*A46
350
20B
  3
*A47
350
20C
  3
*A48
350
20D
  3
*A49
350
20E
  3
*A5
350
20F
  3
*A50
350
210
  3
*A51
350
211
  3
*A52
350
212
  3
*A53
350
213
  3
*A54
350
214
  3
*A55
350
215
  3
*A56
350
216
  3
*A57
350
217
  3
*A58
350
218
  3
*A59
350
219
  3
*A6
350
21A
  3
*A60
350
21B
  3
*A61
350
21C
  3
*A62
350
21D
  3
*A63
350
21E
  3
*A64
350
21F
  3
*A65
350
220
  3
*A66
350
221
  3
*A67
350
222
  3
*A68
350
223
  3
*A69
350
224
  3
*A7
350
225
  3
*A70
350
226
  3
*A71
350
227
  3
*A72
350
228
  3
*A73
350
229
  3
*A74
350
22A
  3
*A75
350
22B
  3
*A76
350
22C
  3
*A77
350
22D
  3
*A78
350
22E
  3
*A79
350
22F
  3
*A8
350
230
  3
*A80
350
231
  3
*A81
350
232
  3
*A82
350
233
  3
*A83
350
234
  3
*A84
350
235
  3
*A85
350
236
  3
*A86
350
237
  3
*A87
350
238
  3
*A88
350
239
  3
*A89
350
23A
  3
*A9
350
23B
  3
*A90
350
23C
  3
A0
350
23D
  3
A1
350
23E
  3
A2
350
23F
  3
A3
350
240
  3
A4
350
241
  3
A5
350
242
  3
A6
350
243
  3
A7
350
244
  3
A8
350
245
  3
A9
350
246
  3
B0
350
247
  3
B1
350
248
  3
B2
350
249
  3
B3
350
24A
  3
B4
350
24B
  3
B5
350
24C
  3
B6
350
24D
  3
B7
350
24E
  3
B8
350
24F
  3
B9
350
250
  3
C0
350
251
  0
DICTIONARY
  5
1DD
102
{ACAD_REACTORS
330
B
102
}
330
B
100
AcDbDictionary
281
     1
  3
Standard
350
1DF
  0
DICTIONARY
  5
1C0
102
{ACAD_REACTORS
330
B
102
}
330
B
100
AcDbDictionary
281
     1
  3
2dWireframe
350
1BF
  3
3dWireframe
350
1E2
  3
Realistic
350
1E1
  0
XRECORD
  5
25F
102
{ACAD_REACTORS
330
B
102
}
330
B
100
AcDbXrecord
280
     1
 90
        1
330
1DF
  0
DICTIONARY
  5
254
102
{ACAD_REACTORS
330
B
102
}
330
B
100
AcDbDictionary
281
     1
  3
CANNOSCALE
350
258
  3
CMLEADERSTYLE
350
256
  3
CTABLESTYLE
350
255
  3
DIMASSOC
350
25C
  3
HIDETEXT
350
25B
  3
INDEXCTL
350
25A
  3
MSLTSCALE
350
257
  3
SORTENTS
350
259
  0
XRECORD
  5
260
102
{ACAD_REACTORS
330
B
102
}
330
B
100
AcDbXrecord
280
     1
  1
DWGPROPS COOKIE
  2

  3

  4

  6

  7

  8
dorota.romaniak
  9

300
=
301
=
302
=
303
=
304
=
305
=
306
=
307
=
308
=
309
=
 40
21.75857285879629
 41
2450817.525937848
 42
2455363.401555625
  1

 90
        0
  0
DICTIONARY
  5
1C8
102
{ACAD_REACTORS
330
1C7
102
}
330
1C7
100
AcDbDictionary
281
     1
  0
XRECORD
  5
8
102
{ACAD_REACTORS
330
7
102
}
330
7
100
AcDbXrecord
280
     1
290
     1
  0
XRECORD
  5
13
102
{ACAD_REACTORS
330
12
102
}
330
12
100
AcDbXrecord
280
     1
290
     1
  0
XRECORD
  5
6E
102
{ACAD_REACTORS
330
6D
102
}
330
6D
100
AcDbXrecord
280
     1
290
     1
  0
XRECORD
  5
22
102
{ACAD_REACTORS
330
21
102
}
330
21
100
AcDbXrecord
280
     1
290
     1
  0
XRECORD
  5
1E
102
{ACAD_REACTORS
330
1D
102
}
330
1D
100
AcDbXrecord
280
     1
290
     1
  0
SORTENTSTABLE
  5
253
102
{ACAD_REACTORS
330
3
102
}
330
3
100
AcDbSortentsTable
330
2
331
30
  5
23
331
2B
  5
32
331
35
  5
26
331
26
  5
2C
331
2E
  5
28
331
29
  5
2F
331
1F
  5
27
331
33
  5
31
331
24
  5
2A
331
2C
  5
34
331
27
  5
2D
331
31
  5
24
331
25
  5
2B
331
34
  5
33
331
2F
  5
1F
331
2A
  5
30
331
23
  5
29
331
32
  5
25
331
2D
  5
35
331
28
  5
2E
  0
SORTENTSTABLE
  5
252
102
{ACAD_REACTORS
330
74
102
}
330
74
100
AcDbSortentsTable
330
73
  0
LAYOUT
  5
1C5
102
{ACAD_XDICTIONARY
360
265
102
}
102
{ACAD_REACTORS
330
1BD
102
}
330
1BD
100
AcDbPlotSettings
  1

  2
CutePDF Writer
  4

  6

 40
0.0
 41
0.0
 42
0.0
 43
0.0
 44
0.0
 45
0.0
 46
0.0
 47
0.0
 48
0.0
 49
0.0
140
0.0
141
0.0
142
1.0
143
1.0
 70
   688
 72
     0
 73
     0
 74
     5
  7

 75
    16
147
1.0
148
0.0
149
0.0
100
AcDbLayout
  1
Layout1
 70
     1
 71
     1
 10
0.0
 20
0.0
 11
12.0
 21
9.0
 12
0.0
 22
0.0
 32
0.0
 14
0.0
 24
0.0
 34
0.0
 15
0.0
 25
0.0
 35
0.0
146
0.0
 13
0.0
 23
0.0
 33
0.0
 16
1.0
 26
0.0
 36
0.0
 17
0.0
 27
1.0
 37
0.0
 76
     0
330
1C2
  0
LAYOUT
  5
1BC
102
{ACAD_XDICTIONARY
360
263
102
}
102
{ACAD_REACTORS
330
1BD
102
}
330
1BD
100
AcDbPlotSettings
  1

  2
RICOH Aficio AP610N PCL 5e
  4
A4
  6
10-ele
 40
6.805083274841308
 41
5.027085781097412
 42
6.974411010742187
 43
5.027069091796875
 44
209.9733276367187
 45
296.9259948730469
 46
-3.903083324432671
 47
3.235920000076276
 48
67057.75918130524
 49
-45526.33714755503
140
77257.75918130527
141
-31506.33714755504
142
1.0
143
50.0
 70
 11940
 72
     1
 73
     0
 74
     4
  7
monochrome_140.ctb
 75
     0
147
0.0192346895442289
148
-67057.75918130524
149
45526.33714755503
100
AcDbLayout
  1
Model
 70
     1
 71
     0
 10
0.0
 20
0.0
 11
12.0
 21
9.0
 12
0.0
 22
0.0
 32
0.0
 14
0.0
 24
0.0
 34
0.0
 15
0.0
 25
0.0
 35
0.0
146
0.0
 13
0.0
 23
0.0
 33
0.0
 16
1.0
 26
0.0
 36
0.0
 17
0.0
 27
1.0
 37
0.0
 76
     0
330
2
331
1D2
1001
ACAD_PSEXT
1000
RICOH Aficio AP610N PCL 5e
1000
RICOH Aficio AP610N PCL 5e
1000
IP_192.168.0.252_tech
1000

1070
     0
  0
MATERIAL
  5
1DA
102
{ACAD_XDICTIONARY
360
269
102
}
102
{ACAD_REACTORS
330
D
102
}
330
D
100
AcDbMaterial
  1
ByBlock
 73
     1
 78
     1
172
     1
176
     1
270
     1
274
     1
  0
MATERIAL
  5
1D9
102
{ACAD_XDICTIONARY
360
267
102
}
102
{ACAD_REACTORS
330
D
102
}
330
D
100
AcDbMaterial
  1
ByLayer
 73
     1
 78
     1
172
     1
176
     1
270
     1
274
     1
  0
MATERIAL
  5
C
102
{ACAD_XDICTIONARY
360
261
102
}
102
{ACAD_REACTORS
330
D
102
}
330
D
100
AcDbMaterial
  1
Global
 73
     1
 78
     1
172
     1
176
     1
270
     1
274
     1
  0
MLINESTYLE
  5
1DE
102
{ACAD_REACTORS
330
1D7
102
}
330
1D7
100
AcDbMlineStyle
  2
STANDARD
 70
     0
  3

 62
     0
 51
90.0
 52
90.0
 71
     2
 49
0.5
 62
   256
  6
BYLAYER
 49
-0.5
 62
   256
  6
BYLAYER
  0
ACDBPLACEHOLDER
  5
9
102
{ACAD_REACTORS
330
A
102
}
330
A
  0
ACDBPLACEHOLDER
  5
3B
102
{ACAD_REACTORS
330
A
102
}
330
A
  0
SCALE
  5
1E3
102
{ACAD_REACTORS
330
1DC
102
}
330
1DC
100
AcDbScale
 70
     0
300
1:1_2
140
1.0
141
1.0
290
     0
  0
SCALE
  5
1E4
102
{ACAD_REACTORS
330
1DC
102
}
330
1DC
100
AcDbScale
 70
     0
300
1:2_1
140
1.0
141
2.0
290
     0
  0
SCALE
  5
1E5
102
{ACAD_REACTORS
330
1DC
102
}
330
1DC
100
AcDbScale
 70
     0
300
1:2_2
140
1.0
141
2.0
290
     0
  0
SCALE
  5
1E6
102
{ACAD_REACTORS
330
1DC
102
}
330
1DC
100
AcDbScale
 70
     0
300
1:20_3_1
140
1.0
141
20.0
290
     0
  0
SCALE
  5
1E7
102
{ACAD_REACTORS
330
1DC
102
}
330
1DC
100
AcDbScale
 70
     0
300
1/64" = 1'-0"
140
0.015625
141
12.0
290
     0
  0
SCALE
  5
1E8
102
{ACAD_REACTORS
330
1DC
102
}
330
1DC
100
AcDbScale
 70
     0
300
1:10_3
140
1.0
141
1.0
290
     0
  0
SCALE
  5
1E9
102
{ACAD_REACTORS
330
1DC
102
}
330
1DC
100
AcDbScale
 70
     0
300
1:50_3
140
1.0
141
5.0
290
     0
  0
SCALE
  5
1EA
102
{ACAD_REACTORS
330
1DC
102
}
330
1DC
100
AcDbScale
 70
     0
300
1:2_3_1
140
1.0
141
2.0
290
     0
  0
SCALE
  5
1EB
102
{ACAD_REACTORS
330
1DC
102
}
330
1DC
100
AcDbScale
 70
     0
300
1:10_1
140
1.0
141
10.0
290
     0
  0
SCALE
  5
1EC
102
{ACAD_REACTORS
330
1DC
102
}
330
1DC
100
AcDbScale
 70
     0
300
1:1_5
140
1.0
141
1.0
290
     0
  0
SCALE
  5
1ED
102
{ACAD_REACTORS
330
1DC
102
}
330
1DC
100
AcDbScale
 70
     0
300
1:4
140
1.0
141
4.0
290
     0
  0
SCALE
  5
1EE
102
{ACAD_REACTORS
330
1DC
102
}
330
1DC
100
AcDbScale
 70
     0
300
1'-0" = 1'-0"
140
12.0
141
12.0
290
     0
  0
SCALE
  5
1EF
102
{ACAD_REACTORS
330
1DC
102
}
330
1DC
100
AcDbScale
 70
     0
300
1:2_5
140
1.0
141
2.0
290
     0
  0
SCALE
  5
1F0
102
{ACAD_REACTORS
330
1DC
102
}
330
1DC
100
AcDbScale
 70
     0
300
1:2_3
140
1.0
141
0.2
290
     0
  0
SCALE
  5
1F1
102
{ACAD_REACTORS
330
1DC
102
}
330
1DC
100
AcDbScale
 70
     0
300
1:2_4
140
1.0
141
2.0
290
     0
  0
SCALE
  5
1F2
102
{ACAD_REACTORS
330
1DC
102
}
330
1DC
100
AcDbScale
 70
     0
300
1:10_2
140
1.0
141
10.0
290
     0
  0
SCALE
  5
1F3
102
{ACAD_REACTORS
330
1DC
102
}
330
1DC
100
AcDbScale
 70
     0
300
1:5_5
140
1.0
141
5.0
290
     0
  0
SCALE
  5
1F4
102
{ACAD_REACTORS
330
1DC
102
}
330
1DC
100
AcDbScale
 70
     0
300
1:10_5
140
1.0
141
10.0
290
     0
  0
SCALE
  5
1F5
102
{ACAD_REACTORS
330
1DC
102
}
330
1DC
100
AcDbScale
 70
     0
300
1:50_1
140
1.0
141
50.0
290
     0
  0
SCALE
  5
1F6
102
{ACAD_REACTORS
330
1DC
102
}
330
1DC
100
AcDbScale
 70
     0
300
1:20_5
140
1.0
141
20.0
290
     0
  0
SCALE
  5
1F7
102
{ACAD_REACTORS
330
1DC
102
}
330
1DC
100
AcDbScale
 70
     0
300
1:10_4
140
1.0
141
10.0
290
     0
  0
SCALE
  5
1F8
102
{ACAD_REACTORS
330
1DC
102
}
330
1DC
100
AcDbScale
 70
     0
300
1:50_4
140
1.0
141
50.0
290
     0
  0
SCALE
  5
1F9
102
{ACAD_REACTORS
330
1DC
102
}
330
1DC
100
AcDbScale
 70
     0
300
1:8
140
1.0
141
8.0
290
     0
  0
SCALE
  5
1FA
102
{ACAD_REACTORS
330
1DC
102
}
330
1DC
100
AcDbScale
 70
     0
300
1:50_5
140
1.0
141
50.0
290
     0
  0
SCALE
  5
1FB
102
{ACAD_REACTORS
330
1DC
102
}
330
1DC
100
AcDbScale
 70
     0
300
1:100_5
140
1.0
141
100.0
290
     0
  0
SCALE
  5
1FC
102
{ACAD_REACTORS
330
1DC
102
}
330
1DC
100
AcDbScale
 70
     0
300
1/128" = 1'-0"
140
0.0078125
141
12.0
290
     0
  0
SCALE
  5
1FD
102
{ACAD_REACTORS
330
1DC
102
}
330
1DC
100
AcDbScale
 70
     0
300
1:40
140
1.0
141
40.0
290
     0
  0
SCALE
  5
1FE
102
{ACAD_REACTORS
330
1DC
102
}
330
1DC
100
AcDbScale
 70
     0
300
1/2" = 1'-0"
140
0.5
141
12.0
290
     0
  0
SCALE
  5
1FF
102
{ACAD_REACTORS
330
1DC
102
}
330
1DC
100
AcDbScale
 70
     0
300
1:5_1
140
1.0
141
5.0
290
     0
  0
SCALE
  5
200
102
{ACAD_REACTORS
330
1DC
102
}
330
1DC
100
AcDbScale
 70
     0
300
1/4" = 1'-0"
140
0.25
141
12.0
290
     0
  0
SCALE
  5
201
102
{ACAD_REACTORS
330
1DC
102
}
330
1DC
100
AcDbScale
 70
     0
300
2:1
140
2.0
141
1.0
290
     0
  0
SCALE
  5
202
102
{ACAD_REACTORS
330
1DC
102
}
330
1DC
100
AcDbScale
 70
     0
300
3/16" = 1'-0"
140
0.1875
141
12.0
290
     0
  0
SCALE
  5
203
102
{ACAD_REACTORS
330
1DC
102
}
330
1DC
100
AcDbScale
 70
     0
300
100:1
140
100.0
141
1.0
290
     0
  0
SCALE
  5
204
102
{ACAD_REACTORS
330
1DC
102
}
330
1DC
100
AcDbScale
 70
     0
300
1:1_3_1
140
1.0
141
1.0
290
     0
  0
SCALE
  5
205
102
{ACAD_REACTORS
330
1DC
102
}
330
1DC
100
AcDbScale
 70
     0
300
1:5_3_1
140
1.0
141
5.0
290
     0
  0
SCALE
  5
206
102
{ACAD_REACTORS
330
1DC
102
}
330
1DC
100
AcDbScale
 70
     0
300
3" = 1'-0"
140
3.0
141
12.0
290
     0
  0
SCALE
  5
207
102
{ACAD_REACTORS
330
1DC
102
}
330
1DC
100
AcDbScale
 70
     0
300
1/32" = 1'-0"
140
0.03125
141
12.0
290
     0
  0
SCALE
  5
208
102
{ACAD_REACTORS
330
1DC
102
}
330
1DC
100
AcDbScale
 70
     0
300
1-1/2" = 1'-0"
140
1.5
141
12.0
290
     0
  0
SCALE
  5
209
102
{ACAD_REACTORS
330
1DC
102
}
330
1DC
100
AcDbScale
 70
     0
300
1:1_6
140
1.0
141
1.0
290
     0
  0
SCALE
  5
20A
102
{ACAD_REACTORS
330
1DC
102
}
330
1DC
100
AcDbScale
 70
     0
300
1:50_3_1
140
1.0
141
50.0
290
     0
  0
SCALE
  5
20B
102
{ACAD_REACTORS
330
1DC
102
}
330
1DC
100
AcDbScale
 70
     0
300
1/8" = 1'-0"
140
0.125
141
12.0
290
     0
  0
SCALE
  5
20C
102
{ACAD_REACTORS
330
1DC
102
}
330
1DC
100
AcDbScale
 70
     0
300
1:2_6
140
1.0
141
2.0
290
     0
  0
SCALE
  5
20D
102
{ACAD_REACTORS
330
1DC
102
}
330
1DC
100
AcDbScale
 70
     0
300
1:50_2
140
1.0
141
50.0
290
     0
  0
SCALE
  5
20E
102
{ACAD_REACTORS
330
1DC
102
}
330
1DC
100
AcDbScale
 70
     0
300
1:5_6
140
1.0
141
5.0
290
     0
  0
SCALE
  5
20F
102
{ACAD_REACTORS
330
1DC
102
}
330
1DC
100
AcDbScale
 70
     0
300
1:100_1
140
1.0
141
100.0
290
     0
  0
SCALE
  5
210
102
{ACAD_REACTORS
330
1DC
102
}
330
1DC
100
AcDbScale
 70
     0
300
1:100_3
140
1.0
141
10.0
290
     0
  0
SCALE
  5
211
102
{ACAD_REACTORS
330
1DC
102
}
330
1DC
100
AcDbScale
 70
     0
300
1:10_6
140
1.0
141
10.0
290
     0
  0
SCALE
  5
212
102
{ACAD_REACTORS
330
1DC
102
}
330
1DC
100
AcDbScale
 70
     0
300
1:16
140
1.0
141
16.0
290
     0
  0
SCALE
  5
213
102
{ACAD_REACTORS
330
1DC
102
}
330
1DC
100
AcDbScale
 70
     0
300
1:20_6
140
1.0
141
20.0
290
     0
  0
SCALE
  5
214
102
{ACAD_REACTORS
330
1DC
102
}
330
1DC
100
AcDbScale
 70
     0
300
3/8" = 1'-0"
140
0.375
141
12.0
290
     0
  0
SCALE
  5
215
102
{ACAD_REACTORS
330
1DC
102
}
330
1DC
100
AcDbScale
 70
     0
300
1:50_6
140
1.0
141
50.0
290
     0
  0
SCALE
  5
216
102
{ACAD_REACTORS
330
1DC
102
}
330
1DC
100
AcDbScale
 70
     0
300
4:1
140
4.0
141
1.0
290
     0
  0
SCALE
  5
217
102
{ACAD_REACTORS
330
1DC
102
}
330
1DC
100
AcDbScale
 70
     0
300
1:100_6
140
1.0
141
100.0
290
     0
  0
SCALE
  5
218
102
{ACAD_REACTORS
330
1DC
102
}
330
1DC
100
AcDbScale
 70
     0
300
6" = 1'-0"
140
6.0
141
12.0
290
     0
  0
SCALE
  5
219
102
{ACAD_REACTORS
330
1DC
102
}
330
1DC
100
AcDbScale
 70
     0
300
1:100_2
140
1.0
141
100.0
290
     0
  0
SCALE
  5
21A
102
{ACAD_REACTORS
330
1DC
102
}
330
1DC
100
AcDbScale
 70
     0
300
1/16" = 1'-0"
140
0.0625
141
12.0
290
     0
  0
SCALE
  5
21B
102
{ACAD_REACTORS
330
1DC
102
}
330
1DC
100
AcDbScale
 70
     0
300
1:5_3
140
1.0
141
0.5
290
     0
  0
SCALE
  5
21C
102
{ACAD_REACTORS
330
1DC
102
}
330
1DC
100
AcDbScale
 70
     0
300
1:1_1
140
1.0
141
1.0
290
     0
  0
SCALE
  5
21D
102
{ACAD_REACTORS
330
1DC
102
}
330
1DC
100
AcDbScale
 70
     0
300
1:20_1
140
1.0
141
20.0
290
     0
  0
SCALE
  5
21E
102
{ACAD_REACTORS
330
1DC
102
}
330
1DC
100
AcDbScale
 70
     0
300
1:1_3
140
1.0
141
0.1
290
     0
  0
SCALE
  5
21F
102
{ACAD_REACTORS
330
1DC
102
}
330
1DC
100
AcDbScale
 70
     0
300
1:30
140
1.0
141
30.0
290
     0
  0
SCALE
  5
220
102
{ACAD_REACTORS
330
1DC
102
}
330
1DC
100
AcDbScale
 70
     0
300
1/64" = 1'-0"_XREF
140
0.015625
141
12.0
290
     0
1001
ACAD
1000
AcRTDxfName
1000
SCALE
  0
SCALE
  5
221
102
{ACAD_REACTORS
330
1DC
102
}
330
1DC
100
AcDbScale
 70
     0
300
1 1/2" = 1'-0"_XREF
140
1.5
141
12.0
290
     0
1001
ACAD
1000
AcRTDxfName
1000
SCALE
  0
SCALE
  5
222
102
{ACAD_REACTORS
330
1DC
102
}
330
1DC
100
AcDbScale
 70
     0
300
10:1
140
10.0
141
1.0
290
     0
  0
SCALE
  5
223
102
{ACAD_REACTORS
330
1DC
102
}
330
1DC
100
AcDbScale
 70
     0
300
3" = 1'-0"_XREF
140
3.0
141
12.0
290
     0
1001
ACAD
1000
AcRTDxfName
1000
SCALE
  0
SCALE
  5
224
102
{ACAD_REACTORS
330
1DC
102
}
330
1DC
100
AcDbScale
 70
     0
300
6" = 1'-0"_XREF
140
6.0
141
12.0
290
     0
1001
ACAD
1000
AcRTDxfName
1000
SCALE
  0
SCALE
  5
225
102
{ACAD_REACTORS
330
1DC
102
}
330
1DC
100
AcDbScale
 70
     0
300
1:5_2
140
1.0
141
5.0
290
     0
  0
SCALE
  5
226
102
{ACAD_REACTORS
330
1DC
102
}
330
1DC
100
AcDbScale
 70
     0
300
8:1
140
8.0
141
1.0
290
     0
  0
SCALE
  5
227
102
{ACAD_REACTORS
330
1DC
102
}
330
1DC
100
AcDbScale
 70
     0
300
1'-0" = 1'-0"_XREF
140
12.0
141
12.0
290
     0
1001
ACAD
1000
AcRTDxfName
1000
SCALE
  0
SCALE
  5
228
102
{ACAD_REACTORS
330
1DC
102
}
330
1DC
100
AcDbScale
 70
     0
300
3/32" = 1'-0"
140
0.09375
141
12.0
290
     0
  0
SCALE
  5
229
102
{ACAD_REACTORS
330
1DC
102
}
330
1DC
100
AcDbScale
 70
     0
300
1/32" = 1'-0"_XREF
140
0.03125
141
12.0
290
     0
1001
ACAD
1000
AcRTDxfName
1000
SCALE
  0
SCALE
  5
22A
102
{ACAD_REACTORS
330
1DC
102
}
330
1DC
100
AcDbScale
 70
     0
300
1:20_3
140
1.0
141
2.0
290
     0
  0
SCALE
  5
22B
102
{ACAD_REACTORS
330
1DC
102
}
330
1DC
100
AcDbScale
 70
     0
300
1/16" = 1'-0"_XREF
140
0.0625
141
12.0
290
     0
1001
ACAD
1000
AcRTDxfName
1000
SCALE
  0
SCALE
  5
22C
102
{ACAD_REACTORS
330
1DC
102
}
330
1DC
100
AcDbScale
 70
     0
300
1:1_4
140
1.0
141
1.0
290
     0
  0
SCALE
  5
22D
102
{ACAD_REACTORS
330
1DC
102
}
330
1DC
100
AcDbScale
 70
     0
300
3/32" = 1'-0"_XREF
140
0.09375
141
12.0
290
     0
1001
ACAD
1000
AcRTDxfName
1000
SCALE
  0
SCALE
  5
22E
102
{ACAD_REACTORS
330
1DC
102
}
330
1DC
100
AcDbScale
 70
     0
300
1:20_4
140
1.0
141
20.0
290
     0
  0
SCALE
  5
22F
102
{ACAD_REACTORS
330
1DC
102
}
330
1DC
100
AcDbScale
 70
     0
300
1/8" = 1'-0"_XREF
140
0.125
141
12.0
290
     0
1001
ACAD
1000
AcRTDxfName
1000
SCALE
  0
SCALE
  5
230
102
{ACAD_REACTORS
330
1DC
102
}
330
1DC
100
AcDbScale
 70
     0
300
3/4" = 1'-0"
140
0.75
141
12.0
290
     0
  0
SCALE
  5
231
102
{ACAD_REACTORS
330
1DC
102
}
330
1DC
100
AcDbScale
 70
     0
300
3/16" = 1'-0"_XREF
140
0.1875
141
12.0
290
     0
1001
ACAD
1000
AcRTDxfName
1000
SCALE
  0
SCALE
  5
232
102
{ACAD_REACTORS
330
1DC
102
}
330
1DC
100
AcDbScale
 70
     0
300
1/4" = 1'-0"_XREF
140
0.25
141
12.0
290
     0
1001
ACAD
1000
AcRTDxfName
1000
SCALE
  0
SCALE
  5
233
102
{ACAD_REACTORS
330
1DC
102
}
330
1DC
100
AcDbScale
 70
     0
300
3/8" = 1'-0"_XREF
140
0.375
141
12.0
290
     0
1001
ACAD
1000
AcRTDxfName
1000
SCALE
  0
SCALE
  5
234
102
{ACAD_REACTORS
330
1DC
102
}
330
1DC
100
AcDbScale
 70
     0
300
1/2" = 1'-0"_XREF
140
0.5
141
12.0
290
     0
1001
ACAD
1000
AcRTDxfName
1000
SCALE
  0
SCALE
  5
235
102
{ACAD_REACTORS
330
1DC
102
}
330
1DC
100
AcDbScale
 70
     0
300
3/4" = 1'-0"_XREF
140
0.75
141
12.0
290
     0
1001
ACAD
1000
AcRTDxfName
1000
SCALE
  0
SCALE
  5
236
102
{ACAD_REACTORS
330
1DC
102
}
330
1DC
100
AcDbScale
 70
     0
300
1:5_4
140
1.0
141
5.0
290
     0
  0
SCALE
  5
237
102
{ACAD_REACTORS
330
1DC
102
}
330
1DC
100
AcDbScale
 70
     0
300
1:100_4
140
1.0
141
100.0
290
     0
  0
SCALE
  5
238
102
{ACAD_REACTORS
330
1DC
102
}
330
1DC
100
AcDbScale
 70
     0
300
1" = 1'-0"
140
1.0
141
12.0
290
     0
  0
SCALE
  5
239
102
{ACAD_REACTORS
330
1DC
102
}
330
1DC
100
AcDbScale
 70
     0
300
1:10_3_1
140
1.0
141
10.0
290
     0
  0
SCALE
  5
23A
102
{ACAD_REACTORS
330
1DC
102
}
330
1DC
100
AcDbScale
 70
     0
300
1:100_3_1
140
1.0
141
100.0
290
     0
  0
SCALE
  5
23B
102
{ACAD_REACTORS
330
1DC
102
}
330
1DC
100
AcDbScale
 70
     0
300
1:20_2
140
1.0
141
20.0
290
     0
  0
SCALE
  5
23C
102
{ACAD_REACTORS
330
1DC
102
}
330
1DC
100
AcDbScale
 70
     0
300
1" = 1'-0"_XREF
140
1.0
141
12.0
290
     0
1001
ACAD
1000
AcRTDxfName
1000
SCALE
  0
SCALE
  5
23D
102
{ACAD_REACTORS
330
1DC
102
}
330
1DC
100
AcDbScale
 70
     0
300
1:1
140
1.0
141
0.1
290
     0
  0
SCALE
  5
23E
102
{ACAD_REACTORS
330
1DC
102
}
330
1DC
100
AcDbScale
 70
     0
300
1:2
140
1.0
141
0.2
290
     0
  0
SCALE
  5
23F
102
{ACAD_REACTORS
330
1DC
102
}
330
1DC
100
AcDbScale
 70
     0
300
1:2.5
140
1.0
141
0.25
290
     0
  0
SCALE
  5
240
102
{ACAD_REACTORS
330
1DC
102
}
330
1DC
100
AcDbScale
 70
     0
300
1:5
140
1.0
141
0.5
290
     0
  0
SCALE
  5
241
102
{ACAD_REACTORS
330
1DC
102
}
330
1DC
100
AcDbScale
 70
     0
300
1:7.5
140
1.0
141
0.75
290
     0
  0
SCALE
  5
242
102
{ACAD_REACTORS
330
1DC
102
}
330
1DC
100
AcDbScale
 70
     0
300
1:10
140
1.0
141
1.0
290
     1
  0
SCALE
  5
243
102
{ACAD_REACTORS
330
1DC
102
}
330
1DC
100
AcDbScale
 70
     0
300
1:20
140
1.0
141
2.0
290
     0
  0
SCALE
  5
244
102
{ACAD_REACTORS
330
1DC
102
}
330
1DC
100
AcDbScale
 70
     0
300
1:25
140
1.0
141
2.5
290
     0
  0
SCALE
  5
245
102
{ACAD_REACTORS
330
1DC
102
}
330
1DC
100
AcDbScale
 70
     0
300
1:50
140
1.0
141
5.0
290
     0
  0
SCALE
  5
246
102
{ACAD_REACTORS
330
1DC
102
}
330
1DC
100
AcDbScale
 70
     0
300
1:75
140
1.0
141
7.5
290
     0
  0
SCALE
  5
247
102
{ACAD_REACTORS
330
1DC
102
}
330
1DC
100
AcDbScale
 70
     0
300
1:100
140
1.0
141
10.0
290
     0
  0
SCALE
  5
248
102
{ACAD_REACTORS
330
1DC
102
}
330
1DC
100
AcDbScale
 70
     0
300
1:150
140
1.0
141
15.0
290
     0
  0
SCALE
  5
249
102
{ACAD_REACTORS
330
1DC
102
}
330
1DC
100
AcDbScale
 70
     0
300
1:200
140
1.0
141
20.0
290
     0
  0
SCALE
  5
24A
102
{ACAD_REACTORS
330
1DC
102
}
330
1DC
100
AcDbScale
 70
     0
300
1:250
140
1.0
141
25.0
290
     0
  0
SCALE
  5
24B
102
{ACAD_REACTORS
330
1DC
102
}
330
1DC
100
AcDbScale
 70
     0
300
1:500
140
1.0
141
50.0
290
     0
  0
SCALE
  5
24C
102
{ACAD_REACTORS
330
1DC
102
}
330
1DC
100
AcDbScale
 70
     0
300
1:750
140
1.0
141
75.0
290
     0
  0
SCALE
  5
24D
102
{ACAD_REACTORS
330
1DC
102
}
330
1DC
100
AcDbScale
 70
     0
300
1:1000
140
1.0
141
100.0
290
     0
  0
SCALE
  5
24E
102
{ACAD_REACTORS
330
1DC
102
}
330
1DC
100
AcDbScale
 70
     0
300
1:1250
140
1.0
141
125.0
290
     0
  0
SCALE
  5
24F
102
{ACAD_REACTORS
330
1DC
102
}
330
1DC
100
AcDbScale
 70
     0
300
1:2000
140
1.0
141
200.0
290
     0
  0
SCALE
  5
250
102
{ACAD_REACTORS
330
1DC
102
}
330
1DC
100
AcDbScale
 70
     0
300
1:2500
140
1.0
141
250.0
290
     0
  0
SCALE
  5
251
102
{ACAD_REACTORS
330
1DC
102
}
330
1DC
100
AcDbScale
 70
     0
300
1:5000
140
1.0
141
500.0
290
     0
  0
TABLESTYLE
  5
1DF
102
{ACAD_XDICTIONARY
360
1E0
102
}
102
{ACAD_REACTORS
330
1DD
102
}
330
1DD
100
AcDbTableStyle
  3
Standard
 70
     0
 71
     0
 40
0.06
 41
0.06
280
     0
281
     0
  7
STANDARD
140
0.18
170
     2
 62
     0
 63
     7
283
     0
274
    -2
284
     1
 64
     0
275
    -2
285
     1
 65
     0
276
    -2
286
     1
 66
     0
277
    -2
287
     1
 67
     0
278
    -2
288
     1
 68
     0
279
    -2
289
     1
 69
     0
  7
STANDARD
140
0.25
170
     5
 62
     0
 63
     7
283
     0
274
    -2
284
     1
 64
     0
275
    -2
285
     1
 65
     0
276
    -2
286
     1
 66
     0
277
    -2
287
     1
 67
     0
278
    -2
288
     1
 68
     0
279
    -2
289
     1
 69
     0
  7
STANDARD
140
0.18
170
     5
 62
     0
 63
     7
283
     0
274
    -2
284
     1
 64
     0
275
    -2
285
     1
 65
     0
276
    -2
286
     1
 66
     0
277
    -2
287
     1
 67
     0
278
    -2
288
     1
 68
     0
279
    -2
289
     1
 69
     0
  0
VISUALSTYLE
  5
1BF
102
{ACAD_REACTORS
330
1C0
102
}
330
1C0
100
AcDbVisualStyle
  2
2dWireframe
 70
     4
 71
     0
 72
     2
 73
     0
 90
        0
 40
-0.6
 41
-30.0
 62
     5
 63
     7
 74
     1
 91
        4
 64
     7
 65
   257
 75
     1
175
     1
 42
1.0
 92
        0
 66
   257
 43
1.0
 76
     1
 77
     6
 78
     2
 67
     7
 79
     5
170
     0
171
     0
290
     0
174
     0
 93
        1
 44
0.0
173
     0
291
     0
 45
0.0
1001
ACAD
1000
AcDbSavedByObjectVersion
1070
     0
  0
VISUALSTYLE
  5
1E2
102
{ACAD_REACTORS
330
1C0
102
}
330
1C0
100
AcDbVisualStyle
  2
3dWireframe
 70
     5
 71
     0
 72
     2
 73
     0
 90
        0
 40
-0.6
 41
-30.0
 62
     5
 63
     7
 74
     1
 91
        4
 64
     7
 65
   257
 75
     1
175
     1
 42
1.0
 92
        0
 66
   257
 43
1.0
 76
     1
 77
     6
 78
     2
 67
     7
 79
     5
170
     0
171
     0
290
     0
174
     0
 93
        1
 44
0.0
173
     0
291
     0
 45
0.0
1001
ACAD
1000
AcDbSavedByObjectVersion
1070
     0
  0
VISUALSTYLE
  5
1E1
102
{ACAD_REACTORS
330
1C0
102
}
330
1C0
100
AcDbVisualStyle
  2
Realistic
 70
     8
 71
     2
 72
     2
 73
     0
 90
        0
 40
-0.6
 41
-30.0
 62
     5
 63
     7
 74
     1
 91
        0
 64
     7
 65
   257
 75
     1
175
     1
 42
1.0
 92
        8
 66
     8
 43
1.0
 76
     1
 77
     6
 78
     2
 67
     7
 79
     5
170
     0
171
     0
290
     0
174
     0
 93
       13
 44
0.0
173
     0
291
     0
 45
0.0
1001
ACAD
1000
AcDbSavedByObjectVersion
1070
     0
  0
DICTIONARYVAR
  5
258
102
{ACAD_REACTORS
330
254
102
}
330
254
100
DictionaryVariables
280
     0
  1
1:1
  0
DICTIONARYVAR
  5
256
102
{ACAD_REACTORS
330
254
102
}
330
254
100
DictionaryVariables
280
     0
  1
STANDARD
  0
DICTIONARYVAR
  5
255
102
{ACAD_REACTORS
330
254
102
}
330
254
100
DictionaryVariables
280
     0
  1
STANDARD
  0
DICTIONARYVAR
  5
25C
102
{ACAD_REACTORS
330
254
102
}
330
254
100
DictionaryVariables
280
     0
  1
1
  0
DICTIONARYVAR
  5
25B
102
{ACAD_REACTORS
330
254
102
}
330
254
100
DictionaryVariables
280
     0
  1
1
  0
DICTIONARYVAR
  5
25A
102
{ACAD_REACTORS
330
254
102
}
330
254
100
DictionaryVariables
280
     0
  1
0
  0
DICTIONARYVAR
  5
257
102
{ACAD_REACTORS
330
254
102
}
330
254
100
DictionaryVariables
280
     0
  1
1
  0
DICTIONARYVAR
  5
259
102
{ACAD_REACTORS
330
254
102
}
330
254
100
DictionaryVariables
280
     0
  1
127
  0
DICTIONARY
  5
265
330
1C5
100
AcDbDictionary
280
     1
281
     1
  3
ACAD_XREC_ROUNDTRIP
360
266
  0
DICTIONARY
  5
263
330
1BC
100
AcDbDictionary
280
     1
281
     1
  3
ACAD_XREC_ROUNDTRIP
360
264
  0
DICTIONARY
  5
269
330
1DA
100
AcDbDictionary
280
     1
281
     1
  3
ACAD_XREC_ROUNDTRIP
360
26A
  0
DICTIONARY
  5
267
330
1D9
100
AcDbDictionary
280
     1
281
     1
  3
ACAD_XREC_ROUNDTRIP
360
268
  0
DICTIONARY
  5
261
330
C
100
AcDbDictionary
280
     1
281
     1
  3
ACAD_XREC_ROUNDTRIP
360
262
  0
DICTIONARY
  5
1E0
330
1DF
100
AcDbDictionary
280
     1
281
     1
  3
ACAD_ROUNDTRIP_2008_TABLESTYLE_CELLSTYLEMAP
360
25E
  3
ACAD_XREC_ROUNDTRIP
360
26B
  0
XRECORD
  5
266
102
{ACAD_REACTORS
330
265
102
}
330
265
100
AcDbXrecord
280
     1
102
SHADEPLOT
 70
     0
102
SHADEPLOTRESLEVEL
 70
     2
102
SHADEPLOTCUSTOMDPI
 70
   300
  0
XRECORD
  5
264
102
{ACAD_REACTORS
330
263
102
}
330
263
100
AcDbXrecord
280
     1
102
SHADEPLOT
 70
     1
102
SHADEPLOTRESLEVEL
 70
     2
102
SHADEPLOTCUSTOMDPI
 70
   300
  0
XRECORD
  5
26A
102
{ACAD_REACTORS
330
269
102
}
330
269
100
AcDbXrecord
280
     1
102
MATERIAL
148
0.0
149
0.0
149
0.0
 93
        0
 94
       63
282
     0
 72
     1
 77
     1
171
     1
175
     1
179
     1
273
     0
  0
XRECORD
  5
268
102
{ACAD_REACTORS
330
267
102
}
330
267
100
AcDbXrecord
280
     1
102
MATERIAL
148
0.0
149
0.0
149
0.0
 93
        0
 94
       63
282
     0
 72
     1
 77
     1
171
     1
175
     1
179
     1
273
     0
  0
XRECORD
  5
262
102
{ACAD_REACTORS
330
261
102
}
330
261
100
AcDbXrecord
280
     1
102
MATERIAL
148
0.0
149
0.0
149
0.0
 93
        0
 94
       63
282
     0
 72
     1
 77
     1
171
     1
175
     1
179
     1
273
     0
  0
CELLSTYLEMAP
  5
25E
102
{ACAD_REACTORS
330
1E0
102
}
330
1E0
100
AcDbCellStyleMap
 90
        3
300
CELLSTYLE
  1
TABLEFORMAT_BEGIN
 90
        5
170
     1
 91
        0
 92
    32768
 62
   257
 93
        1
300
CONTENTFORMAT
  1
CONTENTFORMAT_BEGIN
 90
        0
 91
        0
 92
        4
 93
        0
300

 40
0.0
140
1.0
 94
        5
 62
     0
340
1CA
144
0.25
309
CONTENTFORMAT_END
171
     0
 94
        6
 95
        1
302
GRIDFORMAT
  1
GRIDFORMAT_BEGIN
 90
        0
 91
        1
 62
     0
 92
       -2
340
0
 93
        0
 40
0.045
309
GRIDFORMAT_END
 95
        2
302
GRIDFORMAT
  1
GRIDFORMAT_BEGIN
 90
        0
 91
        1
 62
     0
 92
       -2
340
0
 93
        0
 40
0.045
309
GRIDFORMAT_END
 95
        4
302
GRIDFORMAT
  1
GRIDFORMAT_BEGIN
 90
        0
 91
        1
 62
     0
 92
       -2
340
0
 93
        0
 40
0.045
309
GRIDFORMAT_END
 95
        8
302
GRIDFORMAT
  1
GRIDFORMAT_BEGIN
 90
        0
 91
        1
 62
     0
 92
       -2
340
0
 93
        0
 40
0.045
309
GRIDFORMAT_END
 95
       16
302
GRIDFORMAT
  1
GRIDFORMAT_BEGIN
 90
        0
 91
        1
 62
     0
 92
       -2
340
0
 93
        0
 40
0.045
309
GRIDFORMAT_END
 95
       32
302
GRIDFORMAT
  1
GRIDFORMAT_BEGIN
 90
        0
 91
        1
 62
     0
 92
       -2
340
0
 93
        0
 40
0.045
309
GRIDFORMAT_END
309
TABLEFORMAT_END
  1
CELLSTYLE_BEGIN
 90
        1
 91
        1
300
_TITLE
309
CELLSTYLE_END
300
CELLSTYLE
  1
TABLEFORMAT_BEGIN
 90
        5
170
     1
 91
        0
 92
        0
 62
   257
 93
        1
300
CONTENTFORMAT
  1
CONTENTFORMAT_BEGIN
 90
        0
 91
        0
 92
        4
 93
        0
300

 40
0.0
140
1.0
 94
        5
 62
     0
340
1CA
144
0.18
309
CONTENTFORMAT_END
171
     0
 94
        6
 95
        1
302
GRIDFORMAT
  1
GRIDFORMAT_BEGIN
 90
        0
 91
        1
 62
     0
 92
       -2
340
0
 93
        0
 40
0.045
309
GRIDFORMAT_END
 95
        2
302
GRIDFORMAT
  1
GRIDFORMAT_BEGIN
 90
        0
 91
        1
 62
     0
 92
       -2
340
0
 93
        0
 40
0.045
309
GRIDFORMAT_END
 95
        4
302
GRIDFORMAT
  1
GRIDFORMAT_BEGIN
 90
        0
 91
        1
 62
     0
 92
       -2
340
0
 93
        0
 40
0.045
309
GRIDFORMAT_END
 95
        8
302
GRIDFORMAT
  1
GRIDFORMAT_BEGIN
 90
        0
 91
        1
 62
     0
 92
       -2
340
0
 93
        0
 40
0.045
309
GRIDFORMAT_END
 95
       16
302
GRIDFORMAT
  1
GRIDFORMAT_BEGIN
 90
        0
 91
        1
 62
     0
 92
       -2
340
0
 93
        0
 40
0.045
309
GRIDFORMAT_END
 95
       32
302
GRIDFORMAT
  1
GRIDFORMAT_BEGIN
 90
        0
 91
        1
 62
     0
 92
       -2
340
0
 93
        0
 40
0.045
309
GRIDFORMAT_END
309
TABLEFORMAT_END
  1
CELLSTYLE_BEGIN
 90
        2
 91
        1
300
_HEADER
309
CELLSTYLE_END
300
CELLSTYLE
  1
TABLEFORMAT_BEGIN
 90
        5
170
     1
 91
        0
 92
        0
 62
   257
 93
        1
300
CONTENTFORMAT
  1
CONTENTFORMAT_BEGIN
 90
        0
 91
        0
 92
        4
 93
        0
300

 40
0.0
140
1.0
 94
        2
 62
     0
340
1CA
144
0.18
309
CONTENTFORMAT_END
171
     0
 94
        6
 95
        1
302
GRIDFORMAT
  1
GRIDFORMAT_BEGIN
 90
        0
 91
        1
 62
     0
 92
       -2
340
0
 93
        0
 40
0.045
309
GRIDFORMAT_END
 95
        2
302
GRIDFORMAT
  1
GRIDFORMAT_BEGIN
 90
        0
 91
        1
 62
     0
 92
       -2
340
0
 93
        0
 40
0.045
309
GRIDFORMAT_END
 95
        4
302
GRIDFORMAT
  1
GRIDFORMAT_BEGIN
 90
        0
 91
        1
 62
     0
 92
       -2
340
0
 93
        0
 40
0.045
309
GRIDFORMAT_END
 95
        8
302
GRIDFORMAT
  1
GRIDFORMAT_BEGIN
 90
        0
 91
        1
 62
     0
 92
       -2
340
0
 93
        0
 40
0.045
309
GRIDFORMAT_END
 95
       16
302
GRIDFORMAT
  1
GRIDFORMAT_BEGIN
 90
        0
 91
        1
 62
     0
 92
       -2
340
0
 93
        0
 40
0.045
309
GRIDFORMAT_END
 95
       32
302
GRIDFORMAT
  1
GRIDFORMAT_BEGIN
 90
        0
 91
        1
 62
     0
 92
       -2
340
0
 93
        0
 40
0.045
309
GRIDFORMAT_END
309
TABLEFORMAT_END
  1
CELLSTYLE_BEGIN
 90
        3
 91
        2
300
_DATA
309
CELLSTYLE_END
  0
XRECORD
  5
26B
102
{ACAD_REACTORS
330
1E0
102
}
330
1E0
100
AcDbXrecord
280
     1
102
ACAD_ROUNDTRIP_PRE2007_TABLESTYLE
 90
        4
 91
        0
  1

 92
        4
 93
        0
  2

 94
        4
 95
        0
  3

  0
ENDSEC
  0
EOF
