  0
SECTION
  2
HEADER
  9
$ACADVER
  1
AC1015
  9
$ACADMAINTVER
 70
    18
  9
$DWGCODEPAGE
  3
ANSI_1250
  9
$INSBASE
 10
0.0
 20
0.0
 30
0.0
  9
$EXTMIN
 10
1.000000000000000E+20
 20
1.000000000000000E+20
 30
1.000000000000000E+20
  9
$EXTMAX
 10
0.0
 20
0.0
 30
0.0
  9
$LIMMIN
 10
0.0
 20
0.0
  9
$LIMMAX
 10
12.0
 20
9.0
  9
$ORTHOMODE
 70
     0
  9
$REGENMODE
 70
     1
  9
$FILLMODE
 70
     1
  9
$QTEXTMODE
 70
     0
  9
$MIRRTEXT
 70
     0
  9
$LTSCALE
 40
75.0
  9
$ATTMODE
 70
     1
  9
$TEXTSIZE
 40
5.0
  9
$TRACEWID
 40
40.0
  9
$TEXTSTYLE
  7
ROMANS
  9
$CLAYER
  8
0
  9
$CELTYPE
  6
BYLAYER
  9
$CECOLOR
 62
   256
  9
$CELTSCALE
 40
4.0
  9
$DISPSILH
 70
     0
  9
$DIMSCALE
 40
1.0
  9
$DIMASZ
 40
1.0
  9
$DIMEXO
 40
43.0
  9
$DIMDLI
 40
24.0
  9
$DIMRND
 40
0.5
  9
$DIMDLE
 40
12.0
  9
$DIMEXE
 40
13.0
  9
$DIMTP
 40
0.0
  9
$DIMTM
 40
0.0
  9
$DIMTXT
 40
30.0
  9
$DIMCEN
 40
0.0
  9
$DIMTSZ
 40
0.0
  9
$DIMTOL
 70
     0
  9
$DIMLIM
 70
     0
  9
$DIMTIH
 70
     0
  9
$DIMTOH
 70
     0
  9
$DIMSE1
 70
     1
  9
$DIMSE2
 70
     1
  9
$DIMTAD
 70
     1
  9
$DIMZIN
 70
     8
  9
$DIMBLK
  1
B-DIM_W
  9
$DIMASO
 70
     1
  9
$DIMSHO
 70
     1
  9
$DIMPOST
  1

  9
$DIMAPOST
  1

  9
$DIMALT
 70
     0
  9
$DIMALTD
 70
     2
  9
$DIMALTF
 40
25.4
  9
$DIMLFAC
 40
1.0
  9
$DIMTOFL
 70
     1
  9
$DIMTVP
 40
1.0
  9
$DIMTIX
 70
     1
  9
$DIMSOXD
 70
     0
  9
$DIMSAH
 70
     0
  9
$DIMBLK1
  1

  9
$DIMBLK2
  1

  9
$DIMSTYLE
  2
100-PRw
  9
$DIMCLRD
 70
     1
  9
$DIMCLRE
 70
     1
  9
$DIMCLRT
 70
   140
  9
$DIMTFAC
 40
1.0
  9
$DIMGAP
 40
8.0
  9
$DIMJUST
 70
     0
  9
$DIMSD1
 70
     0
  9
$DIMSD2
 70
     0
  9
$DIMTOLJ
 70
     1
  9
$DIMTZIN
 70
     0
  9
$DIMALTZ
 70
     0
  9
$DIMALTTZ
 70
     0
  9
$DIMUPT
 70
     0
  9
$DIMDEC
 70
     1
  9
$DIMTDEC
 70
     1
  9
$DIMALTU
 70
     2
  9
$DIMALTTD
 70
     2
  9
$DIMTXSTY
  7
ROMANS
  9
$DIMAUNIT
 70
     0
  9
$DIMADEC
 70
     0
  9
$DIMALTRND
 40
0.0
  9
$DIMAZIN
 70
     0
  9
$DIMDSEP
 70
    46
  9
$DIMATFIT
 70
     3
  9
$DIMFRAC
 70
     0
  9
$DIMLDRBLK
  1
Dot
  9
$DIMLUNIT
 70
     2
  9
$DIMLWD
 70
     5
  9
$DIMLWE
 70
    -2
  9
$DIMTMOVE
 70
     2
  9
$LUNITS
 70
     2
  9
$LUPREC
 70
     2
  9
$SKETCHINC
 40
0.1
  9
$FILLETRAD
 40
0.0
  9
$AUNITS
 70
     0
  9
$AUPREC
 70
     1
  9
$MENU
  1
acad
  9
$ELEVATION
 40
0.0
  9
$PELEVATION
 40
0.0
  9
$THICKNESS
 40
0.0
  9
$LIMCHECK
 70
     0
  9
$CHAMFERA
 40
30.0
  9
$CHAMFERB
 40
30.0
  9
$CHAMFERC
 40
0.0
  9
$CHAMFERD
 40
0.0
  9
$SKPOLY
 70
     0
  9
$TDCREATE
 40
2450817.525937848
  9
$TDUCREATE
 40
2450817.442604514
  9
$TDUPDATE
 40
2455432.422469433
  9
$TDUUPDATE
 40
2455432.339136100
  9
$TDINDWG
 40
24.0400038194
  9
$TDUSRTIMER
 40
24.0400034606
  9
$USRTIMER
 70
     1
  9
$ANGBASE
 50
0.0
  9
$ANGDIR
 70
     0
  9
$PDMODE
 70
     3
  9
$PDSIZE
 40
10.0
  9
$PLINEWID
 40
0.0
  9
$SPLFRAME
 70
     0
  9
$SPLINETYPE
 70
     6
  9
$SPLINESEGS
 70
     8
  9
$HANDSEED
  5
228
  9
$SURFTAB1
 70
     6
  9
$SURFTAB2
 70
     6
  9
$SURFTYPE
 70
     6
  9
$SURFU
 70
     6
  9
$SURFV
 70
     6
  9
$UCSBASE
  2

  9
$UCSNAME
  2

  9
$UCSORG
 10
0.0
 20
0.0
 30
0.0
  9
$UCSXDIR
 10
1.0
 20
0.0
 30
0.0
  9
$UCSYDIR
 10
0.0
 20
1.0
 30
0.0
  9
$UCSORTHOREF
  2

  9
$UCSORTHOVIEW
 70
     0
  9
$UCSORGTOP
 10
0.0
 20
0.0
 30
0.0
  9
$UCSORGBOTTOM
 10
0.0
 20
0.0
 30
0.0
  9
$UCSORGLEFT
 10
0.0
 20
0.0
 30
0.0
  9
$UCSORGRIGHT
 10
0.0
 20
0.0
 30
0.0
  9
$UCSORGFRONT
 10
0.0
 20
0.0
 30
0.0
  9
$UCSORGBACK
 10
0.0
 20
0.0
 30
0.0
  9
$PUCSBASE
  2

  9
$PUCSNAME
  2

  9
$PUCSORG
 10
0.0
 20
0.0
 30
0.0
  9
$PUCSXDIR
 10
1.0
 20
0.0
 30
0.0
  9
$PUCSYDIR
 10
0.0
 20
1.0
 30
0.0
  9
$PUCSORTHOREF
  2

  9
$PUCSORTHOVIEW
 70
     0
  9
$PUCSORGTOP
 10
0.0
 20
0.0
 30
0.0
  9
$PUCSORGBOTTOM
 10
0.0
 20
0.0
 30
0.0
  9
$PUCSORGLEFT
 10
0.0
 20
0.0
 30
0.0
  9
$PUCSORGRIGHT
 10
0.0
 20
0.0
 30
0.0
  9
$PUCSORGFRONT
 10
0.0
 20
0.0
 30
0.0
  9
$PUCSORGBACK
 10
0.0
 20
0.0
 30
0.0
  9
$USERI1
 70
     0
  9
$USERI2
 70
     0
  9
$USERI3
 70
     0
  9
$USERI4
 70
     0
  9
$USERI5
 70
     0
  9
$USERR1
 40
0.0
  9
$USERR2
 40
0.0
  9
$USERR3
 40
0.0
  9
$USERR4
 40
0.0
  9
$USERR5
 40
0.0
  9
$WORLDVIEW
 70
     1
  9
$SHADEDGE
 70
     3
  9
$SHADEDIF
 70
    70
  9
$TILEMODE
 70
     1
  9
$MAXACTVP
 70
    16
  9
$PINSBASE
 10
5931.669543547489
 20
-50.0
 30
10705.17123084718
  9
$PLIMCHECK
 70
     0
  9
$PEXTMIN
 10
2.702088997349676
 20
15.7987521134969
 30
-0.0015258207003583
  9
$PEXTMAX
 10
190.5469675360144
 20
283.4209897116466
 30
0.0000000349246037
  9
$PLIMMIN
 10
-5.8040348580268
 20
-3.338581427005318
  9
$PLIMMAX
 10
201.9698379087309
 20
290.5190204031687
  9
$UNITMODE
 70
     0
  9
$VISRETAIN
 70
     0
  9
$PLINEGEN
 70
     0
  9
$PSLTSCALE
 70
     0
  9
$TREEDEPTH
 70
  3020
  9
$CMLSTYLE
  2
STANDARD
  9
$CMLJUST
 70
     0
  9
$CMLSCALE
 40
1.0
  9
$PROXYGRAPHICS
 70
     1
  9
$MEASUREMENT
 70
     0
  9
$CELWEIGHT
370
    -1
  9
$ENDCAPS
280
     0
  9
$JOINSTYLE
280
     0
  9
$LWDISPLAY
290
     0
  9
$INSUNITS
 70
     5
  9
$HYPERLINKBASE
  1

  9
$STYLESHEET
  1

  9
$XEDIT
290
     1
  9
$CEPSNTYPE
380
     0
  9
$PSTYLEMODE
290
     1
  9
$FINGERPRINTGUID
  2
{603BF6F2-86B1-4B0F-9550-AE5A85101592}
  9
$VERSIONGUID
  2
{0DBD81AA-8C42-4AD1-A35E-E955E08C4DCD}
  9
$EXTNAMES
290
     1
  9
$PSVPSCALE
 40
0.0
  9
$OLESTARTUP
290
     0
  0
ENDSEC
  0
SECTION
  2
CLASSES
  0
CLASS
  1
DICTIONARYVAR
  2
AcDbDictionaryVar
  3
ObjectDBX Classes
 90
        0
280
     0
281
     0
  0
CLASS
  1
ACDBDICTIONARYWDFLT
  2
AcDbDictionaryWithDefault
  3
ObjectDBX Classes
 90
        0
280
     0
281
     0
  0
CLASS
  1
ACDBPLACEHOLDER
  2
AcDbPlaceHolder
  3
ObjectDBX Classes
 90
        0
280
     0
281
     0
  0
CLASS
  1
LAYOUT
  2
AcDbLayout
  3
ObjectDBX Classes
 90
        0
280
     0
281
     0
  0
CLASS
  1
AEC_VARS_DWG_SETUP
  2
AecDbVarsDwgSetup
  3
AecBase50|Product Desc: Autodesk Architectural Desktop 2007 |Company: Autodesk,Inc. |WEB Address: www.autodesk.com
 90
    32897
280
     0
281
     0
  0
CLASS
  1
AEC_DISP_REP_CONFIG
  2
AecDbDispRepConfig
  3
AecBase50|Product Desc: Autodesk Architectural Desktop 2007 |Company: Autodesk,Inc. |WEB Address: www.autodesk.com
 90
    32897
280
     0
281
     0
  0
CLASS
  1
AEC_DISP_REP_SET
  2
AecDbDispRepSet
  3
AecBase50|Product Desc: Autodesk Architectural Desktop 2007 |Company: Autodesk,Inc. |WEB Address: www.autodesk.com
 90
    32897
280
     0
281
     0
  0
CLASS
  1
AEC_DISP_REP_2D_SECTION
  2
AecDbDispRep2dSection
  3
AecBase50|Product Desc: Autodesk Architectural Desktop 2007 |Company: Autodesk,Inc. |WEB Address: www.autodesk.com
 90
    32897
280
     0
281
     0
  0
CLASS
  1
AEC_DISP_REP_ANCHOR_BUB_TO_GRID
  2
AecDbDispRepAnchorBubToGrid
  3
AecStructureBase50|Product Desc: Autodesk Architectural Desktop 2007 |Company: Autodesk,Inc. |WEB Address: www.autodesk.com
 90
    32897
280
     0
281
     0
  0
CLASS
  1
AEC_DISP_REP_ANCHOR_BUB_TO_GRID_MODEL
  2
AecDbDispRepAnchorBubToGridMdl
  3
AecStructureBase50|Product Desc: Autodesk Architectural Desktop 2007 |Company: Autodesk,Inc. |WEB Address: www.autodesk.com
 90
    32897
280
     0
281
     0
  0
CLASS
  1
AEC_DISP_REP_ANCHOR_ENT_TO_NODE
  2
AecDbDispRepAnchorEntToNode
  3
AecBaseEx50|Product Desc: Autodesk Architectural Desktop 2007 |Company: Autodesk,Inc. |WEB Address: www.autodesk.com
 90
    32897
280
     0
281
     0
  0
CLASS
  1
AEC_DISP_REP_ANCHOR_TAG_TO_ENT
  2
AecDbDispRepAnchorTagToEnt
  3
AecScheduleData50|Product Desc: Autodesk Architectural Desktop 2007 |Company: Autodesk,Inc. |WEB Address: www.autodesk.com
 90
    32897
280
     0
281
     0
  0
CLASS
  1
AEC_DISP_REP_AREA
  2
AecDbDispRepArea
  3
AecAreaCalculationBase50|Product Desc: Autodesk Architectural Desktop 2007 |Company: Autodesk,Inc. |WEB Address: www.autodesk.com
 90
    32897
280
     0
281
     0
  0
CLASS
  1
AEC_DISP_REP_AREA_DECOMPOSED
  2
AecDbDispRepAreaDecomposed
  3
AecAreaCalculationBase50|Product Desc: Autodesk Architectural Desktop 2007 |Company: Autodesk,Inc. |WEB Address: www.autodesk.com
 90
    32897
280
     0
281
     0
  0
CLASS
  1
AEC_DISP_REP_AREAGROUP
  2
AecDbDispRepAreaGroup
  3
AecAreaCalculationBase50|Product Desc: Autodesk Architectural Desktop 2007 |Company: Autodesk,Inc. |WEB Address: www.autodesk.com
 90
    32897
280
     0
281
     0
  0
CLASS
  1
AEC_DISP_REP_BDG_ELEVLINE_MODEL
  2
AecDbDispRepBdgElevLineModel
  3
AecArchBase50|Product Desc: Autodesk Architectural Desktop 2007 |Company: Autodesk,Inc. |WEB Address: www.autodesk.com
 90
    32897
280
     0
281
     0
  0
CLASS
  1
AEC_DISP_REP_BDG_SECTIONLINE_PLAN
  2
AecDbDispRepBdgElevLinePlan
  3
AecArchBase50|Product Desc: Autodesk Architectural Desktop 2007 |Company: Autodesk,Inc. |WEB Address: www.autodesk.com
 90
    32897
280
     0
281
     0
  0
CLASS
  1
AEC_DISP_REP_BDG_SECTIONLINE_MODEL
  2
AecDbDispRepBdgSectionLineModel
  3
AecArchBase50|Product Desc: Autodesk Architectural Desktop 2007 |Company: Autodesk,Inc. |WEB Address: www.autodesk.com
 90
    32897
280
     0
281
     0
  0
CLASS
  1
AEC_DISP_REP_BDG_SECTIONLINE_PLAN
  2
AecDbDispRepBdgSectionLinePlan
  3
AecArchBase50|Product Desc: Autodesk Architectural Desktop 2007 |Company: Autodesk,Inc. |WEB Address: www.autodesk.com
 90
    32897
280
     0
281
     0
  0
CLASS
  1
AEC_DISP_REP_BDG_SECTION_SUBDIV
  2
AecDbDispRepBdgSectionSubDiv
  3
AecArchBase50|Product Desc: Autodesk Architectural Desktop 2007 |Company: Autodesk,Inc. |WEB Address: www.autodesk.com
 90
    32897
280
     0
281
     0
  0
CLASS
  1
AEC_DISP_REP_CAMERA
  2
AecDbDispRepCamera
  3
AecBase50|Product Desc: Autodesk Architectural Desktop 2007 |Company: Autodesk,Inc. |WEB Address: www.autodesk.com
 90
    32897
280
     0
281
     0
  0
CLASS
  1
AEC_DISP_REP_CEILING_GRID
  2
AecDbDispRepCeilingGrid
  3
AecArchBase50|Product Desc: Autodesk Architectural Desktop 2007 |Company: Autodesk,Inc. |WEB Address: www.autodesk.com
 90
    33661
280
     0
281
     0
  0
CLASS
  1
AEC_DISP_REP_CEILING_GRID_MODEL
  2
AecDbDispRepCeilingGridModel
  3
AecArchBase50|Product Desc: Autodesk Architectural Desktop 2007 |Company: Autodesk,Inc. |WEB Address: www.autodesk.com
 90
    32897
280
     0
281
     0
  0
CLASS
  1
AEC_DISP_REP_CEILING_GRID_RCP
  2
AecDbDispRepCeilingGridRcp
  3
AecArchBase50|Product Desc: Autodesk Architectural Desktop 2007 |Company: Autodesk,Inc. |WEB Address: www.autodesk.com
 90
    32897
280
     0
281
     0
  0
CLASS
  1
AEC_DISP_REP_CLIP_VOLUME_MODEL
  2
AecDbDispRepClipVolModel
  3
AecBase50|Product Desc: Autodesk Architectural Desktop 2007 |Company: Autodesk,Inc. |WEB Address: www.autodesk.com
 90
    32897
280
     0
281
     0
  0
CLASS
  1
AEC_DISP_REP_CLIP_VOLUME_PLAN
  2
AecDbDispRepClipVolPlan
  3
AecBase50|Product Desc: Autodesk Architectural Desktop 2007 |Company: Autodesk,Inc. |WEB Address: www.autodesk.com
 90
    32897
280
     0
281
     0
  0
CLASS
  1
AEC_DISP_REP_CLIP_VOLUME_RESULT_SUBDIV
  2
AecDbDispRepClipVolResSubDiv
  3
AecBase50|Product Desc: Autodesk Architectural Desktop 2007 |Company: Autodesk,Inc. |WEB Address: www.autodesk.com
 90
    32897
280
     0
281
     0
  0
CLASS
  1
AEC_DISP_REP_CLIP_VOLUME_RESULT
  2
AecDbDispRepClipVolResult
  3
AecBase50|Product Desc: Autodesk Architectural Desktop 2007 |Company: Autodesk,Inc. |WEB Address: www.autodesk.com
 90
    32897
280
     0
281
     0
  0
CLASS
  1
AEC_DISP_REP_COLUMN_GRID
  2
AecDbDispRepColumnGrid
  3
AecStructureBase50|Product Desc: Autodesk Architectural Desktop 2007 |Company: Autodesk,Inc. |WEB Address: www.autodesk.com
 90
    32897
280
     0
281
     0
  0
CLASS
  1
AEC_DISP_REP_COLUMN_GRID_MODEL
  2
AecDbDispRepColumnGridModel
  3
AecStructureBase50|Product Desc: Autodesk Architectural Desktop 2007 |Company: Autodesk,Inc. |WEB Address: www.autodesk.com
 90
    32897
280
     0
281
     0
  0
CLASS
  1
AEC_DISP_REP_CURTAIN_WALL_LAYOUT_MODEL
  2
AecDbDispRepCurtainWallLayoutModel
  3
AecArchBase50|Product Desc: Autodesk Architectural Desktop 2007 |Company: Autodesk,Inc. |WEB Address: www.autodesk.com
 90
    32897
280
     0
281
     0
  0
CLASS
  1
AEC_DISP_REP_CURTAIN_WALL_LAYOUT_PLAN
  2
AecDbDispRepCurtainWallLayoutPlan
  3
AecArchBase50|Product Desc: Autodesk Architectural Desktop 2007 |Company: Autodesk,Inc. |WEB Address: www.autodesk.com
 90
    32897
280
     0
281
     0
  0
CLASS
  1
AEC_DISP_REP_CURTAIN_WALL_UNIT_MODEL
  2
AecDbDispRepCurtainWallUnitModel
  3
AecArchBase50|Product Desc: Autodesk Architectural Desktop 2007 |Company: Autodesk,Inc. |WEB Address: www.autodesk.com
 90
    32897
280
     0
281
     0
  0
CLASS
  1
AEC_DISP_REP_CURTAIN_WALL_UNIT_PLAN
  2
AecDbDispRepCurtainWallUnitPlan
  3
AecArchBase50|Product Desc: Autodesk Architectural Desktop 2007 |Company: Autodesk,Inc. |WEB Address: www.autodesk.com
 90
    32897
280
     0
281
     0
  0
CLASS
  1
AEC_DB_DISP_REP_DIM_GROUP_PLAN
  2
AecDbDispRepDimGroupPlan
  3
AecArchDACHBase50|Product Desc: Autodesk Architectural Desktop 2007 |Company: Autodesk,Inc. |WEB Address: www.autodesk.com
 90
    32897
280
     0
281
     0
  0
CLASS
  1
AEC_DISP_REP_DOOR_MODEL
  2
AecDbDispRepDoorModel
  3
AecArchBase50|Product Desc: Autodesk Architectural Desktop 2007 |Company: Autodesk,Inc. |WEB Address: www.autodesk.com
 90
    32897
280
     0
281
     0
  0
CLASS
  1
AEC_DISP_REP_DOOR_NOMINAL
  2
AecDbDispRepDoorNominal
  3
AecArchBase50|Product Desc: Autodesk Architectural Desktop 2007 |Company: Autodesk,Inc. |WEB Address: www.autodesk.com
 90
    32897
280
     0
281
     0
  0
CLASS
  1
AEC_DISP_REP_DOOR_PLAN
  2
AecDbDispRepDoorPlan
  3
AecArchBase50|Product Desc: Autodesk Architectural Desktop 2007 |Company: Autodesk,Inc. |WEB Address: www.autodesk.com
 90
    32897
280
     0
281
     0
  0
CLASS
  1
AEC_DISP_REP_EDITINPLACEPROFILE
  2
AecDbDispRepEditInPlaceProfile
  3
AecBase50|Product Desc: Autodesk Architectural Desktop 2007 |Company: Autodesk,Inc. |WEB Address: www.autodesk.com
 90
    32897
280
     0
281
     0
  0
CLASS
  1
AEC_DISP_REP_ENT_REF
  2
AecDbDispRepEntRef
  3
AecBase50|Product Desc: Autodesk Architectural Desktop 2007 |Company: Autodesk,Inc. |WEB Address: www.autodesk.com
 90
    32897
280
     0
281
     0
  0
CLASS
  1
AEC_DISP_REP_LAYOUT_CURVE
  2
AecDbDispRepLayoutCurve
  3
AecBase50|Product Desc: Autodesk Architectural Desktop 2007 |Company: Autodesk,Inc. |WEB Address: www.autodesk.com
 90
    32897
280
     0
281
     0
  0
CLASS
  1
AEC_DISP_REP_LAYOUT_GRID2D
  2
AecDbDispRepLayoutGrid2d
  3
AecBase50|Product Desc: Autodesk Architectural Desktop 2007 |Company: Autodesk,Inc. |WEB Address: www.autodesk.com
 90
    32897
280
     0
281
     0
  0
CLASS
  1
AEC_DISP_REP_LAYOUT_GRID3D
  2
AecDbDispRepLayoutGrid3d
  3
AecBase50|Product Desc: Autodesk Architectural Desktop 2007 |Company: Autodesk,Inc. |WEB Address: www.autodesk.com
 90
    32897
280
     0
281
     0
  0
CLASS
  1
AEC_DISP_REP_MASKBLOCK_REF
  2
AecDbDispRepMaskBlockRef
  3
AecBase50|Product Desc: Autodesk Architectural Desktop 2007 |Company: Autodesk,Inc. |WEB Address: www.autodesk.com
 90
    32897
280
     0
281
     0
  0
CLASS
  1
AEC_DISP_REP_MASKBLOCK_REF_RCP
  2
AecDbDispRepMaskBlockRefRcp
  3
AecArchBase50|Product Desc: Autodesk Architectural Desktop 2007 |Company: Autodesk,Inc. |WEB Address: www.autodesk.com
 90
    32897
280
     0
281
     0
  0
CLASS
  1
AEC_DISP_REP_MASS_ELEM_MODEL
  2
AecDbDispRepMassElemModel
  3
AecBaseEx50|Product Desc: Autodesk Architectural Desktop 2007 |Company: Autodesk,Inc. |WEB Address: www.autodesk.com
 90
    32897
280
     0
281
     0
  0
CLASS
  1
AEC_DISP_REP_MASS_ELEM_SCHEM
  2
AecDbDispRepMassElemSchem
  3
AecBaseEx50|Product Desc: Autodesk Architectural Desktop 2007 |Company: Autodesk,Inc. |WEB Address: www.autodesk.com
 90
    32897
280
     0
281
     0
  0
CLASS
  1
AEC_DISP_REP_MASS_GROUP_MODEL
  2
AecDbDispRepMassGroupModel
  3
AecBaseEx50|Product Desc: Autodesk Architectural Desktop 2007 |Company: Autodesk,Inc. |WEB Address: www.autodesk.com
 90
    32897
280
     0
281
     0
  0
CLASS
  1
AEC_DISP_REP_MASS_GROUP_PLAN
  2
AecDbDispRepMassGroupPlan
  3
AecBaseEx50|Product Desc: Autodesk Architectural Desktop 2007 |Company: Autodesk,Inc. |WEB Address: www.autodesk.com
 90
    32897
280
     0
281
     0
  0
CLASS
  1
AEC_DISP_REP_MATERIAL
  2
AecDbDispRepMaterial
  3
AecBase50|Product Desc: Autodesk Architectural Desktop 2007 |Company: Autodesk,Inc. |WEB Address: www.autodesk.com
 90
    32897
280
     0
281
     0
  0
CLASS
  1
AEC_DISP_REP_MVBLOCK_REF
  2
AecDbDispRepMvBlockRef
  3
AecBase50|Product Desc: Autodesk Architectural Desktop 2007 |Company: Autodesk,Inc. |WEB Address: www.autodesk.com
 90
    32897
280
     0
281
     0
  0
CLASS
  1
AEC_DISP_REP_MVBLOCK_REF_MODEL
  2
AecDbDispRepMvBlockRefModel
  3
AecBase50|Product Desc: Autodesk Architectural Desktop 2007 |Company: Autodesk,Inc. |WEB Address: www.autodesk.com
 90
    32897
280
     0
281
     0
  0
CLASS
  1
AEC_DISP_REP_OPENING
  2
AecDbDispRepOpening
  3
AecArchBase50|Product Desc: Autodesk Architectural Desktop 2007 |Company: Autodesk,Inc. |WEB Address: www.autodesk.com
 90
    32897
280
     0
281
     0
  0
CLASS
  1
AEC_DISP_REP_OPENING_MODEL
  2
AecDbDispRepOpeningModel
  3
AecArchBase50|Product Desc: Autodesk Architectural Desktop 2007 |Company: Autodesk,Inc. |WEB Address: www.autodesk.com
 90
    32897
280
     0
281
     0
  0
CLASS
  1
AEC_DISP_REP_POLYGON_MODEL
  2
AecDbDispRepPolygonModel
  3
AecBaseEx50|Product Desc: Autodesk Architectural Desktop 2007 |Company: Autodesk,Inc. |WEB Address: www.autodesk.com
 90
    32897
280
     0
281
     0
  0
CLASS
  1
AEC_DISP_REP_RAILING_MODEL
  2
AecDbDispRepRailingModel
  3
AecArchBase50|Product Desc: Autodesk Architectural Desktop 2007 |Company: Autodesk,Inc. |WEB Address: www.autodesk.com
 90
    32897
280
     0
281
     0
  0
CLASS
  1
AEC_DISP_REP_RAILING_PLAN
  2
AecDbDispRepRailingPlan
  3
AecArchBase50|Product Desc: Autodesk Architectural Desktop 2007 |Company: Autodesk,Inc. |WEB Address: www.autodesk.com
 90
    32897
280
     0
281
     0
  0
CLASS
  1
AEC_DISP_REP_ROOF_MODEL
  2
AecDbDispRepRoofModel
  3
AecArchBase50|Product Desc: Autodesk Architectural Desktop 2007 |Company: Autodesk,Inc. |WEB Address: www.autodesk.com
 90
    32897
280
     0
281
     0
  0
CLASS
  1
AEC_DISP_REP_ROOF_PLAN
  2
AecDbDispRepRoofPlan
  3
AecArchBase50|Product Desc: Autodesk Architectural Desktop 2007 |Company: Autodesk,Inc. |WEB Address: www.autodesk.com
 90
    32897
280
     0
281
     0
  0
CLASS
  1
AEC_DISP_REP_ROOFSLAB_MODEL
  2
AecDbDispRepRoofSlabModel
  3
AecArchBase50|Product Desc: Autodesk Architectural Desktop 2007 |Company: Autodesk,Inc. |WEB Address: www.autodesk.com
 90
    32897
280
     0
281
     0
  0
CLASS
  1
AEC_DISP_REP_ROOFSLAB_PLAN
  2
AecDbDispRepRoofSlabPlan
  3
AecArchBase50|Product Desc: Autodesk Architectural Desktop 2007 |Company: Autodesk,Inc. |WEB Address: www.autodesk.com
 90
    32897
280
     0
281
     0
  0
CLASS
  1
AEC_DISP_REP_SCHEDULE_TABLE
  2
AecDbDispRepScheduleTable
  3
AecSchedule50|Product Desc: Autodesk Architectural Desktop 2007 |Company: Autodesk,Inc. |WEB Address: www.autodesk.com
 90
    32897
280
     0
281
     0
  0
CLASS
  1
AEC_DISP_REP_SLAB_MODEL
  2
AecDbDispRepSlabModel
  3
AecArchBase50|Product Desc: Autodesk Architectural Desktop 2007 |Company: Autodesk,Inc. |WEB Address: www.autodesk.com
 90
    32897
280
     0
281
     0
  0
CLASS
  1
AEC_DISP_REP_SLAB_PLAN
  2
AecDbDispRepSlabPlan
  3
AecArchBase50|Product Desc: Autodesk Architectural Desktop 2007 |Company: Autodesk,Inc. |WEB Address: www.autodesk.com
 90
    32897
280
     0
281
     0
  0
CLASS
  1
AEC_DISP_REP_SLICE
  2
AecDbDispRepSlice
  3
AecBase50|Product Desc: Autodesk Architectural Desktop 2007 |Company: Autodesk,Inc. |WEB Address: www.autodesk.com
 90
    32897
280
     0
281
     0
  0
CLASS
  1
AEC_DISP_REP_SPACE_BOUNDARY_MODEL
  2
AecDbDispRepSpaceBoundaryModel
  3
AecArchBase50|Product Desc: Autodesk Architectural Desktop 2007 |Company: Autodesk,Inc. |WEB Address: www.autodesk.com
 90
    32897
280
     0
281
     0
  0
CLASS
  1
AEC_DISP_REP_SPACE_BOUNDARY_PLAN
  2
AecDbDispRepSpaceBoundaryPlan
  3
AecArchBase50|Product Desc: Autodesk Architectural Desktop 2007 |Company: Autodesk,Inc. |WEB Address: www.autodesk.com
 90
    32897
280
     0
281
     0
  0
CLASS
  1
AEC_DISP_REP_SPACE_BOUNDARY_SCHEM
  2
AecDbDispRepSpaceBoundarySketch
  3
AecArchBase50|Product Desc: Autodesk Architectural Desktop 2007 |Company: Autodesk,Inc. |WEB Address: www.autodesk.com
 90
    32897
280
     0
281
     0
  0
CLASS
  1
AEC_DISP_REP_SPACE_MODEL
  2
AecDbDispRepSpaceModel
  3
AecArchBase50|Product Desc: Autodesk Architectural Desktop 2007 |Company: Autodesk,Inc. |WEB Address: www.autodesk.com
 90
    32897
280
     0
281
     0
  0
CLASS
  1
AEC_DISP_REP_SPACE_PLAN
  2
AecDbDispRepSpacePlan
  3
AecArchBase50|Product Desc: Autodesk Architectural Desktop 2007 |Company: Autodesk,Inc. |WEB Address: www.autodesk.com
 90
    32897
280
     0
281
     0
  0
CLASS
  1
AEC_DISP_REP_STAIR_MODEL
  2
AecDbDispRepStairModel
  3
AecArchBase50|Product Desc: Autodesk Architectural Desktop 2007 |Company: Autodesk,Inc. |WEB Address: www.autodesk.com
 90
    32897
280
     0
281
     0
  0
CLASS
  1
AEC_DISP_REP_STAIR_PLAN
  2
AecDbDispRepStairPlan
  3
AecArchBase50|Product Desc: Autodesk Architectural Desktop 2007 |Company: Autodesk,Inc. |WEB Address: www.autodesk.com
 90
    32897
280
     0
281
     0
  0
CLASS
  1
AEC_DISP_REP_WALL_GRAPH
  2
AecDbDispRepWallGraph
  3
AecArchBase50|Product Desc: Autodesk Architectural Desktop 2007 |Company: Autodesk,Inc. |WEB Address: www.autodesk.com
 90
    32897
280
     0
281
     0
  0
CLASS
  1
AEC_DISP_REP_WALL_MODEL
  2
AecDbDispRepWallModel
  3
AecArchBase50|Product Desc: Autodesk Architectural Desktop 2007 |Company: Autodesk,Inc. |WEB Address: www.autodesk.com
 90
    32897
280
     0
281
     0
  0
CLASS
  1
AEC_DISP_REP_WALL_PLAN
  2
AecDbDispRepWallPlan
  3
AecArchBase50|Product Desc: Autodesk Architectural Desktop 2007 |Company: Autodesk,Inc. |WEB Address: www.autodesk.com
 90
    32897
280
     0
281
     0
  0
CLASS
  1
AEC_DISP_REP_WALL_SCHEM
  2
AecDbDispRepWallSchem
  3
AecArchBase50|Product Desc: Autodesk Architectural Desktop 2007 |Company: Autodesk,Inc. |WEB Address: www.autodesk.com
 90
    32897
280
     0
281
     0
  0
CLASS
  1
AEC_DISP_REP_WINDOW_ASSEMBLY_MODEL
  2
AecDbDispRepWindowAssemblyModel
  3
AecArchBase50|Product Desc: Autodesk Architectural Desktop 2007 |Company: Autodesk,Inc. |WEB Address: www.autodesk.com
 90
    32897
280
     0
281
     0
  0
CLASS
  1
AEC_DISP_REP_WINDOW_ASSEMBLY_PLAN
  2
AecDbDispRepWindowAssemblyPlan
  3
AecArchBase50|Product Desc: Autodesk Architectural Desktop 2007 |Company: Autodesk,Inc. |WEB Address: www.autodesk.com
 90
    32897
280
     0
281
     0
  0
CLASS
  1
AEC_AECDBDISPREPWINDOWASSEMBLYPLAN100
  2
AecDbDispRepWindowAssemblyPlan100
  3
AecArchDACHBase50|Product Desc: Autodesk Architectural Desktop 2007 |Company: Autodesk,Inc. |WEB Address: www.autodesk.com
 90
    32897
280
     0
281
     0
  0
CLASS
  1
AEC_DISP_REP_WINDOW_MODEL
  2
AecDbDispRepWindowModel
  3
AecArchBase50|Product Desc: Autodesk Architectural Desktop 2007 |Company: Autodesk,Inc. |WEB Address: www.autodesk.com
 90
    32897
280
     0
281
     0
  0
CLASS
  1
AEC_DISP_REP_WINDOW_NOMINAL
  2
AecDbDispRepWindowNominal
  3
AecArchBase50|Product Desc: Autodesk Architectural Desktop 2007 |Company: Autodesk,Inc. |WEB Address: www.autodesk.com
 90
    32897
280
     0
281
     0
  0
CLASS
  1
AEC_DISP_REP_WINDOW_PLAN
  2
AecDbDispRepWindowPlan
  3
AecArchBase50|Product Desc: Autodesk Architectural Desktop 2007 |Company: Autodesk,Inc. |WEB Address: www.autodesk.com
 90
    32897
280
     0
281
     0
  0
CLASS
  1
AECS_DISP_REP_MEMBER_LOGICAL
  2
AecsDbDispRepMemberLogical
  3
AecStructureBase50|Product Desc: Autodesk Architectural Desktop 2007 |Company: Autodesk,Inc. |WEB Address: www.autodesk.com
 90
    32897
280
     0
281
     0
  0
CLASS
  1
AECS_DISP_REP_MEMBER_MODEL_DESIGN
  2
AecsDbDispRepMemberModelDesign
  3
AecStructureBase50|Product Desc: Autodesk Architectural Desktop 2007 |Company: Autodesk,Inc. |WEB Address: www.autodesk.com
 90
    32897
280
     0
281
     0
  0
CLASS
  1
AECS_DISP_REP_MEMBER_PLAN_DESIGN
  2
AecsDbDispRepMemberPlanDesign
  3
AecStructureBase50|Product Desc: Autodesk Architectural Desktop 2007 |Company: Autodesk,Inc. |WEB Address: www.autodesk.com
 90
    32897
280
     0
281
     0
  0
CLASS
  1
AEC_DISP_PROPS_ENT
  2
AecDbDispPropsEnt
  3
AecBase50|Product Desc: Autodesk Architectural Desktop 2007 |Company: Autodesk,Inc. |WEB Address: www.autodesk.com
 90
    32897
280
     0
281
     0
  0
CLASS
  1
AEC_DISP_PROPS_CLIP_VOLUME
  2
AecDbDispPropsClipVol
  3
AecBase50|Product Desc: Autodesk Architectural Desktop 2007 |Company: Autodesk,Inc. |WEB Address: www.autodesk.com
 90
    32897
280
     0
281
     0
  0
CLASS
  1
AEC_DISP_PROPS_SLICE
  2
AecDbDispPropsSlice
  3
AecBase50|Product Desc: Autodesk Architectural Desktop 2007 |Company: Autodesk,Inc. |WEB Address: www.autodesk.com
 90
    32897
280
     0
281
     0
  0
CLASS
  1
AEC_DISP_PROPS_ROOFSLAB_PLAN
  2
AecDbDispPropsRoofSlabPlan
  3
AecArchBase50|Product Desc: Autodesk Architectural Desktop 2007 |Company: Autodesk,Inc. |WEB Address: www.autodesk.com
 90
    32897
280
     0
281
     0
  0
CLASS
  1
AEC_DISP_PROPS_GRID_ASSEMBLY_MODEL
  2
AecDbDispPropsGridAssemblyModel
  3
AecArchBase50|Product Desc: Autodesk Architectural Desktop 2007 |Company: Autodesk,Inc. |WEB Address: www.autodesk.com
 90
    32897
280
     0
281
     0
  0
CLASS
  1
AEC_DISP_PROPS_ROOF
  2
AecDbDispPropsRoof
  3
AecArchBase50|Product Desc: Autodesk Architectural Desktop 2007 |Company: Autodesk,Inc. |WEB Address: www.autodesk.com
 90
    32897
280
     0
281
     0
  0
CLASS
  1
AEC_DISP_PROPS_SPACE_MODEL
  2
AecDbDispPropsSpaceModel
  3
AecArchBase50|Product Desc: Autodesk Architectural Desktop 2007 |Company: Autodesk,Inc. |WEB Address: www.autodesk.com
 90
    32897
280
     0
281
     0
  0
CLASS
  1
AEC_DISP_PROPS_EDITINPLACEPROFILE_MODEL
  2
AecDbDispPropsEditInPlaceProfile
  3
AecBase50|Product Desc: Autodesk Architectural Desktop 2007 |Company: Autodesk,Inc. |WEB Address: www.autodesk.com
 90
    32897
280
     0
281
     0
  0
CLASS
  1
AEC_DISP_PROPS_DOOR
  2
AecDbDispPropsDoor
  3
AecArchBase50|Product Desc: Autodesk Architectural Desktop 2007 |Company: Autodesk,Inc. |WEB Address: www.autodesk.com
 90
    32897
280
     0
281
     0
  0
CLASS
  1
AEC_DISP_PROPS_MASKBLOCK
  2
AecDbDispPropsMaskBlock
  3
AecBase50|Product Desc: Autodesk Architectural Desktop 2007 |Company: Autodesk,Inc. |WEB Address: www.autodesk.com
 90
    32897
280
     0
281
     0
  0
CLASS
  1
AEC_DISP_PROPS_SPACE_PLAN
  2
AecDbDispPropsSpacePlan
  3
AecArchBase50|Product Desc: Autodesk Architectural Desktop 2007 |Company: Autodesk,Inc. |WEB Address: www.autodesk.com
 90
    32897
280
     0
281
     0
  0
CLASS
  1
AEC_DISP_PROPS_RAILING_PLAN
  2
AecDbDispPropsRailingPlan
  3
AecArchBase50|Product Desc: Autodesk Architectural Desktop 2007 |Company: Autodesk,Inc. |WEB Address: www.autodesk.com
 90
    32897
280
     0
281
     0
  0
CLASS
  1
AEC_DISP_PROPS_LAYOUT_GRID2D
  2
AecDbDispPropsLayoutGrid2d
  3
AecBase50|Product Desc: Autodesk Architectural Desktop 2007 |Company: Autodesk,Inc. |WEB Address: www.autodesk.com
 90
    32897
280
     0
281
     0
  0
CLASS
  1
AEC_DISP_PROPS_CLIP_VOLUME_RESULT
  2
AecDbDispPropsClipVolResSubDiv
  3
AecBase50|Product Desc: Autodesk Architectural Desktop 2007 |Company: Autodesk,Inc. |WEB Address: www.autodesk.com
 90
    32897
280
     0
281
     0
  0
CLASS
  1
AEC_DISP_PROPS_STAIR_MODEL
  2
AecDbDispPropsStairModel
  3
AecArchBase50|Product Desc: Autodesk Architectural Desktop 2007 |Company: Autodesk,Inc. |WEB Address: www.autodesk.com
 90
    32897
280
     0
281
     0
  0
CLASS
  1
AEC_DISP_PROPS_LAYOUT_CURVE
  2
AecDbDispPropsLayoutCurve
  3
AecBase50|Product Desc: Autodesk Architectural Desktop 2007 |Company: Autodesk,Inc. |WEB Address: www.autodesk.com
 90
    32897
280
     0
281
     0
  0
CLASS
  1
AEC_DISP_PROPS_POLYGON_MODEL
  2
AecDbDispPropsPolygonModel
  3
AecBaseEx50|Product Desc: Autodesk Architectural Desktop 2007 |Company: Autodesk,Inc. |WEB Address: www.autodesk.com
 90
    32897
280
     0
281
     0
  0
CLASS
  1
AEC_DISP_PROPS_MASS_GROUP
  2
AecDbDispPropsMassGroup
  3
AecBaseEx50|Product Desc: Autodesk Architectural Desktop 2007 |Company: Autodesk,Inc. |WEB Address: www.autodesk.com
 90
    32897
280
     0
281
     0
  0
CLASS
  1
AEC_DISP_PROPS_STAIR_PLAN
  2
AecDbDispPropsStairPlan
  3
AecArchBase50|Product Desc: Autodesk Architectural Desktop 2007 |Company: Autodesk,Inc. |WEB Address: www.autodesk.com
 90
    32897
280
     0
281
     0
  0
CLASS
  1
AEC_DISP_PROPS_OPENING
  2
AecDbDispPropsOpening
  3
AecArchBase50|Product Desc: Autodesk Architectural Desktop 2007 |Company: Autodesk,Inc. |WEB Address: www.autodesk.com
 90
    32897
280
     0
281
     0
  0
CLASS
  1
AEC_DISP_PROPS_WALL_GRAPH
  2
AecDbDispPropsWallGraph
  3
AecArchBase50|Product Desc: Autodesk Architectural Desktop 2007 |Company: Autodesk,Inc. |WEB Address: www.autodesk.com
 90
    32897
280
     0
281
     0
  0
CLASS
  1
AEC_DISP_PROPS_DOOR_NOMINAL
  2
AecDbDispPropsDoorNominal
  3
AecArchBase50|Product Desc: Autodesk Architectural Desktop 2007 |Company: Autodesk,Inc. |WEB Address: www.autodesk.com
 90
    32897
280
     0
281
     0
  0
CLASS
  1
AEC_DISP_PROPS_SLAB
  2
AecDbDispPropsSlab
  3
AecArchBase50|Product Desc: Autodesk Architectural Desktop 2007 |Company: Autodesk,Inc. |WEB Address: www.autodesk.com
 90
    32897
280
     0
281
     0
  0
CLASS
  1
AEC_DISP_PROPS_WALL_MODEL
  2
AecDbDispPropsWallModel
  3
AecArchBase50|Product Desc: Autodesk Architectural Desktop 2007 |Company: Autodesk,Inc. |WEB Address: www.autodesk.com
 90
    32897
280
     0
281
     0
  0
CLASS
  1
AEC_DISP_PROPS_MATERIAL
  2
AecDbDispPropsMaterial
  3
AecBase50|Product Desc: Autodesk Architectural Desktop 2007 |Company: Autodesk,Inc. |WEB Address: www.autodesk.com
 90
    32897
280
     0
281
     0
  0
CLASS
  1
AEC_DISP_PROPS_WINDOW
  2
AecDbDispPropsWindow
  3
AecArchBase50|Product Desc: Autodesk Architectural Desktop 2007 |Company: Autodesk,Inc. |WEB Address: www.autodesk.com
 90
    32897
280
     0
281
     0
  0
CLASS
  1
AEC_DISP_PROPS_LAYOUT_GRID3D
  2
AecDbDispPropsLayoutGrid3d
  3
AecBase50|Product Desc: Autodesk Architectural Desktop 2007 |Company: Autodesk,Inc. |WEB Address: www.autodesk.com
 90
    32897
280
     0
281
     0
  0
CLASS
  1
AEC_DISP_PROPS_GRID_ASSEMBLY_PLAN
  2
AecDbDispPropsGridAssemblyPlan
  3
AecArchBase50|Product Desc: Autodesk Architectural Desktop 2007 |Company: Autodesk,Inc. |WEB Address: www.autodesk.com
 90
    32897
280
     0
281
     0
  0
CLASS
  1
AEC_DISP_PROPS_WALL_SCHEM
  2
AecDbDispPropsWallSchem
  3
AecArchBase50|Product Desc: Autodesk Architectural Desktop 2007 |Company: Autodesk,Inc. |WEB Address: www.autodesk.com
 90
    32897
280
     0
281
     0
  0
CLASS
  1
AEC_DISP_PROPS_WALL_PLAN
  2
AecDbDispPropsWallPlan
  3
AecArchBase50|Product Desc: Autodesk Architectural Desktop 2007 |Company: Autodesk,Inc. |WEB Address: www.autodesk.com
 90
    32897
280
     0
281
     0
  0
CLASS
  1
AEC_DISP_PROPS_SPACE_BOUNDARY
  2
AecDbDispPropsSpaceBoundary
  3
AecArchBase50|Product Desc: Autodesk Architectural Desktop 2007 |Company: Autodesk,Inc. |WEB Address: www.autodesk.com
 90
    32897
280
     0
281
     0
  0
CLASS
  1
AEC_DISP_PROPS_SLAB_PLAN
  2
AecDbDispPropsSlabPlan
  3
AecArchBase50|Product Desc: Autodesk Architectural Desktop 2007 |Company: Autodesk,Inc. |WEB Address: www.autodesk.com
 90
    32897
280
     0
281
     0
  0
CLASS
  1
AEC_DISP_PROPS_RAILING_MODEL
  2
AecDbDispPropsRailingModel
  3
AecArchBase50|Product Desc: Autodesk Architectural Desktop 2007 |Company: Autodesk,Inc. |WEB Address: www.autodesk.com
 90
    32897
280
     0
281
     0
  0
CLASS
  1
AEC_DISP_PROPS_MASS_ELEM_MODEL
  2
AecDbDispPropsMassElem
  3
AecBaseEx50|Product Desc: Autodesk Architectural Desktop 2007 |Company: Autodesk,Inc. |WEB Address: www.autodesk.com
 90
    32897
280
     0
281
     0
  0
CLASS
  1
AEC_DISP_PROPS_DIM
  2
AecDbDispPropsDimGroup
  3
AecArchDACHBase50|Product Desc: Autodesk Architectural Desktop 2007 |Company: Autodesk,Inc. |WEB Address: www.autodesk.com
 90
    32897
280
     0
281
     0
  0
CLASS
  1
AEC_DISP_PROPS_ROOFSLAB
  2
AecDbDispPropsRoofSlab
  3
AecArchBase50|Product Desc: Autodesk Architectural Desktop 2007 |Company: Autodesk,Inc. |WEB Address: www.autodesk.com
 90
    32897
280
     0
281
     0
  0
CLASS
  1
AEC_DISP_PROPS_ENT_REF
  2
AecDbDispPropsEntRef
  3
AecBase50|Product Desc: Autodesk Architectural Desktop 2007 |Company: Autodesk,Inc. |WEB Address: www.autodesk.com
 90
    32897
280
     0
281
     0
  0
CLASS
  1
AEC_DISP_PROPS_2D_SECTION
  2
AecDbDispProps2dSection
  3
AecBase50|Product Desc: Autodesk Architectural Desktop 2007 |Company: Autodesk,Inc. |WEB Address: www.autodesk.com
 90
    32897
280
     0
281
     0
  0
CLASS
  1
AECS_DISP_PROPS_MEMBER_LOGICAL
  2
AecsDbDispPropsMemberLogical
  3
AecStructureBase50|Product Desc: Autodesk Architectural Desktop 2007 |Company: Autodesk,Inc. |WEB Address: www.autodesk.com
 90
    32897
280
     0
281
     0
  0
CLASS
  1
AEC_DISP_PROPS_AREA_DECOMPOSED
  2
AecDbDispPropsAreaDecomposed
  3
AecAreaCalculationBase50|Product Desc: Autodesk Architectural Desktop 2007 |Company: Autodesk,Inc. |WEB Address: www.autodesk.com
 90
    32897
280
     0
281
     0
  0
CLASS
  1
AEC_DISP_PROPS_CAMERA
  2
AecDbDispPropsCamera
  3
AecBase50|Product Desc: Autodesk Architectural Desktop 2007 |Company: Autodesk,Inc. |WEB Address: www.autodesk.com
 90
    32897
280
     0
281
     0
  0
CLASS
  1
AECS_DISP_PROPS_MEMBER
  2
AecsDbDispPropsMember
  3
AecStructureBase50|Product Desc: Autodesk Architectural Desktop 2007 |Company: Autodesk,Inc. |WEB Address: www.autodesk.com
 90
    32897
280
     0
281
     0
  0
CLASS
  1
AECS_DISP_PROPS_MEMBER_PLAN
  2
AecsDbDispPropsMemberPlan
  3
AecStructureBase50|Product Desc: Autodesk Architectural Desktop 2007 |Company: Autodesk,Inc. |WEB Address: www.autodesk.com
 90
    32897
280
     0
281
     0
  0
CLASS
  1
AEC_DISP_PROPS_AREAGROUP
  2
AecDbDispPropsAreaGroup
  3
AecAreaCalculationBase50|Product Desc: Autodesk Architectural Desktop 2007 |Company: Autodesk,Inc. |WEB Address: www.autodesk.com
 90
    32897
280
     0
281
     0
  0
CLASS
  1
AEC_DISP_PROPS_WINDOW_NOMINAL
  2
AecDbDispPropsWindowNominal
  3
AecArchBase50|Product Desc: Autodesk Architectural Desktop 2007 |Company: Autodesk,Inc. |WEB Address: www.autodesk.com
 90
    32897
280
     0
281
     0
  0
CLASS
  1
AEC_DISP_PROPS_AREA
  2
AecDbDispPropsArea
  3
AecAreaCalculationBase50|Product Desc: Autodesk Architectural Desktop 2007 |Company: Autodesk,Inc. |WEB Address: www.autodesk.com
 90
    32897
280
     0
281
     0
  0
CLASS
  1
AEC_DISP_PROPS_SCHEDULE_TABLE
  2
AecDbDispPropsScheduleTable
  3
AecSchedule50|Product Desc: Autodesk Architectural Desktop 2007 |Company: Autodesk,Inc. |WEB Address: www.autodesk.com
 90
    32897
280
     0
281
     0
  0
CLASS
  1
AEC_LAYERKEY_STYLE
  2
AecDbLayerKeyStyle
  3
AecBase50|Product Desc: Autodesk Architectural Desktop 2007 |Company: Autodesk,Inc. |WEB Address: www.autodesk.com
 90
    32897
280
     0
281
     0
  0
CLASS
  1
AEC_VARS_ARCHBASE
  2
AecDbVarsArchBase
  3
AecArchBase50|Product Desc: Autodesk Architectural Desktop 2007 |Company: Autodesk,Inc. |WEB Address: www.autodesk.com
 90
    32897
280
     0
281
     0
  0
CLASS
  1
AEC_VARS_MUNICH
  2
AecDbVarsMunich
  3
AecArchDACHBase50|Product Desc: Autodesk Architectural Desktop 2007 |Company: Autodesk,Inc. |WEB Address: www.autodesk.com
 90
    32897
280
     0
281
     0
  0
CLASS
  1
AEC_NOTIFICATION_TRACKER
  2
AecDbNotificationTracker
  3
AecBase50|Product Desc: Autodesk Architectural Desktop 2007 |Company: Autodesk,Inc. |WEB Address: www.autodesk.com
 90
    32897
280
     0
281
     0
  0
CLASS
  1
AEC_DISP_REP_ANCHOR
  2
AecDbDispRepAnchor
  3
AecBase50|Product Desc: Autodesk Architectural Desktop 2007 |Company: Autodesk,Inc. |WEB Address: www.autodesk.com
 90
    32897
280
     0
281
     0
  0
CLASS
  1
AEC_DISP_REP_POLYGON_TRUECOLOUR
  2
AecDbDispRepPolygonTrueColour
  3
AecBaseEx50|Product Desc: Autodesk Architectural Desktop 2007 |Company: Autodesk,Inc. |WEB Address: www.autodesk.com
 90
    32897
280
     0
281
     0
  0
CLASS
  1
AEC_DISP_PROPS_POLYGON_TRUECOLOUR
  2
AecDbDispPropsPolygonTrueColour
  3
AecBaseEx50|Product Desc: Autodesk Architectural Desktop 2007 |Company: Autodesk,Inc. |WEB Address: www.autodesk.com
 90
    32897
280
     0
281
     0
  0
CLASS
  1
AEC_DISP_REP_BDG_ELEVLINE_RCP
  2
AecDbDispRepBdgElevLineRcp
  3
AecArchBase50|Product Desc: Autodesk Architectural Desktop 2007 |Company: Autodesk,Inc. |WEB Address: www.autodesk.com
 90
    32897
280
     0
281
     0
  0
CLASS
  1
AEC_DISP_REP_BDG_SECTIONLINE_RCP
  2
AecDbDispRepBdgSectionLineRcp
  3
AecArchBase50|Product Desc: Autodesk Architectural Desktop 2007 |Company: Autodesk,Inc. |WEB Address: www.autodesk.com
 90
    32897
280
     0
281
     0
  0
CLASS
  1
AEC_DISP_REP_BDG_SECTION_MODEL
  2
AecDbDispRepBdgSectionModel
  3
AecArchBase50|Product Desc: Autodesk Architectural Desktop 2007 |Company: Autodesk,Inc. |WEB Address: www.autodesk.com
 90
    32897
280
     0
281
     0
  0
CLASS
  1
AEC_DISP_REP_DOOR_ELEV
  2
AecDbDispRepDoorElev
  3
AecArchBase50|Product Desc: Autodesk Architectural Desktop 2007 |Company: Autodesk,Inc. |WEB Address: www.autodesk.com
 90
    32897
280
     0
281
     0
  0
CLASS
  1
AEC_DISP_REP_DOOR_RCP
  2
AecDbDispRepDoorRcp
  3
AecArchBase50|Product Desc: Autodesk Architectural Desktop 2007 |Company: Autodesk,Inc. |WEB Address: www.autodesk.com
 90
    32897
280
     0
281
     0
  0
CLASS
  1
AEC_DISP_REP_DOOR_THRESHOLD_PLAN
  2
AecDbDispRepDoorThresholdPlan
  3
AecArchBase50|Product Desc: Autodesk Architectural Desktop 2007 |Company: Autodesk,Inc. |WEB Address: www.autodesk.com
 90
    32897
280
     0
281
     0
  0
CLASS
  1
AEC_DISP_PROPS_DOOR_THRESHOLD_PLAN
  2
AecDbDispPropsDoorThresholdPlan
  3
AecArchBase50|Product Desc: Autodesk Architectural Desktop 2007 |Company: Autodesk,Inc. |WEB Address: www.autodesk.com
 90
    32897
280
     0
281
     0
  0
CLASS
  1
AEC_DISP_REP_MASS_ELEM_RCP
  2
AecDbDispRepMassElemRcp
  3
AecArchBase50|Product Desc: Autodesk Architectural Desktop 2007 |Company: Autodesk,Inc. |WEB Address: www.autodesk.com
 90
    32897
280
     0
281
     0
  0
CLASS
  1
AEC_DISP_REP_MASS_GROUP_RCP
  2
AecDbDispRepMassGroupRcp
  3
AecArchBase50|Product Desc: Autodesk Architectural Desktop 2007 |Company: Autodesk,Inc. |WEB Address: www.autodesk.com
 90
    32897
280
     0
281
     0
  0
CLASS
  1
AEC_DISP_REP_MVBLOCK_REF_RCP
  2
AecDbDispRepMvBlockRefRcp
  3
AecArchBase50|Product Desc: Autodesk Architectural Desktop 2007 |Company: Autodesk,Inc. |WEB Address: www.autodesk.com
 90
    32897
280
     0
281
     0
  0
CLASS
  1
AEC_DISP_REP_ROOF_RCP
  2
AecDbDispRepRoofRcp
  3
AecArchBase50|Product Desc: Autodesk Architectural Desktop 2007 |Company: Autodesk,Inc. |WEB Address: www.autodesk.com
 90
    32897
280
     0
281
     0
  0
CLASS
  1
AEC_DISP_REP_SPACE_BOUNDARY_DIAGRAM
  2
AecDbDispRepSpaceBoundaryDgrm
  3
AecArchBase50|Product Desc: Autodesk Architectural Desktop 2007 |Company: Autodesk,Inc. |WEB Address: www.autodesk.com
 90
    32897
280
     0
281
     0
  0
CLASS
  1
AEC_DISP_REP_SPACE_RCP
  2
AecDbDispRepSpaceRcp
  3
AecArchBase50|Product Desc: Autodesk Architectural Desktop 2007 |Company: Autodesk,Inc. |WEB Address: www.autodesk.com
 90
    32897
280
     0
281
     0
  0
CLASS
  1
AEC_DISP_REP_SPACE_VOLUME
  2
AecDbDispRepSpaceVolume
  3
AecArchBase50|Product Desc: Autodesk Architectural Desktop 2007 |Company: Autodesk,Inc. |WEB Address: www.autodesk.com
 90
    32897
280
     0
281
     0
  0
CLASS
  1
AEC_DISP_REP_STAIR_PLAN_OVERLAPPING
  2
AecDbDispRepStairPlanOverlapping
  3
AecArchBase50|Product Desc: Autodesk Architectural Desktop 2007 |Company: Autodesk,Inc. |WEB Address: www.autodesk.com
 90
    32897
280
     0
281
     0
  0
CLASS
  1
AEC_DISP_PROPS_STAIR_PLAN_OVERLAPPING
  2
AecDbDispPropsStairPlanOverlapping
  3
AecArchBase50|Product Desc: Autodesk Architectural Desktop 2007 |Company: Autodesk,Inc. |WEB Address: www.autodesk.com
 90
    32897
280
     0
281
     0
  0
CLASS
  1
AEC_DISP_REP_STAIR_RCP
  2
AecDbDispRepStairRcp
  3
AecArchBase50|Product Desc: Autodesk Architectural Desktop 2007 |Company: Autodesk,Inc. |WEB Address: www.autodesk.com
 90
    32897
280
     0
281
     0
  0
CLASS
  1
AEC_DISP_REP_WALL_RCP
  2
AecDbDispRepWallRcp
  3
AecArchBase50|Product Desc: Autodesk Architectural Desktop 2007 |Company: Autodesk,Inc. |WEB Address: www.autodesk.com
 90
    32897
280
     0
281
     0
  0
CLASS
  1
AEC_DISP_REP_WINDOWASSEMBLY_SILL_PLAN
  2
AecDbDispRepWindowAssemblySillPlan
  3
AecArchBase50|Product Desc: Autodesk Architectural Desktop 2007 |Company: Autodesk,Inc. |WEB Address: www.autodesk.com
 90
    32897
280
     0
281
     0
  0
CLASS
  1
AEC_DISP_PROPS_WINDOW_ASSEMBLY_SILL_PLAN
  2
AecDbDispPropsWindowAssemblySillPlan
  3
AecArchBase50|Product Desc: Autodesk Architectural Desktop 2007 |Company: Autodesk,Inc. |WEB Address: www.autodesk.com
 90
    32897
280
     0
281
     0
  0
CLASS
  1
AEC_DISP_REP_WINDOW_ELEV
  2
AecDbDispRepWindowElev
  3
AecArchBase50|Product Desc: Autodesk Architectural Desktop 2007 |Company: Autodesk,Inc. |WEB Address: www.autodesk.com
 90
    32897
280
     0
281
     0
  0
CLASS
  1
AEC_DISP_REP_WINDOW_RCP
  2
AecDbDispRepWindowRcp
  3
AecArchBase50|Product Desc: Autodesk Architectural Desktop 2007 |Company: Autodesk,Inc. |WEB Address: www.autodesk.com
 90
    32897
280
     0
281
     0
  0
CLASS
  1
AEC_DISP_REP_WINDOW_SILL_PLAN
  2
AecDbDispRepWindowSillPlan
  3
AecArchBase50|Product Desc: Autodesk Architectural Desktop 2007 |Company: Autodesk,Inc. |WEB Address: www.autodesk.com
 90
    32897
280
     0
281
     0
  0
CLASS
  1
AEC_DISP_PROPS_WINDOW_SILL_PLAN
  2
AecDbDispPropsWindowSillPlan
  3
AecArchBase50|Product Desc: Autodesk Architectural Desktop 2007 |Company: Autodesk,Inc. |WEB Address: www.autodesk.com
 90
    32897
280
     0
281
     0
  0
CLASS
  1
AEC_DISP_REP_ANCHOR_BUB_TO_GRID_RCP
  2
AecDbDispRepAnchorBubToGridRcp
  3
AecStructureBase50|Product Desc: Autodesk Architectural Desktop 2007 |Company: Autodesk,Inc. |WEB Address: www.autodesk.com
 90
    32897
280
     0
281
     0
  0
CLASS
  1
AEC_DISP_REP_COLUMN_GRID_RCP
  2
AecDbDispRepColumnGridRcp
  3
AecStructureBase50|Product Desc: Autodesk Architectural Desktop 2007 |Company: Autodesk,Inc. |WEB Address: www.autodesk.com
 90
    32897
280
     0
281
     0
  0
CLASS
  1
AECS_DISP_REP_MEMBER_ELEVATION_DESIGN
  2
AecsDbDispRepMemberElevationDesign
  3
AecStructureBase50|Product Desc: Autodesk Architectural Desktop 2007 |Company: Autodesk,Inc. |WEB Address: www.autodesk.com
 90
    32897
280
     0
281
     0
  0
CLASS
  1
AECS_DISP_PROPS_MEMBER_PROJECTED
  2
AecsDbDispPropsMemberProjected
  3
AecStructureBase50|Product Desc: Autodesk Architectural Desktop 2007 |Company: Autodesk,Inc. |WEB Address: www.autodesk.com
 90
    32897
280
     0
281
     0
  0
CLASS
  1
AECS_DISP_REP_MEMBER_ELEVATION_DETAIL
  2
AecsDbDispRepMemberElevationDetail
  3
AecStructureBase50|Product Desc: Autodesk Architectural Desktop 2007 |Company: Autodesk,Inc. |WEB Address: www.autodesk.com
 90
    32897
280
     0
281
     0
  0
CLASS
  1
AECS_DISP_REP_MEMBER_MODEL_DETAIL
  2
AecsDbDispRepMemberModelDetail
  3
AecStructureBase50|Product Desc: Autodesk Architectural Desktop 2007 |Company: Autodesk,Inc. |WEB Address: www.autodesk.com
 90
    32897
280
     0
281
     0
  0
CLASS
  1
AECS_DISP_REP_MEMBER_PLAN_DETAIL
  2
AecsDbDispRepMemberPlanDetail
  3
AecStructureBase50|Product Desc: Autodesk Architectural Desktop 2007 |Company: Autodesk,Inc. |WEB Address: www.autodesk.com
 90
    32897
280
     0
281
     0
  0
CLASS
  1
AECS_DISP_REP_MEMBER_PLAN_SKETCH
  2
AecsDbDispRepMemberPlanSketch
  3
AecStructureBase50|Product Desc: Autodesk Architectural Desktop 2007 |Company: Autodesk,Inc. |WEB Address: www.autodesk.com
 90
    32897
280
     0
281
     0
  0
CLASS
  1
AECS_DISP_PROPS_MEMBER_PLAN_SKETCH
  2
AecsDbDispPropsMemberPlanSketch
  3
AecStructureBase50|Product Desc: Autodesk Architectural Desktop 2007 |Company: Autodesk,Inc. |WEB Address: www.autodesk.com
 90
    32897
280
     0
281
     0
  0
CLASS
  1
AEC_AECDBDISPREPAREA100
  2
AecDbDispRepArea100
  3
AecArchDACHBase50|Product Desc: Autodesk Architectural Desktop 2007 |Company: Autodesk,Inc. |WEB Address: www.autodesk.com
 90
    32897
280
     0
281
     0
  0
CLASS
  1
AEC_AECDBDISPREPAREAGROUP100
  2
AecDbDispRepAreaGroup100
  3
AecArchDACHBase50|Product Desc: Autodesk Architectural Desktop 2007 |Company: Autodesk,Inc. |WEB Address: www.autodesk.com
 90
    32897
280
     0
281
     0
  0
CLASS
  1
AEC_AECDBDISPREPBDGELEVLINEPLAN100
  2
AecDbDispRepBdgElevLinePlan100
  3
AecArchDACHBase50|Product Desc: Autodesk Architectural Desktop 2007 |Company: Autodesk,Inc. |WEB Address: www.autodesk.com
 90
    32897
280
     0
281
     0
  0
CLASS
  1
AEC_AECDBDISPREPBDGSECTIONLINEPLAN100
  2
AecDbDispRepBdgSectionLinePlan100
  3
AecArchDACHBase50|Product Desc: Autodesk Architectural Desktop 2007 |Company: Autodesk,Inc. |WEB Address: www.autodesk.com
 90
    32897
280
     0
281
     0
  0
CLASS
  1
AEC_AECDBDISPREPCEILINGGRIDPLAN100
  2
AecDbDispRepCeilingGridPlan100
  3
AecArchDACHBase50|Product Desc: Autodesk Architectural Desktop 2007 |Company: Autodesk,Inc. |WEB Address: www.autodesk.com
 90
    32897
280
     0
281
     0
  0
CLASS
  1
AEC_AECDBDISPREPCOLUMNGRIDPLAN100
  2
AecDbDispRepColumnGridPlan100
  3
AecArchDACHBase50|Product Desc: Autodesk Architectural Desktop 2007 |Company: Autodesk,Inc. |WEB Address: www.autodesk.com
 90
    32897
280
     0
281
     0
  0
CLASS
  1
AEC_AECDBDISPREPCURTAINWALLLAYOUTPLAN100
  2
AecDbDispRepCurtainWallLayoutPlan100
  3
AecArchDACHBase50|Product Desc: Autodesk Architectural Desktop 2007 |Company: Autodesk,Inc. |WEB Address: www.autodesk.com
 90
    32897
280
     0
281
     0
  0
CLASS
  1
AEC_AECDBDISPREPCURTAINWALLUNITPLAN100
  2
AecDbDispRepCurtainWallUnitPlan100
  3
AecArchDACHBase50|Product Desc: Autodesk Architectural Desktop 2007 |Company: Autodesk,Inc. |WEB Address: www.autodesk.com
 90
    32897
280
     0
281
     0
  0
CLASS
  1
AEC_AECDBDISPREPMVBLOCKREFPLAN100
  2
AecDbDispRepMvBlockRefPlan100
  3
AecArchDACHBase50|Product Desc: Autodesk Architectural Desktop 2007 |Company: Autodesk,Inc. |WEB Address: www.autodesk.com
 90
    32897
280
     0
281
     0
  0
CLASS
  1
AEC_AECDBDISPREPROOFPLAN100
  2
AecDbDispRepRoofPlan100
  3
AecArchDACHBase50|Product Desc: Autodesk Architectural Desktop 2007 |Company: Autodesk,Inc. |WEB Address: www.autodesk.com
 90
    32897
280
     0
281
     0
  0
CLASS
  1
AEC_AECDBDISPREPROOFSLABPLAN100
  2
AecDbDispRepRoofSlabPlan100
  3
AecArchDACHBase50|Product Desc: Autodesk Architectural Desktop 2007 |Company: Autodesk,Inc. |WEB Address: www.autodesk.com
 90
    32897
280
     0
281
     0
  0
CLASS
  1
AEC_AECDBDISPREPSLABPLAN100
  2
AecDbDispRepSlabPlan100
  3
AecArchDACHBase50|Product Desc: Autodesk Architectural Desktop 2007 |Company: Autodesk,Inc. |WEB Address: www.autodesk.com
 90
    32897
280
     0
281
     0
  0
CLASS
  1
AEC_AECDBDISPREPSPACEBOUNDARYPLAN100
  2
AecDbDispRepSpaceBoundaryPlan100
  3
AecArchDACHBase50|Product Desc: Autodesk Architectural Desktop 2007 |Company: Autodesk,Inc. |WEB Address: www.autodesk.com
 90
    32897
280
     0
281
     0
  0
CLASS
  1
AEC_AECDBDISPREPSPACEPLAN100
  2
AecDbDispRepSpacePlan100
  3
AecArchDACHBase50|Product Desc: Autodesk Architectural Desktop 2007 |Company: Autodesk,Inc. |WEB Address: www.autodesk.com
 90
    32897
280
     0
281
     0
  0
CLASS
  1
AEC_AECDBDISPREPWALLPLAN100
  2
AecDbDispRepWallPlan100
  3
AecArchDACHBase50|Product Desc: Autodesk Architectural Desktop 2007 |Company: Autodesk,Inc. |WEB Address: www.autodesk.com
 90
    32897
280
     0
281
     0
  0
CLASS
  1
AEC_AECDBDISPREPAREA50
  2
AecDbDispRepArea50
  3
AecArchDACHBase50|Product Desc: Autodesk Architectural Desktop 2007 |Company: Autodesk,Inc. |WEB Address: www.autodesk.com
 90
    32897
280
     0
281
     0
  0
CLASS
  1
AEC_AECDBDISPREPAREAGROUP50
  2
AecDbDispRepAreaGroup50
  3
AecArchDACHBase50|Product Desc: Autodesk Architectural Desktop 2007 |Company: Autodesk,Inc. |WEB Address: www.autodesk.com
 90
    32897
280
     0
281
     0
  0
CLASS
  1
AEC_AECDBDISPREPBDGELEVLINEPLAN50
  2
AecDbDispRepBdgElevLinePlan50
  3
AecArchDACHBase50|Product Desc: Autodesk Architectural Desktop 2007 |Company: Autodesk,Inc. |WEB Address: www.autodesk.com
 90
    32897
280
     0
281
     0
  0
CLASS
  1
AEC_AECDBDISPREPBDGSECTIONLINEPLAN50
  2
AecDbDispRepBdgSectionLinePlan50
  3
AecArchDACHBase50|Product Desc: Autodesk Architectural Desktop 2007 |Company: Autodesk,Inc. |WEB Address: www.autodesk.com
 90
    32897
280
     0
281
     0
  0
CLASS
  1
AEC_AECDBDISPREPCEILINGGRIDPLAN50
  2
AecDbDispRepCeilingGridPlan50
  3
AecArchDACHBase50|Product Desc: Autodesk Architectural Desktop 2007 |Company: Autodesk,Inc. |WEB Address: www.autodesk.com
 90
    32897
280
     0
281
     0
  0
CLASS
  1
AEC_AECDBDISPREPCOLUMNGRIDPLAN50
  2
AecDbDispRepColumnGridPlan50
  3
AecArchDACHBase50|Product Desc: Autodesk Architectural Desktop 2007 |Company: Autodesk,Inc. |WEB Address: www.autodesk.com
 90
    32897
280
     0
281
     0
  0
CLASS
  1
AEC_AECDBDISPREPCURTAINWALLLAYOUTPLAN50
  2
AecDbDispRepCurtainWallLayoutPlan50
  3
AecArchDACHBase50|Product Desc: Autodesk Architectural Desktop 2007 |Company: Autodesk,Inc. |WEB Address: www.autodesk.com
 90
    32897
280
     0
281
     0
  0
CLASS
  1
AEC_AECDBDISPREPCURTAINWALLUNITPLAN50
  2
AecDbDispRepCurtainWallUnitPlan50
  3
AecArchDACHBase50|Product Desc: Autodesk Architectural Desktop 2007 |Company: Autodesk,Inc. |WEB Address: www.autodesk.com
 90
    32897
280
     0
281
     0
  0
CLASS
  1
AEC_AECDBDISPREPMVBLOCKREFPLAN50
  2
AecDbDispRepMvBlockRefPlan50
  3
AecArchDACHBase50|Product Desc: Autodesk Architectural Desktop 2007 |Company: Autodesk,Inc. |WEB Address: www.autodesk.com
 90
    32897
280
     0
281
     0
  0
CLASS
  1
AEC_AECDBDISPREPROOFPLAN50
  2
AecDbDispRepRoofPlan50
  3
AecArchDACHBase50|Product Desc: Autodesk Architectural Desktop 2007 |Company: Autodesk,Inc. |WEB Address: www.autodesk.com
 90
    32897
280
     0
281
     0
  0
CLASS
  1
AEC_AECDBDISPREPROOFSLABPLAN50
  2
AecDbDispRepRoofSlabPlan50
  3
AecArchDACHBase50|Product Desc: Autodesk Architectural Desktop 2007 |Company: Autodesk,Inc. |WEB Address: www.autodesk.com
 90
    32897
280
     0
281
     0
  0
CLASS
  1
AEC_AECDBDISPREPSLABPLAN50
  2
AecDbDispRepSlabPlan50
  3
AecArchDACHBase50|Product Desc: Autodesk Architectural Desktop 2007 |Company: Autodesk,Inc. |WEB Address: www.autodesk.com
 90
    32897
280
     0
281
     0
  0
CLASS
  1
AEC_AECDBDISPREPSPACEBOUNDARYPLAN50
  2
AecDbDispRepSpaceBoundaryPlan50
  3
AecArchDACHBase50|Product Desc: Autodesk Architectural Desktop 2007 |Company: Autodesk,Inc. |WEB Address: www.autodesk.com
 90
    32897
280
     0
281
     0
  0
CLASS
  1
AEC_AECDBDISPREPSPACEPLAN50
  2
AecDbDispRepSpacePlan50
  3
AecArchDACHBase50|Product Desc: Autodesk Architectural Desktop 2007 |Company: Autodesk,Inc. |WEB Address: www.autodesk.com
 90
    32897
280
     0
281
     0
  0
CLASS
  1
AEC_AECDBDISPREPWALLPLAN50
  2
AecDbDispRepWallPlan50
  3
AecArchDACHBase50|Product Desc: Autodesk Architectural Desktop 2007 |Company: Autodesk,Inc. |WEB Address: www.autodesk.com
 90
    32897
280
     0
281
     0
  0
CLASS
  1
AEC_AECDBDISPREPWINDOWASSEMBLYPLAN50
  2
AecDbDispRepWindowAssemblyPlan50
  3
AecArchDACHBase50|Product Desc: Autodesk Architectural Desktop 2007 |Company: Autodesk,Inc. |WEB Address: www.autodesk.com
 90
    32897
280
     0
281
     0
  0
CLASS
  1
AEC_DB_DISP_REP_DIM_GROUP_PLAN100
  2
AecDbDispRepDimGroupPlan100
  3
AecArchDACHBase50|Product Desc: Autodesk Architectural Desktop 2007 |Company: Autodesk,Inc. |WEB Address: www.autodesk.com
 90
    32897
280
     0
281
     0
  0
CLASS
  1
AEC_DB_DISP_REP_DIM_GROUP_PLAN50
  2
AecDbDispRepDimGroupPlan50
  3
AecArchDACHBase50|Product Desc: Autodesk Architectural Desktop 2007 |Company: Autodesk,Inc. |WEB Address: www.autodesk.com
 90
    32897
280
     0
281
     0
  0
CLASS
  1
AEC_DISP_REP_DOOR_PLAN_50
  2
AecDbDispRepDoorPlan50
  3
AecArchDACHBase50|Product Desc: Autodesk Architectural Desktop 2007 |Company: Autodesk,Inc. |WEB Address: www.autodesk.com
 90
    32897
280
     0
281
     0
  0
CLASS
  1
AEC_DISP_PROPS_DOOR_PLAN_50
  2
AecDbDispPropsDoorPlan50
  3
AecArchDACHBase50|Product Desc: Autodesk Architectural Desktop 2007 |Company: Autodesk,Inc. |WEB Address: www.autodesk.com
 90
    32897
280
     0
281
     0
  0
CLASS
  1
AEC_DISP_REP_DOOR_PLAN_HEKTO
  2
AecDbDispRepDoorPlanHekto
  3
AecArchDACHBase50|Product Desc: Autodesk Architectural Desktop 2007 |Company: Autodesk,Inc. |WEB Address: www.autodesk.com
 90
    32897
280
     0
281
     0
  0
CLASS
  1
AEC_DISP_PROPS_DOOR_PLAN_100
  2
AecDbDispPropsDoorPlan100
  3
AecArchDACHBase50|Product Desc: Autodesk Architectural Desktop 2007 |Company: Autodesk,Inc. |WEB Address: www.autodesk.com
 90
    32897
280
     0
281
     0
  0
CLASS
  1
AEC_DISP_REP_DOOR_THRESHOLD_SYMBOL_PLAN
  2
AecDbDispRepDoorThresholdSymbolPlan
  3
AecArchDACHBase50|Product Desc: Autodesk Architectural Desktop 2007 |Company: Autodesk,Inc. |WEB Address: www.autodesk.com
 90
    32897
280
     0
281
     0
  0
CLASS
  1
AEC_DISP_PROPS_DOOR_THRESHOLD_SYMBOL_PLAN
  2
AecDbDispPropsDoorThresholdSymbolPlan
  3
AecArchDACHBase50|Product Desc: Autodesk Architectural Desktop 2007 |Company: Autodesk,Inc. |WEB Address: www.autodesk.com
 90
    32897
280
     0
281
     0
  0
CLASS
  1
AEC_DISPREPAECDBDISPREPMASSELEMPLAN100
  2
AecDbDispRepMassElemPlan100
  3
AecArchDACHBase50|Product Desc: Autodesk Architectural Desktop 2007 |Company: Autodesk,Inc. |WEB Address: www.autodesk.com
 90
    32897
280
     0
281
     0
  0
CLASS
  1
AEC_DISPROPSMASSELEMPLANCOMMON
  2
AecDbDispPropsMassElemPlanCommon
  3
AecArchDACHBase50|Product Desc: Autodesk Architectural Desktop 2007 |Company: Autodesk,Inc. |WEB Address: www.autodesk.com
 90
    32897
280
     0
281
     0
  0
CLASS
  1
AEC_DISPREPAECDBDISPREPMASSELEMPLAN50
  2
AecDbDispRepMassElemPlan50
  3
AecArchDACHBase50|Product Desc: Autodesk Architectural Desktop 2007 |Company: Autodesk,Inc. |WEB Address: www.autodesk.com
 90
    32897
280
     0
281
     0
  0
CLASS
  1
AEC_DISPREPAECDBDISPREPMASSGROUPPLAN100
  2
AecDbDispRepMassGroupPlan100
  3
AecArchDACHBase50|Product Desc: Autodesk Architectural Desktop 2007 |Company: Autodesk,Inc. |WEB Address: www.autodesk.com
 90
    32897
280
     0
281
     0
  0
CLASS
  1
AEC_DISPROPSMASSGROUPPLANCOMMON
  2
AecDbDispPropsMassGroupPlanCommon
  3
AecArchDACHBase50|Product Desc: Autodesk Architectural Desktop 2007 |Company: Autodesk,Inc. |WEB Address: www.autodesk.com
 90
    32897
280
     0
281
     0
  0
CLASS
  1
AEC_DISPREPAECDBDISPREPMASSGROUPPLAN50
  2
AecDbDispRepMassGroupPlan50
  3
AecArchDACHBase50|Product Desc: Autodesk Architectural Desktop 2007 |Company: Autodesk,Inc. |WEB Address: www.autodesk.com
 90
    32897
280
     0
281
     0
  0
CLASS
  1
AEC_DISPREPAECDBDISPREPOPENINGPLAN100
  2
AecDbDispRepOpeningPlan100
  3
AecArchDACHBase50|Product Desc: Autodesk Architectural Desktop 2007 |Company: Autodesk,Inc. |WEB Address: www.autodesk.com
 90
    32897
280
     0
281
     0
  0
CLASS
  1
AEC_DISPROPSOPENINGPLANCOMMONHATCHED
  2
AecDbDispPropsOpeningPlanCommonHatched
  3
AecArchDACHBase50|Product Desc: Autodesk Architectural Desktop 2007 |Company: Autodesk,Inc. |WEB Address: www.autodesk.com
 90
    32897
280
     0
281
     0
  0
CLASS
  1
AEC_DISPREPAECDBDISPREPOPENINGPLAN50
  2
AecDbDispRepOpeningPlan50
  3
AecArchDACHBase50|Product Desc: Autodesk Architectural Desktop 2007 |Company: Autodesk,Inc. |WEB Address: www.autodesk.com
 90
    32897
280
     0
281
     0
  0
CLASS
  1
AEC_DISPREPAECDBDISPREPOPENINGPLANREFLECTED
  2
AecDbDispRepOpeningPlanReflected
  3
AecArchDACHBase50|Product Desc: Autodesk Architectural Desktop 2007 |Company: Autodesk,Inc. |WEB Address: www.autodesk.com
 90
    32897
280
     0
281
     0
  0
CLASS
  1
AEC_DISPROPSOPENINGPLANCOMMON
  2
AecDbDispPropsOpeningPlanCommon
  3
AecArchDACHBase50|Product Desc: Autodesk Architectural Desktop 2007 |Company: Autodesk,Inc. |WEB Address: www.autodesk.com
 90
    32897
280
     0
281
     0
  0
CLASS
  1
AEC_DISPREPAECDBDISPREPOPENINGSILLPLAN
  2
AecDbDispRepOpeningSillPlan
  3
AecArchDACHBase50|Product Desc: Autodesk Architectural Desktop 2007 |Company: Autodesk,Inc. |WEB Address: www.autodesk.com
 90
    32897
280
     0
281
     0
  0
CLASS
  1
AEC_DISPROPSOPENINGSILLPLAN
  2
AecDbDispPropsOpeningSillPlan
  3
AecArchDACHBase50|Product Desc: Autodesk Architectural Desktop 2007 |Company: Autodesk,Inc. |WEB Address: www.autodesk.com
 90
    32897
280
     0
281
     0
  0
CLASS
  1
AEC_DISP_REP_RAILING_PLAN_100
  2
AecDbDispRepRailingPlan100
  3
AecArchDACHBase50|Product Desc: Autodesk Architectural Desktop 2007 |Company: Autodesk,Inc. |WEB Address: www.autodesk.com
 90
    32897
280
     0
281
     0
  0
CLASS
  1
AEC_DISP_ROPS_RAILING_PLAN_100
  2
AecDbDispPropsRailingPlan100
  3
AecArchDACHBase50|Product Desc: Autodesk Architectural Desktop 2007 |Company: Autodesk,Inc. |WEB Address: www.autodesk.com
 90
    32897
280
     0
281
     0
  0
CLASS
  1
AEC_DISP_REP_RAILING_PLAN_50
  2
AecDbDispRepRailingPlan50
  3
AecArchDACHBase50|Product Desc: Autodesk Architectural Desktop 2007 |Company: Autodesk,Inc. |WEB Address: www.autodesk.com
 90
    32897
280
     0
281
     0
  0
CLASS
  1
AEC_DISP_ROPS_RAILING_PLAN_50
  2
AecDbDispPropsRailingPlan50
  3
AecArchDACHBase50|Product Desc: Autodesk Architectural Desktop 2007 |Company: Autodesk,Inc. |WEB Address: www.autodesk.com
 90
    32897
280
     0
281
     0
  0
CLASS
  1
AEC_DISP_REP_STAIR_PLAN_100
  2
AecDbDispRepStairPlan100
  3
AecArchDACHBase50|Product Desc: Autodesk Architectural Desktop 2007 |Company: Autodesk,Inc. |WEB Address: www.autodesk.com
 90
    32897
280
     0
281
     0
  0
CLASS
  1
AEC_DISP_ROPS_STAIR_PLAN_100
  2
AecDbDispPropsStairPlan100
  3
AecArchDACHBase50|Product Desc: Autodesk Architectural Desktop 2007 |Company: Autodesk,Inc. |WEB Address: www.autodesk.com
 90
    32897
280
     0
281
     0
  0
CLASS
  1
AEC_DISP_REP_STAIR_PLAN_50
  2
AecDbDispRepStairPlan50
  3
AecArchDACHBase50|Product Desc: Autodesk Architectural Desktop 2007 |Company: Autodesk,Inc. |WEB Address: www.autodesk.com
 90
    32897
280
     0
281
     0
  0
CLASS
  1
AEC_DISP_ROPS_STAIR_PLAN_50
  2
AecDbDispPropsStairPlan50
  3
AecArchDACHBase50|Product Desc: Autodesk Architectural Desktop 2007 |Company: Autodesk,Inc. |WEB Address: www.autodesk.com
 90
    32897
280
     0
281
     0
  0
CLASS
  1
AEC_DISP_REP_WINDOW_PLAN_100
  2
AecDbDispRepWindowPlan100
  3
AecArchDACHBase50|Product Desc: Autodesk Architectural Desktop 2007 |Company: Autodesk,Inc. |WEB Address: www.autodesk.com
 90
    32897
280
     0
281
     0
  0
CLASS
  1
AEC_DISP_PROPS_WINDOW_PLAN_100
  2
AecDbDispPropsWindowPlan100
  3
AecArchDACHBase50|Product Desc: Autodesk Architectural Desktop 2007 |Company: Autodesk,Inc. |WEB Address: www.autodesk.com
 90
    32897
280
     0
281
     0
  0
CLASS
  1
AEC_DISP_REP_WINDOW_PLAN_50
  2
AecDbDispRepWindowPlan50
  3
AecArchDACHBase50|Product Desc: Autodesk Architectural Desktop 2007 |Company: Autodesk,Inc. |WEB Address: www.autodesk.com
 90
    32897
280
     0
281
     0
  0
CLASS
  1
AEC_DISP_PROPS_WINDOW_PLAN_50
  2
AecDbDispPropsWindowPlan50
  3
AecArchDACHBase50|Product Desc: Autodesk Architectural Desktop 2007 |Company: Autodesk,Inc. |WEB Address: www.autodesk.com
 90
    32897
280
     0
281
     0
  0
CLASS
  1
BINRECORD
  2
AcAecBinRecord
  3
AecBase50|Product Desc: Autodesk Architectural Desktop 2007 |Company: Autodesk,Inc. |WEB Address: www.autodesk.com
 90
    32897
280
     0
281
     0
  0
CLASS
  1
SORTENTSTABLE
  2
AcDbSortentsTable
  3
ObjectDBX Classes
 90
        0
280
     0
281
     0
  0
CLASS
  1
AEC_MASS_ELEM
  2
AecDbMassElem
  3
AecBaseEx50|Product Desc: Autodesk Architectural Desktop 2007 |Company: Autodesk,Inc. |WEB Address: www.autodesk.com
 90
    33661
280
     0
281
     1
  0
CLASS
  1
MATERIAL
  2
AcDbMaterial
  3
ObjectDBX Classes
 90
     1153
280
     0
281
     0
  0
CLASS
  1
AECS_MEMBER
  2
AecsDbMember
  3
AecStructureBase50|Product Desc: Autodesk Architectural Desktop 2007 |Company: Autodesk,Inc. |WEB Address: www.autodesk.com
 90
    33661
280
     0
281
     1
  0
CLASS
  1
AEC_WALL
  2
AecDbWall
  3
AecArchBase50|Product Desc: Autodesk Architectural Desktop 2007 |Company: Autodesk,Inc. |WEB Address: www.autodesk.com
 90
    33661
280
     0
281
     1
  0
CLASS
  1
AEC_DOOR
  2
AecDbDoor
  3
AecArchBase50|Product Desc: Autodesk Architectural Desktop 2007 |Company: Autodesk,Inc. |WEB Address: www.autodesk.com
 90
    33661
280
     0
281
     1
  0
CLASS
  1
AEC_ANCHOR_OPENINGBASE_TO_WALL
  2
AecDbAnchorOpeningBaseToWall
  3
AecArchBase50|Product Desc: Autodesk Architectural Desktop 2007 |Company: Autodesk,Inc. |WEB Address: www.autodesk.com
 90
    32897
280
     0
281
     0
  0
CLASS
  1
AEC_SPACE_BOUNDARY
  2
AecDbSpaceBoundary
  3
AecArchBase50|Product Desc: Autodesk Architectural Desktop 2007 |Company: Autodesk,Inc. |WEB Address: www.autodesk.com
 90
    33661
280
     0
281
     1
  0
CLASS
  1
AEC_SPACE
  2
AecDbSpace
  3
AecArchBase50|Product Desc: Autodesk Architectural Desktop 2007 |Company: Autodesk,Inc. |WEB Address: www.autodesk.com
 90
    33661
280
     0
281
     1
  0
CLASS
  1
AecDbPropertySet
  2
AecDbPropertySet
  3
AecScheduleData50|Product Desc: Autodesk Architectural Desktop 2007 |Company: Autodesk,Inc. |WEB Address: www.autodesk.com
 90
    32897
280
     0
281
     0
  0
CLASS
  1
AEC_MVBLOCK_REF
  2
AecDbMvBlockRef
  3
AecBase50|Product Desc: Autodesk Architectural Desktop 2007 |Company: Autodesk,Inc. |WEB Address: www.autodesk.com
 90
    33661
280
     0
281
     1
  0
CLASS
  1
AEC_ANCHOR_TAG_TO_ENT
  2
AecDbAnchorTagToEnt
  3
AecScheduleData50|Product Desc: Autodesk Architectural Desktop 2007 |Company: Autodesk,Inc. |WEB Address: www.autodesk.com
 90
    32897
280
     0
281
     0
  0
CLASS
  1
AEC_WINDOW
  2
AecDbWindow
  3
AecArchBase50|Product Desc: Autodesk Architectural Desktop 2007 |Company: Autodesk,Inc. |WEB Address: www.autodesk.com
 90
    33661
280
     0
281
     1
  0
CLASS
  1
AEC_OPENING
  2
AecDbOpening
  3
AecArchBase50|Product Desc: Autodesk Architectural Desktop 2007 |Company: Autodesk,Inc. |WEB Address: www.autodesk.com
 90
    33661
280
     0
281
     1
  0
CLASS
  1
AEC_CLASSIFICATION_SYSTEM_DEF
  2
AecDbClassificationSystemDef
  3
AecBase50|Product Desc: Autodesk Architectural Desktop 2007 |Company: Autodesk,Inc. |WEB Address: www.autodesk.com
 90
    32897
280
     0
281
     0
  0
CLASS
  1
AEC_CLASSIFICATION_DEF
  2
AecDbClassificationDef
  3
AecBase50|Product Desc: Autodesk Architectural Desktop 2007 |Company: Autodesk,Inc. |WEB Address: www.autodesk.com
 90
    32897
280
     0
281
     0
  0
CLASS
  1
AEC_CLEANUP_GROUP_DEF
  2
AecDbCleanupGroupDef
  3
AecArchBase50|Product Desc: Autodesk Architectural Desktop 2007 |Company: Autodesk,Inc. |WEB Address: www.autodesk.com
 90
    32897
280
     0
281
     0
  0
CLASS
  1
AEC_DOOR_STYLE
  2
AecDbDoorStyle
  3
AecArchBase50|Product Desc: Autodesk Architectural Desktop 2007 |Company: Autodesk,Inc. |WEB Address: www.autodesk.com
 90
    32897
280
     0
281
     0
  0
CLASS
  1
AEC_STDSIZE_OPENINGS
  2
AecDbStdSizeOpeningList
  3
AecArchBase50|Product Desc: Autodesk Architectural Desktop 2007 |Company: Autodesk,Inc. |WEB Address: www.autodesk.com
 90
    32897
280
     0
281
     0
  0
CLASS
  1
AEC_ENDCAP_STYLE
  2
AecDbEndcapStyle
  3
AecArchBase50|Product Desc: Autodesk Architectural Desktop 2007 |Company: Autodesk,Inc. |WEB Address: www.autodesk.com
 90
    32897
280
     0
281
     0
  0
CLASS
  1
AEC_MASS_ELEM_STYLE
  2
AecDbMassElemStyle
  3
AecBaseEx50|Product Desc: Autodesk Architectural Desktop 2007 |Company: Autodesk,Inc. |WEB Address: www.autodesk.com
 90
    32897
280
     0
281
     0
  0
CLASS
  1
AEC_MATERIAL_DEF
  2
AecDbMaterialDef
  3
AecBase50|Product Desc: Autodesk Architectural Desktop 2007 |Company: Autodesk,Inc. |WEB Address: www.autodesk.com
 90
    32897
280
     0
281
     0
  0
CLASS
  1
AEC_MVBLOCK_DEF
  2
AecDbMvBlockDef
  3
AecBase50|Product Desc: Autodesk Architectural Desktop 2007 |Company: Autodesk,Inc. |WEB Address: www.autodesk.com
 90
    32897
280
     0
281
     0
  0
CLASS
  1
AEC_FRAME_DEF
  2
AecDbOpeningEndcapStyle
  3
AecArchBase50|Product Desc: Autodesk Architectural Desktop 2007 |Company: Autodesk,Inc. |WEB Address: www.autodesk.com
 90
    32897
280
     0
281
     0
  0
CLASS
  1
AEC_PROFILE_DEF
  2
AecDbProfileDef
  3
AecBase50|Product Desc: Autodesk Architectural Desktop 2007 |Company: Autodesk,Inc. |WEB Address: www.autodesk.com
 90
    32897
280
     0
281
     0
  0
CLASS
  1
AEC_SCHEDULE_DATA_FORMAT
  2
AecDbScheduleDataFormat
  3
AecScheduleData50|Product Desc: Autodesk Architectural Desktop 2007 |Company: Autodesk,Inc. |WEB Address: www.autodesk.com
 90
    32897
280
     0
281
     0
  0
CLASS
  1
AEC_PROPERTY_SET_DEF
  2
AecDbPropertySetDef
  3
AecScheduleData50|Product Desc: Autodesk Architectural Desktop 2007 |Company: Autodesk,Inc. |WEB Address: www.autodesk.com
 90
    32897
280
     0
281
     0
  0
CLASS
  1
AEC_SPACE_STYLES
  2
AecDbSpaceStyle
  3
AecArchBase50|Product Desc: Autodesk Architectural Desktop 2007 |Company: Autodesk,Inc. |WEB Address: www.autodesk.com
 90
    32897
280
     0
281
     0
  0
CLASS
  1
AEC_TEXT_NOTE
  2
AecDbTextNote
  3
AecBase50|Product Desc: Autodesk Architectural Desktop 2007 |Company: Autodesk,Inc. |WEB Address: www.autodesk.com
 90
    32897
280
     0
281
     0
  0
CLASS
  1
AECS_MEMBER_STYLE
  2
AecsDbMemberStyle
  3
AecStructureBase50|Product Desc: Autodesk Architectural Desktop 2007 |Company: Autodesk,Inc. |WEB Address: www.autodesk.com
 90
    32897
280
     0
281
     0
  0
CLASS
  1
AEC_VARS_STRUCTUREBASE
  2
AecsDbVarsStructureBase
  3
AecStructureBase50|Product Desc: Autodesk Architectural Desktop 2007 |Company: Autodesk,Inc. |WEB Address: www.autodesk.com
 90
    32897
280
     0
281
     0
  0
CLASS
  1
AEC_WALL_STYLE
  2
AecDbWallStyle
  3
AecArchBase50|Product Desc: Autodesk Architectural Desktop 2007 |Company: Autodesk,Inc. |WEB Address: www.autodesk.com
 90
    32897
280
     0
281
     0
  0
CLASS
  1
AEC_WINDOW_STYLE
  2
AecDbWindowStyle
  3
AecArchBase50|Product Desc: Autodesk Architectural Desktop 2007 |Company: Autodesk,Inc. |WEB Address: www.autodesk.com
 90
    32897
280
     0
281
     0
  0
CLASS
  1
AECS_MEMBER_NODE_SHAPE
  2
AecsDbMemberNodeShape
  3
AecStructureBase50|Product Desc: Autodesk Architectural Desktop 2007 |Company: Autodesk,Inc. |WEB Address: www.autodesk.com
 90
    32897
280
     0
281
     0
  0
CLASS
  1
AEC_SCHEDULE_TABLE
  2
AecDbScheduleTable
  3
AecSchedule50|Product Desc: Autodesk Architectural Desktop 2007 |Company: Autodesk,Inc. |WEB Address: www.autodesk.com
 90
    33661
280
     0
281
     1
  0
CLASS
  1
AEC_SCHEDULE_TABLE_STYLE
  2
AecDbScheduleTableStyle
  3
AecSchedule50|Product Desc: Autodesk Architectural Desktop 2007 |Company: Autodesk,Inc. |WEB Address: www.autodesk.com
 90
    32897
280
     0
281
     0
  0
CLASS
  1
AEC_ANCHOR_MVB_TO_UCS
  2
AecDbAnchorMVBToUCS
  3
AecBase50|Product Desc: Autodesk Architectural Desktop 2007 |Company: Autodesk,Inc. |WEB Address: www.autodesk.com
 90
    32897
280
     0
281
     0
  0
CLASS
  1
IMAGEDEF
  2
AcDbRasterImageDef
  3
ISM
 90
    32768
280
     0
281
     0
  0
CLASS
  1
AEC_ANCHOR_ENT_TO_GRID_ASSEMBLY
  2
AecDbAnchorEntToGridAssembly
  3
AecBaseEx50|Product Desc: Autodesk Architectural Desktop 2007 |Company: Autodesk,Inc. |WEB Address: www.autodesk.com
 90
    32897
280
     0
281
     0
  0
CLASS
  1
AEC_WINDOW_ASSEMBLY
  2
AecDbWindowAssembly
  3
AecArchBase50|Product Desc: Autodesk Architectural Desktop 2007 |Company: Autodesk,Inc. |WEB Address: www.autodesk.com
 90
    33661
280
     0
281
     1
  0
CLASS
  1
AEC_ANCHOR_WINASSEMBLY_TO_WALL
  2
AecDbAnchorWinAssemblyToWall
  3
AecArchBase50|Product Desc: Autodesk Architectural Desktop 2007 |Company: Autodesk,Inc. |WEB Address: www.autodesk.com
 90
    32897
280
     0
281
     0
  0
CLASS
  1
AEC_STAIR
  2
AecDbStair
  3
AecArchBase50|Product Desc: Autodesk Architectural Desktop 2007 |Company: Autodesk,Inc. |WEB Address: www.autodesk.com
 90
    33661
280
     0
281
     1
  0
CLASS
  1
AEC_RAILING
  2
AecDbRailing
  3
AecArchBase50|Product Desc: Autodesk Architectural Desktop 2007 |Company: Autodesk,Inc. |WEB Address: www.autodesk.com
 90
    33661
280
     0
281
     1
  0
CLASS
  1
AEC_ANCHOR_RAILING_TO_STAIR
  2
AecDbAnchorRailingToStair
  3
AecArchBase50|Product Desc: Autodesk Architectural Desktop 2007 |Company: Autodesk,Inc. |WEB Address: www.autodesk.com
 90
    32897
280
     0
281
     0
  0
CLASS
  1
AEC_RAILING_STYLE
  2
AecDbRailingStyle
  3
AecArchBase50|Product Desc: Autodesk Architectural Desktop 2007 |Company: Autodesk,Inc. |WEB Address: www.autodesk.com
 90
    32897
280
     0
281
     0
  0
CLASS
  1
AEC_STAIR_STYLE
  2
AecDbStairStyle
  3
AecArchBase50|Product Desc: Autodesk Architectural Desktop 2007 |Company: Autodesk,Inc. |WEB Address: www.autodesk.com
 90
    32897
280
     0
281
     0
  0
CLASS
  1
AEC_STAIR_WINDER_STYLE
  2
AecDbStairWinderStyle
  3
AecArchBase50|Product Desc: Autodesk Architectural Desktop 2007 |Company: Autodesk,Inc. |WEB Address: www.autodesk.com
 90
    32897
280
     0
281
     0
  0
CLASS
  1
AEC_STAIR_WINDER_TYPE_SINGLE_POINT
  2
AecDbStairWinderTypeSinglePoint
  3
AecArchBase50|Product Desc: Autodesk Architectural Desktop 2007 |Company: Autodesk,Inc. |WEB Address: www.autodesk.com
 90
    32897
280
     0
281
     0
  0
CLASS
  1
AEC_WINDOW_ASSEMBLY_STYLE
  2
AecDbWindowAssemblyStyle
  3
AecArchBase50|Product Desc: Autodesk Architectural Desktop 2007 |Company: Autodesk,Inc. |WEB Address: www.autodesk.com
 90
    32897
280
     0
281
     0
  0
CLASS
  1
AEC_AECDBAREASTYLE
  2
AecDbAreaStyle
  3
AecAreaCalculationBase50|Product Desc: Autodesk Architectural Desktop 2007 |Company: Autodesk,Inc. |WEB Address: www.autodesk.com
 90
    32897
280
     0
281
     0
  0
CLASS
  1
AEC_AECDBAREAPROPOSALNAMES
  2
AecDbAreaProposalNames
  3
AecAreaCalculationBase50|Product Desc: Autodesk Architectural Desktop 2007 |Company: Autodesk,Inc. |WEB Address: www.autodesk.com
 90
    32897
280
     0
281
     0
  0
CLASS
  1
AEC_AREA
  2
AecDbArea
  3
AecAreaCalculationBase50|Product Desc: Autodesk Architectural Desktop 2007 |Company: Autodesk,Inc. |WEB Address: www.autodesk.com
 90
    33661
280
     0
281
     1
  0
CLASS
  1
OBJECT_PTR
  2
CAseDLPNTableRecord
  3
ASE-LPNTableRecord
 90
        1
280
     0
281
     0
  0
CLASS
  1
TABLESTYLE
  2
AcDbTableStyle
  3
ObjectDBX Classes
 90
     4095
280
     0
281
     0
  0
CLASS
  1
AEC_DISP_REP_DISPLAYTHEME
  2
AecDbDispRepDisplayTheme
  3
AecBase50|Product Desc: Autodesk Architectural Desktop 2007 |Company: Autodesk,Inc. |WEB Address: www.autodesk.com
 90
    32897
280
     0
281
     0
  0
CLASS
  1
AEC_DISP_PROPS_DISPLAYTHEME
  2
AecDbDispPropsDisplayTheme
  3
AecBase50|Product Desc: Autodesk Architectural Desktop 2007 |Company: Autodesk,Inc. |WEB Address: www.autodesk.com
 90
    32897
280
     0
281
     0
  0
CLASS
  1
AEC_DISP_REP_ANCHOR_EXT_TAG_TO_ENT
  2
AecDbDispRepAnchorExtendedTagToEnt
  3
AecScheduleData50|Product Desc: Autodesk Architectural Desktop 2007 |Company: Autodesk,Inc. |WEB Address: www.autodesk.com
 90
    32897
280
     0
281
     0
  0
CLASS
  1
VISUALSTYLE
  2
AcDbVisualStyle
  3
ObjectDBX Classes
 90
     4095
280
     0
281
     0
  0
CLASS
  1
AEC_AECDBDISPREPZONE100
  2
AecDbDispRepZonePlan100
  3
AecArchDACHBase50|Product Desc: Autodesk Architectural Desktop 2007 |Company: Autodesk,Inc. |WEB Address: www.autodesk.com
 90
    32897
280
     0
281
     0
  0
CLASS
  1
AEC_DISP_PROPS_ZONE
  2
AecDbDispPropsZone
  3
AecArchBase50|Product Desc: Autodesk Architectural Desktop 2007 |Company: Autodesk,Inc. |WEB Address: www.autodesk.com
 90
    32897
280
     0
281
     0
  0
CLASS
  1
AEC_AECDBDISPREPZONE50
  2
AecDbDispRepZonePlan50
  3
AecArchDACHBase50|Product Desc: Autodesk Architectural Desktop 2007 |Company: Autodesk,Inc. |WEB Address: www.autodesk.com
 90
    32897
280
     0
281
     0
  0
CLASS
  1
AEC_DISP_REP_SPACE_DECOMPOSED
  2
AecDbDispRepSpaceDecomposed
  3
AecArchBase50|Product Desc: Autodesk Architectural Desktop 2007 |Company: Autodesk,Inc. |WEB Address: www.autodesk.com
 90
    32897
280
     0
281
     0
  0
CLASS
  1
AEC_DISP_PROPS_SPACE_DECOMPOSED
  2
AecDbDispPropsSpaceDecomposed
  3
AecArchBase50|Product Desc: Autodesk Architectural Desktop 2007 |Company: Autodesk,Inc. |WEB Address: www.autodesk.com
 90
    32897
280
     0
281
     0
  0
CLASS
  1
AEC_DISP_REP_ZONE
  2
AecDbDispRepZone
  3
AecArchBase50|Product Desc: Autodesk Architectural Desktop 2007 |Company: Autodesk,Inc. |WEB Address: www.autodesk.com
 90
    32897
280
     0
281
     0
  0
CLASS
  1
AEC_LIST_DEF
  2
AecDbListDefinition
  3
AecBase50|Product Desc: Autodesk Architectural Desktop 2007 |Company: Autodesk,Inc. |WEB Address: www.autodesk.com
 90
    32897
280
     0
281
     0
  0
CLASS
  1
EXACXREFPANELOBJECT
  2
ExAcXREFPanelObject
  3
EXAC_ESW
 90
    33793
280
     0
281
     0
  0
CLASS
  1
NPOCOLLECTION
  2
AcDbImpNonPersistentObjectsCollection
  3
ObjectDBX Classes
 90
    33921
280
     0
281
     0
  0
CLASS
  1
ACAD_EVALUATION_GRAPH
  2
AcDbEvalGraph
  3
ObjectDBX Classes
 90
    33921
280
     0
281
     0
  0
CLASS
  1
BLOCKLINEARPARAMETER
  2
AcDbBlockLinearParameter
  3
ObjectDBX Classes
 90
    33921
280
     0
281
     0
  0
CLASS
  1
BLOCKLINEARGRIP
  2
AcDbBlockLinearGrip
  3
ObjectDBX Classes
 90
    33921
280
     0
281
     0
  0
CLASS
  1
BLOCKGRIPLOCATIONCOMPONENT
  2
AcDbBlockGripExpr
  3
ObjectDBX Classes
 90
    33921
280
     0
281
     0
  0
CLASS
  1
BLOCKSTRETCHACTION
  2
AcDbBlockStretchAction
  3
ObjectDBX Classes
 90
    33921
280
     0
281
     0
  0
CLASS
  1
BLOCKFLIPPARAMETER
  2
AcDbBlockFlipParameter
  3
ObjectDBX Classes
 90
    33921
280
     0
281
     0
  0
CLASS
  1
BLOCKFLIPGRIP
  2
AcDbBlockFlipGrip
  3
ObjectDBX Classes
 90
    33921
280
     0
281
     0
  0
CLASS
  1
BLOCKFLIPACTION
  2
AcDbBlockFlipAction
  3
ObjectDBX Classes
 90
    33921
280
     0
281
     0
  0
CLASS
  1
ACDB_DYNAMICBLOCKPURGEPREVENTER_VERSION
  2
AcDbDynamicBlockPurgePreventer
  3
ObjectDBX Classes
 90
    33921
280
     0
281
     0
  0
CLASS
  1
ACDB_BLOCKREPRESENTATION_DATA
  2
AcDbBlockRepresentationData
  3
ObjectDBX Classes
 90
    33921
280
     0
281
     0
  0
CLASS
  1
BLOCKROTATIONPARAMETER
  2
AcDbBlockRotationParameter
  3
ObjectDBX Classes
 90
    33921
280
     0
281
     0
  0
CLASS
  1
BLOCKROTATIONGRIP
  2
AcDbBlockRotationGrip
  3
ObjectDBX Classes
 90
    33921
280
     0
281
     0
  0
CLASS
  1
BLOCKROTATEACTION
  2
AcDbBlockRotateAction
  3
ObjectDBX Classes
 90
    33921
280
     0
281
     0
  0
CLASS
  1
BLOCKBASEPOINTPARAMETER
  2
AcDbBlockBasepointParameter
  3
ObjectDBX Classes
 90
    33921
280
     0
281
     0
  0
CLASS
  1
DIMASSOC
  2
AcDbDimAssoc
  3
"AcDbDimAssoc|Product Desc:     AcDim ARX App For Dimension|Company:          Autodesk, Inc.|WEB Address:      www.autodesk.com"
 90
    32768
280
     0
281
     0
  0
CLASS
  1
AEC_LIST_DEF
  2
AecDbListItem
  3
AecBase50|Product Desc: Autodesk Architectural Desktop 2007 |Company: Autodesk,Inc. |WEB Address: www.autodesk.com
 90
    32897
280
     0
281
     0
  0
CLASS
  1
AEC_ROOFSLAB_STYLE
  2
AecDbRoofSlabStyle
  3
AecArchBase50|Product Desc: Autodesk Architectural Desktop 2007 |Company: Autodesk,Inc. |WEB Address: www.autodesk.com
 90
    32897
280
     0
281
     0
  0
CLASS
  1
AEC_ROOFSLABEDGE_STYLE
  2
AecDbRoofSlabEdgeStyle
  3
AecArchBase50|Product Desc: Autodesk Architectural Desktop 2007 |Company: Autodesk,Inc. |WEB Address: www.autodesk.com
 90
    32897
280
     0
281
     0
  0
CLASS
  1
AEC_SLAB_STYLE
  2
AecDbSlabStyle
  3
AecArchBase50|Product Desc: Autodesk Architectural Desktop 2007 |Company: Autodesk,Inc. |WEB Address: www.autodesk.com
 90
    32897
280
     0
281
     0
  0
CLASS
  1
AEC_SLABEDGE_STYLE
  2
AecDbSlabEdgeStyle
  3
AecArchBase50|Product Desc: Autodesk Architectural Desktop 2007 |Company: Autodesk,Inc. |WEB Address: www.autodesk.com
 90
    32897
280
     0
281
     0
  0
CLASS
  1
SOLID_BACKGROUND
  2
AcDbSolidBackground
  3
SCENEOE
 90
    36863
280
     0
281
     0
  0
CLASS
  1
AEC_2D_SECTION
  2
AecDb2dSection
  3
AecBase50|Product Desc: Autodesk Architectural Desktop 2007 |Company: Autodesk,Inc. |WEB Address: www.autodesk.com
 90
    33661
280
     0
281
     1
  0
CLASS
  1
AEC_2DSECTION_STYLE
  2
AecDb2dSectionStyle
  3
AecBase50|Product Desc: Autodesk Architectural Desktop 2007 |Company: Autodesk,Inc. |WEB Address: www.autodesk.com
 90
    32897
280
     0
281
     0
  0
CLASS
  1
SCALE
  2
AcDbScale
  3
ObjectDBX Classes
 90
     1153
280
     0
281
     0
  0
CLASS
  1
MLEADERSTYLE
  2
AcDbMLeaderStyle
  3
ACDB_MLEADERSTYLE_CLASS
 90
    36863
280
     0
281
     0
  0
CLASS
  1
CELLSTYLEMAP
  2
AcDbCellStyleMap
  3
ObjectDBX Classes
 90
     1152
280
     0
281
     0
  0
CLASS
  1
AEC_DISPLAYTHEME_STYLE
  2
AecDbDisplayThemeStyle
  3
AecBase50|Product Desc: Autodesk Architectural Desktop 2007 |Company: Autodesk,Inc. |WEB Address: www.autodesk.com
 90
    32897
280
     0
281
     0
  0
CLASS
  1
AEC_REFEDIT_STATUS_TRACKER
  2
AecDbRefEditStatusTracker
  3
AecArchBase50|Product Desc: Autodesk Architectural Desktop 2007 |Company: Autodesk,Inc. |WEB Address: www.autodesk.com
 90
    32897
280
     0
281
     0
  0
CLASS
  1
IMAGE
  2
AcDbRasterImage
  3
ISM
 90
    34943
280
     0
281
     1
  0
CLASS
  1
IMAGEDEF_REACTOR
  2
AcDbRasterImageDefReactor
  3
ISM
 90
    32769
280
     0
281
     0
  0
CLASS
  1
RASTERVARIABLES
  2
AcDbRasterVariables
  3
ISM
 90
    32768
280
     0
281
     0
  0
CLASS
  1
BLOCKVISIBILITYPARAMETER
  2
AcDbBlockVisibilityParameter
  3
ObjectDBX Classes
 90
    33921
280
     0
281
     0
  0
CLASS
  1
BLOCKVISIBILITYGRIP
  2
AcDbBlockVisibilityGrip
  3
ObjectDBX Classes
 90
    33921
280
     0
281
     0
  0
CLASS
  1
BLOCKMOVEACTION
  2
AcDbBlockMoveAction
  3
ObjectDBX Classes
 90
    33921
280
     0
281
     0
  0
CLASS
  1
BLOCKLOOKUPPARAMETER
  2
AcDbBlockLookupParameter
  3
ObjectDBX Classes
 90
    33921
280
     0
281
     0
  0
CLASS
  1
BLOCKLOOKUPGRIP
  2
AcDbBlockLookupGrip
  3
ObjectDBX Classes
 90
    33921
280
     0
281
     0
  0
CLASS
  1
BLOCKLOOKUPACTION
  2
AcDbBlockLookupAction
  3
ObjectDBX Classes
 90
    33921
280
     0
281
     0
  0
CLASS
  1
ACAECUSTOBJ
  2
AcAeEditorObj
  3
AcAeEditorObj
 90
    33792
280
     1
281
     0
  0
CLASS
  1
LINEARPARAMETERENTITY
  2
AcDbBlockLinearParameterEntity
  3
ObjectDBX Classes
 90
    33793
280
     0
281
     1
  0
CLASS
  1
ACAEEEMGROBJ
  2
AcAeEEMgrObj
  3
AcAeEEMgrObj
 90
    33792
280
     0
281
     0
  0
CLASS
  1
MOVEACTIONENTITY
  2
AcDbBlockMoveActionEntity
  3
ObjectDBX Classes
 90
    33793
280
     0
281
     1
  0
CLASS
  1
VISIBILITYPARAMETERENTITY
  2
AcDbBlockVisibilityParameterEntity
  3
ObjectDBX Classes
 90
    33793
280
     0
281
     1
  0
CLASS
  1
LOOKUPPARAMETERENTITY
  2
AcDbBlockLookupParameterEntity
  3
ObjectDBX Classes
 90
    33793
280
     0
281
     1
  0
CLASS
  1
LOOKUPGRIPENTITY
  2
AcDbBlockLookupGripEntity
  3
ObjectDBX Classes
 90
    33793
280
     0
281
     1
  0
CLASS
  1
LOOKUPACTIONENTITY
  2
AcDbBlockLookupActionEntity
  3
ObjectDBX Classes
 90
    33793
280
     0
281
     1
  0
CLASS
  1
AEC_ANCHOR_EXTENDED_TAG_TO_ENT
  2
AecDbAnchorExtendedTagToEnt
  3
AecScheduleData50|Product Desc: Autodesk Architectural Desktop 2007 |Company: Autodesk,Inc. |WEB Address: www.autodesk.com
 90
    32897
280
     0
281
     0
  0
CLASS
  1
BLOCKARRAYACTION
  2
AcDbBlockArrayAction
  3
ObjectDBX Classes
 90
    33921
280
     0
281
     0
  0
CLASS
  1
AEC_MASS_GROUP
  2
AecDbMassGroup
  3
AecBaseEx50|Product Desc: Autodesk Architectural Desktop 2007 |Company: Autodesk,Inc. |WEB Address: www.autodesk.com
 90
    33661
280
     0
281
     1
  0
CLASS
  1
AEC_ANCHOR_ENT_TO_ENT
  2
AecDbAnchorEntToEnt
  3
AecBaseEx50|Product Desc: Autodesk Architectural Desktop 2007 |Company: Autodesk,Inc. |WEB Address: www.autodesk.com
 90
    32897
280
     0
281
     0
  0
CLASS
  1
AEC_AECDBZONESTYLE
  2
AecDbZoneStyle
  3
AecArchBase50|Product Desc: Autodesk Architectural Desktop 2007 |Company: Autodesk,Inc. |WEB Address: www.autodesk.com
 90
    32897
280
     0
281
     0
  0
CLASS
  1
AEC_ZONE
  2
AecDbZone
  3
AecArchBase50|Product Desc: Autodesk Architectural Desktop 2007 |Company: Autodesk,Inc. |WEB Address: www.autodesk.com
 90
    33661
280
     0
281
     1
  0
CLASS
  1
SURFACE
  2
AcDbSurface
  3
ObjectDBX Classes
 90
    36863
280
     0
281
     1
  0
ENDSEC
  0
SECTION
  2
TABLES
  0
TABLE
  2
VPORT
  5
166
330
0
100
AcDbSymbolTable
 70
     1
  0
VPORT
  5
167
330
166
100
AcDbSymbolTableRecord
100
AcDbViewportTableRecord
  2
*Active
 70
     0
 10
0.0
 20
0.0
 11
1.0
 21
1.0
 12
29246.75520851635
 22
-3690.554318147479
 13
-3534.953416816247
 23
4038.000000000049
 14
1.0
 24
1.0
 15
1.0
 25
1.0
 16
0.0
 26
0.0
 36
1.0
 17
19161.30447896915
 27
-9606.534947732995
 37
-1318.028766504221
 40
17927.12404291431
 41
2.117572692793931
 42
50.0
 43
0.0
 44
0.0
 50
0.0
 51
0.0
 71
     0
 72
  2000
 73
     1
 74
     1
 75
     0
 76
     0
 77
     0
 78
     0
281
     0
 65
     1
110
0.0
120
0.0
130
0.0
111
1.0
121
0.0
131
0.0
112
0.0
122
1.0
132
0.0
 79
     0
146
0.0
  0
ENDTAB
  0
TABLE
  2
LTYPE
  5
161
330
0
100
AcDbSymbolTable
 70
     2
  0
LTYPE
  5
162
330
161
100
AcDbSymbolTableRecord
100
AcDbLinetypeTableRecord
  2
BYBLOCK
 70
     0
  3

 72
    65
 73
     0
 40
0.0
  0
LTYPE
  5
163
330
161
100
AcDbSymbolTableRecord
100
AcDbLinetypeTableRecord
  2
BYLAYER
 70
     0
  3

 72
    65
 73
     0
 40
0.0
  0
LTYPE
  5
10
330
161
100
AcDbSymbolTableRecord
100
AcDbLinetypeTableRecord
  2
CONTINUOUS
 70
     0
  3
Solid line
 72
    65
 73
     0
 40
0.0
  0
LTYPE
  5
15
330
161
100
AcDbSymbolTableRecord
100
AcDbLinetypeTableRecord
  2
HIDDEN
 70
     0
  3
Hidden __ __ __ __ __ __ __ __ __ __ __ __ __
 72
    65
 73
     2
 40
9.524999999999996
 49
6.349999999999998
 74
     0
 49
-3.174999999999998
 74
     0
  0
ENDTAB
  0
TABLE
  2
LAYER
  5
15B
102
{ACAD_XDICTIONARY
360
15C
102
}
330
0
100
AcDbSymbolTable
 70
     8
  0
LAYER
  5
6
102
{ACAD_XDICTIONARY
360
7
102
}
330
15B
100
AcDbSymbolTableRecord
100
AcDbLayerTableRecord
  2
0
 70
     0
 62
     7
  6
CONTINUOUS
370
    -3
390
9
1001
RAK
1000
{ACET-LAYISO
1070
     0
1070
     7
1000
CONTINUOUS
1070
     1
1071
       -3
1071
        1
1005
9
1000
ACET-LAYISO}
  0
LAYER
  5
175
102
{ACAD_XDICTIONARY
360
176
102
}
330
15B
100
AcDbSymbolTableRecord
100
AcDbLayerTableRecord
  2
WYMIARY
 70
     0
 62
     1
  6
CONTINUOUS
370
    -3
390
9
1001
RAK
1000
{ACET-LAYISO
1070
     0
1070
     1
1000
CONTINUOUS
1071
       -3
1071
        1
1005
9
1000
ACET-LAYISO}
  0
LAYER
  5
73
330
15B
100
AcDbSymbolTableRecord
100
AcDbLayerTableRecord
  2
Defpoints
 70
     0
 62
     7
  6
CONTINUOUS
290
     0
370
    -3
390
9
1001
RAK
1000
{ACET-LAYISO
1070
     0
1070
     7
1000
CONTINUOUS
1071
       -3
1071
        0
1005
9
1000
ACET-LAYISO}
  0
LAYER
  5
29
102
{ACAD_XDICTIONARY
360
2A
102
}
330
15B
100
AcDbSymbolTableRecord
100
AcDbLayerTableRecord
  2
0Wymiary-PL
 70
     0
 62
     1
  6
CONTINUOUS
370
     5
390
9
  0
LAYER
  5
27
330
15B
100
AcDbSymbolTableRecord
100
AcDbLayerTableRecord
  2
0Hatch
 70
     0
 62
   122
  6
CONTINUOUS
370
     5
390
9
  0
LAYER
  5
1C
102
{ACAD_XDICTIONARY
360
1D
102
}
330
15B
100
AcDbSymbolTableRecord
100
AcDbLayerTableRecord
  2
RAMKI-A4
 70
     0
 62
     2
  6
CONTINUOUS
290
     0
370
    -3
390
9
1001
RAK
1000
{ACET-LAYISO
1070
     0
1070
     2
1000
Continuous
1071
       -3
1071
        0
1005
9
1000
ACET-LAYISO}
  0
LAYER
  5
13
102
{ACAD_XDICTIONARY
360
14
102
}
330
15B
100
AcDbSymbolTableRecord
100
AcDbLayerTableRecord
  2
0Napisy
 70
     0
 62
   150
  6
CONTINUOUS
370
    15
390
9
1001
RAK
1000
{ACET-LAYISO
1070
     0
1070
   150
1000
Continuous
1071
       15
1071
        1
1005
9
1000
ACET-LAYISO}
  0
LAYER
  5
17
102
{ACAD_XDICTIONARY
360
18
102
}
330
15B
100
AcDbSymbolTableRecord
100
AcDbLayerTableRecord
  2
0Napisy-PL
 70
     0
 62
   140
  6
CONTINUOUS
370
    15
390
9
1001
RAK
1000
{ACET-LAYISO
1070
     0
1070
   140
1000
Continuous
1071
       15
1071
        1
1005
9
1000
ACET-LAYISO}
  0
ENDTAB
  0
TABLE
  2
STYLE
  5
15E
330
0
100
AcDbSymbolTable
 70
     4
  0
STYLE
  5
15F
330
15E
100
AcDbSymbolTableRecord
100
AcDbTextStyleTableRecord
  2
STANDARD
 70
     0
 40
0.0
 41
1.0
 50
0.0
 71
     0
 42
0.2
  3
txt
  4

  0
STYLE
  5
71
330
15E
100
AcDbSymbolTableRecord
100
AcDbTextStyleTableRecord
  2
ROMANS
 70
     0
 40
0.0
 41
0.9
 50
0.0
 71
     0
 42
5.0
  3
romans.shx
  4

  0
STYLE
  5
1F
330
15E
100
AcDbSymbolTableRecord
100
AcDbTextStyleTableRecord
  2
ARIAL
 70
     0
 40
0.0
 41
1.0
 50
0.0
 71
     0
 42
20.0
  3
ARIAL.TTF
  4

1001
ACAD
1000
Arial CE
1071
    60962
  0
STYLE
  5
19
330
15E
100
AcDbSymbolTableRecord
100
AcDbTextStyleTableRecord
  2
AVA
 70
     0
 40
0.0
 41
1.0
 50
0.0
 71
     0
 42
158.5644099714409
  3
ARIAL.TTF
  4

1001
ACAD
1000
Arial CE
1071
    60962
  0
ENDTAB
  0
TABLE
  2
VIEW
  5
164
330
0
100
AcDbSymbolTable
 70
     0
  0
ENDTAB
  0
TABLE
  2
UCS
  5
165
330
0
100
AcDbSymbolTable
 70
     0
  0
ENDTAB
  0
TABLE
  2
APPID
  5
16A
330
0
100
AcDbSymbolTable
 70
     5
  0
APPID
  5
1A
330
16A
100
AcDbSymbolTableRecord
100
AcDbRegAppTableRecord
  2
ACAD
 70
     0
  0
APPID
  5
11
330
16A
100
AcDbSymbolTableRecord
100
AcDbRegAppTableRecord
  2
RAK
 70
     0
  0
APPID
  5
154
330
16A
100
AcDbSymbolTableRecord
100
AcDbRegAppTableRecord
  2
ACAD_PSEXT
 70
     0
  0
APPID
  5
20
330
16A
100
AcDbSymbolTableRecord
100
AcDbRegAppTableRecord
  2
AcDbBlockRepETag
 70
     0
  0
APPID
  5
21
330
16A
100
AcDbSymbolTableRecord
100
AcDbRegAppTableRecord
  2
DCO15
 70
     0
  0
ENDTAB
  0
TABLE
  2
DIMSTYLE
  5
16B
330
0
100
AcDbSymbolTable
 70
     2
100
AcDbDimStyleTable
 71
     2
340
16C
340
77
  0
DIMSTYLE
105
77
102
{ACAD_REACTORS
330
78
330
62
330
85
330
9B
330
90
330
A8
330
EB
330
F6
330
103
330
10E
330
119
330
126
330
134
330
144
102
}
330
16B
100
AcDbSymbolTableRecord
100
AcDbDimStyleTableRecord
  2
500
 70
     0
 41
30.0
 42
43.0
 43
0.0
 44
13.0
 45
0.5
 46
12.0
 73
     0
 74
     0
 75
     1
 76
     1
 78
    12
140
80.0
141
0.0
145
1.0
147
0.0
172
     1
174
     1
176
     1
177
     1
178
   140
271
     1
272
     1
279
     2
340
71
341
67
342
67
  0
DIMSTYLE
105
16C
330
16B
100
AcDbSymbolTableRecord
100
AcDbDimStyleTableRecord
  2
100-PRw
 70
     0
 41
1.0
 42
43.0
 43
24.0
 44
13.0
 45
0.5
 46
12.0
 73
     0
 74
     0
 75
     1
 76
     1
 77
     1
 78
     8
140
30.0
141
0.0
145
1.0
147
8.0
172
     1
174
     1
176
     1
177
     1
178
   140
271
     1
272
     1
279
     2
340
71
341
16D
342
172
371
     5
  0
ENDTAB
  0
TABLE
  2
BLOCK_RECORD
  5
1
330
0
100
AcDbSymbolTable
 70
    17
  0
BLOCK_RECORD
  5
2
102
{ACAD_XDICTIONARY
360
3
102
}
330
1
100
AcDbSymbolTableRecord
100
AcDbBlockTableRecord
  2
*MODEL_SPACE
340
152
  0
BLOCK_RECORD
  5
155
330
1
100
AcDbSymbolTableRecord
100
AcDbBlockTableRecord
  2
*Paper_Space
340
158
  0
BLOCK_RECORD
  5
67
102
{ACAD_XDICTIONARY
360
68
102
}
330
1
100
AcDbSymbolTableRecord
100
AcDbBlockTableRecord
  2
B-DIM
340
0
102
{BLKREFS
331
66
331
6F
331
7E
331
7F
331
A1
331
A2
331
94
331
95
331
AC
331
AD
331
EF
331
F0
331
FC
331
FD
331
112
331
113
331
11F
331
120
331
12A
331
12B
331
89
331
8A
331
13A
331
13B
331
14A
331
14B
331
107
331
108
102
}
  0
BLOCK_RECORD
  5
16D
330
1
100
AcDbSymbolTableRecord
100
AcDbBlockTableRecord
  2
_Dot
340
0
  0
BLOCK_RECORD
  5
172
330
1
100
AcDbSymbolTableRecord
100
AcDbBlockTableRecord
  2
B-DIM_W
340
0
310
2800000020000000200000000100080000000000000400000000000000000000000000000000000000000000000080000080000000808000800000008000800080800000C0C0C000C0DCC000F0CAA6000020400000206000002080000020A0000020C0000020E00000400000004020000040400000406000004080000040A0
310
000040C0000040E00000600000006020000060400000606000006080000060A0000060C0000060E00000800000008020000080400000806000008080000080A0000080C0000080E00000A0000000A0200000A0400000A0600000A0800000A0A00000A0C00000A0E00000C0000000C0200000C0400000C0600000C0800000C0
310
A00000C0C00000C0E00000E0000000E0200000E0400000E0600000E0800000E0A00000E0C00000E0E00040000000400020004000400040006000400080004000A0004000C0004000E00040200000402020004020400040206000402080004020A0004020C0004020E000404000004040200040404000404060004040800040
310
40A0004040C0004040E00040600000406020004060400040606000406080004060A0004060C0004060E00040800000408020004080400040806000408080004080A0004080C0004080E00040A0000040A0200040A0400040A0600040A0800040A0A00040A0C00040A0E00040C0000040C0200040C0400040C0600040C08000
310
40C0A00040C0C00040C0E00040E0000040E0200040E0400040E0600040E0800040E0A00040E0C00040E0E00080000000800020008000400080006000800080008000A0008000C0008000E00080200000802020008020400080206000802080008020A0008020C0008020E00080400000804020008040400080406000804080
310
008040A0008040C0008040E00080600000806020008060400080606000806080008060A0008060C0008060E00080800000808020008080400080806000808080008080A0008080C0008080E00080A0000080A0200080A0400080A0600080A0800080A0A00080A0C00080A0E00080C0000080C0200080C0400080C0600080C0
310
800080C0A00080C0C00080C0E00080E0000080E0200080E0400080E0600080E0800080E0A00080E0C00080E0E000C0000000C0002000C0004000C0006000C0008000C000A000C000C000C000E000C0200000C0202000C0204000C0206000C0208000C020A000C020C000C020E000C0400000C0402000C0404000C0406000C0
310
408000C040A000C040C000C040E000C0600000C0602000C0604000C0606000C0608000C060A000C060C000C060E000C0800000C0802000C0804000C0806000C0808000C080A000C080C000C080E000C0A00000C0A02000C0A04000C0A06000C0A08000C0A0A000C0A0C000C0A0E000C0C00000C0C02000C0C04000C0C06000
310
C0C08000C0C0A000F0FBFF00A4A0A000808080000000FF0000FF000000FFFF00FF000000FF00FF00FFFF0000FFFFFF0000000000000000000000000000000000000000000000000000000000000000000000000000000000000000000000000000000000000000000000000000000000000000000000000000000000000000
310
00000000000000000000000000000000000000000000000000000000000000000000000000000000000000000000000000000000000000000000000000000000000000000000000000000000000000000000000000000000000000000000000000000000000000000000000000000000000000000000000000000000000000
310
00000000000000000000000000000000000000000000000000000000000000000000000000000000000000000000000000000000000000000000000000000000000000000000000000000000000000000000000000000000000000000000000000000000000000000000000000000000000000000000000000000000000000
310
00000000000000000000000000000000000000F9F9F9F9F9F9F900000000000000000000000000000000000000000000000000F9000000000000F9F9F9F9F9F900000000000000000000000000000000000000F9000000000000000000000000F9F9F9F9F90000000000000000000000000000F90000000000000000000000
310
000000000000F9F9F9F9F9F90000000000000000F90000000000000000000000000000000000000000000000F9F9F9F9F9F90000F900000000000000000000000000000000000000000000F9F9F9F9F9F9F90000F90000000000000000000000000000F9F9F9F9F9F9F9F9000000000000000000F900000000000000F9F9F9
310
F9F9F9F90000000000000000000000000000000000F9F9F9F9F9F9F9F90000000000000000000000000000000000000000000000000000000000000000000000000000000000000000000000000000000000000000000000000000000000000000000000000000000000000000000000000000000000000000000000000000
310
00000000000000000000000000000000000000000000000000000000000000000000000000000000000000000000000000000000000000000000000000000000000000000000000000000000000000000000000000000000000000000000000000000000000000000000000000000000000000000000000000000000000000
310
00000000000000000000000000000000000000000000000000000000000000000000000000000000000000000000000000000000000000000000000000000000000000000000000000000000000000000000000000000000000000000000000000000000000000000000000000000000000000000000000000000000000000
310
0000000000000000000000000000000000000000000000000000000000000000000000000000000000000000000000000000000000000000
  0
BLOCK_RECORD
  5
63
330
1
100
AcDbSymbolTableRecord
100
AcDbBlockTableRecord
  2
*D3
340
0
  0
BLOCK_RECORD
  5
79
330
1
100
AcDbSymbolTableRecord
100
AcDbBlockTableRecord
  2
*D4
340
0
  0
BLOCK_RECORD
  5
91
330
1
100
AcDbSymbolTableRecord
100
AcDbBlockTableRecord
  2
*D5
340
0
  0
BLOCK_RECORD
  5
9C
330
1
100
AcDbSymbolTableRecord
100
AcDbBlockTableRecord
  2
*D6
340
0
  0
BLOCK_RECORD
  5
A9
330
1
100
AcDbSymbolTableRecord
100
AcDbBlockTableRecord
  2
*D7
340
0
  0
BLOCK_RECORD
  5
EC
330
1
100
AcDbSymbolTableRecord
100
AcDbBlockTableRecord
  2
*D8
340
0
  0
BLOCK_RECORD
  5
F7
330
1
100
AcDbSymbolTableRecord
100
AcDbBlockTableRecord
  2
*D9
340
0
  0
BLOCK_RECORD
  5
10F
330
1
100
AcDbSymbolTableRecord
100
AcDbBlockTableRecord
  2
*D10
340
0
  0
BLOCK_RECORD
  5
11A
330
1
100
AcDbSymbolTableRecord
100
AcDbBlockTableRecord
  2
*D11
340
0
  0
BLOCK_RECORD
  5
127
330
1
100
AcDbSymbolTableRecord
100
AcDbBlockTableRecord
  2
*D12
340
0
  0
BLOCK_RECORD
  5
135
330
1
100
AcDbSymbolTableRecord
100
AcDbBlockTableRecord
  2
*D13
340
0
  0
BLOCK_RECORD
  5
86
330
1
100
AcDbSymbolTableRecord
100
AcDbBlockTableRecord
  2
*D14
340
0
  0
BLOCK_RECORD
  5
145
330
1
100
AcDbSymbolTableRecord
100
AcDbBlockTableRecord
  2
*D15
340
0
  0
BLOCK_RECORD
  5
104
330
1
100
AcDbSymbolTableRecord
100
AcDbBlockTableRecord
  2
*D16
340
0
  0
ENDTAB
  0
ENDSEC
  0
SECTION
  2
BLOCKS
  0
BLOCK
  5
5
330
2
100
AcDbEntity
  8
0
100
AcDbBlockBegin
  2
*MODEL_SPACE
 70
     0
 10
0.0
 20
0.0
 30
0.0
  3
*MODEL_SPACE
  1

  0
ENDBLK
  5
151
330
2
100
AcDbEntity
  8
0
100
AcDbBlockEnd
  0
BLOCK
  5
156
330
155
100
AcDbEntity
 67
     1
  8
0
 48
4.0
100
AcDbBlockBegin
  2
*Paper_Space
 70
     0
 10
0.0
 20
0.0
 30
0.0
  3
*Paper_Space
  1

  0
ENDBLK
  5
157
330
155
100
AcDbEntity
 67
     1
  8
0
 48
4.0
100
AcDbBlockEnd
  0
BLOCK
  5
6A
330
67
100
AcDbEntity
  8
0
 48
4.0
100
AcDbBlockBegin
  2
B-DIM
 70
     0
 10
0.0
 20
0.0
 30
0.0
  3
B-DIM
  1

  0
LINE
  5
6B
330
67
100
AcDbEntity
  8
0
 62
     1
100
AcDbLine
 10
0.000000000000091
 20
-1.1
 30
0.0
 11
0.000000000000091
 21
1.1
 31
0.0
  0
LWPOLYLINE
  5
6C
330
67
100
AcDbEntity
  8
0
 62
     1
100
AcDbPolyline
 90
        2
 70
     0
 43
0.3
 10
-0.7071067811864851
 20
-0.7071067811864851
 10
0.7071067811865759
 20
0.7071067811865759
  0
LINE
  5
6D
330
67
100
AcDbEntity
  8
0
 62
     1
100
AcDbLine
 10
1.20000000000009
 20
0.0
 30
0.0
 11
-1.199999999999909
 21
0.0
 31
0.0
  0
ENDBLK
  5
6E
330
67
100
AcDbEntity
  8
0
100
AcDbBlockEnd
  0
BLOCK
  5
16E
330
16D
100
AcDbEntity
  8
0
100
AcDbBlockBegin
  2
_Dot
 70
     0
 10
0.0
 20
0.0
 30
0.0
  3
_Dot
  1

  0
LWPOLYLINE
  5
16F
330
16D
100
AcDbEntity
  8
0
  6
ByBlock
 62
     0
100
AcDbPolyline
 90
        2
 70
     1
 43
0.5
 10
-0.25
 20
0.0
 42
1.0
 10
0.25
 20
0.0
 42
1.0
  0
LINE
  5
170
330
16D
100
AcDbEntity
  8
0
  6
ByBlock
 62
     0
370
    -2
100
AcDbLine
 10
-0.5
 20
0.0
 30
0.0
 11
-1.0
 21
0.0
 31
0.0
  0
ENDBLK
  5
171
330
16D
100
AcDbEntity
  8
0
100
AcDbBlockEnd
  0
BLOCK
  5
173
330
172
100
AcDbEntity
  8
0
 48
4.0
100
AcDbBlockBegin
  2
B-DIM_W
 70
     0
 10
0.0
 20
0.0
 30
0.0
  3
B-DIM_W
  1

  0
SOLID
  5
174
330
172
100
AcDbEntity
  8
WYMIARY
 62
     1
 48
4.0
100
AcDbTrace
 10
-18.00000000000182
 20
3.000000000001818
 30
0.0
 11
0.0
 21
0.0
 31
0.0
 12
-18.00000000000182
 22
-3.000000000001818
 32
0.0
 13
-18.00000000000182
 23
-3.000000000001818
 33
0.0
  0
ENDBLK
  5
178
330
172
100
AcDbEntity
  8
0
 48
4.0
100
AcDbBlockEnd
  0
BLOCK
  5
64
330
63
100
AcDbEntity
  8
0
 48
4.0
100
AcDbBlockBegin
  2
*D3
 70
     1
 10
0.0
 20
0.0
 30
0.0
  3
*D3
  1

  0
LINE
  5
65
330
63
100
AcDbEntity
  8
0Wymiary-PL
 62
     1
370
    -2
100
AcDbLine
 10
46095.58328274051
 20
-13777.98587786532
 30
0.0
 11
46095.58328274051
 21
-13037.98587786532
 31
0.0
  0
INSERT
  5
66
330
63
100
AcDbEntity
  8
0Wymiary-PL
 62
     1
370
    -2
100
AcDbBlockReference
  2
B-DIM
 10
46095.58328274051
 20
-13807.98587786532
 30
0.0
 41
30.0
 42
30.0
 43
30.0
 50
270.0
  0
INSERT
  5
6F
330
63
100
AcDbEntity
  8
0Wymiary-PL
 62
     1
370
    -2
100
AcDbBlockReference
  2
B-DIM
 10
46095.58328274051
 20
-13007.98587786532
 30
0.0
 41
30.0
 42
30.0
 43
30.0
 50
90.0
  0
MTEXT
  5
70
330
63
100
AcDbEntity
  8
0Wymiary-PL
 62
   140
100
AcDbMText
 10
46015.58328274051
 20
-13407.98587786531
 30
0.0
 40
80.0
 41
0.0
 71
     5
 72
     1
  1
\A1;800
  7
ROMANS
 11
0.0000000000000001
 21
1.0
 31
0.0
 73
     1
 44
1.0
1001
ACAD
1000
MTEXTBEGIN
1070
    73
1070
     1
1070
    44
1040
1.0
1070
    74
1070
     0
1000
MTEXTEND
  0
POINT
  5
72
330
63
100
AcDbEntity
  8
Defpoints
 62
     0
100
AcDbPoint
 10
45572.17760219288
 20
-13807.98587786532
 30
0.0
  0
POINT
  5
74
330
63
100
AcDbEntity
  8
Defpoints
 62
     0
100
AcDbPoint
 10
45572.17760219288
 20
-13007.98587786532
 30
0.0
  0
POINT
  5
75
330
63
100
AcDbEntity
  8
Defpoints
 62
     0
100
AcDbPoint
 10
46095.58328274051
 20
-13007.98587786532
 30
0.0
  0
ENDBLK
  5
76
330
63
100
AcDbEntity
  8
0
 48
4.0
100
AcDbBlockEnd
  0
BLOCK
  5
7A
330
79
100
AcDbEntity
  8
0
 48
4.0
100
AcDbBlockBegin
  2
*D4
 70
     1
 10
0.0
 20
0.0
 30
0.0
  3
*D4
  1

  0
LINE
  5
7B
330
79
100
AcDbEntity
  8
0Wymiary-PL
 62
     1
370
    -2
100
AcDbLine
 10
46095.58328274051
 20
-13037.98587786532
 30
0.0
 11
46095.58328274051
 21
-13067.98587786532
 31
0.0
  0
LINE
  5
7C
330
79
100
AcDbEntity
  8
0Wymiary-PL
 62
     1
370
    -2
100
AcDbLine
 10
46095.58328274051
 20
-12927.98587786532
 30
0.0
 11
46095.58328274051
 21
-12897.98587786532
 31
0.0
  0
LINE
  5
7D
330
79
100
AcDbEntity
  8
0Wymiary-PL
 62
     1
370
    -2
100
AcDbLine
 10
46095.58328274051
 20
-13007.98587786532
 30
0.0
 11
46095.58328274051
 21
-12957.98587786532
 31
0.0
  0
INSERT
  5
7E
330
79
100
AcDbEntity
  8
0Wymiary-PL
 62
     1
370
    -2
100
AcDbBlockReference
  2
B-DIM
 10
46095.58328274051
 20
-13007.98587786532
 30
0.0
 41
30.0
 42
30.0
 43
30.0
 50
90.0
  0
INSERT
  5
7F
330
79
100
AcDbEntity
  8
0Wymiary-PL
 62
     1
370
    -2
100
AcDbBlockReference
  2
B-DIM
 10
46095.58328274051
 20
-12957.98587786532
 30
0.0
 41
30.0
 42
30.0
 43
30.0
 50
270.0
  0
MTEXT
  5
80
330
79
100
AcDbEntity
  8
0Wymiary-PL
 62
   140
100
AcDbMText
 10
46015.58328274051
 20
-12982.98587786531
 30
0.0
 40
80.0
 41
0.0
 71
     5
 72
     1
  1
\A1;50
  7
ROMANS
 11
0.0000000000000001
 21
1.0
 31
0.0
 73
     1
 44
1.0
1001
ACAD
1000
MTEXTBEGIN
1070
    73
1070
     1
1070
    44
1040
1.0
1070
    74
1070
     0
1000
MTEXTEND
  0
POINT
  5
81
330
79
100
AcDbEntity
  8
Defpoints
 62
     0
100
AcDbPoint
 10
45159.17770219289
 20
-13007.98587786532
 30
0.0
  0
POINT
  5
82
330
79
100
AcDbEntity
  8
Defpoints
 62
     0
100
AcDbPoint
 10
45159.17770219289
 20
-12957.98587786532
 30
0.0
  0
POINT
  5
83
330
79
100
AcDbEntity
  8
Defpoints
 62
     0
100
AcDbPoint
 10
46095.58328274051
 20
-12957.98587786532
 30
0.0
  0
ENDBLK
  5
84
330
79
100
AcDbEntity
  8
0
 48
4.0
100
AcDbBlockEnd
  0
BLOCK
  5
92
330
91
100
AcDbEntity
  8
0
 48
4.0
100
AcDbBlockBegin
  2
*D5
 70
     1
 10
0.0
 20
0.0
 30
0.0
  3
*D5
  1

  0
LINE
  5
93
330
91
100
AcDbEntity
  8
0Wymiary-PL
 62
     1
370
    -2
100
AcDbLine
 10
44537.17760219289
 20
-14190.89431108626
 30
0.0
 11
45542.17760219288
 21
-14190.89431108626
 31
0.0
  0
INSERT
  5
94
330
91
100
AcDbEntity
  8
0Wymiary-PL
 62
     1
370
    -2
100
AcDbBlockReference
  2
B-DIM
 10
44507.17760219289
 20
-14190.89431108626
 30
0.0
 41
30.0
 42
30.0
 43
30.0
 50
180.0
  0
INSERT
  5
95
330
91
100
AcDbEntity
  8
0Wymiary-PL
 62
     1
370
    -2
100
AcDbBlockReference
  2
B-DIM
 10
45572.17760219288
 20
-14190.89431108626
 30
0.0
 41
30.0
 42
30.0
 43
30.0
  0
MTEXT
  5
96
330
91
100
AcDbEntity
  8
0Wymiary-PL
 62
   140
100
AcDbMText
 10
45039.67760219288
 20
-14110.89431108626
 30
0.0
 40
80.0
 41
0.0
 71
     5
 72
     1
  1
\A1;1065
  7
ROMANS
 73
     1
 44
1.0
1001
ACAD
1000
MTEXTBEGIN
1070
    73
1070
     1
1070
    44
1040
1.0
1070
    74
1070
     0
1000
MTEXTEND
  0
POINT
  5
97
330
91
100
AcDbEntity
  8
Defpoints
 62
     0
100
AcDbPoint
 10
44507.17760219289
 20
-13807.98587786532
 30
0.0
  0
POINT
  5
98
330
91
100
AcDbEntity
  8
Defpoints
 62
     0
100
AcDbPoint
 10
45572.17760219288
 20
-13807.98587786532
 30
0.0
  0
POINT
  5
99
330
91
100
AcDbEntity
  8
Defpoints
 62
     0
100
AcDbPoint
 10
45572.17760219288
 20
-14190.89431108626
 30
0.0
  0
ENDBLK
  5
9A
330
91
100
AcDbEntity
  8
0
 48
4.0
100
AcDbBlockEnd
  0
BLOCK
  5
9D
330
9C
100
AcDbEntity
  8
0
 48
4.0
100
AcDbBlockBegin
  2
*D6
 70
     1
 10
0.0
 20
0.0
 30
0.0
  3
*D6
  1

  0
LINE
  5
9E
330
9C
100
AcDbEntity
  8
0Wymiary-PL
 62
     1
370
    -2
100
AcDbLine
 10
44397.17760219289
 20
-14190.89431108626
 30
0.0
 11
44367.17760219289
 21
-14190.89431108626
 31
0.0
  0
LINE
  5
9F
330
9C
100
AcDbEntity
  8
0Wymiary-PL
 62
     1
370
    -2
100
AcDbLine
 10
44537.17760219289
 20
-14190.89431108626
 30
0.0
 11
44567.17760219289
 21
-14190.89431108626
 31
0.0
  0
LINE
  5
A0
330
9C
100
AcDbEntity
  8
0Wymiary-PL
 62
     1
370
    -2
100
AcDbLine
 10
44427.17760219289
 20
-14190.89431108626
 30
0.0
 11
44507.17760219289
 21
-14190.89431108626
 31
0.0
  0
INSERT
  5
A1
330
9C
100
AcDbEntity
  8
0Wymiary-PL
 62
     1
370
    -2
100
AcDbBlockReference
  2
B-DIM
 10
44427.17760219289
 20
-14190.89431108626
 30
0.0
 41
30.0
 42
30.0
 43
30.0
  0
INSERT
  5
A2
330
9C
100
AcDbEntity
  8
0Wymiary-PL
 62
     1
370
    -2
100
AcDbBlockReference
  2
B-DIM
 10
44507.17760219289
 20
-14190.89431108626
 30
0.0
 41
30.0
 42
30.0
 43
30.0
 50
180.0
  0
MTEXT
  5
A3
330
9C
100
AcDbEntity
  8
0Wymiary-PL
 62
   140
100
AcDbMText
 10
44467.17760219287
 20
-14110.89431108626
 30
0.0
 40
80.0
 41
0.0
 71
     5
 72
     1
  1
\A1;80
  7
ROMANS
 73
     1
 44
1.0
1001
ACAD
1000
MTEXTBEGIN
1070
    73
1070
     1
1070
    44
1040
1.0
1070
    74
1070
     0
1000
MTEXTEND
  0
POINT
  5
A4
330
9C
100
AcDbEntity
  8
Defpoints
 62
     0
100
AcDbPoint
 10
44427.17760219289
 20
-13490.14020679787
 30
0.0
  0
POINT
  5
A5
330
9C
100
AcDbEntity
  8
Defpoints
 62
     0
100
AcDbPoint
 10
44507.17760219289
 20
-13570.14020679787
 30
0.0
  0
POINT
  5
A6
330
9C
100
AcDbEntity
  8
Defpoints
 62
     0
100
AcDbPoint
 10
44507.17760219289
 20
-14190.89431108626
 30
0.0
  0
ENDBLK
  5
A7
330
9C
100
AcDbEntity
  8
0
 48
4.0
100
AcDbBlockEnd
  0
BLOCK
  5
AA
330
A9
100
AcDbEntity
  8
0
 48
4.0
100
AcDbBlockBegin
  2
*D7
 70
     1
 10
0.0
 20
0.0
 30
0.0
  3
*D7
  1

  0
LINE
  5
AB
330
A9
100
AcDbEntity
  8
0Wymiary-PL
 62
     1
370
    -2
100
AcDbLine
 10
44457.17760219289
 20
-14358.99588474083
 30
0.0
 11
45542.17760219288
 21
-14358.99588474083
 31
0.0
  0
INSERT
  5
AC
330
A9
100
AcDbEntity
  8
0Wymiary-PL
 62
     1
370
    -2
100
AcDbBlockReference
  2
B-DIM
 10
44427.17760219289
 20
-14358.99588474083
 30
0.0
 41
30.0
 42
30.0
 43
30.0
 50
180.0
  0
INSERT
  5
AD
330
A9
100
AcDbEntity
  8
0Wymiary-PL
 62
     1
370
    -2
100
AcDbBlockReference
  2
B-DIM
 10
45572.17760219288
 20
-14358.99588474083
 30
0.0
 41
30.0
 42
30.0
 43
30.0
  0
MTEXT
  5
AE
330
A9
100
AcDbEntity
  8
0Wymiary-PL
 62
   140
100
AcDbMText
 10
44999.67760219289
 20
-14278.99588474083
 30
0.0
 40
80.0
 41
0.0
 71
     5
 72
     1
  1
\A1;1145
  7
ROMANS
 73
     1
 44
1.0
1001
ACAD
1000
MTEXTBEGIN
1070
    73
1070
     1
1070
    44
1040
1.0
1070
    74
1070
     0
1000
MTEXTEND
  0
POINT
  5
AF
330
A9
100
AcDbEntity
  8
Defpoints
 62
     0
100
AcDbPoint
 10
44427.17760219289
 20
-13490.14020679787
 30
0.0
  0
POINT
  5
B0
330
A9
100
AcDbEntity
  8
Defpoints
 62
     0
100
AcDbPoint
 10
45572.17760219288
 20
-13490.14020679787
 30
0.0
  0
POINT
  5
B1
330
A9
100
AcDbEntity
  8
Defpoints
 62
     0
100
AcDbPoint
 10
45572.17760219288
 20
-14358.99588474083
 30
0.0
  0
ENDBLK
  5
B2
330
A9
100
AcDbEntity
  8
0
 48
4.0
100
AcDbBlockEnd
  0
BLOCK
  5
ED
330
EC
100
AcDbEntity
  8
0
 48
4.0
100
AcDbBlockBegin
  2
*D8
 70
     1
 10
0.0
 20
0.0
 30
0.0
  3
*D8
  1

  0
LINE
  5
EE
330
EC
100
AcDbEntity
  8
0Wymiary-PL
 62
     1
370
    -2
100
AcDbLine
 10
47575.96941482846
 20
-13777.98587786532
 30
0.0
 11
47575.96941482846
 21
-13037.98587786532
 31
0.0
  0
INSERT
  5
EF
330
EC
100
AcDbEntity
  8
0Wymiary-PL
 62
     1
370
    -2
100
AcDbBlockReference
  2
B-DIM
 10
47575.96941482846
 20
-13807.98587786532
 30
0.0
 41
30.0
 42
30.0
 43
30.0
 50
270.0
  0
INSERT
  5
F0
330
EC
100
AcDbEntity
  8
0Wymiary-PL
 62
     1
370
    -2
100
AcDbBlockReference
  2
B-DIM
 10
47575.96941482846
 20
-13007.98587786532
 30
0.0
 41
30.0
 42
30.0
 43
30.0
 50
90.0
  0
MTEXT
  5
F1
330
EC
100
AcDbEntity
  8
0Wymiary-PL
 62
   140
100
AcDbMText
 10
47495.96941482846
 20
-13407.98587786531
 30
0.0
 40
80.0
 41
0.0
 71
     5
 72
     1
  1
\A1;800
  7
ROMANS
 11
0.0000000000000001
 21
1.0
 31
0.0
 73
     1
 44
1.0
1001
ACAD
1000
MTEXTBEGIN
1070
    73
1070
     1
1070
    44
1040
1.0
1070
    74
1070
     0
1000
MTEXTEND
  0
POINT
  5
F2
330
EC
100
AcDbEntity
  8
Defpoints
 62
     0
100
AcDbPoint
 10
48099.3750953761
 20
-13807.98587786532
 30
0.0
  0
POINT
  5
F3
330
EC
100
AcDbEntity
  8
Defpoints
 62
     0
100
AcDbPoint
 10
48099.3750953761
 20
-13007.98587786532
 30
0.0
  0
POINT
  5
F4
330
EC
100
AcDbEntity
  8
Defpoints
 62
     0
100
AcDbPoint
 10
47575.96941482846
 20
-13007.98587786532
 30
0.0
  0
ENDBLK
  5
F5
330
EC
100
AcDbEntity
  8
0
 48
4.0
100
AcDbBlockEnd
  0
BLOCK
  5
F8
330
F7
100
AcDbEntity
  8
0
 48
4.0
100
AcDbBlockBegin
  2
*D9
 70
     1
 10
0.0
 20
0.0
 30
0.0
  3
*D9
  1

  0
LINE
  5
F9
330
F7
100
AcDbEntity
  8
0Wymiary-PL
 62
     1
370
    -2
100
AcDbLine
 10
47575.96941482846
 20
-13037.98587786532
 30
0.0
 11
47575.96941482846
 21
-13067.98587786532
 31
0.0
  0
LINE
  5
FA
330
F7
100
AcDbEntity
  8
0Wymiary-PL
 62
     1
370
    -2
100
AcDbLine
 10
47575.96941482846
 20
-12927.98587786532
 30
0.0
 11
47575.96941482846
 21
-12897.98587786532
 31
0.0
  0
LINE
  5
FB
330
F7
100
AcDbEntity
  8
0Wymiary-PL
 62
     1
370
    -2
100
AcDbLine
 10
47575.96941482846
 20
-13007.98587786532
 30
0.0
 11
47575.96941482846
 21
-12957.98587786532
 31
0.0
  0
INSERT
  5
FC
330
F7
100
AcDbEntity
  8
0Wymiary-PL
 62
     1
370
    -2
100
AcDbBlockReference
  2
B-DIM
 10
47575.96941482846
 20
-13007.98587786532
 30
0.0
 41
30.0
 42
30.0
 43
30.0
 50
90.0
  0
INSERT
  5
FD
330
F7
100
AcDbEntity
  8
0Wymiary-PL
 62
     1
370
    -2
100
AcDbBlockReference
  2
B-DIM
 10
47575.96941482846
 20
-12957.98587786532
 30
0.0
 41
30.0
 42
30.0
 43
30.0
 50
270.0
  0
MTEXT
  5
FE
330
F7
100
AcDbEntity
  8
0Wymiary-PL
 62
   140
100
AcDbMText
 10
47495.96941482846
 20
-12982.98587786531
 30
0.0
 40
80.0
 41
0.0
 71
     5
 72
     1
  1
\A1;50
  7
ROMANS
 11
0.0000000000000001
 21
1.0
 31
0.0
 73
     1
 44
1.0
1001
ACAD
1000
MTEXTBEGIN
1070
    73
1070
     1
1070
    44
1040
1.0
1070
    74
1070
     0
1000
MTEXTEND
  0
POINT
  5
FF
330
F7
100
AcDbEntity
  8
Defpoints
 62
     0
100
AcDbPoint
 10
48512.3749953761
 20
-13007.98587786532
 30
0.0
  0
POINT
  5
100
330
F7
100
AcDbEntity
  8
Defpoints
 62
     0
100
AcDbPoint
 10
48512.3749953761
 20
-12957.98587786532
 30
0.0
  0
POINT
  5
101
330
F7
100
AcDbEntity
  8
Defpoints
 62
     0
100
AcDbPoint
 10
47575.96941482846
 20
-12957.98587786532
 30
0.0
  0
ENDBLK
  5
102
330
F7
100
AcDbEntity
  8
0
 48
4.0
100
AcDbBlockEnd
  0
BLOCK
  5
110
330
10F
100
AcDbEntity
  8
0
 48
4.0
100
AcDbBlockBegin
  2
*D10
 70
     1
 10
0.0
 20
0.0
 30
0.0
  3
*D10
  1

  0
LINE
  5
111
330
10F
100
AcDbEntity
  8
0Wymiary-PL
 62
     1
370
    -2
100
AcDbLine
 10
49134.3750953761
 20
-14190.89431108626
 30
0.0
 11
48129.37509537611
 21
-14190.89431108626
 31
0.0
  0
INSERT
  5
112
330
10F
100
AcDbEntity
  8
0Wymiary-PL
 62
     1
370
    -2
100
AcDbBlockReference
  2
B-DIM
 10
49164.37509537608
 20
-14190.89431108626
 30
0.0
 41
30.0
 42
30.0
 43
30.0
  0
INSERT
  5
113
330
10F
100
AcDbEntity
  8
0Wymiary-PL
 62
     1
370
    -2
100
AcDbBlockReference
  2
B-DIM
 10
48099.3750953761
 20
-14190.89431108626
 30
0.0
 41
30.0
 42
30.0
 43
30.0
 50
180.0
  0
MTEXT
  5
114
330
10F
100
AcDbEntity
  8
0Wymiary-PL
 62
   140
100
AcDbMText
 10
48631.8750953761
 20
-14110.89431108626
 30
0.0
 40
80.0
 41
0.0
 71
     5
 72
     1
  1
\A1;1065
  7
ROMANS
 73
     1
 44
1.0
1001
ACAD
1000
MTEXTBEGIN
1070
    73
1070
     1
1070
    44
1040
1.0
1070
    74
1070
     0
1000
MTEXTEND
  0
POINT
  5
115
330
10F
100
AcDbEntity
  8
Defpoints
 62
     0
100
AcDbPoint
 10
49164.37509537608
 20
-13807.98587786532
 30
0.0
  0
POINT
  5
116
330
10F
100
AcDbEntity
  8
Defpoints
 62
     0
100
AcDbPoint
 10
48099.3750953761
 20
-13807.98587786532
 30
0.0
  0
POINT
  5
117
330
10F
100
AcDbEntity
  8
Defpoints
 62
     0
100
AcDbPoint
 10
48099.3750953761
 20
-14190.89431108626
 30
0.0
  0
ENDBLK
  5
118
330
10F
100
AcDbEntity
  8
0
 48
4.0
100
AcDbBlockEnd
  0
BLOCK
  5
11B
330
11A
100
AcDbEntity
  8
0
 48
4.0
100
AcDbBlockBegin
  2
*D11
 70
     1
 10
0.0
 20
0.0
 30
0.0
  3
*D11
  1

  0
LINE
  5
11C
330
11A
100
AcDbEntity
  8
0Wymiary-PL
 62
     1
370
    -2
100
AcDbLine
 10
49274.37509537608
 20
-14190.89431108626
 30
0.0
 11
49304.37509537608
 21
-14190.89431108626
 31
0.0
  0
LINE
  5
11D
330
11A
100
AcDbEntity
  8
0Wymiary-PL
 62
     1
370
    -2
100
AcDbLine
 10
49134.3750953761
 20
-14190.89431108626
 30
0.0
 11
49104.3750953761
 21
-14190.89431108626
 31
0.0
  0
LINE
  5
11E
330
11A
100
AcDbEntity
  8
0Wymiary-PL
 62
     1
370
    -2
100
AcDbLine
 10
49244.37509537608
 20
-14190.89431108626
 30
0.0
 11
49164.37509537608
 21
-14190.89431108626
 31
0.0
  0
INSERT
  5
11F
330
11A
100
AcDbEntity
  8
0Wymiary-PL
 62
     1
370
    -2
100
AcDbBlockReference
  2
B-DIM
 10
49244.37509537608
 20
-14190.89431108626
 30
0.0
 41
30.0
 42
30.0
 43
30.0
 50
180.0
  0
INSERT
  5
120
330
11A
100
AcDbEntity
  8
0Wymiary-PL
 62
     1
370
    -2
100
AcDbBlockReference
  2
B-DIM
 10
49164.37509537608
 20
-14190.89431108626
 30
0.0
 41
30.0
 42
30.0
 43
30.0
  0
MTEXT
  5
121
330
11A
100
AcDbEntity
  8
0Wymiary-PL
 62
   140
100
AcDbMText
 10
49204.3750953761
 20
-14110.89431108626
 30
0.0
 40
80.0
 41
0.0
 71
     5
 72
     1
  1
\A1;80
  7
ROMANS
 73
     1
 44
1.0
1001
ACAD
1000
MTEXTBEGIN
1070
    73
1070
     1
1070
    44
1040
1.0
1070
    74
1070
     0
1000
MTEXTEND
  0
POINT
  5
122
330
11A
100
AcDbEntity
  8
Defpoints
 62
     0
100
AcDbPoint
 10
49244.37509537608
 20
-13490.14020679787
 30
0.0
  0
POINT
  5
123
330
11A
100
AcDbEntity
  8
Defpoints
 62
     0
100
AcDbPoint
 10
49164.37509537608
 20
-13570.14020679787
 30
0.0
  0
POINT
  5
124
330
11A
100
AcDbEntity
  8
Defpoints
 62
     0
100
AcDbPoint
 10
49164.37509537608
 20
-14190.89431108626
 30
0.0
  0
ENDBLK
  5
125
330
11A
100
AcDbEntity
  8
0
 48
4.0
100
AcDbBlockEnd
  0
BLOCK
  5
128
330
127
100
AcDbEntity
  8
0
 48
4.0
100
AcDbBlockBegin
  2
*D12
 70
     1
 10
0.0
 20
0.0
 30
0.0
  3
*D12
  1

  0
LINE
  5
129
330
127
100
AcDbEntity
  8
0Wymiary-PL
 62
     1
370
    -2
100
AcDbLine
 10
49214.3750953761
 20
-14358.99588474083
 30
0.0
 11
48129.37509537611
 21
-14358.99588474083
 31
0.0
  0
INSERT
  5
12A
330
127
100
AcDbEntity
  8
0Wymiary-PL
 62
     1
370
    -2
100
AcDbBlockReference
  2
B-DIM
 10
49244.37509537608
 20
-14358.99588474083
 30
0.0
 41
30.0
 42
30.0
 43
30.0
  0
INSERT
  5
12B
330
127
100
AcDbEntity
  8
0Wymiary-PL
 62
     1
370
    -2
100
AcDbBlockReference
  2
B-DIM
 10
48099.3750953761
 20
-14358.99588474083
 30
0.0
 41
30.0
 42
30.0
 43
30.0
 50
180.0
  0
MTEXT
  5
12C
330
127
100
AcDbEntity
  8
0Wymiary-PL
 62
   140
100
AcDbMText
 10
48671.87509537608
 20
-14278.99588474083
 30
0.0
 40
80.0
 41
0.0
 71
     5
 72
     1
  1
\A1;1145
  7
ROMANS
 73
     1
 44
1.0
1001
ACAD
1000
MTEXTBEGIN
1070
    73
1070
     1
1070
    44
1040
1.0
1070
    74
1070
     0
1000
MTEXTEND
  0
POINT
  5
12D
330
127
100
AcDbEntity
  8
Defpoints
 62
     0
100
AcDbPoint
 10
49244.37509537608
 20
-13490.14020679787
 30
0.0
  0
POINT
  5
12E
330
127
100
AcDbEntity
  8
Defpoints
 62
     0
100
AcDbPoint
 10
48099.3750953761
 20
-13490.14020679787
 30
0.0
  0
POINT
  5
12F
330
127
100
AcDbEntity
  8
Defpoints
 62
     0
100
AcDbPoint
 10
48099.3750953761
 20
-14358.99588474083
 30
0.0
  0
ENDBLK
  5
130
330
127
100
AcDbEntity
  8
0
 48
4.0
100
AcDbBlockEnd
  0
BLOCK
  5
136
330
135
100
AcDbEntity
  8
0
 48
4.0
100
AcDbBlockBegin
  2
*D13
 70
     1
 10
0.0
 20
0.0
 30
0.0
  3
*D13
  1

  0
LINE
  5
137
330
135
100
AcDbEntity
  8
0Wymiary-PL
 62
     1
370
    -2
100
AcDbLine
 10
46095.58328274051
 20
-13777.98587786532
 30
0.0
 11
46095.58328274051
 21
-13747.98587786532
 31
0.0
  0
LINE
  5
138
330
135
100
AcDbEntity
  8
0Wymiary-PL
 62
     1
370
    -2
100
AcDbLine
 10
46095.58328274051
 20
-13887.98587786532
 30
0.0
 11
46095.58328274051
 21
-13917.98587786532
 31
0.0
  0
LINE
  5
139
330
135
100
AcDbEntity
  8
0Wymiary-PL
 62
     1
370
    -2
100
AcDbLine
 10
46095.58328274051
 20
-13807.98587786532
 30
0.0
 11
46095.58328274051
 21
-13857.98587786532
 31
0.0
  0
INSERT
  5
13A
330
135
100
AcDbEntity
  8
0Wymiary-PL
 62
     1
370
    -2
100
AcDbBlockReference
  2
B-DIM
 10
46095.58328274051
 20
-13807.98587786532
 30
0.0
 41
30.0
 42
30.0
 43
30.0
 50
270.0
  0
INSERT
  5
13B
330
135
100
AcDbEntity
  8
0Wymiary-PL
 62
     1
370
    -2
100
AcDbBlockReference
  2
B-DIM
 10
46095.58328274051
 20
-13857.98587786532
 30
0.0
 41
30.0
 42
30.0
 43
30.0
 50
90.0
  0
MTEXT
  5
13C
330
135
100
AcDbEntity
  8
0Wymiary-PL
 62
   140
100
AcDbMText
 10
46015.58328274051
 20
-13832.98587786531
 30
0.0
 40
80.0
 41
0.0
 71
     5
 72
     1
  1
\A1;50
  7
ROMANS
 11
0.0000000000000001
 21
1.0
 31
0.0
 73
     1
 44
1.0
1001
ACAD
1000
MTEXTBEGIN
1070
    73
1070
     1
1070
    44
1040
1.0
1070
    74
1070
     0
1000
MTEXTEND
  0
POINT
  5
13D
330
135
100
AcDbEntity
  8
Defpoints
 62
     0
100
AcDbPoint
 10
45146.17760219288
 20
-13807.98587786532
 30
0.0
  0
POINT
  5
13E
330
135
100
AcDbEntity
  8
Defpoints
 62
     0
100
AcDbPoint
 10
45146.17760219288
 20
-13857.98587786532
 30
0.0
  0
POINT
  5
13F
330
135
100
AcDbEntity
  8
Defpoints
 62
     0
100
AcDbPoint
 10
46095.58328274051
 20
-13857.98587786532
 30
0.0
  0
ENDBLK
  5
140
330
135
100
AcDbEntity
  8
0
 48
4.0
100
AcDbBlockEnd
  0
BLOCK
  5
87
330
86
100
AcDbEntity
  8
0
 48
4.0
100
AcDbBlockBegin
  2
*D14
 70
     1
 10
0.0
 20
0.0
 30
0.0
  3
*D14
  1

  0
LINE
  5
88
330
86
100
AcDbEntity
  8
0Wymiary-PL
 62
     1
370
    -2
100
AcDbLine
 10
46268.96762239153
 20
-13827.98587786532
 30
0.0
 11
46268.96762239153
 21
-12987.98587786532
 31
0.0
  0
INSERT
  5
89
330
86
100
AcDbEntity
  8
0Wymiary-PL
 62
     1
370
    -2
100
AcDbBlockReference
  2
B-DIM
 10
46268.96762239153
 20
-13857.98587786532
 30
0.0
 41
30.0
 42
30.0
 43
30.0
 50
270.0
  0
INSERT
  5
8A
330
86
100
AcDbEntity
  8
0Wymiary-PL
 62
     1
370
    -2
100
AcDbBlockReference
  2
B-DIM
 10
46268.96762239153
 20
-12957.98587786532
 30
0.0
 41
30.0
 42
30.0
 43
30.0
 50
90.0
  0
MTEXT
  5
8B
330
86
100
AcDbEntity
  8
0Wymiary-PL
 62
   140
100
AcDbMText
 10
46188.96762239153
 20
-13407.98587786531
 30
0.0
 40
80.0
 41
0.0
 71
     5
 72
     1
  1
\A1;900
  7
ROMANS
 11
0.0000000000000001
 21
1.0
 31
0.0
 73
     1
 44
1.0
1001
ACAD
1000
MTEXTBEGIN
1070
    73
1070
     1
1070
    44
1040
1.0
1070
    74
1070
     0
1000
MTEXTEND
  0
POINT
  5
8C
330
86
100
AcDbEntity
  8
Defpoints
 62
     0
100
AcDbPoint
 10
45212.17760219289
 20
-13857.98587786532
 30
0.0
  0
POINT
  5
8D
330
86
100
AcDbEntity
  8
Defpoints
 62
     0
100
AcDbPoint
 10
45159.17770219289
 20
-12957.98587786532
 30
0.0
  0
POINT
  5
8E
330
86
100
AcDbEntity
  8
Defpoints
 62
     0
100
AcDbPoint
 10
46268.96762239153
 20
-12957.98587786532
 30
0.0
  0
ENDBLK
  5
8F
330
86
100
AcDbEntity
  8
0
 48
4.0
100
AcDbBlockEnd
  0
BLOCK
  5
146
330
145
100
AcDbEntity
  8
0
 48
4.0
100
AcDbBlockBegin
  2
*D15
 70
     1
 10
0.0
 20
0.0
 30
0.0
  3
*D15
  1

  0
LINE
  5
147
330
145
100
AcDbEntity
  8
0Wymiary-PL
 62
     1
370
    -2
100
AcDbLine
 10
47575.96941482847
 20
-13777.98587786532
 30
0.0
 11
47575.96941482847
 21
-13747.98587786532
 31
0.0
  0
LINE
  5
148
330
145
100
AcDbEntity
  8
0Wymiary-PL
 62
     1
370
    -2
100
AcDbLine
 10
47575.96941482847
 20
-13887.98587786532
 30
0.0
 11
47575.96941482847
 21
-13917.98587786532
 31
0.0
  0
LINE
  5
149
330
145
100
AcDbEntity
  8
0Wymiary-PL
 62
     1
370
    -2
100
AcDbLine
 10
47575.96941482847
 20
-13807.98587786532
 30
0.0
 11
47575.96941482847
 21
-13857.98587786532
 31
0.0
  0
INSERT
  5
14A
330
145
100
AcDbEntity
  8
0Wymiary-PL
 62
     1
370
    -2
100
AcDbBlockReference
  2
B-DIM
 10
47575.96941482847
 20
-13807.98587786532
 30
0.0
 41
30.0
 42
30.0
 43
30.0
 50
270.0
  0
INSERT
  5
14B
330
145
100
AcDbEntity
  8
0Wymiary-PL
 62
     1
370
    -2
100
AcDbBlockReference
  2
B-DIM
 10
47575.96941482847
 20
-13857.98587786532
 30
0.0
 41
30.0
 42
30.0
 43
30.0
 50
90.0
  0
MTEXT
  5
14C
330
145
100
AcDbEntity
  8
0Wymiary-PL
 62
   140
100
AcDbMText
 10
47495.96941482847
 20
-13832.98587786531
 30
0.0
 40
80.0
 41
0.0
 71
     5
 72
     1
  1
\A1;50
  7
ROMANS
 11
0.0000000000000001
 21
1.0
 31
0.0
 73
     1
 44
1.0
1001
ACAD
1000
MTEXTBEGIN
1070
    73
1070
     1
1070
    44
1040
1.0
1070
    74
1070
     0
1000
MTEXTEND
  0
POINT
  5
14D
330
145
100
AcDbEntity
  8
Defpoints
 62
     0
100
AcDbPoint
 10
48525.3750953761
 20
-13807.98587786532
 30
0.0
  0
POINT
  5
14E
330
145
100
AcDbEntity
  8
Defpoints
 62
     0
100
AcDbPoint
 10
48525.3750953761
 20
-13857.98587786532
 30
0.0
  0
POINT
  5
14F
330
145
100
AcDbEntity
  8
Defpoints
 62
     0
100
AcDbPoint
 10
47575.96941482847
 20
-13857.98587786532
 30
0.0
  0
ENDBLK
  5
150
330
145
100
AcDbEntity
  8
0
 48
4.0
100
AcDbBlockEnd
  0
BLOCK
  5
105
330
104
100
AcDbEntity
  8
0
 48
4.0
100
AcDbBlockBegin
  2
*D16
 70
     1
 10
0.0
 20
0.0
 30
0.0
  3
*D16
  1

  0
LINE
  5
106
330
104
100
AcDbEntity
  8
0Wymiary-PL
 62
     1
370
    -2
100
AcDbLine
 10
47402.58507517744
 20
-13827.98587786532
 30
0.0
 11
47402.58507517744
 21
-12987.98587786532
 31
0.0
  0
INSERT
  5
107
330
104
100
AcDbEntity
  8
0Wymiary-PL
 62
     1
370
    -2
100
AcDbBlockReference
  2
B-DIM
 10
47402.58507517744
 20
-13857.98587786532
 30
0.0
 41
30.0
 42
30.0
 43
30.0
 50
270.0
  0
INSERT
  5
108
330
104
100
AcDbEntity
  8
0Wymiary-PL
 62
     1
370
    -2
100
AcDbBlockReference
  2
B-DIM
 10
47402.58507517744
 20
-12957.98587786532
 30
0.0
 41
30.0
 42
30.0
 43
30.0
 50
90.0
  0
MTEXT
  5
109
330
104
100
AcDbEntity
  8
0Wymiary-PL
 62
   140
100
AcDbMText
 10
47322.58507517744
 20
-13407.98587786531
 30
0.0
 40
80.0
 41
0.0
 71
     5
 72
     1
  1
\A1;900
  7
ROMANS
 11
0.0000000000000001
 21
1.0
 31
0.0
 73
     1
 44
1.0
1001
ACAD
1000
MTEXTBEGIN
1070
    73
1070
     1
1070
    44
1040
1.0
1070
    74
1070
     0
1000
MTEXTEND
  0
POINT
  5
10A
330
104
100
AcDbEntity
  8
Defpoints
 62
     0
100
AcDbPoint
 10
48525.3750953761
 20
-13857.98587786532
 30
0.0
  0
POINT
  5
10B
330
104
100
AcDbEntity
  8
Defpoints
 62
     0
100
AcDbPoint
 10
48512.3749953761
 20
-12957.98587786532
 30
0.0
  0
POINT
  5
10C
330
104
100
AcDbEntity
  8
Defpoints
 62
     0
100
AcDbPoint
 10
47402.58507517744
 20
-12957.98587786532
 30
0.0
  0
ENDBLK
  5
10D
330
104
100
AcDbEntity
  8
0
 48
4.0
100
AcDbBlockEnd
  0
ENDSEC
  0
SECTION
  2
ENTITIES
  0
LINE
  5
12
330
2
100
AcDbEntity
  8
0Napisy
  6
HIDDEN
 62
     1
 48
0.3
370
     5
100
AcDbLine
 10
46835.77634878449
 20
-16401.10903816464
 30
0.0
 11
46835.77634878449
 21
-10225.59047776007
 31
0.0
  0
TEXT
  5
16
330
2
100
AcDbEntity
  8
0Napisy-PL
370
     5
100
AcDbText
 10
43102.31688566451
 20
-7582.404766639206
 30
0.0
 40
150.0
  1
"DOM W KOLENDRZE (P)"
  7
AVA
100
AcDbText
  0
LWPOLYLINE
  5
1B
330
2
100
AcDbEntity
  8
RAMKI-A4
370
     5
100
AcDbPolyline
 90
        4
 70
     1
 43
0.0
 10
41623.08715850676
 20
-21041.19458778637
 10
41623.08715850676
 20
-7021.194587786371
 10
51823.08715850679
 20
-7021.194587786371
 10
51823.08715850679
 20
-21041.19458778637
  0
MTEXT
  5
1E
102
{ACAD_XDICTIONARY
360
220
102
}
330
2
100
AcDbEntity
  8
0Napisy
100
AcDbMText
 10
43201.28359656794
 20
-7766.341338524398
 30
0.0
 40
150.0
 41
0.0
 71
     1
 72
     5
  1
{\fArial|b0|i0|c238|p34;MO\U+017BNA WKLEI\U+0106 DO PROJEKTU ZAGOSPODAROWANIA TERENU}
  7
ARIAL
 73
     1
 44
1.0
1001
AcDbBlockRepETag
1070
     1
1071
      383
1005
0
1001
DCO15
1071
        1
1071
        1
1000
_tabelka_-_inform_i_etykiety_Link1
1004
19000000
1000
_tabelka_Arial151
1001
ACAD
1000
MTEXTBEGIN
1070
    73
1070
     1
1070
    44
1040
1.0
1070
    74
1070
     0
1000
MTEXTEND
  0
MTEXT
  5
22
102
{ACAD_XDICTIONARY
360
222
102
}
330
2
100
AcDbEntity
  8
0Napisy
100
AcDbMText
 10
46648.54300079887
 20
-16328.68283732542
 30
0.0
 40
100.0
 41
0.0
 71
     1
 72
     5
  1
{\fArial|b0|i0|c238|p34;O\U+015A ODBICIA LUSTRZANEGO}
  7
ARIAL
 11
0.0000000000000001
 21
1.0
 31
0.0
 73
     1
 44
1.0
1001
AcDbBlockRepETag
1070
     1
1071
      383
1005
0
1001
DCO15
1071
        1
1071
        1
1000
_tabelka_-_inform_i_etykiety_Link1
1004
1B000000
1000
_tabelka_Arial151
1001
ACAD
1000
MTEXTBEGIN
1070
    73
1070
     1
1070
    44
1040
1.0
1070
    74
1070
     0
1000
MTEXTEND
  0
MTEXT
  5
23
330
2
100
AcDbEntity
  8
0Napisy
100
AcDbMText
 10
43225.56356799813
 20
-20077.64119579094
 30
0.0
 40
100.0
 41
0.0
 71
     1
 72
     5
  1
{\fArial|b0|i0|c238|p34;OBRYS  BUDYNKU}
  7
ARIAL
 73
     1
 44
1.0
1001
AcDbBlockRepETag
1070
     1
1071
      383
1005
0
1001
DCO15
1071
        1
1071
        1
1000
_tabelka_-_inform_i_etykiety_Link1
1004
1A000000
1000
_tabelka_Arial151
1001
ACAD
1000
MTEXTBEGIN
1070
    73
1070
     1
1070
    44
1040
1.0
1070
    74
1070
     0
1000
MTEXTEND
  0
MTEXT
  5
24
330
2
100
AcDbEntity
  8
0Napisy
100
AcDbMText
 10
43225.56356799813
 20
-20327.64119579094
 30
0.0
 40
100.0
 41
0.0
 71
     1
 72
     5
  1
{\fArial|b0|i0|c238|p34;Skala:}
  7
ARIAL
 73
     1
 44
1.0
1001
AcDbBlockRepETag
1070
     1
1071
      383
1005
0
1001
DCO15
1071
        1
1071
        1
1000
_tabelka_-_inform_i_etykiety_Link1
1004
08000000
1000
_tabelka_Arial151
1001
ACAD
1000
MTEXTBEGIN
1070
    73
1070
     1
1070
    44
1040
1.0
1070
    74
1070
     0
1000
MTEXTEND
  0
TEXT
  5
25
330
2
100
AcDbEntity
  8
0Napisy
100
AcDbText
 10
43893.25468528083
 20
-20429.34651639121
 30
0.0
 40
100.0
  1
1:500
  7
ARIAL
100
AcDbText
1001
AcDbBlockRepETag
1070
     1
1071
      383
1005
0
1001
DCO15
1071
        1
1071
        1
1000
_tabelka_-_inform_i_etykiety_Link1
1004
08000000
1000
_tabelka_Arial151
  0
HATCH
  5
26
330
2
100
AcDbEntity
  8
0Hatch
 48
4.0
100
AcDbHatch
 10
0.0
 20
0.0
 30
0.0
210
0.0
220
0.0
230
1.0
  2
SOLID
 70
     1
 71
     1
 91
        1
 92
        7
 72
     0
 73
     1
 93
       32
 10
44567.17760219288
 20
-13067.98587786532
 10
44935.17750219289
 20
-13067.98587786532
 10
44935.17750219288
 20
-13014.98587786532
 10
45099.17770219287
 20
-13014.98587786532
 10
45099.17770219288
 20
-13067.98587786532
 10
45512.17760219288
 20
-13067.98587786532
 10
45512.17760219288
 20
-13747.98587786532
 10
45152.17760219289
 20
-13747.98587786532
 10
45089.17760219288
 20
-13747.98587786532
 10
45089.17760219288
 20
-13807.98587786532
 10
45212.1776021929
 20
-13807.98587786532
 10
45572.17760219288
 20
-13807.98587786532
 10
45572.17760219288
 20
-13007.98587786532
 10
45159.17770219289
 20
-13007.98587786532
 10
45159.1777021929
 20
-12954.98587786532
 10
44875.17750219289
 20
-12954.98587786532
 10
44875.17750219289
 20
-13007.98587786532
 10
44507.17760219289
 20
-13007.98587786532
 10
44507.17760219288
 20
-13245.83154893276
 10
44427.17760219289
 20
-13325.83154893277
 10
44427.17760219289
 20
-13490.14020679787
 10
44507.17760219289
 20
-13570.14020679786
 10
44507.17760219289
 20
-13807.98587786532
 10
44866.17760219289
 20
-13807.98587786532
 10
44989.17760219288
 20
-13807.98587786532
 10
44989.17760219288
 20
-13747.98587786532
 10
44926.17760219289
 20
-13747.98587786532
 10
44567.17760219288
 20
-13747.98587786532
 10
44567.17760219289
 20
-13545.28739305548
 10
44487.17760219289
 20
-13465.28739305548
 10
44487.17760219289
 20
-13350.68436267515
 10
44567.17760219289
 20
-13270.68436267515
 97
        4
330
28
330
2E
330
2C
330
2D
 75
     0
 76
     1
 47
2.131430617549594
 98
        1
 10
44541.14030503059
 20
-13215.22426460447
1001
ACAD
1010
0.0
1020
0.0
1030
0.0
  0
LWPOLYLINE
  5
28
102
{ACAD_REACTORS
330
26
102
}
330
2
100
AcDbEntity
  8
0Wymiary-PL
 48
4.0
100
AcDbPolyline
 90
       16
 70
     1
 43
0.0
 10
44567.17760219289
 20
-13747.98587786532
 10
44567.17760219289
 20
-13545.28739305548
 10
44487.17760219289
 20
-13465.28739305548
 10
44487.17760219289
 20
-13350.68436267516
 10
44567.17760219289
 20
-13270.68436267516
 10
44567.17760219289
 20
-13067.98587786532
 10
44935.17750219289
 20
-13067.98587786532
 10
44935.17750219289
 20
-13014.98587786532
 10
45099.17770219288
 20
-13014.98587786532
 10
45099.17770219288
 20
-13067.98587786532
 10
45512.17760219288
 20
-13067.98587786532
 10
45512.17760219288
 20
-13747.98587786532
 10
45152.17760219289
 20
-13747.98587786532
 10
45152.17760219289
 20
-13747.98587786532
 10
44926.17760219289
 20
-13747.98587786532
 10
44926.17760219289
 20
-13747.98587786532
  0
LWPOLYLINE
  5
2C
102
{ACAD_REACTORS
330
26
102
}
330
2
100
AcDbEntity
  8
0Wymiary-PL
 48
4.0
100
AcDbPolyline
 90
       16
 70
     1
 43
0.0
 10
44507.17760219289
 20
-13807.98587786532
 10
44507.17760219289
 20
-13570.14020679787
 10
44427.17760219289
 20
-13490.14020679787
 10
44427.17760219289
 20
-13325.83154893277
 10
44507.17760219289
 20
-13245.83154893277
 10
44507.17760219289
 20
-13007.98587786532
 10
44875.17750219289
 20
-13007.98587786532
 10
44875.17750219289
 20
-12954.98587786532
 10
45159.17770219289
 20
-12954.98587786532
 10
45159.17770219289
 20
-13007.98587786532
 10
45572.17760219288
 20
-13007.98587786532
 10
45572.17760219288
 20
-13807.98587786532
 10
45212.1776021929
 20
-13807.98587786532
 10
45212.1776021929
 20
-13807.98587786532
 10
44866.17760219289
 20
-13807.98587786532
 10
44866.17760219289
 20
-13807.98587786532
  0
LINE
  5
2D
102
{ACAD_REACTORS
330
26
102
}
330
2
100
AcDbEntity
  8
0Wymiary-PL
 48
4.0
100
AcDbLine
 10
44989.17760219288
 20
-13807.98587786532
 30
0.0
 11
44989.17760219288
 21
-13747.98587786532
 31
0.0
  0
LINE
  5
2E
102
{ACAD_REACTORS
330
26
102
}
330
2
100
AcDbEntity
  8
0Wymiary-PL
 48
4.0
100
AcDbLine
 10
45089.17760219288
 20
-13807.98587786532
 30
0.0
 11
45089.17760219288
 21
-13747.98587786532
 31
0.0
  0
LWPOLYLINE
  5
2F
330
2
100
AcDbEntity
  8
0Wymiary-PL
 48
4.0
100
AcDbPolyline
 90
        4
 70
     0
 43
0.0
 10
44594.17656771011
 20
-13807.98587786532
 10
44594.17656771011
 20
-13902.98587786532
 10
44789.17760219289
 20
-13902.98587786532
 10
44789.17760219289
 20
-13807.98587786532
  0
LWPOLYLINE
  5
30
330
2
100
AcDbEntity
  8
0Wymiary-PL
 48
4.0
100
AcDbPolyline
 90
        4
 70
     0
 43
0.0
 10
44609.17656771012
 20
-13807.98587786532
 10
44609.17656771012
 20
-13887.98587786532
 10
44789.17656771012
 20
-13887.98587786532
 10
44789.17656771012
 20
-13807.98587786532
  0
LWPOLYLINE
  5
31
330
2
100
AcDbEntity
  8
0Wymiary-PL
 48
4.0
100
AcDbPolyline
 90
        4
 70
     0
 43
0.0
 10
45289.17760219289
 20
-13807.98587786532
 10
45289.17760219289
 20
-13902.98587786532
 10
45484.17863667565
 20
-13902.98587786532
 10
45484.17863667565
 20
-13807.98587786532
  0
LWPOLYLINE
  5
32
330
2
100
AcDbEntity
  8
0Wymiary-PL
 48
4.0
100
AcDbPolyline
 90
        4
 70
     0
 43
0.0
 10
45289.17863667563
 20
-13807.98587786532
 10
45289.17863667563
 20
-13887.98587786532
 10
45469.17863667565
 20
-13887.98587786532
 10
45469.17863667565
 20
-13807.98587786532
  0
LWPOLYLINE
  5
33
330
2
100
AcDbEntity
  8
0Wymiary-PL
 48
4.0
100
AcDbPolyline
 90
        4
 70
     0
 43
0.0
 10
45212.17863667563
 20
-13007.98587786532
 10
45212.17863667563
 20
-12912.98587786532
 10
45422.17863667564
 20
-12912.98587786532
 10
45422.17863667564
 20
-13007.98587786532
  0
LWPOLYLINE
  5
34
330
2
100
AcDbEntity
  8
0Wymiary-PL
 48
4.0
100
AcDbPolyline
 90
        4
 70
     0
 43
0.0
 10
45227.17863667563
 20
-13007.98587786532
 10
45227.17863667563
 20
-12927.98587786532
 10
45407.17863667564
 20
-12927.98587786532
 10
45407.17863667564
 20
-13007.98587786532
  0
LINE
  5
35
330
2
100
AcDbEntity
  8
0Wymiary-PL
 48
4.0
100
AcDbLine
 10
44814.17760219287
 20
-13807.98587786532
 30
0.0
 11
44814.17760219287
 21
-13969.1399352516
 31
0.0
  0
LINE
  5
36
330
2
100
AcDbEntity
  8
0Wymiary-PL
 48
4.0
100
AcDbLine
 10
44814.17760219287
 20
-13969.1399352516
 30
0.0
 11
44789.17760219289
 21
-13959.75185962451
 31
0.0
  0
LINE
  5
37
330
2
100
AcDbEntity
  8
0Wymiary-PL
 48
4.0
100
AcDbLine
 10
44789.17760219289
 20
-13959.75185962451
 30
0.0
 11
44789.17760219289
 21
-13807.98587786532
 31
0.0
  0
LINE
  5
38
330
2
100
AcDbEntity
  8
0Wymiary-PL
 48
4.0
100
AcDbLine
 10
45264.17760219288
 20
-13807.98587786532
 30
0.0
 11
45264.17760219288
 21
-13969.1399352516
 31
0.0
  0
LINE
  5
39
330
2
100
AcDbEntity
  8
0Wymiary-PL
 48
4.0
100
AcDbLine
 10
45264.17760219288
 20
-13969.1399352516
 30
0.0
 11
45289.17760219289
 21
-13959.75185962451
 31
0.0
  0
LINE
  5
3A
330
2
100
AcDbEntity
  8
0Wymiary-PL
 48
4.0
100
AcDbLine
 10
45289.17760219289
 20
-13959.75185962451
 30
0.0
 11
45289.17760219289
 21
-13807.98587786532
 31
0.0
  0
LINE
  5
3B
330
2
100
AcDbEntity
  8
0Wymiary-PL
 48
4.0
100
AcDbLine
 10
44814.17760219287
 20
-13807.98587786532
 30
0.0
 11
44814.17760219287
 21
-13905.12470100077
 31
0.0
  0
ARC
  5
3C
330
2
100
AcDbEntity
  8
0Wymiary-PL
 48
4.0
100
AcDbCircle
 10
45039.17760219288
 20
-13335.98587786533
 30
0.0
 40
611.9999999999937
100
AcDbArc
 50
248.4294216982855
 51
291.5705783017145
  0
LINE
  5
3D
330
2
100
AcDbEntity
  8
0Wymiary-PL
 48
4.0
100
AcDbLine
 10
45264.17760219288
 20
-13905.12470100077
 30
0.0
 11
45264.17760219288
 21
-13807.98587786532
 31
0.0
  0
LINE
  5
3E
330
2
100
AcDbEntity
  8
0Wymiary-PL
 48
4.0
100
AcDbLine
 10
44814.17760219287
 20
-13807.98587786532
 30
0.0
 11
44814.17760219287
 21
-13937.26701011545
 31
0.0
  0
ARC
  5
3F
330
2
100
AcDbEntity
  8
0Wymiary-PL
 48
4.0
100
AcDbCircle
 10
45039.17760219288
 20
-13335.98587786533
 30
0.0
 40
641.9999999999973
100
AcDbArc
 50
249.4841007017771
 51
290.5158992982229
  0
LINE
  5
40
330
2
100
AcDbEntity
  8
0Wymiary-PL
 48
4.0
100
AcDbLine
 10
45264.17760219288
 20
-13937.26701011545
 30
0.0
 11
45264.17760219288
 21
-13807.98587786532
 31
0.0
  0
LINE
  5
41
330
2
100
AcDbEntity
  8
0Wymiary-PL
 48
4.0
100
AcDbLine
 10
44789.17760219289
 20
-13807.98587786532
 30
0.0
 11
44789.17760219289
 21
-13959.75185962451
 31
0.0
  0
ARC
  5
42
330
2
100
AcDbEntity
  8
0Wymiary-PL
 48
4.0
100
AcDbCircle
 10
45039.17760219288
 20
-13335.98587786532
 30
0.0
 40
671.9999999999981
100
AcDbArc
 50
248.159514885468
 51
291.840485114532
  0
LINE
  5
43
330
2
100
AcDbEntity
  8
0Wymiary-PL
 48
4.0
100
AcDbLine
 10
45289.17760219289
 20
-13959.75185962451
 30
0.0
 11
45289.17760219289
 21
-13807.98587786532
 31
0.0
  0
LINE
  5
44
330
2
100
AcDbEntity
  8
0Wymiary-PL
 48
4.0
100
AcDbLine
 10
45572.17760219288
 20
-13777.98587786532
 30
0.0
 11
45743.2884415538
 21
-13777.98587786532
 31
0.0
  0
ARC
  5
45
330
2
100
AcDbEntity
  8
0Wymiary-PL
 48
4.0
100
AcDbCircle
 10
45169.11214172088
 20
-13407.98587786532
 30
0.0
 40
683.0654604719954
100
AcDbArc
 50
327.2022121329092
 51
32.79778786709079
  0
LINE
  5
46
330
2
100
AcDbEntity
  8
0Wymiary-PL
 48
4.0
100
AcDbLine
 10
45743.2884415538
 20
-13037.98587786532
 30
0.0
 11
45572.17760219288
 21
-13037.98587786532
 31
0.0
  0
LINE
  5
47
330
2
100
AcDbEntity
  8
0Wymiary-PL
 48
4.0
100
AcDbLine
 10
45572.17760219288
 20
-13747.98587786532
 30
0.0
 11
45726.69128019498
 21
-13747.98587786532
 31
0.0
  0
ARC
  5
48
330
2
100
AcDbEntity
  8
0Wymiary-PL
 48
4.0
100
AcDbCircle
 10
45169.11214172088
 20
-13407.98587786532
 30
0.0
 40
653.0654604719967
100
AcDbArc
 50
328.6260420147143
 51
31.37395798528571
  0
LINE
  5
49
330
2
100
AcDbEntity
  8
0Wymiary-PL
 48
4.0
100
AcDbLine
 10
45726.69128019498
 20
-13067.98587786532
 30
0.0
 11
45572.17760219288
 21
-13067.98587786532
 31
0.0
  0
LINE
  5
4A
330
2
100
AcDbEntity
  8
0Wymiary-PL
 48
4.0
100
AcDbLine
 10
45572.17760219288
 20
-13717.98587786532
 30
0.0
 11
45709.58468314476
 21
-13717.98587786532
 31
0.0
  0
ARC
  5
4B
330
2
100
AcDbEntity
  8
0Wymiary-PL
 48
4.0
100
AcDbCircle
 10
45169.11214172088
 20
-13407.98587786532
 30
0.0
 40
623.0654604719968
100
AcDbArc
 50
330.1626181249393
 51
29.83738187506068
  0
LINE
  5
4C
330
2
100
AcDbEntity
  8
0Wymiary-PL
 48
4.0
100
AcDbLine
 10
45709.58468314476
 20
-13097.98587786532
 30
0.0
 11
45572.17760219288
 21
-13097.98587786532
 31
0.0
  0
ARC
  5
4D
330
2
100
AcDbEntity
  8
0Wymiary-PL
 48
4.0
100
AcDbCircle
 10
-45017.17760973675
 20
-13277.98580623867
 30
0.0
 40
479.9999283733558
210
0.0
220
0.0
230
-1.0
100
AcDbArc
 50
77.97528587317834
 51
102.0247000811274
  0
LINE
  5
4E
330
2
100
AcDbEntity
  8
0Wymiary-PL
 48
4.0
100
AcDbLine
 10
45117.17760219289
 20
-12808.5180940931
 30
0.0
 11
45117.17760219289
 21
-12808.51487683526
 31
0.0
  0
ARC
  5
4F
330
2
100
AcDbEntity
  8
0Wymiary-PL
 48
4.0
100
AcDbCircle
 10
45017.14255795063
 20
-13278.3594928764
 30
0.0
 40
480.3758666912819
100
AcDbArc
 50
77.98057642588793
 51
102.0108888775513
  0
LINE
  5
50
330
2
100
AcDbEntity
  8
0Wymiary-PL
 48
4.0
100
AcDbLine
 10
44917.17750219289
 20
-12808.49998097231
 30
0.0
 11
44917.17750219289
 21
-12808.51811860763
 31
0.0
  0
ARC
  5
51
330
2
100
AcDbEntity
  8
0Wymiary-PL
 48
4.0
100
AcDbCircle
 10
-45017.1776022188
 20
-13278.21054612818
 30
0.0
 40
445.2189249112091
210
0.0
220
0.0
230
-1.0
100
AcDbArc
 50
77.02012320305427
 51
102.9798635835162
  0
LINE
  5
52
330
2
100
AcDbEntity
  8
0Wymiary-PL
 48
4.0
100
AcDbLine
 10
45117.17760219289
 20
-12844.36738194984
 30
0.0
 11
45117.1537182101
 21
-12808.51247165865
 31
0.0
  0
ARC
  5
53
330
2
100
AcDbEntity
  8
0Wymiary-PL
 48
4.0
100
AcDbCircle
 10
45017.17885995235
 20
-13277.99781840635
 30
0.0
 40
480.0119405748896
100
AcDbArc
 50
77.97867271536404
 51
102.0245612912275
  0
LINE
  5
54
330
2
100
AcDbEntity
  8
0Wymiary-PL
 48
4.0
100
AcDbLine
 10
44917.17750219289
 20
-12808.51811539382
 30
0.0
 11
44917.17750219289
 21
-12844.3674050116
 31
0.0
  0
ARC
  5
55
330
2
100
AcDbEntity
  8
0Wymiary-PL
 48
4.0
100
AcDbCircle
 10
-45017.17760227159
 20
-13278.61172101511
 30
0.0
 40
410.6069708987217
210
0.0
220
0.0
230
-1.0
100
AcDbArc
 50
75.90430494958873
 51
104.0956806407868
  0
LINE
  5
56
330
2
100
AcDbEntity
  8
0Wymiary-PL
 48
4.0
100
AcDbLine
 10
45117.17760219289
 20
-12880.3679708239
 30
0.0
 11
45117.17760219289
 21
-12844.36738194984
 31
0.0
  0
ARC
  5
57
330
2
100
AcDbEntity
  8
0Wymiary-PL
 48
4.0
100
AcDbCircle
 10
45017.17760219289
 20
-13277.98587786533
 30
0.0
 40
445.0000000000084
100
AcDbArc
 50
77.01363914597679
 51
102.9863740675775
  0
LINE
  5
58
330
2
100
AcDbEntity
  8
0Wymiary-PL
 48
4.0
100
AcDbLine
 10
44917.17750219289
 20
-12844.3674050116
 30
0.0
 11
44917.17750219289
 21
-12880.36799597368
 31
0.0
  0
LINE
  5
59
330
2
100
AcDbEntity
  8
0Wymiary-PL
 48
4.0
100
AcDbLine
 10
44917.17750219289
 20
-12954.98587786532
 30
0.0
 11
44917.17750219289
 21
-12808.51811539382
 31
0.0
  0
LINE
  5
5A
330
2
100
AcDbEntity
  8
0Wymiary-PL
 48
4.0
100
AcDbLine
 10
44917.17750219289
 20
-12808.51811539382
 30
0.0
 11
44892.17750219289
 21
-12814.54766731294
 31
0.0
  0
LINE
  5
5B
330
2
100
AcDbEntity
  8
0Wymiary-PL
 48
4.0
100
AcDbLine
 10
44892.17750219289
 20
-12814.54766731294
 30
0.0
 11
44892.17750219289
 21
-12954.98587786532
 31
0.0
  0
LINE
  5
5C
330
2
100
AcDbEntity
  8
0Wymiary-PL
 48
4.0
100
AcDbLine
 10
45142.17760219288
 20
-12954.98587786532
 30
0.0
 11
45142.17760219288
 21
-12814.54764034062
 31
0.0
  0
LINE
  5
5D
330
2
100
AcDbEntity
  8
0Wymiary-PL
 48
4.0
100
AcDbLine
 10
45142.17760219288
 20
-12814.54764034062
 30
0.0
 11
45117.17760219289
 21
-12808.5180940931
 31
0.0
  0
LINE
  5
5E
330
2
100
AcDbEntity
  8
0Wymiary-PL
 48
4.0
100
AcDbLine
 10
45117.17760219289
 20
-12808.5180940931
 30
0.0
 11
45117.17760219289
 21
-12954.98587786532
 31
0.0
  0
LINE
  5
5F
330
2
100
AcDbEntity
  8
0Wymiary-PL
 48
4.0
100
AcDbLine
 10
45117.17765219288
 20
-12954.98587786532
 30
0.0
 11
45117.17760219288
 21
-12880.36797082389
 31
0.0
  0
ARC
  5
60
330
2
100
AcDbEntity
  8
0Wymiary-PL
 48
4.0
100
AcDbCircle
 10
45017.17760219289
 20
-13277.98587786532
 30
0.0
 40
410.0000000000068
100
AcDbArc
 50
75.883019428596
 51
104.1169949810654
  0
LINE
  5
61
330
2
100
AcDbEntity
  8
0Wymiary-PL
 48
4.0
100
AcDbLine
 10
44917.17750219289
 20
-12880.36799597368
 30
0.0
 11
44917.17755219289
 21
-12954.98587786532
 31
0.0
  0
DIMENSION
  5
62
330
2
100
AcDbEntity
  8
0Wymiary-PL
100
AcDbDimension
  2
*D3
 10
46095.58328274051
 20
-13007.98587786532
 30
0.0
 11
46015.58328274051
 21
-13407.98587786531
 31
0.0
 71
     5
 42
800.0000000000017
  3
500
100
AcDbAlignedDimension
 13
45572.17760219288
 23
-13807.98587786532
 33
0.0
 14
45572.17760219288
 24
-13007.98587786532
 34
0.0
 50
90.0
100
AcDbRotatedDimension
  0
DIMENSION
  5
78
330
2
100
AcDbEntity
  8
0Wymiary-PL
100
AcDbDimension
  2
*D4
 10
46095.58328274051
 20
-12957.98587786532
 30
0.0
 11
46015.58328274051
 21
-12982.98587786531
 31
0.0
 71
     5
 42
50.0
  3
500
100
AcDbAlignedDimension
 13
45159.17770219289
 23
-13007.98587786532
 33
0.0
 14
45159.17770219289
 24
-12957.98587786532
 34
0.0
 50
90.0
100
AcDbRotatedDimension
  0
DIMENSION
  5
85
330
2
100
AcDbEntity
  8
0Wymiary-PL
100
AcDbDimension
  2
*D14
 10
46268.96762239153
 20
-12957.98587786532
 30
0.0
 11
46188.96762239153
 21
-13407.98587786531
 31
0.0
 71
     5
 42
900.0
  3
500
100
AcDbAlignedDimension
 13
45212.17760219289
 23
-13857.98587786532
 33
0.0
 14
45159.17770219289
 24
-12957.98587786532
 34
0.0
 50
90.0
100
AcDbRotatedDimension
  0
DIMENSION
  5
90
330
2
100
AcDbEntity
  8
0Wymiary-PL
100
AcDbDimension
  2
*D5
 10
45572.17760219288
 20
-14190.89431108626
 30
0.0
 11
45039.67760219288
 21
-14110.89431108626
 31
0.0
 71
     5
 42
1065.0
  3
500
100
AcDbAlignedDimension
 13
44507.17760219289
 23
-13807.98587786532
 33
0.0
 14
45572.17760219288
 24
-13807.98587786532
 34
0.0
100
AcDbRotatedDimension
  0
DIMENSION
  5
9B
330
2
100
AcDbEntity
  8
0Wymiary-PL
100
AcDbDimension
  2
*D6
 10
44507.17760219289
 20
-14190.89431108626
 30
0.0
 11
44467.17760219287
 21
-14110.89431108626
 31
0.0
 71
     5
 42
80.0
  3
500
100
AcDbAlignedDimension
 13
44427.17760219289
 23
-13490.14020679787
 33
0.0
 14
44507.17760219289
 24
-13570.14020679787
 34
0.0
100
AcDbRotatedDimension
  0
DIMENSION
  5
A8
330
2
100
AcDbEntity
  8
0Wymiary-PL
100
AcDbDimension
  2
*D7
 10
45572.17760219288
 20
-14358.99588474083
 30
0.0
 11
44999.67760219289
 21
-14278.99588474083
 31
0.0
 71
     5
 42
1145.0
  3
500
100
AcDbAlignedDimension
 13
44427.17760219289
 23
-13490.14020679787
 33
0.0
 14
45572.17760219288
 24
-13490.14020679787
 34
0.0
100
AcDbRotatedDimension
  0
HATCH
  5
B3
330
2
100
AcDbEntity
  8
0Hatch
 48
4.0
100
AcDbHatch
 10
0.0
 20
0.0
 30
0.0
210
0.0
220
0.0
230
1.0
  2
SOLID
 70
     1
 71
     1
 91
        1
 92
        7
 72
     0
 73
     1
 93
       32
 10
49104.3750953761
 20
-13270.68436267515
 10
49184.3750953761
 20
-13350.68436267515
 10
49184.3750953761
 20
-13465.28739305546
 10
49104.3750953761
 20
-13545.28739305548
 10
49104.37509537611
 20
-13747.98587786532
 10
48745.37509537608
 20
-13747.98587786532
 10
48682.37509537611
 20
-13747.98587786532
 10
48682.3750953761
 20
-13807.98587786532
 10
48805.37509537608
 20
-13807.98587786532
 10
49164.37509537609
 20
-13807.98587786532
 10
49164.37509537608
 20
-13570.14020679787
 10
49244.37509537608
 20
-13490.14020679787
 10
49244.37509537608
 20
-13325.83154893277
 10
49164.37509537608
 20
-13245.83154893276
 10
49164.37509537608
 20
-13007.98587786532
 10
48796.3751953761
 20
-13007.98587786532
 10
48796.3751953761
 20
-12954.98587786532
 10
48512.3749953761
 20
-12954.98587786532
 10
48512.3749953761
 20
-13007.98587786532
 10
48099.3750953761
 20
-13007.98587786532
 10
48099.3750953761
 20
-13807.98587786532
 10
48459.37509537608
 20
-13807.98587786532
 10
48582.37509537611
 20
-13807.98587786532
 10
48582.37509537611
 20
-13747.98587786532
 10
48519.37509537608
 20
-13747.98587786532
 10
48159.37509537611
 20
-13747.98587786532
 10
48159.37509537611
 20
-13067.98587786532
 10
48572.37499537609
 20
-13067.98587786532
 10
48572.37499537609
 20
-13014.98587786532
 10
48736.37519537608
 20
-13014.98587786532
 10
48736.37519537609
 20
-13067.98587786532
 10
49104.37509537611
 20
-13067.98587786532
 97
        4
330
B4
330
B7
330
B5
330
B6
 75
     0
 76
     1
 47
2.131430617549594
 98
        1
 10
49130.41239253839
 20
-13215.22426460447
1001
ACAD
1010
0.0
1020
0.0
1030
0.0
  0
LWPOLYLINE
  5
B4
102
{ACAD_REACTORS
330
B3
102
}
330
2
100
AcDbEntity
  8
0Wymiary-PL
 48
4.0
100
AcDbPolyline
 90
       16
 70
     1
 43
0.0
 10
49104.3750953761
 20
-13747.98587786532
 10
49104.3750953761
 20
-13545.28739305548
 10
49184.3750953761
 20
-13465.28739305548
 10
49184.3750953761
 20
-13350.68436267516
 10
49104.3750953761
 20
-13270.68436267516
 10
49104.3750953761
 20
-13067.98587786532
 10
48736.37519537608
 20
-13067.98587786532
 10
48736.37519537608
 20
-13014.98587786532
 10
48572.37499537609
 20
-13014.98587786532
 10
48572.37499537609
 20
-13067.98587786532
 10
48159.37509537611
 20
-13067.98587786532
 10
48159.37509537611
 20
-13747.98587786532
 10
48519.37509537608
 20
-13747.98587786532
 10
48519.37509537608
 20
-13747.98587786532
 10
48745.37509537608
 20
-13747.98587786532
 10
48745.37509537608
 20
-13747.98587786532
  0
LWPOLYLINE
  5
B5
102
{ACAD_REACTORS
330
B3
102
}
330
2
100
AcDbEntity
  8
0Wymiary-PL
 48
4.0
100
AcDbPolyline
 90
       16
 70
     1
 43
0.0
 10
49164.37509537608
 20
-13807.98587786532
 10
49164.37509537608
 20
-13570.14020679787
 10
49244.37509537608
 20
-13490.14020679787
 10
49244.37509537608
 20
-13325.83154893277
 10
49164.37509537608
 20
-13245.83154893277
 10
49164.37509537608
 20
-13007.98587786532
 10
48796.3751953761
 20
-13007.98587786532
 10
48796.3751953761
 20
-12954.98587786532
 10
48512.3749953761
 20
-12954.98587786532
 10
48512.3749953761
 20
-13007.98587786532
 10
48099.3750953761
 20
-13007.98587786532
 10
48099.3750953761
 20
-13807.98587786532
 10
48459.37509537608
 20
-13807.98587786532
 10
48459.37509537608
 20
-13807.98587786532
 10
48805.37509537608
 20
-13807.98587786532
 10
48805.37509537608
 20
-13807.98587786532
  0
LINE
  5
B6
102
{ACAD_REACTORS
330
B3
102
}
330
2
100
AcDbEntity
  8
0Wymiary-PL
 48
4.0
100
AcDbLine
 10
48682.3750953761
 20
-13807.98587786532
 30
0.0
 11
48682.3750953761
 21
-13747.98587786532
 31
0.0
  0
LINE
  5
B7
102
{ACAD_REACTORS
330
B3
102
}
330
2
100
AcDbEntity
  8
0Wymiary-PL
 48
4.0
100
AcDbLine
 10
48582.37509537611
 20
-13807.98587786532
 30
0.0
 11
48582.37509537611
 21
-13747.98587786532
 31
0.0
  0
LWPOLYLINE
  5
B8
330
2
100
AcDbEntity
  8
0Wymiary-PL
 48
4.0
100
AcDbPolyline
 90
        4
 70
     0
 43
0.0
 10
49077.37612985886
 20
-13807.98587786532
 10
49077.37612985886
 20
-13902.98587786532
 10
48882.37509537608
 20
-13902.98587786532
 10
48882.37509537608
 20
-13807.98587786532
  0
LWPOLYLINE
  5
B9
330
2
100
AcDbEntity
  8
0Wymiary-PL
 48
4.0
100
AcDbPolyline
 90
        4
 70
     0
 43
0.0
 10
49062.37612985886
 20
-13807.98587786532
 10
49062.37612985886
 20
-13887.98587786532
 10
48882.37612985885
 20
-13887.98587786532
 10
48882.37612985885
 20
-13807.98587786532
  0
LWPOLYLINE
  5
BA
330
2
100
AcDbEntity
  8
0Wymiary-PL
 48
4.0
100
AcDbPolyline
 90
        4
 70
     0
 43
0.0
 10
48382.37509537608
 20
-13807.98587786532
 10
48382.37509537608
 20
-13902.98587786532
 10
48187.37406089334
 20
-13902.98587786532
 10
48187.37406089334
 20
-13807.98587786532
  0
LWPOLYLINE
  5
BB
330
2
100
AcDbEntity
  8
0Wymiary-PL
 48
4.0
100
AcDbPolyline
 90
        4
 70
     0
 43
0.0
 10
48382.37406089334
 20
-13807.98587786532
 10
48382.37406089334
 20
-13887.98587786532
 10
48202.37406089334
 20
-13887.98587786532
 10
48202.37406089334
 20
-13807.98587786532
  0
LWPOLYLINE
  5
BC
330
2
100
AcDbEntity
  8
0Wymiary-PL
 48
4.0
100
AcDbPolyline
 90
        4
 70
     0
 43
0.0
 10
48459.37406089333
 20
-13007.98587786532
 10
48459.37406089333
 20
-12912.98587786532
 10
48249.37406089333
 20
-12912.98587786532
 10
48249.37406089333
 20
-13007.98587786532
  0
LWPOLYLINE
  5
BD
330
2
100
AcDbEntity
  8
0Wymiary-PL
 48
4.0
100
AcDbPolyline
 90
        4
 70
     0
 43
0.0
 10
48444.37406089333
 20
-13007.98587786532
 10
48444.37406089333
 20
-12927.98587786532
 10
48264.37406089334
 20
-12927.98587786532
 10
48264.37406089334
 20
-13007.98587786532
  0
LINE
  5
BE
330
2
100
AcDbEntity
  8
0Wymiary-PL
 48
4.0
100
AcDbLine
 10
48857.3750953761
 20
-13807.98587786532
 30
0.0
 11
48857.3750953761
 21
-13969.1399352516
 31
0.0
  0
LINE
  5
BF
330
2
100
AcDbEntity
  8
0Wymiary-PL
 48
4.0
100
AcDbLine
 10
48857.3750953761
 20
-13969.1399352516
 30
0.0
 11
48882.37509537608
 21
-13959.75185962451
 31
0.0
  0
LINE
  5
C0
330
2
100
AcDbEntity
  8
0Wymiary-PL
 48
4.0
100
AcDbLine
 10
48882.37509537608
 20
-13959.75185962451
 30
0.0
 11
48882.37509537608
 21
-13807.98587786532
 31
0.0
  0
LINE
  5
C1
330
2
100
AcDbEntity
  8
0Wymiary-PL
 48
4.0
100
AcDbLine
 10
48407.37509537611
 20
-13807.98587786532
 30
0.0
 11
48407.37509537611
 21
-13969.1399352516
 31
0.0
  0
LINE
  5
C2
330
2
100
AcDbEntity
  8
0Wymiary-PL
 48
4.0
100
AcDbLine
 10
48407.37509537611
 20
-13969.1399352516
 30
0.0
 11
48382.37509537608
 21
-13959.75185962451
 31
0.0
  0
LINE
  5
C3
330
2
100
AcDbEntity
  8
0Wymiary-PL
 48
4.0
100
AcDbLine
 10
48382.37509537608
 20
-13959.75185962451
 30
0.0
 11
48382.37509537608
 21
-13807.98587786532
 31
0.0
  0
LINE
  5
C4
330
2
100
AcDbEntity
  8
0Wymiary-PL
 48
4.0
100
AcDbLine
 10
48857.3750953761
 20
-13807.98587786532
 30
0.0
 11
48857.3750953761
 21
-13905.12470100077
 31
0.0
  0
ARC
  5
C5
330
2
100
AcDbEntity
  8
0Wymiary-PL
 48
4.0
100
AcDbCircle
 10
48632.37509537611
 20
-13335.98587786533
 30
0.0
 40
611.9999999999937
100
AcDbArc
 50
248.4294216982857
 51
291.5705783017143
  0
LINE
  5
C6
330
2
100
AcDbEntity
  8
0Wymiary-PL
 48
4.0
100
AcDbLine
 10
48407.37509537611
 20
-13905.12470100077
 30
0.0
 11
48407.37509537611
 21
-13807.98587786532
 31
0.0
  0
LINE
  5
C7
330
2
100
AcDbEntity
  8
0Wymiary-PL
 48
4.0
100
AcDbLine
 10
48857.3750953761
 20
-13807.98587786532
 30
0.0
 11
48857.3750953761
 21
-13937.26701011545
 31
0.0
  0
ARC
  5
C8
330
2
100
AcDbEntity
  8
0Wymiary-PL
 48
4.0
100
AcDbCircle
 10
48632.37509537611
 20
-13335.98587786533
 30
0.0
 40
641.9999999999973
100
AcDbArc
 50
249.4841007021674
 51
290.5158992978325
  0
LINE
  5
C9
330
2
100
AcDbEntity
  8
0Wymiary-PL
 48
4.0
100
AcDbLine
 10
48407.37509537611
 20
-13937.26701011545
 30
0.0
 11
48407.37509537611
 21
-13807.98587786532
 31
0.0
  0
LINE
  5
CA
330
2
100
AcDbEntity
  8
0Wymiary-PL
 48
4.0
100
AcDbLine
 10
48882.37509537608
 20
-13807.98587786532
 30
0.0
 11
48882.37509537608
 21
-13959.75185962451
 31
0.0
  0
ARC
  5
CB
330
2
100
AcDbEntity
  8
0Wymiary-PL
 48
4.0
100
AcDbCircle
 10
48632.37509537611
 20
-13335.98587786532
 30
0.0
 40
671.9999999999981
100
AcDbArc
 50
248.1595148852744
 51
291.8404851147256
  0
LINE
  5
CC
330
2
100
AcDbEntity
  8
0Wymiary-PL
 48
4.0
100
AcDbLine
 10
48382.37509537608
 20
-13959.75185962451
 30
0.0
 11
48382.37509537608
 21
-13807.98587786532
 31
0.0
  0
LINE
  5
CD
330
2
100
AcDbEntity
  8
0Wymiary-PL
 48
4.0
100
AcDbLine
 10
48099.3750953761
 20
-13777.98587786532
 30
0.0
 11
47928.26425601516
 21
-13777.98587786532
 31
0.0
  0
ARC
  5
CE
330
2
100
AcDbEntity
  8
0Wymiary-PL
 48
4.0
100
AcDbCircle
 10
48502.44055584808
 20
-13407.98587786532
 30
0.0
 40
683.0654604719954
100
AcDbArc
 50
147.2022121329152
 51
212.7977878670847
  0
LINE
  5
CF
330
2
100
AcDbEntity
  8
0Wymiary-PL
 48
4.0
100
AcDbLine
 10
47928.26425601516
 20
-13037.98587786532
 30
0.0
 11
48099.3750953761
 21
-13037.98587786532
 31
0.0
  0
LINE
  5
D0
330
2
100
AcDbEntity
  8
0Wymiary-PL
 48
4.0
100
AcDbLine
 10
48099.3750953761
 20
-13747.98587786532
 30
0.0
 11
47944.861417374
 21
-13747.98587786532
 31
0.0
  0
ARC
  5
D1
330
2
100
AcDbEntity
  8
0Wymiary-PL
 48
4.0
100
AcDbCircle
 10
48502.44055584808
 20
-13407.98587786532
 30
0.0
 40
653.0654604719967
100
AcDbArc
 50
148.6260420148365
 51
211.3739579851635
  0
LINE
  5
D2
330
2
100
AcDbEntity
  8
0Wymiary-PL
 48
4.0
100
AcDbLine
 10
47944.861417374
 20
-13067.98587786532
 30
0.0
 11
48099.3750953761
 21
-13067.98587786532
 31
0.0
  0
LINE
  5
D3
330
2
100
AcDbEntity
  8
0Wymiary-PL
 48
4.0
100
AcDbLine
 10
48099.3750953761
 20
-13717.98587786532
 30
0.0
 11
47961.9680144242
 21
-13717.98587786532
 31
0.0
  0
ARC
  5
D4
330
2
100
AcDbEntity
  8
0Wymiary-PL
 48
4.0
100
AcDbCircle
 10
48502.44055584808
 20
-13407.98587786532
 30
0.0
 40
623.0654604719968
100
AcDbArc
 50
150.1626181250454
 51
209.8373818749545
  0
LINE
  5
D5
330
2
100
AcDbEntity
  8
0Wymiary-PL
 48
4.0
100
AcDbLine
 10
47961.9680144242
 20
-13097.98587786532
 30
0.0
 11
48099.3750953761
 21
-13097.98587786532
 31
0.0
  0
ARC
  5
D6
330
2
100
AcDbEntity
  8
0Wymiary-PL
 48
4.0
100
AcDbCircle
 10
-48654.37508783221
 20
-13277.98580623867
 30
0.0
 40
479.9999283733558
210
0.0
220
0.0
230
-1.0
100
AcDbArc
 50
77.97529991866861
 51
102.0247141266177
  0
LINE
  5
D7
330
2
100
AcDbEntity
  8
0Wymiary-PL
 48
4.0
100
AcDbLine
 10
48554.37509537608
 20
-12808.5180940931
 30
0.0
 11
48554.37509537608
 21
-12808.51487683526
 31
0.0
  0
ARC
  5
D8
330
2
100
AcDbEntity
  8
0Wymiary-PL
 48
4.0
100
AcDbCircle
 10
48654.41013961834
 20
-13278.3594928764
 30
0.0
 40
480.3758666912819
100
AcDbArc
 50
77.98911112244238
 51
102.0194235743096
  0
LINE
  5
D9
330
2
100
AcDbEntity
  8
0Wymiary-PL
 48
4.0
100
AcDbLine
 10
48754.3751953761
 20
-12808.49998097231
 30
0.0
 11
48754.3751953761
 21
-12808.51811860763
 31
0.0
  0
ARC
  5
DA
330
2
100
AcDbEntity
  8
0Wymiary-PL
 48
4.0
100
AcDbCircle
 10
-48654.37509535018
 20
-13278.21054612818
 30
0.0
 40
445.2189249112091
210
0.0
220
0.0
230
-1.0
100
AcDbArc
 50
77.02013641668674
 51
102.9798767967363
  0
LINE
  5
DB
330
2
100
AcDbEntity
  8
0Wymiary-PL
 48
4.0
100
AcDbLine
 10
48554.37509537608
 20
-12844.36738194984
 30
0.0
 11
48554.39897935888
 21
-12808.51247165865
 31
0.0
  0
ARC
  5
DC
330
2
100
AcDbEntity
  8
0Wymiary-PL
 48
4.0
100
AcDbCircle
 10
48654.37383761663
 20
-13277.99781840635
 30
0.0
 40
480.0119405748896
100
AcDbArc
 50
77.97543870897631
 51
102.0213272844322
  0
LINE
  5
DD
330
2
100
AcDbEntity
  8
0Wymiary-PL
 48
4.0
100
AcDbLine
 10
48754.3751953761
 20
-12808.51811539382
 30
0.0
 11
48754.3751953761
 21
-12844.3674050116
 31
0.0
  0
ARC
  5
DE
330
2
100
AcDbEntity
  8
0Wymiary-PL
 48
4.0
100
AcDbCircle
 10
-48654.37509529738
 20
-13278.61172101511
 30
0.0
 40
410.6069708987217
210
0.0
220
0.0
230
-1.0
100
AcDbArc
 50
75.9043193594092
 51
104.0956950508156
  0
LINE
  5
DF
330
2
100
AcDbEntity
  8
0Wymiary-PL
 48
4.0
100
AcDbLine
 10
48554.37509537608
 20
-12880.3679708239
 30
0.0
 11
48554.37509537608
 21
-12844.36738194984
 31
0.0
  0
ARC
  5
E0
330
2
100
AcDbEntity
  8
0Wymiary-PL
 48
4.0
100
AcDbCircle
 10
48654.3750953761
 20
-13277.98587786533
 30
0.0
 40
445.0000000000084
100
AcDbArc
 50
77.01362593282863
 51
102.9863608542264
  0
LINE
  5
E1
330
2
100
AcDbEntity
  8
0Wymiary-PL
 48
4.0
100
AcDbLine
 10
48754.3751953761
 20
-12844.3674050116
 30
0.0
 11
48754.3751953761
 21
-12880.36799597368
 31
0.0
  0
LINE
  5
E2
330
2
100
AcDbEntity
  8
0Wymiary-PL
 48
4.0
100
AcDbLine
 10
48754.3751953761
 20
-12954.98587786532
 30
0.0
 11
48754.3751953761
 21
-12808.51811539382
 31
0.0
  0
LINE
  5
E3
330
2
100
AcDbEntity
  8
0Wymiary-PL
 48
4.0
100
AcDbLine
 10
48754.3751953761
 20
-12808.51811539382
 30
0.0
 11
48779.37519537608
 21
-12814.54766731294
 31
0.0
  0
LINE
  5
E4
330
2
100
AcDbEntity
  8
0Wymiary-PL
 48
4.0
100
AcDbLine
 10
48779.37519537608
 20
-12814.54766731294
 30
0.0
 11
48779.37519537608
 21
-12954.98587786532
 31
0.0
  0
LINE
  5
E5
330
2
100
AcDbEntity
  8
0Wymiary-PL
 48
4.0
100
AcDbLine
 10
48529.37509537611
 20
-12954.98587786532
 30
0.0
 11
48529.37509537611
 21
-12814.54764034062
 31
0.0
  0
LINE
  5
E6
330
2
100
AcDbEntity
  8
0Wymiary-PL
 48
4.0
100
AcDbLine
 10
48529.37509537611
 20
-12814.54764034062
 30
0.0
 11
48554.37509537608
 21
-12808.5180940931
 31
0.0
  0
LINE
  5
E7
330
2
100
AcDbEntity
  8
0Wymiary-PL
 48
4.0
100
AcDbLine
 10
48554.37509537608
 20
-12808.5180940931
 30
0.0
 11
48554.37509537608
 21
-12954.98587786532
 31
0.0
  0
LINE
  5
E8
330
2
100
AcDbEntity
  8
0Wymiary-PL
 48
4.0
100
AcDbLine
 10
48554.3750453761
 20
-12954.98587786532
 30
0.0
 11
48554.3750953761
 21
-12880.36797082389
 31
0.0
  0
ARC
  5
E9
330
2
100
AcDbEntity
  8
0Wymiary-PL
 48
4.0
100
AcDbCircle
 10
48654.3750953761
 20
-13277.98587786532
 30
0.0
 40
410.0000000000068
100
AcDbArc
 50
75.88300501913059
 51
104.116980571802
  0
LINE
  5
EA
330
2
100
AcDbEntity
  8
0Wymiary-PL
 48
4.0
100
AcDbLine
 10
48754.3751953761
 20
-12880.36799597368
 30
0.0
 11
48754.37514537608
 21
-12954.98587786532
 31
0.0
  0
DIMENSION
  5
EB
330
2
100
AcDbEntity
  8
0Wymiary-PL
100
AcDbDimension
  2
*D8
 10
47575.96941482846
 20
-13007.98587786532
 30
0.0
 11
47495.96941482846
 21
-13407.98587786531
 31
0.0
 71
     5
 42
800.0000000000017
  3
500
100
AcDbAlignedDimension
 13
48099.3750953761
 23
-13807.98587786532
 33
0.0
 14
48099.3750953761
 24
-13007.98587786532
 34
0.0
 50
90.0
100
AcDbRotatedDimension
  0
DIMENSION
  5
F6
330
2
100
AcDbEntity
  8
0Wymiary-PL
100
AcDbDimension
  2
*D9
 10
47575.96941482846
 20
-12957.98587786532
 30
0.0
 11
47495.96941482846
 21
-12982.98587786531
 31
0.0
 71
     5
 42
50.0
  3
500
100
AcDbAlignedDimension
 13
48512.3749953761
 23
-13007.98587786532
 33
0.0
 14
48512.3749953761
 24
-12957.98587786532
 34
0.0
 50
90.0
100
AcDbRotatedDimension
  0
DIMENSION
  5
103
330
2
100
AcDbEntity
  8
0Wymiary-PL
100
AcDbDimension
  2
*D16
 10
47402.58507517744
 20
-12957.98587786532
 30
0.0
 11
47322.58507517744
 21
-13407.98587786531
 31
0.0
 71
     5
 42
900.0
  3
500
100
AcDbAlignedDimension
 13
48525.3750953761
 23
-13857.98587786532
 33
0.0
 14
48512.3749953761
 24
-12957.98587786532
 34
0.0
 50
90.0
100
AcDbRotatedDimension
  0
DIMENSION
  5
10E
330
2
100
AcDbEntity
  8
0Wymiary-PL
100
AcDbDimension
  2
*D10
 10
48099.3750953761
 20
-14190.89431108626
 30
0.0
 11
48631.8750953761
 21
-14110.89431108626
 31
0.0
 71
     5
 42
1065.0
  3
500
100
AcDbAlignedDimension
 13
49164.37509537608
 23
-13807.98587786532
 33
0.0
 14
48099.3750953761
 24
-13807.98587786532
 34
0.0
 50
180.0
100
AcDbRotatedDimension
  0
DIMENSION
  5
119
330
2
100
AcDbEntity
  8
0Wymiary-PL
100
AcDbDimension
  2
*D11
 10
49164.37509537608
 20
-14190.89431108626
 30
0.0
 11
49204.3750953761
 21
-14110.89431108626
 31
0.0
 71
     5
 42
80.0
  3
500
100
AcDbAlignedDimension
 13
49244.37509537608
 23
-13490.14020679787
 33
0.0
 14
49164.37509537608
 24
-13570.14020679787
 34
0.0
 50
180.0
100
AcDbRotatedDimension
  0
DIMENSION
  5
126
330
2
100
AcDbEntity
  8
0Wymiary-PL
100
AcDbDimension
  2
*D12
 10
48099.3750953761
 20
-14358.99588474083
 30
0.0
 11
48671.87509537608
 21
-14278.99588474083
 31
0.0
 71
     5
 42
1145.0
  3
500
100
AcDbAlignedDimension
 13
49244.37509537608
 23
-13490.14020679787
 33
0.0
 14
48099.3750953761
 24
-13490.14020679787
 34
0.0
 50
180.0
100
AcDbRotatedDimension
  0
LWPOLYLINE
  5
131
330
2
100
AcDbEntity
  8
0Wymiary-PL
 48
4.0
100
AcDbPolyline
 90
        4
 70
     1
 43
0.0
 10
44866.17760219289
 20
-13857.98587786532
 10
44932.17760219288
 20
-13857.98587786532
 10
44932.17760219288
 20
-13807.98587786532
 10
44866.17760219289
 20
-13807.98587786532
  0
LWPOLYLINE
  5
132
330
2
100
AcDbEntity
  8
0Wymiary-PL
 48
4.0
100
AcDbPolyline
 90
        4
 70
     1
 43
0.0
 10
45212.17760219289
 20
-13857.98587786532
 10
45146.17760219288
 20
-13857.98587786532
 10
45146.17760219288
 20
-13807.98587786532
 10
45212.17760219289
 20
-13807.98587786532
  0
HATCH
  5
133
330
2
100
AcDbEntity
  8
0Hatch
 48
4.0
100
AcDbHatch
 10
0.0
 20
0.0
 30
0.0
210
0.0
220
0.0
230
1.0
  2
ANSI31
 70
     0
 71
     0
 91
        2
 92
        7
 72
     0
 73
     1
 93
        4
 10
44932.17760219288
 20
-13807.98587786532
 10
44866.17760219289
 20
-13807.98587786532
 10
44866.17760219289
 20
-13857.98587786532
 10
44932.17760219288
 20
-13857.98587786532
 97
        0
 92
        7
 72
     0
 73
     1
 93
        4
 10
45212.17760219289
 20
-13807.98587786532
 10
45146.17760219288
 20
-13807.98587786532
 10
45146.17760219288
 20
-13857.98587786532
 10
45212.17760219289
 20
-13857.98587786532
 97
        0
 75
     0
 76
     1
 52
0.0
 41
1.0
 77
     0
 78
     1
 53
45.0
 43
0.0
 44
0.0
 45
-0.0883883476483184
 46
0.0883883476483185
 79
     0
 47
1.03214363933034
 98
        2
 10
44922.52809049126
 20
-13834.00778673476
 10
45190.03155404045
 20
-13838.13635499879
1001
ACAD
1010
0.0
1020
0.0
1030
0.0
  0
DIMENSION
  5
134
330
2
100
AcDbEntity
  8
0Wymiary-PL
100
AcDbDimension
  2
*D13
 10
46095.58328274051
 20
-13857.98587786532
 30
0.0
 11
46015.58328274051
 21
-13832.98587786531
 31
0.0
 71
     5
 42
50.0
  3
500
100
AcDbAlignedDimension
 13
45146.17760219288
 23
-13807.98587786532
 33
0.0
 14
45146.17760219288
 24
-13857.98587786532
 34
0.0
 50
90.0
100
AcDbRotatedDimension
  0
LWPOLYLINE
  5
141
330
2
100
AcDbEntity
  8
0Wymiary-PL
 48
4.0
100
AcDbPolyline
 90
        4
 70
     1
 43
0.0
 10
48805.37509537609
 20
-13857.98587786532
 10
48739.3750953761
 20
-13857.98587786532
 10
48739.3750953761
 20
-13807.98587786532
 10
48805.37509537609
 20
-13807.98587786532
  0
HATCH
  5
142
330
2
100
AcDbEntity
  8
0Hatch
 48
4.0
100
AcDbHatch
 10
0.0
 20
0.0
 30
0.0
210
0.0
220
0.0
230
1.0
  2
ANSI31
 70
     0
 71
     0
 91
        2
 92
        7
 72
     0
 73
     1
 93
        4
 10
48739.3750953761
 20
-13807.98587786532
 10
48805.37509537609
 20
-13807.98587786532
 10
48805.37509537609
 20
-13857.98587786532
 10
48739.3750953761
 20
-13857.98587786532
 97
        0
 92
        7
 72
     0
 73
     1
 93
        4
 10
48459.37509537609
 20
-13807.98587786532
 10
48525.3750953761
 20
-13807.98587786532
 10
48525.3750953761
 20
-13857.98587786532
 10
48459.37509537609
 20
-13857.98587786532
 97
        0
 75
     0
 76
     1
 52
0.0
 41
1.0
 77
     0
 78
     1
 53
135.0
 43
93671.55269756899
 44
0.0
 45
0.0883883476483184
 46
0.0883883476483185
 79
     0
 47
1.03214363933034
 98
        2
 10
48749.02460707772
 20
-13834.00778673476
 10
48481.52114352853
 20
-13838.13635499879
1001
ACAD
1010
0.0
1020
0.0
1030
0.0
  0
LWPOLYLINE
  5
143
330
2
100
AcDbEntity
  8
0Wymiary-PL
 48
4.0
100
AcDbPolyline
 90
        4
 70
     1
 43
0.0
 10
48459.37509537609
 20
-13857.98587786532
 10
48525.3750953761
 20
-13857.98587786532
 10
48525.3750953761
 20
-13807.98587786532
 10
48459.37509537609
 20
-13807.98587786532
  0
DIMENSION
  5
144
330
2
100
AcDbEntity
  8
0Wymiary-PL
100
AcDbDimension
  2
*D15
 10
47575.96941482847
 20
-13857.98587786532
 30
0.0
 11
47495.96941482847
 21
-13832.98587786531
 31
0.0
 71
     5
 42
50.0
  3
500
100
AcDbAlignedDimension
 13
48525.3750953761
 23
-13807.98587786532
 33
0.0
 14
48525.3750953761
 24
-13857.98587786532
 34
0.0
 50
90.0
100
AcDbRotatedDimension
  0
ENDSEC
  0
SECTION
  2
OBJECTS
  0
DICTIONARY
  5
B
330
0
100
AcDbDictionary
281
     1
  3
ACAD_COLOR
350
183
  3
ACAD_GROUP
350
17A
  3
ACAD_LAYOUT
350
153
  3
ACAD_MATERIAL
350
D
  3
ACAD_MLINESTYLE
350
17B
  3
ACAD_PLOTSETTINGS
350
17C
  3
ACAD_PLOTSTYLENAME
350
A
  3
ACAD_SCALELIST
350
184
  3
ACAD_TABLESTYLE
350
185
  3
ACAD_VISUALSTYLE
350
169
  3
ACDB_RECOMPOSE_DATA
350
21E
  3
AcDbVariableDictionary
350
213
  3
CONLABELDictionary
350
1C1
  3
CONLDEFDictionary
350
1A2
  3
DWGPROPS
350
21F
  0
DICTIONARY
  5
15C
330
15B
100
AcDbDictionary
280
     1
281
     1
  3
ACAD_LAYERSTATES
360
15D
  0
DICTIONARY
  5
7
330
6
100
AcDbDictionary
280
     1
281
     1
  3
ADSK_XREC_LAYER_RECONCILED
360
8
  0
DICTIONARY
  5
176
330
175
100
AcDbDictionary
280
     1
281
     1
  3
ADSK_XREC_LAYER_RECONCILED
360
177
  0
DICTIONARY
  5
2A
330
29
100
AcDbDictionary
280
     1
281
     1
  3
ADSK_XREC_LAYER_RECONCILED
360
2B
  0
DICTIONARY
  5
1D
330
1C
100
AcDbDictionary
280
     1
281
     1
  0
DICTIONARY
  5
14
330
13
100
AcDbDictionary
280
     1
281
     1
  0
DICTIONARY
  5
18
330
17
100
AcDbDictionary
280
     1
281
     1
  0
DICTIONARY
  5
3
330
2
100
AcDbDictionary
280
     1
281
     1
  3
ACAD_SORTENTS
360
1A1
  0
DICTIONARY
  5
68
330
67
100
AcDbDictionary
280
     1
281
     1
  3
ACAD_SORTENTS
360
1A0
  0
DICTIONARY
  5
220
330
1E
100
AcDbDictionary
280
     1
281
     1
  3
ACAD_MTEXT_RT
360
221
  0
DICTIONARY
  5
222
330
22
100
AcDbDictionary
280
     1
281
     1
  3
ACAD_MTEXT_RT
360
223
  0
DICTIONARY
  5
183
102
{ACAD_REACTORS
330
B
102
}
330
B
100
AcDbDictionary
281
     1
  0
DICTIONARY
  5
17A
102
{ACAD_REACTORS
330
B
102
}
330
B
100
AcDbDictionary
281
     1
  0
DICTIONARY
  5
153
102
{ACAD_REACTORS
330
B
102
}
330
B
100
AcDbDictionary
281
     1
  3
Model
350
152
  3
przekroj
350
158
  0
DICTIONARY
  5
D
102
{ACAD_REACTORS
330
B
102
}
330
B
100
AcDbDictionary
281
     1
  3
ByBlock
350
180
  3
ByLayer
350
17D
  3
Global
350
C
  0
DICTIONARY
  5
17B
102
{ACAD_REACTORS
330
B
102
}
330
B
100
AcDbDictionary
281
     1
  3
STANDARD
350
186
  0
DICTIONARY
  5
17C
102
{ACAD_REACTORS
330
B
102
}
330
B
100
AcDbDictionary
281
     1
  0
ACDBDICTIONARYWDFLT
  5
A
102
{ACAD_REACTORS
330
B
102
}
330
B
100
AcDbDictionary
281
     1
  3
Normal
350
9
100
AcDbDictionaryWithDefault
340
9
  0
DICTIONARY
  5
184
102
{ACAD_REACTORS
330
B
102
}
330
B
100
AcDbDictionary
281
     1
  3
A0
350
18B
  3
A1
350
18C
  3
A2
350
18D
  3
A3
350
18E
  3
A4
350
18F
  3
A5
350
190
  3
A6
350
191
  3
A7
350
192
  3
A8
350
193
  3
A9
350
194
  3
B0
350
195
  3
B1
350
196
  3
B2
350
197
  3
B3
350
198
  3
B4
350
199
  3
B5
350
19A
  3
B6
350
19B
  3
B7
350
19C
  3
B8
350
19D
  3
B9
350
19E
  3
C0
350
19F
  0
DICTIONARY
  5
185
102
{ACAD_REACTORS
330
B
102
}
330
B
100
AcDbDictionary
281
     1
  3
Standard
350
187
  0
DICTIONARY
  5
169
102
{ACAD_REACTORS
330
B
102
}
330
B
100
AcDbDictionary
281
     1
  3
2dWireframe
350
168
  3
3dWireframe
350
18A
  3
Realistic
350
189
  0
XRECORD
  5
21E
102
{ACAD_REACTORS
330
B
102
}
330
B
100
AcDbXrecord
280
     1
 90
        1
330
187
  0
DICTIONARY
  5
213
102
{ACAD_REACTORS
330
B
102
}
330
B
100
AcDbDictionary
281
     1
  3
CANNOSCALE
350
216
  3
CMLEADERSTYLE
350
215
  3
CTABLESTYLE
350
214
  3
DIMASSOC
350
21A
  3
HIDETEXT
350
219
  3
INDEXCTL
350
218
  3
SORTENTS
350
217
  0
DICTIONARY
  5
1C1
102
{ACAD_REACTORS
330
B
102
}
330
B
100
AcDbDictionary
281
     1
  3
_el_wzb_Left_nazw_romans16
350
212
  3
_elementy_wiezby_SKROT_Romans16
350
211
  3
_materialy_przegrod_pl_Label1
350
210
  3
_nazwy_przegrod_romans18
350
20F
  3
_nazwy_rysunkow_Arial37
350
20E
  3
_nazwy_rysunkow_Romans18
350
20D
  3
_opisy_rozne_II_Label1
350
20C
  3
_opisy_rozne_II_Link1Label1
350
20B
  3
_posadzki_do_zestawienia_pomieszczen_Romans17
350
20A
  3
_rozne_opisy_rys_R16_right
350
209
  3
_rozne_opisy_rys_Romans12
350
208
  3
_rozne_opisy_rys_Romans16
350
207
  3
_tabelka_-_inform_i_etykiety_Romans13
350
206
  3
_tabelka_Arial15-center
350
205
  3
_tabelka_Arial151
350
204
  3
_tabelka_Romans 10
350
203
  3
_tabelka_Romans13
350
202
  3
_tabelka_Romans19
350
201
  3
_tbl_nazwy_rys_Arial35
350
200
  3
_tbl_nazwy_rys_Romans18
350
1FF
  3
ALFABET-Arial20
350
1FE
  3
ALFABET-Arial26
350
1FD
  3
ALFABET-Arial37
350
1FC
  3
Arial_27
350
1FB
  3
arkusz_nazwy_Arial35
350
1FA
  3
arkusz_nazwy_Arial_35_DwieLinie
350
1F9
  3
arkusz_nazwy_Romans18
350
1F8
  3
arkusz_nazwy_Romans_18
350
1F7
  3
jednostki-Arial18
350
1F6
  3
jednostki-Arial30
350
1F5
  3
jednostki-Romans16
350
1F4
  3
jednostki_arial6.6kursywa
350
1F3
  3
jednostki_ROMANS11
350
1F2
  3
jednostki_ROMANS15
350
1F1
  3
jednostki_Romans30
350
1F0
  3
jednostki_Romans7
350
1EF
  3
jednostkiLabel1
350
1EE
  3
jednostkiRomans22
350
1ED
  3
konstr_drew_arial6.6kursywa
350
1EC
  3
konstr_drew_romans7
350
1EB
  3
konstr_stalarial9kursywa
350
1EA
  3
konstr_stalLabel1
350
1E9
  3
konstr_stalLabel2
350
1E8
  3
miesiace-Romans17
350
1E7
  3
pomieszczenia-Arial 15
350
1E6
  3
pomieszczenia-Romans17
350
1E5
  3
romans16
350
1E4
  3
Romans_17
350
1E3
  3
schematy_arial15
350
1E2
  3
schematy_arial20
350
1E1
  3
schematy_arial37
350
1E0
  3
schematy_romans15
350
1DF
  3
schematy_romans15Right
350
1DE
  3
stolarka-Arial14
350
1DD
  3
stolarka-Romans1607
350
1DC
  3
stolarka-Romans1608
350
1DB
  3
stolarkaLabel1
350
1DA
  3
szczegoly_arial12kursywa
350
1D9
  3
szczegoly_arial6.6kursRight
350
1D8
  3
szczegoly_arial6.6kursywa
350
1D7
  3
szczegoly_Romans7
350
1D6
  3
szczegoly_romans7_right
350
1D5
  3
tbl_nazwy_rys_Arial37
350
1D4
  3
tbl_opisy_Romans_poch20
350
1D3
  3
tbl_opisy_RomansPoch14
350
1D2
  3
tbl_opisy_RomansPoch20_R
350
1D1
  3
tbl_PRZEGRODY
350
1D0
  3
tbl_uwagi_coRomans20Right
350
1CF
  3
uwag_og_na_ark_Arial18
350
1CE
  3
uwagi_co_Arial37
350
1CD
  3
uwagi_co_Romans20
350
1CC
  3
uwagi_na_schematachLabel1
350
1CB
  3
uwagi_na_schematachLabel2
350
1CA
  3
uwagi_na_schematachRight
350
1C9
  3
uwagi_wodkan_Romans18
350
1C8
  3
uwagi_wodkanARIAL37
350
1C7
  3
uwagi_wodkanRomans20_Right
350
1C6
  3
zbroj_plyty_arial22
350
1C5
  3
zbroj_plyty_romans12
350
1C4
  3
zbroj_plyty_romans12Right
350
1C3
  3
zbroj_plyty_romans9
350
1C2
  0
DICTIONARY
  5
1A2
102
{ACAD_REACTORS
330
B
102
}
330
B
100
AcDbDictionary
281
     1
  3
_elementy_wiezby_Link1
350
1C0
  3
_materialy_przegrod_pl_Link1
350
1BF
  3
_nazwy_przegrod_pl_Link1
350
1BE
  3
_nazwy_rysunkow_Arial37
350
1BD
  3
_opisy_rozne_II_Link1
350
1BC
  3
_opisy_rozne_II_Link2
350
1BB
  3
_posadzki_do_zestawienia_pomieszczen_Link1
350
1BA
  3
_rozne_opisy_rys_Link1
350
1B9
  3
_tabelka_-_inform_i_etykiety_Link1
350
1B8
  3
_tbl_nazwy_rys_Link1
350
1B7
  3
_uwagi_ogolne_na_arkuszu_Link1
350
1B6
  3
_~TMPCLP122371_Link1
350
1B5
  3
ALFABETLink1
350
1B4
  3
arkusz_nazwyLink1
350
1B3
  3
arkusz_nazwyLink2
350
1B2
  3
jednostkiLink1
350
1B1
  3
konstr_drewLink1
350
1B0
  3
konstr_stalLink1
350
1AF
  3
miesiaceLink1
350
1AE
  3
pomieszczeniaLink1
350
1AD
  3
schematyLink1
350
1AC
  3
stolarkaLink1
350
1AB
  3
szczegolyLink1
350
1AA
  3
tbl_jednostkiLink1
350
1A9
  3
tbl_opisyLink1
350
1A8
  3
tbl_PRZEGRODYLink1
350
1A7
  3
tbl_uwagi_coLink1
350
1A6
  3
tbl_uwagi_wodkanLink1
350
1A5
  3
uwagi_na_schematachLink1
350
1A4
  3
zbroj_plytyLink1
350
1A3
  0
XRECORD
  5
21F
102
{ACAD_REACTORS
330
B
102
}
330
B
100
AcDbXrecord
280
     1
  1
DWGPROPS COOKIE
  2

  3

  4

  6

  7

  8

  9

300
=
301
=
302
=
303
=
304
=
305
=
306
=
307
=
308
=
309
=
 40
24.04000381944444
 41
2450817.525937848
 42
2455432.422469433
  1

 90
        0
  0
DICTIONARY
  5
15D
102
{ACAD_REACTORS
330
15C
102
}
330
15C
100
AcDbDictionary
281
     1
  0
XRECORD
  5
8
102
{ACAD_REACTORS
330
7
102
}
330
7
100
AcDbXrecord
280
     1
290
     1
  0
XRECORD
  5
177
102
{ACAD_REACTORS
330
176
102
}
330
176
100
AcDbXrecord
280
     1
290
     1
  0
XRECORD
  5
2B
102
{ACAD_REACTORS
330
2A
102
}
330
2A
100
AcDbXrecord
280
     1
290
     1
  0
SORTENTSTABLE
  5
1A1
102
{ACAD_REACTORS
330
3
102
}
330
3
100
AcDbSortentsTable
330
2
331
133
  5
132
331
132
  5
133
  0
SORTENTSTABLE
  5
1A0
102
{ACAD_REACTORS
330
68
102
}
330
68
100
AcDbSortentsTable
330
67
  0
XRECORD
  5
221
102
{ACAD_REACTORS
330
220
102
}
330
220
100
AcDbXrecord
280
     1
 40
264312.0
  1
{\fArial|b0|i0|c238|p34;MOŻNA WKLEIĆ DO PROJEKTU ZAGOSPODAROWANIA TERENU}
  0
XRECORD
  5
223
102
{ACAD_REACTORS
330
222
102
}
330
222
100
AcDbXrecord
280
     1
 40
106589.0
  1
{\fArial|b0|i0|c238|p34;OŚ ODBICIA LUSTRZANEGO}
  0
LAYOUT
  5
152
102
{ACAD_XDICTIONARY
360
224
102
}
102
{ACAD_REACTORS
330
153
102
}
330
153
100
AcDbPlotSettings
  1

  2
CutePDF Writer
  4
A4
  6

 40
3.174999952316284
 41
3.174999952316284
 42
3.175003051757812
 43
3.17498779296875
 44
209.8886566162109
 45
297.0530090332031
 46
0.0
 47
5.468573210520304
 48
22461.78267953761
 49
-11434.65964005337
140
32661.78267953764
141
2585.340359946624
142
1.0
143
50.11333139422816
 70
  3764
 72
     1
 73
     0
 74
     4
  7
monochrome_140.ctb
 75
     0
147
0.0199547699619742
148
-22461.78267953761
149
11434.65964005337
100
AcDbLayout
  1
Model
 70
     1
 71
     0
 10
0.0
 20
0.0
 11
12.0
 21
9.0
 12
0.0
 22
0.0
 32
0.0
 14
0.0
 24
0.0
 34
0.0
 15
0.0
 25
0.0
 35
0.0
146
0.0
 13
0.0
 23
0.0
 33
0.0
 16
1.0
 26
0.0
 36
0.0
 17
0.0
 27
1.0
 37
0.0
 76
     0
330
2
331
167
1001
ACAD_PSEXT
1000
CutePDF Writer
1000
CutePDF Writer
1000
CPW2:
1000

1070
     0
  0
LAYOUT
  5
158
102
{ACAD_XDICTIONARY
360
159
102
}
102
{ACAD_REACTORS
330
153
102
}
330
153
100
AcDbPlotSettings
  1

  2
\\druk\HP LaserJet P2015 Series PCL 6
  4
A4
  6

 40
4.233333110809326
 41
4.275669574737547
 42
4.233322143554686
 43
4.23333740234375
 44
209.9733276367186
 45
296.9683227539062
 46
0.0
 47
0.0
 48
-1.615045594274306
 49
0.8923008293887733
140
197.7808594973519
141
286.0316480468857
142
1.0
143
0.9895250749477744
 70
   688
 72
     1
 73
     0
 74
     4
  7
monochrome_140.ctb
 75
     0
147
1.010585810625139
148
1.615045594274306
149
-0.8923008293887733
100
AcDbLayout
  1
przekroj
 70
     0
 71
     1
 10
-5.8040348580268
 20
-3.338581427005318
 11
201.9698379087309
 21
290.5190204031687
 12
5931.669543547489
 22
-50.0
 32
10705.17123084718
 14
2.706295631195644
 24
15.80375322706834
 34
0.0
 15
190.5408782549911
 25
283.4064952707452
 35
0.0
146
0.0
 13
0.0
 23
0.0
 33
0.0
 16
1.0
 26
0.0
 36
0.0
 17
0.0
 27
1.0
 37
0.0
 76
     0
330
155
1001
ACAD_PSEXT
1000
\\druk\HP LaserJet P2015 Series PCL 6
1000
HP LaserJet P2015 Series PCL 6
1000
Dział Design
1000
HP LaserJet P2015n - Dział Design
1070
     0
  0
MATERIAL
  5
180
102
{ACAD_XDICTIONARY
360
181
102
}
102
{ACAD_REACTORS
330
D
102
}
330
D
100
AcDbMaterial
  1
ByBlock
 73
     1
 78
     1
172
     1
176
     1
270
     1
274
     1
  0
MATERIAL
  5
17D
102
{ACAD_XDICTIONARY
360
17E
102
}
102
{ACAD_REACTORS
330
D
102
}
330
D
100
AcDbMaterial
  1
ByLayer
 73
     1
 78
     1
172
     1
176
     1
270
     1
274
     1
  0
MATERIAL
  5
C
102
{ACAD_XDICTIONARY
360
E
102
}
102
{ACAD_REACTORS
330
D
102
}
330
D
100
AcDbMaterial
  1
Global
 73
     1
 78
     1
172
     1
176
     1
270
     1
274
     1
  0
MLINESTYLE
  5
186
102
{ACAD_REACTORS
330
17B
102
}
330
17B
100
AcDbMlineStyle
  2
STANDARD
 70
     0
  3

 62
     0
 51
90.0
 52
90.0
 71
     2
 49
0.5
 62
   256
  6
BYLAYER
 49
-0.5
 62
   256
  6
BYLAYER
  0
ACDBPLACEHOLDER
  5
9
102
{ACAD_REACTORS
330
A
102
}
330
A
  0
SCALE
  5
18B
102
{ACAD_REACTORS
330
184
102
}
330
184
100
AcDbScale
 70
     0
300
1:1
140
1.0
141
0.1
290
     0
  0
SCALE
  5
18C
102
{ACAD_REACTORS
330
184
102
}
330
184
100
AcDbScale
 70
     0
300
1:2
140
1.0
141
0.2
290
     0
  0
SCALE
  5
18D
102
{ACAD_REACTORS
330
184
102
}
330
184
100
AcDbScale
 70
     0
300
1:2.5
140
1.0
141
0.25
290
     0
  0
SCALE
  5
18E
102
{ACAD_REACTORS
330
184
102
}
330
184
100
AcDbScale
 70
     0
300
1:5
140
1.0
141
0.5
290
     0
  0
SCALE
  5
18F
102
{ACAD_REACTORS
330
184
102
}
330
184
100
AcDbScale
 70
     0
300
1:7.5
140
1.0
141
0.75
290
     0
  0
SCALE
  5
190
102
{ACAD_REACTORS
330
184
102
}
330
184
100
AcDbScale
 70
     0
300
1:10
140
1.0
141
1.0
290
     1
  0
SCALE
  5
191
102
{ACAD_REACTORS
330
184
102
}
330
184
100
AcDbScale
 70
     0
300
1:20
140
1.0
141
2.0
290
     0
  0
SCALE
  5
192
102
{ACAD_REACTORS
330
184
102
}
330
184
100
AcDbScale
 70
     0
300
1:25
140
1.0
141
2.5
290
     0
  0
SCALE
  5
193
102
{ACAD_REACTORS
330
184
102
}
330
184
100
AcDbScale
 70
     0
300
1:50
140
1.0
141
5.0
290
     0
  0
SCALE
  5
194
102
{ACAD_REACTORS
330
184
102
}
330
184
100
AcDbScale
 70
     0
300
1:75
140
1.0
141
7.5
290
     0
  0
SCALE
  5
195
102
{ACAD_REACTORS
330
184
102
}
330
184
100
AcDbScale
 70
     0
300
1:100
140
1.0
141
10.0
290
     0
  0
SCALE
  5
196
102
{ACAD_REACTORS
330
184
102
}
330
184
100
AcDbScale
 70
     0
300
1:150
140
1.0
141
15.0
290
     0
  0
SCALE
  5
197
102
{ACAD_REACTORS
330
184
102
}
330
184
100
AcDbScale
 70
     0
300
1:200
140
1.0
141
20.0
290
     0
  0
SCALE
  5
198
102
{ACAD_REACTORS
330
184
102
}
330
184
100
AcDbScale
 70
     0
300
1:250
140
1.0
141
25.0
290
     0
  0
SCALE
  5
199
102
{ACAD_REACTORS
330
184
102
}
330
184
100
AcDbScale
 70
     0
300
1:500
140
1.0
141
50.0
290
     0
  0
SCALE
  5
19A
102
{ACAD_REACTORS
330
184
102
}
330
184
100
AcDbScale
 70
     0
300
1:750
140
1.0
141
75.0
290
     0
  0
SCALE
  5
19B
102
{ACAD_REACTORS
330
184
102
}
330
184
100
AcDbScale
 70
     0
300
1:1000
140
1.0
141
100.0
290
     0
  0
SCALE
  5
19C
102
{ACAD_REACTORS
330
184
102
}
330
184
100
AcDbScale
 70
     0
300
1:1250
140
1.0
141
125.0
290
     0
  0
SCALE
  5
19D
102
{ACAD_REACTORS
330
184
102
}
330
184
100
AcDbScale
 70
     0
300
1:2000
140
1.0
141
200.0
290
     0
  0
SCALE
  5
19E
102
{ACAD_REACTORS
330
184
102
}
330
184
100
AcDbScale
 70
     0
300
1:2500
140
1.0
141
250.0
290
     0
  0
SCALE
  5
19F
102
{ACAD_REACTORS
330
184
102
}
330
184
100
AcDbScale
 70
     0
300
1:5000
140
1.0
141
500.0
290
     0
  0
TABLESTYLE
  5
187
102
{ACAD_XDICTIONARY
360
188
102
}
102
{ACAD_REACTORS
330
185
102
}
330
185
100
AcDbTableStyle
  3
Standard
 70
     0
 71
     0
 40
0.06
 41
0.06
280
     0
281
     0
  7
STANDARD
140
0.18
170
     2
 62
     0
 63
     7
283
     0
274
    -2
284
     1
 64
     0
275
    -2
285
     1
 65
     0
276
    -2
286
     1
 66
     0
277
    -2
287
     1
 67
     0
278
    -2
288
     1
 68
     0
279
    -2
289
     1
 69
     0
  7
STANDARD
140
0.25
170
     5
 62
     0
 63
     7
283
     0
274
    -2
284
     1
 64
     0
275
    -2
285
     1
 65
     0
276
    -2
286
     1
 66
     0
277
    -2
287
     1
 67
     0
278
    -2
288
     1
 68
     0
279
    -2
289
     1
 69
     0
  7
STANDARD
140
0.18
170
     5
 62
     0
 63
     7
283
     0
274
    -2
284
     1
 64
     0
275
    -2
285
     1
 65
     0
276
    -2
286
     1
 66
     0
277
    -2
287
     1
 67
     0
278
    -2
288
     1
 68
     0
279
    -2
289
     1
 69
     0
  0
VISUALSTYLE
  5
168
102
{ACAD_REACTORS
330
169
102
}
330
169
100
AcDbVisualStyle
  2
2dWireframe
 70
     4
 71
     0
 72
     2
 73
     0
 90
        0
 40
-0.6
 41
-30.0
 62
     5
 63
     7
 74
     1
 91
        4
 64
     7
 65
   257
 75
     1
175
     1
 42
1.0
 92
        0
 66
   257
 43
1.0
 76
     1
 77
     6
 78
     2
 67
     7
 79
     5
170
     0
171
     0
290
     0
174
     0
 93
        1
 44
0.0
173
     0
291
     0
 45
0.0
1001
ACAD
1000
AcDbSavedByObjectVersion
1070
     0
  0
VISUALSTYLE
  5
18A
102
{ACAD_REACTORS
330
169
102
}
330
169
100
AcDbVisualStyle
  2
3dWireframe
 70
     5
 71
     0
 72
     2
 73
     0
 90
        0
 40
-0.6
 41
-30.0
 62
     5
 63
     7
 74
     1
 91
        4
 64
     7
 65
   257
 75
     1
175
     1
 42
1.0
 92
        0
 66
   257
 43
1.0
 76
     1
 77
     6
 78
     2
 67
     7
 79
     5
170
     0
171
     0
290
     0
174
     0
 93
        1
 44
0.0
173
     0
291
     0
 45
0.0
1001
ACAD
1000
AcDbSavedByObjectVersion
1070
     0
  0
VISUALSTYLE
  5
189
102
{ACAD_REACTORS
330
169
102
}
330
169
100
AcDbVisualStyle
  2
Realistic
 70
     8
 71
     2
 72
     2
 73
     0
 90
        0
 40
-0.6
 41
-30.0
 62
     5
 63
     7
 74
     1
 91
        0
 64
     7
 65
   257
 75
     1
175
     1
 42
1.0
 92
        8
 66
     8
 43
1.0
 76
     1
 77
     6
 78
     2
 67
     7
 79
     5
170
     0
171
     0
290
     0
174
     0
 93
       13
 44
0.0
173
     0
291
     0
 45
0.0
1001
ACAD
1000
AcDbSavedByObjectVersion
1070
     0
  0
DICTIONARYVAR
  5
216
102
{ACAD_REACTORS
330
213
102
}
330
213
100
DictionaryVariables
280
     0
  1
1:1
  0
DICTIONARYVAR
  5
215
102
{ACAD_REACTORS
330
213
102
}
330
213
100
DictionaryVariables
280
     0
  1
STANDARD
  0
DICTIONARYVAR
  5
214
102
{ACAD_REACTORS
330
213
102
}
330
213
100
DictionaryVariables
280
     0
  1
STANDARD
  0
DICTIONARYVAR
  5
21A
102
{ACAD_REACTORS
330
213
102
}
330
213
100
DictionaryVariables
280
     0
  1
1
  0
DICTIONARYVAR
  5
219
102
{ACAD_REACTORS
330
213
102
}
330
213
100
DictionaryVariables
280
     0
  1
1
  0
DICTIONARYVAR
  5
218
102
{ACAD_REACTORS
330
213
102
}
330
213
100
DictionaryVariables
280
     0
  1
0
  0
DICTIONARYVAR
  5
217
102
{ACAD_REACTORS
330
213
102
}
330
213
100
DictionaryVariables
280
     0
  1
127
  0
OBJECT_PTR
  5
212
102
{ACAD_REACTORS
330
1C1
102
}
330
1C1
1001
DCO15
1000
jet_dbsamples..."elementy wiezby"(_el_wzb_Left_nazw_romans16)
1000
nazw_el_wiezb
1040
1.0
1040
1.0
1040
0.0
1040
0.0
1040
0.0
1040
0.0
1040
0.0
1040
16.0
1071
        0
1071
      256
1071
        7
1071
        5
1071
        1
1000
ROMANS
1000
BYLAYER
1000
#(nazw_el_wiezb)
  0
OBJECT_PTR
  5
211
102
{ACAD_REACTORS
330
1C1
102
}
330
1C1
1001
DCO15
1000
jet_dbsamples..."elementy wiezby"(_elementy_wiezby_SKROT_Romans16)
1000
skrot_el_wiezb
1040
1.0
1040
1.0
1040
0.0
1040
0.0
1040
0.0
1040
0.0
1040
0.0
1040
16.0
1071
        0
1071
      256
1071
        9
1071
        5
1071
        1
1000
ROMANS
1000
BYLAYER
1000
#(skrot_el_wiezb)
  0
OBJECT_PTR
  5
210
102
{ACAD_REACTORS
330
1C1
102
}
330
1C1
1001
DCO15
1000
jet_dbsamples..."materialy przegrod pl"(_materialy_przegrod_pl_Label1)
1000
nazw_mat
1040
1.0
1040
1.0
1040
0.0
1040
0.0
1040
0.0
1040
0.0
1040
0.0
1040
17.0
1071
        0
1071
      256
1071
        7
1071
        5
1071
        1
1000
ROMANS
1000
BYLAYER
1000
#(nazw_mat)
  0
OBJECT_PTR
  5
20F
102
{ACAD_REACTORS
330
1C1
102
}
330
1C1
1001
DCO15
1000
jet_dbsamples..."nazwy przegrod pl"(_nazwy_przegrod_romans18)
1000
nzw_przegrody
1040
1.0
1040
1.0
1040
0.0
1040
0.0
1040
0.0
1040
0.0
1040
0.0
1040
18.0
1071
        0
1071
      256
1071
        7
1071
        5
1071
        1
1000
ROMANS
1000
BYLAYER
1000
{\L\C2;#(nzw_przegrody)}
  0
OBJECT_PTR
  5
20E
102
{ACAD_REACTORS
330
1C1
102
}
330
1C1
1001
DCO15
1000
jet_dbsamples..."nazwy rysunkow"(_nazwy_rysunkow_Arial37)
1000
1linia
1000
2linia
1000
3linia
1040
1.0
1040
1.0
1040
0.0
1040
0.0
1040
0.0
1040
0.0
1040
0.0
1040
37.0
1071
        0
1071
      256
1071
        1
1071
        5
1071
        1
1000
ROMANS
1000
BYLAYER
1000
{\fArial|b0|i0|c238|p34;#(1linia)\P#(2linia)\P#(3linia)}
  0
OBJECT_PTR
  5
20D
102
{ACAD_REACTORS
330
1C1
102
}
330
1C1
1001
DCO15
1000
jet_dbsamples..."nazwy rysunkow"(_nazwy_rysunkow_Romans18)
1000
1linia
1000
2linia
1000
3linia
1040
1.0
1040
1.0
1040
0.0
1040
0.0
1040
0.0
1040
0.0
1040
0.0
1040
18.0
1071
        0
1071
      256
1071
        2
1071
        5
1071
        1
1000
ROMANS
1000
BYLAYER
1000
{\Fromans.shx|c238;#(1linia)\P#(2linia)\P#(3linia)}
  0
OBJECT_PTR
  5
20C
102
{ACAD_REACTORS
330
1C1
102
}
330
1C1
1001
DCO15
1000
jet_dbsamples..."opisy rozne II"(_opisy_rozne_II_Label1)
1000
opis różny
1040
1.0
1040
1.0
1040
0.0
1040
0.0
1040
0.0
1040
0.0
1040
0.0
1040
10.0
1071
        0
1071
      256
1071
        1
1071
        5
1071
        1
1000
ROMANS
1000
BYLAYER
1000
#(opis różny)
  0
OBJECT_PTR
  5
20B
102
{ACAD_REACTORS
330
1C1
102
}
330
1C1
1001
DCO15
1000
jet_dbsamples..."opisy rozne II"(_opisy_rozne_II_Link1Label1)
1000
opis różny
1040
1.0
1040
1.0
1040
0.0
1040
0.0
1040
0.0
1040
0.0
1040
0.0
1040
10.0
1071
        0
1071
      256
1071
        1
1071
        5
1071
        1
1000
ROMANS
1000
BYLAYER
1000
#(opis różny)
  0
OBJECT_PTR
  5
20A
102
{ACAD_REACTORS
330
1C1
102
}
330
1C1
1001
DCO15
1000
jet_dbsamples..."posadzki do zestawienia pomieszczen"(_posadzki_do_zestawienia_pomieszczen_Romans17)
1000
nazwa_pos
1040
1.0
1040
1.0
1040
0.0
1040
0.0
1040
0.0
1040
0.0
1040
0.0
1040
17.0
1071
        0
1071
      256
1071
        7
1071
        5
1071
        1
1000
ROMANS
1000
BYLAYER
1000
{\C140;#(nazwa_pos)}
  0
OBJECT_PTR
  5
209
102
{ACAD_REACTORS
330
1C1
102
}
330
1C1
1001
DCO15
1000
jet_dbsamples..."rozne opisy rys"(_rozne_opisy_rys_R16_right)
1000
1L
1000
2L
1000
3L
1000
4L
1000
5L
1040
1.0
1040
1.0
1040
0.0
1040
0.0
1040
0.0
1040
0.0
1040
0.0
1040
16.0
1071
        0
1071
      256
1071
        3
1071
        5
1071
        1
1000
ROMANS
1000
BYLAYER
1000
#(1L)\P#(2L)\P#(3L)\P#(4L)\P#(5L)
  0
OBJECT_PTR
  5
208
102
{ACAD_REACTORS
330
1C1
102
}
330
1C1
1001
DCO15
1000
jet_dbsamples..."rozne opisy rys"(_rozne_opisy_rys_Romans12)
1000
1L
1000
2L
1000
3L
1000
4L
1000
5L
1040
1.0
1040
1.0
1040
0.0
1040
0.0
1040
0.0
1040
0.0
1040
0.0
1040
13.0
1071
        0
1071
      256
1071
        1
1071
        5
1071
        1
1000
ROMANS
1000
BYLAYER
1000
#(1L)\P#(2L)\P#(3L)\P#(4L)\P#(5L)
  0
OBJECT_PTR
  5
207
102
{ACAD_REACTORS
330
1C1
102
}
330
1C1
1001
DCO15
1000
jet_dbsamples..."rozne opisy rys"(_rozne_opisy_rys_Romans16)
1000
1L
1000
2L
1000
3L
1000
4L
1000
5L
1040
1.0
1040
1.0
1040
0.0
1040
0.0
1040
0.0
1040
0.0
1040
0.0
1040
16.0
1071
        0
1071
      256
1071
        1
1071
        5
1071
        1
1000
ROMANS
1000
BYLAYER
1000
#(1L)\P#(2L)\P#(3L)\P#(4L)\P#(5L)
  0
OBJECT_PTR
  5
206
102
{ACAD_REACTORS
330
1C1
102
}
330
1C1
1001
DCO15
1000
jet_dbsamples..."tabelka - inform i etykiety"(_tabelka_-_inform_i_etykiety_Romans13)
1000
1linia
1000
2linia_ewentualna
1000
3linia_ewentualna
1040
1.0
1040
1.0
1040
0.0
1040
0.0
1040
0.0
1040
0.0
1040
0.0
1040
13.0
1071
        0
1071
      256
1071
        1
1071
        5
1071
        1
1000
ROMANS
1000
BYLAYER
1000
#(1linia)\P#(2linia_ewentualna)\P#(3linia_ewentualna)
  0
OBJECT_PTR
  5
205
102
{ACAD_REACTORS
330
1C1
102
}
330
1C1
1001
DCO15
1000
jet_dbsamples..."tabelka - inform i etykiety"(_tabelka_Arial15-center)
1000
1linia
1000
2linia_ewentualna
1000
3linia_ewentualna
1040
1.0
1040
1.0
1040
0.0
1040
0.0
1040
0.0
1040
0.0
1040
0.0
1040
15.0
1071
        0
1071
      256
1071
        2
1071
        5
1071
        1
1000
ROMANS
1000
BYLAYER
1000
{\fArial|b0|i0|c238|p34;#(1linia)\P#(2linia_ewentualna)\P#(3linia_ewentualna)}
  0
OBJECT_PTR
  5
204
102
{ACAD_REACTORS
330
1C1
102
}
330
1C1
1001
DCO15
1000
jet_dbsamples..."tabelka - inform i etykiety"(_tabelka_Arial151)
1000
1linia
1040
1.0
1040
1.0
1040
0.0
1040
0.0
1040
0.0
1040
0.0
1040
0.0
1040
15.0
1071
        0
1071
      256
1071
        1
1071
        5
1071
        1
1000
ARIAL
1000
BYLAYER
1000
{\fArial|b0|i0|c238|p34;#(1linia)}
  0
OBJECT_PTR
  5
203
102
{ACAD_REACTORS
330
1C1
102
}
330
1C1
1001
DCO15
1000
jet_dbsamples..."tabelka - inform i etykiety"(_tabelka_Romans 10)
1000
1linia
1000
2linia_ewentualna
1000
3linia_ewentualna
1040
1.0
1040
1.0
1040
0.0
1040
0.0
1040
0.0
1040
0.0
1040
0.0
1040
10.0
1071
        0
1071
      256
1071
        1
1071
        5
1071
        1
1000
ARIAL
1000
BYLAYER
1000
#(1linia)\P#(2linia_ewentualna)\P#(3linia_ewentualna)
  0
OBJECT_PTR
  5
202
102
{ACAD_REACTORS
330
1C1
102
}
330
1C1
1001
DCO15
1000
jet_dbsamples..."tabelka - inform i etykiety"(_tabelka_Romans13)
1000
1linia
1000
2linia_ewentualna
1000
3linia_ewentualna
1040
1.0
1040
1.0
1040
0.0
1040
0.0
1040
0.0
1040
0.0
1040
0.0
1040
13.0
1071
        0
1071
      256
1071
        1
1071
        5
1071
        1
1000
ARIAL
1000
BYLAYER
1000
#(1linia)\P#(2linia_ewentualna)\P#(3linia_ewentualna)
  0
OBJECT_PTR
  5
201
102
{ACAD_REACTORS
330
1C1
102
}
330
1C1
1001
DCO15
1000
jet_dbsamples..."tabelka - inform i etykiety"(_tabelka_Romans19)
1000
1linia
1000
2linia_ewentualna
1000
3linia_ewentualna
1040
1.0
1040
1.0
1040
0.0
1040
0.0
1040
0.0
1040
0.0
1040
0.0
1040
19.0
1071
        0
1071
      256
1071
        2
1071
        5
1071
        1
1000
ARIAL
1000
BYLAYER
1000
#(1linia)\P#(2linia_ewentualna)\P#(3linia_ewentualna)
  0
OBJECT_PTR
  5
200
102
{ACAD_REACTORS
330
1C1
102
}
330
1C1
1001
DCO15
1000
ELE..."tbl_nazwy rys"(_tbl_nazwy_rys_Arial35)
1000
2
1040
1.0
1040
1.0
1040
0.0
1040
0.0
1040
0.0
1040
0.0
1040
0.0
1040
35.0
1071
        0
1071
      256
1071
        1
1071
        5
1071
        1
1000
ARIAL
1000
BYLAYER
1000
#(2)
  0
OBJECT_PTR
  5
1FF
102
{ACAD_REACTORS
330
1C1
102
}
330
1C1
1001
DCO15
1000
ELE..."tbl_nazwy rys"(_tbl_nazwy_rys_Romans18)
1000
2
1040
1.0
1040
1.0
1040
0.0
1040
0.0
1040
0.0
1040
0.0
1040
0.0
1040
18.0
1071
        0
1071
      256
1071
        1
1071
        5
1071
        1
1000
ARIAL
1000
BYLAYER
1000
#(2)
  0
OBJECT_PTR
  5
1FE
102
{ACAD_REACTORS
330
1C1
102
}
330
1C1
1001
DCO15
1000
jet_dbsamples...ALFABET(ALFABET-Arial20)
1000
liter_alf
1040
1.0
1040
1.0
1040
0.0
1040
0.0
1040
0.0
1040
0.0
1040
0.0
1040
20.0
1071
        0
1071
      256
1071
        7
1071
        5
1071
        1
1000
ARIAL
1000
BYLAYER
1000
{\fArial|b0|i0|c238|p34;#(liter_alf)}
  0
OBJECT_PTR
  5
1FD
102
{ACAD_REACTORS
330
1C1
102
}
330
1C1
1001
DCO15
1000
jet_dbsamples...ALFABET(ALFABET-Arial26)
1000
liter_alf
1040
1.0
1040
1.0
1040
0.0
1040
0.0
1040
0.0
1040
0.0
1040
0.0
1040
26.0
1071
        0
1071
      256
1071
        7
1071
        5
1071
        1
1000
ARIAL
1000
BYLAYER
1000
{\fArial|b0|i0|c238|p34;\C140;#(liter_alf)}
  0
OBJECT_PTR
  5
1FC
102
{ACAD_REACTORS
330
1C1
102
}
330
1C1
1001
DCO15
1000
jet_dbsamples...ALFABET(ALFABET-Arial37)
1000
liter_alf
1040
1.0
1040
1.0
1040
0.0
1040
0.0
1040
0.0
1040
0.0
1040
0.0
1040
37.0
1071
        0
1071
      256
1071
        7
1071
        5
1071
        1
1000
ARIAL
1000
BYLAYER
1000
{\fArial|b0|i0|c238|p34;#(liter_alf)}
  0
OBJECT_PTR
  5
1FB
102
{ACAD_REACTORS
330
1C1
102
}
330
1C1
1001
DCO15
1000
jet_dbsamples..."uwagi ogolne na arkuszu"(Arial_27)
1000
1naglowek
1000
1linia
1000
2linia
1000
3linia
1000
4linia
1000
5linia
1000
6linia
1000
7linia
1000
8linia
1000
9linia
1000
10linia
1000
11linia
1000
12linia
1040
1.0
1040
1.0
1040
0.0
1040
0.0
1040
0.0
1040
0.0
1040
0.0
1040
26.0
1071
        0
1071
      256
1071
        1
1071
        5
1071
        1
1000
ARIAL
1000
BYLAYER
1000
{\fArial|b0|i0|c238|p34;#(1naglowek)\P#(1linia)\P#(2linia)\P#(3linia)\P#(4linia)\P#(5linia)\P#(6linia)\P#(7linia)\P#(8linia)\P#(9linia)\P#(10linia)\P#(11linia)\P#(12linia)}
  0
OBJECT_PTR
  5
1FA
102
{ACAD_REACTORS
330
1C1
102
}
330
1C1
1001
DCO15
1000
wkc...arkusz_nazwy(arkusz_nazwy_Arial35)
1000
Nazwa rysunku
1040
1.0
1040
1.0
1040
0.0
1040
0.0
1040
0.0
1040
0.0
1040
0.0
1040
35.0
1071
        0
1071
      256
1071
        1
1071
        5
1071
        1
1000
ARIAL
1000
BYLAYER
1000
#(Nazwa rysunku)
  0
OBJECT_PTR
  5
1F9
102
{ACAD_REACTORS
330
1C1
102
}
330
1C1
1001
DCO15
1000
konstr...arkusz_nazwy(arkusz_nazwy_Arial_35_DwieLinie)
1000
Nazwa rysunku
1000
Nazwa rysunku_2
1040
1.0
1040
1.0
1040
0.0
1040
0.0
1040
0.0
1040
0.0
1040
0.0
1040
35.0
1071
        0
1071
      256
1071
        2
1071
        5
1071
        1
1000
ARIAL
1000
BYLAYER
1000
#(Nazwa rysunku)\P#(Nazwa rysunku_2)
  0
OBJECT_PTR
  5
1F8
102
{ACAD_REACTORS
330
1C1
102
}
330
1C1
1001
DCO15
1000
wkc...arkusz_nazwy(arkusz_nazwy_Romans18)
1000
Nazwa rysunku
1040
1.0
1040
1.0
1040
0.0
1040
0.0
1040
0.0
1040
0.0
1040
0.0
1040
18.0
1071
        0
1071
      256
1071
        1
1071
        5
1071
        1
1000
ROMANS
1000
BYLAYER
1000
#(Nazwa rysunku)
  0
OBJECT_PTR
  5
1F7
102
{ACAD_REACTORS
330
1C1
102
}
330
1C1
1001
DCO15
1000
konstr...arkusz_nazwy(arkusz_nazwy_Romans_18)
1000
Nazwa rysunku
1000
Nazwa rysunku_2
1040
1.0
1040
1.0
1040
0.0
1040
0.0
1040
0.0
1040
0.0
1040
0.0
1040
18.0
1071
        0
1071
      256
1071
        2
1071
        5
1071
        1
1000
ROMANS
1000
BYLAYER
1000
#(Nazwa rysunku) #(Nazwa rysunku_2)
  0
OBJECT_PTR
  5
1F6
102
{ACAD_REACTORS
330
1C1
102
}
330
1C1
1001
DCO15
1000
jet_dbsamples...jednostki(jednostki-Arial18)
1000
jedn
1040
1.0
1040
1.0
1040
0.0
1040
0.0
1040
0.0
1040
0.0
1040
0.0
1040
18.0
1071
        0
1071
      256
1071
        7
1071
        5
1071
        1
1000
ROMANS
1000
BYLAYER
1000
{\fArial|b0|i0|c238|p34;#(jedn)}
  0
OBJECT_PTR
  5
1F5
102
{ACAD_REACTORS
330
1C1
102
}
330
1C1
1001
DCO15
1000
jet_dbsamples...jednostki(jednostki-Arial30)
1000
jedn
1040
1.0
1040
1.0
1040
0.0
1040
0.0
1040
0.0
1040
0.0
1040
0.0
1040
30.0
1071
        0
1071
      256
1071
        7
1071
        5
1071
        1
1000
ROMANS
1000
BYLAYER
1000
{\fArial|b0|i0|c238|p34;#(jedn)}
  0
OBJECT_PTR
  5
1F4
102
{ACAD_REACTORS
330
1C1
102
}
330
1C1
1001
DCO15
1000
jet_dbsamples...jednostki(jednostki-Romans16)
1000
jedn
1040
1.0
1040
1.0
1040
0.0
1040
0.0
1040
0.0
1040
0.0
1040
0.0
1040
16.0
1071
        0
1071
      256
1071
        7
1071
        5
1071
        1
1000
ROMANS
1000
BYLAYER
1000
#(jedn)
  0
OBJECT_PTR
  5
1F3
102
{ACAD_REACTORS
330
1C1
102
}
330
1C1
1001
DCO15
1000
KONSTR...jednostki(jednostki_arial6.6kursywa)
1000
JEDNOSTKI
1040
1.0
1040
1.0
1040
0.0
1040
0.0
1040
0.0
1040
0.0
1040
0.0
1040
6.599999999999998
1071
        0
1071
      256
1071
        1
1071
        5
1071
        1
1000
ROMANS
1000
BYLAYER
1000
{\fArial|b0|i1|c0|p34;#(JEDNOSTKI)}
  0
OBJECT_PTR
  5
1F2
102
{ACAD_REACTORS
330
1C1
102
}
330
1C1
1001
DCO15
1000
KONSTR...jednostki(jednostki_ROMANS11)
1000
JEDNOSTKI
1040
1.0
1040
1.0
1040
0.0
1040
0.0
1040
0.0
1040
0.0
1040
0.0
1040
11.0
1071
        0
1071
      256
1071
        1
1071
        5
1071
        1
1000
ROMANS
1000
BYLAYER
1000
#(JEDNOSTKI)
  0
OBJECT_PTR
  5
1F1
102
{ACAD_REACTORS
330
1C1
102
}
330
1C1
1001
DCO15
1000
KONSTR...jednostki(jednostki_ROMANS15)
1000
JEDNOSTKI
1040
1.0
1040
1.0
1040
0.0
1040
0.0
1040
0.0
1040
0.0
1040
0.0
1040
15.0
1071
        0
1071
      256
1071
        1
1071
        5
1071
        1
1000
ROMANS
1000
BYLAYER
1000
#(JEDNOSTKI)
  0
OBJECT_PTR
  5
1F0
102
{ACAD_REACTORS
330
1C1
102
}
330
1C1
1001
DCO15
1000
ELE...tbl_jednostki(jednostki_Romans30)
1000
1
1040
1.0
1040
1.0
1040
0.0
1040
0.0
1040
0.0
1040
0.0
1040
0.0
1040
30.0
1071
        0
1071
      256
1071
        1
1071
        5
1071
        1
1000
ROMANS
1000
BYLAYER
1000
#(1)
  0
OBJECT_PTR
  5
1EF
102
{ACAD_REACTORS
330
1C1
102
}
330
1C1
1001
DCO15
1000
KONSTR...jednostki(jednostki_Romans7)
1000
JEDNOSTKI
1040
1.0
1040
1.0
1040
0.0
1040
0.0
1040
0.0
1040
0.0
1040
0.0
1040
7.0
1071
        0
1071
      256
1071
        1
1071
        5
1071
        1
1000
ROMANS
1000
BYLAYER
1000
#(JEDNOSTKI)
  0
OBJECT_PTR
  5
1EE
102
{ACAD_REACTORS
330
1C1
102
}
330
1C1
1001
DCO15
1000
KONSTR...jednostki(jednostkiLabel1)
1000
JEDNOSTKI
1040
1.0
1040
1.0
1040
0.0
1040
0.0
1040
0.0
1040
0.0
1040
0.0
1040
11.0
1071
        0
1071
      256
1071
        7
1071
        5
1071
        1
1000
ROMANS
1000
BYLAYER
1000
#(JEDNOSTKI)
  0
OBJECT_PTR
  5
1ED
102
{ACAD_REACTORS
330
1C1
102
}
330
1C1
1001
DCO15
1000
KONSTR...jednostki(jednostkiRomans22)
1000
JEDNOSTKI
1040
1.0
1040
1.0
1040
0.0
1040
0.0
1040
0.0
1040
0.0
1040
0.0
1040
22.4
1071
        0
1071
      256
1071
        7
1071
        5
1071
        1
1000
ROMANS
1000
BYLAYER
1000
#(JEDNOSTKI)
  0
OBJECT_PTR
  5
1EC
102
{ACAD_REACTORS
330
1C1
102
}
330
1C1
1001
DCO15
1000
KONSTR...konstr_drew(konstr_drew_arial6.6kursywa)
1000
1L
1000
2L
1000
3L
1000
4L
1000
5L
1040
1.0
1040
1.0
1040
0.0
1040
0.0
1040
0.0
1040
0.0
1040
0.0
1040
6.599999999999998
1071
        0
1071
      256
1071
        1
1071
        5
1071
        1
1000
ROMANS
1000
BYLAYER
1000
{\fArial|b0|i1|c238|p34;#(1L)\P#(2L)\P#(3L)\P#(4L)\P#(5L)}
  0
OBJECT_PTR
  5
1EB
102
{ACAD_REACTORS
330
1C1
102
}
330
1C1
1001
DCO15
1000
KONSTR...konstr_drew(konstr_drew_romans7)
1000
1L
1000
2L
1000
3L
1000
4L
1000
5L
1000
6L
1040
1.0
1040
1.0
1040
0.0
1040
0.0
1040
0.0
1040
0.0
1040
0.0
1040
7.0
1071
        0
1071
      256
1071
        1
1071
        5
1071
        1
1000
ROMANS
1000
BYLAYER
1000
#(1L)\P#(2L)\P#(3L)\P#(4L)\P#(5L)\P#(6L)
  0
OBJECT_PTR
  5
1EA
102
{ACAD_REACTORS
330
1C1
102
}
330
1C1
1001
DCO15
1000
KONSTR...konstr_stal(konstr_stalarial9kursywa)
1000
1L
1000
2L
1000
3L
1000
4L
1040
1.0
1040
1.0
1040
0.0
1040
0.0
1040
0.0
1040
0.0
1040
0.0
1040
9.0
1071
        0
1071
      256
1071
        1
1071
        5
1071
        1
1000
ROMANS
1000
BYLAYER
1000
{\fArial|b0|i1|c238|p34;#(1L)\P#(2L)\P#(3L)\P#(4L)}
  0
OBJECT_PTR
  5
1E9
102
{ACAD_REACTORS
330
1C1
102
}
330
1C1
1001
DCO15
1000
KONSTR...konstr_stal(konstr_stalLabel1)
1000
1L
1000
2L
1000
3L
1000
4L
1040
1.0
1040
1.0
1040
0.0
1040
0.0
1040
0.0
1040
0.0
1040
0.0
1040
6.0
1071
        0
1071
      256
1071
        1
1071
        5
1071
        1
1000
ROMANS
1000
BYLAYER
1000
#(1L)\P#(2L)\P#(3L)\P#(4L)
  0
OBJECT_PTR
  5
1E8
102
{ACAD_REACTORS
330
1C1
102
}
330
1C1
1001
DCO15
1000
KONSTR...konstr_stal(konstr_stalLabel2)
1000
1L
1000
2L
1000
3L
1000
4L
1040
1.0
1040
1.0
1040
0.0
1040
0.0
1040
0.0
1040
0.0
1040
0.0
1040
6.0
1071
        0
1071
      256
1071
        1
1071
        5
1071
        1
1000
ROMANS
1000
BYLAYER
1000
#(1L)\P#(2L)\P#(3L)\P#(4L)
  0
OBJECT_PTR
  5
1E7
102
{ACAD_REACTORS
330
1C1
102
}
330
1C1
1001
DCO15
1000
jet_dbsamples...miesiace(miesiace-Romans17)
1000
nzw_mies
1040
1.0
1040
1.0
1040
0.0
1040
0.0
1040
0.0
1040
0.0
1040
0.0
1040
17.0
1071
        0
1071
      256
1071
        1
1071
        5
1071
        1
1000
ROMANS
1000
BYLAYER
1000
#(nzw_mies)
  0
OBJECT_PTR
  5
1E6
102
{ACAD_REACTORS
330
1C1
102
}
330
1C1
1001
DCO15
1000
jet_dbsamples...pomieszczenia(pomieszczenia-Arial 15)
1000
nazwa
1040
1.0
1040
1.0
1040
0.0
1040
0.0
1040
0.0
1040
0.0
1040
0.0
1040
15.0
1071
        0
1071
      256
1071
        8
1071
        5
1071
        1
1000
ROMANS
1000
BYLAYER
1000
{\fArial|b0|i0|c238|p34;#(nazwa)}
  0
OBJECT_PTR
  5
1E5
102
{ACAD_REACTORS
330
1C1
102
}
330
1C1
1001
DCO15
1000
jet_dbsamples...pomieszczenia(pomieszczenia-Romans17)
1000
nazwa
1040
1.0
1040
1.0
1040
0.0
1040
0.0
1040
0.0
1040
0.0
1040
0.0
1040
17.0
1071
        0
1071
      256
1071
        7
1071
        5
1071
        1
1000
ROMANS
1000
BYLAYER
1000
#(nazwa)
  0
OBJECT_PTR
  5
1E4
102
{ACAD_REACTORS
330
1C1
102
}
330
1C1
1001
DCO15
1000
jet_dbsamples..."elementy wiezby"(romans16)
1000
nazw_el_wiezb
1040
1.0
1040
1.0
1040
0.0
1040
0.0
1040
0.0
1040
0.0
1040
0.0
1040
16.0
1071
        0
1071
      256
1071
        1
1071
        5
1071
        1
1000
ROMANS
1000
BYLAYER
1000
#(nazw_el_wiezb)
  0
OBJECT_PTR
  5
1E3
102
{ACAD_REACTORS
330
1C1
102
}
330
1C1
1001
DCO15
1000
jet_dbsamples..."uwagi ogolne na arkuszu"(Romans_17)
1000
1naglowek
1000
1linia
1000
2linia
1000
3linia
1000
4linia
1000
5linia
1000
6linia
1000
7linia
1000
8linia
1000
9linia
1000
10linia
1000
11linia
1000
12linia
1040
1.0
1040
1.0
1040
0.0
1040
0.0
1040
0.0
1040
0.0
1040
0.0
1040
17.0
1071
        0
1071
      256
1071
        1
1071
        5
1071
        1
1000
ROMANS
1000
BYLAYER
1000
#(1naglowek)\P#(1linia)\P#(2linia)\P#(3linia)\P#(4linia)\P#(5linia)\P#(6linia)\P#(7linia)\P#(8linia)\P#(9linia)\P#(10linia)\P#(11linia)\P#(12linia)
  0
OBJECT_PTR
  5
1E2
102
{ACAD_REACTORS
330
1C1
102
}
330
1C1
1001
DCO15
1000
KONSTR...schematy(schematy_arial15)
1000
1L
1000
2L
1000
3L
1000
4L
1000
5L
1040
1.0
1040
1.0
1040
0.0
1040
0.0
1040
0.0
1040
0.0
1040
0.0
1040
15.0
1071
        0
1071
      256
1071
        1
1071
        5
1071
        1
1000
ROMANS
1000
BYLAYER
1000
{\fArial|b0|i0|c238|p34;#(1L)\P#(2L)\P#(3L)\P#(4L)\P#(5L)\fArial|b0|i0|c0|p34;}
  0
OBJECT_PTR
  5
1E1
102
{ACAD_REACTORS
330
1C1
102
}
330
1C1
1001
DCO15
1000
KONSTR...schematy(schematy_arial20)
1000
1L
1000
2L
1000
3L
1000
4L
1000
5L
1040
1.0
1040
1.0
1040
0.0
1040
0.0
1040
0.0
1040
0.0
1040
0.0
1040
22.0
1071
        0
1071
      256
1071
        1
1071
        5
1071
        1
1000
ROMANS
1000
BYLAYER
1000
{\fArial|b0|i0|c238|p34;#(1L)\P#(2L)\P#(3L)\P#(4L)\P#(5L)}
  0
OBJECT_PTR
  5
1E0
102
{ACAD_REACTORS
330
1C1
102
}
330
1C1
1001
DCO15
1000
KONSTR...schematy(schematy_arial37)
1000
1L
1000
2L
1000
3L
1000
4L
1000
5L
1040
1.0
1040
1.0
1040
0.0
1040
0.0
1040
0.0
1040
0.0
1040
0.0
1040
37.0
1071
        0
1071
      256
1071
        1
1071
        5
1071
        1
1000
ROMANS
1000
BYLAYER
1000
{\fArial|b0|i0|c238|p34;#(1L)\P#(2L)\P#(3L)\P#(4L)\P#(5L)}
  0
OBJECT_PTR
  5
1DF
102
{ACAD_REACTORS
330
1C1
102
}
330
1C1
1001
DCO15
1000
KONSTR...schematy(schematy_romans15)
1000
1L
1000
2L
1000
3L
1000
4L
1000
5L
1040
1.0
1040
1.0
1040
0.0
1040
0.0
1040
0.0
1040
0.0
1040
0.0
1040
15.0
1071
        0
1071
      256
1071
        1
1071
        5
1071
        1
1000
ROMANS
1000
BYLAYER
1000
#(1L)\P#(2L)\P#(3L)\P#(4L)\P#(5L)
  0
OBJECT_PTR
  5
1DE
102
{ACAD_REACTORS
330
1C1
102
}
330
1C1
1001
DCO15
1000
KONSTR...schematy(schematy_romans15Right)
1000
1L
1000
2L
1000
3L
1000
4L
1000
5L
1040
1.0
1040
1.0
1040
0.0
1040
0.0
1040
0.0
1040
0.0
1040
0.0
1040
15.0
1071
        0
1071
      256
1071
        3
1071
        5
1071
        1
1000
ROMANS
1000
BYLAYER
1000
#(1L)\P#(2L)\P#(3L)\P#(4L)\P#(5L)
  0
OBJECT_PTR
  5
1DD
102
{ACAD_REACTORS
330
1C1
102
}
330
1C1
1001
DCO15
1000
jet_dbsamples...stolarka(stolarka-Arial14)
1000
STOL_TKST
1000
STOL_TKST_2linia
1040
1.0
1040
1.0
1040
0.0
1040
0.0
1040
0.0
1040
0.0
1040
0.0
1040
14.0
1071
        0
1071
      256
1071
        1
1071
        5
1071
        1
1000
ROMANS
1000
BYLAYER
1000
{\fArial|b0|i0|c238|p34;#(STOL_TKST)\P#(STOL_TKST_2linia)}
  0
OBJECT_PTR
  5
1DC
102
{ACAD_REACTORS
330
1C1
102
}
330
1C1
1001
DCO15
1000
jet_dbsamples...stolarka(stolarka-Romans1607)
1000
STOL_TKST
1000
STOL_TKST_2linia
1040
1.0
1040
1.0
1040
0.0
1040
0.0
1040
0.0
1040
0.0
1040
0.0
1040
16.0
1071
        0
1071
      256
1071
        5
1071
        5
1071
        1
1000
ROMANS
1000
BYLAYER
1000
#(STOL_TKST)\P#(STOL_TKST_2linia)
  0
OBJECT_PTR
  5
1DB
102
{ACAD_REACTORS
330
1C1
102
}
330
1C1
1001
DCO15
1000
jet_dbsamples...stolarka(stolarka-Romans1608)
1000
STOL_TKST
1000
STOL_TKST_2linia
1040
1.0
1040
1.0
1040
0.0
1040
0.0
1040
0.0
1040
0.0
1040
0.0
1040
16.0
1071
        0
1071
      256
1071
        5
1071
        5
1071
        1
1000
ROMANS
1000
BYLAYER
1000
#(STOL_TKST)\P#(STOL_TKST_2linia)
  0
OBJECT_PTR
  5
1DA
102
{ACAD_REACTORS
330
1C1
102
}
330
1C1
1001
DCO15
1000
jet_dbsamples...stolarka(stolarkaLabel1)
1000
STOL_TKST
1000
STOL_TKST_2linia
1040
1.0
1040
1.0
1040
0.0
1040
0.0
1040
0.0
1040
0.0
1040
0.0
1040
25.0
1071
        0
1071
      256
1071
        1
1071
        5
1071
        1
1000
ROMANS
1000
BYLAYER
1000
{\fArial|b0|i0|c238|p34;#(STOL_TKST)\P#(STOL_TKST_2linia)}
  0
OBJECT_PTR
  5
1D9
102
{ACAD_REACTORS
330
1C1
102
}
330
1C1
1001
DCO15
1000
KONSTR...szczegoly(szczegoly_arial12kursywa)
1000
1L
1000
2L
1000
3L
1000
4L
1000
5L
1000
6L
1040
1.0
1040
1.0
1040
0.0
1040
0.0
1040
0.0
1040
0.0
1040
0.0
1040
12.0
1071
        0
1071
      256
1071
        1
1071
        5
1071
        1
1000
ROMANS
1000
BYLAYER
1000
{\fArial|b0|i1|c238|p34;#(1L)\P#(2L)\P#(3L)\P#(4L)\P#(5L)\P#(6L)}
  0
OBJECT_PTR
  5
1D8
102
{ACAD_REACTORS
330
1C1
102
}
330
1C1
1001
DCO15
1000
KONSTR...szczegoly(szczegoly_arial6.6kursRight)
1000
1L
1000
2L
1000
3L
1000
4L
1000
5L
1000
6L
1040
1.0
1040
1.0
1040
0.0
1040
0.0
1040
0.0
1040
0.0
1040
0.0
1040
6.599999999999998
1071
        0
1071
      256
1071
        3
1071
        5
1071
        1
1000
ROMANS
1000
BYLAYER
1000
{\fArial|b0|i1|c238|p34;#(1L)\P#(2L)\P#(3L)\P#(4L)\P#(5L)\P#(6L)}
  0
OBJECT_PTR
  5
1D7
102
{ACAD_REACTORS
330
1C1
102
}
330
1C1
1001
DCO15
1000
KONSTR...szczegoly(szczegoly_arial6.6kursywa)
1000
1L
1000
2L
1000
3L
1000
4L
1000
5L
1000
6L
1040
1.0
1040
1.0
1040
0.0
1040
0.0
1040
0.0
1040
0.0
1040
0.0
1040
6.599999999999998
1071
        0
1071
      256
1071
        1
1071
        5
1071
        1
1000
ROMANS
1000
BYLAYER
1000
{\fArial|b0|i1|c238|p34;#(1L)\P#(2L)\P#(3L)\P#(4L)\P#(5L)\P#(6L)}
  0
OBJECT_PTR
  5
1D6
102
{ACAD_REACTORS
330
1C1
102
}
330
1C1
1001
DCO15
1000
KONSTR...szczegoly(szczegoly_Romans7)
1000
1L
1000
2L
1000
3L
1000
4L
1000
5L
1000
6L
1040
1.0
1040
1.0
1040
0.0
1040
0.0
1040
0.0
1040
0.0
1040
0.0
1040
7.0
1071
        0
1071
      256
1071
        1
1071
        5
1071
        1
1000
ROMANS
1000
BYLAYER
1000
#(1L)\P#(2L)\P#(3L)\P#(4L)\P#(5L)\P#(6L)
  0
OBJECT_PTR
  5
1D5
102
{ACAD_REACTORS
330
1C1
102
}
330
1C1
1001
DCO15
1000
KONSTR...szczegoly(szczegoly_romans7_right)
1000
1L
1000
2L
1000
3L
1000
4L
1000
5L
1000
6L
1040
1.0
1040
1.0
1040
0.0
1040
0.0
1040
0.0
1040
0.0
1040
0.0
1040
7.0
1071
        0
1071
      256
1071
        3
1071
        5
1071
        1
1000
ROMANS
1000
BYLAYER
1000
#(1L)\P#(2L)\P#(3L)\P#(4L)\P#(5L)\P#(6L)
  0
OBJECT_PTR
  5
1D4
102
{ACAD_REACTORS
330
1C1
102
}
330
1C1
1001
DCO15
1000
ELE..."tbl_nazwy rys"(tbl_nazwy_rys_Arial37)
1000
2
1040
1.0
1040
1.0
1040
0.0
1040
0.0
1040
0.0
1040
0.0
1040
0.0
1040
37.0
1071
        0
1071
      256
1071
        7
1071
        5
1071
        1
1000
ROMANS
1000
BYLAYER
1000
#(2)
  0
OBJECT_PTR
  5
1D3
102
{ACAD_REACTORS
330
1C1
102
}
330
1C1
1001
DCO15
1000
ELE...tbl_opisy(tbl_opisy_Romans_poch20)
1000
1
1000
2
1000
3
1000
4
1040
1.0
1040
1.0
1040
0.0
1040
0.0
1040
0.0
1040
0.0
1040
0.0
1040
20.0
1071
        0
1071
      256
1071
        1
1071
        5
1071
        1
1000
ROMANS
1000
BYLAYER
1000
#(1)\P#(2)\P#(3)\P#(4)
  0
OBJECT_PTR
  5
1D2
102
{ACAD_REACTORS
330
1C1
102
}
330
1C1
1001
DCO15
1000
ELE...tbl_opisy(tbl_opisy_RomansPoch14)
1000
1
1000
2
1000
3
1000
4
1040
1.0
1040
1.0
1040
0.0
1040
0.0
1040
0.0
1040
0.0
1040
0.0
1040
14.4
1071
        0
1071
      256
1071
        1
1071
        5
1071
        1
1000
ROMANS
1000
BYLAYER
1000
#(1)\P#(2)\P#(3)\P#(4)
  0
OBJECT_PTR
  5
1D1
102
{ACAD_REACTORS
330
1C1
102
}
330
1C1
1001
DCO15
1000
ELE...tbl_opisy(tbl_opisy_RomansPoch20_R)
1000
1
1000
2
1000
3
1000
4
1040
1.0
1040
1.0
1040
0.0
1040
0.0
1040
0.0
1040
0.0
1040
0.0
1040
20.0
1071
        0
1071
      256
1071
        3
1071
        5
1071
        1
1000
ROMANS
1000
BYLAYER
1000
#(1)\P#(2)\P#(3)\P#(4)
  0
OBJECT_PTR
  5
1D0
102
{ACAD_REACTORS
330
1C1
102
}
330
1C1
1001
DCO15
1000
jet_dbsamples...tbl_PRZEGRODY(tbl_PRZEGRODY)
1000
nazwa przegrody
1000
1w
1000
2w
1000
3w
1000
4w
1000
5w
1000
6w
1000
7w
1000
8w
1000
9w
1000
10w
1000
11w
1000
12w
1000
13w
1000
14w
1000
15w
1000
16w
1040
1.0
1040
1.0
1040
0.0
1040
0.0
1040
0.0
1040
0.0
1040
0.0
1040
17.0
1071
        0
1071
      256
1071
        1
1071
        5
1071
        1
1000
ROMANS
1000
BYLAYER
1000
{\Fromans.shx|c238;\L\C2;#(nazwa przegrody)\C4;\P}#(1w)\P#(2w)\P#(3w)\P#(4w)\P#(5w)\P#(6w)\P#(7w)\P#(8w)\P#(9w)\P#(10w)\P#(11w)\P#(12w)\P#(13w)\P#(14w)\P#(15w)\P#(16w)
  0
OBJECT_PTR
  5
1CF
102
{ACAD_REACTORS
330
1C1
102
}
330
1C1
1001
DCO15
1000
wkc...tbl_uwagi_co(tbl_uwagi_coRomans20Right)
1000
1L
1000
2L
1000
3L
1000
4L
1000
5L
1040
1.0
1040
1.0
1040
0.0
1040
0.0
1040
0.0
1040
0.0
1040
0.0
1040
20.0
1071
        0
1071
      256
1071
        3
1071
        5
1071
        1
1000
ROMANS
1000
BYLAYER
1000
{\Fromans.shx|c238;#(1L)\P#(2L)\P#(3L)\P#(4L)\P#(5L)}
  0
OBJECT_PTR
  5
1CE
102
{ACAD_REACTORS
330
1C1
102
}
330
1C1
1001
DCO15
1000
jet_dbsamples..."uwagi ogolne na arkuszu"(uwag_og_na_ark_Arial18)
1000
1naglowek
1000
1linia
1000
2linia
1000
3linia
1000
4linia
1000
5linia
1000
6linia
1000
7linia
1000
8linia
1000
9linia
1000
10linia
1000
11linia
1000
12linia
1040
1.0
1040
1.0
1040
0.0
1040
0.0
1040
0.0
1040
0.0
1040
0.0
1040
18.0
1071
        0
1071
      256
1071
        1
1071
        5
1071
        1
1000
ROMANS
1000
BYLAYER
1000
{\fArial|b0|i0|c238|p34;#(1naglowek)\P#(1linia)\P#(2linia)\P#(3linia)\P#(4linia)\P#(5linia)\P#(6linia)\P#(7linia)\P#(8linia)\P#(9linia)\P#(10linia)\P#(11linia)\P#(12linia)}
  0
OBJECT_PTR
  5
1CD
102
{ACAD_REACTORS
330
1C1
102
}
330
1C1
1001
DCO15
1000
wkc...tbl_uwagi_co(uwagi_co_Arial37)
1000
1L
1000
2L
1000
3L
1000
4L
1000
5L
1040
1.0
1040
1.0
1040
0.0
1040
0.0
1040
0.0
1040
0.0
1040
0.0
1040
37.0
1071
        0
1071
      256
1071
        1
1071
        5
1071
        1
1000
ROMANS
1000
BYLAYER
1000
#(1L)\P#(2L)\P#(3L)\P#(4L)\P#(5L){\fArial|b0|i0|c0|p34;}
  0
OBJECT_PTR
  5
1CC
102
{ACAD_REACTORS
330
1C1
102
}
330
1C1
1001
DCO15
1000
wkc...tbl_uwagi_co(uwagi_co_Romans20)
1000
1L
1000
2L
1000
3L
1000
4L
1000
5L
1040
1.0
1040
1.0
1040
0.0
1040
0.0
1040
0.0
1040
0.0
1040
0.0
1040
20.0
1071
        0
1071
      256
1071
        1
1071
        5
1071
        1
1000
ROMANS
1000
BYLAYER
1000
{\Fromans.shx|c238;#(1L)\P#(2L)\P#(3L)\P#(4L)\P#(5L)}
  0
OBJECT_PTR
  5
1CB
102
{ACAD_REACTORS
330
1C1
102
}
330
1C1
1001
DCO15
1000
KONSTR...uwagi_na_schematach(uwagi_na_schematachLabel1)
1000
1L
1000
2L
1000
3L
1000
4L
1000
5L
1000
6L
1000
7L
1000
8L
1000
9L
1000
10L
1000
11L
1000
12L
1040
1.0
1040
1.0
1040
0.0
1040
0.0
1040
0.0
1040
0.0
1040
0.0
1040
22.4
1071
        0
1071
      256
1071
        1
1071
        5
1071
        1
1000
ROMANS
1000
BYLAYER
1000
{\Fromans.shx|c238;#(1L)\P#(2L)\P#(3L)\P#(4L)\P#(5L)\P#(6L)\P#(7L)\P#(8L)\P#(9L)\P#(10L)\P#(11L)\P#(12L)}
  0
OBJECT_PTR
  5
1CA
102
{ACAD_REACTORS
330
1C1
102
}
330
1C1
1001
DCO15
1000
KONSTR...uwagi_na_schematach(uwagi_na_schematachLabel2)
1000
1L
1000
2L
1000
3L
1000
4L
1000
5L
1000
6L
1000
7L
1000
8L
1000
9L
1000
10L
1000
11L
1000
12L
1040
1.0
1040
1.0
1040
0.0
1040
0.0
1040
0.0
1040
0.0
1040
0.0
1040
35.0
1071
        0
1071
      256
1071
        1
1071
        5
1071
        1
1000
ROMANS
1000
BYLAYER
1000
{\fArial|b0|i1|c0|p34;#(1L)\P#(2L)\P#(3L)\P#(4L)\P#(5L)\P#(6L)\P#(7L)\P#(8L)\P#(9L)\P#(10L)\P#(11L)\P#(12L)}
  0
OBJECT_PTR
  5
1C9
102
{ACAD_REACTORS
330
1C1
102
}
330
1C1
1001
DCO15
1000
KONSTR...uwagi_na_schematach(uwagi_na_schematachRight)
1000
1L
1000
2L
1000
3L
1000
4L
1000
5L
1000
6L
1000
7L
1000
8L
1000
9L
1000
10L
1000
11L
1000
12L
1040
1.0
1040
1.0
1040
0.0
1040
0.0
1040
0.0
1040
0.0
1040
0.0
1040
22.4
1071
        0
1071
      256
1071
        3
1071
        5
1071
        1
1000
ROMANS
1000
BYLAYER
1000
{\Fromans.shx|c238;#(1L)\P#(2L)\P#(3L)\P#(4L)\P#(5L)\P#(6L)\P#(7L)\P#(8L)\P#(9L)\P#(10L)\P#(11L)\P#(12L)}
  0
OBJECT_PTR
  5
1C8
102
{ACAD_REACTORS
330
1C1
102
}
330
1C1
1001
DCO15
1000
wkc...tbl_uwagi_wodkan(uwagi_wodkan_Romans18)
1000
1L
1000
2L
1000
3L
1000
4L
1000
5L
1040
1.0
1040
1.0
1040
0.0
1040
0.0
1040
0.0
1040
0.0
1040
0.0
1040
20.0
1071
        0
1071
      256
1071
        1
1071
        5
1071
        1
1000
ROMANS
1000
BYLAYER
1000
#(1L)\P#(2L)\P#(3L)\P#(4L)\P#(5L)
  0
OBJECT_PTR
  5
1C7
102
{ACAD_REACTORS
330
1C1
102
}
330
1C1
1001
DCO15
1000
wkc...tbl_uwagi_wodkan(uwagi_wodkanARIAL37)
1000
1L
1000
2L
1000
3L
1000
4L
1000
5L
1040
1.0
1040
1.0
1040
0.0
1040
0.0
1040
0.0
1040
0.0
1040
0.0
1040
37.0
1071
        0
1071
      256
1071
        1
1071
        5
1071
        1
1000
ROMANS
1000
BYLAYER
1000
#(1L)\P#(2L)\P#(3L)\P#(4L)\P#(5L)
  0
OBJECT_PTR
  5
1C6
102
{ACAD_REACTORS
330
1C1
102
}
330
1C1
1001
DCO15
1000
wkc...tbl_uwagi_wodkan(uwagi_wodkanRomans20_Right)
1000
1L
1000
2L
1000
3L
1000
4L
1000
5L
1040
1.0
1040
1.0
1040
0.0
1040
0.0
1040
0.0
1040
0.0
1040
0.0
1040
20.0
1071
        0
1071
      256
1071
        3
1071
        5
1071
        1
1000
ROMANS
1000
BYLAYER
1000
{\Fromans.shx|c238;#(1L)\P#(2L)\P#(3L)\P#(4L)\P#(5L)}
  0
OBJECT_PTR
  5
1C5
102
{ACAD_REACTORS
330
1C1
102
}
330
1C1
1001
DCO15
1000
KONSTR...zbroj_plyty(zbroj_plyty_arial22)
1000
1L
1000
2L
1000
3L
1040
1.0
1040
1.0
1040
0.0
1040
0.0
1040
0.0
1040
0.0
1040
0.0
1040
22.0
1071
        0
1071
      256
1071
        1
1071
        5
1071
        1
1000
ROMANS
1000
BYLAYER
1000
{\fArial|b0|i0|c238|p34;#(1L)\P#(2L)\P#(3L)}
  0
OBJECT_PTR
  5
1C4
102
{ACAD_REACTORS
330
1C1
102
}
330
1C1
1001
DCO15
1000
KONSTR...zbroj_plyty(zbroj_plyty_romans12)
1000
1L
1000
2L
1000
3L
1040
1.0
1040
1.0
1040
0.0
1040
0.0
1040
0.0
1040
0.0
1040
0.0
1040
11.0
1071
        0
1071
      256
1071
        1
1071
        5
1071
        1
1000
ROMANS
1000
BYLAYER
1000
#(1L)\P#(2L)\P#(3L)
  0
OBJECT_PTR
  5
1C3
102
{ACAD_REACTORS
330
1C1
102
}
330
1C1
1001
DCO15
1000
KONSTR...zbroj_plyty(zbroj_plyty_romans12Right)
1000
1L
1000
2L
1000
3L
1040
1.0
1040
1.0
1040
0.0
1040
0.0
1040
0.0
1040
0.0
1040
0.0
1040
11.0
1071
        0
1071
      256
1071
        3
1071
        5
1071
        1
1000
ROMANS
1000
BYLAYER
1000
#(1L)\P#(2L)\P#(3L)
  0
OBJECT_PTR
  5
1C2
102
{ACAD_REACTORS
330
1C1
102
}
330
1C1
1001
DCO15
1000
KONSTR...zbroj_plyty(zbroj_plyty_romans9)
1000
1L
1000
2L
1000
3L
1040
1.0
1040
1.0
1040
0.0
1040
0.0
1040
0.0
1040
0.0
1040
0.0
1040
9.0
1071
        0
1071
      256
1071
        1
1071
        5
1071
        1
1000
ROMANS
1000
BYLAYER
1000
#(1L)\P#(2L)\P#(3L)
  0
OBJECT_PTR
  5
1C0
102
{ACAD_REACTORS
330
1A2
102
}
330
1A2
1001
DCO15
1000
jet_dbsamples..."elementy wiezby"(_elementy_wiezby_Link1)
1000
IDENTYFIKATOR
1000

1000

1070
     4
1070
     0
1070
     0
1070
     0
1070
  1024
  0
OBJECT_PTR
  5
1BF
102
{ACAD_REACTORS
330
1A2
102
}
330
1A2
1001
DCO15
1000
jet_dbsamples..."materialy przegrod pl"(_materialy_przegrod_pl_Link1)
1000
IDENTYFIKATOR
1000

1000

1070
     4
1070
     0
1070
     0
1070
     0
1070
  1024
  0
OBJECT_PTR
  5
1BE
102
{ACAD_REACTORS
330
1A2
102
}
330
1A2
1001
DCO15
1000
jet_dbsamples..."nazwy przegrod pl"(_nazwy_przegrod_pl_Link1)
1000
IDENTYFIKATOR
1000

1000

1070
     4
1070
     0
1070
     0
1070
     0
1070
  1024
  0
OBJECT_PTR
  5
1BD
102
{ACAD_REACTORS
330
1A2
102
}
330
1A2
1001
DCO15
1000
jet_dbsamples..."nazwy rysunkow"(_nazwy_rysunkow_Arial37)
1000
IDENTYFIKATOR
1000

1000

1070
     4
1070
     0
1070
     0
1070
     0
1070
  1024
  0
OBJECT_PTR
  5
1BC
102
{ACAD_REACTORS
330
1A2
102
}
330
1A2
1001
DCO15
1000
jet_dbsamples..."opisy rozne II"(_opisy_rozne_II_Link1)
1000
"opis różny"
1000
1250
1000
ASCII
1070
    12
1070
   200
1070
     0
1070
     0
1070
  1024
  0
OBJECT_PTR
  5
1BB
102
{ACAD_REACTORS
330
1A2
102
}
330
1A2
1001
DCO15
1000
jet_dbsamples..."opisy rozne II"(_opisy_rozne_II_Link2)
1000
IDENTYFIKATOR
1000

1000

1070
     4
1070
     0
1070
     0
1070
     0
1070
  1024
  0
OBJECT_PTR
  5
1BA
102
{ACAD_REACTORS
330
1A2
102
}
330
1A2
1001
DCO15
1000
jet_dbsamples..."posadzki do zestawienia pomieszczen"(_posadzki_do_zestawienia_pomieszczen_Link1)
1000
IDENTYFIKATOR
1000

1000

1070
     4
1070
     0
1070
     0
1070
     0
1070
  1024
  0
OBJECT_PTR
  5
1B9
102
{ACAD_REACTORS
330
1A2
102
}
330
1A2
1001
DCO15
1000
jet_dbsamples..."rozne opisy rys"(_rozne_opisy_rys_Link1)
1000
IDENTYFIKATOR
1000

1000

1070
     4
1070
     0
1070
     0
1070
     0
1070
  1024
  0
OBJECT_PTR
  5
1B8
102
{ACAD_REACTORS
330
1A2
102
}
330
1A2
1001
DCO15
1000
jet_dbsamples..."tabelka - inform i etykiety"(_tabelka_-_inform_i_etykiety_Link1)
1000
IDENTYFIKATOR
1000

1000

1070
     4
1070
     0
1070
     0
1070
     0
1070
  1024
  0
OBJECT_PTR
  5
1B7
102
{ACAD_REACTORS
330
1A2
102
}
330
1A2
1001
DCO15
1000
ELE..."tbl_nazwy rys"(_tbl_nazwy_rys_Link1)
1000
"1"
1000

1000

1070
     4
1070
     0
1070
     0
1070
     0
1070
  1024
  0
OBJECT_PTR
  5
1B6
102
{ACAD_REACTORS
330
1A2
102
}
330
1A2
1001
DCO15
1000
jet_dbsamples..."uwagi ogolne na arkuszu"(_uwagi_ogolne_na_arkuszu_Link1)
1000
IDENTYFIKATOR
1000

1000

1070
     4
1070
     0
1070
     0
1070
     0
1070
  1024
  0
OBJECT_PTR
  5
1B5
102
{ACAD_REACTORS
330
1A2
102
}
330
1A2
1001
DCO15
1000
jet_dbsamples..."~TMPCLP122371"(_~TMPCLP122371_Link1)
1000
IDENTYFIKATOR
1000

1000

1070
     4
1070
     0
1070
     0
1070
     0
1070
  1024
1000
GUPA
1000
1250
1000
ASCII
1070
    12
1070
    50
1070
     0
1070
     0
1070
  1024
1000
NAZW_MAT
1000
1250
1000
ASCII
1070
    12
1070
   100
1070
     0
1070
     0
1070
  1024
  0
OBJECT_PTR
  5
1B4
102
{ACAD_REACTORS
330
1A2
102
}
330
1A2
1001
DCO15
1000
jet_dbsamples...ALFABET(ALFABETLink1)
1000
IDENTYFIKATOR
1000

1000

1070
     4
1070
     0
1070
     0
1070
     0
1070
  1024
  0
OBJECT_PTR
  5
1B3
102
{ACAD_REACTORS
330
1A2
102
}
330
1A2
1001
DCO15
1000
wkc...arkusz_nazwy(arkusz_nazwyLink1)
1000
IDENTYFIKATOR
1000

1000

1070
     4
1070
     0
1070
     0
1070
     0
1070
  1024
  0
OBJECT_PTR
  5
1B2
102
{ACAD_REACTORS
330
1A2
102
}
330
1A2
1001
DCO15
1000
konstr...arkusz_nazwy(arkusz_nazwyLink2)
1000
IDENTYFIKATOR
1000

1000

1070
     4
1070
     0
1070
     0
1070
     0
1070
  1024
  0
OBJECT_PTR
  5
1B1
102
{ACAD_REACTORS
330
1A2
102
}
330
1A2
1001
DCO15
1000
jet_dbsamples...jednostki(jednostkiLink1)
1000
IDENTYFIKATOR
1000

1000

1070
     4
1070
     0
1070
     0
1070
     0
1070
  1024
  0
OBJECT_PTR
  5
1B0
102
{ACAD_REACTORS
330
1A2
102
}
330
1A2
1001
DCO15
1000
KONSTR...konstr_drew(konstr_drewLink1)
1000
IDENTYFIKATOR
1000

1000

1070
     4
1070
     0
1070
     0
1070
     0
1070
  1024
  0
OBJECT_PTR
  5
1AF
102
{ACAD_REACTORS
330
1A2
102
}
330
1A2
1001
DCO15
1000
KONSTR...konstr_stal(konstr_stalLink1)
1000
IDENTYFIKATOR
1000

1000

1070
     4
1070
     0
1070
     0
1070
     0
1070
  1024
  0
OBJECT_PTR
  5
1AE
102
{ACAD_REACTORS
330
1A2
102
}
330
1A2
1001
DCO15
1000
jet_dbsamples...miesiace(miesiaceLink1)
1000
IDENTYFIKATOR
1000

1000

1070
     4
1070
     0
1070
     0
1070
     0
1070
  1024
  0
OBJECT_PTR
  5
1AD
102
{ACAD_REACTORS
330
1A2
102
}
330
1A2
1001
DCO15
1000
jet_dbsamples...pomieszczenia(pomieszczeniaLink1)
1000
IDENTYFIKATOR
1000

1000

1070
     4
1070
     0
1070
     0
1070
     0
1070
  1024
  0
OBJECT_PTR
  5
1AC
102
{ACAD_REACTORS
330
1A2
102
}
330
1A2
1001
DCO15
1000
KONSTR...schematy(schematyLink1)
1000
IDENTYFIKATOR
1000

1000

1070
     4
1070
     0
1070
     0
1070
     0
1070
  1024
  0
OBJECT_PTR
  5
1AB
102
{ACAD_REACTORS
330
1A2
102
}
330
1A2
1001
DCO15
1000
jet_dbsamples...stolarka(stolarkaLink1)
1000
IDENTYFIKATOR
1000

1000

1070
     4
1070
     0
1070
     0
1070
     0
1070
  1024
  0
OBJECT_PTR
  5
1AA
102
{ACAD_REACTORS
330
1A2
102
}
330
1A2
1001
DCO15
1000
KONSTR...szczegoly(szczegolyLink1)
1000
IDENTYFIKATOR
1000

1000

1070
     4
1070
     0
1070
     0
1070
     0
1070
  1024
  0
OBJECT_PTR
  5
1A9
102
{ACAD_REACTORS
330
1A2
102
}
330
1A2
1001
DCO15
1000
ELE...tbl_jednostki(tbl_jednostkiLink1)
1000
IDENTYFIKATOR
1000

1000

1070
     4
1070
     0
1070
     0
1070
     0
1070
  1024
  0
OBJECT_PTR
  5
1A8
102
{ACAD_REACTORS
330
1A2
102
}
330
1A2
1001
DCO15
1000
ELE...tbl_opisy(tbl_opisyLink1)
1000
IDENTYFIKATOR
1000

1000

1070
     4
1070
     0
1070
     0
1070
     0
1070
  1024
  0
OBJECT_PTR
  5
1A7
102
{ACAD_REACTORS
330
1A2
102
}
330
1A2
1001
DCO15
1000
jet_dbsamples...tbl_PRZEGRODY(tbl_PRZEGRODYLink1)
1000
IDENTYFIKATOR
1000

1000

1070
     4
1070
     0
1070
     0
1070
     0
1070
  1024
  0
OBJECT_PTR
  5
1A6
102
{ACAD_REACTORS
330
1A2
102
}
330
1A2
1001
DCO15
1000
wkc...tbl_uwagi_co(tbl_uwagi_coLink1)
1000
IDENTYFIKATOR
1000

1000

1070
     4
1070
     0
1070
     0
1070
     0
1070
  1024
  0
OBJECT_PTR
  5
1A5
102
{ACAD_REACTORS
330
1A2
102
}
330
1A2
1001
DCO15
1000
wkc...tbl_uwagi_wodkan(tbl_uwagi_wodkanLink1)
1000
IDENTYFIKATOR
1000

1000

1070
     4
1070
     0
1070
     0
1070
     0
1070
  1024
  0
OBJECT_PTR
  5
1A4
102
{ACAD_REACTORS
330
1A2
102
}
330
1A2
1001
DCO15
1000
KONSTR...uwagi_na_schematach(uwagi_na_schematachLink1)
1000
IDENTYFIKATOR
1000

1000

1070
     4
1070
     0
1070
     0
1070
     0
1070
  1024
  0
OBJECT_PTR
  5
1A3
102
{ACAD_REACTORS
330
1A2
102
}
330
1A2
1001
DCO15
1000
KONSTR...zbroj_plyty(zbroj_plytyLink1)
1000
IDENTYFIKATOR
1000

1000

1070
     4
1070
     0
1070
     0
1070
     0
1070
  1024
  0
DICTIONARY
  5
224
330
152
100
AcDbDictionary
280
     1
281
     1
  3
ACAD_XREC_ROUNDTRIP
360
225
  0
DICTIONARY
  5
159
330
158
100
AcDbDictionary
280
     1
281
     1
  3
ACAD_XREC_ROUNDTRIP
360
226
  3
ADSK_XREC_LAYOUTTHUMBNAIL
360
15A
  0
DICTIONARY
  5
181
330
180
100
AcDbDictionary
280
     1
281
     1
  3
ACAD_XREC_ROUNDTRIP
360
182
  0
DICTIONARY
  5
17E
330
17D
100
AcDbDictionary
280
     1
281
     1
  3
ACAD_XREC_ROUNDTRIP
360
17F
  0
DICTIONARY
  5
E
330
C
100
AcDbDictionary
280
     1
281
     1
  3
ACAD_XREC_ROUNDTRIP
360
F
  0
DICTIONARY
  5
188
330
187
100
AcDbDictionary
280
     1
281
     1
  3
ACAD_ROUNDTRIP_2008_TABLESTYLE_CELLSTYLEMAP
360
21D
  3
ACAD_XREC_ROUNDTRIP
360
227
  0
XRECORD
  5
225
102
{ACAD_REACTORS
330
224
102
}
330
224
100
AcDbXrecord
280
     1
102
SHADEPLOT
 70
     1
102
SHADEPLOTRESLEVEL
 70
     2
102
SHADEPLOTCUSTOMDPI
 70
   300
  0
XRECORD
  5
226
102
{ACAD_REACTORS
330
159
102
}
330
159
100
AcDbXrecord
280
     1
102
SHADEPLOT
 70
     1
102
SHADEPLOTRESLEVEL
 70
     2
102
SHADEPLOTCUSTOMDPI
 70
   300
  0
XRECORD
  5
15A
102
{ACAD_REACTORS
330
159
102
}
330
159
100
AcDbXrecord
280
     1
310
28000000B400000000010000010008000000000000B4000000000000000000000001000000000000FFFFFF0000000000FFFFFF000000000000000000000000000000000000000000000000000000000000000000330000006600000099000000CC000000FF00000000330000333300006633000099330000CC330000FF3300
310
0000660000336600006666000099660000CC660000FF66000000990000339900006699000099990000CC990000FF99000000CC000033CC000066CC000099CC0000CCCC0000FFCC000000FF000033FF000066FF000099FF0000CCFF0000FFFF000000003300330033006600330099003300CC003300FF003300003333003333
310
33006633330099333300CC333300FF33330000663300336633006666330099663300CC663300FF66330000993300339933006699330099993300CC993300FF99330000CC330033CC330066CC330099CC3300CCCC3300FFCC330000FF330033FF330066FF330099FF3300CCFF3300FFFF330000006600330066006600660099
310
006600CC006600FF00660000336600333366006633660099336600CC336600FF33660000666600336666006666660099666600CC666600FF66660000996600339966006699660099996600CC996600FF99660000CC660033CC660066CC660099CC6600CCCC6600FFCC660000FF660033FF660066FF660099FF6600CCFF6600
310
FFFF660000009900330099006600990099009900CC009900FF00990000339900333399006633990099339900CC339900FF33990000669900336699006666990099669900CC669900FF66990000999900339999006699990099999900CC999900FF99990000CC990033CC990066CC990099CC9900CCCC9900FFCC990000FF99
310
0033FF990066FF990099FF9900CCFF9900FFFF99000000CC003300CC006600CC009900CC00CC00CC00FF00CC000033CC003333CC006633CC009933CC00CC33CC00FF33CC000066CC003366CC006666CC009966CC00CC66CC00FF66CC000099CC003399CC006699CC009999CC00CC99CC00FF99CC0000CCCC0033CCCC0066CC
310
CC0099CCCC00CCCCCC00FFCCCC0000FFCC0033FFCC0066FFCC0099FFCC00CCFFCC00FFFFCC000000FF003300FF006600FF009900FF00CC00FF00FF00FF000033FF003333FF006633FF009933FF00CC33FF00FF33FF000066FF003366FF006666FF009966FF00CC66FF00FF66FF000099FF003399FF006699FF009999FF00CC
310
99FF00FF99FF0000CCFF0033CCFF0066CCFF0099CCFF00CCCCFF00FFCCFF0000FFFF0033FFFF0066FFFF0099FFFF00CCFFFF00FFFFFF00000000000D0D0D001A1A1A00282828003535350043434300505050005D5D5D006B6B6B00787878008686860093939300A1A1A100AEAEAE00BBBBBB00C9C9C900D6D6D600E4E4E400
310
F1F1F100FFFFFF0000000000000000000000000000000000000000000000000000000000000000000000000000000000EFE2E2E2E2E2E2E2E2E2E2E2E2E2E2E2E2E2E2E2E2E2E2E2E2E2E2E2E2E2E2E2E2E2E2E2E2E2E2E2E2E2E2E2E2E2E2E2E2E2E2E2E2E2E2E2E2E2E2E2E2E2E2E2E2E2E2E2E2E2E2E2E2E2E2E2E2E2E2
310
E2E2E2E2E2E2E2E2E2E2E2E2E2E2E2E2E2E2E2E2E2E2E2E2E2E2E2E2E2E2E2E2E2E2E2E2E2E2E2E2E2E2E2E2E2E2E2E2E2E2E2E2E2E2E2E2E2E2E2E2E2E2E2E2E2E2E2E2E2E2E2E2E2E2E2E2E2E2E2E2E2E2E2E2E2E2E2E2E2E2E2E2E2E2E2E2E2E2E2E2E2EFE2F5F5F5F5F5F5F5F5F5F5F5F5F5F5F5F5F5F5F5F5F5F5F5F5
310
F5F5F5F5F5F5F5F5F5F5F5F5F5F5F5F5F5F5F5F5F5F5F5F5F5F5F5F5F5F5F5F5F5F5F5F5F5F5F5F5F5F5F5F5F5F5F5F5F5F5F5F5F5F5F5F5F5F5F5F5F5F5F5F5F5F5F5F5F5F5F5F5F5F5F5F5F5F5F5F5F5F5F5F5F5F5F5F5F5F5F5F5F5F5F5F5F5F5F5F5F5F5F5F5F5F5F5F5F5F5F5F5F5F5F5F5F5F5F5F5F5F5F5F5F5F5F5
310
F5F5F5F5F5F5F5F5F5F5F5F5F5F5F5F5F5F5F5F5F5F5F5F5F5F5F5EFE2F5F5F5F5F5F5F5F5F5F5F5F5F5F5F5F5F5F5F5F5F5F5F5F5F5F5F5F5F5F5F5F5F5F5F5F5F5F5F5F5F5F5F5F5F5F5F5F5F5F5F5F5F5F5F5F5F5F5F5F5F5F5F5F5F5F5F5F5F5F5F5F5F5F5F5F5F5F5F5F5F5F5F5F5F5F5F5F5F5F5F5F5F5F5F5F5F5F5
310
F5F5F5F5F5F5F5F5F5F5F5F5F5F5F5F5F5F5F5F5F5F5F5F5F5F5F5F5F5F5F5F5F5F5F5F5F5F5F5F5F5F5F5F5F5F5F5F5F5F5F5F5F5F5F5F5F5F5F5F5F5F5F5F5F5F5F5F5F5F5F5F5F5F5F5F5F5F5F5F5EFE2F5F5F5F5F5F5F5F5F5F5F5F5F5F5F5F5F5F5F5F5F5F5F5F5F5F5F5F5F5F5F5F5F5F5F5F5F5F5F5F5F5F5F5F5F5
310
F5F5F5F5F5F5F5F5F5F5F5F5F5F5F5F5F5F5F5F5F5F5F5F5F5F5F5F5F5F5F5F5F5F5F5F5F5F5F5F5F5F5F5F5F5F5F5F5F5F5F5F5F5F5F5F5F5F5F5F5F5F5F5F5F5F5F5F5F5F5F5F5F5F5F5F5F5F5F5F5F5F5F5F5F5F5F5F5F5F5F5F5F5F5F5F5F5F5F5F5F5F5F5F5F5F5F5F5F5F5F5F5F5F5F5F5F5F5F5F5F5F5F5F5F5F5F5
310
F5F5F5F5F5F5EFE2F5F5E2E2E2E2E2E2E2E2F5F5F5F5F5F5F5F5F5E2E2E2E2E2E2E2E2E2E2E2E2E2E2E2E2F5F5F5F5F5F5F5F5F5E2E2E2E2E2E2E2E2E2E2E2E2E2E2E2E2F5F5F5F5F5F5F5F5F5E2E2E2E2E2E2E2E2E2E2E2E2E2E2E2E2F5F5F5F5F5F5F5F5E2E2E2E2E2E2E2E2E2E2E2E2E2E2E2E2F5F5F5F5F5F5F5F5F5E2
310
E2E2E2E2E2E2E2E2E2E2E2E2E2E2E2F5F5F5F5F5F5F5F5F5E2E2E2E2E2E2E2E2E2E2E2E2E2E2E2E2F5F5F5F5F5F5F5F5F5E2E2E2E2E2E2E2E2F5F5EFE2F5F5E2F5F5F5F5F5F5F5F5F5F5F5F5F5F5F5F5F5F5F5F5F5F5F5F5F5F5F5F5F5F5F5F5F5F5F5F5F5F5F5F5F5F5F5F5F5F5F5F5F5F5F5F5F5F5F5F5F5F5F5F5F5F5F5
310
F5F5F5F5F5F5F5F5F5F5F5F5F5F5F5F5F5F5F5F5F5F5F5F5F5F5F5F5F5F5F5F5F5F5F5F5F5F5F5F5F5F5F5F5F5F5F5F5F5F5F5F5F5F5F5F5F5F5F5F5F5F5F5F5F5F5F5F5F5F5F5F5F5F5F5F5F5F5F5F5F5F5F5F5F5F5F5F5F5F5F5F5F5F5F5F5F5F5F5F5F5F5F5F5F5F5F5F5F5E2F5F5EFE2F5F5E2F5F5F5F5F5F5F5F5F5F5
310
F5F5F5F5F5F5F5F5F5F5F5F5F5F5F5F5F5F5F5F5F5F5F5F5F5F5F5F5F5F5F5F5F5F5F5F5F5F5F5F5F5F5F5F5F5F5F5F5F5F5F5F5F5F5F5F5F5F5F5F5F5F5F5F5F5F5F5F5F5F5F5F5F5F5F5F5F5F5F5F5F5F5F5F5F5F5F5F5F5F5F5F5F5F5F5F5F5F5F5F5F5F5F5F5F5F5F5F5F5F5F5F5F5F5F5F5F5F5F5F5F5F5F5F5F5F5F5
310
F5F5F5F5F5F5F5F5F5F5F5F5F5F5F5F5F5F5F5F5F5F5F5F5F5F5F5F5F5F5F5F5F5F5F5E2F5F5EFE2F5F5E2F5F5F5F5F5F5F5F5F5F5F5F5F5F5F5F5F5F5F5F5F5F5F5F5F5F5F5F5F5F5F5F5F5F5F5F5F5F5F5F5F5F5F5F5F5F5F5F5F5F5F5F5F5F5F5F5F5F5F5F5F5F5F5F5F5F5F5F5F5F5F5F5F5F5F5F5F5F5F5F5F5F5F5F5
310
F5F5F5F5F5F5F5F5F5F5F5F5F5F5F5F5F5F5F5F5F5F5F5F5F5F5F5F5F5F5F5F5F5F5F5F5F5F5F5F5F5F5F5F5F5F5F5F5F5F5F5F5F5F5F5F5F5F5F5F5F5F5F5F5F5F5F5F5F5F5F5F5F5F5F5F5F5F5F5F5F5F5F5F5F5F5F5F5E2F5F5EFE2F5F5E2F5F5F5F5F5F5F5F5F5F5F5F5F5F5F5F5F5F5F5F5F5F5F5F5F5F5F5F5F5F5F5
310
F5F5F5F5F5F5F5F5F5F5F5F5F5F5F5F5F5F5F5F5F5F5F5F5F5F5F5F5F5F5F5F5F5F5F5F5F5F5F5F5F5F5F5F5F5F5F5F5F5F5F5F5F5F5F5F5F5F5F5F5F5F5F5F5F5F5F5F5F5F5F5F5F5F5F5F5F5F5F5F5F5F5F5F5F5F5F5F5F5F5F5F5F5F5F5F5F5F5F5F5F5F5F5F5F5F5F5F5F5F5F5F5F5F5F5F5F5F5F5F5F5F5F5F5F5F5F5
310
F5F5F5F5F5F5F5F5F5F5F5F5F5F5E2F5F5EFE2F5F5E2F5F5F5F5F5F5F5F5F5F5F5F5F5F5F5F5F5F5F5F5F5F5F5F5F5F5F5F5F5F5F5F5F5F5F5F5F5F5F5F5F5F5F5F5F5F5F5F5F5F5F5F5F5F5F5F5F5F5F5F5F5F5F5F5F5F5F5F5F5F5F5F5F5F5F5F5F5F5F5F5F5F5F5F5F5F5F5F5F5F5F5F5F5F5F5F5F5F5F5F5F5F5F5F5F5
310
F5F5F5F5F5F5F5F5F5F5F5F5F5F5F5F5F5F5F5F5F5F5F5F5F5F5F5F5F5F5F5F5F5F5F5F5F5F5F5F5F5F5F5F5F5F5F5F5F5F5F5F5F5F5F5F5F5F5F5F5F5F5F5F5F5F5F5E2F5F5EFE2F5F5E2F5F5F5F5F5F5F5F5F5F5F5F5F5F5F5F5F5F5F5F5F5F5F5F5F5F5F5F5F5F5F5F5F5F5F5F5F5F5F5F5F5F5F5F5F5F5F5F5F5F5F5F5
310
F5F5F5F5F5F5F5F5F5F5F5F5F5F5F5F5F5F5F5F5F5F5F5F5F5F5F5F5F5F5F5F5F5F5F5F5F5F5F5F5F5F5F5F5F5F5F5F5F5F5F5F5F5F5F5F5F5F5F5F5F5F5F5F5F5F5F5F5F5F5F5F5F5F5F5F5F5F5F5F5F5F5F5F5F5F5F5F5F5F5F5F5F5F5F5F5F5F5F5F5F5F5F5F5F5F5F5F5F5F5F5F5F5F5F5F5F5F5F5F5E2F5F5EFE2F5F5
310
E2F5F5F5F5F5F5F5F5F5F5F5F5F5F5F5F5F5F5F5F5F5F5F5F5F5F5F5F5F5F5F5F5F5F5F5F5F5F5F5F5F5F5F5F5F5F5F5F5F5F5F5F5F5F5F5F5F5F5F5F5F5F5F5F5F5F5F5F5F5F5F5F5F5F5F5F5F5F5F5F5F5F5F5F5F5F5F5F5F5F5F5F5F5F5F5F5F5F5F5F5F5F5F5F5F5F5F5F5F5F5F5F5F5F5F5F5F5F5F5F5F5F5F5F5F5F5
310
F5F5F5F5F5F5F5F5F5F5F5F5F5F5F5F5F5F5F5F5F5F5F5F5F5F5F5F5F5F5F5F5F5F5F5F5F5F5F5F5F5F5F5F5F5F5E2F5F5EFE2F5F5F5F5F5F5F5F5F5F5F5F5F5F5F5F5F5F5F5F5F5F5F5F5F5F5F5F5F5F5F5F5F5F5F5F5F5F5F5F5F5F5F5F5F5F5F5F5F5F5F5F5F5F5F5F5F5F5F5F5F5F5F5F5F5F5F5F5F5F5F5F5F5F5F5F5
310
F5F5F5F5F5F5F5F5F5F5F5F5F5F5F5F5F5F5F5F5F5F5F5F5F5F5F5F5F5F5F5F5F5F5F5F5F5F5F5F5F5F5F5F5F5F5F5F5F5F5F5F5F5F5F5F5F5F5F5F5F5F5F5F5F5F5F5F5F5F5F5F5F5F5F5F5F5F5F5F5F5F5F5F5F5F5F5F5F5F5F5F5F5F5F5F5F5F5F5F5F5F5EFE2F5F5F5F5F5F5F5F5F5F5F5F5F5F5F5F5F5F5F5F5F5F5F5
310
F5F5F5F5F5F5F5F5F5F5F5F5F5F5F5F5F5F5F5F5F5F5F5F5F5F5F5F5F5F5F5F5F5F5F5F5F5F5F5F5F5F5F5F5F5F5F5F5F5F5F5F5F5F5F5F5F5F5F5F5F5F5F5F5F5F5F5F5F5F5F5F5F5F5F5F5F5F5F5F5F5F5F5F5F5F5F5F5F5F5F5F5F5F5F5F5F5F5F5F5F5F5F5F5F5F5F5F5F5F5F5F5F5F5F5F5F5F5F5F5F5F5F5F5F5F5F5
310
F5F5F5F5F5F5F5F5F5F5F5F5F5F5F5F5F5F5F5F5F5F5F5F5F5F5F5F5EFE2F5F5F5F5F5F5F5F5F5F5F5F5F5F5F5F5F5F5F5F5F5F5F5F5F5F5F5F5F5F5F5F5F5F5F5F5F5F5F5F5F5F5F5F5F5F5F5F5F5F5F5F5F5F5F5F5F5F5F5F5F5F5F5F5F5F5F5F5F5F5F5F5F5F5F5F5F5F5F5F5F5F5F5F5F5F5F5F5F5F5F5F5F5F5F5F5F5
310
F5F5F5F5F5F5F5F5F5F5F5F5F5F5F5F5F5F5F5F5F5F5F5F5F5F5F5F5F5F5F5F5F5F5F5F5F5F5F5F5F5F5F5F5F5F5F5F5F5F5F5F5F5F5F5F5F5F5F5F5F5F5F5F5F5F5F5F5F5F5F5F5F5F5F5F5F5F5F5F5F5EFE2F5F5F5F5F5F5F5F5F5F5F5F5F5F5F5F5F5F5F5F5F5F5F5F5F5F5F5F5F5F5F5F5F5F5F5F5F5F5F5F5F5F5F5F5
310
F5F5F5F5F5F5F5F5F5F5F5F5F5F5F5F5F5F5F5F5F5F5F5F5F5F5F5F5F5F5F5F5F5F5F5F5F5F5F5F5F5F5F5F5F5F5F5F5F5F5F5F5F5F5F5F5F5F5F5F5F5F5F5F5F5F5F5F5F5F5F5F5F5F5F5F5F5F5F5F5F5F5F5F5F5F5F5F5F5F5F5F5F5F5F5F5F5F5F5F5F5F5F5F5F5F5F5F5F5F5F5F5F5F5F5F5F5F5F5F5F5F5F5F5F5F5F5
310
F5F5F5F5F5F5F5EFE2F5F5F5F5F5F5F5F5F5F5F5F5F5F5F5F5F5F5F5F5F5F5F5F5F5F5F5F5F5F5F5F5F5F5F5F5F5F5F5F5F5F5F5F5F5F5F5F5F5F5F5F5F5F5F5F5F5F5F5F5F5F5F5F5F5F5F5F5F5F5F5F5F5F5F5F5F5F5F5F5F5F5F5F5F5F5F5F5F5F5F5F5F5F5F5F5F5F5F5F5F5F5F5F5F5F5F5F5F5F5F5F5F5F5F5F5F5F5
310
F5F5F5F5F5F5F5F5F5F5F5F5F5F5F5F5F5F5F5F5F5F5F5F5F5F5F5F5F5F5F5F5F5F5F5F5F5F5F5F5F5F5F5F5F5F5F5F5F5F5F5F5F5F5F5F5F5F5F5F5EFE2F5F5F5F5F5F5E9E9E9E9E9E9E9E9E9E9E9E9E9E9E9E9E9E9E9E9E9E9E9E9E9E9E9E9E9E9E9E9E9E9E9E9E9E9E9E9E9E9E9E9E9E9E9E9E9E9E9E9E9E9E9E9E9E9E9
310
E9E9E9E9E9E9E9E9E9E9E9E9E9E9E9E9E9E9E9E9E9E9E9E9E9E9E9E9E9E9E9E9E9E9E9E9E9E9E9E9E9E9E9E9E9E9E9E9E9E9E9E9E9E9E9E9E9E9E9E9E9E9E9E9E9E9E9E9E9E9E9E9E9E9E9E9E9E9E9E9E9E9E9E9E9E9E9E9E9E9E9E9E9E9E9E9E9E9E9E9E9E9E9E9F5F5F5F5F5F5F5F5F5EFE2F5F5F5F5F5F5E9F5F5F5F5F5
310
F5F5F5F5F5F5F5F5F5F5F5F5F5F5F5F5F5F5F5F5F5F5F5F5F5F5F5F5F5F5F5F5F5F5F5F5F5F5F5F5F5F5F5F5F5F5F5F5F5F5F5F5F5F5F5F5F5F5F5F5F5F5F5F5F5F5F5F5F5F5F5F5F5F5F5F5F5F5F5F5F5F5F5F5F5F5F5F5F5F5F5F5F5F5F5F5F5F5F5F5F5F5F5F5F5F5F5F5F5F5F5F5F5F5F5F5F5F5F5F5F5F5F5F5F5F5F5
310
F5F5F5F5F5F5F5F5F5F5F5F5F5F5F5F5F5F5F5F5F5F5F5F5F5F5F5F5F5E9F5F5F5F5F5F5F5F5F5EFE2F5F5F5F5F5F5E9F5F5F5F5F5F5F5F5F5F5F5F5F5F5F5F5F5F5F5F5F5F5F5F5F5F5F5F5F5F5F5F5F5F5F5F5F5F5F5F5F5F5F5F5F5F5F5F5F5F5F5F5F5F5F5F5F5F5F5F5F5F5F5F5F5F5F5F5F5F5F5F5F5F5F5F5F5F5F5
310
F5F5F5F5F5F5F5F5F5F5F5F5F5F5F5F5F5F5F5F5F5F5F5F5F5F5F5F5F5F5F5F5F5F5F5F5F5F5F5F5F5F5F5F5F5F5F5F5F5F5F5F5F5F5F5F5F5F5F5F5F5F5F5F5F5F5F5F5F5F5F5F5F5F5F5F5F5F5F5F5F5F5E9F5F5F5F5F5F5F5F5F5EFE2F5F5F5F5F5F5E9F5F5F5F5F5F5F5F5F5F5F5F5F5F5F5F5F5F5F5F5F5F5F5F5F5F5
310
F5F5F5F5F5F5F5F5F5F5F5F5F5F5F5F5F5F5F5F5F5F5F5F5F5F5F5F5F5F5F5F5F5F5F5F5F5F5F5F5F5F5F5F5F5F5F5F5F5F5F5F5F5F5F5F5F5F5F5F5F5F5F5F5F5F5F5F5F5F5F5F5F5F5F5F5F5F5F5F5F5F5F5F5F5F5F5F5F5F5F5F5F5F5F5F5F5F5F5F5F5F5F5F5F5F5F5F5F5F5F5F5F5F5F5F5F5F5F5F5F5F5F5F5F5F5F5
310
F5F5F5F5F5F5F5F5E9F5F5F5F5F5F5F5F5F5EFE2F5F5E2F5F5F5E9F5F5F5F5F5F5F5F5F5F5F5F5F5F5F5F5F5F5F5F5F5F5F5F5F5F5F5F5F5F5F5F5F5F5F5F5F5F5F5F5F5F5F5F5F5F5F5F5F5F5F5F5F5F5F5F5F5F5F5F5F5F5F5F5F5F5F5F5F5F5F5F5F5F5F5F5F5F5F5F5F5F5F5F5F5F5F5F5F5F5F5F5F5F5F5F5F5F5F5F5
310
F5F5F5F5F5F5F5F5F5F5F5F5F5F5F5F5F5F5F5F5F5F5F5F5F5F5F5F5F5F5F5F5F5F5F5F5F5F5F5F5F5F5F5F5F5F5F5F5F5F5F5F5F5F5F5F5F5F5F5F5F5E9F5F5F5F5F5F5E2F5F5EFE2F5F5E2F5F5F5E9F5F5F5F5F5F5F5F5F5F5F5F5F5F5F5F5F5F5F5F5F5F5F5F5F5F5F5F5F5F5F5F5F5F5F5F5F5F5F5F5F5F5F5F5F5F5F5
310
F5F5F5F5F5F5F5F5F5F5F5F5F5F5F5F5F5F5F5F5F5F5F5F5F5F5F5F5F5F5F5F5F5F5F5F5F5F5F5F5F5F5F5F5F5F5F5F5F5F5F5F5F5F5F5F5F5F5F5F5F5F5F5F5F5F5F5F5F5F5F5F5F5F5F5F5F5F5F5F5F5F5F5F5F5F5F5F5F5F5F5F5F5F5F5F5F5F5F5F5F5F5F5F5F5F5F5F5F5F5F5F5F5F5E9F5F5F5F5F5F5E2F5F5EFE2F5
310
F5E2F5F5F5E9F5F5F5F5F5F5F5F5F5F5F5F5F5F5F5F5F5F5F5F5F5F5F5F5F5F5F5F5F5F5F5F5F5F5F5F5F5F5F5F5F5F5F5F5F5F5F5F5F5F5F5F5F5F5F5F5F5F5F5F5F5F5F5F5F5F5F5F5F5F5F5F5F5F5F5F5F5F5F5F5F5F5F5F5F5F5F5F5F5F5F5F5F5F5F5F5F5F5F5F5F5F5F5F5F5F5F5F5F5F5F5F5F5F5F5F5F5F5F5F5F5
310
F5F5F5F5F5F5F5F5F5F5F5F5F5F5F5F5F5F5F5F5F5F5F5F5F5F5F5F5F5F5F5F5F5F5F5F5F5F5F5F5E9F5F5F5F5F5F5E2F5F5EFE2F5F5E2F5F5F5E9F5F5F5F5F5F5F5F5F5F5F5F5F5F5F5F5F5F5F5F5F5F5F5F5F5F5F5F5F5F5F5F5F5F5F5F5F5F5F5F5F5F5F5F5F5F5F5F5F5F5F5F5F5F5F5F5F5F5F5F5F5F5F5F5F5F5F5F5
310
F5F5F5F5F5F5F5F5F5F5F5F5F5F5F5F5F5F5F5F5F5F5F5F5F5F5F5F5F5F5F5F5F5F5F5F5F5F5F5F5F5F5F5F5F5F5F5F5F5F5F5F5F5F5F5F5F5F5F5F5F5F5F5F5F5F5F5F5F5F5F5F5F5F5F5F5F5F5F5F5F5F5F5F5F5F5F5F5F5F5F5F5F5E9F5F5F5F5F5F5E2F5F5EFE2F5F5E2F5F5F5E9F5F5F5F5F5F5F5F5F5F5F5F5F5F5F5
310
F5F5F5F5F5F5F5F5F5F5F5F5F5F5F5F5F5F5F5F5F5F5F5F5F5F5F5F5F5F5F5F5F5F5F5F5F5F5F5F5F5F5F5F5F5F5F5F5F5F5F5F5F5F5F5F5F5F5F5F5F5F5F5F5F5F5F5F5F5F5F5F5F5F5F5F5F5F5F5F5F5F5F5F5F5F5F5F5F5F5F5F5F5F5F5F5F5F5F5F5F5F5F5F5F5F5F5F5F5F5F5F5F5F5F5F5F5F5F5F5F5F5F5F5F5F5F5
310
F5F5F5F5F5F5F5F5F5F5F5F5F5F5F5F5F5F5F5E9F5F5F5F5F5F5E2F5F5EFE2F5F5E2F5F5F5E9F5F5F5F5F5F5F5F5F5F5F5F5F5F5F5F5F5F5F5F5F5F5F5F5F5F5F5F5F5F5F5F5F5F5F5F5F5F5F5F5F5F5F5F5F5F5F5F5F5F5F5F5F5F5F5F5F5F5F5F5F5F5F5F5F5F5F5F5F5F5F5F5F5F5F5F5F5F5F5F5F5F5F5F5F5F5F5F5F5
310
F5F5F5F5F5F5F5F5F5F5F5F5F5F5F5F5F5F5F5F5F5F5F5F5F5F5F5F5F5F5F5F5F5F5F5F5F5F5F5F5F5F5F5F5F5F5F5F5F5F5F5F5F5F5F5F5F5F5F5F5F5F5F5F5F5F5F5F5F5F5F5F5E9F5F5F5F5F5F5E2F5F5EFE2F5F5E2F5F5F5E9F5F5F5F5F5F5F5F5F5F5F5F5F5F5F5F5F5F5F5F5F5F5F5F5F5F5F5F5F5F5F5F5F5F5F5F5
310
F5F5F5F5F5F5F5F5F5F5F5F5F5F5F5F5F5F5F5F5F5F5F5F5F5F5F5F5F5F5F5F5F5F5F5F5F5F5F5F5F5F5F5F5F5F5F5F5F5F5F5F5F5F5F5F5F5F5F5F5F5F5F5F5F5F5F5F5F5F5F5F5F5F5F5F5F5F5F5F5F5F5F5F5F5F5F5F5F5F5F5F5F5F5F5F5F5F5F5F5F5F5F5F5F5F5F5F5F5F5F5F5F5F5F5F5F5F5F5F5F5F5F5F5F5E9F5
310
F5F5F5F5F5E2F5F5EFE2F5F5E2F5F5F5E9F5F5F5F5F5F5F5F5F5F5F5F5F5F5F5F5F5F5F5F5F5F5F5F5F5F5F5F5F5F5F5F5F5F5F5F5F5F5F5F5F5F5F5F5F5F5F5F5F5F5F5F5F5F5F5F5F5F5F5F5F5F5F5F5F5F5F5F5F5F5F5F5F5F5F5F5F5F5F5F5F5F5F5F5F5F5F5F5F5F5F5F5F5F5F5F5F5F5F5F5F5F5F5F5F5F5F5F5F5F5
310
F5F5F5F5F5F5F5F5F5F5F5F5F5F5F5F5F5F5F5F5F5F5F5F5F5F5F5F5F5F5F5F5F5F5F5F5F5F5F5F5F5F5F5F5F5F5F5F5F5F5F5E9F5F5F5F5F5F5E2F5F5EFE2F5F5E2F5F5F5E9F5F5F5F5F5F5F5F5F5F5F5F5F5F5F5F5F5F5F5F5F5F5F5F5F5F5F5F5F5F5F5F5F5F5F5F5F5F5F5F5F5F5F5F5F5F5F5F5F5F5F5F5F5F5F5F5F5
310
F5F5F5F5F5F5F5F5F5F5F5F5F5F5F5F5F5F5F5F5F5F5F5F5F5F5F5F5F5F5F5F5F5F5F5F5F5F5F5F5F5F5F5F5F5F5F5F5F5F5F5F5F5F5F5F5F5F5F5F5F5F5F5F5F5F5F5F5F5F5F5F5F5F5F5F5F5F5F5F5F5F5F5F5F5F5F5F5F5F5F5F5F5F5F5F5F5F5F5F5F5F5F5F5E9F5F5F5F5F5F5E2F5F5EFE2F5F5E2F5F5F5E9F5F5F5F5
310
F5F5F5F5F5F5F5F5F5F5F5F5F5F5F5F5F5F5F5F5F5F5F5F5F5F5F5F5F5F5F5F5F5F5F5F5F5F5F5F5F5F5F5F5F5F5F5F5F5F5F5F5F5F5F5F5F5F5F5F5F5F5F5F5F5F5F5F5F5F5F5F5F5F5F5F5F5F5F5F5F5F5F5F5F5F5F5F5F5F5F5F5F5F5F5F5F5F5F5F5F5F5F5F5F5F5F5F5F5F5F5F5F5F5F5F5F5F5F5F5F5F5F5F5F5F5F5
310
F5F5F5F5F5F5F5F5F5F5F5F5F5F5F5F5F5F5F5F5F5F5F5F5F5F5F5F5F5F5E9F5F5F5F5F5F5E2F5F5EFE2F5F5E2F5F5F5E9F5F5F5F5F5F5F5F5F5F5F5F5F5F5F5F5F5F5F5F5F5F5F5F5F5F5F5F5F5F5F5F5F5F5F5F5F5F5F5F5F5F5F5F5F5F5F5F5F5F5F5F5F5F5F5F5F5F5F5F5F5F5F5F5F5F5F5F5F5F5F5F5F5F5F5F5F5F5
310
F5F5F5F5F5F5F5F5F5F5F5F5F5F5F5F5F5F5F5F5F5F5F5F5F5F5F5F5F5F5F5F5F5F5F5F5F5F5F5F5F5F5F5F5F5F5F5F5F5F5F5F5F5F5F5F5F5F5F5F5F5F5F5F5F5F5F5F5F5F5F5F5F5F5F5F5F5F5F5F5F5F5F5E9F5F5F5F5F5F5E2F5F5EFE2F5F5E2F5F5F5E9F5F5F5F5F5F5F5F5F5F5F5F5F5F5F5F5F5F5F5F5F5F5F5F5F5
310
F5F5F5F5F5F5F5F5F5F5F5F5F5F5F5F5F5F5F5F5F5F5F5F5F5F5F5F5F5F5F5F5F5F5F5F5F5F5F5F5F5F5F5F5F5F5F5F5F5F5F5F5F5F5F5F5F5F5F5F5F5F5F5F5F5F5F5F5F5F5F5F5F5F5F5F5F5F5F5F5F5F5F5F5F5F5F5F5F5F5F5F5F5F5F5F5F5F5F5F5F5F5F5F5F5F5F5F5F5F5F5F5F5F5F5F5F5F5F5F5F5F5F5F5F5F5F5
310
F5F5F5F5F5F5F5F5F5E9F5F5F5F5F5F5E2F5F5EFE2F5F5E2F5F5F5E9F5F5F5F5F5F5F5F5F5F5F5F5F5F5F5F5F5F5F5F5F5F5F5F5F5F5F5F5F5F5F5F5F5F5F5F5F5F5F5F5F5F5F5F5F5F5F5F5F5F5F5F5F5F5F5F5F5F5F5F5F5F5F5F5F5F5F5F5F5F5F5F5F5F5F5F5F5F5F5F5F5F5F5F5F5F5F5F5F5F5F5F5F5F5F5F5F5F5F5
310
F5F5F5F5F5F5F5F5F5F5F5F5F5F5F5F5F5F5F5F5F5F5F5F5F5F5F5F5F5F5F5F5F5F5F5F5F5F5F5F5F5F5F5F5F5F5F5F5F5F5F5F5F5F5F5F5F5F5F5F5F5F5E9F5F5F5F5F5F5E2F5F5EFE2F5F5E2F5F5F5E9F5F5F5F5F5F5F5F5F5F5F5F5F5F5F5F5F5F5F5F5F5F5F5F5F5F5F5F5F5F5F5F5F5F5F5F5F5F5F5F5F5F5F5F5F5F5
310
F5F5F5F5F5F5F5F5F5F5F5F5F5F5F5F5F5F5F5F5F5F5F5F5F5F5F5F5F5F5F5F5F5F5F5F5F5F5F5F5F5F5F5F5F5F5F5F5F5F5F5F5F5F5F5F5F5F5F5F5F5F5F5F5F5F5F5F5F5F5F5F5F5F5F5F5F5F5F5F5F5F5F5F5F5F5F5F5F5F5F5F5F5F5F5F5F5F5F5F5F5F5F5F5F5F5F5F5F5F5F5F5F5F5F5E9F5F5F5F5F5F5E2F5F5EFE2
310
F5F5E2F5F5F5E9F5F5F5F5F5F5F5F5F5F5F5F5F5F5F5F5F5F5F5F5F5F5F5F5F5F5F5F5F5F5F5F5F5F5F5F5F5F5F5F5F5F5F5F5F5F5F5F5F5F5F5F5F5F5F5F5F5F5F5F5F5F5F5F5F5F5F5F5F5F5F5F5F5F5F5F5F5F5F5F5F5F5F5F5F5F5F5F5F5F5F5F5F5F5F5F5F5F5F5F5F5F5F5F5F5F5F5F5F5F5F5F5F5F5F5F5F5F5F5F5
310
F5F5F5F5F5F5F5F5F5F5F5F5F5F5F5F5F5F5F5F5F5F5F5F5F5F5F5F5F5F5F5F5F5F5F5F5F5F5F5F5F5E9F5F5F5F5F5F5E2F5F5EFE2F5F5E2F5F5F5E9F5F5F5F5F5F5F5F5F5F5F5F5F5F5F5F5F5F5F5F5F5F5F5F5F5F5F5F5F5F5F5F5F5F5F5F5F5F5F5F5F5F5F5F5F5F5F5F5F5F5F5F5F5F5F5F5F5F5F5F5F5F5F5F5F5F5F5
310
F5F5F5F5F5F5F5F5F5F5F5F5F5F5F5F5F5F5F5F5F5F5F5F5F5F5F5F5F5F5F5F5F5F5F5F5F5F5F5F5F5F5F5F5F5F5F5F5F5F5F5F5F5F5F5F5F5F5F5F5F5F5F5F5F5F5F5F5F5F5F5F5F5F5F5F5F5F5F5F5F5F5F5F5F5F5F5F5F5F5F5F5F5F5E9F5F5F5F5F5F5E2F5F5EFE2F5F5F5F5F5F5E9F5F5F5F5F5F5F5F5F5F5F5F5F5F5
310
F5F5F5F5F5F5F5F5F5F5F5F5F5F5F5F5F5F5F5F5F5F5F5F5F5F5F5F5F5F5F5F5F5F5F5F5F5F5F5F5F5F5F5F5F5F5F5F5F5F5F5F5F5F5F5F5F5F5F5F5F5F5F5F5F5F5F5F5F5F5F5F5F5F5F5F5F5F5F5F5F5F5F5F5F5F5F5F5F5F5F5F5F5F5F5F5F5F5F5F5F5F5F5F5F5F5F5F5F5F5F5F5F5F5F5F5F5F5F5F5F5F5F5F5F5F5F5
310
F5F5F5F5F5F5F5F5F5F5F5F5F5F5F5F5F5F5F5F5E9F5F5F5F5F5F5F5F5F5EFE2F5F5F5F5F5F5E9F5F5F5F5F5F5F5F5F5F5F5F5F5F5F5F5F5F5F5F5F5F5F5F5F5F5F5F5F5F5F5F5F5F5F5F5F5F5F5F5F5F5F5F5F5F5F5F5F5F5F5F5F5F5F5F5F5F5F5F5F5F5F5F5F5F5F5F5F5F5F5F5F5F5F5F5F5F5F5F5F5F5F5F5F5F5F5F5
310
F5F5F5F5F5F5F5F5F5F5F5F5F5F5F5F5F5F5F5F5F5F5F5F5F5F5F5F5F5F5F5F5F5F5F5F5F5F5F5F5F5F5F5F5F5F5F5F5F5F5F5F5F5F5F5F5F5F5F5F5F5F5F5F5F5F5F5F5F5F5F5F5F5E9F5F5F5F5F5F5F5F5F5EFE2F5F5F5F5F5F5E9F5F5F5F5F5F5F5F5F5F5F5F5F5F5F5F5F5F5F5F5F5F5F5F5F5F5F5F5F5F5F5F5F5F5F5
310
F5F5F5F5F5F5F5F5F5F5F5F5F5F5F5F5F5F5F5F5F5F5F5F5F5F5F5F5F5F5F5F5F5F5F5F5F5F5F5F5F5F5F5F5F5F5F5F5F5F5F5F5F5F5F5F5F5F5F5F5F5F5F5F5F5F5F5F5F5F5F5F5F5F5F5F5F5F5F5F5F5F5F5F5F5F5F5F5F5F5F5F5F5F5F5F5F5F5F5F5F5F5F5F5F5F5F5F5F5F5F5F5F5F5F5F5F5F5F5F5F5F5F5F5F5F5E9
310
F5F5F5F5F5F5F5F5F5EFE2F5F5F5F5F5F5E9F5F5F5F5F5F5F5F5F5F5F5F5F5F5F5F5F5F5F5F5F5F5F5F5F5F5F5F5F5F5F5F5F5F5F5F5F5F5F5F5F5F5F5F5F5F5F5F5F5F5F5F5F5F5F5F5F5F5F5F5F5F5F5F5F5F5F5F5F5F5F5F5F5F5F5F5F5F5F5F5F5F5F5F5F5F5F5F5F5F5F5F5F5F5F5F5F5F5F5F5F5F5F5F5F5F5F5F5F5
310
F5F5F5F5F5F5F5F5F5F5F5F5F5F5F5F5F5F5F5F5F5F5F5F5F5F5F5F5F5F5F5F5F5F5F5F5F5F5F5F5F5F5F5F5F5F5F5F5F5F5F5F5E9F5F5F5F5F5F5F5F5F5EFE2F5F5F5F5F5F5E9F5F5F5F5F5F5F5F5F5F5F5F5F5F5F5F5F5F5F5F5F5F5F5F5F5F5F5F5F5F5F5F5F5F5F5F5F5F5F5F5F5F5F5F5F5F5F5F5F5F5F5F5F5F5F5F5
310
F5F5F5F5F5F5F5F5F5F5F5F5F5F5F5F5F5F5F5F5F5F5F5F5F5F5F5F5F5F5F5F5F5F5F5F5F5F5F5F5F5F5F5F5F5F5F5F5F5F5F5F5F5F5F5F5F5F5F5F5F5F5F5F5F5F5F5F5F5F5F5F5F5F5F5F5F5F5F5F5F5F5F5F5F5F5F5F5F5F5F5F5F5F5F5F5F5F5F5F5F5F5F5F5F5E9F5F5F5F5F5F5F5F5F5EFE2F5F5F5F5F5F5E9F5F5F5
310
F5F5F5F5F5F5F5F5F5F5F5F5F5F5F5F5F5F5F5F5F5F5F5F5F5F5F5F5F5F5F5F5F5F5F5F5F5F5F5F5F5F5F5F5F5F5F5F5F5F5F5F5F5F5F5F5F5F5F5F5F5F5F5F5F5F5F5F5F5F5F5F5F5F5F5F5F5F5F5F5F5F5F5F5F5F5F5F5F5F5F5F5F5F5F5F5F5F5F5F5F5F5F5F5F5F5F5F5F5F5F5F5F5F5F5F5F5F5F5F5F5F5F5F5F5F5F5
310
F5F5F5F5F5F5F5F5F5F5F5F5F5F5F5F5F5F5F5F5F5F5F5F5F5F5F5F5F5F5F5E9F5F5F5F5F5F5F5F5F5EFE2F5F5F5F5F5F5E9F5F5F5F5F5F5F5F5F5F5F5F5F5F5F5F5F5F5F5F5F5F5F5F5F5F5F5F5F5F5F5F5F5F5F5F5F5F5F5F5F5F5F5F5F5F5F5F5F5F5F5F5F5F5F5F5F5F5F5F5F5F5F5F5F5F5F5F5F5F5F5F5F5F5F5F5F5
310
F5F5F5F5F5F5F5F5F5F5F5F5F5F5F5F5F5F5F5F5F5F5F5F5F5F5F5F5F5F5F5F5F5F5F5F5F5F5F5F5F5F5F5F5F5F5F5F5F5F5F5F5F5F5F5F5F5F5F5F5F5F5F5F5F5F5F5F5F5F5F5F5F5F5F5F5F5F5F5F5F5F5F5F5E9F5F5F5F5F5F5F5F5F5EFE2F5F5F5F5F5F5E9F5F5F5F5F5F5F5F5F5F5F5F5F5F5F5F5F5F5F5F5F5F5F5F5
310
F5F5F5F5F5F5F5F5F5F5F5F5F5F5F5F5F5F5F5F5F5F5F5F5F5F5F5F5F5F5F5F5F5F5F5F5F5F5F5F5F5F5F5F5F5F5F5F5F5F5F5F5F5F5F5F5F5F5F5F5F5F5F5F5F5F5F5F5F5F5F5F5F5F5F5F5F5F5F5F5F5F5F5F5F5F5F5F5F5F5F5F5F5F5F5F5F5F5F5F5F5F5F5F5F5F5F5F5F5F5F5F5F5F5F5F5F5F5F5F5F5F5F5F5F5F5F5
310
F5F5F5F5F5F5F5F5F5F5E9F5F5F5F5F5F5F5F5F5EFE2F5F5F5F5F5F5E9F5F5F5F5F5F5F5F5F5F5F5F5F5F5F5F5F5F5F5F5F5F5F5F5F5F5F5F5F5F5F5F5F5F5F5F5F5F5F5F5F5F5F5F5F5F5F5F5F5F5F5F5F5F5F5F5F5F5F5F5F5F5F5F5F5F5F5F5F5F5F5F5F5F5F5F5F5F5F5F5F5F5F5F5F5F5F5F5F5F5F5F5F5F5F5F5F5F5
310
F5F5F5F5F5F5F5F5F5F5F5F5F5F5F5F5F5F5F5F5F5F5F5F5F5F5F5F5F5F5F5F5F5F5F5F5F5F5F5F5F5F5F5F5F5F5F5F5F5F5F5F5F5F5F5F5F5F5F5F5F5F5F5E9F5F5F5F5F5F5F5F5F5EFE2F5F5E2F5F5F5E9F5F5F5F5F5F5F5F5F5F5F5F5F5F5F5F5F5F5F5F5F5F5F5F5F5F5F5F5F5F5F5F5F5F5F5F5F5F5F5F5F5F5F5F5F5
310
F5F5F5F5F5F5F5F5F5F5F5F5F5F5F5F5F5F5F5F5F5F5F5F5F5F5F5F5F5F5F5F5F5F5F5F5F5F5F5F5F5F5F5F5F5F5F5F5F5F5F5F5F5F5F5F5F5F5F5F5F5F5F5F5F5F5F5F5F5F5F5F5F5F5F5F5F5F5F5F5F5F5F5F5F5F5F5F5F5F5F5F5F5F5F5F5F5F5F5F5F5F5F5F5F5F5F5F5F5F5F5F5F5F5F5F5E9F5F5F5F5F5F5E2F5F5EF
310
E2F5F5E2F5F5F5E9F5F5F5F5F5F5F5F5F5F5F5F5F5F5F5F5F5F5F5F5F5F5F5F5F5F5F5F5F5F5F5F5F5F5F5F5F5F5F5F5F5F5F5F5F5F5F5F5F5F5F5F5F5F5F5F5F5F5F5F5F5F5F5F5F5F5F5F5F5F5F5F5F5F5F5F5F5F5F5F5F5F5F5F5F5F5F5F5F5F5F5F5F5F5F5F5F5F5F5F5F5F5F5F5F5F5F5F5F5F5F5F5F5F5F5F5F5F5F5
310
F5F5F5F5F5F5F5F5F5F5F5F5F5F5F5F5F5F5F5F5F5F5F5F5F5F5F5F5F5F5F5F5F5F5F5F5F5F5F5F5F5F5E9F5F5F5F5F5F5E2F5F5EFE2F5F5E2F5F5F5E9F5F5F5F5F5F5F5F5F5F5F5F5F5F5F5F5F5F5F5F5F5F5F5F5F5F5F5F5F5F5F5F5F5F5F5F5F5F5F5F5F5F5F5F5F5F5F5F5F5F5F5F5F5F5F5F5F5F5F5F5F5F5F5F5F5F5
310
F5F5F5F5F5F5F5F5F5F5F5F5F5F5F5F5F5F5F5F5F5F5F5F5F5F5F5F5F5F5F5F5F5F5F5F5F5F5F5F5F5F5F5F5F5F5F5F5F5F5F5F5F5F5F5F5F5F5F5F5F5F5F5F5F5F5F5F5F5F5F5F5F5F5F5F5F5F5F5F5F5F5F5F5F5F5F5F5F5F5F5F5F5F5F5E9F5F5F5F5F5F5E2F5F5EFE2F5F5E2F5F5F5E9F5F5F5F5F5F5F5F5F5F5F5F5F5
310
F5F5F5F5F5F5F5F5F5F5F5F5F5F5F5F5F5F5F5F5F5F5F5F5F5F5F5F5F5F5F5F5F5F5F5F5F5F5F5F5F5F5F5F5F5F5F5F5F5F5F5F5F5F5F5F5F5F5F5F5F5F5F5F5F5F5F5F5F5F5F5F5F5F5F5F5F5F5F5F5F5F5F5F5F5F5F5F5F5F5F5F5F5F5F5F5F5F5F5F5F5F5F5F5F5F5F5F5F5F5F5F5F5F5F5F5F5F5F5F5F5F5F5F5F5F5F5
310
F5F5F5F5F5F5F5F5F5F5F5F5F5F5F5F5F5F5F5F5F5E9F5F5F5F5F5F5E2F5F5EFE2F5F5E2F5F5F5E9F5F5F5F5F5F5F5F5F5F5F5F5F5F5F5F5F5F5F5F5F5F5F5F5F5F5F5F5F5F5F5F5F5F5F5F5F5F5F5F5F5F5F5F5F5F5F5F5F5F5F5F5F5F5F5F5F5F5F5F5F5F5F5F5F5F5F5F5F5F5F5F5F5F5F5F5F5F5F5F5F5F5F5F5F5F5F5
310
F5F5F5F5F5F5F5F5F5F5F5F5F5F5F5F5F5F5F5F5F5F5F5F5F5F5F5F5F5F5F5F5F5F5F5F5F5F5F5F5F5F5F5F5F5F5F5F5F5F5F5F5F5F5F5F5F5F5F5F5F5F5F5F5F5F5F5F5F5F5F5F5F5F5E9F5F5F5F5F5F5E2F5F5EFE2F5F5E2F5F5F5E9F5F5F5F5F5F5F5F5F5F5F5F5F5F5F5F5F5F5F5F5F5F5F5F5F5F5F5F5F5F5F5F5F5F5
310
F5F5F5F5F5F5F5F5F5F5F5F5F5F5F5F5F5F5F5F5F5F5F5F5F5F5F5F5F5F5F5F5F5F5F5F5F5F5F5F5F5F5F5F5F5F5F5F5F5F5F5F5F5F5F5F5F5F5F5F5F5F5F5F5F5F5F5F5F5F5F5F5F5F5F5F5F5F5F5F5F5F5F5F5F5F5F5F5F5F5F5F5F5F5F5F5F5F5F5F5F5F5F5F5F5F5F5F5F5F5F5F5F5F5F5F5F5F5F5F5F5F5F5F5F5F5F5
310
E9F5F5F5F5F5F5E2F5F5EFE2F5F5E2F5F5F5E9F5F5F5F5F5F5F5F5F5F5F5F5F5F5F5F5F5F5F5F5F5F5F5F5F5F5F5F5F5F5F5F5F5F5F5F5F5F5F5F5F5F5F5F5F5F5F5F5F5F5F5F5F5F5F5F5F5F5F5F5F5F5F5F5F5F5F5F5F5F5F5F5F5F5F5F5F5F5F5F5F5F5F5F5F5F5F5F5F5F5F5F5F5F5F5F5F5F5F5F5F5F5F5F5F5F5F5F5
310
F5F5F5F5F5F5F5F5F5F5F5F5F5F5F5F5F5F5F5F5F5F5F5F5F5F5F5F5F5F5F5F5F5F5F5F5F5F5F5F5F5F5F5F5F5F5F5F5F5F5F5F5F5E9F5F5F5F5F5F5E2F5F5EFE2F5F5E2F5F5F5E9F5F5F5F5F5F5F5F5F5F5F5F5F5F5F5F5F5F5F5F5F5F5F5F5F5F5F5F5F5F5F5F5F5F5F5F5F5F5F5F5F5F5F5F5F5F5F5F5F5F5F5F5F5F5F5
310
F5F5F5F5F5F5F5F5F5F5F5F5F5F5F5F5F5F5F5F5F5F5F5F5F5F5F5F5F5F5F5F5F5F5F5F5F5F5F5F5F5F5F5F5F5F5F5F5F5F5F5F5F5F5F5F5F5F5F5F5F5F5F5F5F5F5F5F5F5F5F5F5F5F5F5F5F5F5F5F5F5F5F5F5F5F5F5F5F5F5F5F5F5F5F5F5F5F5F5F5F5F5F5F5F5F5E9F5F5F5F5F5F5E2F5F5EFE2F5F5E2F5F5F5E9F5F5
310
F5F5F5F5F5F5F5F5F5F5F5F5F5F5F5F5F5F5F5F5F5F5F5F5F5F5F5F5F5F5F5F5F5F5F5F5F5F5F5F5F5F5F5F5F5F5F5F5F5F5F5F5F5F5F5F5F5F5F5F5F5F5F5F5F5F5F5F5F5F5F5F5F5F5F5F5F5F5F5F5F5F5F5F5F5F5F5F5F5F5F5F5F5F5F5F5F5F5F5F5F5F5F5F5F5F5F5F5F5F5F5F5F5F5F5F5F5F5F5F5F5F5F5F5F5F5F5
310
F5F5F5F5F5F5F5F5F5F5F5F5F5F5F5F5F5F5F5F5F5F5F5F5F5F5F5F5F5F5F5F5E9F5F5F5F5F5F5E2F5F5EFE2F5F5E2F5F5F5E9F5F5F5F5F5F5F5F5F5F5F5F5F5F5F5F5F5F5F5F5F5F5F5F5F5F5F5F5F5F5F5F5F5F5F5F5F5F5F5F5F5F5F5F5F5F5F5F5F5F5F5F5F5F5F5F5F5F5F5F5F5F5F5F5F5F5F5F5F5F5F5F5F5F5F5F5
310
F5F5F5F5F5F5F5F5F5F5F5F5F5F5F5F5F5F5F5F5F5F5F5F5F5F5F5F5F5F5F5F5F5F5F5F5F5F5F5F5F5F5F5F5F5F5F5F5F5F5F5F5F5F5F5F5F5F5F5F5F5F5F5F5F5F5F5F5F5F5F5F5F5F5F5F5F5F5F5F5F5F5F5F5F5E9F5F5F5F5F5F5E2F5F5EFE2F5F5E2F5F5F5E9F5F5F5F5F5F5F5F5F5F5F5F5F5F5F5F5F5F5F5F5F5F5F5
310
F5F5F5F5F5F5F5F5F5F5F5F5F5F5F5F5F5F5F5F5F5F5F5F5F5F5F5F5F5F5F5F5F5F5F5F5F5F5F5F5F5F5F5F5F5F5F5F5F5F5F5F5F5F5F5F5F5F5F5F5F5F5F5F5F5F5F5F5F5F5F5F5F5F5F5F5F5F5F5F5F5F5F5F5F5F5F5F5F5F5F5F5F5F5F5F5F5F5F5F5F5F5F5F5F5F5F5F5F5F5F5F5F5F5F5F5F5F5F5F5F5F5F5F5F5F5F5
310
F5F5F5F5F5F5F5F5F5F5F5E9F5F5F5F5F5F5E2F5F5EFE2F5F5E2F5F5F5E9F5F5F5F5F5F5F5F5F5F5F5F5F5F5F5F5F5F5F5F5F5F5F5F5F5F5F5F5F5F5F5F5F5F5F5F5F5F5F5F5F5F5F5F5F5F5F5F5F5F5F5F5F5F5F5F5F5F5F5F5F5F5F5F5F5F5F5F5F5F5F5F5F5F5F5F5F5F5F5F5F5F5F5F5F5F5F5F5F5F5F5F5F5F5F5F5F5
310
F5F5F5F5F5F5F5F5F5F5F5F5F5F5F5F5F5F5F5F5F5F5F5F5F5F5F5F5F5F5F5F5F5F5F5F5F5F5F5F5F5F5F5F5F5F5F5F5F5F5F5F5F5F5F5F5F5F5F5F5F5F5F5F5E9F5F5F5F5F5F5E2F5F5EFE2F5F5E2F5F5F5E9F5F5F5F5F5F5F5F5F5F5F5F5F5F5F5F5F5F5F5F5F5F5F5F5F5F5F5F5F5F5F5F5F5F5F5F5F5F5F5F5F5F5F5F5
310
F5F5F5F5F5F5F5F5F5F5F5F5F5F5F5F5F5F5F5F5F5F5F5F5F5F5F5F5F5F5F5F5F5F5F5F5F5F5F5F5F5F5F5F5F5F5F5F5F5F5F5F5F5F5F5F5F5F5F5F5F5F5F5F5F5F5F5F5F5F5F5F5F5F5F5F5F5F5F5F5F5F5F5F5F5F5F5F5F5F5F5F5F5F5F5F5F5F5F5F5F5F5F5F5F5F5F5F5F5F5F5F5F5F5F5F5F5E9F5F5F5F5F5F5E2F5F5
310
EFE2F5F5E2F5F5F5E9F5F5F5F5F5F5F5F5F5F5F5F5F5F5F5F5F5F5F5F5F5F5F5F5F5F5F5F5F5F5F5F5F5F5F5F5F5F5F5F5F5F5F5F5F5F5F5F5F5F5F5F5F5F5F5F5F5F5F5F5F5F5F5F5F5F5F5F5F5F5F5F5F5F5F5F5F5F5F5F5F5F5F5F5F5F5F5F5F5F5F5F5F5F5F5F5F5F5F5F5F5F5F5F5F5F5F5F5F5F5F5F5F5F5F5F5F5F5
310
F5F5F5F5F5F5F5F5F5F5F5F5F5F5F5F5F5F5F5F5F5F5F5F5F5F5F5F5F5F5F5F5F5F5F5F5F5F5F5F5F5F5F5E9F5F5F5F5F5F5E2F5F5EFE2F5F5E2F5F5F5E9F5F5F5F5F5F5F5F5F5F5F5F5F5F5F5F5F5F5F5F5F5F5F5F5F5F5F5F5F5F5F5F5F5F5F5F5F5F5F5F5F5F5F5F5F5F5F5F5F5F5F5F5F5F5F5F5F5F5F5F5F5F5F5F5F5
310
F5F5F5F5F5F5F5F5F5F5F5F5F5F5F5F5F5F5F5F5F5F5F5F5F5F5F5F5F5F5F5F5F5F5F5F5F5F5F5F5F5F5F5F5F5F5F5F5F5F5F5F5F5F5F5F5F5F5F5F5F5F5F5F5F5F5F5F5F5F5F5F5F5F5F5F5F5F5F5F5F5F5F5F5F5F5F5F5F5F5F5F5F5F5F5F5E9F5F5F5F5F5F5E2F5F5EFE2F5F5E2F5F5F5E9F5F5F5F5F5F5F5F5F5F5F5F5
310
F5F5F5F5F5F5F5F5F5F5F5F5F5F5F5F5F5F5F5F5F5F5F5F5F5F5F5F5F5F5F5F5F5F5F5F5F5F5F5F5F5F5F5F5F5F5F5F5F5F5F5F5F5F5F5F5F5F5F5F5F5F5F5F5F5F5F5F5F5F5F5F5F5F5F5F5F5F5F5F5F5F5F5F5F5F5F5F5F5F5F5F5F5F5F5F5F5F5F5F5F5F5F5F5F5F5F5F5F5F5F5F5F5F5F5F5F5F5F5F5F5F5F5F5F5F5F5
310
F5F5F5F5F5F5F5F5F5F5F5F5F5F5F5F5F5F5F5F5F5F5E9F5F5F5F5F5F5E2F5F5EFE2F5F5F5F5F5F5E9F5F5F5F5F5F5F5F5F5F5F5F5F5F5F5F5F5F5F5BEBEBEBEBEBEBEBEBEBEBEBEBEBEBEBEBEBEBEBEBEBEBEBEBEBEBEBEBEBEBEBEBEBEBEBEBEBEBEBEBEBEBEBEBEBEBEBEBEBEBEBEBEBEBEBEBEBEBEBEBEBEBEBEBEBEBE
310
BEBEBEBEBEBEBEBEBEBEBEBEBEBEBEBEBEBEBEBEBEBEBEBEBEBEBEBEBEBEBEBEBEBEBEBEBEBEBEBEBEBEBEBEBEBEBEBEBEBEBEBEBEBEBEBEBEBEBEBEF5F5F5F5F5F5F5F5F5F5F5F5F5F5F5E9F5F5F5F5F5F5F5F5F5EFE2F5F5F5F5F5F5E9F5F5F5F5F5F5F5F5F5F5F5F5F5F5F5F5F5F5F5BEF5F5F5F5F5F5F5F5F5BEF5BE1E
310
1E1E1E1E1E1E1E1EBEF5F5F5F5F5F5F5F5F5F5F5F5F5F5F5F5F5F5F5F5F5F5F5F5F5F5F5F5F5F5F5F5F5F5F5F5F5F5F5F5F5F5F5F5F5F5F5F5F5F5F5F5F5F5F5BE1E1E1EBEF5F5F5F5F5F5F5F5F5F5F5F5F5F5F5F5F5F5F5F5F5F5F5F5F5F5F5F5F5F5F5F5F5BE1E1E1E1E1E1E1E1E1EBEF5F5F5F5F5F5F5F5F5F5F5F5F5F5
310
F5E9F5F5F5F5F5F5F5F5F5EFE2F5F5F5F5F5F5E9F5F5F5F5F5F5F5F5F5F5F5F5F5F5F5F5F5F5F5BEF5F5F5F5F5F5F5F5F5BEF5BE1E1E1E1E1E1E1E1E1EBEF5F5F5F5F5F5F5F5F5F5F5F5F5F5F5F5F5F5F5F5F5F5F5F5F5F5F5F5F5F5F5F5F5F5F5F5F5F5F5F5F5F5F5F5F5F5F5F5F5F5F5F5F5F5F5BE1E1E1EBEF5F5F5F5F5
310
F5F5F5F5F5F5F5F5F5F5F5F5F5F5F5F5F5F5F5F5F5F5F5F5F5F5F5F5BE1E1E1E1E1E1E1E1E1EBEF5F5F5F5F5F5F5F5F5F5F5F5F5F5F5E9F5F5F5F5F5F5F5F5F5EFE2F5F5F5F5F5F5E9F5F5F5F5F5F5F5F5F5F5F5F5F5F5F5F5F5F5F5BEF5F5F5F5F5F5F5F5F5BEF5BE1E1E1E1E1E1E1E1E1EBEF5F5F5F5F5F5F5F5F5F5F5F5
310
F5F5F5F5F5F5F5F5F5F5F5F5F5F5F5F5F5F5F5F5F5F5F5F5F5F5F5F5F5F5F5F5F5F5F5F5F5F5F5F5F5F5F5BE1E1E1EBEF5F5F5F5F5F5F5F5F5F5F5F5F5F5F5F5F5F5F5F5F5F5F5F5F5F5F5F5F5F5F5F5F5BE1E1E1E1E1E1E1E1E1EBEF5F5F5F5F5F5F5F5F5F5F5F5F5F5F5E9F5F5F5F5F5F5F5F5F5EFE2F5F5F5F5F5F5E9F5
310
F5F5F5F5F5F5F5F5F5F5F5F5F5F5F5F5F5F5BEF5F5F5F5F5F5F5F5F5BEF5BE1E1E1E1E1E1E1E1E1EBEF5F5F5F5F5F5F5F5F5F5F5F5F5F5F5F5F5F5F5F5F5F5F5F5F5F5F5F5F5F5F5F5F5F5F5F5F5F5F5F5F5F5F5F5F5F5F5F5F5F5F5F5F5F5F5BE1E1E1EBEF5F5F5F5F5F5F5F5F5F5F5F5F5F5F5F5F5F5F5F5F5F5F5F5F5F5
310
F5F5F5F5F5F5F5BE1E1E1E1E1E1E1E1E1EBEF5F5F5F5F5F5F5F5F5F5F5F5F5F5F5E9F5F5F5F5F5F5F5F5F5EFE2F5F5F5F5F5F5E9F5F5F5F5F5F5F5F5F5F5F5F5F5F5F5F5F5F5F5BEBEBEBEBEBEBEBEBEBEBEF5BEBEBEBEBEBEBEBEBEBEBEECECECECECECECECECECECECECECECECECECECECECECECECECECECECECECECECEC
310
ECECECECECECECECECECECECECECECECECECECECECECBEECECECBEECECECECECECECECECECECECECECECECECECECECECECECECECECECECECECECECECBEBEBEBEBEBEBEBEBEBEBEF5F5F5F5F5F5F5F5F5F5F5F5F5F5F5E9F5F5F5F5F5F5F5F5F5EFE2F5F5F5F5F5F5E9F5F5F5F5F5F5F5F5F5F5F5F5F5F5F5F5F5F5F5F5F5F5
310
BEF5F5F5F5F5F5F5F5F5F5EC1E1E1E1E1E1E1E1E1E1E1E1E1E1E1E1EE21E1E1E1E1E1E1E1E1E1E1E1E1E1E1E1E1E1E1E1E1E1E1E1E1E1E1E1E1E1E1E1E1E1E1E1E1E1E1E1E1E1E1E1E1E1EBE1E1E1EBE1E1E1E1E1E1E1E1E1E1E1E1E1E1E1E1E1E1E1E1E1E1E1E1E1E1E1E1E1E1E1E1E1E1E1E1E1E1E1E1EECF5F5F5F5F5F5
310
F5F5F5F5F5F5F5F5F5F5F5F5E9F5F5F5F5F5F5F5F5F5EFE2F5F5F5F5F5F5E9F5F5F5F5F5F5F5F5F5F5F5F5F5F5F5F5F5F5F5F5F5F5BEF5F5F5F5F5F5F5F5F5F5EC1E1E1E1E1E1E1E1E1E1E1E1E1E1E1E1EE2E21E1E1E1E1E1E1E1E1E1E1E1E1E1E1E1E1E1E1E1E1E1E1E1E1E1E1E1E1E1E1E1E1E1E1E1E1E1E1E1E1E1E1E1E
310
1EBE1E1E1EBE1E1E1E1E1E1E1E1E1E1E1E1E1E1E1E1E1E1E1E1E1E1E1E1E1E1E1E1E1E1E1E1E1E1E1E1E1E1E1E1EECF5F5F5F5F5F5F5F5F5F5F5F5F5F5F5F5F5F5E9F5F5F5F5F5F5F5F5F5EFE2F5F5F5F5F5F5E9F5F5F5F5F5F5F5F5F5F5F5F5F5F5F5F5F5F5F5F5F5F5BEBEBEBEBEBEBEBEBEBEBEECECECECECECECECECEC
310
ECECECECECBEE2BEE2E2ECECECECECECECECECECECECECECECECECECECECECECECECECECECECECECECECECECECECECECECECECECECECBEECECECBEECECECECECECECECECECECECECECECECECECECECECECECECECECECECECECECECECECECECE2E2E2E2ECF5F5F5F5F5F5F5F5F5F5F5F5F5F5F5F5F5F5E9F5F5F5F5F5F5F5F5
310
F5EFE2F5F5E2F5F5F5E9F5F5F5F5F5F5F5F5F5F5F5F5F5F5F5F5F5F5F5F5F5F5BEF5F5F5F5F5F5F5F5F5F5EC5F1E5F1E1EE2F5F5F5F5F5F5F5F5F51BE2F5F5F5F5F5F5F5F5F5F51717F5F5F5F5F5F5F5F5F517E2E2F5F5F5F5F5F5F5F5F5F5F5F5F5F5F5F5F5F5F5F5F5E21E1E1E1E1EE2F5F5F5F5F5F5F5F5F5F5F5F5F5F5
310
F5F5F5F5F5F5F5F5F5F5F5F5F5F5F5F5F5F5F5F5E21E1E5F1EECF5F5F5F5F5F5F5F5F5F5F5F5F5F5F5F5F5F5E9F5F5F5F5F5F5E2F5F5EFE2F5F5E2F5F5F5E9F5F5F5F5F5F5F5F5F5F5F5F5F5F5F5F5F5F5F5F5F5F5BEF5F5F5F5F5F5F5F5F5F5EC5F1E5F1E1EE2F5F5F5F5F5F5F5F51BE2E2F5F5F5F5F5F5F5F5F5F51717F5
310
F5F5F5F5F5F5F5F517E2E2F5F5F5F5F5F5F5F5F5F5F5F5F5F5F5F5F5F5F5F5F5E21E1E1E1E1E1EE2E2F5F5F5F5F5F5F5F5F5F5F5F5F5F5F5F5F5F5F5F5F5F5F5F5F5F5F5F5F5F5F5F5E21E1E5F1EECF5F5F5F5F5F5F5F5F5F5F5F5F5F5F5F5F5F5E9F5F5F5F5F5F5E2F5F5EFE2F5F5E2F5F5F5E9F5F5F5F5F5F5F5F5F5F5F5
310
F5F5F5F5F5F5F5F5F5F5F5BEF5F5F5F5F5F5F5F5F5F5EC5F1E5F1E1EE2F5F5F5F5F5F5F5F5F5F5E227272727F52727F5F5F51717F5F5F5F5F5F5F5F5F517E2E2F5F5F5F5F5F5F5F5F5F5F5F5F5F5F5F5F5F5F5F5F5E2E2E2E25F1E1E1E1EE2F5F5F5F5F5F5F5F5F5F5F5F5F5F5F5F5F5F5F5F5F5F5F5F5F5F5F5F5F5F5F5E2
310
1E1E5F1EECF5F5F5F5F5F5F5F5F5F5F5F5F5F5F5F5F5F5E9F5F5F5F5F5F5E2F5F5EFE2F5F5E2F5F5F5E9F5F5F5F5F5F5F5F5F5F5F5F5F5F5F5F5F5F5F5F5F5F5BEF5F5F5F5F5F5F5F5F5F5EC5F1E5F1E1EE2F5F5F5F5F5F5F5F52727E2F527F5F5272727F5F5F51717F5F5F5F5F5F5F5F5F517E2E2F5F5F5F5F5F5F5F5F5F5
310
F5F5F5F5F5F5F5F5F5F5F5F5F5F5E25F1E1E1E1E1EE2F5F5F5F5F5F5F5F5F5F5F5F5F5F5F5F5F5F5F5F5F5F5F5F5F5F5F5F5F5F5E21E1E5F1EECF5F5F5F5F5F5F5F5F5F5F5F5F5F5F5F5F5F5E9F5F5F5F5F5F5E2F5F5EFE2F5F5E2F5F5F5E9F5F5F5F5F5F5F5F5F5F5F5F5F5F5F5F5F5F5F5F5F5F5BEF5F5F5F5F5F5F5F5F5
310
F5EC5F1E5F1E1EE2F5F5F5F5F5F5F5F5F5F5E22727F527272727F5F5F51717F5F5F5F5F5F5F5F5F517E2E2F5F5F5F5F5F5F5F5F5F5F5F5F5F5F5F5F5F5F5F5F5F5F5F5E2E2E2E2E21E1E1EE2E2F5F5F5F5F5F5F5F5F5F5F5F5F5F5F5F5F5F5F5F5F5F5F5F5F5F5F5F5E21E1E5F1EECF5F5F5F5F5F5F5F5F5F5F5F5F5F5F5F5
310
F5F5E9F5F5F5F5F5F5E2F5F5EFE2F5F5E2F5F5F5E9F5F5F5F5F5F5F5F5F5F5F5F5F5F5F5F5F5F5F5F5F5F5BEF5F5F5F5F5F5F5F5F5F5EC5F1E5F1E1EE2F5F5F5F5F5F5F5F5F5F5E2F5F5F5F5F5F5F5F5F5F51717F5F5F5F5F5F5F5F5F517E2E2F5F5F5F5F5F5F5F5F5F5F5F5F5F5F5F5F5F5F5F5F5F5F5F5F5F5F517E21E1E
310
1E1E1EE2F5F5F5F5F5F5F5F5F5F5F5F5F5F5F5F5F5F5F5F5F5F5F5F5F5F5F5E21E1E5F1EECF5F5F5F5F5F5F5F5F5F5F5F5F5F5F5F5F5F5E9F5F5F5F5F5F5E2F5F5EFE2F5F5E2F5F5F5E9F5F5F5F5F5F5F5F5F5F5F5F5F5F5F5F5F5F5F5F5F5F5BEF5F5F5F5F5F5F5F5F5F5EC5F1E5F1E1EE2F5F5F5F5F5F5F5F5F5F5E2F5F5
310
F5F5F5F5F5F5F5F51717F5F5F5F5F5F5F5F5F517E2E2F5F5F5F5F5F5F5F5F5F5F5F5F5F5F5F5F5F5F5F5F5F5F5F5F5F5F517E25F5F5F1E1E1EE21EF5F5F5F5F5F5F5F5F5F5F5F5F5F5F5F5F5F5F5F5F5F5F5F5F5E21E1E5F1EECF5F5F5F5F5F5F5F5F5F5F5F5F5F5F5F5F5F5E9F5F5F5F5F5F5E2F5F5EFE2F5F5E2F5F5F5E9
310
F5F5F5F5F5F5F5F5F5F5F5F5F5F5F5F5F5F5F5F5F5F5BEF5F5F5F5F5F5F5F5F5F5EC5F1E5F1E1EE2F5F5F5F5F5F5F5F5F5F5E2F5F5F5F5F5F5F5F5F5F51717F5F5F5F5F5F5F5F5F517E2E2F5F5F5F5F5F5F5F5F5F5F5F5F5F5F5F5F5F5F5F5F5F5F5F5F5F5F517E2E2E2E21E1E1E1EE2E2F5F5F5F5F5F5F5F5F5F5F5F5F5F5
310
F5F5F5F5F5F5F5F5F5F5E21E1E5F1EECF5F5F5F5F5F5F5F5F5F5F5F5F5F5F5F5F5F5E9F5F5F5F5F5F5E2F5F5EFE2F5F5E2F5F5F5E9F5F5F5F5F5F5F5F5F5F5F5F5F5F5F5F5F5F5F5F5F5F5BEF5F5F5F5F5F5F5F5F5F5EC5F1E5F1E1EE2F5F5F5F5F5F5F5F5F5F5E2F5F5F5F5F5F5F5F5F5F51717F5F5F5F5F5F5F5F5F517E2
310
E2F5F5F5F5F5F5F5F5F5F5F5F5F5F5F5F5F5F5F5F5F5F5F5F5F5F5F51717F5F5E21E1E1E1E1E1EE2F5F5F5F5F5F5F5F5F5F5F5F5F5F5F5F5F5F5F5F5F5F5F5E21E1E5F1EECF5F5F5F5F5F5F5F5F5F5F5F5F5F5F5F5F5F5E9F5F5F5F5F5F5E2F5F5EFE2F5F5E2F5F5F5E9F5F5F5F5F5F5F5F5F5F5F5F5F5F5F5F5F5F5F5F5F5
310
F5BEF5F5F5F5F5F5F5F5F5F5EC5F1E5F1E1EE2F5F5F5F5F5F5F5F5F5F5E2F5F5F5F5F5F5F5F5F5F51717F5F5F5F5F5F5F5F5F517E2E2F5F5F5F5F5F5F5F5F5F5F5F5F5F5F5F5F5F5F5F5F5F5F5F5F5F5F51717F5F5E2E2E2E25F1E1E1EE2F5F5F5F5F5F5F5F5F5F5F5F5F5F5F5F5F5F5F5F5F5F5E21E1E5F1EECF5F5F5F5F5
310
F5F5F5F5F5F5F5F5F5F5F5F5F5E9F5F5F5F5F5F5E2F5F5EFE2F5F5E2F5F5F5E9F5F5F5F5F5F5F5F5F5F5F5F5F5F5F5F5F5F5F5F5F5F5BEF5F5F5F5F5F5F5F5F5F5EC5F1E5F1E1EE2F5F5F5F5F5F5F5F5F5F5E2F5F5F5F5F5F5F5F5F5F51717F5F5F5F5F5F5F5F5F517E2E2F5F5F5F5F5F5F5F5F5F5F5F5F5F5F5F5F5F5F5F5
310
F5F5F5F5F5F5F5171717F5F5F5F5E25F1E1E1E1EE2E2F5F5F5F5F5F5F5F5F5F5F5F5F5F5F5F5F5F5F5F5E21E1E5F1EECF5F5F5F5F5F5F5F5F5F5F5F5F5F5F5F5F5F5E9F5F5F5F5F5F5E2F5F5EFE2F5F5E2F5F5F5E9F5F5F5F5F5F5F5F5F5F5F5F5F5F5F5F5F5F5F5F5F5F5BEF5F5F5F5F5F5F5F5F5F5EC5F1E5F1E1EE2F5F5
310
F5F5F5F5F5F5F527E2F5F5F5F5F5F5F5F5F5F51717F5F5F5F5F5F5F5F5F517E2E2F5F5F5F5F5F5F5F5F5F5F5F5F5F5F5F5F5F5F5F5F5F5F5F5F5F5F51717171717F5F5E25F5F5F5F1E1E1EE2F5F5F5F5F5F5F5F5F5F5F5F5F5F5F5F5F5F5F5E21E1E5F1EECF5F5F5F5F5F5F5F5F5F5F5F5F5F5F5F5F5F5E9F5F5F5F5F5F5E2
310
F5F5EFE2F5F5E2F5F5F5E9F5F5F5F5F5F5F5F5F5F5F5F5F5F5F5F5F5F5F5F5F5F5BEF5F5F5F5F5F5F5F5F5F5EC5F1E5F1E1EE2F5F5F5F5F52727F52727E2F5F5F5F5F5F5F5F5F5F51717F5F5F5F5F5F5F5F5F517E2E2F5F5F5F5F5F5F5F5F5F5F5F5F5F5F5F5F5F5F5F5F5F5F5F5F5F5F5171717171717F5E2E2E2E2E21E1E
310
1E1EE21EF5F5F5F5F5F5F5F5F5F5F5F5F5F5F5F5F5E21E1E5F1EECF5F5F5F5F5F5F5F5F5F5F5F5F5F5F5F5F5F5E9F5F5F5F5F5F5E2F5F5EFE2F5F5E2F5F5F5E9F5F5F5F5F5F5F5F5F5F5F5F5F5F5F5F5F5F5F5F5F5F5BEF5F5F5F5F5F5F5F5F5F5EC5F1E5F1E1EE2F5F5F5F5F5272727F527E2F5F5F5F5F5F5F5F5F5F51717
310
F5F5F5F5F5F5F5F5F517E2E2F5F5F5F5F5F5F5F5F5F5F5F5F5F5F5F5F5F5F5F5F5F5F5F5F5F5F5171717F5171717F5F5F5F5E21E1E1E1E1EE2E2F5F5F5F5F5F5F5F5F5F5F5F5F5F5F5F5E21E1E5F1EECF5F5F5F5F5F5F5F5F5F5F5F5F5F5F5F5F5F5E9F5F5F5F5F5F5E2F5F5EFE2F5F5E2F5F5F5E9F5F5F5F5F5F5F5F5F5F5
310
F5F5F5F5F5F5F5F5F5F5F5F5BEF5F5F5F5F5F5F5F5F5F5EC5F1E5F1E1EE2F5F5F5F5F52727F5F527E2F5F5F5F5F5F5F5F5F5F51717F5F5F5F5F5F5F5F5F517E2E2F5F5F5F5F5F5F5F5F5F5F5F5F5F5F5F5F5F5F5F5F5F5F5F5F5F5F5171717171717171717F5F5E2E2E2E21E1E1E1EE2F5F5F5F5F5F5F5F5F5F5F5F5F5F5F5
310
E21E1E5F1EECF5F5F5F5F5F5F5F5F5F5F5F5F5F5F5F5F5F5E9F5F5F5F5F5F5E2F5F5EFE2F5F5E2F5F5F5E9F5F5F5F5F5F5F5F5F5F5F5F5F5F5F5F5F5F5F5F5F5F5BEF5F5F5F5F5F5F5F5F5F5EC5F1E5F1E1EE2F5F5F5F5F52727F527F5E2F5F5F5F5F5F5F5F5F5F51717F5F5F5F5F5F5F5F5F517E2E2F5F5F5F5F5F5F5F5F5
310
F5F5F5F5F5F5F5F5F5F5F5F5F5F5F5F5F5F517171717171717171717F5F5F5F5E21E1E1E1E1EE21EF5F5F5F5F5F5F5F5F5F5F5F5F5E21E1E5F1EECF5F5F5F5F5F5F5F5F5F5F5F5F5F5F5F5F5F5E9F5F5F5F5F5F5E2F5F5EFE2F5F5F5F5F5F5E9F5F5F5F5F5F5F5F5F5F5F5F5F5F5F5F5F5F5F5F5F5F5BEF5F5F5F5F5F5F5F5
310
F5F5EC5F1E5F1E1EE2F5F5F5F5F52727F5F527E2F5F5F5F5F5F5F5F5F5F51717F5F5F5F5F5F5F5F5F517E2E2F5F5F5F5F5F5F5F5F5F5F5F5F5F5F5F5F5F5F5F5F5F5F5F5F5F5F5171717F5171717F5171717F5F5F5E2E2E2E25F1E1EE2E2F5F5F5F5F5F5F5F5F5F5F5F5E21E1E5F1EECF5F5F5F5F5F5F5F5F5F5F5F5F5F5F5
310
F5F5F5E9F5F5F5F5F5F5F5F5F5EFE2F5F5F5F5F5F5E9F5F5F5F5F5F5F5F5F5F5F5F5F5F5F5F5F5F5F5F5F5F5BEF5F5F5F5F5F5F5F5F5F5EC5F1E5F1E1EE2F5F5F5F5F527272727F5E2F5F5F5F5F5F5F5F5F5F51717F5F5F5F5F5F5F5F5F517E2E2F5F5F5F5F5F5F5F5F5F5F5F5F5F5F5F5F5F5F5F5F5F5F5F5F5F5F5171717
310
17171717171717171717F5F5F5F5E25F1E1E1E1EE21EF5F5F5F5F5F5F5F5F5F5E21E1E5F1EECF5F5F5F5F5F5F5F5F5F5F5F5F5F5F5F5F5F5E9F5F5F5F5F5F5F5F5F5EFE2F5F5F5F5F5F5E9F5F5F5F5F5F5F5F5F5F5F5F5F5F5F5F5F5F5F5F5F5F5BEF5F5F5F5F5F5F5F5F5F5EC5F1E5F1E1EE2F5F5F5F5F5F5F5F5F5F5E2F5
310
F5F5F5F5F5F5F5F5F51717F5F5F5F5F5F5F5F5F517E2E2F5F5F5F5F5F5F5F5F5F5F5F5F5F5F5F5F5F5F5F5F5F5F5F5F5F5F5F517F5F5171717171717F5171717F5F5F5E25F5F5FE21E1EE21EF5F5F5F5F5F5F5F5F5E21E1E5F1EECF5F5F5F5F5F5F5F5F5F5F5F5F5F5F5F5F5F5E9F5F5F5F5F5F5F5F5F5EFE2F5F5F5F5F5F5
310
E9F5F5F5F5F5F5F5F5F5F5F5F5F5F5F5F5F5F5F5F5F5F5BEF5F5F5F5F5F5F5F5F5F5EC5F1E5F1E1EE2F5F5F5F5F52727272727E2F5F5F5F5F5F5F5F5F5F51717F5F5F5F5F5F5F5F5F517E2E2F5F5F5F5F5F5F5F5F5F5F5F5F5F5F5F5F5F5F5F5F5F5F5F5F5F5F5F51717F5F51717F5171717F5171717F5F5E2E2E2E2E21E1E
310
1EE2E2F5F5F5F5F5F5F5F5E21E1E5F1EECF5F5F5F5F5F5F5F5F5F5F5F5F5F5F5F5F5F5E9F5F5F5F5F5F5F5F5F5EFE2F5F5F5F5F5F5E9F5F5F5F5F5F5F5F5F5F5F5F5F5F5F5F5F5F5F5F5F5F5BEF5F5F5F5F5F5F5F5F5F5EC5F1E5F1E1EE2F5F5F5F5F5F5F5F5F5F5E2F5F5F5F5F5F5F5F5F5F51717F5F5F5F5F5F5F5F5F517
310
E2E2F5F5F5F5F5F5F5F5F5F5F5F5F5F5F5F5F5F5F5F5F5F5F5F5F5F5F5F5F5171717F517171717171717F5171717F5F5F5F5E21E1E1E1E1EE2F5F5F5F5F5F5F5E21E1E5F1EECF5F5F5F5F5F5F5F5F5F5F5F5F5F5F5F5F5F5E9F5F5F5F5F5F5F5F5F5EFE2F5F5F5F5F5F5E9F5F5F5F5F5F5F5F5F5F5F5F5F5F5F5F5F5F5F5F5
310
F5F5BEF5F5F5F5F5F5F5F5F5F5EC5F1E5F1E1EE2F5F5F5F5F5F5F5F5F5F5E2F5F5F5F5F5F5F5F5F5F51717F5F5F5F5F5F5F5F5F517E2E2F5F5F5F5F5F5F5F5F5F5F5F5F5F5F5F5F5F5F5F5F5F5F5F5F5F5F5F5F5F5F51717F5F527272727272727272727272727BEBEBEBE1E1E1EBEBEBEBEBEBEBEBE1E1E5F1EECF5F5F5F5
310
F5F5F5F5F5F5F5F5F5F5F5F5F5F5E9F5F5F5F5F5F5F5F5F5EFE2F5F5F5F5F5F5E9F5F5F5F5F5F5F5F5F5F5F5F5F5F5F5F5F5F5F5F5F5F5BEF5F5F5F5F5F5F5F5F5F5EC5F1E5F1E1EE2F5F5F5F5F5F5F5F5F5F5E2F5F5F5F5F5F5F5F5F5F51717F5F5F5F5F5F5F5F5F517E2E2F5F5F5F5F5F5F5F5F5F5F5F5F5F5F5F5F5F5F5
310
F5F5F5F5F5F5F5F5F5F5F5F5F5172727F51717F5171717F5171717F5F517F5F5BE1E1E1E1E1E1E1E1E1E1EE21E1E5F1EECE2E2E2E2E2E2E2E2E2E2E217F5F5F5F5F5F5E9F5F5F5F5F5F5F5F5F5EFE2F5F5F5F5F5F5E9F5F5F5F5F5F5F5F5F5F5F5F5F5F5F5F5F5F5F5F5F5F5BEF5F5F5F5F5F5F5F5F5F5EC5F1E5F1E1EE2F5
310
F5F5F5F5F5F5F5F5F5E2F5F5F5F5F5F5F5F5F5F51717F5F5F5F5F5F5F5F5F517E2E2F5F5F5F5F5F5F5F5F5F5F5F5F5F5F5F5F5F5F5F5F5F5F5F5F5F5F5F5F5F5F5272717171717F51717F5171717F517171717F5F5BEBEBEBEBEBEBEBEBEBEBEBE1E1E5F1EECE2F5F5F5F5F5F5F5F5F5E217F5F5F5F5F5F5E9F5F5F5F5F5F5
310
F5F5F5EFE2F5F5E2F5F5F5E9F5F5F5F5F5F5F5F5F5F5F5F5F5F5F5F5F5F5F5F5F5F5BEF5F5F5F5F5F5F5F5F5F5EC5F1E5F1E1EE2F5F5F5F5F5F5F5F5F5F5E2F5F5F5F5F5F5F5F5F5F51717F5F5F5F5F5F5F5F5F517E2E2F5F5F5F5F5F5F5F5F5F5F5F5F5F5F5F5F5F5F5F5F5F5F5F5F5F5F5F5F5F527F5F5F5F52727272727
310
2727272727272727272727BEBEBEBEBEBEBEBEBEBEBEBEE2E2E2E2ECE2E2E2E2E2E2E2E2E2E2E2E2E2E2E2E2F5F5E9F5F5F5F5F5F5E2F5F5EFE2F5F5E2F5F5F5E9F5F5F5F5F5F5F5F5F5F5F5F5F5F5F5F5F5F5F5F5F5F5BEF5F5F5F5F5F5F5F5F5F5EC5F1E5F1E1EE2F5F5F5F5F5F5F5F5F5F5E2F5F5F5F5F5F5F5F5F5F517
310
1717171717171717171717E2E2F5F5F5F5F5F5F5F5F5F5F5F5F5F5F5F5F5F5F5F5F5F5F5F5F5F5F5F52727F5F5F5F5F5171717F527F517F5171717F517172727F5F5F5F5F5F5F5F5F5F5F5F5F55F5FF5F517F5F5F5F5F5F5F5F517E2E2E2E2E2E2F5F5E9F5F5F5F5F5F5E2F5F5EFE2F5F5E2F5F5F5E9F5F5F5F5F5F5F5F5F5
310
F5F5F5F5F5F5F5F5F5F5F5F5F5BEF5F5F5F5F5F5F5F5F5F5EC5F1E5F1E1EE2F5F5F5F5F5F5F5F5F5F5E2F5F5F5F5F5F5F5F5F5F5171717171717171717171717E2E2F5F5F5F5F5F5F5F5F5F5F5F5F5F5F5F5F5F5F5F5F5F5F5F5F5F5F527F5F5F5F517171717171717271717171717171717172727F5F5F5F5F5F5F5F5F5F5
310
F5F5F55F5FF5F517F5F5F5F5F5F5F5F5F5F5F5F5F517E2F5F5E9F5F5F5F5F5F5E2F5F5EFE2F5F5E2F5F5F5E9F5F5F5F5F5F5F5F5F5F5F5F5F5F5F5F5F5F5F5F5F5F5BEF5F5F5F5F5F5F5F5F5F5EC5F1E5F1E1EE2F5F5F5F5F5F5F5F5F5F5E2F5F5F5F5F5F5F5F5F5F5F5F5F5F5F5F5F5F5F5F5F5F5E2E2F5F5F5F5F5F5F5F5
310
F5F5F5F5F5F5F5F5F5F5F5F5F5F5F5F5F52727F5F5F5F5F517F5F51717F5F52717F5F51717F51717172727F5F5F5F5F5F5F5F5F5F5F5F5F55F5FF5F517F5F5F5F5F5F5F5F5F5F5F5F5F517E2F5F5E9F5F5F5F5F5F5E2F5F5EFE2F5F5E2F5F5F5E9BE1B1BECECECECECECECECECECECECECECECECECECECECECECECECECECEC
310
ECECECEC5F5F5F5F5FE2F5F5F5F5F5F5F5F5F5F5E2F5F5F5F5F5F5F5F5F5F5F5F5F5F5F5F5F5F5F5F5F5F5E2E2F5F5F5F5F5F5F5F5F5F5F5F5F5F5F5F5F5F5F5F5F5F5F52727F5F5F51717171717F5F517171717271717171717171717172727F5F5F5F5F5F5F5F5F5F5F5F5F55F5FF5F517F5F5F5F5F5F5F5F5F5F5F5F5F5
310
F5F5F5F5E9F5F5F5F5F5F5E2F5F5EFE2F5F5E2F5F5F5E9F51B1BF5F5F5F5F5E2F5F5F5F5F5F5F5F5F5F5F5F5F5F5F5F5F5F5F5F5F5F5F5F55F5F1E5F1E1EE2F5F5F5F5F5F5F5F5F5F5E2F5F5F5F5F5F5F5F5F5F5F5F5F5F5F5F5F5F5F5F5F5F5E2E2F5F5F5F5F5F5F5F5F5F5F5F5F5F5F5F5F5F5F5F5F5F527F5F5F5F5F517
310
17F5F5F5171717171717271717171717171717172727F5F5F5F5F5F5F5F5F5F5F5F5F55F5FF5F517F5F5F5F5F5F5F5F5F5F5F5F5F5F5F5F5F5E9F5F5F5F5F5F5E2F5F5EFE2F5F5E2F5F5F5E91B1B1BF5F5F5F5F5E2E2E2E2E25F5F5F5F5F5F5F5F5F5F5F5F5F5F5F5F5F5F5F5F5F5F1E5F1E1EE2F5F5F5F5F5F5F5F5F5F5E2
310
E2F5F5F5F5F5F5F5F5F5F5F5F5F5F5F5F5F5F5F5F5F5E2E2F5F5F5F5F5F5F5F5F5F5F5F5F5F5F5F5F5F5F5F52727F5F5F51717171717F5F51717171717F5F527F5F5F51717F5F517172727F5F5F5F5F5F5F5F5F5F5F5F5F55F5FF5F517F5F5F5F5F5F5F5F5F5F5F5F5F5F5F5F5F5E9F5F5F5F5F5F5E2F5F5EFE2F5F5E2F5F5
310
F5E9F5F5F527272727F527F5F5F5E2F5F5F5F5F5F5F5F5F5F5F5F5F5F5F5F5F5F5F5F55F5F1E5F1E1E272727272727272727E2BEE2E2E22727272727272727272727272727272727272727272727272727272727272727272727272727272727ECF5F5F5F5F517F5F5F5F51717171717171717172717171717171717171727
310
27F5F5F5F5F5F5F5F5F5F5F5F5F55F5FF5F517F5F5F5F5F5F5F5F5F5F5F5F5F5F5F5F5F5E9F5F5F5F5F5F5E2F5F5EFE2F5F5E2F5F5F5E92727272727272727F527F5F5E2E2E2E2E25F5F5F5F5F5F5F5F5F5F5F5F5F5F5F5F5F5F1E5F1E1EE21E1E1E1E1E1E1E1E1E1EE21E1E1E1E1E1E1E1E1E1E1E1E1E1E1E1E1E1E1E1E1E
310
1E1E1E1E1E1E1E1E1E1E1E1E1E1E1E1E1E1E1E1E1E1EECF51717171717F5F5F51717F517F5F517171717271717171717171717172727F5F5F5F5F5F5F5F5F5F5F5F5F55F5FF5F517F5F5F5F5F5F5F5F5F5F5F5F5F5F5F5F5F5E9F5F5F5F5F5F5E2F5F5EFE2F5F5E2F5F5F5E9F5F5272727F527272727F5F5F517F5F5E2F5F5
310
F5F5F5F5F5F5F5F5F5F5F5F5F5F55F5F1E5F1E1EE21E1E1E1E1E1E1E1E1EE2E2E21E1E1E1E1E1E1E1E1E1E1E1E1E1E1E1E1E1E1E1E1E1E1E1E1E1E1E1E1E1E1E1E1E1E1E1E1E1E1E1E1E1EECF51717F5F5F5F5F517171717F517171717F5F527F5F5F5F5F5F5F517172727F5F5F5F5F5F5F5F5F5F5F5F5F55F5FF5F517F5F5
310
F5F5F5F5F5F5F5F5F5F5F5F5F5F5F5E9F5F5F5F5F5F5E2F5F5EFE2F5F5E2F5F5F5E9F5F5F5F5F5F5F5F5F5F5F5F5F517F5F5E2E2E2E2E2E2E2E2E2E2E2E2E2E2E2E2E2E2E2E2E2E2E2E217171717171717171B1BE2E2E21717171717171717E21717BE17171717171717171717171717171717171717171717171717272727
310
27EC272727F5F5F51717F517F5171717171717F5F527F5F5F5F5F5F5F517172727F5F5F5F5F5F5F5F5F5F5F5F5F55F5FF5F517F5F5F5F5F5F5F5F5F5F5F5F5F5F5F5F5F5E9F5F5F5F5F5F5E2F5F5EFE2F5F5E2F5F5F5E9F5F5F5F5F5F5F5F5F5F5F5F5F5171717171717171717171717171717F5F5F5F5F517F5175F5FF517
310
F5F5F5F5F5F5F5F5F51B1BF5F5F5F5F5F5F5F5F517E217F5F5F5F5F5F5F5F5F5F5F517F517F5F5F5F5F5F5F5F5F5F5F5F5F5E21E1E1E1EECECF5F5F51717171717171717F5F517171717271717171717171717172727F5F5F5F5F5F5F5F5F5F5F5F5F55F5FF5F517F5F5F5F5F5F5F5F5F5F5F5F5F5F5F5F5F5E9F5F5F5F5F5
310
F5E2F5F5EFE2F5F5E2F5F5F5E9F5F5F5F5F5F5F5F5F5F5F5F5F5F51717F517F5F5F5F5F5F5F5F5F517F5F5F5F5F517F517E25FF517F5F5F5F5F5F5F5F51B1B1BF5F5F5F5F5F5F5F5F517E217F5F5F5F5F5F5F5F5F5F5F517F517F5F5F5F5F5F5F5F5F5F5F5F5F5E21E1E1E1E1E1EEC1717F5171717171717F5171717171717
310
271717171717171717172727F5F5F5F5F5F5F5F5F5F5F5F5F55F5FF5F517F5F5F5F5F5F5F5F5F5F5F5F5F5F5F5F5F5E9F5F5F5F5F5F5E2F5F5EFE2F5F5E2F5F5F5E9F5F5F5F5F5F5F5F5F5F5F5F5F5F5F517F517F5F5F5F5F5F5F5F5F517F5F5F5F5F517F517E25FF517F5F5F5F5F5F5F5F527272727272727272727F5F517
310
E217F5F5F5F5F5F5F5F5F5F5F517F517F5F5F5F5F5F5F5F5F5F5F5F5F5E2E2E2E25F1E1E1EECEC1717F51717F51717F5F51717F5F527F5F5F5F5F5F5F5F5F52727F5F5F5F5F5F5F5F5F5F5F5F5F55F5FF5F517F5F5F5F5F5F5F5F5F5F5F5F5F5F5F5F5F5E9F5F5F5F5F5F5E2F5F5EFE2F5F5E2F5F5F5E9F5F5F5F5F5F5F5F5
310
F5F5F5F5F5F5F5171717F5F5F5F5F5F5F5F5F517F5F5F5F5F517F517E25FF517F5F5F5F5F5F5F5F5F527E227272727272727F5F517E217F5F5F5F5F5F5F5F5F5F5F517F517F5F5F5F5F5F5F5F5F5F5F5F5F5F5F5F5E25F1E1E1E1E1EEC171717F517F5F5171717F5F5F527F5F5F5F5F5F5F5F5F52727F5F5F5F5F5F5F5F5F5
310
F5F5F5F55F5FF5F517F5F5F5F5F5F5F5F5F5F5F5F5F5F5F5F5F5E9F5F5F5F5F5F5E2F5F5EFE2F5F5E2F5F5F5E9F5F5F5F5F5F5F5F5F5F5F5F5F5F5F5F5F5F5F5F5F5F5F5F5F5F5F517F5F5F5F5F517F517E25FF517F5F5F5F5F5F5F5F52727272727F527272727F5F517E217F5F5F5F5F5F5F5F5F5F5F517F517F5F5F5F5F5
310
F5F5F5F5F5F5F5F5F5F5F5E2E2E2E2E21E1E1EECF51717F5F51717F5F5F5F5F527F5F5F5F5F5F5F5F5F52727F5F5F5F5F5F5F5F5F5F5F5F5F55F5FF5F517F5F5F5F5F5F5F5F5F5F5F5F5F5F5F5F5F5E9F5F5F5F5F5F5E2F5F5EFE2F5F5F5F5F5F5E9F5F5F5F5F5F5F5F5F5F5F5F5F5F5F5F5F5F5F5F5F5F5F5F5F5F5F517F5
310
F5F5F5F517F517E25FF517F5F5F5F5F5F5F5F5F5F5E2F5F5F5F5F5F5F5F5F517E217F5F5F5F5F5F5F5F5F5F5F517F517F5F5F5F5F5F5F5F5F5F5F5F5F5F5F5F517F5F517E21E1E1E1EECECF5171717F5F5F5F5F5F527F5F5F5F5F5F5F5F5F52727F5F5F5F5F5F5F5F5F5F5F5F5F55F5FF5F517F5F5F5F5F5F5F5F5F5F5F5F5
310
F5F5F5F5F5E9F5F5F5F5F5F5F5F5F5EFE2F5F5F5F5F5F5E9F5F5F5F5F5F5F5F5F5F5F5F5F5F5F5F5F5F5F5F5F5F5F5F5F5F5F517F5F5F5F5F517F517E25FF517F5F5F5F5F5F5F5F5F5F5E2F5F5F5F5F5F5F5F5F517E217F5F5F5F5F5F5F5F5F5F5F517F517F5F5F5F5F5F5F5F5F5F5F5F5F5F5F5F517F5F517E2E2E2E25F1E
310
1EEC1717F5F5F5F5F5F5F527F5F5F5F5F5F5F5F5F52727F5F5F5F5F5F5F5F5F5F5F5F5F55F5FF5F517F5F5F5F5F5F5F5F5F5F5F5F5F5F5F5F5F5E9F5F5F5F5F5F5F5F5F5EFE2F5F5F5F5F5F5E9F5F5F5F5F5F5F5F5F5F5F5F5F5F5F5F5F5F5F5F5F5F5F5F5F5F5F517F5F5F5F5F517F517E25FF517F5F5F5F5F5F5F5F5F5F5
310
E2F5F5F5F5F5F5F5F5F517E217F5F5F5F5F5F5F5F5F5F5F51717171717171717171717171717171717171717171717171717E25F1E1E1EECECF5F5F5F5F5F5F527F5F5F5F5F5F5F5F5F52727F5F5F5F5F5F5F5F5F5F5F5F5F55F5FF5F517F5F5F5F5F5F5F5F5F5F5F5F5F5F5F5F5F5E9F5F5F5F5F5F5F5F5F5EFE2F5F5F5F5
310
F5F5E9F5F5F5F5F5F5F5F5F5F5F5F5F5F5F5F5F5F5F5F5F5F5F5F5F5F5F517F5F5F5F5F517F517E25FF517F5F5F5F5F5F5F5F5F5F5E2F5F5F5F5F5F5F5F5F517E217F5F5F5F5F5F5F5F5F5F5F5171717171717171717171717171717171717171717171717F5F5E25F1E1E1E1E1EECF5F5F5F5F5F527F5F5F5F5F5F5F5F5F5
310
2727F5F5F5F5F5F5F5F5F5F5F5F5F55F5FF5F517F5F5F5F5F5F5F5F5F5F5F5F5F5F5F5F5F5E9F5F5F5F5F5F5F5F5F5EFE2F5F5F5F5F5F5E9F5F5F5F5F5F5F5F5F5F5F5F5F5F5F5F5F5F5F5F5F5F5F5F5F5F5F517F5F5F5F5F517F517E25FF517F5F5F5F5F5F5F5F5F5F5E2F5F5F5F5F5F5F5F5F517E217F5F5F5F5F5F5F5F5
310
F5F5F5171717171717171717171717171717171717171717171717F517E2E2E2E2E21E1E1EECECF5F5F5F527F5F5F5F5F5F5F5F5F52727F5F5F5F5F5F5F5F5F5F5F5F5F55F5FF5F517F5F5F5F5F5F5F5F5F5F5F5F5F5F5F5F5F5E9F5F5F5F5F5F5F5F5F5EFE2F5F5F5F5F5F5E9F5F5F5F5F5F5F5F5F5F5F5F5F5F5F5F5F5F5
310
F5F5F5F5F5F5F5F5F517F5F5F5F5F517F517E25FF517F5F5F5F5F5F5F5F5F5F5E2F5F5F5F5F5F5F5F5F517E217F5F5F5F5F5F5F5F5F5F5F517171717F5F51717F5F5171717F5F51717F5F51717171717171717F5F5F5E21E1E1E1E1EECF5F5F527F5F5F5F5F5F5F5F5F52727F5F5F5F5F5F5F5F5F5F5F5F5F55F5FF5F517F5
310
F5F5F5F5F5F5F5F5F5F5F5F5F5F5F5F5E9F5F5F5F5F5F5F5F5F5EFE2F5F5F5F5F5F5E9F5F5F5F5F5F5F5F5F5F5F5F5F5F5F5F5F5F5F5F5F5F5F5F5F5F5F517F5F5F5F5F517F517E25FF517F5F5F5F5F5F5F5F5F5F5E2F5F5F5F5F5F5F5F5F517E217F5F5F5F5F5F5F5F5F5F5F517171717F5F51717F5F5171717F5F51717F5
310
F5171717171717F517F5F5F5E2E2E2E25F1E1EECECF527F5F5F5F5F5F5F5F5F52727F5F5F5F5F5F5F5F5F5F5F5F5F55F5FF5F517F5F5F5F5F5F5F5F5F5F5F5F5F5F5F5F5F5E9F5F5F5F5F5F5F5F5F5EFE2F5F5F5F5F5F5E9F5F5F5F5F5F5F5F5F5F5F5F5F5F5F5F5F5F5F5F5F5F5F5F5F5F5F517F5F5F5F5F517F517E25FF5
310
17F5F5F5F5F52727F5F527E2F5F5F5F5F5F5F5F5F517E217F5F5F5F5F5F5F5F5F5F5F517171717F5F51717F5F5171717F5F51717F5F517171717171717F517F5F5F5F5F5E25F1E1E1E1EEC27F5F5F5F5F5F5F5F5F52727F5F5F5F5F5F5F5F5F5F5F5F5F55F5FF5F517F5F5F5F5F5F5F5F5F5F5F5F5F5F5F5F5F5E9F5F5F5F5
310
F5F5F5F5F5EFE2F5F5F5F5F5F5E9F5F5F5F5F5F5F5F5F5F5F5F5F5F5F5F5F5F5F5F5F5F5F5F5F5F5F517F5F5F5F5F517F517E25FF517F5F5F5F5F527F5F52727E2F5F5F5F5F5F5F5F5F517E217F5F5F5F5F5F5F5F5F5F5F517171717F5F51717F5F5171717F5F51717F5F51717171717171717171717F5F5F5E2E2E2E2E21E
310
1EECF5F5F5F5F5F5F5F5F52727F5F5F5F5F5F5F5F5F5F5F5F5F55F5FF5F517F5F5F5F5F5F5F5F5F5F5F5F5F5F5F5F5F5E9F5F5F5F5F5F5F5F5F5EFE2F5F5E2F5F5F5E9F5F5F5F5F5F5F5F5F5F5F5F5F5F5F5F5F5F5F5F5F5F5F5F5F5F5F517F5F5F5F5F517F517E25FF517F5F5F5F5F5272727F527E2F5F5F5F5F5F5F5F5F5
310
17E217F5F5F5F5F5F5F5F5F5F5F517171717F5F51717F5F5171717F5F51717F5F517171717171717171717F517F5F51717F5F5E21E1E27ECECF5F5F5F5F5F5F52727F5F5F5F5F5F5F5F5F5F5F5F5F55F5FF5F517F5F5F5F5F5F5F5F5F5F5F5F5F5F5F5F5F5E9F5F5F5F5F5F5E2F5F5EFE2F5F5E2F5F5F5E9F5F5F5F5F5F5F5
310
F5F5F5F5F5F5F5F5F5F5F5F5F5F5F5F5F5F5F5F517F5F5F5F5F517F517E25FF517F5F5F5F5F5F5F5F5F527E2F5F5F5F5F5F5F5F5F517E217F5F5F5F5F5F5F5F5F5F5F51717171717171717171717171717171717171717171717171717171717171717171717F5F5E21E1E1E1E27EC2727272727272727F5F5F5F5F5F5F5F5
310
F5F5F5ECECECECE2E2E2F5F5F5F5F5F5F5F5F5F5F5F5F5F5F5F5F5E9F5F5F5F5F5F5E2F5F5EFE2F5F5E2F5F5F5E9F5F5F5F5F5F5F5F5F5F5F5F5F5F5F5F5F5F5F5F5F5F5F5F5F5F5F517F5F5F5F5F517F517E25FF517F5F5F5F5F527272727F5E2F5F5F5F5F5F5F5F5F517E217F5F5F5F5F5F5F5F5F5F5F517171717F5F517
310
17F5F5171717F5F51717F5F517171717171717171717171717171717F5F5E2E2E2E21E1E1EECECF5F5F5F5F5F5F5F5F5F5F5F5F5F5F5F5F5EC1E1E1E1E5FE2F5F5F5F5F5F5F5F5F5F5F5F5F5F5F5F5F5E9F5F5F5F5F5F5E2F5F5EFE2F5F5E2F5F5F5E9F5F5F5F5F5F5F5F5F5F5F5F5F5F5F5F5F5F5F5F5F5F5F5F5F5F5F517
310
F5F5F5F5F517F517E25FF517F5F5F5F5F52727F52727E2F5F5F5F5F5F5F5F5F517E217F5F5F5F5F5F5F5F5F5F5F517171717F5F51717F5F5171717F5F51717F5F51717171717171717171717171717171717F5F5F5F5E21E1E1E1E1EECECECECECECECECECECECECECECECECECEC1E1E1E1E5FE2F5F5F5F5F5F5F5F5F5F5F5
310
F5F5F5F5F5F5E9F5F5F5F5F5F5E2F5F5EFE2F5F5E2F5F5F5E9F5F5F5F5F5F5F5F5F5F5F5F5F5F5F5F5F5F5F5F5F5F5F5F5F5F5F517F5F5F5F5F517F5175F5FF517F5F5F5F5F527F52727F5E2F5F5F5F5F5F5F5F5F517E217F5F5F5F5F5F5F5F5F5F5F517171717F5F51717F5F5171717F5F51717F5F5171717F517F5F51717
310
17171717171717171717F5F5E2E2E227271E1E1E1E1E1E1E1E1E1E1E1E1E1E1E1E1E1E271E1E5F5F5FE2F5F5F5F5F5F5F5F5F5F5F5F5F5F5F5F5F5E9F5F5F5F5F5F5E2F5F5EFE2F5F5E2F5F5F5E9F5F5F5F5F5F5F5F5F5F5F5F5F5F5F5F5F5F5F5F5F5F5F5F5F5F5F517F5F5F5F5F517F5175F5FF517F5F5F5F5F527272727
310
F5E2F5F5F5F5F5F5F5F5F517E217F5F5F5F5F5F5F5F5F5F5F517171717F5F51717F5F5171717F5F51717F5F5171717F5171717F5F51717171717171717171717F5F52727F5E21E1E1E1E1E1E1E1E1E1E1E1E1E1E1E1E1E1E271E1E5F1E5FE2F5F5F5F5F5F5F5F5F5F5F5F5F5F5F5F5F5E9F5F5F5F5F5F5E2F5F5EFE2F5F5E2
310
F5F5F5E9F5F5F5F5F5F5F5F5F5F5F5F5F5F5F5F5F5F5F5F5F5F5F5F5F5F5F517F5F5F5F5F517F5171717F517F5F5F5F5F527F5272727E2F5F5F5F5F5F5F5F5F517E217F5F5F5F5F5F5F5F5F5F5F517171717F5F51717F5F5171717F5F51717F5F5171717F517F5F517F5F5171717171717171717171727F5F5E2E2E2E2E2E2
310
E2E2E2E2E2E2E2E2E2E2E2E2E2E2271E1E5F1E5FE2F5F5F5F5F5F5F5F5F5F5F5F5F5F5F5F5F5E9F5F5F5F5F5F5E2F5F5EFE2F5F5E2F5F5F5E9F5F5F5F5F5F5F5F5F5F5F5F5F5F5F5F5F5F5F5F5F5F5F5F5F5F5F517F5F5F5F5F517F5175F5FF517F5F5F5F5F527272727F5E2F5F5F5F5F5F5F5F5F517E217F5F5F5F5F5F5F5
310
F5F5F5F5171717171717171717171717171717171717171717171717F5F5F517F5F5F51717171717171727271717F5E2E2E2E2E2E2E2E2E2E2E2E2E2E2E2E2E2E2E2E2E21E1E5F1E5FE2F5F5F5F5F5F5F5F5F5F5F5F5F5F5F5F5F5E9F5F5F5F5F5F5E2F5F5EFE2F5F5E2F5F5F5E9F5F5F5F5F5F5F5F5F5F5F5F5F5F5F5F5F5
310
F5F5F5F5F5F5F5F5F5F517F5F5F5F5F517F5175F5FF517F5F5F5F5F5F5F5F5F5F5E2F5F5F5F5F5F5F5F5F517E217F5F5F5F5F5F5F5F5F5F5F517171717F5F51717F5F5171717F5F51717F5F5171717F517F5F5F5F51717F5F5F5171717172717171717171717F5F5F5F5F5F5F5F5F5F5F5F5F5F5F5F5F5F5E21E1E5F1E5FE2
310
F5F5F5F5F5F5F5F5F5F5F5F5F5F5F5F5F5E9F5F5F5F5F5F5E2F5F5EFE2F5F5E2F5F5F5E9F5F5F5F5F5F5F5F5F5F5F5F5F5F5F5F5F5F5F5F5F5F5F5F5F5F5F517F5F5F5F5F517F5171717F517F5F5F5F5F5F5F5F5F5F5E2F5F5F5F5F5F5F5F5F517E217F5F5F5F5F5F5F5F5F5F5F517171717F5F51717F5F5171717F5F51717
310
F5F5171717F517F5F5F5F5F5F517F5F5171717271717171717171717F5F5F5F5F5F5F5F5F5F5F5F5F5F5F5F5F5F5E21E1E5F1E5FE2F5F5F5F5F5F5F5F5F5F5F5F5F5F5F5F5F5E9F5F5F5F5F5F5E2F5F5EFE2F5F5E2F5F5F5E9F5F5F5F5F5F5F5F5F5F5F5F5F5F5F5F5F5F5F5F5F5F5F5F5F5F5F517F5F5F5F5F517F5171717
310
F517F5F5F5F5F5F5F5F5F5F5E2F5F5F5F5F5F5F5F5F517E217F5F5F5F5F5F5F5F5F5F5F517171717F5F51717F5F5171717F5F51717F5F5171717F517F5F5F5F5F5F5F51717172727171717171717171717F5F5F5F5F5F5F5F5F5F5F5F5F5F5F5F5F5F5E2E2E2E2E2E2E2F5F5F5F5F5F5F5F5F5F5F5F5F5F5F5F5F5E9F5F5F5
310
F5F5F5E2F5F5EFE2F5F5E2F5F5F5E9F5F5F5F5F5F5F5F5F5F5F5F5F5F5F5F5F5F5F5F5F5F5F5F5F5F5F517F5F5F5F5F517F55F5F5FF517F5F5F5F5F5F5F5F5F5F5E2F5F5F5F5F5F5F5F5F5E2E217F5F5F5F5F5F5F5F5F5F5F517171717F5F51717F5F5171717F5F51717F5F5171717F517F5F5F5F5F5F5F5F5F527F5F51717
310
17171717171717F5F5F5F5F5F5F5F5F5F5F5F5F5F5F5F5F5F517F5E2E25F5F5FF5F5F5F5F5F5F5F5F5F5F5F5F5F5F5F5F5E9F5F5F5F5F5F5E2F5F5EFE2F5F5E2F5F5F5E9F5F5F5F5F5F5F5F5F5F5F5F5F5F5F5F5F5F5F5F5F5F5F5F5F5F5F517F5F5F5F5F5E2E2E2E2E2E2E2F5F5F5F5F5F5F5F5F5F5E2F5F5F5F5F5F5F5F5
310
F5E2E2E2F5F5F5F5F5F5F5F5F5F5F517171717F5F51717F5F5171717F5F51717F5F5171717F517F5F5F5F5F5F5F52727F5171717F517171717171717F5F5F5F5F5F5F5F5F5F5F5F5F5F5F5F5F5F517F517E2F5F517F5F5F5F5F5F5F5F5F5F5F5F5F5F5F5F5F5E9F5F5F5F5F5F5E2F5F5EFE2F5F5E2F5F5F5E9F5F5F5F5F5F5
310
F5F5F5F5F5F5F5F5F5F5F5F5F5F5F5F5F5F5F5F5F517F5F5F5F5F5E25F1E5F1E1EE2F5F5F5F5F5F5F5F5F5F5E2F5F5F5F5F5F5F5F5F5E21EE2F5F5F5F5F5F5F5F5F5F5F5171717171717171717171717171717171717171717171717F5F5F5F5F5F527F5F517171717F5F5F51717171717F5F5F5F5F5F5F5F5F5F5F5F5F5F5
310
F5F5F5F517F517E2F5F5E2E2F5F5F5F5F5F5F5F5F5F5F5F5F5F5F5F5E9F5F5F5F5F5F5E2F5F5EFE2F5F5E2F5F5F5E9F5F5F5F5F5F5F5F5F5F5F5F5F5F5F5F5F5F5F5F5F5F5F5F5F5F5F5171717171717E25F1E5F1E1EE2F5F5F5F5F5F5F5F5F5F5E2F5F5F5F5F5F5F5F5F5E21EE2F5F5F5F5F5F5F5F5F5F5F5171717171717
310
171717171717171717171717171717171717F5F5F5F52727F5F5F51717171717F5171717171717F5F5F5F5F5F5F5F5F5F5F5F5F5F5F5F5F5F517F517E2F5F517F5F5F5F5F5F5F5F5F5F5F5F5F5F5F5F5F5E9F5F5F5F5F5F5E2F5F5EFE2F5F5E2F5F5F5E9F5F5F5F5F5F5F5F5F5F5F5F5F5F5F5F5F5F5F5F5F5F5F5F5F5F5F5
310
17F5F5F5F5F5E25F1E5F1E1EE2F5F5F5F5F5F5F5F5F5F5E2F5F5F5F5F5F5F5F5F5E21EE2F5F5F5F5F5F5F5F5F5F5F5171717171717171717171717171717171717171717171717F5F5F527F5F5F5F5F51717F5F5F517171717F51717F5F5F5F5F5F5F5F5F5F5F5F5F5F5F5F5F5F517F517E2F5F5E2E2F5F5F5F5F5F5F5F5F5
310
F5F5F5F5F5F5F5E9F5F5F5F5F5F5E2F5F5EFE2F5F5F5F5F5F5E9F5F5F5F5F5F5F5F5F5F5F5F5F5F5F5F5F5F5F5F5F5F5F5F5F5F5F5171717171717E25F1E5F1E1EE2F5F5F5F5F5F5F5F5F5F5E2F5F5F5F5F5F5F5F5F5E21EE2F5F5F5F5F5F5F5F5F5F5F5F5F5F5F5F5F5F5F5F5F5F5F5F5F5F5F5F5F5F5F5F5F5F5F5F5F527
310
F5F5171717171717F51717F5171717171717F5F5F5F5F5F5F5F5F5F5F5F5F5F5F5F5F5F517F517E2F5F517F5F5F5F5F5F5F5F5F5F5F5F5F5F5F5F5F5E9F5F5F5F5F5F5F5F5F5EFE2F5F5F5F5F5F5E9F5F5F5F5F5F5F5F5F5F5F5F5F5F5F5F5F5F5F5F5F5F5F5F5F5F5F5171717171717E25F1E5F1E1EE2F5F5F5F5F5F5F5F5
310
F5F5E2F5F5F5F5F5F5F5F5F5E21EE2F5F5F5F5F5F5F5F5F5F5F5F5F5F5F5F5F5F5F5F5F5F5F5F5F5F5F5F5F5F5F5F5F5F5F52727F5F5F51717F5F5171717F51717171717171717F5F5F5F5F5F5F5F5F5F5F5F5F5F5F5F5F5F517F517E2F5F5E2E2F5F5F5F5F5F5F5F5F5F5F5F5F5F5F5F5E9F5F5F5F5F5F5F5F5F5EFE2F5F5
310
F5F5F5F5E9F5F5F5F5F5F5F5F5F5F5F5F5F5F5F5F5F5F5F5F5F5F5F5F5F5F5F5E2E2E2E2E2E2E25F1E5F1E1EE2F5F5F5F5F5F5F5F5F5F5E2E2F5F5F5F5F5F5F5F5E21EE2F5F5F5F5F5F5F5F5F5F5F5F5F5F5F5F5F5F5F5F5F5F5F5F5F5F5F5F5F5F5F5F5F5F527F5F51717171717F5F5171717171717F51717F51717F5F5F5
310
F5F5F5F5F5F5F5F5F5F5F5F5F5F5F517F517E2F5F517F5F5F5F5F5F5F5F5F5F5F5F5F5F5F5F5F5E9F5F5F5F5F5F5F5F5F5EFE2F5F5F5F5F5F5E9F5F5F5F5F5F5F5F5F5F5F5F5F5F5F5F5F5F5F5F5F5F5F5F5F5F5F5E21E5F1E1EE2E25F1E5F1E1EE2F5F5F5F5F5F5F5F5F5F5E2F5F5F5F5F5F5F5F5F5E21EE2F5F5F5F5F5F5
310
F5F5F5F5F5F5F5F5F5F5F5F5F5F5F5F5F5F5F5F5F5F5F5F5F5F52727F5F5F517F5F5F5F5171717171717171717F51717171EF5F5F5F5F5F5F5F5F5F5F5F5F5F5F5F5F5F517F517E2F5F517F5F5F5F5F5F5F5F5F5F5F5F5F5F5F5F5F5E9F5F5F5F5F5F5F5F5F5EFE2F5F5F5F5F5F5E9F5F5F5F5F5F5F5F5F5F5F5F5F5F5F5F5
310
F5F5F5F5F5F5F5F5F5F5F5E25F5F5F5FE2E25F1E5F1E1EECECECECECECECECECE2E2E2E2E2ECECECECECECECECECECBEECECECECECECECECECECECECECECECECECECECECECECEC2727272727271E27F51717171717F5F5F5171717171717171717F517F5F51717F5F5F5F5F5F5F5F5F5F5F5F5F5F5F5F5F5F517F517E2F5F5
310
17F5F5F5F5F5F5F5F5F5F5F5F5F5F5F5F5F5E9F5F5F5F5F5F5F5F5F5EFE2F5F5F5F5F5F5E9F5F5F5F5F5F5F5F5F5F5F5F5F5F5F5F5F5F5F5F5F5F5F5F5F5F5F5E21E5F1E1E5F5F5F1E5F1E1EE21E1E1E1E1E1E1E1E1EE2E2E21E1E1E1E1E1E1E1E1E1E1E1E1E1E1E1E1E1E1E1E1E1E1E1E1E1E1E1E1E1E1E1E1E1E1EEC1E1E
310
1E1E1E1E1EF51717171717F5171717171717171717171717F5171717F5F5F5F5F5F5F5F5F5F5F5F5F5F5F5F5F5F5F517F517E2F5F517F5F5F5F5F5F5F5F5F5F5F5F5F5F5F5F5F5E9F5F5F5F5F5F5F5F5F5EFE2F5F5F5F5F5F5E9F5F5F5F5F5F5F5F5F5F5F5F5F5F5F5F5F5F5F5F5F5F5F5F5F5F5F5E21E5F1E1E5F5F5F1E5F
310
1E1EE21E1E1E1E1E1E1E1E1E1EE21E1E1E1E1E1E1E1E1E1E1E1E1E1E1E1E1E1E1E1E1E1E1E1E1E1E1E1E1E1E1E1E1E1E1E1EEC1E1E1E1E1E1E1EF51717F5F5F51717F5171717171717F517F5F5171717F5F5F5F5F5F5F5F5F5F5F5F5F5F5F5F5F5F5F5F517F517E2F5F517F5F5F517F5F5F5F5F5F5F5F5F5F5F5F5F5E9F5F5
310
F5F5F5F5F5F5F5EFE2F5F5F5F5F5F5E9F5F5F5F5F5F5F5F5F5F5F5F5F5F5F5F5F5F5F5F5F5F517F5F5F5F5E2E2E2E2E2E2E2E2E2E2E2E2ECECECECECECECECEC1B1B1BE2E2ECECECECECECECECECECECECECECECECBEECECECECECECECECECECECECECECECECEC2727272727271E27272727F5F51717171717171717171717
310
F5171717F5F5F5F5F5F5F5F5F5F5F5F5F5F5F5F5F5F5F5F5F5F517F517E2F5F517F517171717F5F5F5F5F5F5F5F5F5F5F5F5E9F5F5F5F5F5F5F5F5F5EFE2F5F5F5F5F5F5E9F5F5F5F5F5F5F5F5F5F5F5F5F5F5F5F5F5F5F5F5F5F5171717E21717F517E2E217F5F5F5F5F5F5F5F5F5F517F517F5F5171B1BF51717F5F5F5F5
310
F5F5F5F5F5F5F5F517E21717F5F5F5F5F5F5F5F5F51717F5F51717F51717F5F51717F5F5171717171717F51717171717171717F5F5171717F5F5F5F5F5F5F5F5F5F5F5F5F5F5F5F5F5F5F5F5F5F5F517F517E2F5F5171727272727F5F5F5F5F5F5F5F5F5F5F5F5E9F5F5F5F5F5F5F5F5F5EFE2F5F5E2F5F5F5E9F5F5F5F5F5
310
F5F5F5F5F5F5F5F5F5F5F5F5F5F5F5F5F517F5F5171717F5175F1717F5F5F5F5F5F5F5F5F5F517F517F5F51B1B1BF51717F5F5F5F5F5F5F5F5F5F5F5F517E21717F5F5F5F5F5F5F5F5F51717F5F51717F5E2E217171717171717171717F5F5171717F51717171717171717F5F5F5F5F5F5F5F5F5F5F5F5F5F5F5F5F5F5F5F5
310
F5F5F5F5F517F517E2F5F517F5F5F51727F5F5F5F5F5F5F5F5F5F5F5F5E9F5F5F5F5F5F5E2F5F5EFE2F5F5E2F5F5F5E9F5F5F5F5F5F5F5F5F5F5F5F5F5F5F5F5F5F5F5F5F5F517F517171717F5175F1717F5F5F5F5F5F5F5F5F5F517F517F5F51727E227272727272727F5F5F5F5F5F5F5F517E21717F5F5F5F5F5F5F5F5F5
310
1717F5F51717F517E2171717171717171717171717171717171717171717F517F5F5F5F5F5F5F5F5F5F5F5F5F5F5F5F5F5F5F5F5F5F5F5F5F5F517F517E2F5F517F5F5F51727F5F5F5F5F5F5F5F5F5F5F5F5E9F5F5F5F5F5F5E2F5F5EFE2F5F5E2F5F5F5E9F5F5F5F5F5F5F5F5F5F5F5F5F5F5F5F5F5F5F5F5F5F517F51717
310
1717F5175F1717F5F5F5F5F5F5F5F5F5F517F517F5F527272727271727272727F5F5F5F5F5F5F5F517E21717F5F5F5F5F5F5F5F5F51717F5F51717F5E2E2171717171717171717171717F5171717171717171717F5F5F5F5F5F5F5F5F5F5F5F5F5F5F5F5F5F5F5F5F5F5F5F5F5F5F517F517E2F5F517F5F5F51717F5F5F5F5
310
F5F5F5F5F5F5F5F5E9F5F5F5F5F5F5E2F5F5EFE2F5F5E2F5F5F5E9F5F5F5F5F5F5F5F5F5F5F5F5F5F5F5F5F5F5F5F5F5F517F517171717F5175F1717F5F5F5F5F5F5F5F5F5F517F517F5F517F5E227271727272727F5F5F5F5F5F5F5F517E21717F5F5F5F5F5F5F5F5F51717F5F51717F5E2E217171717171717171717F5F5
310
171717F5F517F517F5F5F5F5F5F5F5F5F5F5F5F5F5F5F5F5F5F5F5F5F5F5F5F5F5F5F5F5F517F517E2F5F517F5F5F51717F5F5F5F5F5F5F5F5F5F5F5F5E9F5F5F5F5F5F5E2F5F5EFE2F5F5E2F5F5F5E9F5F5F5F5F5F5F5F5F5F5F5F5F5F5F5F5F5F5F5F5F5F5171717171717F5175F1717F5F5F5F5F5F5F5F5F5F517F517F5
310
F517F5E2F51717F5F5F5F5F5F5F5F5F5F5F5F517E21717F5F5F5F5F5F5F5F5F51717F5F51717F5E2E21717171717171717171717171717F517171717F5F5F5F5F5F5F5F5F5F5F5F5F5F5F5F5F5F5F5F5F5F5F5F5F5F5F5F5F5F517F517E2F5F517F5F5171717F5F5F5F5F5F5F5F5F5F5F5F5E9F5F5F5F5F5F5E2F5F5EFE2F5
310
F5E2F5F5F5E9F5F5F5F5F5F5F5F5F5F5F5F5F5F5F5F5F5F5F5F5F5F5F51717171717F5175F1717F5F5F5F5F5F5F5F5F5F517F517F5F517F5E2F51717F5F5F5F5F5F5F5F5F5F5F5F517E21717F5F5F5F5F5F5F5F5F51717F5F51717F5E2E2171717171717171717171717F5F517F51717F5F5F5F5F5F5F5F5F5F5F5F5F5F5F5
310
F5F5F5F5F5F5F5F5F5F5F5F5F5F5F5F517F517E2F5F517F517171717F5F5F5F5F5F5F5F5F5F5F5F5E9F5F5F5F5F5F5E2F5F5EFE2F5F5E2F5F5F5E9F5F5F5F5F5F5F5F5F5F5F5F5F5F5F5F5F5F5F5F5F5F5F5F5F5171717F5175F1717F5F5F5F5F5F5F5F5F5F517F517F5171717E2F51717F5F5F5F5F5F5F5F5F5F5F5F517E2
310
1717F5F5F5F5F5F5F5F5F51717F5F51717F5E2E217171717171717171717F5F517171717F517F5F5F5F5F5F5F5F5F5F5F5F5F5F5F5F5F5F5F5F5F5F5F5F5F5F5F5F5F5F5F517F517E2F5F5171717171717F5F5F5F5F5F5F5F5F5F5F5F5E9F5F5F5F5F5F5E2F5F5EFE2F5F5E2F5F5F5E9F5F5F5F5F5F5F5F5F5F5F5F5F5F5F5
310
F5F5F5F5F5F5F5F5F5F5171717F517E2E217F5F5F5F5F5F5F5F5F5F517F517F51717F5E2F51717F5F5F5F5F5F5F5F5F5F5F5F517E21717F5F5F5F5F5F5F5F5F51717F5F51717F5E2E217171717171717171717F517F517F5F5F517F5F5F5F5F5F5F5F5F5F5F5F5F5F5F5F5F5F5F5F5F5F5F5F5F5F5F5F5F5F51717F5E2E2F5
310
F517F5F5F51717F5F5F5F5F5F5F5F5F5F5F5F5E9F5F5F5F5F5F5E2F5F5EFE2F5F5E2F5F5F5E9F5F5F5F5F5F5F5F5F5F5F5F5F5F5F5F5F5F5F5F5F5F5F5F5E2171717F517E2E217F5F5F5F5F5F5F5F5F5F517F517F5F517F5E2F51717F5F5F5F5F5F5F5F5F5F5F5F517E21717F5F5F5F5F5F5F5F5F51717F5F51717F51717F5
310
F51717F5F51717171717F517F5F5F5F517F5F5F5F5F5F5F5F5F5F5F5F5F5F5F5F5F5F5F5F5F5F5F5F5F5F5F5F5F517F5E2E2E2E2E2E2E2F5F5F51717F5F5F5F5F5F5F5F5F5F5F5F5E9F5F5F5F5F5F5E2F5F5EFE2F5F5E2F5F5F5E9F5F5F5F5F5F5F5F5F5F5F5F5F5F5F5F5F5F5F5F5F5F5F5F5F5E21717F5175F1717F5F5F5
310
F5F5F5F5F5F5F517F517F5F517F5E2F51717F5F5F5F5F5F5F5F5F5F5F5F517E21717F5F5F5F5F5F5F5F5F51717F5F51717F5E2E2171717171717171717171717F5F5F5F5F517F5F5F5F5F5F5F5F5F5F5F5F5F5F5F5F5F5F5F5F5F5F5F5F5F5F5F5F517F5F5E21E1E5F1E1EE2F5F5F51717F5F5F5F5F5F5F5F5F5F5F5F5E9F5
310
F5F5F5F5F5E2F5F5EFE2F5F5E2F5F5F5E9F5F5F5F5F5F5F5F5F5F5F5F5F5F5F5F5F5F5F5F5F5F5F5F5F5F5F517F5175F1717F5F5F5F5F5F5F5F5F5F517F517F5F517F5E2F51717F5F5F5F5F5F5F5F5F5F5F5F517E21717F5F5F5F5F5F5F5F5F51717F5F51717F5E2E217171717171717171717F5F5F5F5F5F5F517F5F5F5F5
310
F5F5F5F5F5F5F5F5F5F5F5F5F5F5F5F5F5F5F5F5F5F51717F5F5F5E21E1E5F1E1EE2F5F5F51717F5F5F5F5F5F5F5F5F5F5F5F5E9F5F5F5F5F5F5E2F5F5EFE2F5F5E2F5F5F5E9F5F5F5F5F5F5F5F5F5F5F5F5F5F5F5F5F5F5F5F5F5F5F5F5F5F5F517F5175F1717F5F5F5F5F5F5F5F5F5F517F52727F51727E2F51717F5F5F5
310
F5F5F5F5F5F5F5F5F517E21717F5F5F5F5F5F5F5F5F51717F5F51717F5F5F5F5F5F5F5F5F51717F5F5F5F5F5F5F5F5F517F5F5F5F5F5F5F5F5F5F5F5F5F5F5F5F5F5F5F5F5F5F5F5F5F517F5F5F5F5F5E21E1E5F1E1EE2F5F5F51717F5F5F5F5F5F5F5F5F5F5F5F5E9F5F5F5F5F5F5E2F5F5EFE2F5F5E2F5F5F5E9F5F5F5F5
310
F5F5F5F5F5F5F5F5F5F5F5F5F5F5F5F5F5F5F5F5F5F5F517F5175F1717F5F5F5F5F5F5F5F5F5F517F527F5272727E2F51717F5F5F5F5F5F5F5F5F5F5F5F517E21717F5F5F5F5F5F5F5F5F51717F5F51717F5F5F5F5F5F5F5F5F51717F5F5F5F5F5F5F5F5F517F5F5F5F5F5F5F5F5F5F5F5F5F5F5F5F5F5F5F5F5F5F5F5F517
310
F5F5F5F5F5F5E21E1E5F1E1EE2F5F5F51717F5F5F5F5F5F5F5F5F5F5F5F5E9F5F5F5F5F5F5E2F5F5EFE2F5F5E2F5F5F5E9F5F5F5F5F5F5F5F5F5F5F5F5F5F5F5F5F5F5F5F5F5F5F5F5F5F5F517F5175F1717F5F5F5F5F5F5F5F5F5F517F52727F51727E2F51717F5F5F5F5F5F5F5F5F5F5F5F517E21717F5F5F5F5F5F5F5F5
310
F51717F5F51717F5F5F5F5F5F5F5F5F51717F5F5F5F5F5F5F5F5F517F5F5F5F5F5F5F5F5F5F5F5F5F5F5F5F5F5F5F5F5F5F5F517F5F5F5F5F5F5F5E21E1E5F1E1EE2F5F5F51717F5F5F5F5F5F5F5F5F5F5F5F5E9F5F5F5F5F5F5E2F5F5EFE2F5F5E2F5F5F5E9F5F5F5F5F5F5F5F5F5F5F5F5F5F5F5F5F5F5F5F5F5F5F5F5F5
310
F5F517F5175F1717F5F5F5F5F5F5F5F5F5F517172717171717E2171717F5F5F5F5F5F5F5F5F5F5F5F517E21717F5F5F5F5F5F5F5F5F51717F5F51717F5F5F5F5F5F5F5F5F51717F5F5F5F5F5F5F5F5F517F5F5F5F5F5F5F5F5F5F5F5F5F5F5F5F5F5F5F5F5F5F517F5F5F5F5F5F5F5F5E21E1E5F1E1EE2F5F5F51717F5F5F5
310
F5F5F5F5F5F5F5F5F5E9F5F5F5F5F5F5E2F5F5EFE2F5F5E2F5F5F5E9F5F5F5F5F5F5F5F5F5F5F5F5F5F5F5F5F5F5F5F5F5F5F5F5F5F5F517F5175F1717F5F5F5F5F5F5F5F5F5F517172717172727E2171717F5F5F5F5F5F5F5F5F5F5F5F517E21717F5F5F5F5F5F5F5F5F51717F5F51717F5F5F5F5F5F5F5F5F51717F5F5F5
310
F5F5F5F5F5F517F5F5F5F5F5F5F5F5F5F5F5F5F5F5F5F5F5F5F5F5F517F5F5F5F5F5F5F5F5F5E21E1E5F1E1EE2F5F5F51717F5F5F5F5F5F5F5F5F5F5F5F5E9F5F5F5F5F5F5E2F5F5EFE2F5F5F5F5F5F5E9F5F5F5F5F5F5F5F5F5F5F5F5F5F5F5F5F5F5F5F51717171717171717F517E2E217F5F5F5F5F5F5F5F5F5F5F5F527
310
2727F5F5E2F517F5F5F5F5F5F5F5F5F5F5F5F5F517E21717F5F5F5F5F5F5F5F5F51717F5F51717F5F5F5F5F5F5F5F5F51717F5F5F5F5F5F5F5F5F517F5F5F5F5F5F5F5F5F5F5F5F5F5F5F5F5F5F5F5F517F5F5F5F5F5F5F5F5F5F5E21E1E5F1E1EE2F5F5F51717F5F5F5F5F5F5F5F5F5F5F5F5E9F5F5F5F5F5F5F5F5F5EFE2
310
F5F5F5F5F5F5E9F5F5F5F5F5F5F5F5F5F5F5F5F5F5F5F5F5F5F5F51717171717171717F517E2E217F5F5F5F5F5F5F5F5F5F5F5F527272727F5E2F517F5F5F5F5F5F5F5F5F5F5F5F5F517E21717F5F5F5F5F5F5F5F5F51717F5F51717F5F5F5F5F5F5F5F5F51717F5F5F5F5F5F5F5F5F517F5F5F5F5F5F5F5F5F5F5F5F5F5F5
310
F5F5F5F5F517F5F5F5F5F5F5F5F5F5F5F5E21E1E5F1E1EE2F5F5F51717F5F5F5F5F5F5F5F5F5F5F5F5E9F5F5F5F5F5F5F5F5F5EFE2F5F5F5F5F5F5E9F5F5F5F5F5F5F5F5F5F5F5F5F5F5F5F5F5F5F5F51717F5F5F5F5F517F5175F1717F5F5F5F5F5F5F5F5F5F5F5F527F5F52727E2F517F5F5F5F5F5F5F5F5F5F5F5F5F517
310
E21717F5F5F5F5F5F5F5F5F51717F5F51717F5F5F5F5F5F5F5F5F51717F5F5F5F5F5F5F5F5F517F5F5F5F5F5F5F5F5F5F5F5F5F5F5F5F5F5F517F5F5F5F5F5F5F5F5F5F5F5F5E21E1E5F1E1EE2F5F5F51717F5F5F5F5F5F5F5F5F5F5F5F5E9F5F5F5F5F5F5F5F5F5EFE2F5F5F5F5F5F5E9F5F5F5F5F5F5F5F5F5F5F5F5F5F5
310
F5F5F5F5F5F51717F5F5F5F5F517F5175F1717F5F5F5F5F5F5F5F5F5F5F5F52727272727E2F517F5F5F5F5F5F5F5F5F5F5F5F5F517E21717F5F5F5F5F5F5F5F5F51717F5F51717F5F5F5F5F5F5F5F5F51717F5F5F5F5F5F5F5F5F517F5F5F5F5F5F5F5F5F5F5F5F5F5F5F5F51717F5F5F5F5F5F5F5F5F5F5F5F5F5E21E1E5F
310
1E1EE2F5F5F51717F5F5F5F5F5F5F5F5F5F5F5F5E9F5F5F5F5F5F5F5F5F5EFE2F5F5F5F5F5F5E9F5F5F5F5F5F5F5F5F5F5F5F5F5F5F5F5F5F5F5F5F517F5F5F5F5F517F5175F1717F5F5F5F5F5F5F5F5F5F5F5F5F5F5F5F5F5E2F517F5F5F5F5F5F5F5F5F5F5F5F5F517E21717F5F5F5F5F5F5F5F5F51717F5F51717F5F5F5
310
F5F5F5F5F5F51717F5F5F5F5F5F5F5F5F517F5F5F5F5F5F5F5F5F5F5F5F5F5F5F517F5F5F5F5F5F5F5F5F5F5F5F5F5F5F5E21E1E5F1E1EE2F5F5F51717F5F5F5F5F5F5F5F5F5F5F5F5E9F5F5F5F5F5F5F5F5F5EFE2F5F5F5F5F5F5E9F5F5F5F5F5F5F5F5F5F5F5F5F5F5F5F5F5F5F5F5F517F5F5F5F5F517F5175F1717F5F5
310
F5F5F5F5F5F5F5F5F5F5F5F5F5F5F5E2F517F5F5F5F5F5F5F5F5F5F5F5F5F517E21717F5F5F5F5F5F5F5F5F51717F5F51717F5F5F5F5F5F5F5F5F51717F5F5F5F5F5F5F5F5F517F5F5F5F5F5F5F5F5F5F5F5F5F5F517F5F5F5F5F5F5F5F5F5F5F5F5F5F5F5F5E21E1E5F1E1EE2F5F5F51717F5F5F5F5F5F5F5F5F5F5F5F5E9
310
F5F5F5F5F5F5F5F5F5EFE2F5F5F5F5F5F5E9F5F5F5F5F5F5F5F5F5F5F5F5F5F5F5F5F5F5F5F5F517F5F5F5F5F517F5175F1717F5F5F5F5F5F5F5F5F5F5F5F5F5F5F5F5F5E2F517F5F5F5F5F5F5F5F5F5F5F5F5F517E21717F5F5F5F5F5F5F5F5F51717F5F51717F5F5F5F5F5F5F5F5F51717F5F5F5F5F5F5F5F5F517F5F5F5
310
F5F5F5F5F5F5F5F5F5F517F5F5F5F5F5F5F5F5F5F5F5F5F5F5F5F5F5E21E1E5F1E1EE2F5F5F51717F5F5F5F5F5F5F5F5F5F5F5F5E9F5F5F5F5F5F5F5F5F5EFE2F5F5F5F5F5F5E9F5F5F5F5F5F5F5F5F5F5F5F5F5F5F5F5F5F5F5F5F517F5F5F5F5F517F5175F17171717171717171717171717171717171717E21717F5F5F5
310
F5F5F5F5F5F5F5F5F5F5ECE2EC171717171717171717171717F5F517171717171717171717171717F5F5F5F5F5F5F5F5F517F5F5F5F5F5F5F5F5F5F5F5F517F5F5F5F5F5F5F5F5F5F5F5F5F5F5F5F5F5F5E21E1E5F1E1EE2F5F5F51717F5F5F5F5F5F5F5F5F5F5F5F5E9F5F5F5F5F5F5F5F5F5EFE2F5F5E2F5F5F5E9F5F5F5
310
F5F5F5F5F5F5F5F5F5F5F5F5F5F5F5F5F5F517F5F5F5F5F517F5E2E2E217F5F5F5F5F5F5F5F5F5F5F5F5F5F5F5F5F5E2F51717F5F5F5F5F5F5F5F5F5F5F5F51E1E1E171717171717171717171717F5F517171717171717171717171717F5F5F5F5F5F5F5F5F517F5F5F5F5F5F5F5F5F5F5F517F5F5F5F5F5F5F5F5F5F5F5F5
310
F5F5F5F5F5F5F5E21E1E5F1E1EE2F5F5F51717F5F5F5F5F5F5F5F5F5F5F5F5E9F5F5F5F5F5F5E2F5F5EFE2F5F5E2F5F5F5E9F5F5F5F5F5F5F5F5F5F5F5F5F5F5F5F5F5F5F5F5F517F5F5F5F5F5E2E2E25FE217F5F5F5F5F5F5F5F5F5F5F5F5F5F5F5F5F5E2F5F517F5F5F5F5F5F5F5F5F5F5F5F5ECF5ECF5F5F5F5F5F5F5F5
310
F5F5F5F5F5F5F5F5F5F5F5F5F5F5F5F5F5F517F5F5F5F5F5F5F5F5F517F5F5F5F5F5F5F5F5F5F517F5F5F5F5F5F5F5F5F5F5F5F5F5F5F5F5F5F5F5F5E21E1E5F1E1EE2F5F5F5E217F5F5F5F5F5F5F5F5F5F5F5F5E9F5F5F5F5F5F5E2F5F5EFE2F5F5E2F5F5F5E9F5F5F5F5F5F5F5F5F5F5F5F5F5F5F5F5F5F5F5F5F517F5F5
310
F5F5F5E25F5F5FE2E2F5F5F5F5F5F5F5F5F5F5F5F5F5F5F5F5F5E2F5F5F517F5F5F5F5F5F5F5F5F5F5F5ECF5ECF5F5F5F5F5F5F5F5F5F5F5F5F5F5F5F5F5F5F5F5F5F5F5F5F5F517F5F5F5F5F5F5F5F5F517F5F5F5F5F5F5F5F5F5E2E2E2E2E2E2E2E2E2E2E2E2E2E2E2E2E2E2E2E2E2E2E21E1E5F1E1EE2E2E2E2E217F5F5
310
F5F5F5F5F5F5F5F5F5F5E9F5F5F5F5F5F5E2F5F5EFE2F5F5E2F5F5F5E9F5F5F5F5F5F5F5F5F5F5F5F5F5F5F5F5F5F5F5F5F517F5F5F5F5F5E25F5F1E1EE2F5F5F5F5F5F5F5F5F5F5F5F5F5F5F5F5F5E2F5F5F5F51717F5F5F5F5F5F5F5F5F5ECF5ECF5F5F5F5F5F5F5F5F5F5F5F5F5F5F5F5F5F5F5F5F5F5F5F5F5F517F5F5
310
F5F5F5F5F5F5F517F5F5F5F5F5F5F5F5E21E1E1E1E1E1E1E1E1E1E1E1E1E1E1E1E1E1E1E1E1E1E1E1E1E5F1E1E1E1E1E1EE217F5F5F5F5F5F5F5F5F5F5F5F5E9F5F5F5F5F5F5E2F5F5EFE2F5F5E2F5F5F5E9F5F5F5F5F5F5F5F5F5F5F5F5F5F5F5F5F5F5F5F5F517F5F5F5F5F5E21E5F1E1EE2F5F5F5F5F5F5F5F5F5F5F5F5
310
F5F5F5F5F5E2F5F5F5F5F51717F5F5F5F5F5F5F5F5ECF5ECF5F5F5F5F5F5F5F5F5F5F5F5F5F5F5F5F5F5F5F5F5F5F5F5F5F517F5F5F5F5F5F5F5F5F517F5F5F5F5F5F517E21E1E1E1E1E1E1E1E1E1E1E1E1E1E1E1E1E1E1E1E1E1E1E1E1E1E5F1E1E1E1E1E1EE217F5F5F5F5F5F5F5F5F5F5F5F5E9F5F5F5F5F5F5E2F5F5EF
310
E2F5F5E2F5F5F5E9F5F5F5F5F5F5F5F5F5F5F5F5F5F5F5F5F5F5F5F5F517F5F5F5F5F5E21E5F1E1EE2F5F5F5F5F5F5F5F5F5F5F5F5F5F5F5F5F5E2F5F5F5F5F5F5F517F5F5F5F5F5F5F5ECF5ECF5F5F5F5F5F5F5F5F5F5F5F5F5F5F5F5F5F5F5F5F5F5F5F5F5F517F5F5F5F5F5F5F5F5F517F5F5F5F5F517E21E1E1E5F5F5F
310
5F5F5F5F5F5F5F5F5F5F5F5F5F5F5F5F5F5F5F5F5F5F5F5F5F5F5F5FE2E2F5F5F5F5F5F5F5F5F5F5F5F5E9F5F5F5F5F5F5E2F5F5EFE2F5F5E2F5F5F5E9F5F5F5F5F5F5F5F5F5F5F5F5F5F5F5F5F5F5F5F5F517F5F5F5F5F5E21E5F1E1EE2F5F5F5F5F5F5F5F5F5F5F5F5F5F5F5F5F5E2F5F5F5F5F5F5F5F517F5F5F5F5F5F5
310
ECF5ECF5F5F5F5F5F5F5F5F5F5F5F5F5F5F5F5F5F5F5F5F5F5F5F5F5F517F5F5F5F5F5F5F5F5F517F5F5F5F5E2E21E1E1E5F5F5F5F5F5F5F5F5F5F5F5F5F5F5F5F5F5F5F5F5F5F5F5F5F5F5F5F5F5F5F5F5FE2F5F5F5F5F5F5F5F5F5F5F5F5E9F5F5F5F5F5F5E2F5F5EFE2F5F5E2F5F5F5E9F5F5F5F5F5F5F5F5F5F5F5F5F5
310
F5F5F5F5F5F5F5F517F5F5F5F5F5E21E5F1E1EE2F5F5F5F5F5F5F5F5F5F5F5F5F5F5F5F5F5E2E2F5F5F5F5F5F5F5F517F5F5F5F5F5ECF5ECF5F5F5F5F5F5F5F5F5F5F5F5F5F5F5F5F5F5F5F5F5F5F5F5F5F517F5F5F5F5F5F5F5F5F517F5F5F5E21E1E1E1E5F5FE2E2E2E2E2E2E2E2E2E2E2E2E2E2E2E2E2E2E2E2E2E2E2E2
310
E2E2E2E2E2E2E2E2E2F5F5F5F5F5F5F5F5F5F5F5F5E9F5F5F5F5F5F5E2F5F5EFE2F5F5E2F5F5F5E9F5F5F5F5F5F5F5F5F5F5F5F5F5F5F5F5F5F5F5F5F517F5F5F5F5F5E21E5F1E1EECECECECECECECECECECECECECECECECE2E2BEE2E2ECECECECECECECECECECECECECECECECBEECECECECECECECECECECECECECECECECEC
310
ECECECECECECECECECECECECECECECECECECECECECEC1E1E1E1E5F5FE217F5F5F5F5F5F5F5F5F5F5F5F5F5F5F5F5F5F5F5F5F5F5F5F5F5F5F5F5F5F5E2E2F5F5F5F5F5F5F5F5F5F5F5F5E9F5F5F5F5F5F5E2F5F5EFE2F5F5E2F5F5F5E9F5F5F5F5F5F5F5F5F5F5F5F5F5F5F5F5F5F5F5F5F517F5F5F5F5F5E21E5F1E1E2727
310
27272727272727272727272727272727E22727272727272727272727272727272727272727272727272727272727272727272727272727272727272727272727272727272727272727271E1E1E1E5F5FE217F5F5F5F5F5F5F5F5F5F5F5F5F5F5F5F5F5F5F5F5F5F5F5F5F5F5F5F5F5F5F5F5F5F5F5F5F5F5F5F5F5F5F5F5F5
310
E9F5F5F5F5F5F5E2F5F5EFE2F5F5E2F5F5F5E9F5F5F5F5F5F5F5F5F5F5F5F5F5F5F5F5F5F5F5F5F517F5F5F5F5F5E21E5F1E1EE21E1E1E1E1E1E1E1E1E1E1E1E1E1E1E1EE2E21E1E1E1E1E1E1E1E1E1E1E1E17171E1E1E1E1E1E1E1E1E1E1E1E1E1E1E1E1E1E1E1E1E1E1E1E1E1E1E1E1E1E171E1E1E1E1E1E1E1E1E17E21E
310
1E1E5F5F5FE217F5F5F5F5F5F5F5F5F5F5F5F5F5F5F5F5F5F5F5F5F5F5F5F5F5F5F5F5F5F5F5F5F5F5F5F5F5F5F5F5F5F5F5F5F5F5E9F5F5F5F5F5F5E2F5F5EFE2F5F5E2F5F5F5E9F5F5F5F5F5F5F5F5F5F5F5F5F5F5F5F5F5F5F5F5F517F5F5F5F5F5E21E5F1E1E272727272727272727272727272727272727E227272727
310
2727272727275F27272727272727272727272727272727272727272727272727272727272727272727272727272727272727E21E1E1E5F5F5FE217F5F5F5F5F5F5F5F5F5F5F5F5F5F5F5F5F5F5F5F5F5F5F5F5F5F5F5F5F5F5F5F5F5F5F5F5F5F5F5F5F5F5F5F5F5F5F5E9F5F5F5F5F5F5E2F5F5EFE2F5F5E2F5F5F5E9F5F5
310
F5F5F5F5F5F5F5F5F5F5F5F5F5F5F5F5F5F5F517F5F5F5F5F5E21E5F1E1E1717ECECECECECECECECECEC1717ECECECECECECECECEC1717ECECECECEC5FECECECECECECECECECECECECECECECECECECECECECECECECECECECECECECECECECECECECECECECECECECECECEC5F5FE21717F5F5F5F5F5F5F5F5F5F5F5F5F5F5F5F5
310
F5F5F5F5F5F5F5F5F5F5F5F5F5F5F5F5F5F5F5F5F5F5F5F5F5F5F5F5F5F5F5F5E9F5F5F5F5F5F5E2F5F5EFE2F5F5E2F5F5F5E9F5F5F5F5F5F5F5F5F5F5F5F5F5F5F5F5F5F5F5F5F517F5F5F5F5F5E25F5F5F5F1717F5F5F5F5F5F5F5F5F5F51717F5F5F5F5F5F5F5F5F51717F5F5F5F5F5F55FF5F5F5E2F5F5F5F5F5F5F5F5
310
F5F5F5F5F5F5F5F5F5F5F5F5F5F5F5F5F5F5F5F5F5F5F5F5F5F5F5E2F5F5F55F5FE217F5F5F5F5F5F5F5F5F5F5F5F5F5F5F5F5F5F5F5F5F5F5F5F5F5F5F5F5F5F5F5F5F5F5F5F5F5F5F5F5F5F5F5F5F5F5F5F5F5F5E9F5F5F5F5F5F5E2F5F5EFE2F5F5E2F5F5F5E9F5F5F5F5F5F5F5F5F5F5F5F5F5F5F5F5F5F5F5F5F517F5
310
F5F5F5F5E21E1E1E1E1717F5F5F5F5F5F5F5F5F5F51717F5F5F5F5F5F5F5F5F51717F5F5F5F5F5F5F55FF5F5F5E2F5F5F5F5F5F5F5F5F5F5F5F5F5F5F5F5F5F5F5F5F5F5F5F5F5F5F5F5F5F5F5F5F5E2F5F5F55F5FE217F5F5F5F5F5F5F5F5F5F5F5F5F5F5F5F5F5F5F5F5F5F5F5F5F5F5F5F5F5F5F5F5F5F5F5F5F5F5F5F5
310
F5F5F5F5F5F5F5F5F5F5F5E9F5F5F5F5F5F5E2F5F5EFE2F5F5E2F5F5F5E9F5F5F5F5F5F5F5F5F5F5F5F5F5F5F5F5F5F5F5F5F517F5F5F5F5F5E21E1E1E1E1717F5F5F5F5F5F5F5F5F5F51717F5F5F5F5F5F5F5F5F51717F5F5F5F5F5F5F5F55FF5F5F5E2F5F5F5F5F5F5F5F5F5F5F5F5F5F5F5F5F5F5F5F5F5F5F5F5F5F5F5
310
F5F5F5E2E2F5F5F55F5FE217F5F5F5F5F5F5F5F5F5F5F5F5F5F5F5F5F5F5F5F5F5F5F5F5F5F5F5F5F5F5F5F5F5F5F5F5F5F5F5F5F5F5F5F5F5F5F5F5F5F5F5F5E9F5F5F5F5F5F5E2F5F5EFE2F5F5F5F5F5F5E9F5F5F5F5F5F5F5F5F5F5F5F5F5F5F5F5F5F5F5F5F5E2E2F5F5F5F5E21E1E1E1E1717F5F5F5F5F5F5F5F5F5F5
310
1717F5F5F5F5F5F5F5F5F51717F5F5F5F5F5F5F5F5F55FF5F5F5E2F5F5F5F5F5F5F5F5F5F5F5F5F5F5F5F5F5F5F5F5F5F5F5F5F5F5F5F5E2F5F5F5F55F5FE217F5F5F5F5F5F5F5F5F5F5F5F5F5F5F5F5F5F5F5F5F5F5F5F5F5F5F5F5F5F5F5F5F5F5F5F5F5F5F5F5F5F5F5F5F5F5F5F5F5F5F5F5F5E9F5F5F5F5F5F5F5F5F5
310
EFE2F5F5F5F5F5F5E9F5F5F5F5F5F5F5F5F5F5F5F5F5F5F5F5F5F5F5F5F5E2E2F5F5F5F5E21E1E1E1EE2E2F5F5F5F5F5F5F5F5F5F5E2E2F5F5F5F5F5F5F5F5F5E2E2F5F5F5F5F5F5F5F5F5F55F5FF5F5E2E2F5F5F5F5F5F5F5F5F5F5F5F5F5F5F5F5F5F5F5F5F5F5F5F5F5E2F5F5F5F55F5F1717F5F5F5F5F5F5F5F5F5F5F5
310
F5F5F5F5F5F5F5F5F5F5F5F5F5F5F5F5F5F5F5F5F5F5F5F5F5F5F5F5F5F5F5F5F5F5F5F5F5F5F5F5F5F5F5E9F5F5F5F5F5F5F5F5F5EFE2F5F5F5F5F5F5E9F5F5F5F5F5F5F5F5F5F5F5F5F5F5F5F5F5F5F5F5F5E2E2F5F5F5F5E21E1E1E1EE2E2F5F5F5F5F5F5F5F5F5F5E2E2F5F5F5F5F5F5F5F5F5E2E2F5F5F5F5F5F5F5F5
310
F5F5F5F55FF5F5F5E2F5F5F5F5F5F5F5F5F5F5F5F5F5F5F5F5F5F5F5F5F5F5F5E2F5F5F5F55F5FE217F5F5F5F5F5F5F5F5F5F5F5F5F5F5F5F5F5F5F5F5F5F5F5F5F5F5F5F5F5F5F5F5F5F5F5F5F5F5F5F5F5F5F5F5F5F5F5F5F5F5F5F5F5F5F5E9F5F5F5F5F5F5F5F5F5EFE2F5F5F5F5F5F5E9F5F5F5F5F5F5F5F5F5F5F5F5
310
F5F5F5F5F5F5F5F5F5E2E25F5F5F5F5F5F5F5F5FE2E25F5F5F5F5F5F5F5F5F5FE2E25F5F5F5F5F5F5F5F5FE2E25F5F5F5F5F5F5F5F5F5F5F5F5F5FF5F5F5E2F5F5F5F5F5F5F5F5F5F5F5F5F5F5F5F5F5F5F5F5F5E2F5F5F55F5F5FE2F517F5F5F5F5F5F5F5F5F5F5F5F5F5F5F5F5F5F5F5F5F5F5F5F5F5F5F5F5F5F5F5F5F5
310
F5F5F5F5F5F5F5F5F5F5F5F5F5F5F5F5F5F5F5F5F5F5E9F5F5F5F5F5F5F5F5F5EFE2F5F5F5F5F5F5E9F5F5F5F5F5F5F5F5F5F5F5F5F5F5F5F5F5F5F5F5F55F5F5F5F5F5F5F5F5F5F5F5F5F5F5F5F5F5F5F5F5F5F5F5F5F5F5F5F5F5F5F5F5F5F5F5F5F5F5F5F5F5F5F5F5F5F5F5F5F1E5FF5F5F5E2F5F5F5F5F5F5F5F5F5F5
310
F5F5F5F5F5F5F5F5F5E2F5F5F55F5F5FE2F5F517F5F5F5F5F5F5F5F5F5F5F5F5F5F5F5F5F5F5F5F5F5F5F5F5F5F5F5F5F5F5F5F5F5F5F5F5F5F5F5F5F5F5F5F5F5F5F5F5F5F5F5F5F5F5F5E9F5F5F5F5F5F5F5F5F5EFE2F5F5F5F5F5F5E9F5F5F5F5F5F5F5F5F5F5F5F5F5F5F5F5F5F5F5F5F5E2E2E2E2E2E2E2E2E2E2E2E2
310
E2E2E2E2E2E2E2E2E2E2E2E2E2E2E2E2E2E2E2E2E2E2E2E2E2E2E2E2E2E2E2E2E2E2E2E2E25F1E5FF5F5F5E2F5F5F5F5F5F5F5F5F5F5F5F5F5F5F5F5F5E2F5F5F55F5FE2E2F5F5F517F5F5F5F5F5F5F5F5F5F5F5F5F5F5F5F5F5F5F5F5F5F5F5F5F5F5F5F5F5F5F5F5F5F5F5F5F5F5F5F5F5F5F5F5F5F5F5F5F5F5F5F5F5F5
310
F5E9F5F5F5F5F5F5F5F5F5EFE2F5F5F5F5F5F5E9F5F5F5F5F5F5F5F5F5F5F5F5F5F5F5F5F5F5F5F5F5E2F5F5F5F5F5F5F5F5F5F5F5F5F5F5F5F5F5F5F5F5F5F5F5F5F5F5F5F5F5F5F5F5F5F5F5F5F5F5F5F5F5F5F5F5F5F5F517E25F1E5FF5F5F5E2F5F5F5F5F5F5F5F5F5F5F5F5F5F5F5E2F5F5F55F5FE2F5F5F5F5F517F5
310
F5F5F5F5F5F5F5F5F5F5F5F5F5F5F5F5F5F5F5F5F5F5F5F5F5F5F5F5F5F5F5F5F5F5F5F5F5F5F5F5F5F5F5F5F5F5F5F5F5F5F5F5F5F5E9F5F5F5F5F5F5F5F5F5EFE2F5F5F5F5F5F5E9F5F5F5F5F5F5F5F5F5F5F5F5F5F5F5F5F5F5F5F5F5F5F5F5F5F5F5F5F5F5F5F5F5F5F5F5F5F5F5F5F5F5F5F5F5F5F5F5F5F5F5F5F5F5
310
F5F5F5F5F5F5F5F5F5F5F5F5F5F5F5F517E25F1E5FF5F5F5E2F5F5F5F5F5F5F5F5F5F5F5F5F5E2F5F5F55F5FE2F5F5F5F5F5F517F5F5F5F5F5F5F5F5F5F5F5F5F5F5F5F5F5F5F5F5F5F5F5F5F5F5F5F5F5F5F5F5F5F5F5F5F5F5F5F5F5F5F5F5F5F5F5F5F5F5F5F5F5F5F5E9F5F5F5F5F5F5F5F5F5EFE2F5F5F5F5F5F5E9F5
310
F5F5F5F5F5F5F5F5F5F5F5F5F5F5F5F5F5F5F5F5F5F5F5F5F5F5F5F5F5F5F5F5F5F5F5F5F5F5F5F5F5F5F5F5F5F5F5F5F5F5F5F5F5F5F5F5F5F5F5F5F5F5F5F5F5F5F5F5F5F517E25F5F5FF5F5F5E2F5F5F5F5F5F5F5F5F5F5E2E2F5F5F55F5FE2F5F5F5F5F5F5F517F5F5F5F5F5F5F5F5F5F5F5F5F5F5F5F5F5F5F5F5F5F5
310
F5F5F5F5F5F5F5F5F5F5F5F5F5F5F5F5F5F5F5F5F5F5F5F5F5F5F5F5F5F5F5F5F5E9F5F5F5F5F5F5F5F5F5EFE2F5F5E2F5F5F5E9F5F5F5F5F5F5F5F5F5F5F5F5F5F5F5F5F5F5F5F5F5F5F5F5F5F5F5F5F5F5F5F5F5F5F5F5F5F5F5F5F5F5F5F5F5F5F5F5F5F5F5F5F5F5F5F5F5F5F5F5F5F5F5F5F5F5F5F5F5F5F5F517E2E2
310
5F5FF5F5F5E2E2F5F5F5F5F5F5F5E2F5F5F5F55F5FE2F5F5F5F5F5F5F5F517F5F5F5F5F5F5F5F5F5F5F5F5F5F5F5F5F5F5F5F5F5F5F5F5F5F5F5F5F5F5F5F5F5F5F5F5F5F5F5F5F5F5F5F5F5F5F5F5F5F5F5F5F5F5F5E9F5F5F5F5F5F5E2F5F5EFE2F5F5E2F5F5F5E9F5F5F5F5F5F5F5F5F5F5F5F5F5F5F5F5F5F5F5F5F5F5
310
F5F5F5F5F5F5F5F5F5F5F5F5F5F5F5F5F5F5F5F5F5F5F5F5F5F5F5F5F5F5F5F5F5F5F5F5F5F5F5F5F5F5F5F5F5F5F5F5F5F5F5F517E25F5FF5F5F5F5E2F5F5F5F5F5E2F5F5F5F55F5F17F5F5F5F5F5F5F5F5F517F5F5F5F5F5F5F5F5F5F5F5F5F5F5F5F5F5F5F5F5F5F5F5F5F5F5F5F5F5F5F5F5F5F5F5F5F5F5F5F5F5F5F5
310
F5F5F5F5F5F5F5F5F5F5F5F5E9F5F5F5F5F5F5E2F5F5EFE2F5F5E2F5F5F5E9F5F5F5F5F5F5F5F5F5F5F5F5F5F5F5F5F5F5F5F5F5F5F5F5F5F5F5F5F5F5F5F5F5F5F5F5F5F5F5F5F5F5F5F5F5F5F5F5F5F5F5F5F5F5F5F5F5F5F5F5F5F5F5F5F5F5F5F5F5F5F5F5F5F5F517E25F5FF5F5F5F5E2ECECECE2F5F5F5F55F5FE217
310
F5F5F5F5F5F5F5F5F517F5F5F5F5F5F5F5F5F5F5F5F5F5F5F5F5F5F5F5F5F5F5F5F5F5F5F5F5F5F5F5F5F5F5F5F5F5F5F5F5F5F5F5F5F5F5F5F5F5F5F5F5F5F5F5E9F5F5F5F5F5F5E2F5F5EFE2F5F5E2F5F5F5E9F5F5F5F5F5F5F5F5F5F5F5F5F5F5F5F5F5F5F5F5F5F5F5F5F5F5F5F5F5F5F5F5F5F5F5F5F5F5F5F5F5F5F5
310
F5F5F5F5F5F5F5F5F5F5F5F5F5F5F5F5F5F5F5F5F5F5F5F5F5F5F5F5F5F5F5F5F517E25F5F5FF5F5F5EC1EECF5F5F55F5F5FE21717F5F5F5F5F5F5F5F5F517F5F5F5F5F5F5F5F5F5F5F5F5F5F5F5F5F5F5F5F5F5F5F5F5F5F5F5F5F5F5F5F5F5F5F5F5F5F5F5F5F5F5F5F5F5F5F5F5F5F5F5F5F5F5F5E9F5F5F5F5F5F5E2F5
310
F5EFE2F5F5E2F5F5F5E9F5F5F5F5F5F5F5F5F5F5F5F5F5F5F5F5F5F5F5F5F5F5F5F5F5F5F5F5F5F5F5F5F5F5F5F5F5F5F5F5F5F5F5F5F5F5F5F5F5F5F5F5F5F5F5F5F5F5F5F5F5F5F5F5F5F5F5F5F5F5F5F5F5F5F5F5F517E25F1E5FF5F5ECE2ECF5F55F5F5FE217F517F5F5F5F5F5F5F5F5F517F5F5F5F5F5F5F5F5F5F5F5
310
F5F5F5F5F5F5F5F5F5F5F5F5F5F5F5F5F5F5F5F5F5F5F5F5F5F5F5F5F5F5F5F5F5F5F5F5F5F5F5F5F5F5F5F5E9F5F5F5F5F5F5E2F5F5EFE2F5F5E2F5F5F5E9F5F5F5F5F5F5F5F5F5F5F5F5F5F5F5F5F5F5F5F5F5F5F5F5F5F5F5F5F5F5F5F5F5F5F5F5F5F5F5F5F5F5F5F5F5F5F5F5F5F5F5F5F5F5F5F5F5F5F5F5F5F5F5F5
310
F5F5F5F5F5F5F5F5F5F5F5F5F5F517E25F1E5FF5ECECECF55F5FE2E217F5F517F5F5F5F5F5F5F5F5F517F5F5F5F5F5F5F5F5F5F5F5F5F5F5F5F5F5F5F5F5F5F5F5F5F5F5F5F5F5F5F5F5F5F5F5F5F5F5F5F5F5F5F5F5F5F5F5F5F5F5F5F5F5F5F5E9F5F5F5F5F5F5E2F5F5EFE2F5F5E2F5F5F5E9F5F5F5F5F5F5F5F5F5F5F5
310
F5F5F5F5F5F5F5F5F5F5F5F5F5F5F5F5F5F5F5F5F5F5F5F5F5F5F5F5F5F5F5F5F5F5F5F5F5F5F5F5F5F5F5F5F5F5F5F5F5F5F5F5F5F5F5F5F5F5F5F5F5F5F5F5F5F5F5F517E25F5F5FF55FF55F5FE21717F5F5F517F5F5F5F5F5F5F5F5F517F5F5F5F5F5F5F5F5F5F5F5F5F5F5F5F5F5F5F5F5F5F5F5F5F5F5F5F5F5F5F5F5
310
F5F5F5F5F5F5F5F5F5F5F5F5F5F5F5F5F5F5F5F5F5F5F5E9F5F5F5F5F5F5E2F5F5EFE2F5F5E2F5F5F5E9F5F5F5F5F5F5F5F5F5F5F5F5F5F5F5F5F5F5F5F5F5F5F5F5F5F5F5F5F5F5F5F5F5F5F5F5F5F5F5F5F5F5F5F5F5F5F5F5F5F5F5F5F5F5F5F5F5F5F5F5F5F5F5F5F5F5F5F5F5F5F5F5F5F5F5F5F5F5F5F517E2E25F5F
310
5F5F5FE217F5F5F5F5F517F5F5F5F5F5F5F5F5F517F5F5F5F5F5F5F5F5F5F5F5F5F5F5F5F5F5F5F5F5F5F5F5F5F5F5F5F5F5F5F5F5F5F5F5F5F5F5F5F5F5F5F5F5F5F5F5F5F5F5F5F5F5F5F5E9F5F5F5F5F5F5E2F5F5EFE2F5F5E2F5F5F5E9F5F5F5F5F5F5F5F5F5F5F5F5F5F5F5F5F5F5F5F5F5F5F5F5F5F5F5F5F5F5F5F5
310
F5F5F5F5F5F5F5F5F5F5F5F5F5F5F5F5F5F5F5F5F5F5F5F5F5F5F5F5F5F5F5F5F5F5F5F5F5F5F5F5F5F5F5F5F5F5F5F5F5F517E25F5F5FE217F5F5F5F5F5F517F5F5F5F5F5F5F5F5F517F5F5F5F5F5F5F5F5F5F5F5F5F5F5F5F5F5F5F5F5F5F5F5F5F5F5F5F5F5F5F5F5F5F5F5F5F5F5F5F5F5F5F5F5F5F5F5F5F5F5F5F5F5
310
F5F5E9F5F5F5F5F5F5E2F5F5EFE2F5F5E2F5F5F5E9F5F5F5F5F5F5F5F5F5F5F5F5F5F5F5F5F5F5F5F5F5F5F5F5F5F5F5F5F5F5F5F5F5F5F5F5F5F5F5F5F5F5F5F5F5F5F5F5F5F5F5F5F5F5F5F5F5F5F5F5F5F5F5F5F5F5F5F5F5F5F5F5F5F5F5F5F5F5F5F5F5F5F517E25FE217F5F5F5F5F5F5F517F5F5F5F5F5F5F5F5F517
310
F5F5F5F5F5F5F5F5F5F5F5F5F5F5F5F5F5F5F5F5F5F5F5F5F5F5F5F5F5F5F5F5F5F5F5F5F5F5F5F5F5F5F5F5F5F5F5F5F5F5F5F5F5F5F5E9F5F5F5F5F5F5E2F5F5EFE2F5F5E2F5F5F5E9F5F5F5F5F5F5F5F5F5F5F5F5F5F5F5F5F5F5F5F5F5F5F5F5F5F5F5F5F5F5F5F5F5F5F5F5F5F5F5F5F5F5F5F5F5F5F5F5F5F5F5F5F5
310
F5F5F5F5F5F5F5F5F5F5F5F5F5F5F5F5F5F5F5F5F5F5F5F5F5F5F5F5F5F5F51BBE1BF5F5F5F5F5F5F517171717171717171717171717F5F5F5F5F5F5F5F5F5F5F5F5F5F5F5F5F5F5F5F5F5F5F5F5F5F5F5F5F5F5F5F5F5F5F5F5F5F5F5F5F5F5F5F5F5F5F5F5F5F5F5F5F5F5E9F5F5F5F5F5F5E2F5F5EFE2F5F5E2F5F5F5E9
310
F5F5F5F5F5F5F5F5F5F5F5F5F5F5F5F5F5F5F5F5F5F5F5F5F5F5F5F5F5F5F5F5F5F5F5F5F5F5F5F5F5F5F5F5F5F5F5F5F5F5F5F5F5F5F5F5F5F5F5F5F5F5F5F5F5F5F5F5F5F5F5F5F5F5F5F5F5F5F5F5F5F5F5F5F51B1BF5F5F5F5F5F5F517F5F5F5F5F5F5F5F5F5F5F517F5F5F5F5F5F5F5F5F5F5F5F5F5F5F5F5F5F5F5F5
310
F5F5F5F5F5F5F5F5F5F5F5F5F5F5F5F5F5F5F5F5F5F5F5F5F5F5F5F5F5F5F5F5F5F5E9F5F5F5F5F5F5E2F5F5EFE2F5F5E2F5F5F5E9F5F5F5F5F5F5F5F5F5F5F5F5F5F5F5F5F5F5F5F5F5F5F5F5F5F5F5F5F5F5F5F5F5F5F5F5F5F5F5F5F5F5F5F5F5F5F5F5F5F5F5F5F5F5F5F5F5F5F5F5F5F5F5F5F5F5F5F5F5F5F5F5F5F5
310
F5F5F5F5F5F5F5F5F5F51B1B1BF5F5F5F5F5F5F517171717171717171717171717F5F5F5F5F5F5F5F5F5F5F5F5F5F5F5F5F5F5F5F5F5F5F5F5F5F5F5F5F5F5F5F5F5F5F5F5F5F5F5F5F5F5F5F5F5F5F5F5F5F5F5F5F5F5E9F5F5F5F5F5F5E2F5F5EFE2F5F5E2F5F5F5E9F5F5F5F5F5F5F5F5F5F5F5F5F5F5F5F5F5F5F5F5F5
310
F5F5F5F5F5F5F5F5F5F5F5F5F5F5F5F5F5F5F5F5F5F5F5F5F5F5F5F5F5F5F5F5F5F5F5F5F5F5F5F5F5F5F5F5F5F5F5F5F5F5F5F5F5F5F5F5F5F5F5F5F5F5F5F527F527F52727F5272717171717171717171717171717F5F5F5F5F5F5F5F5F5F5F5F5F5F5F5F5F5F5F5F5F5F5F5F5F5F5F5F5F5F5F5F5F5F5F5F5F5F5F5F5F5
310
F5F5F5F5F5F5F5F5F5F5F5F5F5E9F5F5F5F5F5F5E2F5F5EFE2F5F5E2F5F5F5E9F5F5F5F5F5F5F5F5F5F5F5F5F5F5F5F5F5F5F5F5F5F5F5F5F5F5F5F5F5F5F5F5F5F5F5F5F5F5F5F5F5F5F5F5F5F5F5F5F5F5F5F5F5F5F5F5F5F5F5F5F5F5F5F5F5F5F5F5F5F5F5F5F5F5F5F5F5F5F5F5F5F5F5F5272727F527F5F527272717
310
171717171717171717171717F5F5F5F5F5F5F5F5F5F5F5F5F5F5F5F5F5F5F5F5F5F5F5F5F5F5F5F5F5F5F5F5F5F5F5F5F5F5F5F5F5F5F5F5F5F5F5F5F5F5F5F5F5F5E9F5F5F5F5F5F5E2F5F5EFE2F5F5E2F5F5F5E9F5F5F5F5F5F5F5F5F5F5F5F5F5F5F5F5F5F5F5F5F5F5F5F5F5F5F5F5F5F5F5F5F5F5F5F5F5F5F5F5F5F5
310
F5F5F5F5F5F5F5F5F5F5F5F5F5F5F5F5F5F5F5F5F5F5F5F5F5F5F5F5F5F5F5F5F5F5F5F5F5F5F5F5F5F5F527F52727F527272727F5F5F5F5F5F5F5F5F5F5F5F5F5F5F5F5F5F5F5F5F5F5F5F5F5F5F5F5F5F5F5F5F5F5F5F5F5F5F5F5F5F5F5F5F5F5F5F5F5F5F5F5F5F5F5F5F5F5F5F5F5F5F5F5F5F5F5E9F5F5F5F5F5F5E2
310
F5F5EFE2F5F5F5F5F5F5E9F5F5F5F5F5F5F5F5F5F5F5F5F5F5F5F5F5F5F5F5F5F5F5F5F5F5F5F5F5F5F5F5F5F5F5F5F5F5F5F5F5F5F5F5F5F5F5F5F5F5F5F5F5F5F5F5F5F5F5F5F5F5F5F5F5F5F5F5F5F5F5F5F5F5F5F5F5F5F5F5F5F5F5F5F5F5F5F5F5F5F5F5F5F5F5F5F5F5F5F5F5F5F5F5F5F5F5F5F5F5F5F5F5F5F5F5
310
F5F5F5F5F5F5F5F5F5F5F5F5F5F5F5F5F5F5F5F5F5F5F5F5F5F5F5F5F5F5F5F5F5F5F5F5F5F5F5F5F5F5F5F5F5E9F5F5F5F5F5F5F5F5F5EFE2F5F5F5F5F5F5E9F5F5F5F5F5F5F5F5F5F5F5F5F5F5F5F5F5F5F5F5F5F5F5F5F5F5F5F5F5F5F5F5F5F5F5F5F5F5F5F5F5F5F5F5F5F5F5F5F5F5F5F5F5F5F5F5F5F5F5F5F5F5F5
310
F5F5F5F5F5F5F5F5F5F5F5F5F5F5F5F5F5F5F5F5F5F5F5F5F5F5F5F5F5F5F5F5F5F5F5F5F5F5F5F5F5F5F5F5F5F5F5F5F5F5F5F5F5F5F5F5F5F5F5F5F5F5F5F5F5F5F5F5F5F5F5F5F5F5F5F5F5F5F5F5F5F5F5F5F5F5F5F5F5F5F5F5F5F5F5F5F5F5E9F5F5F5F5F5F5F5F5F5EFE2F5F5F5F5F5F5E9F5F5F5F5F5F5F5F5F5F5
310
F5F5F5F5F5F5F5F5F5F5F5F5F5F5F5F5F5F5F5F5F5F5F5F5F5F5F5F5F5F5F5F5F5F5F5F5F5F5F5F5F5F5F5F5F5F5F5F5F5F5F5F5F5F5F5F5F5F5F5F5F5F5F5F5F5F5F5F5F5F5F5F5F5F5F5F5F5F5F5F5F5F5F5F5F5F5F5F5F5F5F5F5F5F5F5F5F5F5F5F5F5F5F5F5F5F5F5F5F5F5F5F5F5F5F5F5F5F5F5F5F5F5F5F5F5F5F5
310
F5F5F5F5F5F5F5F5F5F5F5F5F5F5F5F5F5F5F5F5F5F5F5F5E9F5F5F5F5F5F5F5F5F5EFE2F5F5F5F5F5F5E9F5F5F5F5F5F5F5F5F5F5F5F5F5F5F5F5F5F5F5F5F5F5F5F5F5F5F5F5F5F5F5F5F5F5F5F5F5F5F5F5F5F5F5F5F5F5F5F5F5F5F5F5F5F5F5F5F5F5F5F5F5F5F5F5F5F5F5F5F5F5F5F5F5F5F5F5F5F5F5F5F5F5F5F5
310
F5F5F5F5F5F5F5F5F5F5F5F5F5F5F5F5F5F5F5F5F5F5F5F5F5F5F5F5F5F5F5F5F5F5F5F5F5F5F5F5F5F5F5F5F5F5F5F5F5F5F5F5F5F5F5F5F5F5F5F5F5F5F5F5F5F5F5F5F5F5F5F5F5F5F5F5F5E9F5F5F5F5F5F5F5F5F5EFE2F5F5F5F5F5F5E9F5F5F5F5F5F5F5F5F5F5F5F5F5F5F5F5F5F5F5F5F5F5F5F5F5F5F5F5F5F5F5
310
F5F5F5F5F5F5F5F5F5F5F5F5F5F5F5F5F5F5F5F5F5F5F5F5F5F5F5F5F5F5F5F5F5F5F5F5F5F5F5F5F5F5F5F5F5F5F5F5F5F5F5F5F5F5F5F5F5F5F5F5F5F5F5F5F5F5F5F5F5F5F5F5F5F5F5F5F5F5F5F5F5F5F5F5F5F5F5F5F5F5F5F5F5F5F5F5F5F5F5F5F5F5F5F5F5F5F5F5F5F5F5F5F5F5F5F5F5F5F5F5F5F5F5F5F5F5F5
310
F5F5F5E9F5F5F5F5F5F5F5F5F5EFE2F5F5F5F5F5F5E9F5F5F5F5F5F5F5F5F5F5F5F5F5F5F5F5F5F5F5F5F5F5F5F5F5F5F5F5F5F5F5F5F5F5F5F5F5F5F5F5F5F5F5F5F5F5F5F5F5F5F5F5F5F5F5F5F5F5F5F5F5F5F5F5F5F5F5F5F5F5F5F5F5F5F5F5F5F5F5F5F5F5F5F5F5F5F5F5F5F5F5F5F5F5F5F5F5F5F5F5F5F5F5F5F5
310
F5F5F5F5F5F5F5F5F5F5F5F5F5F5F5F5F5F5F5F5F5F5F5F5F5F5F5F5F5F5F5F5F5F5F5F5F5F5F5F5F5F5F5F5F5F5F5F5F5F5F5F5F5F5F5F5E9F5F5F5F5F5F5F5F5F5EFE2F5F5F5F5F5F5E9F5F5F5F5F5F5F5F5F5F5F5F5F5F5F5F5F5F5F5F5F5F5F5F5F5F5F5F5F5F5F5F5F5F5F5F5F5F5F5F5F5F5F5F5F5F5F5F5F5F5F5F5
310
F5F5F5F5F5F5F5F5F5F5F5F5F5F5F5F5F5F5F5F5F5F5F5F5F5F5F5F5F5F5F5F5F5F5F5F5F5F5F5F5F5F5F5F5F5F5F5F5F5F5F5F5F5F5F5F5F5F5F5F5F5F5F5F5F5F5F5F5F5F5F5F5F5F5F5F5F5F5F5F5F5F5F5F5F5F5F5F5F5F5F5F5F5F5F5F5F5F5F5F5F5F5F5F5F5F5F5F5F5E9F5F5F5F5F5F5F5F5F5EFE2F5F5F5F5F5F5
310
E9F5F5F5F5F5F5F5F5F5F5F5F5F5F5F5F5F5F5F5F5F5F5F5F5F5F5F5F5F5F5F5F5F5F5F5F5F5F5F5F5F5F5F5F5F5F5F5F5F5F5F5F5F5F5F5F5F5F5F5F5F5F5F5F5F5F5F5F5F5F5F5F5F5F5F5F5F5F5F5F5F5F5F5F5F5F5F5F5F5F5F5F5F5F5F5F5F5F5F5F5F5F5F5F5F5F5F5F5F5F5F5F5F5F5F5F5F5F5F5F5F5F5F5F5F5F5
310
F5F5F5F5F5F5F5F5F5F5F5F5F5F5F5F5F5F5F5F5F5F5F5F5F5F5F5F5F5F5F5F5F5F5F5E9F5F5F5F5F5F5F5F5F5EFE2F5F5F5F5F5F5E9F5F5F5F5F5F5F5F5F5F5F5F5F5F5F5F5F5F5F5F5F5F5F5F5F5F5F5F5F5F5F5F5F5F5F5F5F5F5F5F5F5F5F5F5F5F5F5F5F5F5F5F5F5F5F5F5F5F5F5F5F5F5F5F5F5F5F5F5F5F5F5F5F5
310
F5F5F5F5F5F5F5F5F5F5F5F5F5F5F5F5F5F5F5F5F5F5F5F5F5F5F5F5F5F5F5F5F5F5F5F5F5F5F5F5F5F5F5F5F5F5F5F5F5F5F5F5F5F5F5F5F5F5F5F5F5F5F5F5F5F5F5F5F5F5F5F5F5F5F5F5F5F5F5F5F5F5F5F5F5F5F5F5E9F5F5F5F5F5F5F5F5F5EFE2F5F5E2F5F5F5E9F5F5F5F5F5F5F5F5F5F5F5F5F5F5F5F5F5F5F5F5
310
F5F5F5F5F5F5F5F5F5F5F5F5F5F5F5F5F5F5F5F5F5F5F5F5F5F5F5F5F5F5F5F5F5F5F5F5F5F5F5F5F5F5F5F5F5F5F5F5F5F5F5F5F5F5F5F5F5F5F5F5F5F5F5F5F5F5F5F5F5F5F5F5F5F5F5F5F5F5F5F5F5F5F5F5F5F5F5F5F5F5F5F5F5F5F5F5F5F5F5F5F5F5F5F5F5F5F5F5F5F5F5F5F5F5F5F5F5F5F5F5F5F5F5F5F5F5F5
310
F5F5F5F5F5F5F5F5F5F5F5F5F5F5E9F5F5F5F5F5F5E2F5F5EFE2F5F5E2F5F5F5E9F5F5F5F5F5F5F5F5F5F5F5F5F5F5F5F5F5F5F5F5F5F5F5F5F5F5F5F5F5F5F5F5F5F5F5F5F5F5F5F5F5F5F5F5F5F5F5F5F5F5F5F5F5F5F5F5F5F5F5F5F5F5F5F5F5F5F5F5F5F5F5F5F5F5F5F5F5F5F5F5F5F5F5F5F5F5F5F5F5F5F5F5F5F5
310
F5F5F5F5F5F5F5F5F5F5F5F5F5F5F5F5F5F5F5F5F5F5F5F5F5F5F5F5F5F5F5F5F5F5F5F5F5F5F5F5F5F5F5F5F5F5F5F5F5F5F5F5F5F5F5F5F5F5F5F5F5F5F5F5F5F5F5E9F5F5F5F5F5F5E2F5F5EFE2F5F5E2F5F5F5E9F5F5F5F5F5F5F5F5F5F5F5F5F5F5F5F5F5F5F5F5F5F5F5F5F5F5F5F5F5F5F5F5F5F5F5F5F5F5F5F5F5
310
F5F5F5F5F5F5F5F5F5F5F5F5F5F5F5F5F5F5F5F5F5F5F5F5F5F5F5F5F5F5F5F5F5F5F5F5F5F5F5F5F5F5F5F5F5F5F5F5F5F5F5F5F5F5F5F5F5F5F5F5F5F5F5F5F5F5F5F5F5F5F5F5F5F5F5F5F5F5F5F5F5F5F5F5F5F5F5F5F5F5F5F5F5F5F5F5F5F5F5F5F5F5F5F5F5F5F5F5F5F5F5F5F5F5F5F5F5F5F5F5E9F5F5F5F5F5F5
310
E2F5F5EFE2F5F5E2F5F5F5E9F5F5F5F5F5F5F5F5F5F5F5F5F5F5F5F5F5F5F5F5F5F5F5F5F5F5F5F5F5F5F5F5F5F5F5F5F5F5F5F5F5F5F5F5F5F5F5F5F5F5F5F5F5F5F5F5F5F5F5F5F5F5F5F5F5F5F5F5F5F5F5F5F5F5F5F5F5F5F5F5F5F5F5F5F5F5F5F5F5F5F5F5F5F5F5F5F5F5F5F5F5F5F5F5F5F5F5F5F5F5F5F5F5F5F5
310
F5F5F5F5F5F5F5F5F5F5F5F5F5F5F5F5F5F5F5F5F5F5F5F5F5F5F5F5F5F5F5F5F5F5F5F5F5F5F5F5F5F5F5F5F5F5E9F5F5F5F5F5F5E2F5F5EFE2F5F5E2F5F5F5E9F5F5F5F5F5F5F5F5F5F5F5F5F5F5F5F5F5F5F5F5F5F5F5F5F5F5F5F5F5F5F5F5F5F5F5F5F5F5F5F5F5F5F5F5F5F5F5F5F5F5F5F5F5F5F5F5F5F5F5F5F5F5
310
F5F5F5F5F5F5F5F5F5F5F5F5F5F5F5F5F5F5F5F5F5F5F5F5F5F5F5F5F5F5F5F5F5F5F5F5F5F5F5F5F5F5F5F5F5F5F5F5F5F5F5F5F5F5F5F5F5F5F5F5F5F5F5F5F5F5F5F5F5F5F5F5F5F5F5F5F5F5F5F5F5F5F5F5F5F5F5F5F5F5F5F5F5F5F5F5F5F5F5E9F5F5F5F5F5F5E2F5F5EFE2F5F5E2F5F5F5E9F5F5F5F5F5F5F5F5F5
310
F5F5F5F5F5F5F5F5F5F5F5F5F5F5F5F5F5F5F5F5F5F5F5F5F5F5F5F5F5F5F5F5F5F5F5F5F5F5F5F5F5F5F5F5F5F5F5F5F5F5F5F5F5F5F5F5F5F5F5F5F5F5F5F5F5F5F5F5F5F5F5F5F5F5F5F5F5F5F5F5F5F5F5F5F5F5F5F5F5F5F5F5F5F5F5F5F5F5F5F5F5F5F5F5F5F5F5F5F5F5F5F5F5F5F5F5F5F5F5F5F5F5F5F5F5F5F5
310
F5F5F5F5F5F5F5F5F5F5F5F5F5F5F5F5F5F5F5F5F5F5F5F5F5E9F5F5F5F5F5F5E2F5F5EFE2F5F5E2F5F5F5E9F5F5F5F5F5F5F5F5F5F5F5F5F5F5F5F5F5F5F5F5F5F5F5F5F5F5F5F5F5F5F5F5F5F5F5F5F5F5F5F5F5F5F5F5F5F5F5F5F5F5F5F5F5F5F5F5F5F5F5F5F5F5F5F5F5F5F5F5F5F5F5F5F5F5F5F5F5F5F5F5F5F5F5
310
F5F5F5F5F5F5F5F5F5F5F5F5F5F5F5F5F5F5F5F5F5F5F5F5F5F5F5F5F5F5F5F5F5F5F5F5F5F5F5F5F5F5F5F5F5F5F5F5F5F5F5F5F5F5F5F5F5F5F5F5F5F5F5F5F5F5F5F5F5F5F5F5F5F5F5F5F5F5E9F5F5F5F5F5F5E2F5F5EFE2F5F5E2F5F5F5E9F5F5F5F5F5F5F5F5F5F5F5F5F5F5F5F5F5F5F5F5F5F5F5F5F5F5F5F5F5F5
310
F5F5F5F5F5F5F5F5F5F5F5F5F5F5F5F5F5F5F5F5F5F5F5F5F5F5F5F5F5F5F5F5F5F5F5F5F5F5F5F5F5F5F5F5F5F5F5F5F5F5F5F5F5F5F5F5F5F5F5F5F5F5F5F5F5F5F5F5F5F5F5F5F5F5F5F5F5F5F5F5F5F5F5F5F5F5F5F5F5F5F5F5F5F5F5F5F5F5F5F5F5F5F5F5F5F5F5F5F5F5F5F5F5F5F5F5F5F5F5F5F5F5F5F5F5F5F5
310
F5F5F5F5E9F5F5F5F5F5F5E2F5F5EFE2F5F5E2F5F5F5E9F5F5F5F5F5F5F5F5F5F5F5F5F5F5F5F5F5F5F5F5F5F5F5F5F5F5F5F5F5F5F5F5F5F5F5F5F5F5F5F5F5F5F5F5F5F5F5F5F5F5F5F5F5F5F5F5F5F5F5F5F5F5F5F5F5F5F5F5F5F5F5F5F5F5F5F5F5F5F5F5F5F5F5F5F5F5F5F5F5F5F5F5F5F5F5F5F5F5F5F5F5F5F5F5
310
F5F5F5F5F5F5F5F5F5F5F5F5F5F5F5F5F5F5F5F5F5F5F5F5F5F5F5F5F5F5F5F5F5F5F5F5F5F5F5F5F5F5F5F5F5F5F5F5F5F5F5F5F5F5F5F5F5E9F5F5F5F5F5F5E2F5F5EFE2F5F5E2F5F5F5E9F5F5F5F5F5F5F5F5F5F5F5F5F5F5F5F5F5F5F5F5F5F5F5F5F5F5F5F5F5F5F5F5F5F5F5F5F5F5F5F5F5F5F5F5F5F5F5F5F5F5F5
310
F5F5F5F5F5F5F5F5F5F5F5F5F5F5F5F5F5F5F5F5F5F5F5F5F5F5F5F5F5F5F5F5F5F5F5F5F5F5F5F5F5F5F5F5F5F5F5F5F5F5F5F5F5F5F5F5F5F5F5F5F5F5F5F5F5F5F5F5F5F5F5F5F5F5F5F5F5F5F5F5F5F5F5F5F5F5F5F5F5F5F5F5F5F5F5F5F5F5F5F5F5F5F5F5F5F5F5F5F5F5E9F5F5F5F5F5F5E2F5F5EFE2F5F5E2F5F5
310
F5E9F5F5F5F5F5F5F5F5F5F5F5F5F5F5F5F5F5F5F5F5F5F5F5F5F5F5F5F5F5F5F5F5F5F5F5F5F5F5F5F5F5F5F5F5F5F5F5F5F5F5F5F5F5F5F5F5F5F5F5F5F5F5F5F5F5F5F5F5F5F5F5F5F5F5F5F5F5F5F5F5F5F5F5F5F5F5F5F5F5F5F5F5F5F5F5F5F5F5F5F5F5F5F5F5F5F5F5F5F5F5F5F5F5F5F5F5F5F5F5F5F5F5F5F5F5
310
F5F5F5F5F5F5F5F5F5F5F5F5F5F5F5F5F5F5F5F5F5F5F5F5F5F5F5F5F5F5F5F5F5F5F5F5E9F5F5F5F5F5F5E2F5F5EFE2F5F5E2F5F5F5E9F5F5F5F5F5F5F5F5F5F5F5F5F5F5F5F5F5F5F5F5F5F5F5F5F5F5F5F5F5F5F5F5F5F5F5F5F5F5F5F5F5F5F5F5F5F5F5F5F5F5F5F5F5F5F5F5F5F5F5F5F5F5F5F5F5F5F5F5F5F5F5F5
310
F5F5F5F5F5F5F5F5F5F5F5F5F5F5F5F5F5F5F5F5F5F5F5F5F5F5F5F5F5F5F5F5F5F5F5F5F5F5F5F5F5F5F5F5F5F5F5F5F5F5F5F5F5F5F5F5F5F5F5F5F5F5F5F5F5F5F5F5F5F5F5F5F5F5F5F5F5F5F5F5F5F5F5F5F5F5F5F5F5E9F5F5F5F5F5F5E2F5F5EFE2F5F5E2F5F5F5E9F5F5F5F5F5F5F5F5F5F5F5F5F5F5F5F5F5F5F5
310
F5F5F5F5F5F5F5F5F5F5F5F5F5F5F5F5F5F5F5F5F5F5F5F5F5F5F5F5F5F5F5F5F5F5F5F5F5F5F5F5F5F5F5F5F5F5F5F5F5F5F5F5F5F5F5F5F5F5F5F5F5F5F5F5F5F5F5F5F5F5F5F5F5F5F5F5F5F5F5F5F5F5F5F5F5F5F5F5F5F5F5F5F5F5F5F5F5F5F5F5F5F5F5F5F5F5F5F5F5F5F5F5F5F5F5F5F5F5F5F5F5F5F5F5F5F5F5
310
F5F5F5F5F5F5F5F5F5F5F5F5F5F5F5E9F5F5F5F5F5F5E2F5F5EFE2F5F5E2F5F5F5E9F5F5F5F5F5F5F5F5F5F5F5F5F5F5F5F5F5F5F5F5F5F5F5F5F5F5F5F5F5F5F5F5F5F5F5F5F5F5F5F5F5F5F5F5F5F5F5F5F5F5F5F5F5F5F5F5F5F5F5F5F5F5F5F5F5F5F5F5F5F5F5F5F5F5F5F5F5F5F5F5F5F5F5F5F5F5F5F5F5F5F5F5F5
310
F5F5F5F5F5F5F5F5F5F5F5F5F5F5F5F5F5F5F5F5F5F5F5F5F5F5F5F5F5F5F5F5F5F5F5F5F5F5F5F5F5F5F5F5F5F5F5F5F5F5F5F5F5F5F5F5F5F5F5F5F5F5F5F5F5F5F5F5E9F5F5F5F5F5F5E2F5F5EFE2F5F5E2F5F5F5E9F5F5F5F5F5F5F5F5F5F5F5F5F5F5F5F5F5F5F5F5F5F5F5F5F5F5F5F5F5F5F5F5F5F5F5F5F5F5F5F5
310
F5F5F5F5F5F5F5F5F5F5F5F5F5F5F5F5F5F5F5F5F5F5F5F5F5F5F5F5F5F5F5F5F5F5F5F5F5F5F5F5F5F5F5F5F5F5F5F5F5F5F5F5F5F5F5F5F5F5F5F5F5F5F5F5F5F5F5F5F5F5F5F5F5F5F5F5F5F5F5F5F5F5F5F5F5F5F5F5F5F5F5F5F5F5F5F5F5F5F5F5F5F5F5F5F5F5F5F5F5F5F5F5F5F5F5F5F5F5F5F5F5E9F5F5F5F5F5
310
F5E2F5F5EFE2F5F5E2F5F5F5E9F5F5F5F5F5F5F5F5F5F5F5F5F5F5F5F5F5F5F5F5F5F5F5F5F5F5F5F5F5F5F5F5F5F5F5F5F5F5F5F5F5F5F5F5F5F5F5F5F5F5F5F5F5F5F5F5F5F5F5F5F5F5F5F5F5F5F5F5F5F5F5F5F5F5F5F5F5F5F5F5F5F5F5F5F5F5F5F5F5F5F5F5F5F5F5F5F5F5F5F5F5F5F5F5F5F5F5F5F5F5F5F5F5F5
310
F5F5F5F5F5F5F5F5F5F5F5F5F5F5F5F5F5F5F5F5F5F5F5F5F5F5F5F5F5F5F5F5F5F5F5F5F5F5F5F5F5F5F5F5F5F5F5E9F5F5F5F5F5F5E2F5F5EFE2F5F5F5F5F5F5E9F5F5F5F5F5F5F5F5F5F5F5F5F5F5F5F5F5F5F5F5F5F5F5F5F5F5F5F5F5F5F5F5F5F5F5F5F5F5F5F5F5F5F5F5F5F5F5F5F5F5F5F5F5F5F5F5F5F5F5F5F5
310
F5F5F5F5F5F5F5F5F5F5F5F5F5F5F5F5F5F5F5F5F5F5F5F5F5F5F5F5F5F5F5F5F5F5F5F5F5F5F5F5F5F5F5F5F5F5F5F5F5F5F5F5F5F5F5F5F5F5F5F5F5F5F5F5F5F5F5F5F5F5F5F5F5F5F5F5F5F5F5F5F5F5F5F5F5F5F5F5F5F5F5F5F5F5F5F5F5F5F5F5E9F5F5F5F5F5F5F5F5F5EFE2F5F5F5F5F5F5E9F5F5F5F5F5F5F5F5
310
F5F5F5F5F5F5F5F5F5F5F5F5F5F5F5F5F5F5F5F5F5F5F5F5F5F5F5F5F5F5F5F5F5F5F5F5F5F5F5F5F5F5F5F5F5F5F5F5F5F5F5F5F5F5F5F5F5F5F5F5F5F5F5F5F5F5F5F5F5F5F5F5F5F5F5F5F5F5F5F5F5F5F5F5F5F5F5F5F5F5F5F5F5F5F5F5F5F5F5F5F5F5F5F5F5F5F5F5F5F5F5F5F5F5F5F5F5F5F5F5F5F5F5F5F5F5F5
310
F5F5F5F5F5F5F5F5F5F5F5F5F5F5F5F5F5F5F5F5F5F5F5F5F5F5E9F5F5F5F5F5F5F5F5F5EFE2F5F5F5F5F5F5E9F5F5F5F5F5F5F5F5F5F5F5F5F5F5F5F5F5F5F5F5F5F5F5F5F5F5F5F5F5F5F5F5F5F5F5F5F5F5F5F5F5F5F5F5F5F5F5F5F5F5F5F5F5F5F5F5F5F5F5F5F5F5F5F5F5F5F5F5F5F5F5F5F5F5F5F5F5F5F5F5F5F5
310
F5F5F5F5F5F5F5F5F5F5F5F5F5F5F5F5F5F5F5F5F5F5F5F5F5F5F5F5F5F5F5F5F5F5F5F5F5F5F5F5F5F5F5F5F5F5F5F5F5F5F5F5F5F5F5F5F5F5F5F5F5F5F5F5F5F5F5F5F5F5F5F5F5F5F5F5F5F5F5E9F5F5F5F5F5F5F5F5F5EFE2F5F5F5F5F5F5E9F5F5F5F5F5F5F5F5F5F5F5F5F5F5F5F5F5F5F5F5F5F5F5F5F5F5F5F5F5
310
F5F5F5F5F5F5F5F5F5F5F5F5F5F5F5F5F5F5F5F5F5F5F5F5F5F5F5F5F5F5F5F5F5F5F5F5F5F5F5F5F5F5F5F5F5F5F5F5F5F5F5F5F5F5F5F5F5F5F5F5F5F5F5F5F5F5F5F5F5F5F5F5F5F5F5F5F5F5F5F5F5F5F5F5F5F5F5F5F5F5F5F5F5F5F5F5F5F5F5F5F5F5F5F5F5F5F5F5F5F5F5F5F5F5F5F5F5F5F5F5F5F5F5F5F5F5F5
310
F5F5F5F5F5E9F5F5F5F5F5F5F5F5F5EFE2F5F5F5F5F5F5E9F5F5F5F5F5F5F5F5F5F5F5F5F5F5F5F5F5F5F5F5F5F5F5F5F5F5F5F5F5F5F5F5F5F5F5F5F5F5F5F5F5F5F5F5F5F5F5F5F5F5F5F5F5F5F5F5F5F5F5F5F5F5F5F5F5F5F5F5F5F5F5F5F5F5F5F5F5F5F5F5F5F5F5F5F5F5F5F5F5F5F5F5F5F5F5F5F5F5F5F5F5F5F5
310
F5F5F5F5F5F5F5F5F5F5F5F5F5F5F5F5F5F5F5F5F5F5F5F5F5F5F5F5F5F5F5F5F5F5F5F5F5F5F5F5F5F5F5F5F5F5F5F5F5F5F5F5F5F5F5F5F5F5E9F5F5F5F5F5F5F5F5F5EFE2F5F5F5F5F5F5E9F5F5F5F5F5F5F5F5F5F5F5F5F5F5F5F5F5F5F5F5F5F5F5F5F5F5F5F5F5F5F5F5F5F5F5F5F5F5F5F5F5F5F5F5F5F5F5F5F5F5
310
F5F5F5F5F5F5F5F5F5F5F5F5F5F5F5F5F5F5F5F5F5F5F5F5F5F5F5F5F5F5F5F5F5F5F5F5F5F5F5F5F5F5F5F5F5F5F5F5F5F5F5F5F5F5F5F5F5F5F5F5F5F5F5F5F5F5F5F5F5F5F5F5F5F5F5F5F5F5F5F5F5F5F5F5F5F5F5F5F5F5F5F5F5F5F5F5F5F5F5F5F5F5F5F5F5F5F5F5F5F5F5E9F5F5F5F5F5F5F5F5F5EFE2F5F5F5F5
310
F5F5E9F5F5F5F5F5F5F5F5F5F5F5F5F5F5F5F5F5F5F5F5F5F5F5F5F5F5F5F5F5F5F5F5F5F5F5F5F5F5F5F5F5F5F5F5F5F5F5F5F5F5F5F5F5F5F5F5F5F5F5F5F5F5F5F5F5F5F5F5F5F5F5F5F5F5F5F5F5F5F5F5F5F5F5F5F5F5F5F5F5F5F5F5F5F5F5F5F5F5F5F5F5F5F5F5F5F5F5F5F5F5F5F5F5F5F5F5F5F5F5F5F5F5F5F5
310
F5F5F5F5F5F5F5F5F5F5F5F5F5F5F5F5F5F5F5F5F5F5F5F5F5F5F5F5F5F5F5F5F5F5F5F5F5E9F5F5F5F5F5F5F5F5F5EFE2F5F5F5F5F5F5E9F5F5F5F5F5F5F5F5F5F5F5F5F5F5F5F5F5F5F5F5F5F5F5F5F5F5F5F5F5F5F5F5F5F5F5F5F5F5F5F5F5F5F5F5F5F5F5F5F5F5F5F5F5F5F5F5F5F5F5F5F5F5F5F5F5F5F5F5F5F5F5
310
F5F5F5F5F5F5F5F5F5F5F5F5F5F5F5F5F5F5F5F5F5F5F5F5F5F5F5F5F5F5F5F5F5F5F5F5F5F5F5F5F5F5F5F5F5F5F5F5F5F5F5F5F5F5F5F5F5F5F5F5F5F5F5F5F5F5F5F5F5F5F5F5F5F5F5F5F5F5F5F5F5F5F5F5F5F5F5F5F5F5E9F5F5F5F5F5F5F5F5F5EFE2F5F5F5F5F5F5E9F5F5F5F5F5F5F5F5F5F5F5F5F5F5F5F5F5F5
310
F5F5F5F5F5F5F5F5F5F5F5F5F5F5F5F5F5F5F5F5F5F5F5F5F5F5F5F5F5F5F5F5F5F5F5F5F5F5F5F5F5F5F5F5F5F5F5F5F5F5F5F5F5F5F5F5F5F5F5F5F5F5F5F5F5F5F5F5F5F5F5F5F5F5F5F5F5F5F5F5F5F5F5F5F5F5F5F5F5F5F5F5F5F5F5F5F5F5F5F5F5F5F5F5F5F5F5F5F5F5F5F5F5F5F5F5F5F5F5F5F5F5F5F5F5F5F5
310
F5F5F5F5F5F5F5F5F5F5F5F5F5F5F5F5E9F5F5F5F5F5F5F5F5F5EFE2F5F5E2F5F5F5E9F5F5F5F5F5F5F5F5F5F5F5F5F5F5F5F5F5F5F5F5F5F5F5F5F5F5F5F5F5F5F5F5F5F5F5F5F5F5F5F5F5F5F5F5F5F5F5F5F5F5F5F5F5F5F5F5F5F5F5F5F5F5F5F5F5F5F5F5F5F5F5F5F5F5F5F5F5F5F5F5F5F5F5F5F5F5F5F5F5F5F5F5
310
F5F5F5F5F5F5F5F5F5F5F5F5F5F5F5F5F5F5F5F5F5F5F5F5F5F5F5F5F5F5F5F5F5F5F5F5F5F5F5F5F5F5F5F5F5F5F5F5F5F5F5F5F5F5F5F5F5F5F5F5F5F5F5F5F5F5F5F5F5E9F5F5F5F5F5F5E2F5F5EFE2F5F5E2F5F5F5E9F5F5F5F5F5F5F5F5F5F5F5F5F5F5F5F5F5F5F5F5F5F5F5F5F5F5F5F5F5F5F5F5F5F5F5F5F5F5F5
310
F5F5F5F5F5F5F5F5F5F5F5F5F5F5F5F5F5F5F5F5F5F5F5F5F5F5F5F5F5F5F5F5F5F5F5F5F5F5F5F5F5F5F5F5F5F5F5F5F5F5F5F5F5F5F5F5F5F5F5F5F5F5F5F5F5F5F5F5F5F5F5F5F5F5F5F5F5F5F5F5F5F5F5F5F5F5F5F5F5F5F5F5F5F5F5F5F5F5F5F5F5F5F5F5F5F5F5F5F5F5F5F5F5F5F5F5F5F5F5F5F5F5E9F5F5F5F5
310
F5F5E2F5F5EFE2F5F5E2F5F5F5E9F5F5F5F5F5F5F5F5F5F5F5F5F5F5F5F5F5F5F5F5F5F5F5F5F5F5F5F5F5F5F5F5F5F5F5F5F5F5F5F5F5F5F5F5F5F5F5F5F5F5F5F5F5F5F5F5F5F5F5F5F5F5F5F5F5F5F5F5F5F5F5F5F5F5F5F5F5F5F5F5F5F5F5F5F5F5F5F5F5F5F5F5F5F5F5F5F5F5F5F5F5F5F5F5F5F5F5F5F5F5F5F5F5
310
F5F5F5F5F5F5F5F5F5F5F5F5F5F5F5F5F5F5F5F5F5F5F5F5F5F5F5F5F5F5F5F5F5F5F5F5F5F5F5F5F5F5F5F5F5F5F5F5E9F5F5F5F5F5F5E2F5F5EFE2F5F5E2F5F5F5E9F5F5F5F5F5F5F5F5F5F5F5F5F5F5F5F5F5F5F5F5F5F5F5F5F5F5F5F5F5F5F5F5F5F5F5F5F5F5F5F5F5F5F5F5F5F5F5F5F5F5F5F5F5F5F5F5F5F5F5F5
310
F5F5F5F5F5F5F5F5F5F5F5F5F5F5F5F5F5F5F5F5F5F5F5F5F5F5F5F5F5F5F5F5F5F5F5F5F5F5F5F5F5F5F5F5F5F5F5F5F5F5F5F5F5F5F5F5F5F5F5F5F5F5F5F5F5F5F5F5F5F5F5F5F5F5F5F5F5F5F5F5F5F5F5F5F5F5F5F5F5F5F5F5F5F5F5F5F5F5F5F5F5E9F5F5F5F5F5F5E2F5F5EFE2F5F5E2F5F5F5E9E9E9E9E9E9E9E9
310
E9E9E9E9E9E9E9E9E9E9E9E9E9E9E9E9E9E9E9E9E9E9E9E9E9E9E9E9E9E9E9E9E9E9E9E9E9E9E9E9E9E9E9E9E9E9E9E9E9E9E9E9E9E9E9E9E9E9E9E9E9E9E9E9E9E9E9E9E9E9E9E9E9E9E9E9E9E9E9E9E9E9E9E9E9E9E9E9E9E9E9E9E9E9E9E9E9E9E9E9E9E9E9E9E9E9E9E9E9E9E9E9E9E9E9E9E9E9E9E9E9E9E9E9E9E9E9
310
E9E9E9E9E9E9E9E9E9E9E9E9E9E9E9E9E9E9E9E9E9E9E9E9E9E9E9E9F5F5F5F5F5F5E2F5F5EFE2F5F5E2F5F5F5F5F5F5F5F5F5F5F5F5F5F5F5F5F5F5F5F5F5F5F5F5F5F5F5F5F5F5F5F5F5F5F5F5F5F5F5F5F5F5F5F5F5F5F5F5F5F5F5F5F5F5F5F5F5F5F5F5F5F5F5F5F5F5F5F5F5F5F5F5F5F5F5F5F5F5F5F5F5F5F5F5F5
310
F5F5F5F5F5F5F5F5F5F5F5F5F5F5F5F5F5F5F5F5F5F5F5F5F5F5F5F5F5F5F5F5F5F5F5F5F5F5F5F5F5F5F5F5F5F5F5F5F5F5F5F5F5F5F5F5F5F5F5F5F5F5F5F5F5F5F5F5F5F5F5F5F5F5F5F5F5F5F5F5F5F5F5F5F5F5F5E2F5F5EFE2F5F5E2F5F5F5F5F5F5F5F5F5F5F5F5F5F5F5F5F5F5F5F5F5F5F5F5F5F5F5F5F5F5F5F5
310
F5F5F5F5F5F5F5F5F5F5F5F5F5F5F5F5F5F5F5F5F5F5F5F5F5F5F5F5F5F5F5F5F5F5F5F5F5F5F5F5F5F5F5F5F5F5F5F5F5F5F5F5F5F5F5F5F5F5F5F5F5F5F5F5F5F5F5F5F5F5F5F5F5F5F5F5F5F5F5F5F5F5F5F5F5F5F5F5F5F5F5F5F5F5F5F5F5F5F5F5F5F5F5F5F5F5F5F5F5F5F5F5F5F5F5F5F5F5F5F5F5F5F5F5F5F5F5
310
F5F5F5F5F5F5F5F5F5F5F5F5F5E2F5F5EFE2F5F5E2E2E2E2E2E2E2E2F5F5F5F5F5F5F5F5F5E2E2E2E2E2E2E2E2E2E2E2E2E2E2E2E2F5F5F5F5F5F5F5F5F5E2E2E2E2E2E2E2E2E2E2E2E2E2E2E2E2F5F5F5F5F5F5F5F5F5E2E2E2E2E2E2E2E2E2E2E2E2E2E2E2E2F5F5F5F5F5F5F5F5E2E2E2E2E2E2E2E2E2E2E2E2E2E2E2E2
310
F5F5F5F5F5F5F5F5F5E2E2E2E2E2E2E2E2E2E2E2E2E2E2E2E2F5F5F5F5F5F5F5F5F5E2E2E2E2E2E2E2E2E2E2E2E2E2E2E2E2F5F5F5F5F5F5F5F5F5E2E2E2E2E2E2E2E2F5F5EFE2F5F5F5F5F5F5F5F5F5F5F5F5F5F5F5F5F5F5F5F5F5F5F5F5F5F5F5F5F5F5F5F5F5F5F5F5F5F5F5F5F5F5F5F5F5F5F5F5F5F5F5F5F5F5F5F5
310
F5F5F5F5F5F5F5F5F5F5F5F5F5F5F5F5F5F5F5F5F5F5F5F5F5F5F5F5F5F5F5F5F5F5F5F5F5F5F5F5F5F5F5F5F5F5F5F5F5F5F5F5F5F5F5F5F5F5F5F5F5F5F5F5F5F5F5F5F5F5F5F5F5F5F5F5F5F5F5F5F5F5F5F5F5F5F5F5F5F5F5F5F5F5F5F5F5F5F5F5F5F5F5F5F5F5F5F5F5F5F5F5F5F5F5F5F5F5F5F5F5F5EFE2F5F5F5
310
F5F5F5F5F5F5F5F5F5F5F5F5F5F5F5F5F5F5F5F5F5F5F5F5F5F5F5F5F5F5F5F5F5F5F5F5F5F5F5F5F5F5F5F5F5F5F5F5F5F5F5F5F5F5F5F5F5F5F5F5F5F5F5F5F5F5F5F5F5F5F5F5F5F5F5F5F5F5F5F5F5F5F5F5F5F5F5F5F5F5F5F5F5F5F5F5F5F5F5F5F5F5F5F5F5F5F5F5F5F5F5F5F5F5F5F5F5F5F5F5F5F5F5F5F5F5F5
310
F5F5F5F5F5F5F5F5F5F5F5F5F5F5F5F5F5F5F5F5F5F5F5F5F5F5F5F5F5F5F5F5F5F5F5F5F5F5F5F5F5F5F5F5F5F5F5F5EFE2F5F5F5F5F5F5F5F5F5F5F5F5F5F5F5F5F5F5F5F5F5F5F5F5F5F5F5F5F5F5F5F5F5F5F5F5F5F5F5F5F5F5F5F5F5F5F5F5F5F5F5F5F5F5F5F5F5F5F5F5F5F5F5F5F5F5F5F5F5F5F5F5F5F5F5F5F5
310
F5F5F5F5F5F5F5F5F5F5F5F5F5F5F5F5F5F5F5F5F5F5F5F5F5F5F5F5F5F5F5F5F5F5F5F5F5F5F5F5F5F5F5F5F5F5F5F5F5F5F5F5F5F5F5F5F5F5F5F5F5F5F5F5F5F5F5F5F5F5F5F5F5F5F5F5F5F5F5F5F5F5F5F5F5F5F5F5F5F5F5F5F5F5F5F5F5F5F5F5F5EFE2E2E2E2E2E2E2E2E2E2E2E2E2E2E2E2E2E2E2E2E2E2E2E2E2
310
E2E2E2E2E2E2E2E2E2E2E2E2E2E2E2E2E2E2E2E2E2E2E2E2E2E2E2E2E2E2E2E2E2E2E2E2E2E2E2E2E2E2E2E2E2E2E2E2E2E2E2E2E2E2E2E2E2E2E2E2E2E2E2E2E2E2E2E2E2E2E2E2E2E2E2E2E2E2E2E2E2E2E2E2E2E2E2E2E2E2E2E2E2E2E2E2E2E2E2E2E2E2E2E2E2E2E2E2E2E2E2E2E2E2E2E2E2E2E2E2E2E2E2E2E2E2E2
310
E2E2E2E2E2E2E2E2E2E2E2E2E2E2E2E2E2E2E2E2E2E2E2E2E2E2E2
  0
XRECORD
  5
182
102
{ACAD_REACTORS
330
181
102
}
330
181
100
AcDbXrecord
280
     1
102
MATERIAL
148
0.0
149
0.0
149
0.0
 93
        0
 94
      127
282
     0
 72
     1
 77
     1
171
     1
175
     1
179
     1
273
     0
  0
XRECORD
  5
17F
102
{ACAD_REACTORS
330
17E
102
}
330
17E
100
AcDbXrecord
280
     1
102
MATERIAL
148
0.0
149
0.0
149
0.0
 93
        0
 94
      127
282
     0
 72
     1
 77
     1
171
     1
175
     1
179
     1
273
     0
  0
XRECORD
  5
F
102
{ACAD_REACTORS
330
E
102
}
330
E
100
AcDbXrecord
280
     1
102
MATERIAL
148
0.0
149
0.0
149
0.0
 93
        0
 94
      127
282
     0
 72
     1
 77
     1
171
     1
175
     1
179
     1
273
     0
  0
CELLSTYLEMAP
  5
21D
102
{ACAD_REACTORS
330
188
102
}
330
188
100
AcDbCellStyleMap
 90
        3
300
CELLSTYLE
  1
TABLEFORMAT_BEGIN
 90
        5
170
     1
 91
        0
 92
    32768
 62
   257
 93
        1
300
CONTENTFORMAT
  1
CONTENTFORMAT_BEGIN
 90
        0
 91
        0
 92
        4
 93
        0
300

 40
0.0
140
1.0
 94
        5
 62
     0
340
15F
144
0.25
309
CONTENTFORMAT_END
171
     1
301
MARGIN
  1
CELLMARGIN_BEGIN
 40
0.06
 40
0.06
 40
0.06
 40
0.06
 40
0.18
 40
0.18
309
CELLMARGIN_END
 94
        6
 95
        1
302
GRIDFORMAT
  1
GRIDFORMAT_BEGIN
 90
        0
 91
        1
 62
     0
 92
       -2
340
0
 93
        0
 40
0.045
309
GRIDFORMAT_END
 95
        2
302
GRIDFORMAT
  1
GRIDFORMAT_BEGIN
 90
        0
 91
        1
 62
     0
 92
       -2
340
0
 93
        0
 40
0.045
309
GRIDFORMAT_END
 95
        4
302
GRIDFORMAT
  1
GRIDFORMAT_BEGIN
 90
        0
 91
        1
 62
     0
 92
       -2
340
0
 93
        0
 40
0.045
309
GRIDFORMAT_END
 95
        8
302
GRIDFORMAT
  1
GRIDFORMAT_BEGIN
 90
        0
 91
        1
 62
     0
 92
       -2
340
0
 93
        0
 40
0.045
309
GRIDFORMAT_END
 95
       16
302
GRIDFORMAT
  1
GRIDFORMAT_BEGIN
 90
        0
 91
        1
 62
     0
 92
       -2
340
0
 93
        0
 40
0.045
309
GRIDFORMAT_END
 95
       32
302
GRIDFORMAT
  1
GRIDFORMAT_BEGIN
 90
        0
 91
        1
 62
     0
 92
       -2
340
0
 93
        0
 40
0.045
309
GRIDFORMAT_END
309
TABLEFORMAT_END
  1
CELLSTYLE_BEGIN
 90
        1
 91
        1
300
_TITLE
309
CELLSTYLE_END
300
CELLSTYLE
  1
TABLEFORMAT_BEGIN
 90
        5
170
     1
 91
        0
 92
        0
 62
   257
 93
        1
300
CONTENTFORMAT
  1
CONTENTFORMAT_BEGIN
 90
        0
 91
        0
 92
        4
 93
        0
300

 40
0.0
140
1.0
 94
        5
 62
     0
340
15F
144
0.18
309
CONTENTFORMAT_END
171
     1
301
MARGIN
  1
CELLMARGIN_BEGIN
 40
0.06
 40
0.06
 40
0.06
 40
0.06
 40
0.18
 40
0.18
309
CELLMARGIN_END
 94
        6
 95
        1
302
GRIDFORMAT
  1
GRIDFORMAT_BEGIN
 90
        0
 91
        1
 62
     0
 92
       -2
340
0
 93
        0
 40
0.045
309
GRIDFORMAT_END
 95
        2
302
GRIDFORMAT
  1
GRIDFORMAT_BEGIN
 90
        0
 91
        1
 62
     0
 92
       -2
340
0
 93
        0
 40
0.045
309
GRIDFORMAT_END
 95
        4
302
GRIDFORMAT
  1
GRIDFORMAT_BEGIN
 90
        0
 91
        1
 62
     0
 92
       -2
340
0
 93
        0
 40
0.045
309
GRIDFORMAT_END
 95
        8
302
GRIDFORMAT
  1
GRIDFORMAT_BEGIN
 90
        0
 91
        1
 62
     0
 92
       -2
340
0
 93
        0
 40
0.045
309
GRIDFORMAT_END
 95
       16
302
GRIDFORMAT
  1
GRIDFORMAT_BEGIN
 90
        0
 91
        1
 62
     0
 92
       -2
340
0
 93
        0
 40
0.045
309
GRIDFORMAT_END
 95
       32
302
GRIDFORMAT
  1
GRIDFORMAT_BEGIN
 90
        0
 91
        1
 62
     0
 92
       -2
340
0
 93
        0
 40
0.045
309
GRIDFORMAT_END
309
TABLEFORMAT_END
  1
CELLSTYLE_BEGIN
 90
        2
 91
        1
300
_HEADER
309
CELLSTYLE_END
300
CELLSTYLE
  1
TABLEFORMAT_BEGIN
 90
        5
170
     1
 91
        0
 92
        0
 62
   257
 93
        1
300
CONTENTFORMAT
  1
CONTENTFORMAT_BEGIN
 90
        0
 91
        0
 92
        4
 93
        0
300

 40
0.0
140
1.0
 94
        2
 62
     0
340
15F
144
0.18
309
CONTENTFORMAT_END
171
     1
301
MARGIN
  1
CELLMARGIN_BEGIN
 40
0.06
 40
0.06
 40
0.06
 40
0.06
 40
0.18
 40
0.18
309
CELLMARGIN_END
 94
        6
 95
        1
302
GRIDFORMAT
  1
GRIDFORMAT_BEGIN
 90
        0
 91
        1
 62
     0
 92
       -2
340
0
 93
        0
 40
0.045
309
GRIDFORMAT_END
 95
        2
302
GRIDFORMAT
  1
GRIDFORMAT_BEGIN
 90
        0
 91
        1
 62
     0
 92
       -2
340
0
 93
        0
 40
0.045
309
GRIDFORMAT_END
 95
        4
302
GRIDFORMAT
  1
GRIDFORMAT_BEGIN
 90
        0
 91
        1
 62
     0
 92
       -2
340
0
 93
        0
 40
0.045
309
GRIDFORMAT_END
 95
        8
302
GRIDFORMAT
  1
GRIDFORMAT_BEGIN
 90
        0
 91
        1
 62
     0
 92
       -2
340
0
 93
        0
 40
0.045
309
GRIDFORMAT_END
 95
       16
302
GRIDFORMAT
  1
GRIDFORMAT_BEGIN
 90
        0
 91
        1
 62
     0
 92
       -2
340
0
 93
        0
 40
0.045
309
GRIDFORMAT_END
 95
       32
302
GRIDFORMAT
  1
GRIDFORMAT_BEGIN
 90
        0
 91
        1
 62
     0
 92
       -2
340
0
 93
        0
 40
0.045
309
GRIDFORMAT_END
309
TABLEFORMAT_END
  1
CELLSTYLE_BEGIN
 90
        3
 91
        2
300
_DATA
309
CELLSTYLE_END
  0
XRECORD
  5
227
102
{ACAD_REACTORS
330
188
102
}
330
188
100
AcDbXrecord
280
     1
102
ACAD_ROUNDTRIP_PRE2007_TABLESTYLE
 90
        4
 91
        0
  1

 92
        4
 93
        0
  2

 94
        4
 95
        0
  3

  0
ENDSEC
  0
EOF
