  0
SECTION
  2
HEADER
  9
$ACADVER
  1
AC1015
  9
$ACADMAINTVER
 70
    20
  9
$DWGCODEPAGE
  3
ANSI_1250
  9
$INSBASE
 10
0.0
 20
0.0
 30
0.0
  9
$EXTMIN
 10
8891.496397662589
 20
9007.339576986829
 30
0.0
  9
$EXTMAX
 10
19091.49639766262
 20
23027.33957698683
 30
0.0
  9
$LIMMIN
 10
0.0
 20
0.0
  9
$LIMMAX
 10
12.0
 20
9.0
  9
$ORTHOMODE
 70
     1
  9
$REGENMODE
 70
     1
  9
$FILLMODE
 70
     1
  9
$QTEXTMODE
 70
     0
  9
$MIRRTEXT
 70
     0
  9
$LTSCALE
 40
50.0
  9
$ATTMODE
 70
     1
  9
$TEXTSIZE
 40
0.2
  9
$TRACEWID
 40
0.05
  9
$TEXTSTYLE
  7
Standard
  9
$CLAYER
  8
0Wymiary-PL
  9
$CELTYPE
  6
ByLayer
  9
$CECOLOR
 62
   256
  9
$CELTSCALE
 40
1.0
  9
$DISPSILH
 70
     0
  9
$DIMSCALE
 40
1.0
  9
$DIMASZ
 40
8.0
  9
$DIMEXO
 40
43.0
  9
$DIMDLI
 40
40.0
  9
$DIMRND
 40
0.5
  9
$DIMDLE
 40
12.0
  9
$DIMEXE
 40
13.0
  9
$DIMTP
 40
0.0
  9
$DIMTM
 40
0.0
  9
$DIMTXT
 40
16.0
  9
$DIMCEN
 40
15.0
  9
$DIMTSZ
 40
0.0
  9
$DIMTOL
 70
     0
  9
$DIMLIM
 70
     0
  9
$DIMTIH
 70
     0
  9
$DIMTOH
 70
     0
  9
$DIMSE1
 70
     1
  9
$DIMSE2
 70
     1
  9
$DIMTAD
 70
     0
  9
$DIMZIN
 70
     8
  9
$DIMBLK
  1
B-DIM
  9
$DIMASO
 70
     1
  9
$DIMSHO
 70
     1
  9
$DIMPOST
  1

  9
$DIMAPOST
  1

  9
$DIMALT
 70
     0
  9
$DIMALTD
 70
     2
  9
$DIMALTF
 40
25.4
  9
$DIMLFAC
 40
1.0
  9
$DIMTOFL
 70
     1
  9
$DIMTVP
 40
1.0
  9
$DIMTIX
 70
     1
  9
$DIMSOXD
 70
     0
  9
$DIMSAH
 70
     0
  9
$DIMBLK1
  1

  9
$DIMBLK2
  1

  9
$DIMSTYLE
  2
Standard
  9
$DIMCLRD
 70
     1
  9
$DIMCLRE
 70
     1
  9
$DIMCLRT
 70
   140
  9
$DIMTFAC
 40
1.0
  9
$DIMGAP
 40
4.0
  9
$DIMJUST
 70
     0
  9
$DIMSD1
 70
     0
  9
$DIMSD2
 70
     0
  9
$DIMTOLJ
 70
     1
  9
$DIMTZIN
 70
     0
  9
$DIMALTZ
 70
     0
  9
$DIMALTTZ
 70
     0
  9
$DIMUPT
 70
     0
  9
$DIMDEC
 70
     1
  9
$DIMTDEC
 70
     1
  9
$DIMALTU
 70
     2
  9
$DIMALTTD
 70
     2
  9
$DIMTXSTY
  7
romansDIM
  9
$DIMAUNIT
 70
     0
  9
$DIMADEC
 70
     0
  9
$DIMALTRND
 40
0.0
  9
$DIMAZIN
 70
     0
  9
$DIMDSEP
 70
    46
  9
$DIMATFIT
 70
     3
  9
$DIMFRAC
 70
     0
  9
$DIMLDRBLK
  1
Dot
  9
$DIMLUNIT
 70
     2
  9
$DIMLWD
 70
     5
  9
$DIMLWE
 70
    -2
  9
$DIMTMOVE
 70
     2
  9
$LUNITS
 70
     2
  9
$LUPREC
 70
     2
  9
$SKETCHINC
 40
0.1
  9
$FILLETRAD
 40
0.0
  9
$AUNITS
 70
     0
  9
$AUPREC
 70
     2
  9
$MENU
  1
.
  9
$ELEVATION
 40
0.0
  9
$PELEVATION
 40
0.0
  9
$THICKNESS
 40
0.0
  9
$LIMCHECK
 70
     0
  9
$CHAMFERA
 40
0.0
  9
$CHAMFERB
 40
0.0
  9
$CHAMFERC
 40
0.0
  9
$CHAMFERD
 40
0.0
  9
$SKPOLY
 70
     0
  9
$TDCREATE
 40
2453080.724599746
  9
$TDUCREATE
 40
2453080.641266412
  9
$TDUPDATE
 40
2455058.479529260
  9
$TDUUPDATE
 40
2455058.396195926
  9
$TDINDWG
 40
15.3526101157
  9
$TDUSRTIMER
 40
15.3526101157
  9
$USRTIMER
 70
     1
  9
$ANGBASE
 50
0.0
  9
$ANGDIR
 70
     0
  9
$PDMODE
 70
     3
  9
$PDSIZE
 40
0.0
  9
$PLINEWID
 40
0.0
  9
$SPLFRAME
 70
     0
  9
$SPLINETYPE
 70
     6
  9
$SPLINESEGS
 70
     8
  9
$HANDSEED
  5
795
  9
$SURFTAB1
 70
     6
  9
$SURFTAB2
 70
     6
  9
$SURFTYPE
 70
     6
  9
$SURFU
 70
     6
  9
$SURFV
 70
     6
  9
$UCSBASE
  2

  9
$UCSNAME
  2

  9
$UCSORG
 10
0.0
 20
0.0
 30
0.0
  9
$UCSXDIR
 10
1.0
 20
0.0
 30
0.0
  9
$UCSYDIR
 10
0.0
 20
1.0
 30
0.0
  9
$UCSORTHOREF
  2

  9
$UCSORTHOVIEW
 70
     0
  9
$UCSORGTOP
 10
0.0
 20
0.0
 30
0.0
  9
$UCSORGBOTTOM
 10
0.0
 20
0.0
 30
0.0
  9
$UCSORGLEFT
 10
0.0
 20
0.0
 30
0.0
  9
$UCSORGRIGHT
 10
0.0
 20
0.0
 30
0.0
  9
$UCSORGFRONT
 10
0.0
 20
0.0
 30
0.0
  9
$UCSORGBACK
 10
0.0
 20
0.0
 30
0.0
  9
$PUCSBASE
  2

  9
$PUCSNAME
  2

  9
$PUCSORG
 10
0.0
 20
0.0
 30
0.0
  9
$PUCSXDIR
 10
1.0
 20
0.0
 30
0.0
  9
$PUCSYDIR
 10
0.0
 20
1.0
 30
0.0
  9
$PUCSORTHOREF
  2

  9
$PUCSORTHOVIEW
 70
     0
  9
$PUCSORGTOP
 10
0.0
 20
0.0
 30
0.0
  9
$PUCSORGBOTTOM
 10
0.0
 20
0.0
 30
0.0
  9
$PUCSORGLEFT
 10
0.0
 20
0.0
 30
0.0
  9
$PUCSORGRIGHT
 10
0.0
 20
0.0
 30
0.0
  9
$PUCSORGFRONT
 10
0.0
 20
0.0
 30
0.0
  9
$PUCSORGBACK
 10
0.0
 20
0.0
 30
0.0
  9
$USERI1
 70
     1
  9
$USERI2
 70
     1
  9
$USERI3
 70
     0
  9
$USERI4
 70
     0
  9
$USERI5
 70
     1
  9
$USERR1
 40
0.0
  9
$USERR2
 40
0.0
  9
$USERR3
 40
0.0
  9
$USERR4
 40
0.0
  9
$USERR5
 40
0.0
  9
$WORLDVIEW
 70
     1
  9
$SHADEDGE
 70
     3
  9
$SHADEDIF
 70
    70
  9
$TILEMODE
 70
     1
  9
$MAXACTVP
 70
    64
  9
$PINSBASE
 10
0.0
 20
0.0
 30
0.0
  9
$PLIMCHECK
 70
     0
  9
$PEXTMIN
 10
-2.070604717613292
 20
0.7619234537465212
 30
0.0
  9
$PEXTMAX
 10
19.74235495400163
 20
28.35931970293005
 30
0.0
  9
$PLIMMIN
 10
-0.6805083274841309
 20
-0.5027085781097412
  9
$PLIMMAX
 10
20.31682443618775
 20
29.19412369728089
  9
$UNITMODE
 70
     0
  9
$VISRETAIN
 70
     1
  9
$PLINEGEN
 70
     0
  9
$PSLTSCALE
 70
     0
  9
$TREEDEPTH
 70
  3020
  9
$CMLSTYLE
  2
Standard
  9
$CMLJUST
 70
     0
  9
$CMLSCALE
 40
1.0
  9
$PROXYGRAPHICS
 70
     1
  9
$MEASUREMENT
 70
     0
  9
$CELWEIGHT
370
    -1
  9
$ENDCAPS
280
     0
  9
$JOINSTYLE
280
     0
  9
$LWDISPLAY
290
     0
  9
$INSUNITS
 70
     5
  9
$HYPERLINKBASE
  1

  9
$STYLESHEET
  1

  9
$XEDIT
290
     1
  9
$CEPSNTYPE
380
     0
  9
$PSTYLEMODE
290
     1
  9
$FINGERPRINTGUID
  2
{FD9DFE2C-1F3B-4630-BAF5-32CAC3BD945C}
  9
$VERSIONGUID
  2
{661708FD-539C-4928-A604-E6B3A1C72F68}
  9
$EXTNAMES
290
     1
  9
$PSVPSCALE
 40
0.0
  9
$OLESTARTUP
290
     0
  0
ENDSEC
  0
SECTION
  2
CLASSES
  0
CLASS
  1
ACDBDICTIONARYWDFLT
  2
AcDbDictionaryWithDefault
  3
ObjectDBX Classes
 90
        0
280
     0
281
     0
  0
CLASS
  1
ACDBPLACEHOLDER
  2
AcDbPlaceHolder
  3
ObjectDBX Classes
 90
        0
280
     0
281
     0
  0
CLASS
  1
LAYOUT
  2
AcDbLayout
  3
ObjectDBX Classes
 90
        0
280
     0
281
     0
  0
CLASS
  1
DICTIONARYVAR
  2
AcDbDictionaryVar
  3
ObjectDBX Classes
 90
        0
280
     0
281
     0
  0
CLASS
  1
AEC_NOTIFICATION_TRACKER
  2
AecDbNotificationTracker
  3
AecBase50|Product Desc: Autodesk Architectural Desktop 2007 |Company: Autodesk,Inc. |WEB Address: www.autodesk.com
 90
    32897
280
     0
281
     0
  0
CLASS
  1
AEC_DISP_REP_2D_SECTION
  2
AecDbDispRep2dSection
  3
AecBase50|Product Desc: Autodesk Architectural Desktop 2007 |Company: Autodesk,Inc. |WEB Address: www.autodesk.com
 90
    32897
280
     0
281
     0
  0
CLASS
  1
AEC_VARS_DWG_SETUP
  2
AecDbVarsDwgSetup
  3
AecBase50|Product Desc: Autodesk Architectural Desktop 2007 |Company: Autodesk,Inc. |WEB Address: www.autodesk.com
 90
    32897
280
     0
281
     0
  0
CLASS
  1
AEC_DISP_PROPS_2D_SECTION
  2
AecDbDispProps2dSection
  3
AecBase50|Product Desc: Autodesk Architectural Desktop 2007 |Company: Autodesk,Inc. |WEB Address: www.autodesk.com
 90
    32897
280
     0
281
     0
  0
CLASS
  1
AEC_DISP_REP_ANCHOR
  2
AecDbDispRepAnchor
  3
AecBase50|Product Desc: Autodesk Architectural Desktop 2007 |Company: Autodesk,Inc. |WEB Address: www.autodesk.com
 90
    32897
280
     0
281
     0
  0
CLASS
  1
AEC_DISP_REP_ANCHOR_ENT_TO_NODE
  2
AecDbDispRepAnchorEntToNode
  3
AecBaseEx50|Product Desc: Autodesk Architectural Desktop 2007 |Company: Autodesk,Inc. |WEB Address: www.autodesk.com
 90
    32897
280
     0
281
     0
  0
CLASS
  1
AEC_DISP_PROPS_ENT
  2
AecDbDispPropsEnt
  3
AecBase50|Product Desc: Autodesk Architectural Desktop 2007 |Company: Autodesk,Inc. |WEB Address: www.autodesk.com
 90
    32897
280
     0
281
     0
  0
CLASS
  1
AEC_DISP_REP_CAMERA
  2
AecDbDispRepCamera
  3
AecBase50|Product Desc: Autodesk Architectural Desktop 2007 |Company: Autodesk,Inc. |WEB Address: www.autodesk.com
 90
    32897
280
     0
281
     0
  0
CLASS
  1
AEC_DISP_PROPS_CAMERA
  2
AecDbDispPropsCamera
  3
AecBase50|Product Desc: Autodesk Architectural Desktop 2007 |Company: Autodesk,Inc. |WEB Address: www.autodesk.com
 90
    32897
280
     0
281
     0
  0
CLASS
  1
AEC_DISP_REP_CLIP_VOLUME_MODEL
  2
AecDbDispRepClipVolModel
  3
AecBase50|Product Desc: Autodesk Architectural Desktop 2007 |Company: Autodesk,Inc. |WEB Address: www.autodesk.com
 90
    32897
280
     0
281
     0
  0
CLASS
  1
AEC_DISP_PROPS_CLIP_VOLUME
  2
AecDbDispPropsClipVol
  3
AecBase50|Product Desc: Autodesk Architectural Desktop 2007 |Company: Autodesk,Inc. |WEB Address: www.autodesk.com
 90
    32897
280
     0
281
     0
  0
CLASS
  1
AEC_DISP_REP_CLIP_VOLUME_PLAN
  2
AecDbDispRepClipVolPlan
  3
AecBase50|Product Desc: Autodesk Architectural Desktop 2007 |Company: Autodesk,Inc. |WEB Address: www.autodesk.com
 90
    32897
280
     0
281
     0
  0
CLASS
  1
AEC_DISP_REP_CLIP_VOLUME_RESULT
  2
AecDbDispRepClipVolResult
  3
AecBase50|Product Desc: Autodesk Architectural Desktop 2007 |Company: Autodesk,Inc. |WEB Address: www.autodesk.com
 90
    32897
280
     0
281
     0
  0
CLASS
  1
AEC_DISP_REP_CLIP_VOLUME_RESULT_SUBDIV
  2
AecDbDispRepClipVolResSubDiv
  3
AecBase50|Product Desc: Autodesk Architectural Desktop 2007 |Company: Autodesk,Inc. |WEB Address: www.autodesk.com
 90
    32897
280
     0
281
     0
  0
CLASS
  1
AEC_DISP_PROPS_CLIP_VOLUME_RESULT
  2
AecDbDispPropsClipVolResSubDiv
  3
AecBase50|Product Desc: Autodesk Architectural Desktop 2007 |Company: Autodesk,Inc. |WEB Address: www.autodesk.com
 90
    32897
280
     0
281
     0
  0
CLASS
  1
AEC_DISP_REP_EDITINPLACEPROFILE
  2
AecDbDispRepEditInPlaceProfile
  3
AecBase50|Product Desc: Autodesk Architectural Desktop 2007 |Company: Autodesk,Inc. |WEB Address: www.autodesk.com
 90
    32897
280
     0
281
     0
  0
CLASS
  1
AEC_DISP_PROPS_EDITINPLACEPROFILE_MODEL
  2
AecDbDispPropsEditInPlaceProfile
  3
AecBase50|Product Desc: Autodesk Architectural Desktop 2007 |Company: Autodesk,Inc. |WEB Address: www.autodesk.com
 90
    32897
280
     0
281
     0
  0
CLASS
  1
AEC_DISP_REP_ENT_REF
  2
AecDbDispRepEntRef
  3
AecBase50|Product Desc: Autodesk Architectural Desktop 2007 |Company: Autodesk,Inc. |WEB Address: www.autodesk.com
 90
    32897
280
     0
281
     0
  0
CLASS
  1
AEC_DISP_PROPS_ENT_REF
  2
AecDbDispPropsEntRef
  3
AecBase50|Product Desc: Autodesk Architectural Desktop 2007 |Company: Autodesk,Inc. |WEB Address: www.autodesk.com
 90
    32897
280
     0
281
     0
  0
CLASS
  1
AEC_DISP_REP_LAYOUT_CURVE
  2
AecDbDispRepLayoutCurve
  3
AecBase50|Product Desc: Autodesk Architectural Desktop 2007 |Company: Autodesk,Inc. |WEB Address: www.autodesk.com
 90
    32897
280
     0
281
     0
  0
CLASS
  1
AEC_DISP_PROPS_LAYOUT_CURVE
  2
AecDbDispPropsLayoutCurve
  3
AecBase50|Product Desc: Autodesk Architectural Desktop 2007 |Company: Autodesk,Inc. |WEB Address: www.autodesk.com
 90
    32897
280
     0
281
     0
  0
CLASS
  1
AEC_DISP_REP_LAYOUT_GRID2D
  2
AecDbDispRepLayoutGrid2d
  3
AecBase50|Product Desc: Autodesk Architectural Desktop 2007 |Company: Autodesk,Inc. |WEB Address: www.autodesk.com
 90
    32897
280
     0
281
     0
  0
CLASS
  1
AEC_DISP_PROPS_LAYOUT_GRID2D
  2
AecDbDispPropsLayoutGrid2d
  3
AecBase50|Product Desc: Autodesk Architectural Desktop 2007 |Company: Autodesk,Inc. |WEB Address: www.autodesk.com
 90
    32897
280
     0
281
     0
  0
CLASS
  1
AEC_DISP_REP_LAYOUT_GRID3D
  2
AecDbDispRepLayoutGrid3d
  3
AecBase50|Product Desc: Autodesk Architectural Desktop 2007 |Company: Autodesk,Inc. |WEB Address: www.autodesk.com
 90
    32897
280
     0
281
     0
  0
CLASS
  1
AEC_DISP_PROPS_LAYOUT_GRID3D
  2
AecDbDispPropsLayoutGrid3d
  3
AecBase50|Product Desc: Autodesk Architectural Desktop 2007 |Company: Autodesk,Inc. |WEB Address: www.autodesk.com
 90
    32897
280
     0
281
     0
  0
CLASS
  1
AEC_DISP_REP_MASKBLOCK_REF
  2
AecDbDispRepMaskBlockRef
  3
AecBase50|Product Desc: Autodesk Architectural Desktop 2007 |Company: Autodesk,Inc. |WEB Address: www.autodesk.com
 90
    32897
280
     0
281
     0
  0
CLASS
  1
AEC_DISP_PROPS_MASKBLOCK
  2
AecDbDispPropsMaskBlock
  3
AecBase50|Product Desc: Autodesk Architectural Desktop 2007 |Company: Autodesk,Inc. |WEB Address: www.autodesk.com
 90
    32897
280
     0
281
     0
  0
CLASS
  1
AEC_DISP_REP_MASS_ELEM_MODEL
  2
AecDbDispRepMassElemModel
  3
AecBaseEx50|Product Desc: Autodesk Architectural Desktop 2007 |Company: Autodesk,Inc. |WEB Address: www.autodesk.com
 90
    32897
280
     0
281
     0
  0
CLASS
  1
AEC_DISP_PROPS_MASS_ELEM_MODEL
  2
AecDbDispPropsMassElem
  3
AecBaseEx50|Product Desc: Autodesk Architectural Desktop 2007 |Company: Autodesk,Inc. |WEB Address: www.autodesk.com
 90
    32897
280
     0
281
     0
  0
CLASS
  1
AEC_DISP_REP_MASS_ELEM_SCHEM
  2
AecDbDispRepMassElemSchem
  3
AecBaseEx50|Product Desc: Autodesk Architectural Desktop 2007 |Company: Autodesk,Inc. |WEB Address: www.autodesk.com
 90
    32897
280
     0
281
     0
  0
CLASS
  1
AEC_DISP_REP_MASS_GROUP_MODEL
  2
AecDbDispRepMassGroupModel
  3
AecBaseEx50|Product Desc: Autodesk Architectural Desktop 2007 |Company: Autodesk,Inc. |WEB Address: www.autodesk.com
 90
    32897
280
     0
281
     0
  0
CLASS
  1
AEC_DISP_PROPS_MASS_GROUP
  2
AecDbDispPropsMassGroup
  3
AecBaseEx50|Product Desc: Autodesk Architectural Desktop 2007 |Company: Autodesk,Inc. |WEB Address: www.autodesk.com
 90
    32897
280
     0
281
     0
  0
CLASS
  1
AEC_DISP_REP_MASS_GROUP_PLAN
  2
AecDbDispRepMassGroupPlan
  3
AecBaseEx50|Product Desc: Autodesk Architectural Desktop 2007 |Company: Autodesk,Inc. |WEB Address: www.autodesk.com
 90
    32897
280
     0
281
     0
  0
CLASS
  1
AEC_DISP_REP_MATERIAL
  2
AecDbDispRepMaterial
  3
AecBase50|Product Desc: Autodesk Architectural Desktop 2007 |Company: Autodesk,Inc. |WEB Address: www.autodesk.com
 90
    32897
280
     0
281
     0
  0
CLASS
  1
AEC_DISP_PROPS_MATERIAL
  2
AecDbDispPropsMaterial
  3
AecBase50|Product Desc: Autodesk Architectural Desktop 2007 |Company: Autodesk,Inc. |WEB Address: www.autodesk.com
 90
    32897
280
     0
281
     0
  0
CLASS
  1
AEC_DISP_REP_MVBLOCK_REF
  2
AecDbDispRepMvBlockRef
  3
AecBase50|Product Desc: Autodesk Architectural Desktop 2007 |Company: Autodesk,Inc. |WEB Address: www.autodesk.com
 90
    32897
280
     0
281
     0
  0
CLASS
  1
AEC_DISP_REP_MVBLOCK_REF_MODEL
  2
AecDbDispRepMvBlockRefModel
  3
AecBase50|Product Desc: Autodesk Architectural Desktop 2007 |Company: Autodesk,Inc. |WEB Address: www.autodesk.com
 90
    32897
280
     0
281
     0
  0
CLASS
  1
AEC_DISP_REP_POLYGON_MODEL
  2
AecDbDispRepPolygonModel
  3
AecBaseEx50|Product Desc: Autodesk Architectural Desktop 2007 |Company: Autodesk,Inc. |WEB Address: www.autodesk.com
 90
    32897
280
     0
281
     0
  0
CLASS
  1
AEC_DISP_PROPS_POLYGON_MODEL
  2
AecDbDispPropsPolygonModel
  3
AecBaseEx50|Product Desc: Autodesk Architectural Desktop 2007 |Company: Autodesk,Inc. |WEB Address: www.autodesk.com
 90
    32897
280
     0
281
     0
  0
CLASS
  1
AEC_DISP_REP_POLYGON_TRUECOLOUR
  2
AecDbDispRepPolygonTrueColour
  3
AecBaseEx50|Product Desc: Autodesk Architectural Desktop 2007 |Company: Autodesk,Inc. |WEB Address: www.autodesk.com
 90
    32897
280
     0
281
     0
  0
CLASS
  1
AEC_DISP_PROPS_POLYGON_TRUECOLOUR
  2
AecDbDispPropsPolygonTrueColour
  3
AecBaseEx50|Product Desc: Autodesk Architectural Desktop 2007 |Company: Autodesk,Inc. |WEB Address: www.autodesk.com
 90
    32897
280
     0
281
     0
  0
CLASS
  1
AEC_DISP_REP_SLICE
  2
AecDbDispRepSlice
  3
AecBase50|Product Desc: Autodesk Architectural Desktop 2007 |Company: Autodesk,Inc. |WEB Address: www.autodesk.com
 90
    32897
280
     0
281
     0
  0
CLASS
  1
AEC_DISP_PROPS_SLICE
  2
AecDbDispPropsSlice
  3
AecBase50|Product Desc: Autodesk Architectural Desktop 2007 |Company: Autodesk,Inc. |WEB Address: www.autodesk.com
 90
    32897
280
     0
281
     0
  0
CLASS
  1
AEC_DISP_REP_ANCHOR_TAG_TO_ENT
  2
AecDbDispRepAnchorTagToEnt
  3
AecScheduleData50|Product Desc: Autodesk Architectural Desktop 2007 |Company: Autodesk,Inc. |WEB Address: www.autodesk.com
 90
    32897
280
     0
281
     0
  0
CLASS
  1
AEC_DISP_REP_BDG_ELEVLINE_MODEL
  2
AecDbDispRepBdgElevLineModel
  3
AecArchBase50|Product Desc: Autodesk Architectural Desktop 2007 |Company: Autodesk,Inc. |WEB Address: www.autodesk.com
 90
    32897
280
     0
281
     0
  0
CLASS
  1
AEC_DISP_REP_BDG_SECTIONLINE_PLAN
  2
AecDbDispRepBdgElevLinePlan
  3
AecArchBase50|Product Desc: Autodesk Architectural Desktop 2007 |Company: Autodesk,Inc. |WEB Address: www.autodesk.com
 90
    32897
280
     0
281
     0
  0
CLASS
  1
AEC_DISP_REP_BDG_ELEVLINE_RCP
  2
AecDbDispRepBdgElevLineRcp
  3
AecArchBase50|Product Desc: Autodesk Architectural Desktop 2007 |Company: Autodesk,Inc. |WEB Address: www.autodesk.com
 90
    32897
280
     0
281
     0
  0
CLASS
  1
AEC_DISP_REP_BDG_SECTIONLINE_MODEL
  2
AecDbDispRepBdgSectionLineModel
  3
AecArchBase50|Product Desc: Autodesk Architectural Desktop 2007 |Company: Autodesk,Inc. |WEB Address: www.autodesk.com
 90
    32897
280
     0
281
     0
  0
CLASS
  1
AEC_DISP_REP_BDG_SECTIONLINE_PLAN
  2
AecDbDispRepBdgSectionLinePlan
  3
AecArchBase50|Product Desc: Autodesk Architectural Desktop 2007 |Company: Autodesk,Inc. |WEB Address: www.autodesk.com
 90
    32897
280
     0
281
     0
  0
CLASS
  1
AEC_DISP_REP_BDG_SECTIONLINE_RCP
  2
AecDbDispRepBdgSectionLineRcp
  3
AecArchBase50|Product Desc: Autodesk Architectural Desktop 2007 |Company: Autodesk,Inc. |WEB Address: www.autodesk.com
 90
    32897
280
     0
281
     0
  0
CLASS
  1
AEC_DISP_REP_BDG_SECTION_MODEL
  2
AecDbDispRepBdgSectionModel
  3
AecArchBase50|Product Desc: Autodesk Architectural Desktop 2007 |Company: Autodesk,Inc. |WEB Address: www.autodesk.com
 90
    32897
280
     0
281
     0
  0
CLASS
  1
AEC_DISP_REP_BDG_SECTION_SUBDIV
  2
AecDbDispRepBdgSectionSubDiv
  3
AecArchBase50|Product Desc: Autodesk Architectural Desktop 2007 |Company: Autodesk,Inc. |WEB Address: www.autodesk.com
 90
    32897
280
     0
281
     0
  0
CLASS
  1
AEC_DISP_REP_CEILING_GRID
  2
AecDbDispRepCeilingGrid
  3
AecArchBase50|Product Desc: Autodesk Architectural Desktop 2007 |Company: Autodesk,Inc. |WEB Address: www.autodesk.com
 90
    33661
280
     0
281
     0
  0
CLASS
  1
AEC_DISP_REP_CEILING_GRID_MODEL
  2
AecDbDispRepCeilingGridModel
  3
AecArchBase50|Product Desc: Autodesk Architectural Desktop 2007 |Company: Autodesk,Inc. |WEB Address: www.autodesk.com
 90
    32897
280
     0
281
     0
  0
CLASS
  1
AEC_DISP_REP_CEILING_GRID_RCP
  2
AecDbDispRepCeilingGridRcp
  3
AecArchBase50|Product Desc: Autodesk Architectural Desktop 2007 |Company: Autodesk,Inc. |WEB Address: www.autodesk.com
 90
    32897
280
     0
281
     0
  0
CLASS
  1
AEC_DISP_REP_CURTAIN_WALL_LAYOUT_MODEL
  2
AecDbDispRepCurtainWallLayoutModel
  3
AecArchBase50|Product Desc: Autodesk Architectural Desktop 2007 |Company: Autodesk,Inc. |WEB Address: www.autodesk.com
 90
    32897
280
     0
281
     0
  0
CLASS
  1
AEC_DISP_PROPS_GRID_ASSEMBLY_MODEL
  2
AecDbDispPropsGridAssemblyModel
  3
AecArchBase50|Product Desc: Autodesk Architectural Desktop 2007 |Company: Autodesk,Inc. |WEB Address: www.autodesk.com
 90
    32897
280
     0
281
     0
  0
CLASS
  1
AEC_DISP_REP_CURTAIN_WALL_LAYOUT_PLAN
  2
AecDbDispRepCurtainWallLayoutPlan
  3
AecArchBase50|Product Desc: Autodesk Architectural Desktop 2007 |Company: Autodesk,Inc. |WEB Address: www.autodesk.com
 90
    32897
280
     0
281
     0
  0
CLASS
  1
AEC_DISP_PROPS_GRID_ASSEMBLY_PLAN
  2
AecDbDispPropsGridAssemblyPlan
  3
AecArchBase50|Product Desc: Autodesk Architectural Desktop 2007 |Company: Autodesk,Inc. |WEB Address: www.autodesk.com
 90
    32897
280
     0
281
     0
  0
CLASS
  1
AEC_DISP_REP_CURTAIN_WALL_UNIT_MODEL
  2
AecDbDispRepCurtainWallUnitModel
  3
AecArchBase50|Product Desc: Autodesk Architectural Desktop 2007 |Company: Autodesk,Inc. |WEB Address: www.autodesk.com
 90
    32897
280
     0
281
     0
  0
CLASS
  1
AEC_DISP_REP_CURTAIN_WALL_UNIT_PLAN
  2
AecDbDispRepCurtainWallUnitPlan
  3
AecArchBase50|Product Desc: Autodesk Architectural Desktop 2007 |Company: Autodesk,Inc. |WEB Address: www.autodesk.com
 90
    32897
280
     0
281
     0
  0
CLASS
  1
AEC_DISP_REP_DOOR_MODEL
  2
AecDbDispRepDoorModel
  3
AecArchBase50|Product Desc: Autodesk Architectural Desktop 2007 |Company: Autodesk,Inc. |WEB Address: www.autodesk.com
 90
    32897
280
     0
281
     0
  0
CLASS
  1
AEC_DISP_PROPS_DOOR
  2
AecDbDispPropsDoor
  3
AecArchBase50|Product Desc: Autodesk Architectural Desktop 2007 |Company: Autodesk,Inc. |WEB Address: www.autodesk.com
 90
    32897
280
     0
281
     0
  0
CLASS
  1
AEC_DISP_REP_DOOR_ELEV
  2
AecDbDispRepDoorElev
  3
AecArchBase50|Product Desc: Autodesk Architectural Desktop 2007 |Company: Autodesk,Inc. |WEB Address: www.autodesk.com
 90
    32897
280
     0
281
     0
  0
CLASS
  1
AEC_DISP_REP_DOOR_PLAN
  2
AecDbDispRepDoorPlan
  3
AecArchBase50|Product Desc: Autodesk Architectural Desktop 2007 |Company: Autodesk,Inc. |WEB Address: www.autodesk.com
 90
    32897
280
     0
281
     0
  0
CLASS
  1
AEC_DISP_REP_DOOR_NOMINAL
  2
AecDbDispRepDoorNominal
  3
AecArchBase50|Product Desc: Autodesk Architectural Desktop 2007 |Company: Autodesk,Inc. |WEB Address: www.autodesk.com
 90
    32897
280
     0
281
     0
  0
CLASS
  1
AEC_DISP_PROPS_DOOR_NOMINAL
  2
AecDbDispPropsDoorNominal
  3
AecArchBase50|Product Desc: Autodesk Architectural Desktop 2007 |Company: Autodesk,Inc. |WEB Address: www.autodesk.com
 90
    32897
280
     0
281
     0
  0
CLASS
  1
AEC_DISP_REP_DOOR_RCP
  2
AecDbDispRepDoorRcp
  3
AecArchBase50|Product Desc: Autodesk Architectural Desktop 2007 |Company: Autodesk,Inc. |WEB Address: www.autodesk.com
 90
    32897
280
     0
281
     0
  0
CLASS
  1
AEC_DISP_REP_DOOR_THRESHOLD_PLAN
  2
AecDbDispRepDoorThresholdPlan
  3
AecArchBase50|Product Desc: Autodesk Architectural Desktop 2007 |Company: Autodesk,Inc. |WEB Address: www.autodesk.com
 90
    32897
280
     0
281
     0
  0
CLASS
  1
AEC_DISP_PROPS_DOOR_THRESHOLD_PLAN
  2
AecDbDispPropsDoorThresholdPlan
  3
AecArchBase50|Product Desc: Autodesk Architectural Desktop 2007 |Company: Autodesk,Inc. |WEB Address: www.autodesk.com
 90
    32897
280
     0
281
     0
  0
CLASS
  1
AEC_DISP_REP_MASKBLOCK_REF_RCP
  2
AecDbDispRepMaskBlockRefRcp
  3
AecArchBase50|Product Desc: Autodesk Architectural Desktop 2007 |Company: Autodesk,Inc. |WEB Address: www.autodesk.com
 90
    32897
280
     0
281
     0
  0
CLASS
  1
AEC_DISP_REP_MASS_ELEM_RCP
  2
AecDbDispRepMassElemRcp
  3
AecArchBase50|Product Desc: Autodesk Architectural Desktop 2007 |Company: Autodesk,Inc. |WEB Address: www.autodesk.com
 90
    32897
280
     0
281
     0
  0
CLASS
  1
AEC_DISP_REP_MASS_GROUP_RCP
  2
AecDbDispRepMassGroupRcp
  3
AecArchBase50|Product Desc: Autodesk Architectural Desktop 2007 |Company: Autodesk,Inc. |WEB Address: www.autodesk.com
 90
    32897
280
     0
281
     0
  0
CLASS
  1
AEC_DISP_REP_MVBLOCK_REF_RCP
  2
AecDbDispRepMvBlockRefRcp
  3
AecArchBase50|Product Desc: Autodesk Architectural Desktop 2007 |Company: Autodesk,Inc. |WEB Address: www.autodesk.com
 90
    32897
280
     0
281
     0
  0
CLASS
  1
AEC_DISP_REP_OPENING
  2
AecDbDispRepOpening
  3
AecArchBase50|Product Desc: Autodesk Architectural Desktop 2007 |Company: Autodesk,Inc. |WEB Address: www.autodesk.com
 90
    32897
280
     0
281
     0
  0
CLASS
  1
AEC_DISP_PROPS_OPENING
  2
AecDbDispPropsOpening
  3
AecArchBase50|Product Desc: Autodesk Architectural Desktop 2007 |Company: Autodesk,Inc. |WEB Address: www.autodesk.com
 90
    32897
280
     0
281
     0
  0
CLASS
  1
AEC_DISP_REP_OPENING_MODEL
  2
AecDbDispRepOpeningModel
  3
AecArchBase50|Product Desc: Autodesk Architectural Desktop 2007 |Company: Autodesk,Inc. |WEB Address: www.autodesk.com
 90
    32897
280
     0
281
     0
  0
CLASS
  1
AEC_DISP_REP_RAILING_MODEL
  2
AecDbDispRepRailingModel
  3
AecArchBase50|Product Desc: Autodesk Architectural Desktop 2007 |Company: Autodesk,Inc. |WEB Address: www.autodesk.com
 90
    32897
280
     0
281
     0
  0
CLASS
  1
AEC_DISP_PROPS_RAILING_MODEL
  2
AecDbDispPropsRailingModel
  3
AecArchBase50|Product Desc: Autodesk Architectural Desktop 2007 |Company: Autodesk,Inc. |WEB Address: www.autodesk.com
 90
    32897
280
     0
281
     0
  0
CLASS
  1
AEC_DISP_REP_RAILING_PLAN
  2
AecDbDispRepRailingPlan
  3
AecArchBase50|Product Desc: Autodesk Architectural Desktop 2007 |Company: Autodesk,Inc. |WEB Address: www.autodesk.com
 90
    32897
280
     0
281
     0
  0
CLASS
  1
AEC_DISP_PROPS_RAILING_PLAN
  2
AecDbDispPropsRailingPlan
  3
AecArchBase50|Product Desc: Autodesk Architectural Desktop 2007 |Company: Autodesk,Inc. |WEB Address: www.autodesk.com
 90
    32897
280
     0
281
     0
  0
CLASS
  1
AEC_DISP_REP_ROOF_MODEL
  2
AecDbDispRepRoofModel
  3
AecArchBase50|Product Desc: Autodesk Architectural Desktop 2007 |Company: Autodesk,Inc. |WEB Address: www.autodesk.com
 90
    32897
280
     0
281
     0
  0
CLASS
  1
AEC_DISP_PROPS_ROOF
  2
AecDbDispPropsRoof
  3
AecArchBase50|Product Desc: Autodesk Architectural Desktop 2007 |Company: Autodesk,Inc. |WEB Address: www.autodesk.com
 90
    32897
280
     0
281
     0
  0
CLASS
  1
AEC_DISP_REP_ROOF_PLAN
  2
AecDbDispRepRoofPlan
  3
AecArchBase50|Product Desc: Autodesk Architectural Desktop 2007 |Company: Autodesk,Inc. |WEB Address: www.autodesk.com
 90
    32897
280
     0
281
     0
  0
CLASS
  1
AEC_DISP_REP_ROOF_RCP
  2
AecDbDispRepRoofRcp
  3
AecArchBase50|Product Desc: Autodesk Architectural Desktop 2007 |Company: Autodesk,Inc. |WEB Address: www.autodesk.com
 90
    32897
280
     0
281
     0
  0
CLASS
  1
AEC_DISP_REP_SLAB_MODEL
  2
AecDbDispRepSlabModel
  3
AecArchBase50|Product Desc: Autodesk Architectural Desktop 2007 |Company: Autodesk,Inc. |WEB Address: www.autodesk.com
 90
    32897
280
     0
281
     0
  0
CLASS
  1
AEC_DISP_PROPS_SLAB
  2
AecDbDispPropsSlab
  3
AecArchBase50|Product Desc: Autodesk Architectural Desktop 2007 |Company: Autodesk,Inc. |WEB Address: www.autodesk.com
 90
    32897
280
     0
281
     0
  0
CLASS
  1
AEC_DISP_REP_ROOFSLAB_MODEL
  2
AecDbDispRepRoofSlabModel
  3
AecArchBase50|Product Desc: Autodesk Architectural Desktop 2007 |Company: Autodesk,Inc. |WEB Address: www.autodesk.com
 90
    32897
280
     0
281
     0
  0
CLASS
  1
AEC_DISP_PROPS_ROOFSLAB
  2
AecDbDispPropsRoofSlab
  3
AecArchBase50|Product Desc: Autodesk Architectural Desktop 2007 |Company: Autodesk,Inc. |WEB Address: www.autodesk.com
 90
    32897
280
     0
281
     0
  0
CLASS
  1
AEC_DISP_REP_SLAB_PLAN
  2
AecDbDispRepSlabPlan
  3
AecArchBase50|Product Desc: Autodesk Architectural Desktop 2007 |Company: Autodesk,Inc. |WEB Address: www.autodesk.com
 90
    32897
280
     0
281
     0
  0
CLASS
  1
AEC_DISP_PROPS_SLAB_PLAN
  2
AecDbDispPropsSlabPlan
  3
AecArchBase50|Product Desc: Autodesk Architectural Desktop 2007 |Company: Autodesk,Inc. |WEB Address: www.autodesk.com
 90
    32897
280
     0
281
     0
  0
CLASS
  1
AEC_DISP_REP_ROOFSLAB_PLAN
  2
AecDbDispRepRoofSlabPlan
  3
AecArchBase50|Product Desc: Autodesk Architectural Desktop 2007 |Company: Autodesk,Inc. |WEB Address: www.autodesk.com
 90
    32897
280
     0
281
     0
  0
CLASS
  1
AEC_DISP_PROPS_ROOFSLAB_PLAN
  2
AecDbDispPropsRoofSlabPlan
  3
AecArchBase50|Product Desc: Autodesk Architectural Desktop 2007 |Company: Autodesk,Inc. |WEB Address: www.autodesk.com
 90
    32897
280
     0
281
     0
  0
CLASS
  1
AEC_DISP_REP_SPACE_BOUNDARY_DIAGRAM
  2
AecDbDispRepSpaceBoundaryDgrm
  3
AecArchBase50|Product Desc: Autodesk Architectural Desktop 2007 |Company: Autodesk,Inc. |WEB Address: www.autodesk.com
 90
    32897
280
     0
281
     0
  0
CLASS
  1
AEC_DISP_PROPS_SPACE_BOUNDARY
  2
AecDbDispPropsSpaceBoundary
  3
AecArchBase50|Product Desc: Autodesk Architectural Desktop 2007 |Company: Autodesk,Inc. |WEB Address: www.autodesk.com
 90
    32897
280
     0
281
     0
  0
CLASS
  1
AEC_DISP_REP_SPACE_BOUNDARY_MODEL
  2
AecDbDispRepSpaceBoundaryModel
  3
AecArchBase50|Product Desc: Autodesk Architectural Desktop 2007 |Company: Autodesk,Inc. |WEB Address: www.autodesk.com
 90
    32897
280
     0
281
     0
  0
CLASS
  1
AEC_DISP_REP_SPACE_BOUNDARY_PLAN
  2
AecDbDispRepSpaceBoundaryPlan
  3
AecArchBase50|Product Desc: Autodesk Architectural Desktop 2007 |Company: Autodesk,Inc. |WEB Address: www.autodesk.com
 90
    32897
280
     0
281
     0
  0
CLASS
  1
AEC_DISP_REP_SPACE_BOUNDARY_SCHEM
  2
AecDbDispRepSpaceBoundarySketch
  3
AecArchBase50|Product Desc: Autodesk Architectural Desktop 2007 |Company: Autodesk,Inc. |WEB Address: www.autodesk.com
 90
    32897
280
     0
281
     0
  0
CLASS
  1
AEC_DISP_REP_SPACE_MODEL
  2
AecDbDispRepSpaceModel
  3
AecArchBase50|Product Desc: Autodesk Architectural Desktop 2007 |Company: Autodesk,Inc. |WEB Address: www.autodesk.com
 90
    32897
280
     0
281
     0
  0
CLASS
  1
AEC_DISP_PROPS_SPACE_MODEL
  2
AecDbDispPropsSpaceModel
  3
AecArchBase50|Product Desc: Autodesk Architectural Desktop 2007 |Company: Autodesk,Inc. |WEB Address: www.autodesk.com
 90
    32897
280
     0
281
     0
  0
CLASS
  1
AEC_DISP_REP_SPACE_PLAN
  2
AecDbDispRepSpacePlan
  3
AecArchBase50|Product Desc: Autodesk Architectural Desktop 2007 |Company: Autodesk,Inc. |WEB Address: www.autodesk.com
 90
    32897
280
     0
281
     0
  0
CLASS
  1
AEC_DISP_PROPS_SPACE_PLAN
  2
AecDbDispPropsSpacePlan
  3
AecArchBase50|Product Desc: Autodesk Architectural Desktop 2007 |Company: Autodesk,Inc. |WEB Address: www.autodesk.com
 90
    32897
280
     0
281
     0
  0
CLASS
  1
AEC_DISP_REP_SPACE_RCP
  2
AecDbDispRepSpaceRcp
  3
AecArchBase50|Product Desc: Autodesk Architectural Desktop 2007 |Company: Autodesk,Inc. |WEB Address: www.autodesk.com
 90
    32897
280
     0
281
     0
  0
CLASS
  1
AEC_DISP_REP_SPACE_VOLUME
  2
AecDbDispRepSpaceVolume
  3
AecArchBase50|Product Desc: Autodesk Architectural Desktop 2007 |Company: Autodesk,Inc. |WEB Address: www.autodesk.com
 90
    32897
280
     0
281
     0
  0
CLASS
  1
AEC_DISP_REP_STAIR_MODEL
  2
AecDbDispRepStairModel
  3
AecArchBase50|Product Desc: Autodesk Architectural Desktop 2007 |Company: Autodesk,Inc. |WEB Address: www.autodesk.com
 90
    32897
280
     0
281
     0
  0
CLASS
  1
AEC_DISP_PROPS_STAIR_MODEL
  2
AecDbDispPropsStairModel
  3
AecArchBase50|Product Desc: Autodesk Architectural Desktop 2007 |Company: Autodesk,Inc. |WEB Address: www.autodesk.com
 90
    32897
280
     0
281
     0
  0
CLASS
  1
AEC_DISP_REP_STAIR_PLAN
  2
AecDbDispRepStairPlan
  3
AecArchBase50|Product Desc: Autodesk Architectural Desktop 2007 |Company: Autodesk,Inc. |WEB Address: www.autodesk.com
 90
    32897
280
     0
281
     0
  0
CLASS
  1
AEC_DISP_PROPS_STAIR_PLAN
  2
AecDbDispPropsStairPlan
  3
AecArchBase50|Product Desc: Autodesk Architectural Desktop 2007 |Company: Autodesk,Inc. |WEB Address: www.autodesk.com
 90
    32897
280
     0
281
     0
  0
CLASS
  1
AEC_DISP_REP_STAIR_PLAN_OVERLAPPING
  2
AecDbDispRepStairPlanOverlapping
  3
AecArchBase50|Product Desc: Autodesk Architectural Desktop 2007 |Company: Autodesk,Inc. |WEB Address: www.autodesk.com
 90
    32897
280
     0
281
     0
  0
CLASS
  1
AEC_DISP_PROPS_STAIR_PLAN_OVERLAPPING
  2
AecDbDispPropsStairPlanOverlapping
  3
AecArchBase50|Product Desc: Autodesk Architectural Desktop 2007 |Company: Autodesk,Inc. |WEB Address: www.autodesk.com
 90
    32897
280
     0
281
     0
  0
CLASS
  1
AEC_DISP_REP_STAIR_RCP
  2
AecDbDispRepStairRcp
  3
AecArchBase50|Product Desc: Autodesk Architectural Desktop 2007 |Company: Autodesk,Inc. |WEB Address: www.autodesk.com
 90
    32897
280
     0
281
     0
  0
CLASS
  1
AEC_DISP_REP_WALL_GRAPH
  2
AecDbDispRepWallGraph
  3
AecArchBase50|Product Desc: Autodesk Architectural Desktop 2007 |Company: Autodesk,Inc. |WEB Address: www.autodesk.com
 90
    32897
280
     0
281
     0
  0
CLASS
  1
AEC_DISP_PROPS_WALL_GRAPH
  2
AecDbDispPropsWallGraph
  3
AecArchBase50|Product Desc: Autodesk Architectural Desktop 2007 |Company: Autodesk,Inc. |WEB Address: www.autodesk.com
 90
    32897
280
     0
281
     0
  0
CLASS
  1
AEC_DISP_REP_WALL_MODEL
  2
AecDbDispRepWallModel
  3
AecArchBase50|Product Desc: Autodesk Architectural Desktop 2007 |Company: Autodesk,Inc. |WEB Address: www.autodesk.com
 90
    32897
280
     0
281
     0
  0
CLASS
  1
AEC_DISP_PROPS_WALL_MODEL
  2
AecDbDispPropsWallModel
  3
AecArchBase50|Product Desc: Autodesk Architectural Desktop 2007 |Company: Autodesk,Inc. |WEB Address: www.autodesk.com
 90
    32897
280
     0
281
     0
  0
CLASS
  1
AEC_DISP_REP_WALL_PLAN
  2
AecDbDispRepWallPlan
  3
AecArchBase50|Product Desc: Autodesk Architectural Desktop 2007 |Company: Autodesk,Inc. |WEB Address: www.autodesk.com
 90
    32897
280
     0
281
     0
  0
CLASS
  1
AEC_DISP_PROPS_WALL_PLAN
  2
AecDbDispPropsWallPlan
  3
AecArchBase50|Product Desc: Autodesk Architectural Desktop 2007 |Company: Autodesk,Inc. |WEB Address: www.autodesk.com
 90
    32897
280
     0
281
     0
  0
CLASS
  1
AEC_DISP_REP_WALL_RCP
  2
AecDbDispRepWallRcp
  3
AecArchBase50|Product Desc: Autodesk Architectural Desktop 2007 |Company: Autodesk,Inc. |WEB Address: www.autodesk.com
 90
    32897
280
     0
281
     0
  0
CLASS
  1
AEC_DISP_REP_WALL_SCHEM
  2
AecDbDispRepWallSchem
  3
AecArchBase50|Product Desc: Autodesk Architectural Desktop 2007 |Company: Autodesk,Inc. |WEB Address: www.autodesk.com
 90
    32897
280
     0
281
     0
  0
CLASS
  1
AEC_DISP_PROPS_WALL_SCHEM
  2
AecDbDispPropsWallSchem
  3
AecArchBase50|Product Desc: Autodesk Architectural Desktop 2007 |Company: Autodesk,Inc. |WEB Address: www.autodesk.com
 90
    32897
280
     0
281
     0
  0
CLASS
  1
AEC_DISP_REP_WINDOW_ASSEMBLY_MODEL
  2
AecDbDispRepWindowAssemblyModel
  3
AecArchBase50|Product Desc: Autodesk Architectural Desktop 2007 |Company: Autodesk,Inc. |WEB Address: www.autodesk.com
 90
    32897
280
     0
281
     0
  0
CLASS
  1
AEC_DISP_REP_WINDOW_ASSEMBLY_PLAN
  2
AecDbDispRepWindowAssemblyPlan
  3
AecArchBase50|Product Desc: Autodesk Architectural Desktop 2007 |Company: Autodesk,Inc. |WEB Address: www.autodesk.com
 90
    32897
280
     0
281
     0
  0
CLASS
  1
AEC_DISP_REP_WINDOWASSEMBLY_SILL_PLAN
  2
AecDbDispRepWindowAssemblySillPlan
  3
AecArchBase50|Product Desc: Autodesk Architectural Desktop 2007 |Company: Autodesk,Inc. |WEB Address: www.autodesk.com
 90
    32897
280
     0
281
     0
  0
CLASS
  1
AEC_DISP_PROPS_WINDOW_ASSEMBLY_SILL_PLAN
  2
AecDbDispPropsWindowAssemblySillPlan
  3
AecArchBase50|Product Desc: Autodesk Architectural Desktop 2007 |Company: Autodesk,Inc. |WEB Address: www.autodesk.com
 90
    32897
280
     0
281
     0
  0
CLASS
  1
AEC_DISP_REP_WINDOW_MODEL
  2
AecDbDispRepWindowModel
  3
AecArchBase50|Product Desc: Autodesk Architectural Desktop 2007 |Company: Autodesk,Inc. |WEB Address: www.autodesk.com
 90
    32897
280
     0
281
     0
  0
CLASS
  1
AEC_DISP_PROPS_WINDOW
  2
AecDbDispPropsWindow
  3
AecArchBase50|Product Desc: Autodesk Architectural Desktop 2007 |Company: Autodesk,Inc. |WEB Address: www.autodesk.com
 90
    32897
280
     0
281
     0
  0
CLASS
  1
AEC_DISP_REP_WINDOW_ELEV
  2
AecDbDispRepWindowElev
  3
AecArchBase50|Product Desc: Autodesk Architectural Desktop 2007 |Company: Autodesk,Inc. |WEB Address: www.autodesk.com
 90
    32897
280
     0
281
     0
  0
CLASS
  1
AEC_DISP_REP_WINDOW_PLAN
  2
AecDbDispRepWindowPlan
  3
AecArchBase50|Product Desc: Autodesk Architectural Desktop 2007 |Company: Autodesk,Inc. |WEB Address: www.autodesk.com
 90
    32897
280
     0
281
     0
  0
CLASS
  1
AEC_DISP_REP_WINDOW_NOMINAL
  2
AecDbDispRepWindowNominal
  3
AecArchBase50|Product Desc: Autodesk Architectural Desktop 2007 |Company: Autodesk,Inc. |WEB Address: www.autodesk.com
 90
    32897
280
     0
281
     0
  0
CLASS
  1
AEC_DISP_PROPS_WINDOW_NOMINAL
  2
AecDbDispPropsWindowNominal
  3
AecArchBase50|Product Desc: Autodesk Architectural Desktop 2007 |Company: Autodesk,Inc. |WEB Address: www.autodesk.com
 90
    32897
280
     0
281
     0
  0
CLASS
  1
AEC_DISP_REP_WINDOW_RCP
  2
AecDbDispRepWindowRcp
  3
AecArchBase50|Product Desc: Autodesk Architectural Desktop 2007 |Company: Autodesk,Inc. |WEB Address: www.autodesk.com
 90
    32897
280
     0
281
     0
  0
CLASS
  1
AEC_DISP_REP_WINDOW_SILL_PLAN
  2
AecDbDispRepWindowSillPlan
  3
AecArchBase50|Product Desc: Autodesk Architectural Desktop 2007 |Company: Autodesk,Inc. |WEB Address: www.autodesk.com
 90
    32897
280
     0
281
     0
  0
CLASS
  1
AEC_DISP_PROPS_WINDOW_SILL_PLAN
  2
AecDbDispPropsWindowSillPlan
  3
AecArchBase50|Product Desc: Autodesk Architectural Desktop 2007 |Company: Autodesk,Inc. |WEB Address: www.autodesk.com
 90
    32897
280
     0
281
     0
  0
CLASS
  1
AEC_DISP_REP_ANCHOR_BUB_TO_GRID
  2
AecDbDispRepAnchorBubToGrid
  3
AecStructureBase50|Product Desc: Autodesk Architectural Desktop 2007 |Company: Autodesk,Inc. |WEB Address: www.autodesk.com
 90
    32897
280
     0
281
     0
  0
CLASS
  1
AEC_DISP_REP_ANCHOR_BUB_TO_GRID_MODEL
  2
AecDbDispRepAnchorBubToGridMdl
  3
AecStructureBase50|Product Desc: Autodesk Architectural Desktop 2007 |Company: Autodesk,Inc. |WEB Address: www.autodesk.com
 90
    32897
280
     0
281
     0
  0
CLASS
  1
AEC_DISP_REP_ANCHOR_BUB_TO_GRID_RCP
  2
AecDbDispRepAnchorBubToGridRcp
  3
AecStructureBase50|Product Desc: Autodesk Architectural Desktop 2007 |Company: Autodesk,Inc. |WEB Address: www.autodesk.com
 90
    32897
280
     0
281
     0
  0
CLASS
  1
AEC_DISP_REP_COLUMN_GRID
  2
AecDbDispRepColumnGrid
  3
AecStructureBase50|Product Desc: Autodesk Architectural Desktop 2007 |Company: Autodesk,Inc. |WEB Address: www.autodesk.com
 90
    32897
280
     0
281
     0
  0
CLASS
  1
AEC_DISP_REP_COLUMN_GRID_MODEL
  2
AecDbDispRepColumnGridModel
  3
AecStructureBase50|Product Desc: Autodesk Architectural Desktop 2007 |Company: Autodesk,Inc. |WEB Address: www.autodesk.com
 90
    32897
280
     0
281
     0
  0
CLASS
  1
AEC_DISP_REP_COLUMN_GRID_RCP
  2
AecDbDispRepColumnGridRcp
  3
AecStructureBase50|Product Desc: Autodesk Architectural Desktop 2007 |Company: Autodesk,Inc. |WEB Address: www.autodesk.com
 90
    32897
280
     0
281
     0
  0
CLASS
  1
AECS_DISP_REP_MEMBER_ELEVATION_DESIGN
  2
AecsDbDispRepMemberElevationDesign
  3
AecStructureBase50|Product Desc: Autodesk Architectural Desktop 2007 |Company: Autodesk,Inc. |WEB Address: www.autodesk.com
 90
    32897
280
     0
281
     0
  0
CLASS
  1
AECS_DISP_PROPS_MEMBER_PROJECTED
  2
AecsDbDispPropsMemberProjected
  3
AecStructureBase50|Product Desc: Autodesk Architectural Desktop 2007 |Company: Autodesk,Inc. |WEB Address: www.autodesk.com
 90
    32897
280
     0
281
     0
  0
CLASS
  1
AECS_DISP_REP_MEMBER_ELEVATION_DETAIL
  2
AecsDbDispRepMemberElevationDetail
  3
AecStructureBase50|Product Desc: Autodesk Architectural Desktop 2007 |Company: Autodesk,Inc. |WEB Address: www.autodesk.com
 90
    32897
280
     0
281
     0
  0
CLASS
  1
AECS_DISP_REP_MEMBER_LOGICAL
  2
AecsDbDispRepMemberLogical
  3
AecStructureBase50|Product Desc: Autodesk Architectural Desktop 2007 |Company: Autodesk,Inc. |WEB Address: www.autodesk.com
 90
    32897
280
     0
281
     0
  0
CLASS
  1
AECS_DISP_PROPS_MEMBER_LOGICAL
  2
AecsDbDispPropsMemberLogical
  3
AecStructureBase50|Product Desc: Autodesk Architectural Desktop 2007 |Company: Autodesk,Inc. |WEB Address: www.autodesk.com
 90
    32897
280
     0
281
     0
  0
CLASS
  1
AECS_DISP_REP_MEMBER_MODEL_DESIGN
  2
AecsDbDispRepMemberModelDesign
  3
AecStructureBase50|Product Desc: Autodesk Architectural Desktop 2007 |Company: Autodesk,Inc. |WEB Address: www.autodesk.com
 90
    32897
280
     0
281
     0
  0
CLASS
  1
AECS_DISP_PROPS_MEMBER
  2
AecsDbDispPropsMember
  3
AecStructureBase50|Product Desc: Autodesk Architectural Desktop 2007 |Company: Autodesk,Inc. |WEB Address: www.autodesk.com
 90
    32897
280
     0
281
     0
  0
CLASS
  1
AECS_DISP_REP_MEMBER_MODEL_DETAIL
  2
AecsDbDispRepMemberModelDetail
  3
AecStructureBase50|Product Desc: Autodesk Architectural Desktop 2007 |Company: Autodesk,Inc. |WEB Address: www.autodesk.com
 90
    32897
280
     0
281
     0
  0
CLASS
  1
AECS_DISP_REP_MEMBER_PLAN_DESIGN
  2
AecsDbDispRepMemberPlanDesign
  3
AecStructureBase50|Product Desc: Autodesk Architectural Desktop 2007 |Company: Autodesk,Inc. |WEB Address: www.autodesk.com
 90
    32897
280
     0
281
     0
  0
CLASS
  1
AECS_DISP_PROPS_MEMBER_PLAN
  2
AecsDbDispPropsMemberPlan
  3
AecStructureBase50|Product Desc: Autodesk Architectural Desktop 2007 |Company: Autodesk,Inc. |WEB Address: www.autodesk.com
 90
    32897
280
     0
281
     0
  0
CLASS
  1
AECS_DISP_REP_MEMBER_PLAN_DETAIL
  2
AecsDbDispRepMemberPlanDetail
  3
AecStructureBase50|Product Desc: Autodesk Architectural Desktop 2007 |Company: Autodesk,Inc. |WEB Address: www.autodesk.com
 90
    32897
280
     0
281
     0
  0
CLASS
  1
AECS_DISP_REP_MEMBER_PLAN_SKETCH
  2
AecsDbDispRepMemberPlanSketch
  3
AecStructureBase50|Product Desc: Autodesk Architectural Desktop 2007 |Company: Autodesk,Inc. |WEB Address: www.autodesk.com
 90
    32897
280
     0
281
     0
  0
CLASS
  1
AECS_DISP_PROPS_MEMBER_PLAN_SKETCH
  2
AecsDbDispPropsMemberPlanSketch
  3
AecStructureBase50|Product Desc: Autodesk Architectural Desktop 2007 |Company: Autodesk,Inc. |WEB Address: www.autodesk.com
 90
    32897
280
     0
281
     0
  0
CLASS
  1
AEC_DISP_REP_AREA
  2
AecDbDispRepArea
  3
AecAreaCalculationBase50|Product Desc: Autodesk Architectural Desktop 2007 |Company: Autodesk,Inc. |WEB Address: www.autodesk.com
 90
    32897
280
     0
281
     0
  0
CLASS
  1
AEC_DISP_PROPS_AREA
  2
AecDbDispPropsArea
  3
AecAreaCalculationBase50|Product Desc: Autodesk Architectural Desktop 2007 |Company: Autodesk,Inc. |WEB Address: www.autodesk.com
 90
    32897
280
     0
281
     0
  0
CLASS
  1
AEC_DISP_REP_AREA_DECOMPOSED
  2
AecDbDispRepAreaDecomposed
  3
AecAreaCalculationBase50|Product Desc: Autodesk Architectural Desktop 2007 |Company: Autodesk,Inc. |WEB Address: www.autodesk.com
 90
    32897
280
     0
281
     0
  0
CLASS
  1
AEC_DISP_PROPS_AREA_DECOMPOSED
  2
AecDbDispPropsAreaDecomposed
  3
AecAreaCalculationBase50|Product Desc: Autodesk Architectural Desktop 2007 |Company: Autodesk,Inc. |WEB Address: www.autodesk.com
 90
    32897
280
     0
281
     0
  0
CLASS
  1
AEC_DISP_REP_AREAGROUP
  2
AecDbDispRepAreaGroup
  3
AecAreaCalculationBase50|Product Desc: Autodesk Architectural Desktop 2007 |Company: Autodesk,Inc. |WEB Address: www.autodesk.com
 90
    32897
280
     0
281
     0
  0
CLASS
  1
AEC_DISP_PROPS_AREAGROUP
  2
AecDbDispPropsAreaGroup
  3
AecAreaCalculationBase50|Product Desc: Autodesk Architectural Desktop 2007 |Company: Autodesk,Inc. |WEB Address: www.autodesk.com
 90
    32897
280
     0
281
     0
  0
CLASS
  1
AEC_AECDBDISPREPAREA100
  2
AecDbDispRepArea100
  3
AecArchDACHBase50|Product Desc: Autodesk Architectural Desktop 2007 |Company: Autodesk,Inc. |WEB Address: www.autodesk.com
 90
    32897
280
     0
281
     0
  0
CLASS
  1
AEC_AECDBDISPREPAREAGROUP100
  2
AecDbDispRepAreaGroup100
  3
AecArchDACHBase50|Product Desc: Autodesk Architectural Desktop 2007 |Company: Autodesk,Inc. |WEB Address: www.autodesk.com
 90
    32897
280
     0
281
     0
  0
CLASS
  1
AEC_AECDBDISPREPBDGELEVLINEPLAN100
  2
AecDbDispRepBdgElevLinePlan100
  3
AecArchDACHBase50|Product Desc: Autodesk Architectural Desktop 2007 |Company: Autodesk,Inc. |WEB Address: www.autodesk.com
 90
    32897
280
     0
281
     0
  0
CLASS
  1
AEC_AECDBDISPREPBDGSECTIONLINEPLAN100
  2
AecDbDispRepBdgSectionLinePlan100
  3
AecArchDACHBase50|Product Desc: Autodesk Architectural Desktop 2007 |Company: Autodesk,Inc. |WEB Address: www.autodesk.com
 90
    32897
280
     0
281
     0
  0
CLASS
  1
AEC_AECDBDISPREPCEILINGGRIDPLAN100
  2
AecDbDispRepCeilingGridPlan100
  3
AecArchDACHBase50|Product Desc: Autodesk Architectural Desktop 2007 |Company: Autodesk,Inc. |WEB Address: www.autodesk.com
 90
    32897
280
     0
281
     0
  0
CLASS
  1
AEC_AECDBDISPREPCOLUMNGRIDPLAN100
  2
AecDbDispRepColumnGridPlan100
  3
AecArchDACHBase50|Product Desc: Autodesk Architectural Desktop 2007 |Company: Autodesk,Inc. |WEB Address: www.autodesk.com
 90
    32897
280
     0
281
     0
  0
CLASS
  1
AEC_AECDBDISPREPCURTAINWALLLAYOUTPLAN100
  2
AecDbDispRepCurtainWallLayoutPlan100
  3
AecArchDACHBase50|Product Desc: Autodesk Architectural Desktop 2007 |Company: Autodesk,Inc. |WEB Address: www.autodesk.com
 90
    32897
280
     0
281
     0
  0
CLASS
  1
AEC_AECDBDISPREPCURTAINWALLUNITPLAN100
  2
AecDbDispRepCurtainWallUnitPlan100
  3
AecArchDACHBase50|Product Desc: Autodesk Architectural Desktop 2007 |Company: Autodesk,Inc. |WEB Address: www.autodesk.com
 90
    32897
280
     0
281
     0
  0
CLASS
  1
AEC_AECDBDISPREPMVBLOCKREFPLAN100
  2
AecDbDispRepMvBlockRefPlan100
  3
AecArchDACHBase50|Product Desc: Autodesk Architectural Desktop 2007 |Company: Autodesk,Inc. |WEB Address: www.autodesk.com
 90
    32897
280
     0
281
     0
  0
CLASS
  1
AEC_AECDBDISPREPROOFPLAN100
  2
AecDbDispRepRoofPlan100
  3
AecArchDACHBase50|Product Desc: Autodesk Architectural Desktop 2007 |Company: Autodesk,Inc. |WEB Address: www.autodesk.com
 90
    32897
280
     0
281
     0
  0
CLASS
  1
AEC_AECDBDISPREPROOFSLABPLAN100
  2
AecDbDispRepRoofSlabPlan100
  3
AecArchDACHBase50|Product Desc: Autodesk Architectural Desktop 2007 |Company: Autodesk,Inc. |WEB Address: www.autodesk.com
 90
    32897
280
     0
281
     0
  0
CLASS
  1
AEC_AECDBDISPREPSLABPLAN100
  2
AecDbDispRepSlabPlan100
  3
AecArchDACHBase50|Product Desc: Autodesk Architectural Desktop 2007 |Company: Autodesk,Inc. |WEB Address: www.autodesk.com
 90
    32897
280
     0
281
     0
  0
CLASS
  1
AEC_AECDBDISPREPSPACEBOUNDARYPLAN100
  2
AecDbDispRepSpaceBoundaryPlan100
  3
AecArchDACHBase50|Product Desc: Autodesk Architectural Desktop 2007 |Company: Autodesk,Inc. |WEB Address: www.autodesk.com
 90
    32897
280
     0
281
     0
  0
CLASS
  1
AEC_AECDBDISPREPSPACEPLAN100
  2
AecDbDispRepSpacePlan100
  3
AecArchDACHBase50|Product Desc: Autodesk Architectural Desktop 2007 |Company: Autodesk,Inc. |WEB Address: www.autodesk.com
 90
    32897
280
     0
281
     0
  0
CLASS
  1
AEC_AECDBDISPREPWALLPLAN100
  2
AecDbDispRepWallPlan100
  3
AecArchDACHBase50|Product Desc: Autodesk Architectural Desktop 2007 |Company: Autodesk,Inc. |WEB Address: www.autodesk.com
 90
    32897
280
     0
281
     0
  0
CLASS
  1
AEC_AECDBDISPREPWINDOWASSEMBLYPLAN100
  2
AecDbDispRepWindowAssemblyPlan100
  3
AecArchDACHBase50|Product Desc: Autodesk Architectural Desktop 2007 |Company: Autodesk,Inc. |WEB Address: www.autodesk.com
 90
    32897
280
     0
281
     0
  0
CLASS
  1
AEC_AECDBDISPREPAREA50
  2
AecDbDispRepArea50
  3
AecArchDACHBase50|Product Desc: Autodesk Architectural Desktop 2007 |Company: Autodesk,Inc. |WEB Address: www.autodesk.com
 90
    32897
280
     0
281
     0
  0
CLASS
  1
AEC_AECDBDISPREPAREAGROUP50
  2
AecDbDispRepAreaGroup50
  3
AecArchDACHBase50|Product Desc: Autodesk Architectural Desktop 2007 |Company: Autodesk,Inc. |WEB Address: www.autodesk.com
 90
    32897
280
     0
281
     0
  0
CLASS
  1
AEC_AECDBDISPREPBDGELEVLINEPLAN50
  2
AecDbDispRepBdgElevLinePlan50
  3
AecArchDACHBase50|Product Desc: Autodesk Architectural Desktop 2007 |Company: Autodesk,Inc. |WEB Address: www.autodesk.com
 90
    32897
280
     0
281
     0
  0
CLASS
  1
AEC_AECDBDISPREPBDGSECTIONLINEPLAN50
  2
AecDbDispRepBdgSectionLinePlan50
  3
AecArchDACHBase50|Product Desc: Autodesk Architectural Desktop 2007 |Company: Autodesk,Inc. |WEB Address: www.autodesk.com
 90
    32897
280
     0
281
     0
  0
CLASS
  1
AEC_AECDBDISPREPCEILINGGRIDPLAN50
  2
AecDbDispRepCeilingGridPlan50
  3
AecArchDACHBase50|Product Desc: Autodesk Architectural Desktop 2007 |Company: Autodesk,Inc. |WEB Address: www.autodesk.com
 90
    32897
280
     0
281
     0
  0
CLASS
  1
AEC_AECDBDISPREPCOLUMNGRIDPLAN50
  2
AecDbDispRepColumnGridPlan50
  3
AecArchDACHBase50|Product Desc: Autodesk Architectural Desktop 2007 |Company: Autodesk,Inc. |WEB Address: www.autodesk.com
 90
    32897
280
     0
281
     0
  0
CLASS
  1
AEC_AECDBDISPREPCURTAINWALLLAYOUTPLAN50
  2
AecDbDispRepCurtainWallLayoutPlan50
  3
AecArchDACHBase50|Product Desc: Autodesk Architectural Desktop 2007 |Company: Autodesk,Inc. |WEB Address: www.autodesk.com
 90
    32897
280
     0
281
     0
  0
CLASS
  1
AEC_AECDBDISPREPCURTAINWALLUNITPLAN50
  2
AecDbDispRepCurtainWallUnitPlan50
  3
AecArchDACHBase50|Product Desc: Autodesk Architectural Desktop 2007 |Company: Autodesk,Inc. |WEB Address: www.autodesk.com
 90
    32897
280
     0
281
     0
  0
CLASS
  1
AEC_AECDBDISPREPMVBLOCKREFPLAN50
  2
AecDbDispRepMvBlockRefPlan50
  3
AecArchDACHBase50|Product Desc: Autodesk Architectural Desktop 2007 |Company: Autodesk,Inc. |WEB Address: www.autodesk.com
 90
    32897
280
     0
281
     0
  0
CLASS
  1
AEC_AECDBDISPREPROOFPLAN50
  2
AecDbDispRepRoofPlan50
  3
AecArchDACHBase50|Product Desc: Autodesk Architectural Desktop 2007 |Company: Autodesk,Inc. |WEB Address: www.autodesk.com
 90
    32897
280
     0
281
     0
  0
CLASS
  1
AEC_AECDBDISPREPROOFSLABPLAN50
  2
AecDbDispRepRoofSlabPlan50
  3
AecArchDACHBase50|Product Desc: Autodesk Architectural Desktop 2007 |Company: Autodesk,Inc. |WEB Address: www.autodesk.com
 90
    32897
280
     0
281
     0
  0
CLASS
  1
AEC_AECDBDISPREPSLABPLAN50
  2
AecDbDispRepSlabPlan50
  3
AecArchDACHBase50|Product Desc: Autodesk Architectural Desktop 2007 |Company: Autodesk,Inc. |WEB Address: www.autodesk.com
 90
    32897
280
     0
281
     0
  0
CLASS
  1
AEC_AECDBDISPREPSPACEBOUNDARYPLAN50
  2
AecDbDispRepSpaceBoundaryPlan50
  3
AecArchDACHBase50|Product Desc: Autodesk Architectural Desktop 2007 |Company: Autodesk,Inc. |WEB Address: www.autodesk.com
 90
    32897
280
     0
281
     0
  0
CLASS
  1
AEC_AECDBDISPREPSPACEPLAN50
  2
AecDbDispRepSpacePlan50
  3
AecArchDACHBase50|Product Desc: Autodesk Architectural Desktop 2007 |Company: Autodesk,Inc. |WEB Address: www.autodesk.com
 90
    32897
280
     0
281
     0
  0
CLASS
  1
AEC_AECDBDISPREPWALLPLAN50
  2
AecDbDispRepWallPlan50
  3
AecArchDACHBase50|Product Desc: Autodesk Architectural Desktop 2007 |Company: Autodesk,Inc. |WEB Address: www.autodesk.com
 90
    32897
280
     0
281
     0
  0
CLASS
  1
AEC_AECDBDISPREPWINDOWASSEMBLYPLAN50
  2
AecDbDispRepWindowAssemblyPlan50
  3
AecArchDACHBase50|Product Desc: Autodesk Architectural Desktop 2007 |Company: Autodesk,Inc. |WEB Address: www.autodesk.com
 90
    32897
280
     0
281
     0
  0
CLASS
  1
AEC_DB_DISP_REP_DIM_GROUP_PLAN100
  2
AecDbDispRepDimGroupPlan100
  3
AecArchDACHBase50|Product Desc: Autodesk Architectural Desktop 2007 |Company: Autodesk,Inc. |WEB Address: www.autodesk.com
 90
    32897
280
     0
281
     0
  0
CLASS
  1
AEC_DISP_PROPS_DIM
  2
AecDbDispPropsDimGroup
  3
AecArchDACHBase50|Product Desc: Autodesk Architectural Desktop 2007 |Company: Autodesk,Inc. |WEB Address: www.autodesk.com
 90
    32897
280
     0
281
     0
  0
CLASS
  1
AEC_DB_DISP_REP_DIM_GROUP_PLAN50
  2
AecDbDispRepDimGroupPlan50
  3
AecArchDACHBase50|Product Desc: Autodesk Architectural Desktop 2007 |Company: Autodesk,Inc. |WEB Address: www.autodesk.com
 90
    32897
280
     0
281
     0
  0
CLASS
  1
AEC_DB_DISP_REP_DIM_GROUP_PLAN
  2
AecDbDispRepDimGroupPlan
  3
AecArchDACHBase50|Product Desc: Autodesk Architectural Desktop 2007 |Company: Autodesk,Inc. |WEB Address: www.autodesk.com
 90
    32897
280
     0
281
     0
  0
CLASS
  1
AEC_DISP_REP_DOOR_PLAN_50
  2
AecDbDispRepDoorPlan50
  3
AecArchDACHBase50|Product Desc: Autodesk Architectural Desktop 2007 |Company: Autodesk,Inc. |WEB Address: www.autodesk.com
 90
    32897
280
     0
281
     0
  0
CLASS
  1
AEC_DISP_PROPS_DOOR_PLAN_50
  2
AecDbDispPropsDoorPlan50
  3
AecArchDACHBase50|Product Desc: Autodesk Architectural Desktop 2007 |Company: Autodesk,Inc. |WEB Address: www.autodesk.com
 90
    32897
280
     0
281
     0
  0
CLASS
  1
AEC_DISP_REP_DOOR_PLAN_HEKTO
  2
AecDbDispRepDoorPlanHekto
  3
AecArchDACHBase50|Product Desc: Autodesk Architectural Desktop 2007 |Company: Autodesk,Inc. |WEB Address: www.autodesk.com
 90
    32897
280
     0
281
     0
  0
CLASS
  1
AEC_DISP_PROPS_DOOR_PLAN_100
  2
AecDbDispPropsDoorPlan100
  3
AecArchDACHBase50|Product Desc: Autodesk Architectural Desktop 2007 |Company: Autodesk,Inc. |WEB Address: www.autodesk.com
 90
    32897
280
     0
281
     0
  0
CLASS
  1
AEC_DISP_REP_DOOR_THRESHOLD_SYMBOL_PLAN
  2
AecDbDispRepDoorThresholdSymbolPlan
  3
AecArchDACHBase50|Product Desc: Autodesk Architectural Desktop 2007 |Company: Autodesk,Inc. |WEB Address: www.autodesk.com
 90
    32897
280
     0
281
     0
  0
CLASS
  1
AEC_DISP_PROPS_DOOR_THRESHOLD_SYMBOL_PLAN
  2
AecDbDispPropsDoorThresholdSymbolPlan
  3
AecArchDACHBase50|Product Desc: Autodesk Architectural Desktop 2007 |Company: Autodesk,Inc. |WEB Address: www.autodesk.com
 90
    32897
280
     0
281
     0
  0
CLASS
  1
AEC_DISPREPAECDBDISPREPMASSELEMPLAN100
  2
AecDbDispRepMassElemPlan100
  3
AecArchDACHBase50|Product Desc: Autodesk Architectural Desktop 2007 |Company: Autodesk,Inc. |WEB Address: www.autodesk.com
 90
    32897
280
     0
281
     0
  0
CLASS
  1
AEC_DISPROPSMASSELEMPLANCOMMON
  2
AecDbDispPropsMassElemPlanCommon
  3
AecArchDACHBase50|Product Desc: Autodesk Architectural Desktop 2007 |Company: Autodesk,Inc. |WEB Address: www.autodesk.com
 90
    32897
280
     0
281
     0
  0
CLASS
  1
AEC_DISPREPAECDBDISPREPMASSELEMPLAN50
  2
AecDbDispRepMassElemPlan50
  3
AecArchDACHBase50|Product Desc: Autodesk Architectural Desktop 2007 |Company: Autodesk,Inc. |WEB Address: www.autodesk.com
 90
    32897
280
     0
281
     0
  0
CLASS
  1
AEC_DISPREPAECDBDISPREPMASSGROUPPLAN100
  2
AecDbDispRepMassGroupPlan100
  3
AecArchDACHBase50|Product Desc: Autodesk Architectural Desktop 2007 |Company: Autodesk,Inc. |WEB Address: www.autodesk.com
 90
    32897
280
     0
281
     0
  0
CLASS
  1
AEC_DISPROPSMASSGROUPPLANCOMMON
  2
AecDbDispPropsMassGroupPlanCommon
  3
AecArchDACHBase50|Product Desc: Autodesk Architectural Desktop 2007 |Company: Autodesk,Inc. |WEB Address: www.autodesk.com
 90
    32897
280
     0
281
     0
  0
CLASS
  1
AEC_DISPREPAECDBDISPREPMASSGROUPPLAN50
  2
AecDbDispRepMassGroupPlan50
  3
AecArchDACHBase50|Product Desc: Autodesk Architectural Desktop 2007 |Company: Autodesk,Inc. |WEB Address: www.autodesk.com
 90
    32897
280
     0
281
     0
  0
CLASS
  1
AEC_DISPREPAECDBDISPREPOPENINGPLAN100
  2
AecDbDispRepOpeningPlan100
  3
AecArchDACHBase50|Product Desc: Autodesk Architectural Desktop 2007 |Company: Autodesk,Inc. |WEB Address: www.autodesk.com
 90
    32897
280
     0
281
     0
  0
CLASS
  1
AEC_DISPROPSOPENINGPLANCOMMONHATCHED
  2
AecDbDispPropsOpeningPlanCommonHatched
  3
AecArchDACHBase50|Product Desc: Autodesk Architectural Desktop 2007 |Company: Autodesk,Inc. |WEB Address: www.autodesk.com
 90
    32897
280
     0
281
     0
  0
CLASS
  1
AEC_DISPREPAECDBDISPREPOPENINGPLAN50
  2
AecDbDispRepOpeningPlan50
  3
AecArchDACHBase50|Product Desc: Autodesk Architectural Desktop 2007 |Company: Autodesk,Inc. |WEB Address: www.autodesk.com
 90
    32897
280
     0
281
     0
  0
CLASS
  1
AEC_DISPREPAECDBDISPREPOPENINGPLANREFLECTED
  2
AecDbDispRepOpeningPlanReflected
  3
AecArchDACHBase50|Product Desc: Autodesk Architectural Desktop 2007 |Company: Autodesk,Inc. |WEB Address: www.autodesk.com
 90
    32897
280
     0
281
     0
  0
CLASS
  1
AEC_DISPROPSOPENINGPLANCOMMON
  2
AecDbDispPropsOpeningPlanCommon
  3
AecArchDACHBase50|Product Desc: Autodesk Architectural Desktop 2007 |Company: Autodesk,Inc. |WEB Address: www.autodesk.com
 90
    32897
280
     0
281
     0
  0
CLASS
  1
AEC_DISPREPAECDBDISPREPOPENINGSILLPLAN
  2
AecDbDispRepOpeningSillPlan
  3
AecArchDACHBase50|Product Desc: Autodesk Architectural Desktop 2007 |Company: Autodesk,Inc. |WEB Address: www.autodesk.com
 90
    32897
280
     0
281
     0
  0
CLASS
  1
AEC_DISPROPSOPENINGSILLPLAN
  2
AecDbDispPropsOpeningSillPlan
  3
AecArchDACHBase50|Product Desc: Autodesk Architectural Desktop 2007 |Company: Autodesk,Inc. |WEB Address: www.autodesk.com
 90
    32897
280
     0
281
     0
  0
CLASS
  1
AEC_DISP_REP_RAILING_PLAN_100
  2
AecDbDispRepRailingPlan100
  3
AecArchDACHBase50|Product Desc: Autodesk Architectural Desktop 2007 |Company: Autodesk,Inc. |WEB Address: www.autodesk.com
 90
    32897
280
     0
281
     0
  0
CLASS
  1
AEC_DISP_ROPS_RAILING_PLAN_100
  2
AecDbDispPropsRailingPlan100
  3
AecArchDACHBase50|Product Desc: Autodesk Architectural Desktop 2007 |Company: Autodesk,Inc. |WEB Address: www.autodesk.com
 90
    32897
280
     0
281
     0
  0
CLASS
  1
AEC_DISP_REP_RAILING_PLAN_50
  2
AecDbDispRepRailingPlan50
  3
AecArchDACHBase50|Product Desc: Autodesk Architectural Desktop 2007 |Company: Autodesk,Inc. |WEB Address: www.autodesk.com
 90
    32897
280
     0
281
     0
  0
CLASS
  1
AEC_DISP_ROPS_RAILING_PLAN_50
  2
AecDbDispPropsRailingPlan50
  3
AecArchDACHBase50|Product Desc: Autodesk Architectural Desktop 2007 |Company: Autodesk,Inc. |WEB Address: www.autodesk.com
 90
    32897
280
     0
281
     0
  0
CLASS
  1
AEC_DISP_REP_STAIR_PLAN_100
  2
AecDbDispRepStairPlan100
  3
AecArchDACHBase50|Product Desc: Autodesk Architectural Desktop 2007 |Company: Autodesk,Inc. |WEB Address: www.autodesk.com
 90
    32897
280
     0
281
     0
  0
CLASS
  1
AEC_DISP_ROPS_STAIR_PLAN_100
  2
AecDbDispPropsStairPlan100
  3
AecArchDACHBase50|Product Desc: Autodesk Architectural Desktop 2007 |Company: Autodesk,Inc. |WEB Address: www.autodesk.com
 90
    32897
280
     0
281
     0
  0
CLASS
  1
AEC_DISP_REP_STAIR_PLAN_50
  2
AecDbDispRepStairPlan50
  3
AecArchDACHBase50|Product Desc: Autodesk Architectural Desktop 2007 |Company: Autodesk,Inc. |WEB Address: www.autodesk.com
 90
    32897
280
     0
281
     0
  0
CLASS
  1
AEC_DISP_ROPS_STAIR_PLAN_50
  2
AecDbDispPropsStairPlan50
  3
AecArchDACHBase50|Product Desc: Autodesk Architectural Desktop 2007 |Company: Autodesk,Inc. |WEB Address: www.autodesk.com
 90
    32897
280
     0
281
     0
  0
CLASS
  1
AEC_DISP_REP_WINDOW_PLAN_100
  2
AecDbDispRepWindowPlan100
  3
AecArchDACHBase50|Product Desc: Autodesk Architectural Desktop 2007 |Company: Autodesk,Inc. |WEB Address: www.autodesk.com
 90
    32897
280
     0
281
     0
  0
CLASS
  1
AEC_DISP_PROPS_WINDOW_PLAN_100
  2
AecDbDispPropsWindowPlan100
  3
AecArchDACHBase50|Product Desc: Autodesk Architectural Desktop 2007 |Company: Autodesk,Inc. |WEB Address: www.autodesk.com
 90
    32897
280
     0
281
     0
  0
CLASS
  1
AEC_DISP_REP_WINDOW_PLAN_50
  2
AecDbDispRepWindowPlan50
  3
AecArchDACHBase50|Product Desc: Autodesk Architectural Desktop 2007 |Company: Autodesk,Inc. |WEB Address: www.autodesk.com
 90
    32897
280
     0
281
     0
  0
CLASS
  1
AEC_DISP_PROPS_WINDOW_PLAN_50
  2
AecDbDispPropsWindowPlan50
  3
AecArchDACHBase50|Product Desc: Autodesk Architectural Desktop 2007 |Company: Autodesk,Inc. |WEB Address: www.autodesk.com
 90
    32897
280
     0
281
     0
  0
CLASS
  1
AEC_DISP_REP_SCHEDULE_TABLE
  2
AecDbDispRepScheduleTable
  3
AecSchedule50|Product Desc: Autodesk Architectural Desktop 2007 |Company: Autodesk,Inc. |WEB Address: www.autodesk.com
 90
    32897
280
     0
281
     0
  0
CLASS
  1
AEC_DISP_PROPS_SCHEDULE_TABLE
  2
AecDbDispPropsScheduleTable
  3
AecSchedule50|Product Desc: Autodesk Architectural Desktop 2007 |Company: Autodesk,Inc. |WEB Address: www.autodesk.com
 90
    32897
280
     0
281
     0
  0
CLASS
  1
AEC_DISP_REP_SET
  2
AecDbDispRepSet
  3
AecBase50|Product Desc: Autodesk Architectural Desktop 2007 |Company: Autodesk,Inc. |WEB Address: www.autodesk.com
 90
    32897
280
     0
281
     0
  0
CLASS
  1
AEC_DISP_REP_CONFIG
  2
AecDbDispRepConfig
  3
AecBase50|Product Desc: Autodesk Architectural Desktop 2007 |Company: Autodesk,Inc. |WEB Address: www.autodesk.com
 90
    32897
280
     0
281
     0
  0
CLASS
  1
AEC_LAYERKEY_STYLE
  2
AecDbLayerKeyStyle
  3
AecBase50|Product Desc: Autodesk Architectural Desktop 2007 |Company: Autodesk,Inc. |WEB Address: www.autodesk.com
 90
    32897
280
     0
281
     0
  0
CLASS
  1
AEC_VARS_ARCHBASE
  2
AecDbVarsArchBase
  3
AecArchBase50|Product Desc: Autodesk Architectural Desktop 2007 |Company: Autodesk,Inc. |WEB Address: www.autodesk.com
 90
    32897
280
     0
281
     0
  0
CLASS
  1
AEC_VARS_MUNICH
  2
AecDbVarsMunich
  3
AecArchDACHBase50|Product Desc: Autodesk Architectural Desktop 2007 |Company: Autodesk,Inc. |WEB Address: www.autodesk.com
 90
    32897
280
     0
281
     0
  0
CLASS
  1
BINRECORD
  2
AcAecBinRecord
  3
AecBase50|Product Desc: Autodesk Architectural Desktop 2007 |Company: Autodesk,Inc. |WEB Address: www.autodesk.com
 90
    32897
280
     0
281
     0
  0
CLASS
  1
SPATIAL_FILTER
  2
AcDbSpatialFilter
  3
ObjectDBX Classes
 90
    32768
280
     0
281
     0
  0
CLASS
  1
SORTENTSTABLE
  2
AcDbSortentsTable
  3
ObjectDBX Classes
 90
        0
280
     0
281
     0
  0
CLASS
  1
RTEXT
  2
RText
  3
RText|AutoCAD Express Tool|expresstools@autodesk.com
 90
    35839
280
     0
281
     1
  0
CLASS
  1
OBJECT_PTR
  2
CAseDLPNTableRecord
  3
ASE-LPNTableRecord
 90
    32769
280
     0
281
     0
  0
CLASS
  1
IMAGE
  2
AcDbRasterImage
  3
ISM
 90
    34943
280
     0
281
     1
  0
CLASS
  1
IMAGEDEF_REACTOR
  2
AcDbRasterImageDefReactor
  3
ISM
 90
    32769
280
     0
281
     0
  0
CLASS
  1
IMAGEDEF
  2
AcDbRasterImageDef
  3
ISM
 90
    32768
280
     0
281
     0
  0
CLASS
  1
RASTERVARIABLES
  2
AcDbRasterVariables
  3
ISM
 90
    32768
280
     0
281
     0
  0
CLASS
  1
MATERIAL
  2
AcDbMaterial
  3
ObjectDBX Classes
 90
     1153
280
     0
281
     0
  0
CLASS
  1
AEC_MVBLOCK_REF
  2
AecDbMvBlockRef
  3
AecBase50|Product Desc: Autodesk Architectural Desktop 2007 |Company: Autodesk,Inc. |WEB Address: www.autodesk.com
 90
    33661
280
     0
281
     1
  0
CLASS
  1
AEC_AECDBAREAPROPOSALNAMES
  2
AecDbAreaProposalNames
  3
AecAreaCalculationBase50|Product Desc: Autodesk Architectural Desktop 2007 |Company: Autodesk,Inc. |WEB Address: www.autodesk.com
 90
    32897
280
     0
281
     0
  0
CLASS
  1
AEC_AECDBAREAGROUPSTYLE
  2
AecDbAreaGroupStyle
  3
AecAreaCalculationBase50|Product Desc: Autodesk Architectural Desktop 2007 |Company: Autodesk,Inc. |WEB Address: www.autodesk.com
 90
    32897
280
     0
281
     0
  0
CLASS
  1
AEC_ENDCAP_STYLE
  2
AecDbEndcapStyle
  3
AecArchBase50|Product Desc: Autodesk Architectural Desktop 2007 |Company: Autodesk,Inc. |WEB Address: www.autodesk.com
 90
    32897
280
     0
281
     0
  0
CLASS
  1
AEC_MATERIAL_DEF
  2
AecDbMaterialDef
  3
AecBase50|Product Desc: Autodesk Architectural Desktop 2007 |Company: Autodesk,Inc. |WEB Address: www.autodesk.com
 90
    32897
280
     0
281
     0
  0
CLASS
  1
AEC_MVBLOCK_DEF
  2
AecDbMvBlockDef
  3
AecBase50|Product Desc: Autodesk Architectural Desktop 2007 |Company: Autodesk,Inc. |WEB Address: www.autodesk.com
 90
    32897
280
     0
281
     0
  0
CLASS
  1
AEC_VARS_STRUCTUREBASE
  2
AecsDbVarsStructureBase
  3
AecStructureBase50|Product Desc: Autodesk Architectural Desktop 2007 |Company: Autodesk,Inc. |WEB Address: www.autodesk.com
 90
    32897
280
     0
281
     0
  0
CLASS
  1
AECS_MEMBER_NODE_SHAPE
  2
AecsDbMemberNodeShape
  3
AecStructureBase50|Product Desc: Autodesk Architectural Desktop 2007 |Company: Autodesk,Inc. |WEB Address: www.autodesk.com
 90
    32897
280
     0
281
     0
  0
CLASS
  1
TABLESTYLE
  2
AcDbTableStyle
  3
ObjectDBX Classes
 90
     4095
280
     0
281
     0
  0
CLASS
  1
AEC_DISP_REP_DISPLAYTHEME
  2
AecDbDispRepDisplayTheme
  3
AecBase50|Product Desc: Autodesk Architectural Desktop 2007 |Company: Autodesk,Inc. |WEB Address: www.autodesk.com
 90
    32897
280
     0
281
     0
  0
CLASS
  1
AEC_DISP_PROPS_DISPLAYTHEME
  2
AecDbDispPropsDisplayTheme
  3
AecBase50|Product Desc: Autodesk Architectural Desktop 2007 |Company: Autodesk,Inc. |WEB Address: www.autodesk.com
 90
    32897
280
     0
281
     0
  0
CLASS
  1
AEC_DISP_REP_ANCHOR_EXT_TAG_TO_ENT
  2
AecDbDispRepAnchorExtendedTagToEnt
  3
AecScheduleData50|Product Desc: Autodesk Architectural Desktop 2007 |Company: Autodesk,Inc. |WEB Address: www.autodesk.com
 90
    32897
280
     0
281
     0
  0
CLASS
  1
AEC_CLASSIFICATION_SYSTEM_DEF
  2
AecDbClassificationSystemDef
  3
AecBase50|Product Desc: Autodesk Architectural Desktop 2007 |Company: Autodesk,Inc. |WEB Address: www.autodesk.com
 90
    32897
280
     0
281
     0
  0
CLASS
  1
AEC_CLASSIFICATION_DEF
  2
AecDbClassificationDef
  3
AecBase50|Product Desc: Autodesk Architectural Desktop 2007 |Company: Autodesk,Inc. |WEB Address: www.autodesk.com
 90
    32897
280
     0
281
     0
  0
CLASS
  1
PLOTSETTINGS
  2
AcDbPlotSettings
  3
ObjectDBX Classes
 90
    32768
280
     0
281
     0
  0
CLASS
  1
AEC_SPACE_BOUNDARY
  2
AecDbSpaceBoundary
  3
AecArchBase50|Product Desc: Autodesk Architectural Desktop 2007 |Company: Autodesk,Inc. |WEB Address: www.autodesk.com
 90
    33661
280
     0
281
     1
  0
CLASS
  1
AEC_SPACE
  2
AecDbSpace
  3
AecArchBase50|Product Desc: Autodesk Architectural Desktop 2007 |Company: Autodesk,Inc. |WEB Address: www.autodesk.com
 90
    33661
280
     0
281
     1
  0
CLASS
  1
AecDbPropertySet
  2
AecDbPropertySet
  3
AecScheduleData50|Product Desc: Autodesk Architectural Desktop 2007 |Company: Autodesk,Inc. |WEB Address: www.autodesk.com
 90
    32897
280
     0
281
     0
  0
CLASS
  1
AEC_SCHEDULE_TABLE
  2
AecDbScheduleTable
  3
AecSchedule50|Product Desc: Autodesk Architectural Desktop 2007 |Company: Autodesk,Inc. |WEB Address: www.autodesk.com
 90
    33661
280
     0
281
     1
  0
CLASS
  1
AEC_SCHEDULE_DATA_FORMAT
  2
AecDbScheduleDataFormat
  3
AecScheduleData50|Product Desc: Autodesk Architectural Desktop 2007 |Company: Autodesk,Inc. |WEB Address: www.autodesk.com
 90
    32897
280
     0
281
     0
  0
CLASS
  1
AEC_PROPERTY_SET_DEF
  2
AecDbPropertySetDef
  3
AecScheduleData50|Product Desc: Autodesk Architectural Desktop 2007 |Company: Autodesk,Inc. |WEB Address: www.autodesk.com
 90
    32897
280
     0
281
     0
  0
CLASS
  1
AEC_SCHEDULE_TABLE_STYLE
  2
AecDbScheduleTableStyle
  3
AecSchedule50|Product Desc: Autodesk Architectural Desktop 2007 |Company: Autodesk,Inc. |WEB Address: www.autodesk.com
 90
    32897
280
     0
281
     0
  0
CLASS
  1
AEC_SPACE_STYLES
  2
AecDbSpaceStyle
  3
AecArchBase50|Product Desc: Autodesk Architectural Desktop 2007 |Company: Autodesk,Inc. |WEB Address: www.autodesk.com
 90
    32897
280
     0
281
     0
  0
CLASS
  1
DIMASSOC
  2
AcDbDimAssoc
  3
"AcDbDimAssoc|Product Desc:     AcDim ARX App For Dimension|Company:          Autodesk, Inc.|WEB Address:      www.autodesk.com"
 90
        0
280
     0
281
     0
  0
CLASS
  1
VISUALSTYLE
  2
AcDbVisualStyle
  3
ObjectDBX Classes
 90
     4095
280
     0
281
     0
  0
CLASS
  1
AEC_AECDBDISPREPZONE100
  2
AecDbDispRepZonePlan100
  3
AecArchDACHBase50|Product Desc: Autodesk Architectural Desktop 2007 |Company: Autodesk,Inc. |WEB Address: www.autodesk.com
 90
    32897
280
     0
281
     0
  0
CLASS
  1
AEC_DISP_PROPS_ZONE
  2
AecDbDispPropsZone
  3
AecArchBase50|Product Desc: Autodesk Architectural Desktop 2007 |Company: Autodesk,Inc. |WEB Address: www.autodesk.com
 90
    32897
280
     0
281
     0
  0
CLASS
  1
AEC_AECDBDISPREPZONE50
  2
AecDbDispRepZonePlan50
  3
AecArchDACHBase50|Product Desc: Autodesk Architectural Desktop 2007 |Company: Autodesk,Inc. |WEB Address: www.autodesk.com
 90
    32897
280
     0
281
     0
  0
CLASS
  1
AEC_DISP_REP_SPACE_DECOMPOSED
  2
AecDbDispRepSpaceDecomposed
  3
AecArchBase50|Product Desc: Autodesk Architectural Desktop 2007 |Company: Autodesk,Inc. |WEB Address: www.autodesk.com
 90
    32897
280
     0
281
     0
  0
CLASS
  1
AEC_DISP_PROPS_SPACE_DECOMPOSED
  2
AecDbDispPropsSpaceDecomposed
  3
AecArchBase50|Product Desc: Autodesk Architectural Desktop 2007 |Company: Autodesk,Inc. |WEB Address: www.autodesk.com
 90
    32897
280
     0
281
     0
  0
CLASS
  1
AEC_DISP_REP_ZONE
  2
AecDbDispRepZone
  3
AecArchBase50|Product Desc: Autodesk Architectural Desktop 2007 |Company: Autodesk,Inc. |WEB Address: www.autodesk.com
 90
    32897
280
     0
281
     0
  0
CLASS
  1
AEC_LIST_DEF
  2
AecDbListDefinition
  3
AecBase50|Product Desc: Autodesk Architectural Desktop 2007 |Company: Autodesk,Inc. |WEB Address: www.autodesk.com
 90
    32897
280
     0
281
     0
  0
CLASS
  1
AEC_LIST_DEF
  2
AecDbListItem
  3
AecBase50|Product Desc: Autodesk Architectural Desktop 2007 |Company: Autodesk,Inc. |WEB Address: www.autodesk.com
 90
    32897
280
     0
281
     0
  0
CLASS
  1
AEC_AECDBZONESTYLE
  2
AecDbZoneStyle
  3
AecArchBase50|Product Desc: Autodesk Architectural Desktop 2007 |Company: Autodesk,Inc. |WEB Address: www.autodesk.com
 90
    32897
280
     0
281
     0
  0
CLASS
  1
EXACXREFPANELOBJECT
  2
ExAcXREFPanelObject
  3
EXAC_ESW
 90
     1025
280
     1
281
     0
  0
CLASS
  1
NPOCOLLECTION
  2
AcDbImpNonPersistentObjectsCollection
  3
ObjectDBX Classes
 90
     1153
280
     0
281
     0
  0
CLASS
  1
AEC_DISPLAYTHEME_STYLE
  2
AecDbDisplayThemeStyle
  3
AecBase50|Product Desc: Autodesk Architectural Desktop 2007 |Company: Autodesk,Inc. |WEB Address: www.autodesk.com
 90
    32897
280
     0
281
     0
  0
CLASS
  1
AEC_SLABEDGE_STYLE
  2
AecDbSlabEdgeStyle
  3
AecArchBase50|Product Desc: Autodesk Architectural Desktop 2007 |Company: Autodesk,Inc. |WEB Address: www.autodesk.com
 90
    32897
280
     0
281
     0
  0
CLASS
  1
AEC_SLAB_STYLE
  2
AecDbSlabStyle
  3
AecArchBase50|Product Desc: Autodesk Architectural Desktop 2007 |Company: Autodesk,Inc. |WEB Address: www.autodesk.com
 90
    32897
280
     0
281
     0
  0
CLASS
  1
AEC_ROOFSLABEDGE_STYLE
  2
AecDbRoofSlabEdgeStyle
  3
AecArchBase50|Product Desc: Autodesk Architectural Desktop 2007 |Company: Autodesk,Inc. |WEB Address: www.autodesk.com
 90
    32897
280
     0
281
     0
  0
CLASS
  1
AEC_ROOFSLAB_STYLE
  2
AecDbRoofSlabStyle
  3
AecArchBase50|Product Desc: Autodesk Architectural Desktop 2007 |Company: Autodesk,Inc. |WEB Address: www.autodesk.com
 90
    32897
280
     0
281
     0
  0
CLASS
  1
EXACTERMXREFMAP
  2
ExAcTermXrefMap
  3
EXAC_SERVICE
 90
    33793
280
     1
281
     0
  0
CLASS
  1
ACAD_EVALUATION_GRAPH
  2
AcDbEvalGraph
  3
ObjectDBX Classes
 90
    33921
280
     0
281
     0
  0
CLASS
  1
ACAECUSTOBJ
  2
AcAeEditorObj
  3
AcAeEditorObj
 90
    33792
280
     1
281
     0
  0
CLASS
  1
BLOCKVISIBILITYPARAMETER
  2
AcDbBlockVisibilityParameter
  3
ObjectDBX Classes
 90
    33921
280
     0
281
     0
  0
CLASS
  1
BLOCKVISIBILITYGRIP
  2
AcDbBlockVisibilityGrip
  3
ObjectDBX Classes
 90
    33921
280
     0
281
     0
  0
CLASS
  1
BLOCKGRIPLOCATIONCOMPONENT
  2
AcDbBlockGripExpr
  3
ObjectDBX Classes
 90
    33921
280
     0
281
     0
  0
CLASS
  1
BLOCKLINEARPARAMETER
  2
AcDbBlockLinearParameter
  3
ObjectDBX Classes
 90
    33921
280
     0
281
     0
  0
CLASS
  1
BLOCKSTRETCHACTION
  2
AcDbBlockStretchAction
  3
ObjectDBX Classes
 90
    33921
280
     0
281
     0
  0
CLASS
  1
BLOCKLOOKUPPARAMETER
  2
AcDbBlockLookupParameter
  3
ObjectDBX Classes
 90
    33921
280
     0
281
     0
  0
CLASS
  1
BLOCKLOOKUPGRIP
  2
AcDbBlockLookupGrip
  3
ObjectDBX Classes
 90
    33921
280
     0
281
     0
  0
CLASS
  1
BLOCKLOOKUPACTION
  2
AcDbBlockLookupAction
  3
ObjectDBX Classes
 90
    33921
280
     0
281
     0
  0
CLASS
  1
BLOCKMOVEACTION
  2
AcDbBlockMoveAction
  3
ObjectDBX Classes
 90
    33921
280
     0
281
     0
  0
CLASS
  1
BLOCKLINEARGRIP
  2
AcDbBlockLinearGrip
  3
ObjectDBX Classes
 90
    33921
280
     0
281
     0
  0
CLASS
  1
ACDB_DYNAMICBLOCKPURGEPREVENTER_VERSION
  2
AcDbDynamicBlockPurgePreventer
  3
ObjectDBX Classes
 90
    33921
280
     0
281
     0
  0
CLASS
  1
FIELD
  2
AcDbField
  3
ObjectDBX Classes
 90
    33920
280
     0
281
     0
  0
CLASS
  1
ACDB_BLOCKREPRESENTATION_DATA
  2
AcDbBlockRepresentationData
  3
ObjectDBX Classes
 90
    33921
280
     0
281
     0
  0
CLASS
  1
FIELDLIST
  2
AcDbFieldList
  3
ObjectDBX Classes
 90
     1152
280
     0
281
     0
  0
CLASS
  1
VISIBILITYPARAMETERENTITY
  2
AcDbBlockVisibilityParameterEntity
  3
ObjectDBX Classes
 90
    33793
280
     0
281
     1
  0
CLASS
  1
ACAEEEMGROBJ
  2
AcAeEEMgrObj
  3
AcAeEEMgrObj
 90
    33792
280
     0
281
     0
  0
CLASS
  1
VISIBILITYGRIPENTITY
  2
AcDbBlockVisibilityGripEntity
  3
ObjectDBX Classes
 90
    33793
280
     0
281
     1
  0
CLASS
  1
LINEARPARAMETERENTITY
  2
AcDbBlockLinearParameterEntity
  3
ObjectDBX Classes
 90
    33793
280
     0
281
     1
  0
CLASS
  1
STRETCHACTIONENTITY
  2
AcDbBlockStretchActionEntity
  3
ObjectDBX Classes
 90
    33793
280
     0
281
     1
  0
CLASS
  1
LOOKUPPARAMETERENTITY
  2
AcDbBlockLookupParameterEntity
  3
ObjectDBX Classes
 90
    33793
280
     0
281
     1
  0
CLASS
  1
LOOKUPGRIPENTITY
  2
AcDbBlockLookupGripEntity
  3
ObjectDBX Classes
 90
    33793
280
     0
281
     1
  0
CLASS
  1
LOOKUPACTIONENTITY
  2
AcDbBlockLookupActionEntity
  3
ObjectDBX Classes
 90
    33793
280
     0
281
     1
  0
CLASS
  1
MOVEACTIONENTITY
  2
AcDbBlockMoveActionEntity
  3
ObjectDBX Classes
 90
    33793
280
     0
281
     1
  0
CLASS
  1
LINEARGRIPENTITY
  2
AcDbBlockLinearGripEntity
  3
ObjectDBX Classes
 90
    33793
280
     0
281
     1
  0
CLASS
  1
AEC_CLEANUP_GROUP_DEF
  2
AecDbCleanupGroupDef
  3
AecArchBase50|Product Desc: Autodesk Architectural Desktop 2007 |Company: Autodesk,Inc. |WEB Address: www.autodesk.com
 90
    32897
280
     0
281
     0
  0
CLASS
  1
AEC_MASS_ELEM_STYLE
  2
AecDbMassElemStyle
  3
AecBaseEx50|Product Desc: Autodesk Architectural Desktop 2007 |Company: Autodesk,Inc. |WEB Address: www.autodesk.com
 90
    32897
280
     0
281
     0
  0
CLASS
  1
AEC_FRAME_DEF
  2
AecDbOpeningEndcapStyle
  3
AecArchBase50|Product Desc: Autodesk Architectural Desktop 2007 |Company: Autodesk,Inc. |WEB Address: www.autodesk.com
 90
    32897
280
     0
281
     0
  0
CLASS
  1
AEC_STAIR_WINDER_TYPE_BALANCED
  2
AecDbStairWinderTypeBalanced
  3
AecArchBase50|Product Desc: Autodesk Architectural Desktop 2007 |Company: Autodesk,Inc. |WEB Address: www.autodesk.com
 90
    32897
280
     0
281
     0
  0
CLASS
  1
BLOCKBASEPOINTPARAMETER
  2
AcDbBlockBasepointParameter
  3
ObjectDBX Classes
 90
    33921
280
     0
281
     0
  0
CLASS
  1
BASEPOINTPARAMETERENTITY
  2
AcDbBlockBasepointParameterEntity
  3
ObjectDBX Classes
 90
    33793
280
     0
281
     1
  0
CLASS
  1
AEC_WALL_STYLE
  2
AecDbWallStyle
  3
AecArchBase50|Product Desc: Autodesk Architectural Desktop 2007 |Company: Autodesk,Inc. |WEB Address: www.autodesk.com
 90
    32897
280
     0
281
     0
  0
CLASS
  1
AEC_ANCHOR_TAG_TO_ENT
  2
AecDbAnchorTagToEnt
  3
AecScheduleData50|Product Desc: Autodesk Architectural Desktop 2007 |Company: Autodesk,Inc. |WEB Address: www.autodesk.com
 90
    32897
280
     0
281
     0
  0
CLASS
  1
BLOCKFLIPPARAMETER
  2
AcDbBlockFlipParameter
  3
ObjectDBX Classes
 90
    33921
280
     0
281
     0
  0
CLASS
  1
BLOCKFLIPGRIP
  2
AcDbBlockFlipGrip
  3
ObjectDBX Classes
 90
    33921
280
     0
281
     0
  0
CLASS
  1
BLOCKFLIPACTION
  2
AcDbBlockFlipAction
  3
ObjectDBX Classes
 90
    33921
280
     0
281
     0
  0
CLASS
  1
BLOCKROTATIONPARAMETER
  2
AcDbBlockRotationParameter
  3
ObjectDBX Classes
 90
    33921
280
     0
281
     0
  0
CLASS
  1
BLOCKROTATIONGRIP
  2
AcDbBlockRotationGrip
  3
ObjectDBX Classes
 90
    33921
280
     0
281
     0
  0
CLASS
  1
BLOCKROTATEACTION
  2
AcDbBlockRotateAction
  3
ObjectDBX Classes
 90
    33921
280
     0
281
     0
  0
CLASS
  1
AEC_ANCHOR_MVB_TO_UCS
  2
AecDbAnchorMVBToUCS
  3
AecBase50|Product Desc: Autodesk Architectural Desktop 2007 |Company: Autodesk,Inc. |WEB Address: www.autodesk.com
 90
    32897
280
     0
281
     0
  0
CLASS
  1
AEC_MASS_ELEM
  2
AecDbMassElem
  3
AecBaseEx50|Product Desc: Autodesk Architectural Desktop 2007 |Company: Autodesk,Inc. |WEB Address: www.autodesk.com
 90
    33661
280
     0
281
     1
  0
CLASS
  1
AEC_DOOR_STYLE
  2
AecDbDoorStyle
  3
AecArchBase50|Product Desc: Autodesk Architectural Desktop 2007 |Company: Autodesk,Inc. |WEB Address: www.autodesk.com
 90
    32897
280
     0
281
     0
  0
CLASS
  1
AEC_PROFILE_DEF
  2
AecDbProfileDef
  3
AecBase50|Product Desc: Autodesk Architectural Desktop 2007 |Company: Autodesk,Inc. |WEB Address: www.autodesk.com
 90
    32897
280
     0
281
     0
  0
CLASS
  1
AEC_STAIR_WINDER_TYPE_SINGLE_POINT
  2
AecDbStairWinderTypeSinglePoint
  3
AecArchBase50|Product Desc: Autodesk Architectural Desktop 2007 |Company: Autodesk,Inc. |WEB Address: www.autodesk.com
 90
    32897
280
     0
281
     0
  0
CLASS
  1
AEC_STDSIZE_OPENINGS
  2
AecDbStdSizeOpeningList
  3
AecArchBase50|Product Desc: Autodesk Architectural Desktop 2007 |Company: Autodesk,Inc. |WEB Address: www.autodesk.com
 90
    32897
280
     0
281
     0
  0
CLASS
  1
AEC_WALL
  2
AecDbWall
  3
AecArchBase50|Product Desc: Autodesk Architectural Desktop 2007 |Company: Autodesk,Inc. |WEB Address: www.autodesk.com
 90
    33661
280
     0
281
     1
  0
CLASS
  1
AEC_DOOR
  2
AecDbDoor
  3
AecArchBase50|Product Desc: Autodesk Architectural Desktop 2007 |Company: Autodesk,Inc. |WEB Address: www.autodesk.com
 90
    33661
280
     0
281
     1
  0
CLASS
  1
AEC_ANCHOR_OPENINGBASE_TO_WALL
  2
AecDbAnchorOpeningBaseToWall
  3
AecArchBase50|Product Desc: Autodesk Architectural Desktop 2007 |Company: Autodesk,Inc. |WEB Address: www.autodesk.com
 90
    32897
280
     0
281
     0
  0
CLASS
  1
AEC_TEXT_NOTE
  2
AecDbTextNote
  3
AecBase50|Product Desc: Autodesk Architectural Desktop 2007 |Company: Autodesk,Inc. |WEB Address: www.autodesk.com
 90
    32897
280
     0
281
     0
  0
CLASS
  1
AEC_WINDOW_STYLE
  2
AecDbWindowStyle
  3
AecArchBase50|Product Desc: Autodesk Architectural Desktop 2007 |Company: Autodesk,Inc. |WEB Address: www.autodesk.com
 90
    32897
280
     0
281
     0
  0
CLASS
  1
AEC_WINDOW
  2
AecDbWindow
  3
AecArchBase50|Product Desc: Autodesk Architectural Desktop 2007 |Company: Autodesk,Inc. |WEB Address: www.autodesk.com
 90
    33661
280
     0
281
     1
  0
CLASS
  1
SOLID_BACKGROUND
  2
AcDbSolidBackground
  3
SCENEOE
 90
    36863
280
     0
281
     0
  0
CLASS
  1
AECS_MEMBER_STYLE
  2
AecsDbMemberStyle
  3
AecStructureBase50|Product Desc: Autodesk Architectural Desktop 2007 |Company: Autodesk,Inc. |WEB Address: www.autodesk.com
 90
    32897
280
     0
281
     0
  0
CLASS
  1
AECS_MEMBER
  2
AecsDbMember
  3
AecStructureBase50|Product Desc: Autodesk Architectural Desktop 2007 |Company: Autodesk,Inc. |WEB Address: www.autodesk.com
 90
    33661
280
     0
281
     1
  0
CLASS
  1
SCALE
  2
AcDbScale
  3
ObjectDBX Classes
 90
     1153
280
     0
281
     0
  0
CLASS
  1
MLEADERSTYLE
  2
AcDbMLeaderStyle
  3
ACDB_MLEADERSTYLE_CLASS
 90
     4095
280
     0
281
     0
  0
CLASS
  1
CELLSTYLEMAP
  2
AcDbCellStyleMap
  3
ObjectDBX Classes
 90
     1152
280
     0
281
     0
  0
CLASS
  1
AEC_REFEDIT_STATUS_TRACKER
  2
AecDbRefEditStatusTracker
  3
AecArchBase50|Product Desc: Autodesk Architectural Desktop 2007 |Company: Autodesk,Inc. |WEB Address: www.autodesk.com
 90
      129
280
     0
281
     0
  0
ENDSEC
  0
SECTION
  2
TABLES
  0
TABLE
  2
VPORT
  5
27
102
{ACAD_XDICTIONARY
360
2B
102
}
330
0
100
AcDbSymbolTable
 70
     1
  0
VPORT
  5
28
330
27
100
AcDbSymbolTableRecord
100
AcDbViewportTableRecord
  2
*Active
 70
     0
 10
0.0
 20
0.0
 11
1.0
 21
1.0
 12
-14459.7007471986
 22
-19.24126001353579
 13
0.0
 23
0.0
 14
0.5
 24
0.5
 15
0.5
 25
0.5
 16
0.0
 26
0.0
 36
1.0
 17
17424.76621917907
 27
17333.45805554973
 37
0.0
 40
35432.42065847591
 41
1.847826086956521
 42
50.0
 43
0.0
 44
0.0
 50
0.0
 51
0.0
 71
     0
 72
  1000
 73
     1
 74
     1
 75
     0
 76
     0
 77
     0
 78
     0
281
     0
 65
     1
110
0.0
120
0.0
130
0.0
111
1.0
121
0.0
131
0.0
112
0.0
122
1.0
132
0.0
 79
     0
146
0.0
  0
ENDTAB
  0
TABLE
  2
LTYPE
  5
22
330
0
100
AcDbSymbolTable
 70
     3
  0
LTYPE
  5
23
330
22
100
AcDbSymbolTableRecord
100
AcDbLinetypeTableRecord
  2
ByBlock
 70
     0
  3

 72
    65
 73
     0
 40
0.0
  0
LTYPE
  5
24
330
22
100
AcDbSymbolTableRecord
100
AcDbLinetypeTableRecord
  2
ByLayer
 70
     0
  3

 72
    65
 73
     0
 40
0.0
  0
LTYPE
  5
C
330
22
100
AcDbSymbolTableRecord
100
AcDbLinetypeTableRecord
  2
Continuous
 70
     0
  3
Solid line
 72
    65
 73
     0
 40
0.0
  0
LTYPE
  5
213
330
22
100
AcDbSymbolTableRecord
100
AcDbLinetypeTableRecord
  2
DASHED
 70
     0
  3
Dashed __ __ __ __ __ __ __ __ __ __ __ __ __ _
 72
    65
 73
     2
 40
0.75
 49
0.5
 74
     0
 49
-0.25
 74
     0
  0
ENDTAB
  0
TABLE
  2
LAYER
  5
18
102
{ACAD_XDICTIONARY
360
19
102
}
330
0
100
AcDbSymbolTable
 70
     6
  0
LAYER
  5
6
102
{ACAD_XDICTIONARY
360
180
102
}
330
18
100
AcDbSymbolTableRecord
100
AcDbLayerTableRecord
  2
0
 70
     0
 62
     7
  6
Continuous
370
    -3
390
7
1001
RAK
1000
{ACET-LAYISO
1070
     0
1070
     7
1000
Continuous
1070
     1
1071
       -3
1071
        1
1005
7
1000
ACET-LAYISO}
  0
LAYER
  5
77
330
18
100
AcDbSymbolTableRecord
100
AcDbLayerTableRecord
  2
DEFPOINTS
 70
     0
 62
     7
  6
Continuous
290
     0
370
    -3
390
7
1001
RAK
1000
{ACET-LAYISO
1070
     0
1070
    -7
1000
Continuous
1071
       -3
1071
        0
1005
7
1000
ACET-LAYISO}
  0
LAYER
  5
214
102
{ACAD_XDICTIONARY
360
215
102
}
330
18
100
AcDbSymbolTableRecord
100
AcDbLayerTableRecord
  2
0Wymiary-PL
 70
     0
 62
     1
  6
Continuous
370
    -3
390
7
1001
RAK
1000
{ACET-LAYISO
1070
     0
1070
     1
1000
Continuous
1071
       -3
1071
        1
1005
7
1000
ACET-LAYISO}
  0
LAYER
  5
468
102
{ACAD_XDICTIONARY
360
469
102
}
330
18
100
AcDbSymbolTableRecord
100
AcDbLayerTableRecord
  2
WIDOK
 70
     0
 62
   114
  6
Continuous
370
     9
390
7
  0
LAYER
  5
46A
102
{ACAD_XDICTIONARY
360
46B
102
}
330
18
100
AcDbSymbolTableRecord
100
AcDbLayerTableRecord
  2
-wymiary
 70
     0
 62
     1
  6
Continuous
370
     5
390
7
1001
RAK
1000
{ACET-LAYISO
1070
     0
1070
     1
1000
Continuous
1070
     1
1071
        5
1071
        1
1005
7
1000
ACET-LAYISO}
  0
ENDTAB
  0
TABLE
  2
STYLE
  5
1F
330
0
100
AcDbSymbolTable
 70
     6
  0
STYLE
  5
20
330
1F
100
AcDbSymbolTableRecord
100
AcDbTextStyleTableRecord
  2
Standard
 70
     0
 40
0.0
 41
1.0
 50
0.0
 71
     0
 42
0.2
  3
txt
  4

  0
STYLE
  5
55
330
1F
100
AcDbSymbolTableRecord
100
AcDbTextStyleTableRecord
  2
romansDIM
 70
     0
 40
0.0
 41
0.8
 50
0.0
 71
     0
 42
18.0
  3
romans.shx
  4

  0
STYLE
  5
46E
330
1F
100
AcDbSymbolTableRecord
100
AcDbTextStyleTableRecord
  2
ROMANS
 70
     0
 40
0.0
 41
0.8
 50
0.0
 71
     0
 42
15.0
  3
romans.shx
  4

  0
STYLE
  5
46F
330
1F
100
AcDbSymbolTableRecord
100
AcDbTextStyleTableRecord
  2
ARIAL
 70
     0
 40
0.0
 41
1.0
 50
0.0
 71
     0
 42
20.0
  3
ARIAL.TTF
  4

1001
ACAD
1000
Arial CE
1071
    60962
  0
STYLE
  5
470
330
1F
100
AcDbSymbolTableRecord
100
AcDbTextStyleTableRecord
  2
AVA
 70
     0
 40
0.0
 41
1.0
 50
0.0
 71
     0
 42
15.0
  3
romans.shx
  4

  0
ENDTAB
  0
TABLE
  2
VIEW
  5
25
330
0
100
AcDbSymbolTable
 70
     0
  0
ENDTAB
  0
TABLE
  2
UCS
  5
26
330
0
100
AcDbSymbolTable
 70
     0
  0
ENDTAB
  0
TABLE
  2
APPID
  5
2C
330
0
100
AcDbSymbolTable
 70
     9
  0
APPID
  5
1E
330
2C
100
AcDbSymbolTableRecord
100
AcDbRegAppTableRecord
  2
ACAD
 70
     0
  0
APPID
  5
D
330
2C
100
AcDbSymbolTableRecord
100
AcDbRegAppTableRecord
  2
RAK
 70
     0
  0
APPID
  5
111
330
2C
100
AcDbSymbolTableRecord
100
AcDbRegAppTableRecord
  2
AcAecLayerStandard
 70
     0
  0
APPID
  5
11
330
2C
100
AcDbSymbolTableRecord
100
AcDbRegAppTableRecord
  2
ACAD_PSEXT
 70
     0
  0
APPID
  5
10D
330
2C
100
AcDbSymbolTableRecord
100
AcDbRegAppTableRecord
  2
AcDbBlockRepETag
 70
     0
  0
APPID
  5
1C
330
2C
100
AcDbSymbolTableRecord
100
AcDbRegAppTableRecord
  2
AcLayerTools
 70
     0
  0
APPID
  5
124
330
2C
100
AcDbSymbolTableRecord
100
AcDbRegAppTableRecord
  2
DCO15
 70
     0
  0
APPID
  5
140
330
2C
100
AcDbSymbolTableRecord
100
AcDbRegAppTableRecord
  2
ACAD_MLEADERVER
 70
     0
  0
APPID
  5
146
330
2C
100
AcDbSymbolTableRecord
100
AcDbRegAppTableRecord
  2
ACAD_EXEMPT_FROM_CAD_STANDARDS
 70
     0
  0
ENDTAB
  0
TABLE
  2
DIMSTYLE
  5
2D
330
0
100
AcDbSymbolTable
 70
     3
100
AcDbDimStyleTable
 71
     1
340
2E
  0
DIMSTYLE
105
2E
330
2D
100
AcDbSymbolTableRecord
100
AcDbDimStyleTableRecord
  2
Standard
 70
     0
340
20
  0
DIMSTYLE
105
471
102
{ACAD_REACTORS
330
4EE
330
4EB
330
4F4
330
4F1
330
4F8
330
4F7
330
4F6
330
4F5
330
568
330
569
330
56A
330
56B
330
56C
330
56D
330
56E
330
56F
330
66C
330
66D
330
66E
330
66F
330
670
330
671
330
672
330
673
330
5EF
330
5F2
330
5F5
330
5F8
330
5F9
330
5FA
330
5FB
330
5FC
102
}
330
2D
100
AcDbSymbolTableRecord
100
AcDbDimStyleTableRecord
  2
500
 70
     0
 41
30.0
 42
43.0
 43
0.0
 44
13.0
 45
0.5
 46
12.0
 73
     0
 74
     0
 75
     1
 76
     1
 78
    12
140
80.0
141
0.0
145
1.0
147
0.0
172
     1
174
     1
176
     1
177
     1
178
    10
271
     1
272
     1
279
     2
340
46E
341
31
342
31
  0
ENDTAB
  0
TABLE
  2
BLOCK_RECORD
  5
1
330
0
100
AcDbSymbolTable
 70
    43
  0
BLOCK_RECORD
  5
2
102
{ACAD_XDICTIONARY
360
3
102
}
330
1
100
AcDbSymbolTableRecord
100
AcDbBlockTableRecord
  2
*Model_Space
340
F
  0
BLOCK_RECORD
  5
12
330
1
100
AcDbSymbolTableRecord
100
AcDbBlockTableRecord
  2
*Paper_Space
340
15
  0
BLOCK_RECORD
  5
31
102
{ACAD_XDICTIONARY
360
32
102
}
330
1
100
AcDbSymbolTableRecord
100
AcDbBlockTableRecord
  2
B-DIM
340
0
102
{BLKREFS
331
313
331
314
331
338
331
339
331
34C
331
34D
331
360
331
361
331
374
331
375
331
388
331
389
331
39C
331
39D
331
3C5
331
3C6
331
3CF
331
3D0
331
3D9
331
3DA
331
3E3
331
3E4
331
3EF
331
3F0
331
3F9
331
3FA
331
403
331
404
331
40D
331
40E
331
44D
331
44E
331
457
331
458
331
461
331
462
331
417
331
418
331
423
331
424
331
42D
331
42E
331
437
331
438
331
441
331
442
331
6FF
331
700
331
706
331
707
331
70D
331
70E
331
714
331
715
331
71D
331
71E
331
724
331
725
331
72B
331
72C
331
732
331
733
331
73E
331
73F
331
748
331
749
331
752
331
753
331
759
331
75A
331
762
331
763
331
769
331
76A
331
770
331
771
331
777
331
778
102
}
  0
BLOCK_RECORD
  5
3A
330
1
100
AcDbSymbolTableRecord
100
AcDbBlockTableRecord
  2
_Dot
340
0
  0
BLOCK_RECORD
  5
674
330
1
100
AcDbSymbolTableRecord
100
AcDbBlockTableRecord
  2
*D27
340
0
  0
BLOCK_RECORD
  5
680
330
1
100
AcDbSymbolTableRecord
100
AcDbBlockTableRecord
  2
*D28
340
0
  0
BLOCK_RECORD
  5
68A
330
1
100
AcDbSymbolTableRecord
100
AcDbBlockTableRecord
  2
*D29
340
0
  0
BLOCK_RECORD
  5
694
330
1
100
AcDbSymbolTableRecord
100
AcDbBlockTableRecord
  2
*D30
340
0
  0
BLOCK_RECORD
  5
69E
330
1
100
AcDbSymbolTableRecord
100
AcDbBlockTableRecord
  2
*D31
340
0
  0
BLOCK_RECORD
  5
6AA
330
1
100
AcDbSymbolTableRecord
100
AcDbBlockTableRecord
  2
*D32
340
0
  0
BLOCK_RECORD
  5
6B4
330
1
100
AcDbSymbolTableRecord
100
AcDbBlockTableRecord
  2
*D33
340
0
  0
BLOCK_RECORD
  5
6BE
330
1
100
AcDbSymbolTableRecord
100
AcDbBlockTableRecord
  2
*D34
340
0
  0
BLOCK_RECORD
  5
6C8
330
1
100
AcDbSymbolTableRecord
100
AcDbBlockTableRecord
  2
*D35
340
0
  0
BLOCK_RECORD
  5
6D2
330
1
100
AcDbSymbolTableRecord
100
AcDbBlockTableRecord
  2
*D36
340
0
  0
BLOCK_RECORD
  5
6DE
330
1
100
AcDbSymbolTableRecord
100
AcDbBlockTableRecord
  2
*D37
340
0
  0
BLOCK_RECORD
  5
6E8
330
1
100
AcDbSymbolTableRecord
100
AcDbBlockTableRecord
  2
*D38
340
0
  0
BLOCK_RECORD
  5
6F2
330
1
100
AcDbSymbolTableRecord
100
AcDbBlockTableRecord
  2
*D39
340
0
  0
BLOCK_RECORD
  5
738
330
1
100
AcDbSymbolTableRecord
100
AcDbBlockTableRecord
  2
*D40
340
0
  0
BLOCK_RECORD
  5
744
330
1
100
AcDbSymbolTableRecord
100
AcDbBlockTableRecord
  2
*D41
340
0
  0
BLOCK_RECORD
  5
74E
330
1
100
AcDbSymbolTableRecord
100
AcDbBlockTableRecord
  2
*D42
340
0
  0
ENDTAB
  0
ENDSEC
  0
SECTION
  2
BLOCKS
  0
BLOCK
  5
5
330
2
100
AcDbEntity
  8
0
100
AcDbBlockBegin
  2
*Model_Space
 70
     0
 10
0.0
 20
0.0
 30
0.0
  3
*Model_Space
  1

  0
ENDBLK
  5
E
330
2
100
AcDbEntity
  8
0
100
AcDbBlockEnd
  0
BLOCK
  5
13
330
12
100
AcDbEntity
 67
     1
  8
0
100
AcDbBlockBegin
  2
*Paper_Space
 70
     0
 10
0.0
 20
0.0
 30
0.0
  3
*Paper_Space
  1

  0
ENDBLK
  5
14
330
12
100
AcDbEntity
 67
     1
  8
0
100
AcDbBlockEnd
  0
BLOCK
  5
34
330
31
100
AcDbEntity
  8
0
100
AcDbBlockBegin
  2
B-DIM
 70
     0
 10
0.0
 20
0.0
 30
0.0
  3
B-DIM
  1

  0
LINE
  5
35
330
31
100
AcDbEntity
  8
0
 62
     1
100
AcDbLine
 10
0.000000000000091
 20
-1.1
 30
0.0
 11
0.000000000000091
 21
1.1
 31
0.0
  0
LWPOLYLINE
  5
36
330
31
100
AcDbEntity
  8
0
 62
     1
100
AcDbPolyline
 90
        2
 70
     0
 43
0.3
 10
-0.7071067811864851
 20
-0.7071067811864851
 10
0.707106781186576
 20
0.707106781186576
  0
LINE
  5
37
330
31
100
AcDbEntity
  8
0
 62
     1
100
AcDbLine
 10
1.20000000000009
 20
0.0
 30
0.0
 11
-1.199999999999909
 21
0.0
 31
0.0
  0
ENDBLK
  5
38
330
31
100
AcDbEntity
  8
0
100
AcDbBlockEnd
  0
BLOCK
  5
3B
330
3A
100
AcDbEntity
  8
0
100
AcDbBlockBegin
  2
_Dot
 70
     0
 10
0.0
 20
0.0
 30
0.0
  3
_Dot
  1

  0
LWPOLYLINE
  5
3C
330
3A
100
AcDbEntity
  8
0
  6
ByBlock
 62
     0
100
AcDbPolyline
 90
        2
 70
     1
 43
0.5
 10
-0.25
 20
0.0
 42
1.0
 10
0.25
 20
0.0
 42
1.0
  0
LINE
  5
3D
330
3A
100
AcDbEntity
  8
0
  6
ByBlock
 62
     0
370
    -2
100
AcDbLine
 10
-0.5
 20
0.0
 30
0.0
 11
-1.0
 21
0.0
 31
0.0
  0
ENDBLK
  5
3E
330
3A
100
AcDbEntity
  8
0
100
AcDbBlockEnd
  0
BLOCK
  5
675
330
674
100
AcDbEntity
  8
0
100
AcDbBlockBegin
  2
*D27
 70
     1
 10
0.0
 20
0.0
 30
0.0
  3
*D27
  1

  0
LINE
  5
6FC
330
674
100
AcDbEntity
  8
-wymiary
 62
     1
370
    -2
100
AcDbLine
 10
15643.01882635958
 20
17976.03983265255
 30
0.0
 11
15643.01882635958
 21
18006.03983265256
 31
0.0
  0
LINE
  5
6FD
330
674
100
AcDbEntity
  8
-wymiary
 62
     1
370
    -2
100
AcDbLine
 10
15643.01882635958
 20
17876.03983260214
 30
0.0
 11
15643.01882635958
 21
17846.03983260215
 31
0.0
  0
LINE
  5
6FE
330
674
100
AcDbEntity
  8
-wymiary
 62
     1
370
    -2
100
AcDbLine
 10
15643.01882635958
 20
17946.03983265256
 30
0.0
 11
15643.01882635958
 21
17906.03983260214
 31
0.0
  0
INSERT
  5
6FF
330
674
100
AcDbEntity
  8
-wymiary
 62
     1
370
    -2
100
AcDbBlockReference
  2
B-DIM
 10
15643.01882635958
 20
17946.03983265256
 30
0.0
 41
30.0
 42
30.0
 43
30.0
 50
270.0
  0
INSERT
  5
700
330
674
100
AcDbEntity
  8
-wymiary
 62
     1
370
    -2
100
AcDbBlockReference
  2
B-DIM
 10
15643.01882635958
 20
17906.03983260214
 30
0.0
 41
30.0
 42
30.0
 43
30.0
 50
90.0
  0
MTEXT
  5
701
330
674
100
AcDbEntity
  8
-wymiary
 62
    10
370
     9
100
AcDbMText
 10
15563.01882635957
 20
17926.03983262736
 30
0.0
 40
80.0
 41
0.0
 71
     5
 72
     1
  1
\A1;40
  7
ROMANS
 11
0.0000000000000001
 21
1.0
 31
0.0
 73
     1
 44
1.0
1001
ACAD
1000
MTEXTBEGIN
1070
    73
1070
     1
1070
    44
1040
1.0
1070
    74
1070
     0
1000
MTEXTEND
  0
POINT
  5
702
330
674
100
AcDbEntity
  8
DEFPOINTS
 62
     0
100
AcDbPoint
 10
16850.48420238649
 20
17946.03983265256
 30
0.0
  0
POINT
  5
703
330
674
100
AcDbEntity
  8
DEFPOINTS
 62
     0
100
AcDbPoint
 10
16845.48420243694
 20
17906.03983260214
 30
0.0
  0
POINT
  5
704
330
674
100
AcDbEntity
  8
DEFPOINTS
 62
     0
100
AcDbPoint
 10
15643.01882635958
 20
17906.03983260214
 30
0.0
  0
ENDBLK
  5
676
330
674
100
AcDbEntity
  8
0
100
AcDbBlockEnd
  0
BLOCK
  5
681
330
680
100
AcDbEntity
  8
0
100
AcDbBlockBegin
  2
*D28
 70
     1
 10
0.0
 20
0.0
 30
0.0
  3
*D28
  1

  0
LINE
  5
705
330
680
100
AcDbEntity
  8
-wymiary
 62
     1
370
    -2
100
AcDbLine
 10
15643.01882635958
 20
17876.03983260214
 30
0.0
 11
15643.01882635958
 21
17575.03983260214
 31
0.0
  0
INSERT
  5
706
330
680
100
AcDbEntity
  8
-wymiary
 62
     1
370
    -2
100
AcDbBlockReference
  2
B-DIM
 10
15643.01882635958
 20
17906.03983260214
 30
0.0
 41
30.0
 42
30.0
 43
30.0
 50
90.0
  0
INSERT
  5
707
330
680
100
AcDbEntity
  8
-wymiary
 62
     1
370
    -2
100
AcDbBlockReference
  2
B-DIM
 10
15643.01882635958
 20
17545.03983260214
 30
0.0
 41
30.0
 42
30.0
 43
30.0
 50
270.0
  0
MTEXT
  5
708
330
680
100
AcDbEntity
  8
-wymiary
 62
    10
370
     9
100
AcDbMText
 10
15563.01882635957
 20
17725.53983260214
 30
0.0
 40
80.0
 41
0.0
 71
     5
 72
     1
  1
\A1;361
  7
ROMANS
 11
0.0000000000000001
 21
1.0
 31
0.0
 73
     1
 44
1.0
1001
ACAD
1000
MTEXTBEGIN
1070
    73
1070
     1
1070
    44
1040
1.0
1070
    74
1070
     0
1000
MTEXTEND
  0
POINT
  5
709
330
680
100
AcDbEntity
  8
DEFPOINTS
 62
     0
100
AcDbPoint
 10
16845.48420243694
 20
17906.03983260214
 30
0.0
  0
POINT
  5
70A
330
680
100
AcDbEntity
  8
DEFPOINTS
 62
     0
100
AcDbPoint
 10
15826.48420223483
 20
17545.03983260214
 30
0.0
  0
POINT
  5
70B
330
680
100
AcDbEntity
  8
DEFPOINTS
 62
     0
100
AcDbPoint
 10
15643.01882635958
 20
17545.03983260214
 30
0.0
  0
ENDBLK
  5
682
330
680
100
AcDbEntity
  8
0
100
AcDbBlockEnd
  0
BLOCK
  5
68B
330
68A
100
AcDbEntity
  8
0
100
AcDbBlockBegin
  2
*D29
 70
     1
 10
0.0
 20
0.0
 30
0.0
  3
*D29
  1

  0
LINE
  5
70C
330
68A
100
AcDbEntity
  8
-wymiary
 62
     1
370
    -2
100
AcDbLine
 10
15643.01882635958
 20
17515.03983260214
 30
0.0
 11
15643.01882635958
 21
16714.03983260213
 31
0.0
  0
INSERT
  5
70D
330
68A
100
AcDbEntity
  8
-wymiary
 62
     1
370
    -2
100
AcDbBlockReference
  2
B-DIM
 10
15643.01882635958
 20
17545.03983260214
 30
0.0
 41
30.0
 42
30.0
 43
30.0
 50
90.0
  0
INSERT
  5
70E
330
68A
100
AcDbEntity
  8
-wymiary
 62
     1
370
    -2
100
AcDbBlockReference
  2
B-DIM
 10
15643.01882635958
 20
16684.03983260213
 30
0.0
 41
30.0
 42
30.0
 43
30.0
 50
270.0
  0
MTEXT
  5
70F
330
68A
100
AcDbEntity
  8
-wymiary
 62
    10
370
     9
100
AcDbMText
 10
15563.01882635957
 20
17114.53983260214
 30
0.0
 40
80.0
 41
0.0
 71
     5
 72
     1
  1
\A1;861
  7
ROMANS
 11
0.0000000000000001
 21
1.0
 31
0.0
 73
     1
 44
1.0
1001
ACAD
1000
MTEXTBEGIN
1070
    73
1070
     1
1070
    44
1040
1.0
1070
    74
1070
     0
1000
MTEXTEND
  0
POINT
  5
710
330
68A
100
AcDbEntity
  8
DEFPOINTS
 62
     0
100
AcDbPoint
 10
15826.48420223483
 20
17545.03983260214
 30
0.0
  0
POINT
  5
711
330
68A
100
AcDbEntity
  8
DEFPOINTS
 62
     0
100
AcDbPoint
 10
15863.51882635957
 20
16684.03983260213
 30
0.0
  0
POINT
  5
712
330
68A
100
AcDbEntity
  8
DEFPOINTS
 62
     0
100
AcDbPoint
 10
15643.01882635958
 20
16684.03983260213
 30
0.0
  0
ENDBLK
  5
68C
330
68A
100
AcDbEntity
  8
0
100
AcDbBlockEnd
  0
BLOCK
  5
695
330
694
100
AcDbEntity
  8
0
100
AcDbBlockBegin
  2
*D30
 70
     1
 10
0.0
 20
0.0
 30
0.0
  3
*D30
  1

  0
LINE
  5
713
330
694
100
AcDbEntity
  8
-wymiary
 62
     1
370
    -2
100
AcDbLine
 10
15453.01882635958
 20
16714.03983260213
 30
0.0
 11
15453.01882635958
 21
17916.03983265255
 31
0.0
  0
INSERT
  5
714
330
694
100
AcDbEntity
  8
-wymiary
 62
     1
370
    -2
100
AcDbBlockReference
  2
B-DIM
 10
15453.01882635958
 20
16684.03983260213
 30
0.0
 41
30.0
 42
30.0
 43
30.0
 50
270.0
  0
INSERT
  5
715
330
694
100
AcDbEntity
  8
-wymiary
 62
     1
370
    -2
100
AcDbBlockReference
  2
B-DIM
 10
15453.01882635958
 20
17946.03983265256
 30
0.0
 41
30.0
 42
30.0
 43
30.0
 50
90.0
  0
MTEXT
  5
716
330
694
100
AcDbEntity
  8
-wymiary
 62
    10
370
     9
100
AcDbMText
 10
15373.01882635957
 20
17315.03983262735
 30
0.0
 40
80.0
 41
0.0
 71
     5
 72
     1
  1
\A1;1262
  7
ROMANS
 11
0.0000000000000001
 21
1.0
 31
0.0
 73
     1
 44
1.0
1001
ACAD
1000
MTEXTBEGIN
1070
    73
1070
     1
1070
    44
1040
1.0
1070
    74
1070
     0
1000
MTEXTEND
  0
POINT
  5
717
330
694
100
AcDbEntity
  8
DEFPOINTS
 62
     0
100
AcDbPoint
 10
15863.51882635957
 20
16684.03983260213
 30
0.0
  0
POINT
  5
718
330
694
100
AcDbEntity
  8
DEFPOINTS
 62
     0
100
AcDbPoint
 10
15548.51882635958
 20
17946.03983265256
 30
0.0
  0
POINT
  5
719
330
694
100
AcDbEntity
  8
DEFPOINTS
 62
     0
100
AcDbPoint
 10
15453.01882635958
 20
17946.03983265256
 30
0.0
  0
ENDBLK
  5
696
330
694
100
AcDbEntity
  8
0
100
AcDbBlockEnd
  0
BLOCK
  5
69F
330
69E
100
AcDbEntity
  8
0
100
AcDbBlockBegin
  2
*D31
 70
     1
 10
0.0
 20
0.0
 30
0.0
  3
*D31
  1

  0
LINE
  5
71A
330
69E
100
AcDbEntity
  8
-wymiary
 62
     1
370
    -2
100
AcDbLine
 10
17373.48420228527
 20
16401.10750334653
 30
0.0
 11
17403.48420228527
 21
16401.10750334653
 31
0.0
  0
LINE
  5
71B
330
69E
100
AcDbEntity
  8
-wymiary
 62
     1
370
    -2
100
AcDbLine
 10
17273.48420223484
 20
16401.10750334653
 30
0.0
 11
17243.48420223484
 21
16401.10750334653
 31
0.0
  0
LINE
  5
71C
330
69E
100
AcDbEntity
  8
-wymiary
 62
     1
370
    -2
100
AcDbLine
 10
17343.48420228527
 20
16401.10750334653
 30
0.0
 11
17303.48420223484
 21
16401.10750334653
 31
0.0
  0
INSERT
  5
71D
330
69E
100
AcDbEntity
  8
-wymiary
 62
     1
370
    -2
100
AcDbBlockReference
  2
B-DIM
 10
17343.48420228527
 20
16401.10750334653
 30
0.0
 41
30.0
 42
30.0
 43
30.0
 50
180.0
  0
INSERT
  5
71E
330
69E
100
AcDbEntity
  8
-wymiary
 62
     1
370
    -2
100
AcDbBlockReference
  2
B-DIM
 10
17303.48420223484
 20
16401.10750334653
 30
0.0
 41
30.0
 42
30.0
 43
30.0
  0
MTEXT
  5
71F
330
69E
100
AcDbEntity
  8
-wymiary
 62
    10
370
     9
100
AcDbMText
 10
17323.48420226005
 20
16481.10750334653
 30
0.0
 40
80.0
 41
0.0
 71
     5
 72
     1
  1
\A1;40
  7
ROMANS
 73
     1
 44
1.0
1001
ACAD
1000
MTEXTBEGIN
1070
    73
1070
     1
1070
    44
1040
1.0
1070
    74
1070
     0
1000
MTEXTEND
  0
POINT
  5
720
330
69E
100
AcDbEntity
  8
DEFPOINTS
 62
     0
100
AcDbPoint
 10
17343.48420228527
 20
17508.03983280454
 30
0.0
  0
POINT
  5
721
330
69E
100
AcDbEntity
  8
DEFPOINTS
 62
     0
100
AcDbPoint
 10
17303.48420223484
 20
17507.82658592517
 30
0.0
  0
POINT
  5
722
330
69E
100
AcDbEntity
  8
DEFPOINTS
 62
     0
100
AcDbPoint
 10
17303.48420223484
 20
16401.10750334653
 30
0.0
  0
ENDBLK
  5
6A0
330
69E
100
AcDbEntity
  8
0
100
AcDbBlockEnd
  0
BLOCK
  5
6AB
330
6AA
100
AcDbEntity
  8
0
100
AcDbBlockBegin
  2
*D32
 70
     1
 10
0.0
 20
0.0
 30
0.0
  3
*D32
  1

  0
LINE
  5
723
330
6AA
100
AcDbEntity
  8
-wymiary
 62
     1
370
    -2
100
AcDbLine
 10
17273.48420223484
 20
16401.10750334653
 30
0.0
 11
16800.48420223484
 21
16401.10750334653
 31
0.0
  0
INSERT
  5
724
330
6AA
100
AcDbEntity
  8
-wymiary
 62
     1
370
    -2
100
AcDbBlockReference
  2
B-DIM
 10
17303.48420223484
 20
16401.10750334653
 30
0.0
 41
30.0
 42
30.0
 43
30.0
  0
INSERT
  5
725
330
6AA
100
AcDbEntity
  8
-wymiary
 62
     1
370
    -2
100
AcDbBlockReference
  2
B-DIM
 10
16770.48420223484
 20
16401.10750334653
 30
0.0
 41
30.0
 42
30.0
 43
30.0
 50
180.0
  0
MTEXT
  5
726
330
6AA
100
AcDbEntity
  8
-wymiary
 62
    10
370
     9
100
AcDbMText
 10
17036.98420223484
 20
16481.10750334653
 30
0.0
 40
80.0
 41
0.0
 71
     5
 72
     1
  1
\A1;533
  7
ROMANS
 73
     1
 44
1.0
1001
ACAD
1000
MTEXTBEGIN
1070
    73
1070
     1
1070
    44
1040
1.0
1070
    74
1070
     0
1000
MTEXTEND
  0
POINT
  5
727
330
6AA
100
AcDbEntity
  8
DEFPOINTS
 62
     0
100
AcDbPoint
 10
17303.48420223484
 20
17507.82658592517
 30
0.0
  0
POINT
  5
728
330
6AA
100
AcDbEntity
  8
DEFPOINTS
 62
     0
100
AcDbPoint
 10
16770.48420223484
 20
16727.60750334653
 30
0.0
  0
POINT
  5
729
330
6AA
100
AcDbEntity
  8
DEFPOINTS
 62
     0
100
AcDbPoint
 10
16770.48420223484
 20
16401.10750334653
 30
0.0
  0
ENDBLK
  5
6AC
330
6AA
100
AcDbEntity
  8
0
100
AcDbBlockEnd
  0
BLOCK
  5
6B5
330
6B4
100
AcDbEntity
  8
0
100
AcDbBlockBegin
  2
*D33
 70
     1
 10
0.0
 20
0.0
 30
0.0
  3
*D33
  1

  0
LINE
  5
72A
330
6B4
100
AcDbEntity
  8
-wymiary
 62
     1
370
    -2
100
AcDbLine
 10
16740.48420223484
 20
16401.10750334653
 30
0.0
 11
15909.48420223483
 21
16401.10750334653
 31
0.0
  0
INSERT
  5
72B
330
6B4
100
AcDbEntity
  8
-wymiary
 62
     1
370
    -2
100
AcDbBlockReference
  2
B-DIM
 10
16770.48420223484
 20
16401.10750334653
 30
0.0
 41
30.0
 42
30.0
 43
30.0
  0
INSERT
  5
72C
330
6B4
100
AcDbEntity
  8
-wymiary
 62
     1
370
    -2
100
AcDbBlockReference
  2
B-DIM
 10
15879.48420223483
 20
16401.10750334653
 30
0.0
 41
30.0
 42
30.0
 43
30.0
 50
180.0
  0
MTEXT
  5
72D
330
6B4
100
AcDbEntity
  8
-wymiary
 62
    10
370
     9
100
AcDbMText
 10
16324.98420223484
 20
16481.10750334653
 30
0.0
 40
80.0
 41
0.0
 71
     5
 72
     1
  1
\A1;891
  7
ROMANS
 73
     1
 44
1.0
1001
ACAD
1000
MTEXTBEGIN
1070
    73
1070
     1
1070
    44
1040
1.0
1070
    74
1070
     0
1000
MTEXTEND
  0
POINT
  5
72E
330
6B4
100
AcDbEntity
  8
DEFPOINTS
 62
     0
100
AcDbPoint
 10
16770.48420223484
 20
16727.60750334653
 30
0.0
  0
POINT
  5
72F
330
6B4
100
AcDbEntity
  8
DEFPOINTS
 62
     0
100
AcDbPoint
 10
15879.48420223483
 20
16689.10750334653
 30
0.0
  0
POINT
  5
730
330
6B4
100
AcDbEntity
  8
DEFPOINTS
 62
     0
100
AcDbPoint
 10
15879.48420223483
 20
16401.10750334653
 30
0.0
  0
ENDBLK
  5
6B6
330
6B4
100
AcDbEntity
  8
0
100
AcDbBlockEnd
  0
BLOCK
  5
6BF
330
6BE
100
AcDbEntity
  8
0
100
AcDbBlockBegin
  2
*D34
 70
     1
 10
0.0
 20
0.0
 30
0.0
  3
*D34
  1

  0
LINE
  5
731
330
6BE
100
AcDbEntity
  8
-wymiary
 62
     1
370
    -2
100
AcDbLine
 10
15909.48420223483
 20
16203.10750334653
 30
0.0
 11
17313.48420228527
 21
16203.10750334653
 31
0.0
  0
INSERT
  5
732
330
6BE
100
AcDbEntity
  8
-wymiary
 62
     1
370
    -2
100
AcDbBlockReference
  2
B-DIM
 10
15879.48420223483
 20
16203.10750334653
 30
0.0
 41
30.0
 42
30.0
 43
30.0
 50
180.0
  0
INSERT
  5
733
330
6BE
100
AcDbEntity
  8
-wymiary
 62
     1
370
    -2
100
AcDbBlockReference
  2
B-DIM
 10
17343.48420228527
 20
16203.10750334653
 30
0.0
 41
30.0
 42
30.0
 43
30.0
  0
MTEXT
  5
734
330
6BE
100
AcDbEntity
  8
-wymiary
 62
    10
370
     9
100
AcDbMText
 10
16611.48420226006
 20
16283.10750334653
 30
0.0
 40
80.0
 41
0.0
 71
     5
 72
     1
  1
\A1;1464
  7
ROMANS
 73
     1
 44
1.0
1001
ACAD
1000
MTEXTBEGIN
1070
    73
1070
     1
1070
    44
1040
1.0
1070
    74
1070
     0
1000
MTEXTEND
  0
POINT
  5
735
330
6BE
100
AcDbEntity
  8
DEFPOINTS
 62
     0
100
AcDbPoint
 10
15879.48420223483
 20
16689.10750334653
 30
0.0
  0
POINT
  5
736
330
6BE
100
AcDbEntity
  8
DEFPOINTS
 62
     0
100
AcDbPoint
 10
17343.48420228527
 20
17419.03983280454
 30
0.0
  0
POINT
  5
737
330
6BE
100
AcDbEntity
  8
DEFPOINTS
 62
     0
100
AcDbPoint
 10
17343.48420228527
 20
16203.10750334653
 30
0.0
  0
ENDBLK
  5
6C0
330
6BE
100
AcDbEntity
  8
0
100
AcDbBlockEnd
  0
BLOCK
  5
6C9
330
6C8
100
AcDbEntity
  8
0
100
AcDbBlockBegin
  2
*D35
 70
     1
 10
0.0
 20
0.0
 30
0.0
  3
*D35
  1

  0
LINE
  5
758
330
6C8
100
AcDbEntity
  8
-wymiary
 62
     1
370
    -2
100
AcDbLine
 10
12702.35234952102
 20
16714.03983260213
 30
0.0
 11
12702.35234952102
 21
17916.03983265255
 31
0.0
  0
INSERT
  5
759
330
6C8
100
AcDbEntity
  8
-wymiary
 62
     1
370
    -2
100
AcDbBlockReference
  2
B-DIM
 10
12702.35234952102
 20
16684.03983260213
 30
0.0
 41
30.0
 42
30.0
 43
30.0
 50
270.0
  0
INSERT
  5
75A
330
6C8
100
AcDbEntity
  8
-wymiary
 62
     1
370
    -2
100
AcDbBlockReference
  2
B-DIM
 10
12702.35234952102
 20
17946.03983265256
 30
0.0
 41
30.0
 42
30.0
 43
30.0
 50
90.0
  0
MTEXT
  5
75B
330
6C8
100
AcDbEntity
  8
-wymiary
 62
    10
370
     9
100
AcDbMText
 10
12622.35234952102
 20
17315.03983262735
 30
0.0
 40
80.0
 41
0.0
 71
     5
 72
     1
  1
\A1;1262
  7
ROMANS
 11
0.0000000000000001
 21
1.0
 31
0.0
 73
     1
 44
1.0
1001
ACAD
1000
MTEXTBEGIN
1070
    73
1070
     1
1070
    44
1040
1.0
1070
    74
1070
     0
1000
MTEXTEND
  0
POINT
  5
75C
330
6C8
100
AcDbEntity
  8
DEFPOINTS
 62
     0
100
AcDbPoint
 10
12291.85234952102
 20
16684.03983260213
 30
0.0
  0
POINT
  5
75D
330
6C8
100
AcDbEntity
  8
DEFPOINTS
 62
     0
100
AcDbPoint
 10
12606.85234952102
 20
17946.03983265256
 30
0.0
  0
POINT
  5
75E
330
6C8
100
AcDbEntity
  8
DEFPOINTS
 62
     0
100
AcDbPoint
 10
12702.35234952102
 20
17946.03983265256
 30
0.0
  0
ENDBLK
  5
6CA
330
6C8
100
AcDbEntity
  8
0
100
AcDbBlockEnd
  0
BLOCK
  5
6D3
330
6D2
100
AcDbEntity
  8
0
100
AcDbBlockBegin
  2
*D36
 70
     1
 10
0.0
 20
0.0
 30
0.0
  3
*D36
  1

  0
LINE
  5
75F
330
6D2
100
AcDbEntity
  8
-wymiary
 62
     1
370
    -2
100
AcDbLine
 10
10834.88697359533
 20
16401.10750334653
 30
0.0
 11
10804.88697359533
 21
16401.10750334653
 31
0.0
  0
LINE
  5
760
330
6D2
100
AcDbEntity
  8
-wymiary
 62
     1
370
    -2
100
AcDbLine
 10
10934.88697364576
 20
16401.10750334653
 30
0.0
 11
10964.88697364576
 21
16401.10750334653
 31
0.0
  0
LINE
  5
761
330
6D2
100
AcDbEntity
  8
-wymiary
 62
     1
370
    -2
100
AcDbLine
 10
10864.88697359533
 20
16401.10750334653
 30
0.0
 11
10904.88697364576
 21
16401.10750334653
 31
0.0
  0
INSERT
  5
762
330
6D2
100
AcDbEntity
  8
-wymiary
 62
     1
370
    -2
100
AcDbBlockReference
  2
B-DIM
 10
10864.88697359533
 20
16401.10750334653
 30
0.0
 41
30.0
 42
30.0
 43
30.0
  0
INSERT
  5
763
330
6D2
100
AcDbEntity
  8
-wymiary
 62
     1
370
    -2
100
AcDbBlockReference
  2
B-DIM
 10
10904.88697364576
 20
16401.10750334653
 30
0.0
 41
30.0
 42
30.0
 43
30.0
 50
180.0
  0
MTEXT
  5
764
330
6D2
100
AcDbEntity
  8
-wymiary
 62
    10
370
     9
100
AcDbMText
 10
10884.88697362054
 20
16481.10750334653
 30
0.0
 40
80.0
 41
0.0
 71
     5
 72
     1
  1
\A1;40
  7
ROMANS
 73
     1
 44
1.0
1001
ACAD
1000
MTEXTBEGIN
1070
    73
1070
     1
1070
    44
1040
1.0
1070
    74
1070
     0
1000
MTEXTEND
  0
POINT
  5
765
330
6D2
100
AcDbEntity
  8
DEFPOINTS
 62
     0
100
AcDbPoint
 10
10864.88697359533
 20
17508.03983280454
 30
0.0
  0
POINT
  5
766
330
6D2
100
AcDbEntity
  8
DEFPOINTS
 62
     0
100
AcDbPoint
 10
10904.88697364576
 20
17507.82658592517
 30
0.0
  0
POINT
  5
767
330
6D2
100
AcDbEntity
  8
DEFPOINTS
 62
     0
100
AcDbPoint
 10
10904.88697364576
 20
16401.10750334653
 30
0.0
  0
ENDBLK
  5
6D4
330
6D2
100
AcDbEntity
  8
0
100
AcDbBlockEnd
  0
BLOCK
  5
6DF
330
6DE
100
AcDbEntity
  8
0
100
AcDbBlockBegin
  2
*D37
 70
     1
 10
0.0
 20
0.0
 30
0.0
  3
*D37
  1

  0
LINE
  5
768
330
6DE
100
AcDbEntity
  8
-wymiary
 62
     1
370
    -2
100
AcDbLine
 10
10934.88697364576
 20
16401.10750334653
 30
0.0
 11
11407.88697364575
 21
16401.10750334653
 31
0.0
  0
INSERT
  5
769
330
6DE
100
AcDbEntity
  8
-wymiary
 62
     1
370
    -2
100
AcDbBlockReference
  2
B-DIM
 10
10904.88697364576
 20
16401.10750334653
 30
0.0
 41
30.0
 42
30.0
 43
30.0
 50
180.0
  0
INSERT
  5
76A
330
6DE
100
AcDbEntity
  8
-wymiary
 62
     1
370
    -2
100
AcDbBlockReference
  2
B-DIM
 10
11437.88697364576
 20
16401.10750334653
 30
0.0
 41
30.0
 42
30.0
 43
30.0
  0
MTEXT
  5
76B
330
6DE
100
AcDbEntity
  8
-wymiary
 62
    10
370
     9
100
AcDbMText
 10
11171.38697364576
 20
16481.10750334653
 30
0.0
 40
80.0
 41
0.0
 71
     5
 72
     1
  1
\A1;533
  7
ROMANS
 73
     1
 44
1.0
1001
ACAD
1000
MTEXTBEGIN
1070
    73
1070
     1
1070
    44
1040
1.0
1070
    74
1070
     0
1000
MTEXTEND
  0
POINT
  5
76C
330
6DE
100
AcDbEntity
  8
DEFPOINTS
 62
     0
100
AcDbPoint
 10
10904.88697364576
 20
17507.82658592517
 30
0.0
  0
POINT
  5
76D
330
6DE
100
AcDbEntity
  8
DEFPOINTS
 62
     0
100
AcDbPoint
 10
11437.88697364576
 20
16727.60750334653
 30
0.0
  0
POINT
  5
76E
330
6DE
100
AcDbEntity
  8
DEFPOINTS
 62
     0
100
AcDbPoint
 10
11437.88697364576
 20
16401.10750334653
 30
0.0
  0
ENDBLK
  5
6E0
330
6DE
100
AcDbEntity
  8
0
100
AcDbBlockEnd
  0
BLOCK
  5
6E9
330
6E8
100
AcDbEntity
  8
0
100
AcDbBlockBegin
  2
*D38
 70
     1
 10
0.0
 20
0.0
 30
0.0
  3
*D38
  1

  0
LINE
  5
76F
330
6E8
100
AcDbEntity
  8
-wymiary
 62
     1
370
    -2
100
AcDbLine
 10
11467.88697364576
 20
16401.10750334653
 30
0.0
 11
12298.88697364577
 21
16401.10750334653
 31
0.0
  0
INSERT
  5
770
330
6E8
100
AcDbEntity
  8
-wymiary
 62
     1
370
    -2
100
AcDbBlockReference
  2
B-DIM
 10
11437.88697364576
 20
16401.10750334653
 30
0.0
 41
30.0
 42
30.0
 43
30.0
 50
180.0
  0
INSERT
  5
771
330
6E8
100
AcDbEntity
  8
-wymiary
 62
     1
370
    -2
100
AcDbBlockReference
  2
B-DIM
 10
12328.88697364576
 20
16401.10750334653
 30
0.0
 41
30.0
 42
30.0
 43
30.0
  0
MTEXT
  5
772
330
6E8
100
AcDbEntity
  8
-wymiary
 62
    10
370
     9
100
AcDbMText
 10
11883.38697364576
 20
16481.10750334653
 30
0.0
 40
80.0
 41
0.0
 71
     5
 72
     1
  1
\A1;891
  7
ROMANS
 73
     1
 44
1.0
1001
ACAD
1000
MTEXTBEGIN
1070
    73
1070
     1
1070
    44
1040
1.0
1070
    74
1070
     0
1000
MTEXTEND
  0
POINT
  5
773
330
6E8
100
AcDbEntity
  8
DEFPOINTS
 62
     0
100
AcDbPoint
 10
11437.88697364576
 20
16727.60750334653
 30
0.0
  0
POINT
  5
774
330
6E8
100
AcDbEntity
  8
DEFPOINTS
 62
     0
100
AcDbPoint
 10
12328.88697364576
 20
16689.10750334653
 30
0.0
  0
POINT
  5
775
330
6E8
100
AcDbEntity
  8
DEFPOINTS
 62
     0
100
AcDbPoint
 10
12328.88697364576
 20
16401.10750334653
 30
0.0
  0
ENDBLK
  5
6EA
330
6E8
100
AcDbEntity
  8
0
100
AcDbBlockEnd
  0
BLOCK
  5
6F3
330
6F2
100
AcDbEntity
  8
0
100
AcDbBlockBegin
  2
*D39
 70
     1
 10
0.0
 20
0.0
 30
0.0
  3
*D39
  1

  0
LINE
  5
776
330
6F2
100
AcDbEntity
  8
-wymiary
 62
     1
370
    -2
100
AcDbLine
 10
12298.88697364577
 20
16203.10750334653
 30
0.0
 11
10894.88697359533
 21
16203.10750334653
 31
0.0
  0
INSERT
  5
777
330
6F2
100
AcDbEntity
  8
-wymiary
 62
     1
370
    -2
100
AcDbBlockReference
  2
B-DIM
 10
12328.88697364576
 20
16203.10750334653
 30
0.0
 41
30.0
 42
30.0
 43
30.0
  0
INSERT
  5
778
330
6F2
100
AcDbEntity
  8
-wymiary
 62
     1
370
    -2
100
AcDbBlockReference
  2
B-DIM
 10
10864.88697359533
 20
16203.10750334653
 30
0.0
 41
30.0
 42
30.0
 43
30.0
 50
180.0
  0
MTEXT
  5
779
330
6F2
100
AcDbEntity
  8
-wymiary
 62
    10
370
     9
100
AcDbMText
 10
11596.88697362055
 20
16283.10750334653
 30
0.0
 40
80.0
 41
0.0
 71
     5
 72
     1
  1
\A1;1464
  7
ROMANS
 73
     1
 44
1.0
1001
ACAD
1000
MTEXTBEGIN
1070
    73
1070
     1
1070
    44
1040
1.0
1070
    74
1070
     0
1000
MTEXTEND
  0
POINT
  5
77A
330
6F2
100
AcDbEntity
  8
DEFPOINTS
 62
     0
100
AcDbPoint
 10
12328.88697364576
 20
16689.10750334653
 30
0.0
  0
POINT
  5
77B
330
6F2
100
AcDbEntity
  8
DEFPOINTS
 62
     0
100
AcDbPoint
 10
10864.88697359533
 20
17419.03983280454
 30
0.0
  0
POINT
  5
77C
330
6F2
100
AcDbEntity
  8
DEFPOINTS
 62
     0
100
AcDbPoint
 10
10864.88697359533
 20
16203.10750334653
 30
0.0
  0
ENDBLK
  5
6F4
330
6F2
100
AcDbEntity
  8
0
100
AcDbBlockEnd
  0
BLOCK
  5
739
330
738
100
AcDbEntity
  8
0
100
AcDbBlockBegin
  2
*D40
 70
     1
 10
0.0
 20
0.0
 30
0.0
  3
*D40
  1

  0
LINE
  5
73B
330
738
100
AcDbEntity
  8
-wymiary
 62
     1
370
    -2
100
AcDbLine
 10
12512.35234952102
 20
17976.03983265255
 30
0.0
 11
12512.35234952102
 21
18006.03983265256
 31
0.0
  0
LINE
  5
73C
330
738
100
AcDbEntity
  8
-wymiary
 62
     1
370
    -2
100
AcDbLine
 10
12512.35234952102
 20
17876.03983260214
 30
0.0
 11
12512.35234952102
 21
17846.03983260215
 31
0.0
  0
LINE
  5
73D
330
738
100
AcDbEntity
  8
-wymiary
 62
     1
370
    -2
100
AcDbLine
 10
12512.35234952102
 20
17946.03983265256
 30
0.0
 11
12512.35234952102
 21
17906.03983260214
 31
0.0
  0
INSERT
  5
73E
330
738
100
AcDbEntity
  8
-wymiary
 62
     1
370
    -2
100
AcDbBlockReference
  2
B-DIM
 10
12512.35234952102
 20
17946.03983265256
 30
0.0
 41
30.0
 42
30.0
 43
30.0
 50
270.0
  0
INSERT
  5
73F
330
738
100
AcDbEntity
  8
-wymiary
 62
     1
370
    -2
100
AcDbBlockReference
  2
B-DIM
 10
12512.35234952102
 20
17906.03983260214
 30
0.0
 41
30.0
 42
30.0
 43
30.0
 50
90.0
  0
MTEXT
  5
740
330
738
100
AcDbEntity
  8
-wymiary
 62
    10
370
     9
100
AcDbMText
 10
12432.35234952102
 20
17926.03983262736
 30
0.0
 40
80.0
 41
0.0
 71
     5
 72
     1
  1
\A1;40
  7
ROMANS
 11
0.0000000000000001
 21
1.0
 31
0.0
 73
     1
 44
1.0
1001
ACAD
1000
MTEXTBEGIN
1070
    73
1070
     1
1070
    44
1040
1.0
1070
    74
1070
     0
1000
MTEXTEND
  0
POINT
  5
741
330
738
100
AcDbEntity
  8
DEFPOINTS
 62
     0
100
AcDbPoint
 10
11304.88697349411
 20
17946.03983265256
 30
0.0
  0
POINT
  5
742
330
738
100
AcDbEntity
  8
DEFPOINTS
 62
     0
100
AcDbPoint
 10
11309.88697344366
 20
17906.03983260214
 30
0.0
  0
POINT
  5
743
330
738
100
AcDbEntity
  8
DEFPOINTS
 62
     0
100
AcDbPoint
 10
12512.35234952102
 20
17906.03983260214
 30
0.0
  0
ENDBLK
  5
73A
330
738
100
AcDbEntity
  8
0
100
AcDbBlockEnd
  0
BLOCK
  5
745
330
744
100
AcDbEntity
  8
0
100
AcDbBlockBegin
  2
*D41
 70
     1
 10
0.0
 20
0.0
 30
0.0
  3
*D41
  1

  0
LINE
  5
747
330
744
100
AcDbEntity
  8
-wymiary
 62
     1
370
    -2
100
AcDbLine
 10
12512.35234952102
 20
17876.03983260214
 30
0.0
 11
12512.35234952102
 21
17575.03983260214
 31
0.0
  0
INSERT
  5
748
330
744
100
AcDbEntity
  8
-wymiary
 62
     1
370
    -2
100
AcDbBlockReference
  2
B-DIM
 10
12512.35234952102
 20
17906.03983260214
 30
0.0
 41
30.0
 42
30.0
 43
30.0
 50
90.0
  0
INSERT
  5
749
330
744
100
AcDbEntity
  8
-wymiary
 62
     1
370
    -2
100
AcDbBlockReference
  2
B-DIM
 10
12512.35234952102
 20
17545.03983260214
 30
0.0
 41
30.0
 42
30.0
 43
30.0
 50
270.0
  0
MTEXT
  5
74A
330
744
100
AcDbEntity
  8
-wymiary
 62
    10
370
     9
100
AcDbMText
 10
12432.35234952102
 20
17725.53983260214
 30
0.0
 40
80.0
 41
0.0
 71
     5
 72
     1
  1
\A1;361
  7
ROMANS
 11
0.0000000000000001
 21
1.0
 31
0.0
 73
     1
 44
1.0
1001
ACAD
1000
MTEXTBEGIN
1070
    73
1070
     1
1070
    44
1040
1.0
1070
    74
1070
     0
1000
MTEXTEND
  0
POINT
  5
74B
330
744
100
AcDbEntity
  8
DEFPOINTS
 62
     0
100
AcDbPoint
 10
11309.88697344366
 20
17906.03983260214
 30
0.0
  0
POINT
  5
74C
330
744
100
AcDbEntity
  8
DEFPOINTS
 62
     0
100
AcDbPoint
 10
12328.88697364577
 20
17545.03983260214
 30
0.0
  0
POINT
  5
74D
330
744
100
AcDbEntity
  8
DEFPOINTS
 62
     0
100
AcDbPoint
 10
12512.35234952102
 20
17545.03983260214
 30
0.0
  0
ENDBLK
  5
746
330
744
100
AcDbEntity
  8
0
100
AcDbBlockEnd
  0
BLOCK
  5
74F
330
74E
100
AcDbEntity
  8
0
100
AcDbBlockBegin
  2
*D42
 70
     1
 10
0.0
 20
0.0
 30
0.0
  3
*D42
  1

  0
LINE
  5
751
330
74E
100
AcDbEntity
  8
-wymiary
 62
     1
370
    -2
100
AcDbLine
 10
12512.35234952102
 20
17515.03983260214
 30
0.0
 11
12512.35234952102
 21
16714.03983260213
 31
0.0
  0
INSERT
  5
752
330
74E
100
AcDbEntity
  8
-wymiary
 62
     1
370
    -2
100
AcDbBlockReference
  2
B-DIM
 10
12512.35234952102
 20
17545.03983260214
 30
0.0
 41
30.0
 42
30.0
 43
30.0
 50
90.0
  0
INSERT
  5
753
330
74E
100
AcDbEntity
  8
-wymiary
 62
     1
370
    -2
100
AcDbBlockReference
  2
B-DIM
 10
12512.35234952102
 20
16684.03983260213
 30
0.0
 41
30.0
 42
30.0
 43
30.0
 50
270.0
  0
MTEXT
  5
754
330
74E
100
AcDbEntity
  8
-wymiary
 62
    10
370
     9
100
AcDbMText
 10
12432.35234952102
 20
17114.53983260214
 30
0.0
 40
80.0
 41
0.0
 71
     5
 72
     1
  1
\A1;861
  7
ROMANS
 11
0.0000000000000001
 21
1.0
 31
0.0
 73
     1
 44
1.0
1001
ACAD
1000
MTEXTBEGIN
1070
    73
1070
     1
1070
    44
1040
1.0
1070
    74
1070
     0
1000
MTEXTEND
  0
POINT
  5
755
330
74E
100
AcDbEntity
  8
DEFPOINTS
 62
     0
100
AcDbPoint
 10
12328.88697364577
 20
17545.03983260214
 30
0.0
  0
POINT
  5
756
330
74E
100
AcDbEntity
  8
DEFPOINTS
 62
     0
100
AcDbPoint
 10
12291.85234952102
 20
16684.03983260213
 30
0.0
  0
POINT
  5
757
330
74E
100
AcDbEntity
  8
DEFPOINTS
 62
     0
100
AcDbPoint
 10
12512.35234952102
 20
16684.03983260213
 30
0.0
  0
ENDBLK
  5
750
330
74E
100
AcDbEntity
  8
0
100
AcDbBlockEnd
  0
ENDSEC
  0
SECTION
  2
ENTITIES
  0
TEXT
  5
577
330
2
100
AcDbEntity
  8
WIDOK
370
     5
100
AcDbText
 10
14044.66441094698
 20
16102.13379235627
 30
0.0
 40
100.0
  1
OŚ ODBICIA LUSTRZANEGO
 50
90.0
  7
AVA
100
AcDbText
  0
LINE
  5
578
330
2
100
AcDbEntity
  8
WIDOK
  6
DASHED
 62
     1
 48
4.0
370
     5
100
AcDbLine
 10
14104.1855879403
 20
15020.48662953574
 30
0.0
 11
14104.1855879403
 21
20448.9667625426
 31
0.0
  0
LINE
  5
579
330
2
100
AcDbEntity
  8
WIDOK
100
AcDbLine
 10
8891.496397662589
 20
9007.339576986829
 30
0.0
 11
8891.496397662589
 21
23027.33957698683
 31
0.0
  0
LINE
  5
57A
330
2
100
AcDbEntity
  8
WIDOK
100
AcDbLine
 10
8891.496397662589
 20
23027.33957698683
 30
0.0
 11
19091.49639766262
 21
23027.33957698683
 31
0.0
  0
LINE
  5
57B
330
2
100
AcDbEntity
  8
WIDOK
100
AcDbLine
 10
19091.49639766262
 20
23027.33957698683
 30
0.0
 11
19091.49639766262
 21
9007.339576986829
 31
0.0
  0
LINE
  5
57C
330
2
100
AcDbEntity
  8
WIDOK
100
AcDbLine
 10
19091.49639766262
 20
9007.339576986829
 30
0.0
 11
8891.496397662589
 21
9007.339576986829
 31
0.0
  0
TEXT
  5
57D
330
2
100
AcDbEntity
  8
WIDOK
100
AcDbText
 10
10350.84834433757
 20
9672.895659889364
 30
0.0
 40
150.0
  1
   O B R Y S   B U D Y N K U           S K A L A   1 : 5 0 0 
  7
ARIAL
100
AcDbText
  0
TEXT
  5
57E
330
2
100
AcDbEntity
  8
WIDOK
100
AcDbText
 10
10392.74030658425
 20
22481.01805215505
 30
0.0
 40
150.0
  1
"DOM  W  KURKUMIE  2"
  7
ARIAL
100
AcDbText
  0
TEXT
  5
57F
330
2
100
AcDbEntity
  8
WIDOK
100
AcDbText
 10
10447.06139545547
 20
22136.26092077123
 30
0.0
 40
150.0
  1
MOŻNA WKLEIĆ DO PROJEKTU ZAGOSPODAROWANIA TERENU
  7
ARIAL
100
AcDbText
  0
LINE
  5
580
330
2
100
AcDbEntity
  8
0
370
     5
100
AcDbLine
 10
11497.88697364576
 20
16744.03983260214
 30
0.0
 11
11497.88697364576
 21
16956.03983260214
 31
0.0
  0
LINE
  5
581
330
2
100
AcDbEntity
  8
0
  6
Continuous
370
     5
100
AcDbLine
 10
11885.88697364576
 20
17906.03983260214
 30
0.0
 11
11885.88697364576
 21
18156.03983260214
 31
0.0
  0
LINE
  5
582
330
2
100
AcDbEntity
  8
0
  6
Continuous
370
     5
100
AcDbLine
 10
11885.88697364576
 20
18156.03983260214
 30
0.0
 11
11309.88697344366
 21
18156.03983260214
 31
0.0
  0
LINE
  5
583
330
2
100
AcDbEntity
  8
0
  6
Continuous
370
     5
100
AcDbLine
 10
11309.88697344366
 20
18156.03983260214
 30
0.0
 11
11309.88697344366
 21
17951.03983260211
 31
0.0
  0
LINE
  5
584
330
2
100
AcDbEntity
  8
0
  6
Continuous
370
     5
100
AcDbLine
 10
10829.88697364578
 20
17951.03983260213
 30
0.0
 11
10669.88697364577
 21
17951.03983260213
 31
0.0
  0
LINE
  5
585
330
2
100
AcDbEntity
  8
0
  6
Continuous
370
     5
100
AcDbLine
 10
10669.88697364577
 20
17951.03983260213
 30
0.0
 11
10669.88697364577
 21
17570.03983260214
 31
0.0
  0
LINE
  5
586
330
2
100
AcDbEntity
  8
0
  6
Continuous
370
     5
100
AcDbLine
 10
10609.88697364577
 20
17510.03983260214
 30
0.0
 11
10609.88697364577
 21
17127.03983260215
 31
0.0
  0
LINE
  5
587
330
2
100
AcDbEntity
  8
0
370
     5
100
AcDbLine
 10
11632.88697364574
 20
16804.03983260214
 30
0.0
 11
11632.88697364574
 21
16744.03983260214
 31
0.0
  0
LINE
  5
588
330
2
100
AcDbEntity
  8
0
  6
Continuous
370
     5
100
AcDbLine
 10
11407.88697364575
 20
16896.03983260214
 30
0.0
 11
11407.88697364575
 21
16594.03983260214
 31
0.0
  0
LINE
  5
589
330
2
100
AcDbEntity
  8
0
  6
Continuous
370
     5
100
AcDbLine
 10
11407.88697364575
 20
16594.03983260214
 30
0.0
 11
12328.88697364577
 21
16594.03983260214
 31
0.0
  0
LINE
  5
58A
330
2
100
AcDbEntity
  8
0
  6
Continuous
370
     5
100
AcDbLine
 10
10904.88697364575
 20
17097.03983260215
 30
0.0
 11
10579.88697364577
 21
17097.03983260215
 31
0.0
  0
LINE
  5
58B
330
2
100
AcDbEntity
  8
0
  6
Continuous
370
     5
100
AcDbLine
 10
10579.88697364577
 20
17097.03983260215
 30
0.0
 11
10579.88697364577
 21
17510.11153140624
 31
0.0
  0
LINE
  5
58C
330
2
100
AcDbEntity
  8
0
  6
Continuous
370
     5
100
AcDbLine
 10
10639.88697364577
 20
17570.03983260214
 30
0.0
 11
10639.88697364577
 21
17981.03983260213
 31
0.0
  0
LINE
  5
58D
330
2
100
AcDbEntity
  8
0
  6
Continuous
370
     5
100
AcDbLine
 10
10639.88697364577
 20
17981.03983260213
 30
0.0
 11
10829.88697364578
 21
17981.03983260213
 31
0.0
  0
LINE
  5
58E
330
2
100
AcDbEntity
  8
0
  6
Continuous
370
     5
100
AcDbLine
 10
11279.88697344366
 20
18011.03983260213
 30
0.0
 11
11279.88697344366
 21
18186.03983260214
 31
0.0
  0
LINE
  5
58F
330
2
100
AcDbEntity
  8
0
  6
Continuous
370
     5
100
AcDbLine
 10
11279.88697344366
 20
18186.03983260214
 30
0.0
 11
11915.88697364576
 21
18186.03983260214
 31
0.0
  0
LINE
  5
590
330
2
100
AcDbEntity
  8
0
  6
Continuous
370
     5
100
AcDbLine
 10
11915.88697364576
 20
18186.03983260214
 30
0.0
 11
11915.88697364576
 21
17906.03983260214
 31
0.0
  0
LINE
  5
591
330
2
100
AcDbEntity
  8
0
370
     5
100
AcDbLine
 10
12169.88697364576
 20
17485.03983260213
 30
0.0
 11
12169.88697364576
 21
17545.03983260214
 31
0.0
  0
LINE
  5
592
330
2
100
AcDbEntity
  8
0
370
     5
100
AcDbLine
 10
12069.88697364576
 20
17485.03983260213
 30
0.0
 11
12069.88697364576
 21
17545.03983260213
 31
0.0
  0
LINE
  5
593
330
2
100
AcDbEntity
  8
0
370
     5
100
AcDbLine
 10
12249.88697364577
 20
16684.03983260214
 30
0.0
 11
12249.88697364577
 21
16744.03983260213
 31
0.0
  0
LINE
  5
594
330
2
100
AcDbEntity
  8
0
370
     5
100
AcDbLine
 10
11989.88697364574
 20
16684.03983260214
 30
0.0
 11
11989.88697364574
 21
16744.03983260213
 31
0.0
  0
LINE
  5
595
330
2
100
AcDbEntity
  8
0
  6
Continuous
370
     5
100
AcDbLine
 10
12069.88697364577
 20
17523.03983260213
 30
0.0
 11
12069.88697364577
 21
17533.03983260213
 31
0.0
  0
LINE
  5
596
330
2
100
AcDbEntity
  8
0
370
     5
100
AcDbLine
 10
10549.88697364577
 20
17570.03983260214
 30
0.0
 11
10669.88697364577
 21
17570.03983260214
 31
0.0
  0
LINE
  5
597
330
2
100
AcDbEntity
  8
0
370
     5
100
AcDbLine
 10
10669.88697364577
 20
17570.03983260214
 30
0.0
 11
10669.88697364577
 21
17510.03983260214
 31
0.0
  0
LINE
  5
598
330
2
100
AcDbEntity
  8
0
370
     5
100
AcDbLine
 10
10669.88697364577
 20
17510.03983260214
 30
0.0
 11
10549.88697364577
 21
17510.03983260214
 31
0.0
  0
LINE
  5
599
330
2
100
AcDbEntity
  8
0
370
     5
100
AcDbLine
 10
10549.88697364577
 20
17510.03983260214
 30
0.0
 11
10549.88697364577
 21
17570.03983260214
 31
0.0
  0
LINE
  5
59A
330
2
100
AcDbEntity
  8
0
370
     5
100
AcDbLine
 10
10553.88697364577
 20
17566.03983260214
 30
0.0
 11
10665.88697364577
 21
17566.03983260214
 31
0.0
  0
LINE
  5
59B
330
2
100
AcDbEntity
  8
0
370
     5
100
AcDbLine
 10
10665.88697364577
 20
17566.03983260214
 30
0.0
 11
10665.88697364577
 21
17514.03983260214
 31
0.0
  0
LINE
  5
59C
330
2
100
AcDbEntity
  8
0
370
     5
100
AcDbLine
 10
10665.88697364577
 20
17514.03983260214
 30
0.0
 11
10553.88697364577
 21
17514.03983260214
 31
0.0
  0
LINE
  5
59D
330
2
100
AcDbEntity
  8
0
370
     5
100
AcDbLine
 10
10553.88697364577
 20
17514.03983260214
 30
0.0
 11
10553.88697364577
 21
17566.03983260214
 31
0.0
  0
LINE
  5
59E
330
2
100
AcDbEntity
  8
0
  6
Continuous
370
     5
100
AcDbLine
 10
10609.88697364577
 20
17127.03983260215
 30
0.0
 11
10904.88697364575
 21
17127.03983260215
 31
0.0
  0
LINE
  5
59F
330
2
100
AcDbEntity
  8
0
370
     5
100
AcDbLine
 10
10829.88697364577
 20
18011.03983260213
 30
0.0
 11
11309.88697344366
 21
18011.03983260213
 31
0.0
  0
LINE
  5
5A0
330
2
100
AcDbEntity
  8
0
370
     5
100
AcDbLine
 10
11309.88697344366
 20
17951.03983260213
 30
0.0
 11
10829.88697364578
 21
17951.03983260213
 31
0.0
  0
LINE
  5
5A1
330
2
100
AcDbEntity
  8
0
370
     5
100
AcDbLine
 10
10829.88697364578
 20
17951.03983260213
 30
0.0
 11
10829.88697364577
 21
18011.03983260213
 31
0.0
  0
LINE
  5
5A2
330
2
100
AcDbEntity
  8
0
370
     5
100
AcDbLine
 10
10833.88697364577
 20
18007.03983260213
 30
0.0
 11
11305.88697344366
 21
18007.03983260213
 31
0.0
  0
LINE
  5
5A3
330
2
100
AcDbEntity
  8
0
370
     5
100
AcDbLine
 10
11305.88697344366
 20
18007.03983260213
 30
0.0
 11
11305.88697344366
 21
17955.03983260213
 31
0.0
  0
LINE
  5
5A4
330
2
100
AcDbEntity
  8
0
370
     5
100
AcDbLine
 10
11305.88697344366
 20
17955.03983260213
 30
0.0
 11
10833.88697364578
 21
17955.03983260213
 31
0.0
  0
LINE
  5
5A5
330
2
100
AcDbEntity
  8
0
370
     5
100
AcDbLine
 10
10833.88697364578
 20
17955.03983260213
 30
0.0
 11
10833.88697364577
 21
18007.03983260213
 31
0.0
  0
LINE
  5
5A6
330
2
100
AcDbEntity
  8
0
  6
Continuous
370
     5
100
AcDbLine
 10
11437.88697364575
 20
16744.03983260214
 30
0.0
 11
11437.88697364576
 21
16624.03983260214
 31
0.0
  0
HATCH
  5
5A7
330
2
100
AcDbEntity
  8
0
370
     5
100
AcDbHatch
 10
0.0
 20
0.0
 30
0.0
210
0.0
220
0.0
230
1.0
  2
SOLID
 70
     1
 71
     0
 91
        2
 92
        1
 93
        8
 72
     1
 10
10964.88697364576
 20
17571.03983280454
 11
10904.88697364576
 21
17571.03983280454
 72
     1
 10
10904.88697364576
 20
17571.03983280454
 11
10904.88697364575
 21
16896.03983260214
 72
     1
 10
10904.88697364575
 20
16896.03983260214
 11
11437.88697364575
 21
16896.03983260214
 72
     1
 10
11437.88697364575
 20
16896.03983260214
 11
11437.88697364576
 21
16744.03983260214
 72
     1
 10
11437.88697364576
 20
16744.03983260214
 11
11497.88697364576
 21
16744.03983260214
 72
     1
 10
11497.88697364576
 20
16744.03983260214
 11
11497.88697364576
 21
16956.03983260214
 72
     1
 10
11497.88697364576
 20
16956.03983260214
 11
10964.88697364575
 21
16956.03983260214
 72
     1
 10
10964.88697364575
 20
16956.03983260214
 11
10964.88697364576
 21
17571.03983280454
 97
        0
 92
        1
 93
        4
 72
     1
 10
11294.88697349411
 20
17906.03983260214
 11
11294.88697349411
 21
17846.03983260214
 72
     1
 10
11294.88697349411
 20
17846.03983260214
 11
11497.88697364576
 21
17846.03983260214
 72
     1
 10
11497.88697364576
 20
17846.03983260214
 11
11497.88697364576
 21
17906.03983260214
 72
     1
 10
11497.88697364576
 20
17906.03983260214
 11
11294.88697349411
 21
17906.03983260214
 97
        0
 75
     0
 76
     1
 98
        1
 10
11485.73760962278
 20
16754.24348602876
1001
ACAD
1010
0.0
1020
0.0
1030
0.0
  0
HATCH
  5
5A8
330
2
100
AcDbEntity
  8
0
370
     5
100
AcDbHatch
 10
0.0
 20
0.0
 30
0.0
210
0.0
220
0.0
230
1.0
  2
SOLID
 70
     1
 71
     0
 91
        1
 92
        7
 72
     0
 73
     1
 93
        8
 10
11927.88697364575
 20
16804.03983260214
 10
11632.88697364574
 20
16804.03983260214
 10
11632.88697364574
 20
16744.03983260214
 10
11867.88697364574
 20
16744.03983260214
 10
11867.88697364575
 20
16684.03983260213
 10
11989.88697364574
 20
16684.03983260213
 10
11989.88697364574
 20
16744.03983260213
 10
11927.88697364575
 20
16744.03983260213
 97
        0
 75
     0
 76
     1
 47
1.153789227114452
 98
        1
 10
11782.7381308009
 20
16785.4326781215
1001
ACAD
1010
0.0
1020
0.0
1030
0.0
  0
HATCH
  5
5A9
330
2
100
AcDbEntity
  8
0
370
     5
100
AcDbHatch
 10
0.0
 20
0.0
 30
0.0
210
0.0
220
0.0
230
1.0
  2
SOLID
 70
     1
 71
     0
 91
        1
 92
        7
 72
     0
 73
     1
 93
        8
 10
12328.88697364577
 20
17545.03983260213
 10
12249.88697364577
 20
17545.03983260213
 10
12249.88697364577
 20
17485.03983260213
 10
12268.88697364577
 20
17485.03983260214
 10
12268.88697364576
 20
16744.03983260213
 10
12249.88697364577
 20
16744.03983260213
 10
12249.88697364577
 20
16684.03983260213
 10
12328.88697364576
 20
16684.03983260213
 97
        0
 75
     0
 76
     1
 47
1.019267759219244
 98
        1
 10
12286.367516471
 20
16714.54073132594
1001
ACAD
1010
0.0
1020
0.0
1030
0.0
  0
HATCH
  5
5AA
330
2
100
AcDbEntity
  8
0
370
     5
100
AcDbHatch
 10
0.0
 20
0.0
 30
0.0
210
0.0
220
0.0
230
1.0
  2
SOLID
 70
     1
 71
     0
 91
        1
 92
        7
 72
     0
 73
     1
 93
        8
 10
11989.88697364574
 20
17545.03983260213
 10
11915.88697364576
 20
17545.03983260213
 10
11915.88697364576
 20
17906.03983260214
 10
11632.88697364574
 20
17906.03983260214
 10
11632.88697364574
 20
17846.03983260214
 10
11855.88697364576
 20
17846.03983260214
 10
11855.88697364576
 20
17485.03983260213
 10
11989.88697364574
 20
17485.03983260213
 97
        0
 75
     0
 76
     1
 47
0.9004302170334284
 98
        1
 10
11898.19443203812
 20
17503.05018358243
1001
ACAD
1010
0.0
1020
0.0
1030
0.0
  0
HATCH
  5
5AB
330
2
100
AcDbEntity
  8
0
370
     5
100
AcDbHatch
 10
0.0
 20
0.0
 30
0.0
210
0.0
220
0.0
230
1.0
  2
SOLID
 70
     1
 71
     0
 91
        1
 92
        7
 72
     0
 73
     1
 93
        4
 10
12069.88697364577
 20
17545.03983260213
 10
11989.88697364574
 20
17545.03983260213
 10
11989.88697364574
 20
17485.03983260213
 10
12069.88697364577
 20
17485.03983260213
 97
        0
 75
     0
 76
     1
 47
0.7954480931341026
 98
        1
 10
12041.18901983759
 20
17507.68681686705
1001
ACAD
1010
0.0
1020
0.0
1030
0.0
  0
HATCH
  5
5AC
330
2
100
AcDbEntity
  8
0
370
     5
100
AcDbHatch
 10
0.0
 20
0.0
 30
0.0
210
0.0
220
0.0
230
1.0
  2
SOLID
 70
     1
 71
     0
 91
        1
 92
        7
 72
     0
 73
     1
 93
        4
 10
12249.88697364577
 20
17545.03983260213
 10
12169.88697364576
 20
17545.03983260213
 10
12169.88697364576
 20
17485.03983260213
 10
12249.88697364577
 20
17485.03983260213
 97
        0
 75
     0
 76
     1
 47
0.7954480931341026
 98
        1
 10
12211.54252916462
 20
17513.25494058251
1001
ACAD
1010
0.0
1020
0.0
1030
0.0
  0
HATCH
  5
5AD
330
2
100
AcDbEntity
  8
0
370
     5
100
AcDbHatch
 10
0.0
 20
0.0
 30
0.0
210
0.0
220
0.0
230
1.0
  2
SOLID
 70
     1
 71
     0
 91
        1
 92
        7
 72
     0
 73
     1
 93
        4
 10
11632.88697364574
 20
17906.03983260214
 10
11497.88697364576
 20
17906.03983260214
 10
11497.88697364576
 20
17846.03983260215
 10
11632.88697364574
 20
17846.03983260215
 97
        0
 75
     0
 76
     1
 47
2.554013782164573
 98
        1
 10
11584.56395384665
 20
17875.06736960775
1001
ACAD
1010
0.0
1020
0.0
1030
0.0
  0
LINE
  5
5AE
330
2
100
AcDbEntity
  8
0
370
     5
100
AcDbLine
 10
10904.88697364575
 20
16896.03983260214
 30
0.0
 11
10904.88697364576
 21
17571.03983280455
 31
0.0
  0
LINE
  5
5AF
330
2
100
AcDbEntity
  8
0
370
     5
100
AcDbLine
 10
10904.88697364575
 20
16896.03983260214
 30
0.0
 11
11437.88697364575
 21
16896.03983260214
 31
0.0
  0
LINE
  5
5B0
330
2
100
AcDbEntity
  8
0
370
     5
100
AcDbLine
 10
11437.88697364575
 20
16896.03983260214
 30
0.0
 11
11437.88697364576
 21
16744.03983260214
 31
0.0
  0
LINE
  5
5B1
330
2
100
AcDbEntity
  8
0
370
     5
100
AcDbLine
 10
11437.88697364576
 20
16744.03983260214
 30
0.0
 11
11867.88697364575
 21
16744.03983260214
 31
0.0
  0
LINE
  5
5B2
330
2
100
AcDbEntity
  8
0
370
     5
100
AcDbLine
 10
11867.88697364575
 20
16744.03983260214
 30
0.0
 11
11867.88697364575
 21
16684.03983260213
 31
0.0
  0
LINE
  5
5B3
330
2
100
AcDbEntity
  8
0
370
     5
100
AcDbLine
 10
11867.88697364575
 20
16684.03983260213
 30
0.0
 11
12328.88697364576
 21
16684.03983260213
 31
0.0
  0
LINE
  5
5B4
102
{ACAD_REACTORS
330
5F7
102
}
330
2
100
AcDbEntity
  8
0
370
     5
100
AcDbLine
 10
12328.88697364576
 20
16684.03983260213
 30
0.0
 11
12328.88697364577
 21
17545.03983260214
 31
0.0
  0
LINE
  5
5B5
102
{ACAD_REACTORS
330
5F4
102
}
330
2
100
AcDbEntity
  8
0
370
     5
100
AcDbLine
 10
12328.88697364577
 20
17545.03983260214
 30
0.0
 11
11915.88697364576
 21
17545.03983260213
 31
0.0
  0
LINE
  5
5B6
330
2
100
AcDbEntity
  8
0
370
     5
100
AcDbLine
 10
11915.88697364576
 20
17545.03983260213
 30
0.0
 11
11915.88697364576
 21
17906.03983260214
 31
0.0
  0
LINE
  5
5B7
330
2
100
AcDbEntity
  8
0
370
     5
100
AcDbLine
 10
10964.88697364576
 20
17571.03983280454
 30
0.0
 11
10964.88697364575
 21
16956.03983260214
 31
0.0
  0
LINE
  5
5B8
330
2
100
AcDbEntity
  8
0
370
     5
100
AcDbLine
 10
10964.88697364575
 20
16956.03983260214
 30
0.0
 11
11497.88697364575
 21
16956.03983260214
 31
0.0
  0
LINE
  5
5B9
330
2
100
AcDbEntity
  8
0
370
     5
100
AcDbLine
 10
11497.88697364576
 20
16804.03983260214
 30
0.0
 11
11927.88697364575
 21
16804.03983260214
 31
0.0
  0
LINE
  5
5BA
330
2
100
AcDbEntity
  8
0
370
     5
100
AcDbLine
 10
11927.88697364575
 20
16804.03983260214
 30
0.0
 11
11927.88697364575
 21
16744.03983260213
 31
0.0
  0
LINE
  5
5BB
330
2
100
AcDbEntity
  8
0
370
     5
100
AcDbLine
 10
11927.88697364575
 20
16744.03983260213
 30
0.0
 11
12268.88697364576
 21
16744.03983260213
 31
0.0
  0
LINE
  5
5BC
330
2
100
AcDbEntity
  8
0
370
     5
100
AcDbLine
 10
12268.88697364576
 20
16744.03983260213
 30
0.0
 11
12268.88697364577
 21
17485.03983260213
 31
0.0
  0
LINE
  5
5BD
330
2
100
AcDbEntity
  8
0
370
     5
100
AcDbLine
 10
12268.88697364577
 20
17485.03983260213
 30
0.0
 11
11855.88697364576
 21
17485.03983260213
 31
0.0
  0
LINE
  5
5BE
330
2
100
AcDbEntity
  8
0
370
     5
100
AcDbLine
 10
11855.88697364576
 20
17485.03983260213
 30
0.0
 11
11855.88697364576
 21
17846.03983260214
 31
0.0
  0
LINE
  5
5BF
330
2
100
AcDbEntity
  8
0
370
     5
100
AcDbLine
 10
11855.88697364576
 20
17846.03983260214
 30
0.0
 11
11294.88697349411
 21
17846.03983260215
 31
0.0
  0
LINE
  5
5C0
330
2
100
AcDbEntity
  8
0
370
     5
100
AcDbLine
 10
11294.88697349411
 20
17906.03983260214
 30
0.0
 11
11915.88697364576
 21
17906.03983260214
 31
0.0
  0
LINE
  5
5C1
330
2
100
AcDbEntity
  8
0
370
     5
100
AcDbLine
 10
10864.88697359533
 20
17561.03983280454
 30
0.0
 11
10864.88697359533
 21
17946.03983265258
 31
0.0
  0
LINE
  5
5C2
330
2
100
AcDbEntity
  8
0
370
     5
100
AcDbLine
 10
10904.88697364576
 20
17561.03983280454
 30
0.0
 11
10864.88697359533
 21
17561.03983280454
 31
0.0
  0
LINE
  5
5C3
330
2
100
AcDbEntity
  8
0
370
     5
100
AcDbLine
 10
10864.88697359533
 20
17946.03983265258
 30
0.0
 11
11304.88697349411
 21
17946.03983265256
 31
0.0
  0
LINE
  5
5C4
330
2
100
AcDbEntity
  8
0
370
     5
100
AcDbLine
 10
10874.88697359533
 20
17561.03983280454
 30
0.0
 11
10874.88697359533
 21
17946.03983265258
 31
0.0
  0
LINE
  5
5C5
330
2
100
AcDbEntity
  8
0
370
     5
100
AcDbLine
 10
10864.88697359533
 20
17571.03983280454
 30
0.0
 11
10964.88697364576
 21
17571.03983280454
 31
0.0
  0
LINE
  5
5C6
330
2
100
AcDbEntity
  8
0
370
     5
100
AcDbLine
 10
11304.88697349411
 20
17936.03983265256
 30
0.0
 11
10864.88697359533
 21
17936.03983265259
 31
0.0
  0
LINE
  5
5C7
330
2
100
AcDbEntity
  8
0
370
     5
100
AcDbLine
 10
10969.88697357003
 20
17946.03983265257
 30
0.0
 11
10969.88697357003
 21
17936.03983265257
 31
0.0
  0
LINE
  5
5C8
330
2
100
AcDbEntity
  8
0
370
     5
100
AcDbLine
 10
10979.88697357003
 20
17936.03983265257
 30
0.0
 11
10979.88697357003
 21
17946.03983265257
 31
0.0
  0
LINE
  5
5C9
330
2
100
AcDbEntity
  8
0
370
     5
100
AcDbLine
 10
11079.88697354472
 20
17946.03983265257
 30
0.0
 11
11079.88697354472
 21
17936.03983265257
 31
0.0
  0
LINE
  5
5CA
330
2
100
AcDbEntity
  8
0
370
     5
100
AcDbLine
 10
11089.88697354472
 20
17936.03983265257
 30
0.0
 11
11089.88697354472
 21
17946.03983265257
 31
0.0
  0
LINE
  5
5CB
330
2
100
AcDbEntity
  8
0
370
     5
100
AcDbLine
 10
10864.88697359529
 20
17821.03983260662
 30
0.0
 11
10874.88697359529
 21
17821.03983260662
 31
0.0
  0
LINE
  5
5CC
330
2
100
AcDbEntity
  8
0
370
     5
100
AcDbLine
 10
10874.88697359529
 20
17811.03983260662
 30
0.0
 11
10864.88697359529
 21
17811.03983260662
 31
0.0
  0
HATCH
  5
5CD
330
2
100
AcDbEntity
  8
0
370
     5
100
AcDbHatch
 10
0.0
 20
0.0
 30
0.0
210
0.0
220
0.0
230
1.0
  2
SOLID
 70
     1
 71
     0
 91
        1
 92
        7
 72
     0
 73
     1
 93
        5
 10
10865.04486834226
 20
17692.0924642212
 10
10865.04486834226
 20
17696.03983275389
 10
10864.88697359526
 20
17696.03983275389
 10
10864.88697359526
 20
17686.03983275389
 10
10865.04486834226
 20
17686.03983275389
 97
        0
 75
     0
 76
     1
 47
0.0066528210014602
 98
        1
 10
10864.99402013552
 20
17689.39263758663
1001
ACAD
1010
0.0
1020
0.0
1030
0.0
  0
HATCH
  5
5CE
330
2
100
AcDbEntity
  8
0
370
     5
100
AcDbHatch
 10
0.0
 20
0.0
 30
0.0
210
0.0
220
0.0
230
1.0
  2
SOLID
 70
     1
 71
     0
 91
        1
 92
        7
 72
     0
 73
     1
 93
        5
 10
10874.88697359526
 20
17696.03983275389
 10
10874.72907884824
 20
17696.03983275389
 10
10874.72907884824
 20
17689.98720128659
 10
10874.72907884824
 20
17686.03983275389
 10
10874.88697359526
 20
17686.03983275389
 97
        0
 75
     0
 76
     1
 47
0.0074011229795178
 98
        1
 10
10874.78873289509
 20
17688.3627727429
1001
ACAD
1010
0.0
1020
0.0
1030
0.0
  0
LINE
  5
5CF
330
2
100
AcDbEntity
  8
0
370
     5
100
AcDbLine
 10
10864.88697359526
 20
17696.03983275389
 30
0.0
 11
10874.88697359526
 21
17696.03983275389
 31
0.0
  0
LINE
  5
5D0
330
2
100
AcDbEntity
  8
0
370
     5
100
AcDbLine
 10
10874.88697359526
 20
17686.03983275389
 30
0.0
 11
10864.88697359526
 21
17686.03983275389
 31
0.0
  0
LINE
  5
5D1
102
{ACAD_REACTORS
330
5F1
102
}
330
2
100
AcDbEntity
  8
0
370
     5
100
AcDbLine
 10
11304.88697349411
 20
17906.03983260214
 30
0.0
 11
11304.88697349411
 21
17946.03983265256
 31
0.0
  0
LINE
  5
5D2
102
{ACAD_REACTORS
330
5F1
330
5F4
102
}
330
2
100
AcDbEntity
  8
0
370
     5
100
AcDbLine
 10
11309.88697344366
 20
17906.03983260214
 30
0.0
 11
11309.88697344366
 21
18011.03983260213
 31
0.0
  0
LINE
  5
5D3
330
2
100
AcDbEntity
  8
0
370
     5
100
AcDbLine
 10
11294.88697349411
 20
17846.03983260215
 30
0.0
 11
11294.88697349411
 21
17946.03983265256
 31
0.0
  0
LINE
  5
5D4
330
2
100
AcDbEntity
  8
0
370
     5
100
AcDbLine
 10
11189.88697351942
 20
17946.03983265256
 30
0.0
 11
11189.88697351942
 21
17936.03983265256
 31
0.0
  0
LINE
  5
5D5
330
2
100
AcDbEntity
  8
0
370
     5
100
AcDbLine
 10
11199.88697351942
 20
17936.03983265256
 30
0.0
 11
11199.88697351942
 21
17946.03983265256
 31
0.0
  0
LINE
  5
5D6
330
2
100
AcDbEntity
  8
0
370
     5
100
AcDbLine
 10
10865.04486834226
 20
17804.98720104505
 30
0.0
 11
10865.04486834226
 21
17811.03983261129
 31
0.0
1001
AcDbBlockRepETag
1070
     1
1071
       13
1005
0
  0
LINE
  5
5D7
330
2
100
AcDbEntity
  8
0
  6
Continuous
370
     5
100
AcDbLine
 10
10874.72907884824
 20
17811.03983261129
 30
0.0
 11
10874.72907884824
 21
17804.98720104505
 31
0.0
1001
AcDbBlockRepETag
1070
     1
1071
       15
1005
0
  0
LINE
  5
5D8
330
2
100
AcDbEntity
  8
0
370
     5
100
AcDbLine
 10
10874.72907884824
 20
17804.98720104505
 30
0.0
 11
10865.04486834226
 21
17804.98720104505
 31
0.0
1001
AcDbBlockRepETag
1070
     1
1071
       16
1005
0
  0
LINE
  5
5D9
330
2
100
AcDbEntity
  8
0
370
     5
100
AcDbLine
 10
10874.72907884824
 20
17696.03983285283
 30
0.0
 11
10865.04486834226
 21
17696.03983285283
 31
0.0
1001
AcDbBlockRepETag
1070
     1
1071
       20
1005
0
  0
LINE
  5
5DA
330
2
100
AcDbEntity
  8
0
370
     5
100
AcDbLine
 10
10874.88697359533
 20
17577.09246446272
 30
0.0
 11
10864.88697359533
 21
17577.09246446272
 31
0.0
1001
AcDbBlockRepETag
1070
     1
1071
       16
1005
0
  0
LINE
  5
5DB
330
2
100
AcDbEntity
  8
0
370
     5
100
AcDbLine
 10
10865.04486834226
 20
17686.03983265496
 30
0.0
 11
10865.04486834226
 21
17696.03983285283
 31
0.0
1001
AcDbBlockRepETag
1070
     1
1071
       17
1005
0
  0
LINE
  5
5DC
330
2
100
AcDbEntity
  8
0
  6
Continuous
370
     5
100
AcDbLine
 10
10874.72907884824
 20
17686.03983265496
 30
0.0
 11
10874.72907884824
 21
17696.03983285283
 31
0.0
1001
AcDbBlockRepETag
1070
     1
1071
       19
1005
0
  0
LINE
  5
5DD
330
2
100
AcDbEntity
  8
0
370
     5
100
AcDbLine
 10
10874.72907884824
 20
17686.03983265496
 30
0.0
 11
10865.04486834226
 21
17686.03983265496
 31
0.0
1001
AcDbBlockRepETag
1070
     1
1071
       20
1005
0
  0
LINE
  5
5DE
330
2
100
AcDbEntity
  8
0
  6
Continuous
370
     5
100
AcDbLine
 10
12059.88697364576
 20
17625.03983260213
 30
0.0
 11
12179.88697364576
 21
17625.03983260213
 31
0.0
  0
LINE
  5
5DF
330
2
100
AcDbEntity
  8
0
  6
Continuous
370
     5
100
AcDbLine
 10
12179.88697364576
 20
17625.03983260213
 30
0.0
 11
12179.88697364576
 21
17545.03983260213
 31
0.0
  0
LINE
  5
5E0
330
2
100
AcDbEntity
  8
0
  6
Continuous
370
     5
100
AcDbLine
 10
12059.88697364576
 20
17545.03983260213
 30
0.0
 11
12059.88697364576
 21
17625.03983260213
 31
0.0
  0
LINE
  5
5E1
330
2
100
AcDbEntity
  8
0
  6
Continuous
370
     5
100
AcDbLine
 10
11905.88697364574
 20
16594.03983260214
 30
0.0
 11
12124.88697364577
 21
16684.03983260214
 31
0.0
  0
LINE
  5
5E2
330
2
100
AcDbEntity
  8
0
  6
Continuous
370
     5
100
AcDbLine
 10
12124.88697364577
 20
16684.03983260214
 30
0.0
 11
12328.88697364577
 21
16594.03983260214
 31
0.0
  0
LINE
  5
5E3
330
2
100
AcDbEntity
  8
0
  6
Continuous
370
     5
100
AcDbLine
 10
11437.88697364576
 20
16624.03983260214
 30
0.0
 11
11867.88697364575
 21
16624.03983260214
 31
0.0
  0
LINE
  5
5E4
330
2
100
AcDbEntity
  8
0
  6
Continuous
370
     5
100
AcDbLine
 10
11867.88697364575
 20
16594.03983260214
 30
0.0
 11
11867.88697364575
 21
16684.03983260213
 31
0.0
  0
LINE
  5
5E5
330
2
100
AcDbEntity
  8
0
  6
Continuous
370
     5
100
AcDbLine
 10
11905.88697364574
 20
16594.03983260214
 30
0.0
 11
11905.88697364574
 21
16684.03983260214
 31
0.0
  0
LINE
  5
5E6
330
2
100
AcDbEntity
  8
0
  6
Continuous
370
     5
100
AcDbLine
 10
12328.88697364577
 20
16594.03983260214
 30
0.0
 11
12328.88697364577
 21
16684.03983260214
 31
0.0
  0
LINE
  5
5E7
330
2
100
AcDbEntity
  8
0
  6
DASHED
370
     5
100
AcDbLine
 10
10832.88697405089
 20
17165.0398326027
 30
0.0
 11
10832.88697405089
 21
17324.82658579719
 31
0.0
  0
LINE
  5
5E8
330
2
100
AcDbEntity
  8
0
  6
DASHED
370
     5
100
AcDbLine
 10
10904.88697364576
 20
17325.03983260214
 30
0.0
 11
10832.88697364576
 21
17325.03983260214
 31
0.0
  0
LINE
  5
5E9
330
2
100
AcDbEntity
  8
0
  6
DASHED
370
     5
100
AcDbLine
 10
10832.88113300213
 20
17560.82658584144
 30
0.0
 11
10832.88065007738
 21
17960.0398326526
 31
0.0
  0
LINE
  5
5EA
330
2
100
AcDbEntity
  8
0
  6
DASHED
370
     5
100
AcDbLine
 10
10904.88697364575
 20
17165.0398326027
 30
0.0
 11
10832.88697364576
 21
17165.0398326027
 31
0.0
  0
LINE
  5
5EB
330
2
100
AcDbEntity
  8
0
  6
DASHED
370
     5
100
AcDbLine
 10
10846.88697330132
 20
17560.82658584144
 30
0.0
 11
10832.88103619459
 21
17560.82658584144
 31
0.0
  0
LINE
  5
5EC
330
2
100
AcDbEntity
  8
0
  6
DASHED
370
     5
100
AcDbLine
 10
11318.88697349412
 20
17960.03983265256
 30
0.0
 11
10832.88065007737
 21
17960.0398326526
 31
0.0
  0
LINE
  5
5ED
330
2
100
AcDbEntity
  8
0
  6
DASHED
370
     5
100
AcDbLine
 10
11318.88697349411
 20
17906.03983260389
 30
0.0
 11
11318.88697349412
 21
17960.03983265256
 31
0.0
  0
LINE
  5
5EE
330
2
100
AcDbEntity
  8
0
  6
DASHED
370
     5
100
AcDbLine
 10
10846.8869733011
 20
17560.82658584144
 30
0.0
 11
10904.88697364759
 21
17560.82658592517
 31
0.0
  0
DIMENSION
  5
5EF
102
{ACAD_XDICTIONARY
360
5F0
102
}
102
{ACAD_REACTORS
330
5F1
102
}
330
2
100
AcDbEntity
  8
-wymiary
 62
     1
370
     9
100
AcDbDimension
  2
*D40
 10
12512.35234952102
 20
17906.03983260214
 30
0.0
 11
12432.35234952102
 21
17926.03983262736
 31
0.0
 70
    32
 71
     5
 42
40.00000005041147
  3
500
100
AcDbAlignedDimension
 13
11304.88697349411
 23
17946.03983265256
 33
0.0
 14
11309.88697344366
 24
17906.03983260214
 34
0.0
 50
90.0
100
AcDbRotatedDimension
  0
DIMENSION
  5
5F2
102
{ACAD_XDICTIONARY
360
5F3
102
}
102
{ACAD_REACTORS
330
5F4
102
}
330
2
100
AcDbEntity
  8
-wymiary
 62
     1
370
     9
100
AcDbDimension
  2
*D41
 10
12512.35234952102
 20
17545.03983260214
 30
0.0
 11
12432.35234952102
 21
17725.53983260214
 31
0.0
 70
    32
 71
     5
 42
361.0000000000073
  3
500
100
AcDbAlignedDimension
 13
11309.88697344366
 23
17906.03983260214
 33
0.0
 14
12328.88697364577
 24
17545.03983260214
 34
0.0
 50
90.0
100
AcDbRotatedDimension
  0
DIMENSION
  5
5F5
102
{ACAD_XDICTIONARY
360
5F6
102
}
102
{ACAD_REACTORS
330
5F7
102
}
330
2
100
AcDbEntity
  8
-wymiary
 62
     1
370
     9
100
AcDbDimension
  2
*D42
 10
12512.35234952102
 20
16684.03983260213
 30
0.0
 11
12432.35234952102
 21
17114.53983260214
 31
0.0
 70
    32
 71
     5
 42
861.0000000000072
  3
500
100
AcDbAlignedDimension
 13
12328.88697364577
 23
17545.03983260214
 33
0.0
 14
12291.85234952102
 24
16684.03983260213
 34
0.0
 50
90.0
100
AcDbRotatedDimension
  0
DIMENSION
  5
5F8
330
2
100
AcDbEntity
  8
-wymiary
 62
     1
370
     9
100
AcDbDimension
  2
*D35
 10
12702.35234952102
 20
17946.03983265256
 30
0.0
 11
12622.35234952102
 21
17315.03983262735
 31
0.0
 70
    32
 71
     5
 42
1262.000000050426
  3
500
100
AcDbAlignedDimension
 13
12291.85234952102
 23
16684.03983260213
 33
0.0
 14
12606.85234952102
 24
17946.03983265256
 34
0.0
 50
90.0
100
AcDbRotatedDimension
  0
DIMENSION
  5
5F9
330
2
100
AcDbEntity
  8
-wymiary
 62
     1
370
     9
100
AcDbDimension
  2
*D36
 10
10904.88697364576
 20
16401.10750334653
 30
0.0
 11
10884.88697362054
 21
16481.10750334653
 31
0.0
 70
    32
 71
     5
 42
40.00000005043512
  3
500
100
AcDbAlignedDimension
 13
10864.88697359533
 23
17508.03983280454
 33
0.0
 14
10904.88697364576
 24
17507.82658592517
 34
0.0
100
AcDbRotatedDimension
  0
DIMENSION
  5
5FA
330
2
100
AcDbEntity
  8
-wymiary
 62
     1
370
     9
100
AcDbDimension
  2
*D37
 10
11437.88697364576
 20
16401.10750334653
 30
0.0
 11
11171.38697364576
 21
16481.10750334653
 31
0.0
 70
    32
 71
     5
 42
532.9999999999945
  3
500
100
AcDbAlignedDimension
 13
10904.88697364576
 23
17507.82658592517
 33
0.0
 14
11437.88697364576
 24
16727.60750334653
 34
0.0
100
AcDbRotatedDimension
  0
DIMENSION
  5
5FB
330
2
100
AcDbEntity
  8
-wymiary
 62
     1
370
     9
100
AcDbDimension
  2
*D38
 10
12328.88697364576
 20
16401.10750334653
 30
0.0
 11
11883.38697364576
 21
16481.10750334653
 31
0.0
 70
    32
 71
     5
 42
891.000000000009
  3
500
100
AcDbAlignedDimension
 13
11437.88697364576
 23
16727.60750334653
 33
0.0
 14
12328.88697364576
 24
16689.10750334653
 34
0.0
100
AcDbRotatedDimension
  0
DIMENSION
  5
5FC
330
2
100
AcDbEntity
  8
-wymiary
 62
     1
370
     9
100
AcDbDimension
  2
*D39
 10
10864.88697359533
 20
16203.10750334653
 30
0.0
 11
11596.88697362055
 21
16283.10750334653
 31
0.0
 70
    32
 71
     5
 42
1464.000000050439
  3
500
100
AcDbAlignedDimension
 13
12328.88697364576
 23
16689.10750334653
 33
0.0
 14
10864.88697359533
 24
17419.03983280454
 34
0.0
100
AcDbRotatedDimension
  0
LINE
  5
5FD
330
2
100
AcDbEntity
  8
0
370
     5
100
AcDbLine
 10
16710.48420223484
 20
16744.03983260214
 30
0.0
 11
16710.48420223484
 21
16956.03983260214
 31
0.0
  0
LINE
  5
5FE
330
2
100
AcDbEntity
  8
0
  6
Continuous
370
     5
100
AcDbLine
 10
16322.48420223484
 20
17906.03983260214
 30
0.0
 11
16322.48420223484
 21
18156.03983260214
 31
0.0
  0
LINE
  5
5FF
330
2
100
AcDbEntity
  8
0
  6
Continuous
370
     5
100
AcDbLine
 10
16322.48420223484
 20
18156.03983260214
 30
0.0
 11
16898.48420243694
 21
18156.03983260214
 31
0.0
  0
LINE
  5
600
330
2
100
AcDbEntity
  8
0
  6
Continuous
370
     5
100
AcDbLine
 10
16898.48420243694
 20
18156.03983260214
 30
0.0
 11
16898.48420243694
 21
17951.03983260211
 31
0.0
  0
LINE
  5
601
330
2
100
AcDbEntity
  8
0
  6
Continuous
370
     5
100
AcDbLine
 10
17378.48420223482
 20
17951.03983260213
 30
0.0
 11
17538.48420223483
 21
17951.03983260213
 31
0.0
  0
LINE
  5
602
330
2
100
AcDbEntity
  8
0
  6
Continuous
370
     5
100
AcDbLine
 10
17538.48420223483
 20
17951.03983260213
 30
0.0
 11
17538.48420223483
 21
17570.03983260214
 31
0.0
  0
LINE
  5
603
330
2
100
AcDbEntity
  8
0
  6
Continuous
370
     5
100
AcDbLine
 10
17598.48420223483
 20
17510.03983260214
 30
0.0
 11
17598.48420223483
 21
17127.03983260215
 31
0.0
  0
LINE
  5
604
330
2
100
AcDbEntity
  8
0
370
     5
100
AcDbLine
 10
16575.48420223486
 20
16804.03983260214
 30
0.0
 11
16575.48420223486
 21
16744.03983260214
 31
0.0
  0
LINE
  5
605
330
2
100
AcDbEntity
  8
0
  6
Continuous
370
     5
100
AcDbLine
 10
16800.48420223484
 20
16896.03983260214
 30
0.0
 11
16800.48420223484
 21
16594.03983260214
 31
0.0
  0
LINE
  5
606
330
2
100
AcDbEntity
  8
0
  6
Continuous
370
     5
100
AcDbLine
 10
16800.48420223484
 20
16594.03983260214
 30
0.0
 11
15879.48420223483
 21
16594.03983260214
 31
0.0
  0
LINE
  5
607
330
2
100
AcDbEntity
  8
0
  6
Continuous
370
     5
100
AcDbLine
 10
17303.48420223484
 20
17097.03983260215
 30
0.0
 11
17628.48420223483
 21
17097.03983260215
 31
0.0
  0
LINE
  5
608
330
2
100
AcDbEntity
  8
0
  6
Continuous
370
     5
100
AcDbLine
 10
17628.48420223483
 20
17097.03983260215
 30
0.0
 11
17628.48420223483
 21
17510.11153140624
 31
0.0
  0
LINE
  5
609
330
2
100
AcDbEntity
  8
0
  6
Continuous
370
     5
100
AcDbLine
 10
17568.48420223483
 20
17570.03983260214
 30
0.0
 11
17568.48420223483
 21
17981.03983260213
 31
0.0
  0
LINE
  5
60A
330
2
100
AcDbEntity
  8
0
  6
Continuous
370
     5
100
AcDbLine
 10
17568.48420223483
 20
17981.03983260213
 30
0.0
 11
17378.48420223482
 21
17981.03983260213
 31
0.0
  0
LINE
  5
60B
330
2
100
AcDbEntity
  8
0
  6
Continuous
370
     5
100
AcDbLine
 10
16928.48420243694
 20
18011.03983260213
 30
0.0
 11
16928.48420243694
 21
18186.03983260214
 31
0.0
  0
LINE
  5
60C
330
2
100
AcDbEntity
  8
0
  6
Continuous
370
     5
100
AcDbLine
 10
16928.48420243694
 20
18186.03983260214
 30
0.0
 11
16292.48420223484
 21
18186.03983260214
 31
0.0
  0
LINE
  5
60D
330
2
100
AcDbEntity
  8
0
  6
Continuous
370
     5
100
AcDbLine
 10
16292.48420223484
 20
18186.03983260214
 30
0.0
 11
16292.48420223484
 21
17906.03983260214
 31
0.0
  0
LINE
  5
60E
330
2
100
AcDbEntity
  8
0
370
     5
100
AcDbLine
 10
16038.48420223484
 20
17485.03983260213
 30
0.0
 11
16038.48420223484
 21
17545.03983260214
 31
0.0
  0
LINE
  5
60F
330
2
100
AcDbEntity
  8
0
370
     5
100
AcDbLine
 10
16138.48420223484
 20
17485.03983260213
 30
0.0
 11
16138.48420223484
 21
17545.03983260213
 31
0.0
  0
LINE
  5
610
330
2
100
AcDbEntity
  8
0
370
     5
100
AcDbLine
 10
15958.48420223483
 20
16684.03983260214
 30
0.0
 11
15958.48420223483
 21
16744.03983260213
 31
0.0
  0
LINE
  5
611
330
2
100
AcDbEntity
  8
0
370
     5
100
AcDbLine
 10
16218.48420223486
 20
16684.03983260214
 30
0.0
 11
16218.48420223486
 21
16744.03983260213
 31
0.0
  0
LINE
  5
612
330
2
100
AcDbEntity
  8
0
  6
Continuous
370
     5
100
AcDbLine
 10
16138.48420223483
 20
17523.03983260213
 30
0.0
 11
16138.48420223483
 21
17533.03983260213
 31
0.0
  0
LINE
  5
613
330
2
100
AcDbEntity
  8
0
370
     5
100
AcDbLine
 10
17658.48420223483
 20
17570.03983260214
 30
0.0
 11
17538.48420223483
 21
17570.03983260214
 31
0.0
  0
LINE
  5
614
330
2
100
AcDbEntity
  8
0
370
     5
100
AcDbLine
 10
17538.48420223483
 20
17570.03983260214
 30
0.0
 11
17538.48420223483
 21
17510.03983260214
 31
0.0
  0
LINE
  5
615
330
2
100
AcDbEntity
  8
0
370
     5
100
AcDbLine
 10
17538.48420223483
 20
17510.03983260214
 30
0.0
 11
17658.48420223482
 21
17510.03983260214
 31
0.0
  0
LINE
  5
616
330
2
100
AcDbEntity
  8
0
370
     5
100
AcDbLine
 10
17658.48420223482
 20
17510.03983260214
 30
0.0
 11
17658.48420223483
 21
17570.03983260214
 31
0.0
  0
LINE
  5
617
330
2
100
AcDbEntity
  8
0
370
     5
100
AcDbLine
 10
17654.48420223483
 20
17566.03983260214
 30
0.0
 11
17542.48420223483
 21
17566.03983260214
 31
0.0
  0
LINE
  5
618
330
2
100
AcDbEntity
  8
0
370
     5
100
AcDbLine
 10
17542.48420223483
 20
17566.03983260214
 30
0.0
 11
17542.48420223483
 21
17514.03983260214
 31
0.0
  0
LINE
  5
619
330
2
100
AcDbEntity
  8
0
370
     5
100
AcDbLine
 10
17542.48420223483
 20
17514.03983260214
 30
0.0
 11
17654.48420223482
 21
17514.03983260214
 31
0.0
  0
LINE
  5
61A
330
2
100
AcDbEntity
  8
0
370
     5
100
AcDbLine
 10
17654.48420223482
 20
17514.03983260214
 30
0.0
 11
17654.48420223483
 21
17566.03983260214
 31
0.0
  0
LINE
  5
61B
330
2
100
AcDbEntity
  8
0
  6
Continuous
370
     5
100
AcDbLine
 10
17598.48420223483
 20
17127.03983260215
 30
0.0
 11
17303.48420223485
 21
17127.03983260215
 31
0.0
  0
LINE
  5
61C
330
2
100
AcDbEntity
  8
0
370
     5
100
AcDbLine
 10
17378.48420223482
 20
18011.03983260213
 30
0.0
 11
16898.48420243694
 21
18011.03983260213
 31
0.0
  0
LINE
  5
61D
330
2
100
AcDbEntity
  8
0
370
     5
100
AcDbLine
 10
16898.48420243694
 20
17951.03983260213
 30
0.0
 11
17378.48420223482
 21
17951.03983260213
 31
0.0
  0
LINE
  5
61E
330
2
100
AcDbEntity
  8
0
370
     5
100
AcDbLine
 10
17378.48420223482
 20
17951.03983260213
 30
0.0
 11
17378.48420223482
 21
18011.03983260213
 31
0.0
  0
LINE
  5
61F
330
2
100
AcDbEntity
  8
0
370
     5
100
AcDbLine
 10
17374.48420223482
 20
18007.03983260213
 30
0.0
 11
16902.48420243694
 21
18007.03983260213
 31
0.0
  0
LINE
  5
620
330
2
100
AcDbEntity
  8
0
370
     5
100
AcDbLine
 10
16902.48420243694
 20
18007.03983260213
 30
0.0
 11
16902.48420243694
 21
17955.03983260213
 31
0.0
  0
LINE
  5
621
330
2
100
AcDbEntity
  8
0
370
     5
100
AcDbLine
 10
16902.48420243694
 20
17955.03983260213
 30
0.0
 11
17374.48420223482
 21
17955.03983260213
 31
0.0
  0
LINE
  5
622
330
2
100
AcDbEntity
  8
0
370
     5
100
AcDbLine
 10
17374.48420223482
 20
17955.03983260213
 30
0.0
 11
17374.48420223482
 21
18007.03983260213
 31
0.0
  0
LINE
  5
623
330
2
100
AcDbEntity
  8
0
  6
Continuous
370
     5
100
AcDbLine
 10
16770.48420223484
 20
16744.03983260214
 30
0.0
 11
16770.48420223484
 21
16624.03983260214
 31
0.0
  0
HATCH
  5
624
330
2
100
AcDbEntity
  8
0
370
     5
100
AcDbHatch
 10
0.0
 20
0.0
 30
0.0
210
0.0
220
0.0
230
1.0
  2
SOLID
 70
     1
 71
     0
 91
        2
 92
        1
 93
        8
 72
     1
 10
17243.48420223484
 20
17571.03983280454
 11
17303.48420223484
 21
17571.03983280454
 72
     1
 10
17303.48420223484
 20
17571.03983280454
 11
17303.48420223484
 21
16896.03983260214
 72
     1
 10
17303.48420223484
 20
16896.03983260214
 11
16770.48420223484
 21
16896.03983260214
 72
     1
 10
16770.48420223484
 20
16896.03983260214
 11
16770.48420223484
 21
16744.03983260214
 72
     1
 10
16770.48420223484
 20
16744.03983260214
 11
16710.48420223484
 21
16744.03983260214
 72
     1
 10
16710.48420223484
 20
16744.03983260214
 11
16710.48420223484
 21
16956.03983260214
 72
     1
 10
16710.48420223484
 20
16956.03983260214
 11
17243.48420223484
 21
16956.03983260214
 72
     1
 10
17243.48420223484
 20
16956.03983260214
 11
17243.48420223484
 21
17571.03983280454
 97
        0
 92
        1
 93
        4
 72
     1
 10
16913.48420238649
 20
17906.03983260214
 11
16913.48420238649
 21
17846.03983260214
 72
     1
 10
16913.48420238649
 20
17846.03983260214
 11
16710.48420223484
 21
17846.03983260214
 72
     1
 10
16710.48420223484
 20
17846.03983260214
 11
16710.48420223484
 21
17906.03983260214
 72
     1
 10
16710.48420223484
 20
17906.03983260214
 11
16913.48420238649
 21
17906.03983260214
 97
        0
 75
     0
 76
     1
 98
        1
 10
16722.63356625782
 20
16754.24348602876
1001
ACAD
1010
0.0
1020
0.0
1030
0.0
  0
HATCH
  5
625
330
2
100
AcDbEntity
  8
0
370
     5
100
AcDbHatch
 10
0.0
 20
0.0
 30
0.0
210
0.0
220
0.0
230
1.0
  2
SOLID
 70
     1
 71
     0
 91
        1
 92
        7
 72
     0
 73
     1
 93
        8
 10
16280.48420223485
 20
16804.03983260214
 10
16575.48420223486
 20
16804.03983260214
 10
16575.48420223486
 20
16744.03983260214
 10
16340.48420223485
 20
16744.03983260214
 10
16340.48420223485
 20
16684.03983260213
 10
16218.48420223486
 20
16684.03983260213
 10
16218.48420223486
 20
16744.03983260213
 10
16280.48420223485
 20
16744.03983260213
 97
        0
 75
     0
 76
     1
 47
1.153789227114452
 98
        1
 10
16425.6330450797
 20
16785.4326781215
1001
ACAD
1010
0.0
1020
0.0
1030
0.0
  0
HATCH
  5
626
330
2
100
AcDbEntity
  8
0
370
     5
100
AcDbHatch
 10
0.0
 20
0.0
 30
0.0
210
0.0
220
0.0
230
1.0
  2
SOLID
 70
     1
 71
     0
 91
        1
 92
        7
 72
     0
 73
     1
 93
        8
 10
15879.48420223483
 20
17545.03983260213
 10
15958.48420223483
 20
17545.03983260213
 10
15958.48420223483
 20
17485.03983260213
 10
15939.48420223483
 20
17485.03983260214
 10
15939.48420223483
 20
16744.03983260213
 10
15958.48420223483
 20
16744.03983260213
 10
15958.48420223483
 20
16684.03983260213
 10
15879.48420223483
 20
16684.03983260213
 97
        0
 75
     0
 76
     1
 47
1.019267759219244
 98
        1
 10
15922.0036594096
 20
16714.54073132594
1001
ACAD
1010
0.0
1020
0.0
1030
0.0
  0
HATCH
  5
627
330
2
100
AcDbEntity
  8
0
370
     5
100
AcDbHatch
 10
0.0
 20
0.0
 30
0.0
210
0.0
220
0.0
230
1.0
  2
SOLID
 70
     1
 71
     0
 91
        1
 92
        7
 72
     0
 73
     1
 93
        8
 10
16218.48420223486
 20
17545.03983260213
 10
16292.48420223484
 20
17545.03983260213
 10
16292.48420223484
 20
17906.03983260214
 10
16575.48420223486
 20
17906.03983260214
 10
16575.48420223486
 20
17846.03983260214
 10
16352.48420223484
 20
17846.03983260214
 10
16352.48420223484
 20
17485.03983260213
 10
16218.48420223486
 20
17485.03983260213
 97
        0
 75
     0
 76
     1
 47
0.9004302170334284
 98
        1
 10
16310.17674384248
 20
17503.05018358243
1001
ACAD
1010
0.0
1020
0.0
1030
0.0
  0
HATCH
  5
628
330
2
100
AcDbEntity
  8
0
370
     5
100
AcDbHatch
 10
0.0
 20
0.0
 30
0.0
210
0.0
220
0.0
230
1.0
  2
SOLID
 70
     1
 71
     0
 91
        1
 92
        7
 72
     0
 73
     1
 93
        4
 10
16138.48420223483
 20
17545.03983260213
 10
16218.48420223486
 20
17545.03983260213
 10
16218.48420223485
 20
17485.03983260213
 10
16138.48420223483
 20
17485.03983260213
 97
        0
 75
     0
 76
     1
 47
0.7954480931341026
 98
        1
 10
16167.18215604301
 20
17507.68681686705
1001
ACAD
1010
0.0
1020
0.0
1030
0.0
  0
HATCH
  5
629
330
2
100
AcDbEntity
  8
0
370
     5
100
AcDbHatch
 10
0.0
 20
0.0
 30
0.0
210
0.0
220
0.0
230
1.0
  2
SOLID
 70
     1
 71
     0
 91
        1
 92
        7
 72
     0
 73
     1
 93
        4
 10
15958.48420223483
 20
17545.03983260213
 10
16038.48420223484
 20
17545.03983260213
 10
16038.48420223484
 20
17485.03983260213
 10
15958.48420223483
 20
17485.03983260213
 97
        0
 75
     0
 76
     1
 47
0.7954480931341026
 98
        1
 10
15996.82864671598
 20
17513.25494058251
1001
ACAD
1010
0.0
1020
0.0
1030
0.0
  0
HATCH
  5
62A
330
2
100
AcDbEntity
  8
0
370
     5
100
AcDbHatch
 10
0.0
 20
0.0
 30
0.0
210
0.0
220
0.0
230
1.0
  2
SOLID
 70
     1
 71
     0
 91
        1
 92
        7
 72
     0
 73
     1
 93
        4
 10
16575.48420223486
 20
17906.03983260214
 10
16710.48420223484
 20
17906.03983260214
 10
16710.48420223484
 20
17846.03983260215
 10
16575.48420223486
 20
17846.03983260215
 97
        0
 75
     0
 76
     1
 47
2.554013782164573
 98
        1
 10
16623.80722203395
 20
17875.06736960775
1001
ACAD
1010
0.0
1020
0.0
1030
0.0
  0
LINE
  5
62B
330
2
100
AcDbEntity
  8
0
370
     5
100
AcDbLine
 10
17303.48420223484
 20
16896.03983260214
 30
0.0
 11
17303.48420223484
 21
17571.03983280455
 31
0.0
  0
LINE
  5
62C
330
2
100
AcDbEntity
  8
0
370
     5
100
AcDbLine
 10
17303.48420223484
 20
16896.03983260214
 30
0.0
 11
16770.48420223484
 21
16896.03983260214
 31
0.0
  0
LINE
  5
62D
330
2
100
AcDbEntity
  8
0
370
     5
100
AcDbLine
 10
16770.48420223484
 20
16896.03983260214
 30
0.0
 11
16770.48420223484
 21
16744.03983260214
 31
0.0
  0
LINE
  5
62E
330
2
100
AcDbEntity
  8
0
370
     5
100
AcDbLine
 10
16770.48420223484
 20
16744.03983260214
 30
0.0
 11
16340.48420223485
 21
16744.03983260214
 31
0.0
  0
LINE
  5
62F
330
2
100
AcDbEntity
  8
0
370
     5
100
AcDbLine
 10
16340.48420223485
 20
16744.03983260214
 30
0.0
 11
16340.48420223485
 21
16684.03983260213
 31
0.0
  0
LINE
  5
630
330
2
100
AcDbEntity
  8
0
370
     5
100
AcDbLine
 10
16340.48420223485
 20
16684.03983260213
 30
0.0
 11
15879.48420223483
 21
16684.03983260213
 31
0.0
  0
LINE
  5
631
330
2
100
AcDbEntity
  8
0
370
     5
100
AcDbLine
 10
15879.48420223483
 20
16684.03983260213
 30
0.0
 11
15879.48420223483
 21
17545.03983260214
 31
0.0
  0
LINE
  5
632
330
2
100
AcDbEntity
  8
0
370
     5
100
AcDbLine
 10
15879.48420223483
 20
17545.03983260214
 30
0.0
 11
16292.48420223484
 21
17545.03983260213
 31
0.0
  0
LINE
  5
633
330
2
100
AcDbEntity
  8
0
370
     5
100
AcDbLine
 10
16292.48420223484
 20
17545.03983260213
 30
0.0
 11
16292.48420223484
 21
17906.03983260214
 31
0.0
  0
LINE
  5
634
330
2
100
AcDbEntity
  8
0
370
     5
100
AcDbLine
 10
17243.48420223484
 20
17571.03983280454
 30
0.0
 11
17243.48420223484
 21
16956.03983260214
 31
0.0
  0
LINE
  5
635
330
2
100
AcDbEntity
  8
0
370
     5
100
AcDbLine
 10
17243.48420223484
 20
16956.03983260214
 30
0.0
 11
16710.48420223484
 21
16956.03983260214
 31
0.0
  0
LINE
  5
636
330
2
100
AcDbEntity
  8
0
370
     5
100
AcDbLine
 10
16710.48420223484
 20
16804.03983260214
 30
0.0
 11
16280.48420223485
 21
16804.03983260214
 31
0.0
  0
LINE
  5
637
330
2
100
AcDbEntity
  8
0
370
     5
100
AcDbLine
 10
16280.48420223485
 20
16804.03983260214
 30
0.0
 11
16280.48420223485
 21
16744.03983260213
 31
0.0
  0
LINE
  5
638
330
2
100
AcDbEntity
  8
0
370
     5
100
AcDbLine
 10
16280.48420223485
 20
16744.03983260213
 30
0.0
 11
15939.48420223483
 21
16744.03983260213
 31
0.0
  0
LINE
  5
639
330
2
100
AcDbEntity
  8
0
370
     5
100
AcDbLine
 10
15939.48420223483
 20
16744.03983260213
 30
0.0
 11
15939.48420223483
 21
17485.03983260213
 31
0.0
  0
LINE
  5
63A
330
2
100
AcDbEntity
  8
0
370
     5
100
AcDbLine
 10
15939.48420223483
 20
17485.03983260213
 30
0.0
 11
16352.48420223484
 21
17485.03983260213
 31
0.0
  0
LINE
  5
63B
330
2
100
AcDbEntity
  8
0
370
     5
100
AcDbLine
 10
16352.48420223484
 20
17485.03983260213
 30
0.0
 11
16352.48420223484
 21
17846.03983260214
 31
0.0
  0
LINE
  5
63C
330
2
100
AcDbEntity
  8
0
370
     5
100
AcDbLine
 10
16352.48420223484
 20
17846.03983260214
 30
0.0
 11
16913.48420238649
 21
17846.03983260215
 31
0.0
  0
LINE
  5
63D
330
2
100
AcDbEntity
  8
0
370
     5
100
AcDbLine
 10
16913.48420238649
 20
17906.03983260214
 30
0.0
 11
16292.48420223484
 21
17906.03983260214
 31
0.0
  0
LINE
  5
63E
330
2
100
AcDbEntity
  8
0
370
     5
100
AcDbLine
 10
17343.48420228527
 20
17561.03983280454
 30
0.0
 11
17343.48420228527
 21
17946.03983265258
 31
0.0
  0
LINE
  5
63F
330
2
100
AcDbEntity
  8
0
370
     5
100
AcDbLine
 10
17303.48420223484
 20
17561.03983280454
 30
0.0
 11
17343.48420228527
 21
17561.03983280454
 31
0.0
  0
LINE
  5
640
330
2
100
AcDbEntity
  8
0
370
     5
100
AcDbLine
 10
17343.48420228527
 20
17946.03983265258
 30
0.0
 11
16903.48420238649
 21
17946.03983265256
 31
0.0
  0
LINE
  5
641
330
2
100
AcDbEntity
  8
0
370
     5
100
AcDbLine
 10
17333.48420228527
 20
17561.03983280454
 30
0.0
 11
17333.48420228527
 21
17946.03983265258
 31
0.0
  0
LINE
  5
642
330
2
100
AcDbEntity
  8
0
370
     5
100
AcDbLine
 10
17343.48420228527
 20
17571.03983280454
 30
0.0
 11
17243.48420223484
 21
17571.03983280454
 31
0.0
  0
LINE
  5
643
330
2
100
AcDbEntity
  8
0
370
     5
100
AcDbLine
 10
16903.48420238649
 20
17936.03983265256
 30
0.0
 11
17343.48420228527
 21
17936.03983265259
 31
0.0
  0
LINE
  5
644
330
2
100
AcDbEntity
  8
0
370
     5
100
AcDbLine
 10
17238.48420231057
 20
17946.03983265257
 30
0.0
 11
17238.48420231057
 21
17936.03983265257
 31
0.0
  0
LINE
  5
645
330
2
100
AcDbEntity
  8
0
370
     5
100
AcDbLine
 10
17228.48420231057
 20
17936.03983265257
 30
0.0
 11
17228.48420231057
 21
17946.03983265257
 31
0.0
  0
LINE
  5
646
330
2
100
AcDbEntity
  8
0
370
     5
100
AcDbLine
 10
17128.48420233588
 20
17946.03983265257
 30
0.0
 11
17128.48420233588
 21
17936.03983265257
 31
0.0
  0
LINE
  5
647
330
2
100
AcDbEntity
  8
0
370
     5
100
AcDbLine
 10
17118.48420233588
 20
17936.03983265257
 30
0.0
 11
17118.48420233588
 21
17946.03983265257
 31
0.0
  0
LINE
  5
648
330
2
100
AcDbEntity
  8
0
370
     5
100
AcDbLine
 10
17343.4842022853
 20
17821.03983260662
 30
0.0
 11
17333.4842022853
 21
17821.03983260662
 31
0.0
  0
LINE
  5
649
330
2
100
AcDbEntity
  8
0
370
     5
100
AcDbLine
 10
17333.48420228531
 20
17811.03983260662
 30
0.0
 11
17343.48420228531
 21
17811.03983260662
 31
0.0
  0
HATCH
  5
64A
330
2
100
AcDbEntity
  8
0
370
     5
100
AcDbHatch
 10
0.0
 20
0.0
 30
0.0
210
0.0
220
0.0
230
1.0
  2
SOLID
 70
     1
 71
     0
 91
        1
 92
        7
 72
     0
 73
     1
 93
        5
 10
17343.32630753834
 20
17692.0924642212
 10
17343.32630753834
 20
17696.03983275389
 10
17343.48420228534
 20
17696.03983275389
 10
17343.48420228534
 20
17686.03983275389
 10
17343.32630753834
 20
17686.03983275389
 97
        0
 75
     0
 76
     1
 47
0.0066528210014602
 98
        1
 10
17343.37715574508
 20
17689.39263758663
1001
ACAD
1010
0.0
1020
0.0
1030
0.0
  0
HATCH
  5
64B
330
2
100
AcDbEntity
  8
0
370
     5
100
AcDbHatch
 10
0.0
 20
0.0
 30
0.0
210
0.0
220
0.0
230
1.0
  2
SOLID
 70
     1
 71
     0
 91
        1
 92
        7
 72
     0
 73
     1
 93
        5
 10
17333.48420228534
 20
17696.03983275389
 10
17333.64209703236
 20
17696.03983275389
 10
17333.64209703236
 20
17689.98720128659
 10
17333.64209703236
 20
17686.03983275389
 10
17333.48420228534
 20
17686.03983275389
 97
        0
 75
     0
 76
     1
 47
0.0074011229795178
 98
        1
 10
17333.58244298551
 20
17688.3627727429
1001
ACAD
1010
0.0
1020
0.0
1030
0.0
  0
LINE
  5
64C
330
2
100
AcDbEntity
  8
0
370
     5
100
AcDbLine
 10
17343.48420228534
 20
17696.03983275389
 30
0.0
 11
17333.48420228534
 21
17696.03983275389
 31
0.0
  0
LINE
  5
64D
330
2
100
AcDbEntity
  8
0
370
     5
100
AcDbLine
 10
17333.48420228534
 20
17686.03983275389
 30
0.0
 11
17343.48420228534
 21
17686.03983275389
 31
0.0
  0
LINE
  5
64E
330
2
100
AcDbEntity
  8
0
370
     5
100
AcDbLine
 10
16903.48420238649
 20
17906.03983260214
 30
0.0
 11
16903.48420238649
 21
17946.03983265256
 31
0.0
  0
LINE
  5
64F
330
2
100
AcDbEntity
  8
0
370
     5
100
AcDbLine
 10
16898.48420243694
 20
17906.03983260214
 30
0.0
 11
16898.48420243694
 21
18011.03983260213
 31
0.0
  0
LINE
  5
650
330
2
100
AcDbEntity
  8
0
370
     5
100
AcDbLine
 10
16913.48420238649
 20
17846.03983260215
 30
0.0
 11
16913.48420238649
 21
17946.03983265256
 31
0.0
  0
LINE
  5
651
330
2
100
AcDbEntity
  8
0
370
     5
100
AcDbLine
 10
17018.48420236118
 20
17946.03983265256
 30
0.0
 11
17018.48420236118
 21
17936.03983265256
 31
0.0
  0
LINE
  5
652
330
2
100
AcDbEntity
  8
0
370
     5
100
AcDbLine
 10
17008.48420236118
 20
17936.03983265256
 30
0.0
 11
17008.48420236118
 21
17946.03983265256
 31
0.0
  0
LINE
  5
653
330
2
100
AcDbEntity
  8
0
370
     5
100
AcDbLine
 10
17343.32630753834
 20
17804.98720104505
 30
0.0
 11
17343.32630753834
 21
17811.03983261129
 31
0.0
1001
AcDbBlockRepETag
1070
     1
1071
       13
1005
0
  0
LINE
  5
654
330
2
100
AcDbEntity
  8
0
  6
Continuous
370
     5
100
AcDbLine
 10
17333.64209703236
 20
17811.03983261129
 30
0.0
 11
17333.64209703236
 21
17804.98720104505
 31
0.0
1001
AcDbBlockRepETag
1070
     1
1071
       15
1005
0
  0
LINE
  5
655
330
2
100
AcDbEntity
  8
0
370
     5
100
AcDbLine
 10
17333.64209703236
 20
17804.98720104505
 30
0.0
 11
17343.32630753834
 21
17804.98720104505
 31
0.0
1001
AcDbBlockRepETag
1070
     1
1071
       16
1005
0
  0
LINE
  5
656
330
2
100
AcDbEntity
  8
0
370
     5
100
AcDbLine
 10
17333.64209703236
 20
17696.03983285283
 30
0.0
 11
17343.32630753834
 21
17696.03983285283
 31
0.0
1001
AcDbBlockRepETag
1070
     1
1071
       20
1005
0
  0
LINE
  5
657
330
2
100
AcDbEntity
  8
0
370
     5
100
AcDbLine
 10
17333.48420228527
 20
17577.09246446272
 30
0.0
 11
17343.48420228527
 21
17577.09246446272
 31
0.0
1001
AcDbBlockRepETag
1070
     1
1071
       16
1005
0
  0
LINE
  5
658
330
2
100
AcDbEntity
  8
0
370
     5
100
AcDbLine
 10
17343.32630753834
 20
17686.03983265496
 30
0.0
 11
17343.32630753834
 21
17696.03983285283
 31
0.0
1001
AcDbBlockRepETag
1070
     1
1071
       17
1005
0
  0
LINE
  5
659
330
2
100
AcDbEntity
  8
0
  6
Continuous
370
     5
100
AcDbLine
 10
17333.64209703236
 20
17686.03983265496
 30
0.0
 11
17333.64209703236
 21
17696.03983285283
 31
0.0
1001
AcDbBlockRepETag
1070
     1
1071
       19
1005
0
  0
LINE
  5
65B
330
2
100
AcDbEntity
  8
0
  6
Continuous
370
     5
100
AcDbLine
 10
16148.48420223484
 20
17625.03983260213
 30
0.0
 11
16028.48420223484
 21
17625.03983260213
 31
0.0
  0
LINE
  5
65C
330
2
100
AcDbEntity
  8
0
  6
Continuous
370
     5
100
AcDbLine
 10
16028.48420223484
 20
17625.03983260213
 30
0.0
 11
16028.48420223484
 21
17545.03983260213
 31
0.0
  0
LINE
  5
65D
330
2
100
AcDbEntity
  8
0
  6
Continuous
370
     5
100
AcDbLine
 10
16148.48420223484
 20
17545.03983260213
 30
0.0
 11
16148.48420223484
 21
17625.03983260213
 31
0.0
  0
LINE
  5
65E
330
2
100
AcDbEntity
  8
0
  6
Continuous
370
     5
100
AcDbLine
 10
16302.48420223486
 20
16594.03983260214
 30
0.0
 11
16083.48420223483
 21
16684.03983260214
 31
0.0
  0
LINE
  5
65F
330
2
100
AcDbEntity
  8
0
  6
Continuous
370
     5
100
AcDbLine
 10
16083.48420223483
 20
16684.03983260214
 30
0.0
 11
15879.48420223483
 21
16594.03983260214
 31
0.0
  0
LINE
  5
660
330
2
100
AcDbEntity
  8
0
  6
Continuous
370
     5
100
AcDbLine
 10
16770.48420223484
 20
16624.03983260214
 30
0.0
 11
16340.48420223485
 21
16624.03983260214
 31
0.0
  0
LINE
  5
661
330
2
100
AcDbEntity
  8
0
  6
Continuous
370
     5
100
AcDbLine
 10
16340.48420223485
 20
16594.03983260214
 30
0.0
 11
16340.48420223485
 21
16684.03983260213
 31
0.0
  0
LINE
  5
662
330
2
100
AcDbEntity
  8
0
  6
Continuous
370
     5
100
AcDbLine
 10
16302.48420223486
 20
16594.03983260214
 30
0.0
 11
16302.48420223486
 21
16684.03983260214
 31
0.0
  0
LINE
  5
663
330
2
100
AcDbEntity
  8
0
  6
Continuous
370
     5
100
AcDbLine
 10
15879.48420223483
 20
16594.03983260214
 30
0.0
 11
15879.48420223483
 21
16684.03983260214
 31
0.0
  0
LINE
  5
664
330
2
100
AcDbEntity
  8
0
  6
DASHED
370
     5
100
AcDbLine
 10
17375.48420182971
 20
17165.0398326027
 30
0.0
 11
17375.48420182971
 21
17324.82658579719
 31
0.0
  0
LINE
  5
665
330
2
100
AcDbEntity
  8
0
  6
DASHED
370
     5
100
AcDbLine
 10
17303.48420223484
 20
17325.03983260214
 30
0.0
 11
17375.48420223484
 21
17325.03983260214
 31
0.0
  0
LINE
  5
666
330
2
100
AcDbEntity
  8
0
  6
DASHED
370
     5
100
AcDbLine
 10
17375.49004287846
 20
17560.82658584144
 30
0.0
 11
17375.49052580322
 21
17960.0398326526
 31
0.0
  0
LINE
  5
667
330
2
100
AcDbEntity
  8
0
  6
DASHED
370
     5
100
AcDbLine
 10
17303.48420223484
 20
17165.0398326027
 30
0.0
 11
17375.48420223484
 21
17165.0398326027
 31
0.0
  0
LINE
  5
668
330
2
100
AcDbEntity
  8
0
  6
DASHED
370
     5
100
AcDbLine
 10
17361.48420257928
 20
17560.82658584144
 30
0.0
 11
17375.49013968601
 21
17560.82658584144
 31
0.0
  0
LINE
  5
669
330
2
100
AcDbEntity
  8
0
  6
DASHED
370
     5
100
AcDbLine
 10
16889.48420238648
 20
17960.03983265256
 30
0.0
 11
17375.49052580322
 21
17960.0398326526
 31
0.0
  0
LINE
  5
66A
330
2
100
AcDbEntity
  8
0
  6
DASHED
370
     5
100
AcDbLine
 10
16889.48420238649
 20
17906.03983260389
 30
0.0
 11
16889.48420238648
 21
17960.03983265256
 31
0.0
  0
LINE
  5
66B
330
2
100
AcDbEntity
  8
0
  6
DASHED
370
     5
100
AcDbLine
 10
17361.4842025795
 20
17560.82658584144
 30
0.0
 11
17303.48420223301
 21
17560.82658592517
 31
0.0
  0
DIMENSION
  5
66C
330
2
100
AcDbEntity
  8
-wymiary
 62
     1
370
     9
100
AcDbDimension
  2
*D27
 10
15643.01882635958
 20
17906.03983260214
 30
0.0
 11
15563.01882635957
 21
17926.03983262736
 31
0.0
 70
    32
 71
     5
 42
40.00000005041147
  3
500
100
AcDbAlignedDimension
 13
16850.48420238649
 23
17946.03983265256
 33
0.0
 14
16845.48420243694
 24
17906.03983260214
 34
0.0
 50
90.0
100
AcDbRotatedDimension
  0
DIMENSION
  5
66D
330
2
100
AcDbEntity
  8
-wymiary
 62
     1
370
     9
100
AcDbDimension
  2
*D28
 10
15643.01882635958
 20
17545.03983260214
 30
0.0
 11
15563.01882635957
 21
17725.53983260214
 31
0.0
 70
    32
 71
     5
 42
361.0000000000073
  3
500
100
AcDbAlignedDimension
 13
16845.48420243694
 23
17906.03983260214
 33
0.0
 14
15826.48420223483
 24
17545.03983260214
 34
0.0
 50
90.0
100
AcDbRotatedDimension
  0
DIMENSION
  5
66E
330
2
100
AcDbEntity
  8
-wymiary
 62
     1
370
     9
100
AcDbDimension
  2
*D29
 10
15643.01882635958
 20
16684.03983260213
 30
0.0
 11
15563.01882635957
 21
17114.53983260214
 31
0.0
 70
    32
 71
     5
 42
861.0000000000072
  3
500
100
AcDbAlignedDimension
 13
15826.48420223483
 23
17545.03983260214
 33
0.0
 14
15863.51882635957
 24
16684.03983260213
 34
0.0
 50
90.0
100
AcDbRotatedDimension
  0
DIMENSION
  5
66F
330
2
100
AcDbEntity
  8
-wymiary
 62
     1
370
     9
100
AcDbDimension
  2
*D30
 10
15453.01882635958
 20
17946.03983265256
 30
0.0
 11
15373.01882635957
 21
17315.03983262735
 31
0.0
 70
    32
 71
     5
 42
1262.000000050426
  3
500
100
AcDbAlignedDimension
 13
15863.51882635957
 23
16684.03983260213
 33
0.0
 14
15548.51882635958
 24
17946.03983265256
 34
0.0
 50
90.0
100
AcDbRotatedDimension
  0
DIMENSION
  5
670
330
2
100
AcDbEntity
  8
-wymiary
 62
     1
370
     9
100
AcDbDimension
  2
*D31
 10
17303.48420223484
 20
16401.10750334653
 30
0.0
 11
17323.48420226005
 21
16481.10750334653
 31
0.0
 70
    32
 71
     5
 42
40.00000005043694
  3
500
100
AcDbAlignedDimension
 13
17343.48420228527
 23
17508.03983280454
 33
0.0
 14
17303.48420223484
 24
17507.82658592517
 34
0.0
 50
180.0
100
AcDbRotatedDimension
  0
DIMENSION
  5
671
330
2
100
AcDbEntity
  8
-wymiary
 62
     1
370
     9
100
AcDbDimension
  2
*D32
 10
16770.48420223484
 20
16401.10750334653
 30
0.0
 11
17036.98420223484
 21
16481.10750334653
 31
0.0
 70
    32
 71
     5
 42
532.9999999999927
  3
500
100
AcDbAlignedDimension
 13
17303.48420223484
 23
17507.82658592517
 33
0.0
 14
16770.48420223484
 24
16727.60750334653
 34
0.0
 50
180.0
100
AcDbRotatedDimension
  0
DIMENSION
  5
672
330
2
100
AcDbEntity
  8
-wymiary
 62
     1
370
     9
100
AcDbDimension
  2
*D33
 10
15879.48420223483
 20
16401.10750334653
 30
0.0
 11
16324.98420223484
 21
16481.10750334653
 31
0.0
 70
    32
 71
     5
 42
891.0000000000108
  3
500
100
AcDbAlignedDimension
 13
16770.48420223484
 23
16727.60750334653
 33
0.0
 14
15879.48420223483
 24
16689.10750334653
 34
0.0
 50
180.0
100
AcDbRotatedDimension
  0
DIMENSION
  5
673
330
2
100
AcDbEntity
  8
-wymiary
 62
     1
370
     9
100
AcDbDimension
  2
*D34
 10
17343.48420228527
 20
16203.10750334653
 30
0.0
 11
16611.48420226006
 21
16283.10750334653
 31
0.0
 70
    32
 71
     5
 42
1464.00000005044
  3
500
100
AcDbAlignedDimension
 13
15879.48420223483
 23
16689.10750334653
 33
0.0
 14
17343.48420228527
 24
17419.03983280454
 34
0.0
 50
180.0
100
AcDbRotatedDimension
  0
ENDSEC
  0
SECTION
  2
OBJECTS
  0
DICTIONARY
  5
9
330
0
100
AcDbDictionary
281
     1
  3
ACAD_COLOR
350
51
  3
ACAD_FIELDLIST
350
120
  3
ACAD_GROUP
350
4C
  3
ACAD_LAYOUT
350
10
  3
ACAD_MATERIAL
350
B
  3
ACAD_MLEADERSTYLE
350
13E
  3
ACAD_MLINESTYLE
350
4D
  3
ACAD_PLOTSETTINGS
350
4E
  3
ACAD_PLOTSTYLENAME
350
8
  3
ACAD_SCALELIST
350
52
  3
ACAD_TABLESTYLE
350
53
  3
ACAD_VISUALSTYLE
350
2A
  3
ACDB_RECOMPOSE_DATA
350
128
  3
AcDbVariableDictionary
350
129
  3
AEC_PROPERTY_SET_DEFS
350
28B
  3
ASE_INDEX_DICTIONARY
350
123
  3
BNS_VARIABLES
350
3A7
  3
DWGPROPS
350
78A
  0
DICTIONARY
  5
2B
330
27
100
AcDbDictionary
280
     1
281
     1
  0
DICTIONARY
  5
19
330
18
100
AcDbDictionary
280
     1
281
     1
  3
ACAD_LAYERFILTERS
360
1A
  3
ACAD_LAYERSTATES
360
1B
  3
ACLYDICTIONARY
360
1D
  0
DICTIONARY
  5
180
330
6
100
AcDbDictionary
280
     1
281
     1
  3
ADSK_XREC_LAYER_RECONCILED
360
181
  0
DICTIONARY
  5
215
330
214
100
AcDbDictionary
280
     1
281
     1
  0
DICTIONARY
  5
469
330
468
100
AcDbDictionary
280
     1
281
     1
  0
DICTIONARY
  5
46B
330
46A
100
AcDbDictionary
280
     1
281
     1
  0
DICTIONARY
  5
3
330
2
100
AcDbDictionary
280
     1
281
     1
  3
ACAD_SORTENTS
360
11F
  0
DICTIONARY
  5
32
330
31
100
AcDbDictionary
280
     1
281
     1
  3
ACAD_SORTENTS
360
11E
  0
DICTIONARY
  5
5F0
330
5EF
100
AcDbDictionary
280
     1
281
     1
  3
ACAD_DIMASSOC
360
5F1
  0
DICTIONARY
  5
5F3
330
5F2
100
AcDbDictionary
280
     1
281
     1
  3
ACAD_DIMASSOC
360
5F4
  0
DICTIONARY
  5
5F6
330
5F5
100
AcDbDictionary
280
     1
281
     1
  3
ACAD_DIMASSOC
360
5F7
  0
DICTIONARY
  5
51
102
{ACAD_REACTORS
330
9
102
}
330
9
100
AcDbDictionary
281
     1
  0
FIELDLIST
  5
120
102
{ACAD_REACTORS
330
9
102
}
330
9
100
AcDbIdSet
 90
        0
100
AcDbFieldList
  0
DICTIONARY
  5
4C
102
{ACAD_REACTORS
330
9
102
}
330
9
100
AcDbDictionary
281
     1
  0
DICTIONARY
  5
10
102
{ACAD_REACTORS
330
9
102
}
330
9
100
AcDbDictionary
281
     1
  3
Model
350
F
  3
parter
350
15
  0
DICTIONARY
  5
B
102
{ACAD_REACTORS
330
9
102
}
330
9
100
AcDbDictionary
281
     1
  3
ByBlock
350
50
  3
ByLayer
350
4F
  3
Global
350
A
  0
DICTIONARY
  5
13E
102
{ACAD_REACTORS
330
9
102
}
330
9
100
AcDbDictionary
281
     1
  3
Standard
350
13F
  0
DICTIONARY
  5
4D
102
{ACAD_REACTORS
330
9
102
}
330
9
100
AcDbDictionary
281
     1
  3
Standard
350
56
  0
DICTIONARY
  5
4E
102
{ACAD_REACTORS
330
9
102
}
330
9
100
AcDbDictionary
281
     1
  0
ACDBDICTIONARYWDFLT
  5
8
102
{ACAD_REACTORS
330
9
102
}
330
9
100
AcDbDictionary
281
     1
  3
Normal
350
7
100
AcDbDictionaryWithDefault
340
7
  0
DICTIONARY
  5
52
102
{ACAD_REACTORS
330
9
102
}
330
9
100
AcDbDictionary
281
     1
  3
A0
350
5A
  3
A1
350
5B
  3
A2
350
5C
  3
A3
350
5D
  3
A4
350
5E
  3
A5
350
5F
  3
A6
350
60
  3
A7
350
61
  3
A8
350
62
  3
A9
350
63
  3
B0
350
64
  3
B1
350
65
  3
B2
350
66
  3
B3
350
67
  3
B4
350
68
  3
B5
350
69
  3
B6
350
6A
  3
B7
350
6B
  3
B8
350
6C
  3
B9
350
6D
  3
C0
350
6E
  0
DICTIONARY
  5
53
102
{ACAD_REACTORS
330
9
102
}
330
9
100
AcDbDictionary
281
     1
  3
Standard
350
57
  0
DICTIONARY
  5
2A
102
{ACAD_REACTORS
330
9
102
}
330
9
100
AcDbDictionary
281
     1
  3
2dWireframe
350
29
  3
3D Hidden
350
136
  3
3dWireframe
350
59
  3
Basic
350
135
  3
Brighten
350
139
  3
ColorChange
350
13D
  3
Conceptual
350
137
  3
Dim
350
138
  3
Facepattern
350
13C
  3
Flat
350
131
  3
FlatWithEdges
350
132
  3
Gouraud
350
133
  3
GouraudWithEdges
350
134
  3
Linepattern
350
13B
  3
Realistic
350
58
  3
Thicken
350
13A
  0
XRECORD
  5
128
102
{ACAD_REACTORS
330
9
102
}
330
9
100
AcDbXrecord
280
     1
 90
        1
330
57
  0
DICTIONARY
  5
129
102
{ACAD_REACTORS
330
9
102
}
330
9
100
AcDbDictionary
281
     1
  3
CANNOSCALE
350
12C
  3
CMLEADERSTYLE
350
12B
  3
CTABLESTYLE
350
12A
  3
DIMASSOC
350
3B3
  3
HIDETEXT
350
3B2
  3
INDEXCTL
350
3B1
  3
LAYEREVAL
350
12E
  3
LAYERNOTIFY
350
12F
  3
LIGHTINGUNITS
350
12D
  3
MSLTSCALE
350
3AF
  3
SORTENTS
350
3B0
  0
DICTIONARY
  5
28B
102
{ACAD_REACTORS
330
9
102
}
330
9
100
AcDbDictionary
281
     1
  0
DICTIONARY
  5
123
102
{ACAD_REACTORS
330
9
102
}
330
9
100
AcDbDictionary
281
     1
  3
ASEBlockHierarchyIndexRecord
350
125
1001
DCO15
1040
1663655127.328
  0
DICTIONARY
  5
3A7
102
{ACAD_REACTORS
330
9
102
}
330
9
100
AcDbDictionary
281
     1
  3
ACET-OVERKILL-FUZZ
350
781
  3
ACET-OVERKILL-NO-ENDTOEND
350
784
  3
ACET-OVERKILL-NO-PARTIAL
350
783
  3
ACET-OVERKILL-NO-PLINES
350
782
  0
XRECORD
  5
78A
102
{ACAD_REACTORS
330
9
102
}
330
9
100
AcDbXrecord
280
     1
  1
DWGPROPS COOKIE
  2

  3

  4

  6

  7

  8
anna.bogusz
  9

300
=
301
=
302
=
303
=
304
=
305
=
306
=
307
=
308
=
309
=
 40
15.35260958333333
 41
2453080.724599746
 42
2455058.47952926
  1

 90
        0
  0
DICTIONARY
  5
1A
102
{ACAD_REACTORS
330
19
102
}
330
19
100
AcDbDictionary
281
     1
  0
DICTIONARY
  5
1B
102
{ACAD_REACTORS
330
19
102
}
330
19
100
AcDbDictionary
281
     1
1001
AcLayerTools
1000
F
1000
0
  0
DICTIONARY
  5
1D
102
{ACAD_REACTORS
330
19
102
}
330
19
100
AcDbDictionary
281
     1
1001
ACAD
1000
<All
  0
XRECORD
  5
181
102
{ACAD_REACTORS
330
180
102
}
330
180
100
AcDbXrecord
280
     1
290
     1
  0
SORTENTSTABLE
  5
11F
102
{ACAD_REACTORS
330
3
102
}
330
3
100
AcDbSortentsTable
330
2
  0
SORTENTSTABLE
  5
11E
102
{ACAD_REACTORS
330
32
102
}
330
32
100
AcDbSortentsTable
330
31
  0
DIMASSOC
  5
5F1
102
{ACAD_REACTORS
330
5F0
102
}
330
5F0
100
AcDbDimAssoc
330
5EF
 90
        3
 70
     0
 71
     0
  1
AcDbOsnapPointRef
 72
     1
331
5D1
 73
     2
 91
        0
 40
1.0
 10
0.0
 20
0.0
 30
2.000000000000000E+50
 75
     0
  1
AcDbOsnapPointRef
 72
    13
331
5D2
 73
     2
 91
        0
 40
0.0
 10
0.0
 20
0.0
 30
2.000000000000000E+50
 75
     0
  0
DIMASSOC
  5
5F4
102
{ACAD_REACTORS
330
5F3
102
}
330
5F3
100
AcDbDimAssoc
330
5F2
 90
        3
 70
     0
 71
     0
  1
AcDbOsnapPointRef
 72
    13
331
5D2
 73
     2
 91
        0
 40
0.0
 10
0.0
 20
0.0
 30
2.000000000000000E+50
 75
     0
  1
AcDbOsnapPointRef
 72
    13
331
5B5
 73
     2
 91
        0
 40
0.0
 10
0.0
 20
0.0
 30
2.000000000000000E+50
 75
     0
  0
DIMASSOC
  5
5F7
102
{ACAD_REACTORS
330
5F6
102
}
330
5F6
100
AcDbDimAssoc
330
5F5
 90
        1
 70
     0
 71
     0
  1
AcDbOsnapPointRef
 72
     1
331
5B4
 73
     2
 91
        0
 40
1.0
 10
0.0
 20
0.0
 30
2.000000000000000E+50
 75
     0
  0
LAYOUT
  5
F
102
{ACAD_XDICTIONARY
360
78D
102
}
102
{ACAD_REACTORS
330
10
102
}
330
10
100
AcDbPlotSettings
  1

  2
CutePDF Writer
  4
A4
  6

 40
3.174999952316284
 41
3.174999952316284
 42
3.175003051757812
 43
3.17498779296875
 44
209.8886566162109
 45
297.0530090332031
 46
0.0
 47
5.468573210520304
 48
-31040.12217103751
 49
-12351.22598190943
140
-20840.12217103748
141
1668.774018090564
142
1.0
143
50.11333139422816
 70
  3764
 72
     1
 73
     0
 74
     4
  7
monochrome_140.ctb
 75
     0
147
0.0199547699619742
148
31040.12217103751
149
12351.22598190943
100
AcDbLayout
  1
Model
 70
     1
 71
     0
 10
0.0
 20
0.0
 11
12.0
 21
9.0
 12
0.0
 22
0.0
 32
0.0
 14
0.0
 24
0.0
 34
0.0
 15
0.0
 25
0.0
 35
0.0
146
0.0
 13
0.0
 23
0.0
 33
0.0
 16
1.0
 26
0.0
 36
0.0
 17
0.0
 27
1.0
 37
0.0
 76
     0
330
2
331
28
1001
ACAD_PSEXT
1000
CutePDF Writer
1000
CutePDF Writer
1000
CPW2:
1000

1070
     0
  0
LAYOUT
  5
15
102
{ACAD_XDICTIONARY
360
16
102
}
102
{ACAD_REACTORS
330
10
102
}
330
10
100
AcDbPlotSettings
  1

  2
\\komp-nr-78\HP LaserJet P2015 Series PCL 5e
  4
A4
  6

 40
6.805083274841308
 41
5.027085781097412
 42
6.805068969726562
 43
5.027069091796875
 44
209.9733276367187
 45
296.9683227539062
 46
0.0
 47
0.0
 48
0.0
 49
0.0
140
0.0
141
0.0
142
10.0
143
1.0
 70
   672
 72
     1
 73
     0
 74
     5
  7
monochrome_140.ctb
 75
     0
147
1.0
148
0.0
149
0.0
100
AcDbLayout
  1
parter
 70
     0
 71
     1
 10
-0.6805083274841309
 20
-0.5027085781097412
 11
20.31682443618775
 21
29.19412369728089
 12
0.0
 22
0.0
 32
0.0
 14
-2.070604717613292
 24
0.7619234537465212
 34
0.0
 15
19.74235495400163
 25
28.35931970293005
 35
0.0
146
0.0
 13
0.0
 23
0.0
 33
0.0
 16
1.0
 26
0.0
 36
0.0
 17
0.0
 27
1.0
 37
0.0
 76
     0
330
12
1001
ACAD_PSEXT
1000
\\komp-nr-78\HP LaserJet P2015 Series PCL 5e
1000
HP LaserJet P2015 Series PCL 5e
1000
\\komp-nr-78
1000

1070
     0
  0
MATERIAL
  5
50
102
{ACAD_XDICTIONARY
360
792
102
}
102
{ACAD_REACTORS
330
B
102
}
330
B
100
AcDbMaterial
  1
ByBlock
 73
     1
 78
     1
172
     1
176
     1
270
     1
274
     1
  0
MATERIAL
  5
4F
102
{ACAD_XDICTIONARY
360
790
102
}
102
{ACAD_REACTORS
330
B
102
}
330
B
100
AcDbMaterial
  1
ByLayer
 73
     1
 78
     1
172
     1
176
     1
270
     1
274
     1
  0
MATERIAL
  5
A
102
{ACAD_XDICTIONARY
360
78B
102
}
102
{ACAD_REACTORS
330
B
102
}
330
B
100
AcDbMaterial
  1
Global
 73
     1
 78
     1
172
     1
176
     1
270
     1
274
     1
  0
MLEADERSTYLE
  5
13F
102
{ACAD_REACTORS
330
13E
102
}
330
13E
100
AcDbMLeaderStyle
170
     2
171
     1
172
     0
 90
        2
 40
0.0
 41
0.0
173
     1
 91
-1056964608
340
23
 92
       -2
290
     1
 42
0.09
291
     1
 43
0.36
  3
Standard
 44
0.18
300

342
20
174
     1
178
     6
175
     1
176
     0
 93
-1056964608
 45
0.18
292
     0
297
     0
 46
0.18
 94
-1056964608
 47
1.0
 49
1.0
140
1.0
293
     1
141
0.0
294
     1
177
     0
142
1.0
295
     0
296
     0
143
0.125
1001
ACAD_MLEADERVER
1070
     2
  0
MLINESTYLE
  5
56
102
{ACAD_REACTORS
330
4D
102
}
330
4D
100
AcDbMlineStyle
  2
STANDARD
 70
     0
  3

 62
   256
 51
90.0
 52
90.0
 71
     2
 49
0.5
 62
   256
  6
BYLAYER
 49
-0.5
 62
   256
  6
BYLAYER
  0
ACDBPLACEHOLDER
  5
7
102
{ACAD_REACTORS
330
8
102
}
330
8
  0
SCALE
  5
5A
102
{ACAD_REACTORS
330
52
102
}
330
52
100
AcDbScale
 70
     0
300
1:1
140
1.0
141
0.1
290
     0
  0
SCALE
  5
5B
102
{ACAD_REACTORS
330
52
102
}
330
52
100
AcDbScale
 70
     0
300
1:2
140
1.0
141
0.2
290
     0
  0
SCALE
  5
5C
102
{ACAD_REACTORS
330
52
102
}
330
52
100
AcDbScale
 70
     0
300
1:2.5
140
1.0
141
0.25
290
     0
  0
SCALE
  5
5D
102
{ACAD_REACTORS
330
52
102
}
330
52
100
AcDbScale
 70
     0
300
1:5
140
1.0
141
0.5
290
     0
  0
SCALE
  5
5E
102
{ACAD_REACTORS
330
52
102
}
330
52
100
AcDbScale
 70
     0
300
1:7.5
140
1.0
141
0.75
290
     0
  0
SCALE
  5
5F
102
{ACAD_REACTORS
330
52
102
}
330
52
100
AcDbScale
 70
     0
300
1:10
140
1.0
141
1.0
290
     1
  0
SCALE
  5
60
102
{ACAD_REACTORS
330
52
102
}
330
52
100
AcDbScale
 70
     0
300
1:20
140
1.0
141
2.0
290
     0
  0
SCALE
  5
61
102
{ACAD_REACTORS
330
52
102
}
330
52
100
AcDbScale
 70
     0
300
1:25
140
1.0
141
2.5
290
     0
  0
SCALE
  5
62
102
{ACAD_REACTORS
330
52
102
}
330
52
100
AcDbScale
 70
     0
300
1:50
140
1.0
141
5.0
290
     0
  0
SCALE
  5
63
102
{ACAD_REACTORS
330
52
102
}
330
52
100
AcDbScale
 70
     0
300
1:75
140
1.0
141
7.5
290
     0
  0
SCALE
  5
64
102
{ACAD_REACTORS
330
52
102
}
330
52
100
AcDbScale
 70
     0
300
1:100
140
1.0
141
10.0
290
     0
  0
SCALE
  5
65
102
{ACAD_REACTORS
330
52
102
}
330
52
100
AcDbScale
 70
     0
300
1:150
140
1.0
141
15.0
290
     0
  0
SCALE
  5
66
102
{ACAD_REACTORS
330
52
102
}
330
52
100
AcDbScale
 70
     0
300
1:200
140
1.0
141
20.0
290
     0
  0
SCALE
  5
67
102
{ACAD_REACTORS
330
52
102
}
330
52
100
AcDbScale
 70
     0
300
1:250
140
1.0
141
25.0
290
     0
  0
SCALE
  5
68
102
{ACAD_REACTORS
330
52
102
}
330
52
100
AcDbScale
 70
     0
300
1:500
140
1.0
141
50.0
290
     0
  0
SCALE
  5
69
102
{ACAD_REACTORS
330
52
102
}
330
52
100
AcDbScale
 70
     0
300
1:750
140
1.0
141
75.0
290
     0
  0
SCALE
  5
6A
102
{ACAD_REACTORS
330
52
102
}
330
52
100
AcDbScale
 70
     0
300
1:1000
140
1.0
141
100.0
290
     0
  0
SCALE
  5
6B
102
{ACAD_REACTORS
330
52
102
}
330
52
100
AcDbScale
 70
     0
300
1:1250
140
1.0
141
125.0
290
     0
  0
SCALE
  5
6C
102
{ACAD_REACTORS
330
52
102
}
330
52
100
AcDbScale
 70
     0
300
1:2000
140
1.0
141
200.0
290
     0
  0
SCALE
  5
6D
102
{ACAD_REACTORS
330
52
102
}
330
52
100
AcDbScale
 70
     0
300
1:2500
140
1.0
141
250.0
290
     0
  0
SCALE
  5
6E
102
{ACAD_REACTORS
330
52
102
}
330
52
100
AcDbScale
 70
     0
300
1:5000
140
1.0
141
500.0
290
     0
  0
TABLESTYLE
  5
57
102
{ACAD_XDICTIONARY
360
126
102
}
102
{ACAD_REACTORS
330
53
102
}
330
53
100
AcDbTableStyle
  3
Standard
 70
     0
 71
     0
 40
0.06
 41
0.06
280
     0
281
     0
  7
Standard
140
0.18
170
     2
 62
     0
 63
     7
283
     0
274
    -2
284
     1
 64
     0
275
    -2
285
     1
 65
     0
276
    -2
286
     1
 66
     0
277
    -2
287
     1
 67
     0
278
    -2
288
     1
 68
     0
279
    -2
289
     1
 69
     0
  7
Standard
140
0.25
170
     5
 62
     0
 63
     7
283
     0
274
    -2
284
     1
 64
     0
275
    -2
285
     1
 65
     0
276
    -2
286
     1
 66
     0
277
    -2
287
     1
 67
     0
278
    -2
288
     1
 68
     0
279
    -2
289
     1
 69
     0
  7
Standard
140
0.18
170
     5
 62
     0
 63
     7
283
     0
274
    -2
284
     1
 64
     0
275
    -2
285
     1
 65
     0
276
    -2
286
     1
 66
     0
277
    -2
287
     1
 67
     0
278
    -2
288
     1
 68
     0
279
    -2
289
     1
 69
     0
  0
VISUALSTYLE
  5
29
102
{ACAD_REACTORS
330
2A
102
}
330
2A
100
AcDbVisualStyle
  2
2dWireframe
 70
     4
 71
     0
 72
     2
 73
     0
 90
        0
 40
-0.6
 41
-30.0
 62
     5
 63
     7
 74
     1
 91
        4
 64
     7
 65
   257
 75
     1
175
     1
 42
1.0
 92
        0
 66
   257
 43
1.0
 76
     1
 77
     6
 78
     2
 67
     7
 79
     5
170
     0
171
     0
290
     0
174
     0
 93
        1
 44
0.0
173
     0
291
     0
 45
0.0
1001
ACAD
1000
AcDbSavedByObjectVersion
1070
     0
  0
VISUALSTYLE
  5
136
102
{ACAD_REACTORS
330
2A
102
}
330
2A
100
AcDbVisualStyle
  2
3D Hidden
 70
     6
 71
     1
 72
     2
 73
     2
 90
        0
 40
-0.6
 41
-30.0
 62
     5
 63
     7
 74
     2
 91
        2
 64
     7
 65
   257
 75
     2
175
     1
 42
40.0
 92
        0
 66
   257
 43
1.0
 76
     1
 77
     6
 78
     2
 67
     7
 79
     3
170
     0
171
     0
290
     0
174
     0
 93
        1
 44
0.0
173
     0
291
     0
 45
0.0
1001
ACAD
1000
AcDbSavedByObjectVersion
1070
     0
  0
VISUALSTYLE
  5
59
102
{ACAD_REACTORS
330
2A
102
}
330
2A
100
AcDbVisualStyle
  2
3dWireframe
 70
     5
 71
     0
 72
     2
 73
     0
 90
        0
 40
-0.6
 41
-30.0
 62
     5
 63
     7
 74
     1
 91
        4
 64
     7
 65
   257
 75
     1
175
     1
 42
1.0
 92
        0
 66
   257
 43
1.0
 76
     1
 77
     6
 78
     2
 67
     7
 79
     5
170
     0
171
     0
290
     0
174
     0
 93
        1
 44
0.0
173
     0
291
     0
 45
0.0
1001
ACAD
1000
AcDbSavedByObjectVersion
1070
     0
  0
VISUALSTYLE
  5
135
102
{ACAD_REACTORS
330
2A
102
}
330
2A
100
AcDbVisualStyle
  2
Basic
 70
     7
 71
     1
 72
     0
 73
     1
 90
        0
 40
-0.6
 41
-30.0
 62
     5
 63
     7
 74
     0
 91
        4
 64
     7
 65
   257
 75
     1
175
     1
 42
1.0
 92
        8
 66
     7
 43
1.0
 76
     1
 77
     6
 78
     2
 67
     7
 79
     5
170
     0
171
     0
290
     0
174
     0
 93
        1
 44
0.0
173
     0
291
     1
 45
0.0
1001
ACAD
1000
AcDbSavedByObjectVersion
1070
     0
  0
VISUALSTYLE
  5
139
102
{ACAD_REACTORS
330
2A
102
}
330
2A
100
AcDbVisualStyle
  2
Brighten
 70
    12
 71
     2
 72
     2
 73
     0
 90
        0
 40
-0.6
 41
-30.0
 62
     5
 63
     7
 74
     1
 91
        4
 64
     7
 65
   257
 75
     1
175
     1
 42
1.0
 92
        8
 66
     7
 43
1.0
 76
     1
 77
     6
 78
     2
 67
     7
 79
     5
170
     0
171
     0
290
     0
174
     0
 93
        1
 44
50.0
173
     0
291
     1
 45
0.0
1001
ACAD
1000
AcDbSavedByObjectVersion
1070
     0
  0
VISUALSTYLE
  5
13D
102
{ACAD_REACTORS
330
2A
102
}
330
2A
100
AcDbVisualStyle
  2
ColorChange
 70
    16
 71
     2
 72
     2
 73
     3
 90
        0
 40
-0.6
 41
-30.0
 62
     5
 63
     8
 74
     1
 91
        4
 64
     7
 65
   257
 75
     1
175
     1
 42
1.0
 92
        8
 66
     8
 43
1.0
 76
     1
 77
     6
 78
     2
 67
     7
 79
     5
170
     0
171
     0
290
     0
174
     0
 93
        1
 44
0.0
173
     0
291
     1
 45
0.0
1001
ACAD
1000
AcDbSavedByObjectVersion
1070
     0
  0
VISUALSTYLE
  5
137
102
{ACAD_REACTORS
330
2A
102
}
330
2A
100
AcDbVisualStyle
  2
Conceptual
 70
     9
 71
     3
 72
     2
 73
     0
 90
        0
 40
-0.6
 41
-30.0
 62
     5
 63
     7
 74
     2
 91
        2
 64
     7
 65
   257
 75
     1
175
     1
 42
40.0
 92
        8
 66
     7
 43
1.0
 76
     1
 77
     6
 78
     2
 67
     7
 79
     3
170
     0
171
     0
290
     0
174
     0
 93
        1
 44
0.0
173
     0
291
     0
 45
0.0
1001
ACAD
1000
AcDbSavedByObjectVersion
1070
     0
  0
VISUALSTYLE
  5
138
102
{ACAD_REACTORS
330
2A
102
}
330
2A
100
AcDbVisualStyle
  2
Dim
 70
    11
 71
     2
 72
     2
 73
     0
 90
        0
 40
-0.6
 41
-30.0
 62
     5
 63
     7
 74
     1
 91
        4
 64
     7
 65
   257
 75
     1
175
     1
 42
1.0
 92
        8
 66
     7
 43
1.0
 76
     1
 77
     6
 78
     2
 67
     7
 79
     5
170
     0
171
     0
290
     0
174
     0
 93
        1
 44
-50.0
173
     0
291
     1
 45
0.0
1001
ACAD
1000
AcDbSavedByObjectVersion
1070
     0
  0
VISUALSTYLE
  5
13C
102
{ACAD_REACTORS
330
2A
102
}
330
2A
100
AcDbVisualStyle
  2
Facepattern
 70
    15
 71
     2
 72
     2
 73
     0
 90
        0
 40
-0.6
 41
-30.0
 62
     5
 63
     7
 74
     1
 91
        4
 64
     7
 65
   257
 75
     1
175
     1
 42
1.0
 92
        8
 66
     7
 43
1.0
 76
     1
 77
     6
 78
     2
 67
     7
 79
     5
170
     0
171
     0
290
     0
174
     0
 93
        1
 44
0.0
173
     0
291
     1
 45
0.0
1001
ACAD
1000
AcDbSavedByObjectVersion
1070
     0
  0
VISUALSTYLE
  5
131
102
{ACAD_REACTORS
330
2A
102
}
330
2A
100
AcDbVisualStyle
  2
Flat
 70
     0
 71
     2
 72
     1
 73
     1
 90
        2
 40
-0.6
 41
30.0
 62
     5
 63
     7
 74
     0
 91
        4
 64
     7
 65
   257
 75
     1
175
     1
 42
1.0
 92
        8
 66
     7
 43
1.0
 76
     1
 77
     6
 78
     2
 67
     7
 79
     5
170
     0
171
     0
290
     0
174
     0
 93
       13
 44
0.0
173
     0
291
     1
 45
0.0
1001
ACAD
1000
AcDbSavedByObjectVersion
1070
     0
  0
VISUALSTYLE
  5
132
102
{ACAD_REACTORS
330
2A
102
}
330
2A
100
AcDbVisualStyle
  2
FlatWithEdges
 70
     1
 71
     2
 72
     1
 73
     1
 90
        2
 40
-0.6
 41
30.0
 62
     5
 63
     7
 74
     1
 91
        4
 64
     7
 65
   257
 75
     1
175
     1
 42
1.0
 92
        0
 66
   257
 43
1.0
 76
     1
 77
     6
 78
     2
 67
     7
 79
     5
170
     0
171
     0
290
     0
174
     0
 93
       13
 44
0.0
173
     0
291
     1
 45
0.0
1001
ACAD
1000
AcDbSavedByObjectVersion
1070
     0
  0
VISUALSTYLE
  5
133
102
{ACAD_REACTORS
330
2A
102
}
330
2A
100
AcDbVisualStyle
  2
Gouraud
 70
     2
 71
     2
 72
     2
 73
     1
 90
        2
 40
-0.6
 41
30.0
 62
     5
 63
     7
 74
     0
 91
        4
 64
     7
 65
   257
 75
     1
175
     1
 42
1.0
 92
        0
 66
     7
 43
1.0
 76
     1
 77
     6
 78
     2
 67
     7
 79
     5
170
     0
171
     0
290
     0
174
     0
 93
       13
 44
0.0
173
     0
291
     1
 45
0.0
1001
ACAD
1000
AcDbSavedByObjectVersion
1070
     0
  0
VISUALSTYLE
  5
134
102
{ACAD_REACTORS
330
2A
102
}
330
2A
100
AcDbVisualStyle
  2
GouraudWithEdges
 70
     3
 71
     2
 72
     2
 73
     1
 90
        2
 40
-0.6
 41
30.0
 62
     5
 63
     7
 74
     1
 91
        4
 64
     7
 65
   257
 75
     1
175
     1
 42
1.0
 92
        0
 66
   257
 43
1.0
 76
     1
 77
     6
 78
     2
 67
     7
 79
     5
170
     0
171
     0
290
     0
174
     0
 93
       13
 44
0.0
173
     0
291
     1
 45
0.0
1001
ACAD
1000
AcDbSavedByObjectVersion
1070
     0
  0
VISUALSTYLE
  5
13B
102
{ACAD_REACTORS
330
2A
102
}
330
2A
100
AcDbVisualStyle
  2
Linepattern
 70
    14
 71
     2
 72
     2
 73
     0
 90
        0
 40
-0.6
 41
-30.0
 62
     5
 63
     7
 74
     1
 91
        4
 64
     7
 65
   257
 75
     7
175
     7
 42
1.0
 92
        8
 66
     7
 43
1.0
 76
     1
 77
     6
 78
     2
 67
     7
 79
     5
170
     0
171
     0
290
     0
174
     0
 93
        1
 44
0.0
173
     0
291
     1
 45
0.0
1001
ACAD
1000
AcDbSavedByObjectVersion
1070
     0
  0
VISUALSTYLE
  5
58
102
{ACAD_REACTORS
330
2A
102
}
330
2A
100
AcDbVisualStyle
  2
Realistic
 70
     8
 71
     2
 72
     2
 73
     0
 90
        0
 40
-0.6
 41
-30.0
 62
     5
 63
     7
 74
     1
 91
        0
 64
     7
 65
   257
 75
     1
175
     1
 42
1.0
 92
        8
 66
     8
 43
1.0
 76
     1
 77
     6
 78
     2
 67
     7
 79
     5
170
     0
171
     0
290
     0
174
     0
 93
       13
 44
0.0
173
     0
291
     0
 45
0.0
1001
ACAD
1000
AcDbSavedByObjectVersion
1070
     0
  0
VISUALSTYLE
  5
13A
102
{ACAD_REACTORS
330
2A
102
}
330
2A
100
AcDbVisualStyle
  2
Thicken
 70
    13
 71
     2
 72
     2
 73
     0
 90
        0
 40
-0.6
 41
-30.0
 62
     5
 63
     7
 74
     1
 91
        4
 64
     7
 65
   257
 75
     1
175
     1
 42
1.0
 92
       12
 66
     7
 43
1.0
 76
     1
 77
     6
 78
     2
 67
     7
 79
     5
170
     0
171
     0
290
     0
174
     0
 93
        1
 44
0.0
173
     0
291
     1
 45
0.0
1001
ACAD
1000
AcDbSavedByObjectVersion
1070
     0
  0
DICTIONARYVAR
  5
12C
102
{ACAD_REACTORS
330
129
102
}
330
129
100
DictionaryVariables
280
     0
  1
1:100
  0
DICTIONARYVAR
  5
12B
102
{ACAD_REACTORS
330
129
102
}
330
129
100
DictionaryVariables
280
     0
  1
STANDARD
  0
DICTIONARYVAR
  5
12A
102
{ACAD_REACTORS
330
129
102
}
330
129
100
DictionaryVariables
280
     0
  1
STANDARD
  0
DICTIONARYVAR
  5
3B3
102
{ACAD_REACTORS
330
129
102
}
330
129
100
DictionaryVariables
280
     0
  1
2
  0
DICTIONARYVAR
  5
3B2
102
{ACAD_REACTORS
330
129
102
}
330
129
100
DictionaryVariables
280
     0
  1
1
  0
DICTIONARYVAR
  5
3B1
102
{ACAD_REACTORS
330
129
102
}
330
129
100
DictionaryVariables
280
     0
  1
0
  0
DICTIONARYVAR
  5
12E
102
{ACAD_REACTORS
330
129
102
}
330
129
100
DictionaryVariables
280
     0
  1
1
  0
DICTIONARYVAR
  5
12F
102
{ACAD_REACTORS
330
129
102
}
330
129
100
DictionaryVariables
280
     0
  1
15
  0
DICTIONARYVAR
  5
12D
102
{ACAD_REACTORS
330
129
102
}
330
129
100
DictionaryVariables
280
     0
  1
0
  0
DICTIONARYVAR
  5
3AF
102
{ACAD_REACTORS
330
129
102
}
330
129
100
DictionaryVariables
280
     0
  1
1
  0
DICTIONARYVAR
  5
3B0
102
{ACAD_REACTORS
330
129
102
}
330
129
100
DictionaryVariables
280
     0
  1
127
  0
XRECORD
  5
125
102
{ACAD_REACTORS
330
123
102
}
330
123
100
AcDbXrecord
280
     1
330
313
330
314
330
338
330
339
330
34C
330
34D
330
360
330
361
330
374
330
375
330
388
330
389
330
39C
330
39D
330
6FF
330
700
330
706
330
707
330
70D
330
70E
330
714
330
715
330
71D
330
71E
330
724
330
725
330
72B
330
72C
330
732
330
733
330
759
330
75A
330
762
330
763
330
769
330
76A
330
770
330
771
330
777
330
778
330
73E
330
73F
330
748
330
749
330
752
330
753
  0
XRECORD
  5
781
102
{ACAD_REACTORS
330
3A7
102
}
330
3A7
100
AcDbXrecord
280
     1
 40
0.000001
  0
XRECORD
  5
784
102
{ACAD_REACTORS
330
3A7
102
}
330
3A7
100
AcDbXrecord
280
     1
 70
     0
  0
XRECORD
  5
783
102
{ACAD_REACTORS
330
3A7
102
}
330
3A7
100
AcDbXrecord
280
     1
 70
     0
  0
XRECORD
  5
782
102
{ACAD_REACTORS
330
3A7
102
}
330
3A7
100
AcDbXrecord
280
     1
 70
     0
  0
DICTIONARY
  5
78D
330
F
100
AcDbDictionary
280
     1
281
     1
  3
ACAD_XREC_ROUNDTRIP
360
78E
  0
DICTIONARY
  5
16
330
15
100
AcDbDictionary
280
     1
281
     1
  3
ACAD_XREC_ROUNDTRIP
360
78F
  3
ADSK_XREC_LAYOUTTHUMBNAIL
360
17
  0
DICTIONARY
  5
792
330
50
100
AcDbDictionary
280
     1
281
     1
  3
ACAD_XREC_ROUNDTRIP
360
793
  0
DICTIONARY
  5
790
330
4F
100
AcDbDictionary
280
     1
281
     1
  3
ACAD_XREC_ROUNDTRIP
360
791
  0
DICTIONARY
  5
78B
330
A
100
AcDbDictionary
280
     1
281
     1
  3
ACAD_XREC_ROUNDTRIP
360
78C
  0
DICTIONARY
  5
126
330
57
100
AcDbDictionary
280
     1
281
     1
  3
ACAD_ROUNDTRIP_2008_TABLESTYLE_CELLSTYLEMAP
360
789
  3
ACAD_XREC_ROUNDTRIP
360
794
  0
XRECORD
  5
78E
102
{ACAD_REACTORS
330
78D
102
}
330
78D
100
AcDbXrecord
280
     1
102
SHADEPLOT
 70
     1
102
SHADEPLOTRESLEVEL
 70
     2
102
SHADEPLOTCUSTOMDPI
 70
   300
  0
XRECORD
  5
78F
102
{ACAD_REACTORS
330
16
102
}
330
16
100
AcDbXrecord
280
     1
102
SHADEPLOT
 70
     1
102
SHADEPLOTRESLEVEL
 70
     4
102
SHADEPLOTCUSTOMDPI
 70
   600
  0
XRECORD
  5
17
102
{ACAD_REACTORS
330
16
102
}
330
16
100
AcDbXrecord
280
     1
310
28000000620000008C0000000100080000000000B0360000000000000000000000010000000000000000000000000000FFFFFF000000000000000000000000000000000000000000000000000000000000000000330000006600000099000000CC000000FF00000000330000333300006633000099330000CC330000FF3300
310
0000660000336600006666000099660000CC660000FF66000000990000339900006699000099990000CC990000FF99000000CC000033CC000066CC000099CC0000CCCC0000FFCC000000FF000033FF000066FF000099FF0000CCFF0000FFFF000000003300330033006600330099003300CC003300FF003300003333003333
310
33006633330099333300CC333300FF33330000663300336633006666330099663300CC663300FF66330000993300339933006699330099993300CC993300FF99330000CC330033CC330066CC330099CC3300CCCC3300FFCC330000FF330033FF330066FF330099FF3300CCFF3300FFFF330000006600330066006600660099
310
006600CC006600FF00660000336600333366006633660099336600CC336600FF33660000666600336666006666660099666600CC666600FF66660000996600339966006699660099996600CC996600FF99660000CC660033CC660066CC660099CC6600CCCC6600FFCC660000FF660033FF660066FF660099FF6600CCFF6600
310
FFFF660000009900330099006600990099009900CC009900FF00990000339900333399006633990099339900CC339900FF33990000669900336699006666990099669900CC669900FF66990000999900339999006699990099999900CC999900FF99990000CC990033CC990066CC990099CC9900CCCC9900FFCC990000FF99
310
0033FF990066FF990099FF9900CCFF9900FFFF99000000CC003300CC006600CC009900CC00CC00CC00FF00CC000033CC003333CC006633CC009933CC00CC33CC00FF33CC000066CC003366CC006666CC009966CC00CC66CC00FF66CC000099CC003399CC006699CC009999CC00CC99CC00FF99CC0000CCCC0033CCCC0066CC
310
CC0099CCCC00CCCCCC00FFCCCC0000FFCC0033FFCC0066FFCC0099FFCC00CCFFCC00FFFFCC000000FF003300FF006600FF009900FF00CC00FF00FF00FF000033FF003333FF006633FF009933FF00CC33FF00FF33FF000066FF003366FF006666FF009966FF00CC66FF00FF66FF000099FF003399FF006699FF009999FF00CC
310
99FF00FF99FF0000CCFF0033CCFF0066CCFF0099CCFF00CCCCFF00FFCCFF0000FFFF0033FFFF0066FFFF0099FFFF00CCFFFF00FFFFFF00000000000D0D0D001A1A1A00282828003535350043434300505050005D5D5D006B6B6B00787878008686860093939300A1A1A100AEAEAE00BBBBBB00C9C9C900D6D6D600E4E4E400
310
F1F1F100FFFFFF0000000000000000000000000000000000000000000000000000000000000000000000000000000000F5F5F5F5F5F5F5F5F5F5F5F5F5F5F5F5F5F5F5F5F5F5F5F5F5F5F5F5F5F5F5F5F5F5F5F5F5F5F5F5F5F5F5F5F5F5F5F5F5F5F5F5F5F5F5F5F5F5F5F5F5F5F5F5F5F5F5F5F5F5F5F5F5F5F5F5F5F5F5
310
F5F5F5F5F5F5F5F5F5F5F5F5F5F5F5F5F5F5F50000F5E2E2E2E2E2E2E2E2E2E2E2E2E2E2E2E2E2E2E2E2E2E2E2E2E2E2E2E2E2E2E2E2E2E2E2E2E2E2E2E2E2E2E2E2E2E2E2E2E2E2E2E2E2E2E2E2E2E2E2E2E2E2E2E2E2E2E2E2E2E2E2E2E2E2E2E2E2E2E2E2E2E2E2E2E2E2E2E2E2E2E2E2E2E2E2E2F50000F5E2E2E2E2E2
310
E2E2E2E2E2E2E2E2E2E2E2E2E2E2E2E2E2E2E2E2E2E2E2E2E2E2E2E2E2E2E2E2E2E2E2E2E2E2E2E2E2E2E2E2E2E2E2E2E2E2E2E2E2E2E2E2E2E2E2E2E2E2E2E2E2E2E2E2E2E2E2E2E2E2E2E2E2E2E2E2E2E2E2E2E2E2E2E2E2E2E2F50000F5E2E2F5F5F5F5F5F5F5F5E2E2E2E2E2E2E2E2F5F5F5F5F5F5F5F5F5F5F5F5F5F5
310
F5E2E2E2E2E2E2E2E2F5F5F5F5F5F5F5F5F5F5F5F5F5F5E2E2E2E2E2E2E2E2F5F5F5F5F5F5F5F5F5F5F5F5F5F5F5E2E2E2E2E2E2E2E2F5F5F5F5F5F5F5F5E2E2F50000F5E2E2F5E2E2E2E2E2E2E2E2E2E2E2E2E2E2E2E2E2E2E2E2E2E2E2E2E2E2E2E2E2E2E2E2E2E2E2E2E2E2E2E2E2E2E2E2E2E2E2E2E2E2E2E2E2E2E2E2
310
E2E2E2E2E2E2E2E2E2E2E2E2E2E2E2E2E2E2E2E2E2E2E2E2E2E2E2E2E2E2E2E2E2E2F5E2E2F50000F5E2E2F5E2E2E2E2E2E2E2E2E2E2E2E2E2E2E2E2E2E2E2E2E2E2E2E2E2E2E2E2E2E2E2E2E2E2E2E2E2E2E2E2E2E2E2E2E2E2E2E2E2E2E2E2E2E2E2E2E2E2E2E2E2E2E2E2E2E2E2E2E2E2E2E2E2E2E2E2E2E2E2E2E2E2E2
310
E2E2E2E2E2E2E2F5E2E2F50000F5E2E2F5E2E2E2E2E2E2E2E2E2E2E2E2E2E2E2E2E2E2E2E2E2E2E2E2E2E2E2E2E2E2E2E2E2E2E2E2E2272727272727272727E2E22727272727272727E2E2E2E2E2E2E2E2E2E2E2E2E2E2E2E2E2E2E2E2E2E2E2E2E2E2E2E2E2E2E2E2E227F5E2E2F50000F5E2E2F5E2E2E2E2E2E2E2E2E2E2
310
E2E2E2E2E2E2E2E2E2E2E2E2E2E2E2E2E2E2E2E2E2E2E2E2E2E2E2272727272727272727E2E22727272727272727E2E2E2E2E2E2E2E2E2E2E2E2E2E2E2E2E2E2E2E2E2E2E2E2E2E2E2E2E2E2E2E2E227F5E2E2F50000F5E2E2F5E2E2E2E2E2E2E2E2E2E2E2E2E2E2E2E2E2E2E2E2E2E2E2E2E2E2E2E2E2E2E2E2E2E2E2E2E2
310
E2E2E2E22727272727E227272727E2E2E2E2E2E2E2E2E2E2E2E2E2E2E2E2E2E2E2E2E2E2E2E2E2E2E2E2E2E2E2E2E2E2E2E2E2E227F5E2E2F50000F5E2E2F5E2E2E2E2E2E2E2E2E2E2E2E2E2E2E2E2E2E2E2E2E2E2E2E2E2E2E2E2E2E2E2E2E2E2E2E2E2E22727272727272727E22727272727272727272727E2E2E2E2E2E2
310
E2E2E2E2E2E2E2E2E2E2E2E2E2E2E2E2E2E2E2E2E2E2E2E2E227F5E2E2F50000F5E2E2F5E2E2E2E2E2E2E2E2E2E2E2E2E2E2E2E2E2E2E2E2E2E2E2E2E2E2E2E2E2E2E2E2E2E2E2E2E2E2E2E2E2E2E2E2E2E2E2E2E2E2E2E2E2E2E2E2E2E2E2E2E2E2E2E2E2E2E2E2E2E2E2E2E2E2E2E2E2E2E2E2E2E2E2E2E2E2E2E2E227F5
310
E2E2F50000F5E2E2F5E2E2E2E2E2E2E2E2E2E2E2E2E2E2E2E2E2E2E2E2E2E2E2E2E2E2E2E2E2E2E2E2E2E2E2E2E2E2202020202020202020202020202020202020202020202020202020202020202020202020202020202020202020202020E2E2E227F5E2E2F50000F5E2E2E2E2E2E2E2E2E2E2E2E2E2E2E2E2E2E2E2E2E2
310
E2E2E2E2E2E2E2E2E2E2E2E2E2E2E2E2E2E2E2E22027272727272727E2E220E2E2E2E2E2E2E2E22027272727272727E220E2E2E2E2E2E2E2E220E2E2E2E2E2E2E2E2E220E2E2E227E2E2E2F50000F5E2E2E2E2E2E2E2E2E2E2E2E2E2E2E2E2E2E2E2E2E2E2E2E2E2E2E2E2E2E2E2E2E2E2E2E2E2E2E2E2E220202020202020
310
2020202020202020202020202020202020202020202020202020202020202020202020202020202020E2E2E227E2E2E2F50000F5E2E2E2E2E2E2E2E2E2E2E2E2E2E2E2E2E2E2E2E2E2E2E2E2E2E2E2E2E2E2E2E2E2E2E2E2E2E2E2E2E220E2E2E2E2E2E2E2E2E220E2E2E2E2E2E2E2E220E2E2E2E2E2E2E2E2202727272727
310
27272720E2E2E2E2E2E2E2E2E220E2E2E227E2E2E2F50000F5E2E2E2E2E2E2E2E2E2E2E2E2E2E2E2E2E2E2E2E2E2E2E2E2E2E2E2E2E2E2E2E2E2E2E2E2E2E2E2E2E2202020202020202020202020202020202020202020202020202020202020202020202020202020202020202020202020E2E2E227E2E2E2F50000F5E2E2
310
E2E2E2E2E2E2E2E2E2E2E2E2E2E2E2E2E2E2E2E2E2E2E2E2E2E2E2E2E2E2E2E2E2E2E2E2E2E2E2202020202020202020202020202020202020202020202020202020202020202020202020202020202020202020202020E2E2E227E2E2E2F50000F5E2E2E2E2E2E2E2E2E2E2E2E2E2E2E2E2E2E2E2E2E2E2E2E2E2E2E2E2E2
310
E2E2E2E2E2E2E2E2E2E2E2E22027272727272727E2E220E2E2E2E2E2E2E2E220E2E2E2E2E2E2E2E220272727272727272720E2E2E2E2E2E2E2E2E220E2E2E227E2E2E2F50000F5E2E2E2E2E2E2E2E2E2E2E2E2E2E2E2E2E2E2E2E2E2E2E2E2E2E2E2E2E2E2E2E2E2E2E2E2E2E2E2E2E2202020202020202020202020202020
310
202020202020202020202020202020202020202020202020202020202020202020E2E2E227E2E2E2F50000F5E2E2E2E2E2E2E2E2E2E2E2E2E2E2E2E2E2E2E2E2E2E2E2E2E2E2E2E2E2E2E2E2E2E2E2E2E2E2E2E2E220E2E2E2E2E2E2E2E2E220E2E2E2E2E2E2E2E220E2E2E2E2E2E2E2E220E2E2E2E2E2E2E2E220E2E2E2E2
310
E2E2E2E2E220E2E2E227E2E2E2F50000F5E2E2E2E2E2E2E2E2E2E2E2E2E2E2E2E2E2E2E2E2E2E2E2E2E2E2E2E2E2E2E2E2E2E2E2E2E2E2E2E2E2202020202020202020202020202020202020202020202020202020202020202020202020202020202020202020202020E2E2E227E2E2E2F50000F5E2E2F5E2E2E2E2E2E2E2
310
E2E2E2E2E2E2E2E2E2E2E2E2E2E2E2E2E2E2E2E2E2E2E2E2E2E2E2E2E2E2E2202020202020202020202020202020202020202020202020202020202020202020202020202020202020202020202020E2E2E227F5E2E2F50000F5E2E2F5E2E2E2E2E2E2E2E2E2E2E2E2E2E2E2E2E2E2E2E2E2E2E2E2E2E2E2E2E2E2E2E2E2E2
310
E2E2E2E2202727E2E2E2E2E2E2E220E2E2E2E2E2E2E2E22027272727272727E220272727272727272720E2E2E2E2E2E2E2E2E220E2E2E227F5E2E2F50000F5E2E2F5E2E2E2E2E2E2E2E2E2E2E2E2E2E2E2E2E2E2E2E2E2E2E2E2E2E2E2E2E2E2E2E2E2E2E2E2E2E22020202020202020202020202020202020202020202020
310
20202020202020202020202020202020202020202020202020E2E2E227F5E2E2F50000F5E2E2F5E2E2E2E2E2E2E2E2E2E2E2E2E2E2E2E2E2E2E2E2E2E2E2E2E2E2E2E2E2E2E2E2E2E2E2E2E2E2E2E2E2E2E2E2E2E2E2E22020202020202020202020202020202020202020202020202020202020202020202020202020E2E2
310
E227F5E2E2F50000F2F2F2F21D1D1D1D1DF21D1D1DF21D1D1D1D1D1DF21D1D1D1D1DF21D1D1D1D1D1D1D1DF21D1D1D1D1D1D1D1DF21D1D1D1D1D1D1DF2F2F2F2F2F2F2F2F2F2F2F2F2F2F2F2F2F2F2F2F2F2F2F2F2F2F2F2F2F2F2F2F2F2F2F2F2F2F2F2F227F2F2E2F50000F5E2E2F51D1D1D1D1DE21D1D1D1D1D1D1D1D1D
310
1DE21D1D1D1D1DE21D1D1D1D1D1D1D1D1D1D1D1D1D1D1D1D1DE21D1D1D1D1D1D1DE2E2E2E2E2E2E2E2E2E2E2E2E2E2E2E2E2E2E2E2E2E2E2E2E2E2E2E2E2E2E2E2E2E2E2E2E2E2E2E2E227F5F2E2F50000F5E2E2F5E2E2E2E2E2E2E21DE2E2E2E2E2E2E2E2E2E2E2E2E2E2E2E2E2E2E2E2E2E2E2E2E2E2E2E2E2E2E21DE2E2
310
E2E2E2E2E2E2E2E2E2E2E2E2E2E2E2E2E2E2E2E2E2E2E2E2E2E2E2E2E2E2E2E2E2E2E2E2E2E2E2E2E2E2E2E2E2E2E227F5F2E2F50000F5E2E2F5E2E2E2E2E2E2E2E2E2E2E2E2E2E2E2E2777777777777777777777777777777777777777777C3C3C3C37777C3C3C3C377E2E2E2E2E2E2E2E2E2E2E2E2E2E2E2E2E2E2E2E2E2
310
E2E2E2E2E2E2E2E2E2E2E2E2E2E2E2E2E2E2E2E227F5F2E2F50000F5E2E2F5E2E2E2E2E2E2E2E2E2E2E2E2E2E2E2E29C9C9C9C9C9C9C9C9C9C9C9C9C9C9C9C9C9C9C9C9C9C9C9C9C9C9C9C9C9C9C9CE2E2E2E2E2E2E2E2E2E2E2E2E2E2E2E2E2E2E2E2E2E2E2E2E2E2E2E2E2E2E2E2E2E2E2E2E2E2E2E2E227F5F2E2F50000
310
F5E2E2F5E2E2E2E2E2E2E2E2E2E2E2E2E2E2E2E277C3C3C39CC3C3E2E2E2E29CC3C3C3C3E29CE2E2E2C3C3C39CE2E2E2C3C3C377E2E2E2E2E2E2E2E2E2E2E2E2E2E2E2E2E2E2E2E2E2E2E2E2E2E2E2E2E2E2E2E2E2E2E2E2E2E2E2E2E227F5F2E2F50000F5E2E2F5E2E2E2E2E2E2E2E2E2E2E2E2E2E2E2E277C3C3C39CC3C3
310
C3E2E2E29CC3C3C3C3C39CE2E2E2E2C3C39CE2E2E2C3C3C377E2E2E2E2E2E2E2E2E2E2E2E2E2E2E2E2E2E2E2E2E2E2E2E2E2E2E2E2E2E2E2E2E2E2E2E2E2E2E2E2E227F5F2E2F50000F5E2E2F5E2E2E2E2E2E2E2E2E2E2E2E2E2E2E2E277C3C3C39CC3C3C3E2E2E29CC3C3C3C3C39CE2E2E2E2C3C39CE2E2E2C3C3C377E2E2
310
E2E2E2E2E2E2E2E2E2E2E2E2E2E2E2E2E2E2E2E2E2E2E2E2E2E2E2E2E2E2E2E2E2E2E2E2E2E2E227F5F2E2F50000F5E2E2F5E2E2E2E2E2E2E2E2E2E2E2E2E2E2E2E277C3C3C39CC3C3C3C3E2E29CC3C3C3C3E29CE2E2E2E2C3C39CE2E2E2C3C3C377E2E2E2E2E2E2E2E2E2E2E2E2E2E2E2E2E2E2E2E2E2E2E2E2E2E2E2E2E2
310
E2E2E2E2E2E2E2E2E2E2E2E227F5F2E2F50000F5E2E2F5E2E2E2E2E2E2E2E2E2E2E2E2E2E2E2E277C3C3C39CC3C3C3E2E2E29CC3C3C3C3C39CE2E2E2E2C3C39CE2E2E2C3C3C377E2E2E2E2E2E2E2E2E2E2E2E2E2E2E2E2E2E2E2E2E2E2E2E2E2E2E2E2E2E2E2E2E2E2E2E2E2E2E2E2E227F5F2E2F50000F5E2E2F5E2E2E2E2
310
E2E2E2E2E2E2E2E2E2E2E2E277C3C3C39CC3C3C3E2E2E29CC3C3C3C3C39CE2E2E2E2C3C39CE2E2E2C3C3C377E2E2E2E2E2E2E2E2E2E2E2E2E2E2E2E2E2E2E2E2E2E2E2E2E2E2E2E2E2E2E2E2E2E2E2E2E2E2E2E2E227F5F2E2F50000F5E2E2F5E2E2E2E2E2E2E2E2E2E2E2E2E2E2E2E277C3C3E29CC3C3E2E2E2E29CC3C3C3
310
C3C39CE2E2E2E2C3C39CE2E2E2C3C3C377E2E2E2E2E2E2E2E2E2E2E2E2E2E2E2E2E2E2E2E2E2E2E2E2E2E2E2E2E2E2E2E2E2E2E2E2E2E2E2E2E227F5F2E2F50000F5E2E2F5E2E2E2E2E2E2E2E2E2E2E2E2E2E2E2E277C3C3C39CC3C3C3C3C3C39CC3C3C3C3C39CE2E2E2C3C3C39CE2E2E2C3C3C377E2E2E2E2E2E2E2E2E2E2
310
E2E2E2E2E2E2E2E2E2E2E2E2E2E2E2E2E2E2E2E2E2E2E2E2E2E2E2E2E2E2E2E2F5F2E2F50000F5E2E2E2E2E2E2E2E2E2E2E2E2E2E2E2E2E2E2E277C3C3C39CC3C3C3C3C3C39CC3C3C3C3C39CE2E2E2C3C3C39CE2E2E2C3C3C377E2E2E2E2E2E2E2E2E2E2E2E2E2E2E2E2E2E2E2E2E2E2E2E2E2E2E2E2E2E2E2E2E2E2E2E2E2
310
E2E2E2E2E2E2F2E2F50000F5E2E2E2E2E2E2E2E2E2E2E2E2E2E2E2E2E2E2E277C3C3C39CC3C3C3E2E2E29CC3C3C3C3E29CE2E2E2E2C3C39CE2E2E2C3C3C377E2E2E2E2E2E2E2E2E2E2E2E2E2E2E2E2E2E2E2E2E2E2E2E2E2E2E2E2E2E2E2E2E2E2E2E2E2E2E2E2E2E2E2F2E2F50000F5E2E2E2E2E2E2E2E2E2E2E2E2E2E2E2
310
E2E2E2E277C3C3C39CC3C3C3C3E2E29CC3C3C3C3E29CE2E2E2E2C3C39CE2E2E2C3C3C377E2E2E2E2E2E2E2E2E2E2E2E2E2E2E2E2E2E2E2E2E2E2E2E2E2E2E2E2E2E2E2E2E2E2E2E2E2E2E2E2E2E2E2F2E2F50000F5E2E2E2E2E2E2E2E2E2E2E2E2E2E2E2E2E2E2E277C3C3C39CC3C3C3C3E2E29CC3C3C3C3E29CE2E2E2E2C3
310
C39CE2E2E2C3C3C377E2E2E2E2E2E2E2E2E2E2E2E2E2E2E2E2E2E2E2E2E2E2E2E2E2E2E2E2E2E2E2E2E2E2E2E2E2E2E2E2E2E2E2F2E2F50000F5E2E2E2E2E2E2E2E2E2E2E2E2E2E2E2E2E2E2E277C3C3C39CC3E2E2E2E2E29CC3C3C3C3C39CE2E2E2E2C3C39CE2E2E2C3C3C377E2E2E2E2E2E2E2E2E2E2E2E2E2E2E2E2E2E2
310
E2E2E2E2E2E2E2E2E2E2E2E2E2E2E2E2E2E2E2E2E2E2E2E2E2F2E2F50000F5E2E2E2E2E2E2E2E2E2E2E2E2E2E2E2E2E2E2E277C3C3C39CC3C3C3C3E2E29CC3C3C3C3C39CE2E2E2E2C3C39CE2E2E2C3C3C377E2E2E2E2E2E2E2E2E2E2E2E2E2E2E2E2E2E2E2E2E2E2E2E2E2E2E2E2E2E2E2E2E2E2E2E2E2E2E2E2E2E2E2F2E2
310
F50000F5E2E2E2E2E2E2E2E2E2E2E2E2E2E2E2E2E2E2E277C3C3C39CC3C3C3C3E2E29CC3C3C3C3E29CE2E2E2E2C3C39CE2E2E2C3C3C377E2E2E2E2E2E2E2E2E2E2E2E2E2E2E2E2E2E2E2E2E2E2E2E2E2E2E2E2E2E2E2E2E2E2E2E2E2E2E2E2E2E2E2F2E2F50000F5E2E2E2E2E2E2E2E2E2E2E2E2E2E2E2E2E2E2E277C3C3C3
310
9CC3C3C3C3E2E29CC3C3C3C3C39CE2E2E2E2C3C39CE2E2E2C3C3C377E2E2E2E2E2E2E2E2E2E2E2E2E2E2E2E2E2E2E2E2E2E2E2E2E2E2E2E2E2E2E2E2E2E2E2E2E2E2E2E2E2E2E2F2E2F50000F5E2E2E2E2E2E2E2E2E2E2E2E2E2E2E2E2E2E2E29CC3C3C39CC3C3C3C39C9C9C9C9CC39CC39C9C9C9C9CC3C39C9C9C9CC3C3C3
310
9CE2E2E2E2E2E2E2E2E2E2E2E2E2E2E2E2E2E2E2E2E2E2E2E2E2E2E2E2E2E2E2E2E2E2E2E2E2E2E2E2E2E2E2F2E2F50000F5E2E2E2E2E2E2E2E2E2E2E2E2E2E2E2E2E2E2E277E2E2E2ABABABABABABAB9CABABABABE29CABABABABABABABABABABABABAB77E2E2E2E2E2E2E2E2E2E2E2E2E2E2E2E2E2E2E2E2E2E2E2E2E2E2
310
E2E2E2E2E2E2E2E2E2E2E2E2E2E2E2E2E2F2E2F50000F5E2E2F5E2E2E2E2E2E2E2E2E2E2E2E2E2E2E2E29C9C9C9C9C9C9C9C9C9C9C9C9C9C9C9C9C9C9C9C9C9C9C9C9C9C9C9C9C9C9C9CE2E2E2E2E2E2E2E2E2E2E2E2E2E2E2E2E2E2E2E2E2E2E2E2E2E2E2E2E2E2E2E2E2E2E2E2E2E2E2E2E2E2F5F2E2F50000F5E2E2F5E2
310
E2E2E2E2E2E2E2E2E2E2E2E2E2E2E277A9A9A9A9777777A977A9A97777A97777A97777777777777777777777777777E2E2E2E2E2E2E2E2E2E2E2E2E2E2E2E2E2E2E2E2E2E2E2E2E2E2E2E2E2E2E2E2E2E2E2E2E2E2E2E2E2E2F5F2E2F50000F5E2E2F5E2E2E2E2E2E2E2E2E2E2E2E2E2E2E2E2E2E2E2E2E2E2E2E2E2E2E2E2
310
E2E2E2E2E2E2E2E2E2E2E2E2E2E2E2E2E2E2E2E2E2E2E2E2E2E2E2E2E2E2E2E2E2E2E2E2E2E2E2E2E2E2E2E2E2E2E2E2E2E2E2E2E2E2E2E2E2E2E2E2E2E2F5F2E2F50000F5E2E2F5E2E2E2E2E2E2E2E2E2E2E2E2E2E2E2E2E2E2E2E2E2E2E2E2E2E2E2E2E2E2E2E2E2E2E2E2E2E2E2E2E2E2E2E2E2E2E2E2E2E2E2E2E2E2E2
310
E2E2E2E2E2E2E2E2E2E2E2E2E2E2E2E2E2E2E2E2E2E2E2E2E2E2E2E2E2E2E2E2E2E2E2F5F2E2F50000F5E2E2F5E2E2E2E2E2E2E2E2E2E2E2E2E2E2E2E2E2E2E2E2E2E2E2E2E2E2E2E2E2E2E2E2E2E2E2E2E2E2E2E2E2E2E2C3C3C3C3C3C3C3C3C3C3C3C3C3C3C3C3C3C3C3C3C3C3C3C3C3C3C3C3C3C3C3C3C3C3C3C3C3C3C3
310
C3C3C3C3C3E2E2E2F5F2E2F50000F5E2E2F5E2E2E2E2E2E2E2E2E2E2E2E2E2E2E2E2E2E2E2E2E2E2E2E2E2E2E2E2E2E2E2E2E2E2E2E2E2E2E2E2E2E2E2C3C3C3C3C3C3C3C3C3C3C3C3C3C3C3C3C3C3C3C3C3C3C3C3E2C3C3C3E2E2E2E2E2D6D6E2E2E2E2E2C3C3E2C3E2E2E2F5F2E2F50000F5E2E2F5E2E2E2E2E2E2E2E2E2
310
E2E2E2E2E2E2E2E2E2E2E2E2E2E2E2E2E2E2E2E2E2E2E2E2E2E2E2E2E2E2E2E2E2E2C3C3E2E2E2E2BEE2E2E2E2E2E2E2E2E2E2E2E2E2E2E2C3C3E2E2E2E2C3C3E2E2D6D6D6D6E2E2C3C3E2E2E2C3E2E2E2F5F2E2F50000F5E2E2F5E2E2E2E2E2E2E2E2E2E2E2E2E2E2E2E2E2E2E2E2E2E2E2E2E2E2E2E2E2E2E2E2E2E2E2E2
310
E2BEBEE2E2E2E2C3C3E2E2E2E227272727E2E2E2E2E2E2E2E2E2E2E2E2C3C3E2E2E2E2E2E2C3C3D6D6D6D6C3C3E2E2E2E2E2C3E2E2E2F5F2E2F50000F5E2E2F5E2E2E2E2E2E2E2E2E2E2E2E2E2E2E2E2E2E2E2E2E2E2E2E2E2E2E2E2E2E2E2E2E2E2E2E2E2E227272727E2C3C3BEBEBEBED6D6D6BEBEBEBEBEBEBEBE727222
310
BEBEC3F5F5F5F5BEBEBEBEBEBED6D6D6BEBEBEBEBEF5F5F5E2E2E2F5F2E2F50000F5E2E2F5E2E2E2E2E2E2E2E2E2E2E2E2E2E2E2E2E2E2E2E2E2E2E2E2E2E2E2E2E2E2E2E2E2E2E2E2E2E2E2272727E2C3C3E2E2E2D6D6D6D6E2E2E2E2E2E2E222727272E2E2F51D1D1D1DD6D6D6D6D6D6D6D6D6D6D6BED6D61D1D1DE2E2E2
310
F5F2E2F50000F5E2E2F5E2E2E2E2E2E2E2E2E2E2E2E2E2E2E2E2E2E2E2E2E2E2E2E2E2E2E2E2E2E2E2E2E2E2E2E2E2E2E2E2E2E2E2C3C3E2E2E2D6D6D6D6E2E2E2E2E2E2E2E2727272E2E2F51D1DF5BEBEBEBEBEBEBEBEBEBEBEBEBEBEBEF5E21DE2E2E2F5F2E2F50000F5E2E2F5E2E2E2E2E2E2E2E2E2E2E2E2E2E2E2E2E2
310
E2E2E2E2E2E2E2E2E2E2E2E2E2E2E2E2E2E2E2E2E2E2E2E2E2E2C3F57272D6C3D6D67272721D1D1D1D72727272727272F51DF5E2E2E2D6E2E2E2E2E2E2E2E2E2BEE2E2F5E21DE2E2E2F5F2E2F50000F5E2E2F5E2E2E2E2E2E2E2E2E2E2E2E2E2E2E2E2E2E2E2E2E2E2E2E2E2E2E2E2E2E2E2E2E2E2E2E2E2E2E2E2E2E2E2C3
310
F57272D6E2E2E272727272E2E27272727272BEBE72F51DF5E2E2E2D6E2E2E2E2E2E2E2E2E2BEE2E2F5E21DE2E2E2F5F2E2F50000F5E2E2F5E2E2E2E2E2E2E2E2E2E2E2E2E2E2E2E2E2E2E2E2E2E2E2E2E2E2E2E2E2E2E2E2E2E2E2E2E2E2E2E2E2E22222227272BEBEBEBEBEBEBE29292929BE57571BBEBE1BF51DF5E2E2E2
310
D6E29B9B9B9B9B9B9B9BBEE2E2F5E21DE2E2E2F5F2E2F50000F5E2E2F5E2E2E2E2E2E2E2E2E2E2E2E2E2E2E2E2E2E2E2E2E2E2E2E2E2E2E2E2E2E2E2E2E2E2E2E2E2E2E2E2E2E27272727272D6E227D6272727292929295757571BBE1B1B571DF5E2E2E2D69B9BE2E2E2E2E29B9BBEE2E2F5E21DE2E2E2F5F2E2F50000F5E2
310
E2F5E2E2E2E2E2E2E2E2E2E2E2E2E2E2E2E2E2E2E2E2E2E2E2E2E2E2E2E2E2E2E2E2727272E2E2E2E2E2E2E27272727272D6E2D6D62727272929292957575729BE5757571DF5E2E2E2D69B9B9BE2E2E2E29B9BBEE2E2F5E21DE2E2E2F5F2E2F50000F5E2E2F5E2E2E2E2E2E2E2E2E2E2E2E2E2E2E2E2E2E2E2E2E2E2E2E2E2
310
E2E2E2E2E2E2E272727222E2E2E2E2E2E27272727272BEBEBEBEBEBEBEBEBEBEBEBEBEBEBEBEBEBEBEBEBEBEBEBEBEBEBEBEBEBEBEBEBEBEBEBEBEBEBE1DE2E2E2F5F2E2F50000F5E2E2E2E2E2E2E2E2E2E2E2E2E2E2E2E2E2E2E2E2E2E2E2E2E2E2E2E2E2E2E2E2E2E2E2727272E2E2E2E2E2E2E2E2C3F57272E2E2E2E227
310
27E2292929BEE2E2272727E2E2BE1DBEE2E2E2D69B9BE22727E2E29B9BBEE2E2BE72721DE2E2E2F2E2F50000F5E2E2E2E2E2E2E2E2E2E2E2E2E2E2E2E2E2E2E2E2E2E2F51D1D1D1D1D1D1D1D1D7272727272727272721D1D1D1D1D1DBE7272BEBEBEBEBEBEBEBEBEBEBEBEBEBEBEBEBEBEBEBEBEE2E2E2D69B9BE2E2E2E2E2
310
9B9BBEE2E21D72721DE2E2E2F2E2F50000F5E2E2E2E2E2E2E2E2E2E2E2E2E2E2E2E2E2E2E2E2E2E2F51DE2E2E2E2E2E2E2E2727272727272727272E2BEBEE2E2E2E2E2F5E2E2E2E2E2E2E2F5E2E2F5E2E2E2E2BEE2E2F51DBEE2E2E2D69B9BD6D6D6D6D69B9BBEE2E21D72721DE2E2E2F2E2F50000F5E2E2E2E2E2E2E2E2E2
310
E2E2E2E2E2E2E2E2E2E2E2E2E2151DF5F5F5F5BEF5F5F557575757571B1B1B1B1DBEBE1D6D6D6D6DBEBEBEBEBEBEBEBEBEF5F5BEBEBEBE2727BE6D6D6D6D1DE2E2E29B9BE2E2E2E2E29B9BBEE21B1B72721D222222F2E2F50000F5E2E2E2E2E2E2E2E2E2E2E2E2E2E2E2E2E2E2E2E2E2E2F51DF5E2E2E2E2E2E2E257575757
310
571B1B1B1BE2BE1D1D6D6D6D6DF5E2E2E2D6D6D6D6F5E2E2E2E2E2E22727E26D6D6D6DD6E2E2E29B9BE2E2E2E2E29B9BBEE21B1B727222727222F2E2F50000F5E2E2E2E2E2E2E2E2E2E2E2E2E2E2E2E2E2E2E2E2E2E2F51D2929292929292929575757575729292929DCBEDCDC291D296DF5E2E2E2D6E2E2BEBEBE27272727
310
2727BEE2D6BEBED6D6D6E2E29B9BE2E2E2E2E29B9BBEE21B1B727222727272F2E2F50000F5E2E2E2E2E2E2E2E2E2E2E2E2E2E2E2E2E2E2E2E2E2E2F51D29292929E2E2E2E2E2E2E2E2E2E2E2E2E2DCBEDCDCE2E229F5F5E2E2E2D6D6D6BEBEBE272727272727BEE2D6BEBED6E2D6E2E29B9BE2E2E2E2E29B9BBEE21B1B7272
310
1D727272F2E2F50000F5E2E2E2E2E2E2E2E2E2E2E2E2E2E2E2E2E2E2E2E2E2E2F51D29292929E2E2E2E2272727272727E2E2E2DCBEDCDC272729F5BEBEBE272727BEBEBEBEBEBEBE2727BEBEBEBEBEBED6D6D6D6E29B9BE2272727279B9BBEE2E21D72721DE2E2E2F2E2F50000F5E2E2E2E2E2E2E2E2E2E2E2E2E2E2E2E2E2
310
E2E2E2E2E2F51D29292929E2E2E2E2272727272727E2E2E229BEDCDC272729F5F5E2BE272727E2D6BEE2E2E2E22727E2BEE2E2BED6BED6D6D6E29B9B9B2727279B9B9BBEE2E21D72721DE2E2E2F2E2F50000F5E2E2F5E2E2E2E2E2E2E2E2E2E2E2E2E2E2E2E2E2E2E2F51D29292929E2E2E2E2E2E2E2E2E2E2E2E2E229BE29
310
29272729F5F5D6BEBEBED6F5F5F51D1D575757E2E2BEE2E2BE1DF5E2E2E2E29B9B9B9B9B9B9B9B9BBEE2E2F572721DE2E2F5F2E2F50000F5E2E2F5E2E2E2E2C3C3C3C3C3C3C3C3C3C3C3C3C3C3C3C31DF5E2E2E2E2E2E2E2E2E2E2E2E2E2E2E2E2D6BED6D6272729F5F5D6BEBED6D6E2F5F51D5757E257E2E2BEE2E2F51DF5
310
E2E2E2E29B9BE2E2E2E2E29B9B9BE2E2F5E21DE2E2E2F5F2E2F50000F5E2E2F5E2E2E2E2C3E2C3C3C3C3C3C3C3C3C3C3C3C3C3C31DF5E2E2E2E2E2E2E2E2E2E2E2E2E2E2E2D6BEBEBED6272729F5F5D6D6D6D6D6E2F56D6D57575757E2E2BEBEE2F51DF5E2E2E2E29B9BE2E2E2E2E29B9B27E2E2F5E21DE2E2E2F5F2E2F500
310
00F5E2E2F5E2E2E2E2C3E2C3E2E2E2E2E2E2E2E2E2E2E2E2C31DF5E2E2E2E2E2E2E2E2E2E2E2E2E2E2E2D6BEBED6E2E2E229F5F5D6E2D6D6D6D6D61D1DF5BEF5F5BE57BEBEF5F51DF5E2E2E2E29B9B9B9B9B9B9B9B9B27E2E2F5E21DE2E2E2F5F2E2F50000F5E2E2F5E2E2E2E2C3E2C3E2E2E2E2E2E2E2E2E2E2E2E2C37272
310
292929292929292929E2E2E2E2E2E2E2D6BED6D6292929F5F5D6D6D6D6D6D6D6D6D6272727272757BEE2E2F51DF5E2BEBE279B9BE29BE29B9B9B9BBEE2E2F5721D1DE2E2F5F2E2F50000F5E2E2F5E2E2E2E2C3E2C3E2E2E2E2E2E2E2E2E2E2E2E2C37272292929292929292929E2E2E2E2E2E2E2E2BEE2F5F5F5F5BEBEE2E2
310
E2D6D6D6BEBEBE272727272757BEE2E2F51DF5E22727279B9BE29BE29BE29B9BBEE2E21D72721DE2E2F5F2E2F50000F5E2E2F5E2E2E2E2C3E2C3E2E2E2E2E2E2E2E2E2E22222C3722929292929292929292929E2E2E2E2E2E2E2BEE2E2E2E2E2BEBEE2E2E2E2D6D6BEBED6272727272727275757571DF5E2E2E2E29B9BE29B
310
E29BE29B9BBEE2E21D72721DE2E2F5F2E2F50000F5E2E2F5E2E2E2E2C3E2C3E2E2E2E2E2E2E2E2E2227272727229E2E2E2E2E2E2E2E2E229E2E2E2E2E2E2E2BEE2E2E2E2E2BEBEE2E2E2E2E2D6D6D6D6E2E25757572727E2E2571DF55757E2E29B9BE29BE29BE29B9BBEE21B1B72721D222222F2E2F50000F5E2E2F5E2E2E2
310
E2C3E2C3E2E2E2E2E2E2E2E2E2227272727229E2E2E2E2E2E2E2E2E229E2E2E2E2E2E2E2BEE2E2E2E2E2BEBEE2E2E2E2E2E2E2F557575757E25757BEE2E2571D57575757BEE29B9B9B9B9B9B9B9BBEE21B1B727222727222F2E2F50000F5E2E2F5E2E2E2E2C3E2C3E2E2E2E22929292929227272727229E2E2E2E2E2E2E2E2
310
E229E2E2E2E2BEE2E2BEE2E2E2E2E2BEBEE2E2E2E2E2E2E2F557575757575757BEBE57571D57575757BEE2E2E29B9B9BE2E2E2BEE21B1B727222727272F2E2F50000F5E2E2F5E2E2E2E2C3E2C3E2E2E2E2292929292929E2E2C3722929292929292929292929E2E2E2E2272727BEE2E2E2E2E2BEBEE2E2E2E2E2E2E2F55757
310
BE57575757BEBE5757F5F5F5F5F5BEE2E2E2E2E2E2E2E2E2BEE21B1B72721D222222F2E2F50000F5E2E2F5E2E2E2E2C3E2C3E2E2E229292929292929E2E2C37272292929292929292929E2E2E2E2E2272727BEE2E2E2E2E2BEBEE22727272727E2C4C4C427C4C4C4C4C4C4C4E2E2E2E2F5F5BEE2E2E2E2E2E2E2E2E2BEE2E2
310
1D72721DE2E2F5F2E2F50000F5E2E2F5E2E2E2E2C3E2C3E2E2E229E2E2E2E2E229E2E2C3D6D6E22929E22929E22929E2E2E2E2E2E2E2E2BEE2E2E2E2E2BEBEE22727272727E2C4C4C427C4D6C4C4C4C4C4E2E2E2E2F5F5BEE2E2E2E2E2E2E2E2E2BEE2E21D72721DE2E2F5F2E2F50000F5E2E2F5E2E2E2E2C3E2C3E2E2E229
310
E2E2E2E2E229E2E2F51DF5E2E2E2E2E2E2E2E2E2E2E2E2E2E2E2E2E2BEE2E2E2E2E2BEBEE22727272727E21B1B1B1B1B1BC4C4C4C4C4C4C4E2E2F5F5BEE2E2E2E2E2E2E2E2E2BEE2E2F5721D1DE2E2F5F2E2F50000F5E2E2F5E2E2E2E2C3E2C3E2E2E229E2E2E2E2E229E2E2F51DBEE2E2E2E2E2E2E2E2E2E2E2E2E2E2E2E2
310
2727E21D296D6D6DBEE2E2E2E2E2E2E21B1B1B1B1B1BC4E2C4C4C4E2C4E2E2F5BEBEBEBEBEBEBEBEBEBEBEBEBEBEBEBE1DE2E2E2F5F2E2F50000F5E2E2F5E2E2E2E2C3E2C3E2E2E229292929292929E2E2F51D29292929E2E2E2E2E2E2E2E2E2E2E2E2E22727E2E2296D6D6DF5E2E2E2E2E2E2E2C4F5F5F5F5C4F5F5F5F5F5
310
E2C4E2E2F5BEBEE2E2E2E2E22727E2E2BEE2E2BEBE1DE2E2E2F5F2E2F50000F5E2E2F5E2E2E2E2C3E2C3E2E2E2E229292929E229E2E2F51DBEE2E229E2E2E2E2E2E2E2E2E2E2E2E2E22727E2E229D6E2BEF5E2E2E2E2E2E2E2D6D6272727272727C4C4C4E2C4E2E2F5BEBEE2E2E2E2E2D6D6D6E2BEE2E2BEE21DE2E2E2F5F2
310
E2F50000F5E2E2E2E2E2E2E2C3E2C3E2E2E2E22929E22929E2E2E2F51DBEBEBEBEBEBEBEBEBEBEBE272727BEBEBEBEBEBEBEBEBEBEBEBEE2E2E2E2E2E2D6BEBE272727272727C4C4C4E2C4E2E2F5F5BEE2E2E2E2D6D6D6D6E2BEE2E2F5E21DE2E2E2E2F2E2F50000F5E2E2E2E2E2E2E2C3E2C3E2E2E2E2E2E2E2E2E2E2E2E2
310
F51DF5E22929E2E2E2E2E2E2E2E22727E2E2E2E2BEE2E229D6E2F5F5E2E2E2E2E2D6D6BEBED6C4C41B1B1B1B1BC4C4C4E2E2F5F5BEE2E2E2D6D6E2D6D6E2BEE2E2F5E21DE2E2E2E2F2E2F50000F5E2E2E2E2E2E2E2C329C3E2E2E2E2E2E2E2E2E2E2E2E2F51DF5292929E2E2E2E2E2E2E2E2E2E2E2E2E2E2BEE2E229292929
310
F5E2E2E2D6D6D6D6D6D6C4E2C41B1B1B1B1BC4E2E2E2E2F5F5BEE2E2E2D6E2E2D6D6E2BEE2E2F5E21DE2E2E2E2F2E2F50000F5E2E2E2E2E2E21D2929292929E2E2E2E2E2E2E2E2E2E2F51DF5292929E2E2E2E2E2E2E2E2E2E2E2E2E2E2BEE2E2E2E2E2F5F5F5F5BEBEBEBED6C4F5F5F5F5F5F5F5F5F5F5F5F5F5F5F51DBEF5
310
BED6D6BEBED6D6F5BEBEF5F5E21DE2E2E2E2F2E2F50000F5E2E2E2E2E2E229292929292929E2E2E2E2E2E2E2E2E2F51DF5292929E2E2E2E2E2E2E2E2E2E2E2E2E2E2BEE2E2E2E2E2F529292929D6BEBED6F5F5F5F5F5F5BEF5BEBEF5F51D1D1D1D1DBE1D1DD6D6D6D6D6D61D1D1D1D1D1D1DE2E2E2E2F2E2F50000F5E2E2E2
310
E2E2E2292929292929E2E2E2E2E2E2E2E21DF5151DF5292929E2E2E2E2E2E2E2E2E2E2E2E2E2E2BEE2E2E2E2E2F529E2E229D6D6D6D6E2E2E2E2E2E2E2E2BEE2E2F51D1515F5F5BEF5F5C3D6D6D6D6C3F5F5F5F5F5F5F5E2E2E2E2F2E2F50000F5E2E2E2E2E2E229292929291DE2E2E2E2E2E2E2E21DBED6D6D6D6D629E2E2
310
E2E2E2E2E2E2E2E2E2E2E2E2BEE2E2E2E2E2F529292929D6E2D6D6E2E2E2E2E2E2E2E2BE2929291DF5E2E2E2E2E2E2C3D6D6D6D6C3E2E2E2E2E2E2E2E2E2E2E2F2E2F50000F5E2E2E2E2E2E2E2E2E2E2C3C3E2E2E2E2E2E2E2E21D72E2BEBEE2D6E2E2E2E2E2E2E2E2E2E2E2E2E2E2E2BEE2E2E2E2E2F529292929D6D6D6E2
310
E2E2E2E2E2E2E2E2BE29E2291DF5E2E2E2E2E2E2C3D6D6D6D6C3E2E2E2E2E2E2E2E2E2E2E2F2E2F50000F5E2E2E2E2E2E2E2E2E2E2C3C3E2E2E2E2E2E2E2E21D72E2BEBEE2D6E2E2E2E2E2E2E2E2E2E2E2E2E2E2E2BEE2292929292929292929E2E2E2E2E2E2E2E2E2E2E2E2BE29E2291DF5E2E2E2E2E2E2C3C3D6D6C3C3E2
310
E2E2E2E2E2E2E2E2E2E2F2E2F50000F5E2E2E2E2E2E2E2E2E2E2C3C3E2E2E2E2E2E2E2E21D72E2BEBED6D6272727272727E2E2E2E2E2E2292929BEE229E229292929292929E22727272727292929292929BE292929721DE2E2E2E2E2E2E2E2E2E2E2E2E2E2E2E2E2E2E2E2E2E2E2F2E2F50000F5E2E2F5E2E2E2E2E2E2E2C3
310
C3E2E2E2E2E2E2E2E21D72E2BED6D6E2272727272727E2E2E2E2E2E229E2E2BEE229E229292929E2E229E2272727272729E2E2E2E229BE29E21D721DE2E2E2E2E2E2E2E2E2E2E2E2E2E2E2E2E2E2E2E2E2E2F5F2E2F50000F5E2E2F5E2E2E2E2E2E2E2C3C3E2E2E2E2E2E2E2E21DBED6D6D6E2E2E2E2E2E2E2E2E2E2E2E2E2
310
E229E2E2BEE229E22929BEBE292929E2E2E2E2E2E229E2E2E2E2272729E2BE721DE2E2E2E2E2E2E2E2E2E2E2E2E2E2E2E2E2E2E2E2E2E2F5F2E2F50000F5E2E2BEBEE2E2E2E2E2E2C3C3E2BEBEE2E2E2E2E21DBEBEBEBEBEBEBEBEBEBEBEBEBE2727BEBEBEBEBEBEBEBEBEBEBEBEBEBEBEBEBEBEBEBEBEBE2727BEBEBEBE27
310
27BEBEBEBE1D22727222E2E2E2E2E2E2E2E2E2E2E2E2E2E2E2E2E2E2F5F2E2F50000F5E2E2BE272727E2E2E2E2C3C3E2BE27272727E2E21D72E2BED6D6E2E2E2E2E2E2E2E2272729E2E229E2E2BEE229E22929BE29E2E229E2E2E2E2E22727E2E2E2E2272729291D721D22727222E2E2E2E2E2E2E2E2E2E2E2E2E2E2E2E2E2
310
E2F5F2E2F50000F5E2E227272727E2E2E2E2C3C3E22727272727E2E21D72E2BEBED6D6E2E2E2E2E2E2E2E2292929E2292929BEE229E229292929E229292929E2E2E2E229E2E2E2E2E2BE29E21D721D22727222E2E2E2E2E2E2E2E2E2E2E2E2E2E2E2E2E2E2F5F2E2F50000F5E2E2F5E2E2E2E2E2E2E2C3C3E2E2E2E2E2E2E2
310
E21D72E2BEBEE2D6E2E2E2E2E2E2E22929E229E2E22929BE292929292929BEE2E2292929E2E2E2E229E2E2E2E2E2BE29291D721DE2E2E2E2E2E2E2E2E2E2E2E2E2E2E2E2E2E2E2E2E2E2F5F2E2F50000F5E2E2F5E2E2E2E2E2E2E2C3C3E2E2E2E2E2E2E2E21DD6D6D6D6D6D6E2E2E2E2E2E22929E2E2E229E229E2BEE229E2
310
29292929E229292929E2E2E2E2D62929292929BE292929721DE2E2E2E2E2E2E2E2E2E2E2E2E2E2E2E2E2E2E2E2E2E2F5F2E2F50000F5E2E2F5E2E2E2E2E2E2E2C3C3E2E2E2E2E2E2E2E21DD6D6D6D6D6D6E2E2E2E2E2E2E229292929E2E22929BE29292929292929E2292929E2E2E2D6D6D6E2E2E2E2E2BE29E229721DE2E2
310
E2E2E2E2E2E2E2E2E2E2E2E2E2E2E2E2E2E2E2E2F5F2E2F50000F5E2E2F5E2E2E2E2E2E2E2C3C3E2E2E2E2E2E2E2E21D292929BEE2E2E2E2E2E2E2E2E2E229E229E2E229E2BEE229E2E2292929E2E229E2E2E2D6D6E2D6E2E2E2E2E2BE29E2BE1DF5E2E2E2E2E2E2E2E2E2E2E2E2E2E2E2E2E2E2E2E2E2E2F5F2E2F50000F5
310
E2E2F5E2E2E2E2E2E2E2C3C3E2E2E2E2E2E2E2E21D292929BEE2E2E2E2E2E2E2E2E2E2E229E2E2E22929BEBE292929292929E2E229E2E2D6D6E2E2D6E2E2E2E2E2BEBE29291DF5E2E2E2E2E2E2E2E2E2E2E2E2E2E2E2E2E2E2E2E2E2E2F5F2E2F50000F5E2E2F5E2E2E2E2E2E2E2C3C3E2E2E2E2E2E2E2E21D292929292929
310
BEBEBEBEBEBEBEBEBEBEBEBEBEBEF5BEBEF5F5F5F5F52929D6D6D6D6D6BEBEBED6D6F5F5BEF5BEBEF5F51DF5E2E2E2E2E2E2E2E2E2E2E2E2E2E2E2E2E2E2E2E2E2E2F5F2E2F50000F5E2E2F5E2E2E2E2E2E2E2C3C3E2E2E2E2E2E2E2E21D29292929292929BEBEBEBEBEBEBEBEBEBEBEBEBE721D1D1D1D1D1D1D1D1DD6D6D6
310
D6D6D6D6D6D6D61D1D1D1D1D1D1D1D1DC3E2E2E2E2E2E2E2E2E2E2E2E2E2E2E2E2E2E2E2E2E2E2F5F2E2F50000F5E2E2F5E2E2E2E2E2E2E2C3C3E2E2E2E2E2E2E2E21D72292929292929E2E2E2E2E2E2E2E2E2E2E2E2E272E2E2E2E2E2E2E2E2E2E2E2E2D6D6D6E2E2E2E2E2E2E2E2E228E2E2C3C3E2E2E2E2E2E2E2E2E2E2
310
E2E2E2E2E2E2E2E2E2E2E2E2F5F2E2F50000F5E2E2F5E2E2E2E2E2E2E2C3C3C3C3C3C3C3C3C31D291D1D29291D1D1D1D291D1D1D1D29291D1D1D1D291DE2E2E2E2E2E2E2E2E2E2E2E2D6D6D6D6E2E2E2E2E2E228282828E2C3C3E2E2E2E2E2E2E2E2E2E2E2E2E2E2E2E2E2E2E2E2E2E2F5F2E2F50000F5E2E2F5E2E2E2E2E2
310
E2E2C3E2E2E2E2E2E2E2E22929292929292929292929292929292929292929292929E2E2E2E2E2E2E2E2E2E2E2E2D6D6D6D6E2E2E2E2E2282828282828C3C3E2E2E2E2E2E2E2E2E2E2E2E2E2E2E2E2E2E2E2E2E2E2F5F2E2F50000F5E2E2F5E2E2E2E2E2E2E2C3C3C3C3C3C3C3C3C329292929292929292929292929292929
310
29292929292929E2E2E2E2E2E2E2E2E2E2E2E2D6D6D6E2E2E2E2E22828E228282828C3C3E2E2E2E2E2E2E2E2E2E2E2E2E2E2E2E2E2E2E2E2E2E2F5F2E2F50000F5E2E2F5E2E2E2E2E2E2E2E2E2E2E2E2E2E2E2E21D1D2929291D1D292929291D292929291D1D292929291DE2E2E2E2E2E2E2E2E2E2E2E2E2E2E2E2E2E2E228
310
2828E2E22828E2C3C3E2E2E2E2E2E2E2E2E2E2E2E2E2E2E2E2E2E2E2E2E2E2F5F2E2F50000F5E2E2E2E2E2E2E2E2E2E2E2E2E2E2E2E2E2E2E2E2E2E229E2E2E2E22929E2E2E22929E2E2E2E22929C3C3E2E2E2E2E2E2E2E2E2E2E2E2E2E2E2E2E2E228E228E2282828E2E2C3C3E2E2E2E2E2E2E2E2E2E2E2E2E2E2E2E2E2E2
310
E2E2E2E2E2F2E2F50000F5E2E2E2E2E2E2E2E2E2E2E2E2E2E2E2E2E2E2E2E2E2E2E2E2E2E2E2E2E2E2E2E2E2E2E2E2E2E2E2E2C3C3E2E2E2E2E2E2E2E2E2E2E2E2E2E2E2E2E2E2E228E2282828E2E2E2C3C3E2E2E2E2E2E2E2E2E2E2E2E2E2E2E2E2E2E2E2E2E2E2E2F2E2F50000F5E2E2E2E2E2E2E2E2E2E2E2E2E2E2E2E2
310
E2E2E2E2E2E2E2E2E2E2E2E2E2E2E2E2E2E2E2E2E2E2E2E2C3C3E2E2E2E2E2E2E2E2E2E2E2E2E2E2E2E2E2E2E2E2282828E2E2E2E2C3C3E2E2E2E2E2E2E2E2E2E2E2E2E2E2E2E2E2E2E2E2E2E2E2F2E2F50000F5E2E2E2E2E2E2E2E2E2E2E2E2E2E2E2E2E2E2E2E2E2E2E2E2E2E2E2E2E2E2E2E2E2E2E2E2E2E2E2E2C3C3E2
310
E2E2E2E2E2E2E2E2E2E2E2E2E2E2E2E2E2E2E2E228E2E2E2E2E2C3C3E2E2E2E2E2E2E2E2E2E2E2E2E2E2E2E2E2E2E2E2E2E2E2F2E2F50000F5E2E2E2E2E2E2E2E2E2E2E2E2E2E2E2E2E2E2E2E2E2E2E2E2E2E2E2E2E2E2E2E2E2E2E2E2E2E2E2E2C3C3E2E2E2E2E2E2E2E2E2E2E2E2E2E2E2E2E2E2E2E2E2E2E2E2E2E2E2C3
310
C3E2E2E2E2E2E2E2E2E2E2E2E2E2E2E2E2E2E2E2E2E2E2E2F2E2F50000F5E2E2E2E2E2E2E2E2E2E2E2E2E2E2E2E2E2E2E2E2E2E2E2E2E2E2E2E2E2E2E2E2E2E2E2E2E2E2E2E2C3C3E2E2E2E2E2E2E2E2E2E2E2E2E2E2E2E2E2E2E2E2E2E2E2E2E2E2E2C3C3E2E2E2E2E2E2E2E2E2E2E2E2E2E2E2E2E2E2E2E2E2E2E2F2E2F5
310
0000F5E2E2E2E2E2E2E2E2E2E2E2E2E2E2E2E2E2E2E2E2E2E2E2E2E2E2E2E2E2E2E2E2E2E2E2E2E2E2E2E2C3C3C3C3C3C3C3C3C3C3C3C3C3C3C3C3C3C3C3C3C3C3C3C3C3C3C3C3C3C3C3E2E2E2E2E2E2E2E2E2E2E2E2E2E2E2E2E2E2E2E2E2E2E2F2E2F50000F5E2E2E2E2E2E2E2E2E2E2E2E2E2E2E2E2E2E2E2E2E2E2E2E2
310
E2E2E2E2E2E2E2E2E2E2E2E2E2E2E2E2C3C3C3C3C3C3C3C3C3C3C3C3C3C3C3C3C3C3C3C3C3C3C3C3C3C3C3C3C3C3C3E2E2E2E2E2E2E2E2E2E2E2E2E2E2E2E2E2E2E2E2E2E2E2F2E2F50000F5E2E2E2E2E2E2E2E2E2E2E2E2E2E2E2E2E2E2E2E2E2E2E2E2E2E2E2E2E2E2E2E2E2E2E2E2E2E2E2E2E2E2E2E2E2E2E2E2E2E2E2
310
E2E2E2E2E2E2E2E2E2E2E2E2E2E2E2E2E2E2E2E2E2E2E2E2E2E2E2E2E2E2E2E2E2E2E2E2E2E2E2E2E2E2E2F2E2F50000F5E2E2F5E2E2E2E2E2E2E2E2E2E2E2E2E2E2E2E2E2E2E2E2E2E2E2E2E2E2E2E2E2E2E2E2E2E2E2E2E2E2E2E2E2E2E2E2E2E2E2E2E2E2E2E2E2E2E2E2E2E2E2E2E2E2E2E2E2E2E2E2E2E2E2E2E2E2E2
310
E2E2E2E2E2E2E2E2E2E2E2E2E2E2E2F5F2E2F50000F5E2E2F5E2E2E2E2E2E2E2E2E2E2E2E2E2E2E2E2E2E2E2E2E2E2E2E2E2E2E2E2E2E2E2E2E2E2E2E2E2E2E2E2E2E2E2E2E2E2E2E2E2E2E2E2E2E2E2E2E2E2E2E2E2E2E2E2E2E2E2E2E2E2E2E2E2E2E2E2E2E2E2E2E2E2E2E2E2E2E2E2E2E2F5F2E2F50000F5E2E2F5E2E2
310
E2E2E2E2E2E2E2E2E2E2E2E2E2E2E2E2E2E2E2E2E2E2E2E2E2E2E2E2E2E2E2E2E2E2E2E2E2E22727272727272727272727E2E2E2E2E2E2E2E2E2E2E2E2E2E2E2E2E2E2E2E2E2E2E2E2E2E2E2E2E2E2E2E2E2E2E2E2E2E2E2F5F2E2F50000F2F2F2F2F2F2F2F2F2F2F2F2F2F2F2F2F2F2F2F2F2F2F2F2F2F2F2F2F2F2F2F2F2
310
F2F2F2F2F2F2F2F2F2F2F22727272727272727272727F2F2F2F2F2F2F2F2F2F2F2F2F2F2F2F2F2F2F2F2F2F2F2F2F2F2F2F2F2F2F2F2F2F2F2F2F2F2F2F2F2E2F50000F5E2E2F5E2E2E2E2E2E2E2E2E2E2E2E2E2E2E2E2E2E2E2E2E2E2E2E2E2E2E2E2E2E2E2E2E2E2E2E2E2E2E2E2E2E2E2E2E2E2E2E2E2E2E2E2E2E2E2E2
310
E2E2E2E2E2E2E2E2E2E2E2E2E2E2E2E2E2E2E2E2E2E2E2E2E2E2E2E2E2E2E2E2E2E2F5E2E2F50000F5E2E2F5E2E2E2E2E2E2E2E2E2E2E2E2E2E2E2E2E2E2E2E2E2E2E2E2E2E2E2E2E2E2E2E2E2E2E2E2E2E2E2E2272727272727272727272727E2E2E2E2E2E2E2E2E2E2E2E2E2E2E2E2E2E2E2E2E2E2E2E2E2E2E2E2E2E2E2
310
E2E2E2E2E2E2E2F5E2E2F50000F5E2E2F5E2E2E2E2E2E2E2E2E2E2E2E2E2E2E2E2E2E2E2E2E2E2E2E2E2E2E2E2E2E2E2E2E2E2E2E2E2E2E2E2272727272727272727272727E2E2E2E2E2E2E2E2E2E2E2E2E2E2E2E2E2E2E2E2E2E2E2E2E2E2E2E2E2E2E2E2E2E2E2E2E2E2F5E2E2F50000F5E2E2F5E2E2E2E2E2E2E2E2E2E2
310
E2E2E2E2E2E2E2E2E2E2E2E2E2E2E2E2E2E2E2E2E2E2E2E2E2E2E2E2E2E2E2E2E2E2E2E2E2E2E2E2E2E2E2E2E2E2E2E2E2E2E2E2E2E2E2E2E2E2E2E2E2E2E2E2E2E2E2E2E2E2E2E2E2E2E2E2E2E2E2E2F5E2E2F50000F5E2E2F5F5F5F5F5F5F5F5E2E2E2E2E2E2E2E2F5F5F5F5F5F5F5F5F5F5F5F5F5F5F5E2E2E2E2E2E2E2
310
E2F5F5F5F5F5F5F5F5F5F5F5F5F5F5E2E2E2E2E2E2E2E2F5F5F5F5F5F5F5F5F5F5F5F5F5F5F5E2E2E2E2E2E2E2E2F5F5F5F5F5F5F5F5E2E2F50000F5E2E2E2E2E2E2E2E2E2E2E2E2E2E2E2E2E2E2E2E2E2E2E2E2E2E2E2E2E2E2E2E2E2E2E2E2E2E2E2E2E2E2E2E2E2E2E2E2E2E2E2E2E2E2E2E2E2E2E2E2E2E2E2E2E2E2E2
310
E2E2E2E2E2E2E2E2E2E2E2E2E2E2E2E2E2E2E2E2E2E2E2E2E2E2E2E2E2F50000F5E2E2E2E2E2E2E2E2E2E2E2E2E2E2E2E2E2E2E2E2E2E2E2E2E2E2E2E2E2E2E2E2E2E2E2E2E2E2E2E2E2E2E2E2E2E2E2E2E2E2E2E2E2E2E2E2E2E2E2E2E2E2E2E2E2E2E2E2E2E2E2E2E2E2E2E2E2E2E2E2E2E2E2E2E2E2E2E2E2E2E2E2E2E2
310
E2E2F50000F5F5F5F5F5F5F5F5F5F5F5F5F5F5F5F5F5F5F5F5F5F5F5F5F5F5F5F5F5F5F5F5F5F5F5F5F5F5F5F5F5F5F5F5F5F5F5F5F5F5F5F5F5F5F5F5F5F5F5F5F5F5F5F5F5F5F5F5F5F5F5F5F5F5F5F5F5F5F5F5F5F5F5F5F5F5F5F5F5F5F5F5F5F5F5F5F5F50000EFEFEFEFEFEFEFEFEFEFEFEFEFEFEFEFEFEFEFEFEFEF
310
EFEFEFEFEFEFEFEFEFEFEFEFEFEFEFEFEFEFEFEFEFEFEFEFEFEFEFEFEFEFEFEFEFEFEFEFEFEFEFEFEFEFEFEFEFEFEFEFEFEFEFEFEFEFEFEFEFEFEFEFEFEFEFEFEFEFEFEFEFEFEFEFEFEFEFEF0000
  0
XRECORD
  5
793
102
{ACAD_REACTORS
330
792
102
}
330
792
100
AcDbXrecord
280
     1
102
MATERIAL
148
0.0
149
0.0
149
0.0
 93
        0
 94
       63
282
     0
 72
     1
 77
     1
171
     1
175
     1
179
     1
273
     0
  0
XRECORD
  5
791
102
{ACAD_REACTORS
330
790
102
}
330
790
100
AcDbXrecord
280
     1
102
MATERIAL
148
0.0
149
0.0
149
0.0
 93
        0
 94
       63
282
     0
 72
     1
 77
     1
171
     1
175
     1
179
     1
273
     0
  0
XRECORD
  5
78C
102
{ACAD_REACTORS
330
78B
102
}
330
78B
100
AcDbXrecord
280
     1
102
MATERIAL
148
0.0
149
0.0
149
0.0
 93
        0
 94
       63
282
     0
 72
     1
 77
     1
171
     1
175
     1
179
     1
273
     0
  0
CELLSTYLEMAP
  5
789
102
{ACAD_REACTORS
330
126
102
}
330
126
100
AcDbCellStyleMap
 90
        3
300
CELLSTYLE
  1
TABLEFORMAT_BEGIN
 90
        5
170
     1
 91
        0
 92
    32768
 62
   257
 93
        1
300
CONTENTFORMAT
  1
CONTENTFORMAT_BEGIN
 90
        0
 91
        0
 92
        4
 93
        0
300

 40
0.0
140
1.0
 94
        5
 62
     0
340
20
144
0.25
309
CONTENTFORMAT_END
171
     0
 94
        6
 95
        1
302
GRIDFORMAT
  1
GRIDFORMAT_BEGIN
 90
        0
 91
        1
 62
     0
 92
       -2
340
0
 93
        0
 40
0.045
309
GRIDFORMAT_END
 95
        2
302
GRIDFORMAT
  1
GRIDFORMAT_BEGIN
 90
        0
 91
        1
 62
     0
 92
       -2
340
0
 93
        0
 40
0.045
309
GRIDFORMAT_END
 95
        4
302
GRIDFORMAT
  1
GRIDFORMAT_BEGIN
 90
        0
 91
        1
 62
     0
 92
       -2
340
0
 93
        0
 40
0.045
309
GRIDFORMAT_END
 95
        8
302
GRIDFORMAT
  1
GRIDFORMAT_BEGIN
 90
        0
 91
        1
 62
     0
 92
       -2
340
0
 93
        0
 40
0.045
309
GRIDFORMAT_END
 95
       16
302
GRIDFORMAT
  1
GRIDFORMAT_BEGIN
 90
        0
 91
        1
 62
     0
 92
       -2
340
0
 93
        0
 40
0.045
309
GRIDFORMAT_END
 95
       32
302
GRIDFORMAT
  1
GRIDFORMAT_BEGIN
 90
        0
 91
        1
 62
     0
 92
       -2
340
0
 93
        0
 40
0.045
309
GRIDFORMAT_END
309
TABLEFORMAT_END
  1
CELLSTYLE_BEGIN
 90
        1
 91
        1
300
_TITLE
309
CELLSTYLE_END
300
CELLSTYLE
  1
TABLEFORMAT_BEGIN
 90
        5
170
     1
 91
        0
 92
        0
 62
   257
 93
        1
300
CONTENTFORMAT
  1
CONTENTFORMAT_BEGIN
 90
        0
 91
        0
 92
        4
 93
        0
300

 40
0.0
140
1.0
 94
        5
 62
     0
340
20
144
0.18
309
CONTENTFORMAT_END
171
     0
 94
        6
 95
        1
302
GRIDFORMAT
  1
GRIDFORMAT_BEGIN
 90
        0
 91
        1
 62
     0
 92
       -2
340
0
 93
        0
 40
0.045
309
GRIDFORMAT_END
 95
        2
302
GRIDFORMAT
  1
GRIDFORMAT_BEGIN
 90
        0
 91
        1
 62
     0
 92
       -2
340
0
 93
        0
 40
0.045
309
GRIDFORMAT_END
 95
        4
302
GRIDFORMAT
  1
GRIDFORMAT_BEGIN
 90
        0
 91
        1
 62
     0
 92
       -2
340
0
 93
        0
 40
0.045
309
GRIDFORMAT_END
 95
        8
302
GRIDFORMAT
  1
GRIDFORMAT_BEGIN
 90
        0
 91
        1
 62
     0
 92
       -2
340
0
 93
        0
 40
0.045
309
GRIDFORMAT_END
 95
       16
302
GRIDFORMAT
  1
GRIDFORMAT_BEGIN
 90
        0
 91
        1
 62
     0
 92
       -2
340
0
 93
        0
 40
0.045
309
GRIDFORMAT_END
 95
       32
302
GRIDFORMAT
  1
GRIDFORMAT_BEGIN
 90
        0
 91
        1
 62
     0
 92
       -2
340
0
 93
        0
 40
0.045
309
GRIDFORMAT_END
309
TABLEFORMAT_END
  1
CELLSTYLE_BEGIN
 90
        2
 91
        1
300
_HEADER
309
CELLSTYLE_END
300
CELLSTYLE
  1
TABLEFORMAT_BEGIN
 90
        5
170
     1
 91
        0
 92
        0
 62
   257
 93
        1
300
CONTENTFORMAT
  1
CONTENTFORMAT_BEGIN
 90
        0
 91
        0
 92
        4
 93
        0
300

 40
0.0
140
1.0
 94
        2
 62
     0
340
20
144
0.18
309
CONTENTFORMAT_END
171
     0
 94
        6
 95
        1
302
GRIDFORMAT
  1
GRIDFORMAT_BEGIN
 90
        0
 91
        1
 62
     0
 92
       -2
340
0
 93
        0
 40
0.045
309
GRIDFORMAT_END
 95
        2
302
GRIDFORMAT
  1
GRIDFORMAT_BEGIN
 90
        0
 91
        1
 62
     0
 92
       -2
340
0
 93
        0
 40
0.045
309
GRIDFORMAT_END
 95
        4
302
GRIDFORMAT
  1
GRIDFORMAT_BEGIN
 90
        0
 91
        1
 62
     0
 92
       -2
340
0
 93
        0
 40
0.045
309
GRIDFORMAT_END
 95
        8
302
GRIDFORMAT
  1
GRIDFORMAT_BEGIN
 90
        0
 91
        1
 62
     0
 92
       -2
340
0
 93
        0
 40
0.045
309
GRIDFORMAT_END
 95
       16
302
GRIDFORMAT
  1
GRIDFORMAT_BEGIN
 90
        0
 91
        1
 62
     0
 92
       -2
340
0
 93
        0
 40
0.045
309
GRIDFORMAT_END
 95
       32
302
GRIDFORMAT
  1
GRIDFORMAT_BEGIN
 90
        0
 91
        1
 62
     0
 92
       -2
340
0
 93
        0
 40
0.045
309
GRIDFORMAT_END
309
TABLEFORMAT_END
  1
CELLSTYLE_BEGIN
 90
        3
 91
        2
300
_DATA
309
CELLSTYLE_END
  0
XRECORD
  5
794
102
{ACAD_REACTORS
330
126
102
}
330
126
100
AcDbXrecord
280
     1
102
ACAD_ROUNDTRIP_PRE2007_TABLESTYLE
 90
        4
 91
        0
  1

 92
        4
 93
        0
  2

 94
        4
 95
        0
  3

  0
ENDSEC
  0
EOF
