  0
SECTION
  2
HEADER
  9
$ACADVER
  1
AC1015
  9
$ACADMAINTVER
 70
    20
  9
$DWGCODEPAGE
  3
ANSI_1250
  9
$INSBASE
 10
215187.233673673
 20
127657.5168525552
 30
0.0
  9
$EXTMIN
 10
201595.3674723547
 20
-394.9312075322378
 30
-0.0000000000000109
  9
$EXTMAX
 10
213425.6971474266
 20
138411.8857184925
 30
0.0000000000000067
  9
$LIMMIN
 10
0.0
 20
0.0
  9
$LIMMAX
 10
420.0
 20
297.0
  9
$ORTHOMODE
 70
     1
  9
$REGENMODE
 70
     1
  9
$FILLMODE
 70
     1
  9
$QTEXTMODE
 70
     0
  9
$MIRRTEXT
 70
     0
  9
$LTSCALE
 40
75.0
  9
$ATTMODE
 70
     1
  9
$TEXTSIZE
 40
20.0
  9
$TRACEWID
 40
1.0
  9
$TEXTSTYLE
  7
ROMANS
  9
$CLAYER
  8
Rodo-teren$0$S-FloorSlab-G
  9
$CELTYPE
  6
ByLayer
  9
$CECOLOR
 62
   256
  9
$CELTSCALE
 40
1.0
  9
$DISPSILH
 70
     0
  9
$DIMSCALE
 40
1.0
  9
$DIMASZ
 40
30.0
  9
$DIMEXO
 40
43.0
  9
$DIMDLI
 40
0.0
  9
$DIMRND
 40
0.5
  9
$DIMDLE
 40
12.0
  9
$DIMEXE
 40
13.0
  9
$DIMTP
 40
0.0
  9
$DIMTM
 40
0.0
  9
$DIMTXT
 40
80.0
  9
$DIMCEN
 40
0.0
  9
$DIMTSZ
 40
0.0
  9
$DIMTOL
 70
     0
  9
$DIMLIM
 70
     0
  9
$DIMTIH
 70
     0
  9
$DIMTOH
 70
     0
  9
$DIMSE1
 70
     1
  9
$DIMSE2
 70
     1
  9
$DIMTAD
 70
     0
  9
$DIMZIN
 70
    12
  9
$DIMBLK
  1
B-DIM
  9
$DIMASO
 70
     1
  9
$DIMSHO
 70
     1
  9
$DIMPOST
  1

  9
$DIMAPOST
  1

  9
$DIMALT
 70
     0
  9
$DIMALTD
 70
     2
  9
$DIMALTF
 40
25.4
  9
$DIMLFAC
 40
1.0
  9
$DIMTOFL
 70
     1
  9
$DIMTVP
 40
1.0
  9
$DIMTIX
 70
     1
  9
$DIMSOXD
 70
     0
  9
$DIMSAH
 70
     0
  9
$DIMBLK1
  1

  9
$DIMBLK2
  1

  9
$DIMSTYLE
  2
500
  9
$DIMCLRD
 70
     1
  9
$DIMCLRE
 70
     1
  9
$DIMCLRT
 70
    10
  9
$DIMTFAC
 40
1.0
  9
$DIMGAP
 40
0.0
  9
$DIMJUST
 70
     0
  9
$DIMSD1
 70
     0
  9
$DIMSD2
 70
     0
  9
$DIMTOLJ
 70
     1
  9
$DIMTZIN
 70
     0
  9
$DIMALTZ
 70
     0
  9
$DIMALTTZ
 70
     0
  9
$DIMUPT
 70
     0
  9
$DIMDEC
 70
     1
  9
$DIMTDEC
 70
     1
  9
$DIMALTU
 70
     2
  9
$DIMALTTD
 70
     2
  9
$DIMTXSTY
  7
ROMANS
  9
$DIMAUNIT
 70
     0
  9
$DIMADEC
 70
     0
  9
$DIMALTRND
 40
0.0
  9
$DIMAZIN
 70
     0
  9
$DIMDSEP
 70
    46
  9
$DIMATFIT
 70
     3
  9
$DIMFRAC
 70
     0
  9
$DIMLDRBLK
  1
B-DIM
  9
$DIMLUNIT
 70
     2
  9
$DIMLWD
 70
    -2
  9
$DIMLWE
 70
    -2
  9
$DIMTMOVE
 70
     2
  9
$LUNITS
 70
     2
  9
$LUPREC
 70
     1
  9
$SKETCHINC
 40
1.0
  9
$FILLETRAD
 40
0.0
  9
$AUNITS
 70
     0
  9
$AUPREC
 70
     0
  9
$MENU
  1
.
  9
$ELEVATION
 40
0.0
  9
$PELEVATION
 40
0.0
  9
$THICKNESS
 40
0.0
  9
$LIMCHECK
 70
     0
  9
$CHAMFERA
 40
0.0
  9
$CHAMFERB
 40
0.0
  9
$CHAMFERC
 40
20.0
  9
$CHAMFERD
 40
0.0
  9
$SKPOLY
 70
     0
  9
$TDCREATE
 40
2452027.670547454
  9
$TDUCREATE
 40
2452027.587214121
  9
$TDUPDATE
 40
2454956.509350764
  9
$TDUUPDATE
 40
2454956.426017431
  9
$TDINDWG
 40
7.7065868866
  9
$TDUSRTIMER
 40
7.7065868866
  9
$USRTIMER
 70
     1
  9
$ANGBASE
 50
0.0
  9
$ANGDIR
 70
     0
  9
$PDMODE
 70
     0
  9
$PDSIZE
 40
0.0
  9
$PLINEWID
 40
60.0
  9
$SPLFRAME
 70
     0
  9
$SPLINETYPE
 70
     6
  9
$SPLINESEGS
 70
     8
  9
$HANDSEED
  5
70A0
  9
$SURFTAB1
 70
     6
  9
$SURFTAB2
 70
     6
  9
$SURFTYPE
 70
     6
  9
$SURFU
 70
     6
  9
$SURFV
 70
     6
  9
$UCSBASE
  2

  9
$UCSNAME
  2

  9
$UCSORG
 10
0.0
 20
0.0
 30
0.0
  9
$UCSXDIR
 10
1.0
 20
0.0
 30
0.0
  9
$UCSYDIR
 10
0.0
 20
1.0
 30
0.0
  9
$UCSORTHOREF
  2

  9
$UCSORTHOVIEW
 70
     0
  9
$UCSORGTOP
 10
0.0
 20
0.0
 30
0.0
  9
$UCSORGBOTTOM
 10
0.0
 20
0.0
 30
0.0
  9
$UCSORGLEFT
 10
0.0
 20
0.0
 30
0.0
  9
$UCSORGRIGHT
 10
0.0
 20
0.0
 30
0.0
  9
$UCSORGFRONT
 10
0.0
 20
0.0
 30
0.0
  9
$UCSORGBACK
 10
0.0
 20
0.0
 30
0.0
  9
$PUCSBASE
  2

  9
$PUCSNAME
  2

  9
$PUCSORG
 10
0.0
 20
0.0
 30
0.0
  9
$PUCSXDIR
 10
1.0
 20
0.0
 30
0.0
  9
$PUCSYDIR
 10
0.0
 20
1.0
 30
0.0
  9
$PUCSORTHOREF
  2

  9
$PUCSORTHOVIEW
 70
     0
  9
$PUCSORGTOP
 10
0.0
 20
0.0
 30
0.0
  9
$PUCSORGBOTTOM
 10
0.0
 20
0.0
 30
0.0
  9
$PUCSORGLEFT
 10
0.0
 20
0.0
 30
0.0
  9
$PUCSORGRIGHT
 10
0.0
 20
0.0
 30
0.0
  9
$PUCSORGFRONT
 10
0.0
 20
0.0
 30
0.0
  9
$PUCSORGBACK
 10
0.0
 20
0.0
 30
0.0
  9
$USERI1
 70
     0
  9
$USERI2
 70
     0
  9
$USERI3
 70
     0
  9
$USERI4
 70
     0
  9
$USERI5
 70
     0
  9
$USERR1
 40
0.0
  9
$USERR2
 40
0.0
  9
$USERR3
 40
0.0
  9
$USERR4
 40
0.0
  9
$USERR5
 40
0.0
  9
$WORLDVIEW
 70
     1
  9
$SHADEDGE
 70
     3
  9
$SHADEDIF
 70
    70
  9
$TILEMODE
 70
     1
  9
$MAXACTVP
 70
    64
  9
$PINSBASE
 10
0.0
 20
0.0
 30
0.0
  9
$PLIMCHECK
 70
     0
  9
$PEXTMIN
 10
1.000000000000000E+20
 20
1.000000000000000E+20
 30
1.000000000000000E+20
  9
$PEXTMAX
 10
-1.000000000000000E+20
 20
-1.000000000000000E+20
 30
-1.000000000000000E+20
  9
$PLIMMIN
 10
0.0
 20
0.0
  9
$PLIMMAX
 10
420.0
 20
297.0
  9
$UNITMODE
 70
     0
  9
$VISRETAIN
 70
     1
  9
$PLINEGEN
 70
     0
  9
$PSLTSCALE
 70
     1
  9
$TREEDEPTH
 70
  3020
  9
$CMLSTYLE
  2
Standard
  9
$CMLJUST
 70
     0
  9
$CMLSCALE
 40
20.0
  9
$PROXYGRAPHICS
 70
     1
  9
$MEASUREMENT
 70
     0
  9
$CELWEIGHT
370
    -1
  9
$ENDCAPS
280
     0
  9
$JOINSTYLE
280
     0
  9
$LWDISPLAY
290
     0
  9
$INSUNITS
 70
     5
  9
$HYPERLINKBASE
  1

  9
$STYLESHEET
  1
100.ctb
  9
$XEDIT
290
     1
  9
$CEPSNTYPE
380
     0
  9
$PSTYLEMODE
290
     1
  9
$FINGERPRINTGUID
  2
{938A2469-3AF5-11D5-BC95-0050BABCE9EC}
  9
$VERSIONGUID
  2
{22F67D85-8552-4812-B3DF-9A69BD46ABA3}
  9
$EXTNAMES
290
     1
  9
$PSVPSCALE
 40
0.0
  9
$OLESTARTUP
290
     0
  0
ENDSEC
  0
SECTION
  2
CLASSES
  0
CLASS
  1
ACDBDICTIONARYWDFLT
  2
AcDbDictionaryWithDefault
  3
ObjectDBX Classes
 90
        0
280
     0
281
     0
  0
CLASS
  1
ACDBPLACEHOLDER
  2
AcDbPlaceHolder
  3
ObjectDBX Classes
 90
        0
280
     0
281
     0
  0
CLASS
  1
LAYOUT
  2
AcDbLayout
  3
ObjectDBX Classes
 90
        0
280
     0
281
     0
  0
CLASS
  1
DICTIONARYVAR
  2
AcDbDictionaryVar
  3
ObjectDBX Classes
 90
        0
280
     0
281
     0
  0
CLASS
  1
SORTENTSTABLE
  2
AcDbSortentsTable
  3
ObjectDBX Classes
 90
        0
280
     0
281
     0
  0
CLASS
  1
AEC_VARS_DWG_SETUP
  2
AecDbVarsDwgSetup
  3
AecBase50|Product Desc: Autodesk Architectural Desktop 2007 |Company: Autodesk,Inc. |WEB Address: www.autodesk.com
 90
      129
280
     0
281
     0
  0
CLASS
  1
AEC_DISP_REP_CONFIG
  2
AecDbDispRepConfig
  3
AecBase50|Product Desc: Autodesk Architectural Desktop 2007 |Company: Autodesk,Inc. |WEB Address: www.autodesk.com
 90
      129
280
     0
281
     0
  0
CLASS
  1
AEC_DISP_REP_SET
  2
AecDbDispRepSet
  3
AecBase50|Product Desc: Autodesk Architectural Desktop 2007 |Company: Autodesk,Inc. |WEB Address: www.autodesk.com
 90
      129
280
     0
281
     0
  0
CLASS
  1
AEC_DISP_REP_2D_SECTION
  2
AecDbDispRep2dSection
  3
AecBase50|Product Desc: Autodesk Architectural Desktop 2007 |Company: Autodesk,Inc. |WEB Address: www.autodesk.com
 90
      129
280
     0
281
     0
  0
CLASS
  1
AEC_DISP_REP_ANCHOR_BUB_TO_GRID
  2
AecDbDispRepAnchorBubToGrid
  3
AecStructureBase50|Product Desc: Autodesk Architectural Desktop 2007 |Company: Autodesk,Inc. |WEB Address: www.autodesk.com
 90
      129
280
     0
281
     0
  0
CLASS
  1
AEC_DISP_REP_ANCHOR_BUB_TO_GRID_MODEL
  2
AecDbDispRepAnchorBubToGridMdl
  3
AecStructureBase50|Product Desc: Autodesk Architectural Desktop 2007 |Company: Autodesk,Inc. |WEB Address: www.autodesk.com
 90
      129
280
     0
281
     0
  0
CLASS
  1
AEC_DISP_REP_ANCHOR_ENT_TO_NODE
  2
AecDbDispRepAnchorEntToNode
  3
AecBase50|Product Desc: Autodesk Architectural Desktop 2007 |Company: Autodesk,Inc. |WEB Address: www.autodesk.com
 90
      129
280
     0
281
     0
  0
CLASS
  1
AEC_DISP_REP_ANCHOR_TAG_TO_ENT
  2
AecDbDispRepAnchorTagToEnt
  3
AecScheduleData50|Product Desc: Autodesk Architectural Desktop 2007 |Company: Autodesk,Inc. |WEB Address: www.autodesk.com
 90
      129
280
     0
281
     0
  0
CLASS
  1
AEC_DISP_REP_AREA
  2
AecDbDispRepArea
  3
AecAreaCalculationBase50|Product Desc: Autodesk Architectural Desktop 2007 |Company: Autodesk,Inc. |WEB Address: www.autodesk.com
 90
    32897
280
     0
281
     0
  0
CLASS
  1
AEC_DISP_REP_AREA_DECOMPOSED
  2
AecDbDispRepAreaDecomposed
  3
AecAreaCalculationBase50|Product Desc: Autodesk Architectural Desktop 2007 |Company: Autodesk,Inc. |WEB Address: www.autodesk.com
 90
    32897
280
     0
281
     0
  0
CLASS
  1
AEC_DISP_REP_AREAGROUP
  2
AecDbDispRepAreaGroup
  3
AecAreaCalculationBase50|Product Desc: Autodesk Architectural Desktop 2007 |Company: Autodesk,Inc. |WEB Address: www.autodesk.com
 90
    32897
280
     0
281
     0
  0
CLASS
  1
AEC_DISP_REP_BDG_ELEVLINE_MODEL
  2
AecDbDispRepBdgElevLineModel
  3
AecArchBase50|Product Desc: Autodesk Architectural Desktop 2007 |Company: Autodesk,Inc. |WEB Address: www.autodesk.com
 90
      129
280
     0
281
     0
  0
CLASS
  1
AEC_DISP_REP_BDG_SECTIONLINE_PLAN
  2
AecDbDispRepBdgElevLinePlan
  3
AecArchBase50|Product Desc: Autodesk Architectural Desktop 2007 |Company: Autodesk,Inc. |WEB Address: www.autodesk.com
 90
      129
280
     0
281
     0
  0
CLASS
  1
AEC_DISP_REP_BDG_SECTIONLINE_MODEL
  2
AecDbDispRepBdgSectionLineModel
  3
AecArchBase50|Product Desc: Autodesk Architectural Desktop 2007 |Company: Autodesk,Inc. |WEB Address: www.autodesk.com
 90
      129
280
     0
281
     0
  0
CLASS
  1
AEC_DISP_REP_BDG_SECTIONLINE_PLAN
  2
AecDbDispRepBdgSectionLinePlan
  3
AecArchBase50|Product Desc: Autodesk Architectural Desktop 2007 |Company: Autodesk,Inc. |WEB Address: www.autodesk.com
 90
      129
280
     0
281
     0
  0
CLASS
  1
AEC_DISP_REP_BDG_SECTION_SUBDIV
  2
AecDbDispRepBdgSectionSubDiv
  3
AecArchBase50|Product Desc: Autodesk Architectural Desktop 2007 |Company: Autodesk,Inc. |WEB Address: www.autodesk.com
 90
      129
280
     0
281
     0
  0
CLASS
  1
AEC_DISP_REP_CAMERA
  2
AecDbDispRepCamera
  3
AecBase50|Product Desc: Autodesk Architectural Desktop 2007 |Company: Autodesk,Inc. |WEB Address: www.autodesk.com
 90
    32897
280
     0
281
     0
  0
CLASS
  1
AEC_DISP_REP_CEILING_GRID
  2
AecDbDispRepCeilingGrid
  3
AecArchBase50|Product Desc: Autodesk Architectural Desktop 2007 |Company: Autodesk,Inc. |WEB Address: www.autodesk.com
 90
      893
280
     0
281
     0
  0
CLASS
  1
AEC_DISP_REP_CEILING_GRID_MODEL
  2
AecDbDispRepCeilingGridModel
  3
AecArchBase50|Product Desc: Autodesk Architectural Desktop 2007 |Company: Autodesk,Inc. |WEB Address: www.autodesk.com
 90
      129
280
     0
281
     0
  0
CLASS
  1
AEC_DISP_REP_CEILING_GRID_RCP
  2
AecDbDispRepCeilingGridRcp
  3
AecArchBase50|Product Desc: Autodesk Architectural Desktop 2007 |Company: Autodesk,Inc. |WEB Address: www.autodesk.com
 90
      129
280
     0
281
     0
  0
CLASS
  1
AEC_DISP_REP_CLIP_VOLUME_MODEL
  2
AecDbDispRepClipVolModel
  3
AecBase50|Product Desc: Autodesk Architectural Desktop 2007 |Company: Autodesk,Inc. |WEB Address: www.autodesk.com
 90
      129
280
     0
281
     0
  0
CLASS
  1
AEC_DISP_REP_CLIP_VOLUME_PLAN
  2
AecDbDispRepClipVolPlan
  3
AecBase50|Product Desc: Autodesk Architectural Desktop 2007 |Company: Autodesk,Inc. |WEB Address: www.autodesk.com
 90
      129
280
     0
281
     0
  0
CLASS
  1
AEC_DISP_REP_CLIP_VOLUME_RESULT_SUBDIV
  2
AecDbDispRepClipVolResSubDiv
  3
AecBase50|Product Desc: Autodesk Architectural Desktop 2007 |Company: Autodesk,Inc. |WEB Address: www.autodesk.com
 90
      129
280
     0
281
     0
  0
CLASS
  1
AEC_DISP_REP_CLIP_VOLUME_RESULT
  2
AecDbDispRepClipVolResult
  3
AecBase50|Product Desc: Autodesk Architectural Desktop 2007 |Company: Autodesk,Inc. |WEB Address: www.autodesk.com
 90
      129
280
     0
281
     0
  0
CLASS
  1
AEC_DISP_REP_COLUMN_GRID
  2
AecDbDispRepColumnGrid
  3
AecStructureBase50|Product Desc: Autodesk Architectural Desktop 2007 |Company: Autodesk,Inc. |WEB Address: www.autodesk.com
 90
      129
280
     0
281
     0
  0
CLASS
  1
AEC_DISP_REP_COLUMN_GRID_MODEL
  2
AecDbDispRepColumnGridModel
  3
AecStructureBase50|Product Desc: Autodesk Architectural Desktop 2007 |Company: Autodesk,Inc. |WEB Address: www.autodesk.com
 90
      129
280
     0
281
     0
  0
CLASS
  1
AEC_DISP_REP_CURTAIN_WALL_LAYOUT_MODEL
  2
AecDbDispRepCurtainWallLayoutModel
  3
AecArchBase50|Product Desc: Autodesk Architectural Desktop 2007 |Company: Autodesk,Inc. |WEB Address: www.autodesk.com
 90
      129
280
     0
281
     0
  0
CLASS
  1
AEC_DISP_REP_CURTAIN_WALL_LAYOUT_PLAN
  2
AecDbDispRepCurtainWallLayoutPlan
  3
AecArchBase50|Product Desc: Autodesk Architectural Desktop 2007 |Company: Autodesk,Inc. |WEB Address: www.autodesk.com
 90
      129
280
     0
281
     0
  0
CLASS
  1
AEC_DISP_REP_CURTAIN_WALL_UNIT_MODEL
  2
AecDbDispRepCurtainWallUnitModel
  3
AecArchBase50|Product Desc: Autodesk Architectural Desktop 2007 |Company: Autodesk,Inc. |WEB Address: www.autodesk.com
 90
      129
280
     0
281
     0
  0
CLASS
  1
AEC_DISP_REP_CURTAIN_WALL_UNIT_PLAN
  2
AecDbDispRepCurtainWallUnitPlan
  3
AecArchBase50|Product Desc: Autodesk Architectural Desktop 2007 |Company: Autodesk,Inc. |WEB Address: www.autodesk.com
 90
      129
280
     0
281
     0
  0
CLASS
  1
AEC_DB_DISP_REP_DIM_GROUP_PLAN
  2
AecDbDispRepDimGroupPlan
  3
AecArchDACHBase50|Product Desc: Autodesk Architectural Desktop 2007 |Company: Autodesk,Inc. |WEB Address: www.autodesk.com
 90
      129
280
     0
281
     0
  0
CLASS
  1
AEC_DISP_REP_DOOR_MODEL
  2
AecDbDispRepDoorModel
  3
AecArchBase50|Product Desc: Autodesk Architectural Desktop 2007 |Company: Autodesk,Inc. |WEB Address: www.autodesk.com
 90
      129
280
     0
281
     0
  0
CLASS
  1
AEC_DISP_REP_DOOR_NOMINAL
  2
AecDbDispRepDoorNominal
  3
AecArchBase50|Product Desc: Autodesk Architectural Desktop 2007 |Company: Autodesk,Inc. |WEB Address: www.autodesk.com
 90
      129
280
     0
281
     0
  0
CLASS
  1
AEC_DISP_REP_DOOR_PLAN
  2
AecDbDispRepDoorPlan
  3
AecArchBase50|Product Desc: Autodesk Architectural Desktop 2007 |Company: Autodesk,Inc. |WEB Address: www.autodesk.com
 90
      129
280
     0
281
     0
  0
CLASS
  1
AEC_DISP_REP_EDITINPLACEPROFILE
  2
AecDbDispRepEditInPlaceProfile
  3
AecBase50|Product Desc: Autodesk Architectural Desktop 2007 |Company: Autodesk,Inc. |WEB Address: www.autodesk.com
 90
      129
280
     0
281
     0
  0
CLASS
  1
AEC_DISP_REP_ENT_REF
  2
AecDbDispRepEntRef
  3
AecBase50|Product Desc: Autodesk Architectural Desktop 2007 |Company: Autodesk,Inc. |WEB Address: www.autodesk.com
 90
      129
280
     0
281
     0
  0
CLASS
  1
AEC_DISP_REP_LAYOUT_CURVE
  2
AecDbDispRepLayoutCurve
  3
AecBase50|Product Desc: Autodesk Architectural Desktop 2007 |Company: Autodesk,Inc. |WEB Address: www.autodesk.com
 90
      129
280
     0
281
     0
  0
CLASS
  1
AEC_DISP_REP_LAYOUT_GRID2D
  2
AecDbDispRepLayoutGrid2d
  3
AecBase50|Product Desc: Autodesk Architectural Desktop 2007 |Company: Autodesk,Inc. |WEB Address: www.autodesk.com
 90
      129
280
     0
281
     0
  0
CLASS
  1
AEC_DISP_REP_LAYOUT_GRID3D
  2
AecDbDispRepLayoutGrid3d
  3
AecBase50|Product Desc: Autodesk Architectural Desktop 2007 |Company: Autodesk,Inc. |WEB Address: www.autodesk.com
 90
      129
280
     0
281
     0
  0
CLASS
  1
AEC_DISP_REP_MASKBLOCK_REF
  2
AecDbDispRepMaskBlockRef
  3
AecBase50|Product Desc: Autodesk Architectural Desktop 2007 |Company: Autodesk,Inc. |WEB Address: www.autodesk.com
 90
      129
280
     0
281
     0
  0
CLASS
  1
AEC_DISP_REP_MASKBLOCK_REF_RCP
  2
AecDbDispRepMaskBlockRefRcp
  3
AecArchBase50|Product Desc: Autodesk Architectural Desktop 2007 |Company: Autodesk,Inc. |WEB Address: www.autodesk.com
 90
      129
280
     0
281
     0
  0
CLASS
  1
AEC_DISP_REP_MASS_ELEM_MODEL
  2
AecDbDispRepMassElemModel
  3
AecBaseEx50|Product Desc: Autodesk Architectural Desktop 2007 |Company: Autodesk,Inc. |WEB Address: www.autodesk.com
 90
      129
280
     0
281
     0
  0
CLASS
  1
AEC_DISP_REP_MASS_ELEM_SCHEM
  2
AecDbDispRepMassElemSchem
  3
AecBaseEx50|Product Desc: Autodesk Architectural Desktop 2007 |Company: Autodesk,Inc. |WEB Address: www.autodesk.com
 90
      129
280
     0
281
     0
  0
CLASS
  1
AEC_DISP_REP_MASS_GROUP_MODEL
  2
AecDbDispRepMassGroupModel
  3
AecBaseEx50|Product Desc: Autodesk Architectural Desktop 2007 |Company: Autodesk,Inc. |WEB Address: www.autodesk.com
 90
      129
280
     0
281
     0
  0
CLASS
  1
AEC_DISP_REP_MASS_GROUP_PLAN
  2
AecDbDispRepMassGroupPlan
  3
AecBaseEx50|Product Desc: Autodesk Architectural Desktop 2007 |Company: Autodesk,Inc. |WEB Address: www.autodesk.com
 90
      129
280
     0
281
     0
  0
CLASS
  1
AEC_DISP_REP_MATERIAL
  2
AecDbDispRepMaterial
  3
AecBase50|Product Desc: Autodesk Architectural Desktop 2007 |Company: Autodesk,Inc. |WEB Address: www.autodesk.com
 90
      129
280
     0
281
     0
  0
CLASS
  1
AEC_DISP_REP_MVBLOCK_REF
  2
AecDbDispRepMvBlockRef
  3
AecBase50|Product Desc: Autodesk Architectural Desktop 2007 |Company: Autodesk,Inc. |WEB Address: www.autodesk.com
 90
      129
280
     0
281
     0
  0
CLASS
  1
AEC_DISP_REP_MVBLOCK_REF_MODEL
  2
AecDbDispRepMvBlockRefModel
  3
AecBase50|Product Desc: Autodesk Architectural Desktop 2007 |Company: Autodesk,Inc. |WEB Address: www.autodesk.com
 90
      129
280
     0
281
     0
  0
CLASS
  1
AEC_DISP_REP_OPENING
  2
AecDbDispRepOpening
  3
AecArchBase50|Product Desc: Autodesk Architectural Desktop 2007 |Company: Autodesk,Inc. |WEB Address: www.autodesk.com
 90
      129
280
     0
281
     0
  0
CLASS
  1
AEC_DISP_REP_OPENING_MODEL
  2
AecDbDispRepOpeningModel
  3
AecArchBase50|Product Desc: Autodesk Architectural Desktop 2007 |Company: Autodesk,Inc. |WEB Address: www.autodesk.com
 90
      129
280
     0
281
     0
  0
CLASS
  1
AEC_DISP_REP_POLYGON_MODEL
  2
AecDbDispRepPolygonModel
  3
AecBase50|Product Desc: Autodesk Architectural Desktop 2007 |Company: Autodesk,Inc. |WEB Address: www.autodesk.com
 90
      129
280
     0
281
     0
  0
CLASS
  1
AEC_DISP_REP_RAILING_MODEL
  2
AecDbDispRepRailingModel
  3
AecArchBase50|Product Desc: Autodesk Architectural Desktop 2007 |Company: Autodesk,Inc. |WEB Address: www.autodesk.com
 90
      129
280
     0
281
     0
  0
CLASS
  1
AEC_DISP_REP_RAILING_PLAN
  2
AecDbDispRepRailingPlan
  3
AecArchBase50|Product Desc: Autodesk Architectural Desktop 2007 |Company: Autodesk,Inc. |WEB Address: www.autodesk.com
 90
      129
280
     0
281
     0
  0
CLASS
  1
AEC_DISP_REP_ROOF_MODEL
  2
AecDbDispRepRoofModel
  3
AecArchBase50|Product Desc: Autodesk Architectural Desktop 2007 |Company: Autodesk,Inc. |WEB Address: www.autodesk.com
 90
      129
280
     0
281
     0
  0
CLASS
  1
AEC_DISP_REP_ROOF_PLAN
  2
AecDbDispRepRoofPlan
  3
AecArchBase50|Product Desc: Autodesk Architectural Desktop 2007 |Company: Autodesk,Inc. |WEB Address: www.autodesk.com
 90
      129
280
     0
281
     0
  0
CLASS
  1
AEC_DISP_REP_ROOFSLAB_MODEL
  2
AecDbDispRepRoofSlabModel
  3
AecArchBase50|Product Desc: Autodesk Architectural Desktop 2007 |Company: Autodesk,Inc. |WEB Address: www.autodesk.com
 90
      129
280
     0
281
     0
  0
CLASS
  1
AEC_DISP_REP_ROOFSLAB_PLAN
  2
AecDbDispRepRoofSlabPlan
  3
AecArchBase50|Product Desc: Autodesk Architectural Desktop 2007 |Company: Autodesk,Inc. |WEB Address: www.autodesk.com
 90
      129
280
     0
281
     0
  0
CLASS
  1
AEC_DISP_REP_SCHEDULE_TABLE
  2
AecDbDispRepScheduleTable
  3
AecSchedule50|Product Desc: Autodesk Architectural Desktop 2007 |Company: Autodesk,Inc. |WEB Address: www.autodesk.com
 90
      129
280
     0
281
     0
  0
CLASS
  1
AEC_DISP_REP_SLAB_MODEL
  2
AecDbDispRepSlabModel
  3
AecArchBase50|Product Desc: Autodesk Architectural Desktop 2007 |Company: Autodesk,Inc. |WEB Address: www.autodesk.com
 90
      129
280
     0
281
     0
  0
CLASS
  1
AEC_DISP_REP_SLAB_PLAN
  2
AecDbDispRepSlabPlan
  3
AecArchBase50|Product Desc: Autodesk Architectural Desktop 2007 |Company: Autodesk,Inc. |WEB Address: www.autodesk.com
 90
      129
280
     0
281
     0
  0
CLASS
  1
AEC_DISP_REP_SLICE
  2
AecDbDispRepSlice
  3
AecBase50|Product Desc: Autodesk Architectural Desktop 2007 |Company: Autodesk,Inc. |WEB Address: www.autodesk.com
 90
      129
280
     0
281
     0
  0
CLASS
  1
AEC_DISP_REP_SPACE_BOUNDARY_MODEL
  2
AecDbDispRepSpaceBoundaryModel
  3
AecArchBase50|Product Desc: Autodesk Architectural Desktop 2007 |Company: Autodesk,Inc. |WEB Address: www.autodesk.com
 90
    32897
280
     0
281
     0
  0
CLASS
  1
AEC_DISP_REP_SPACE_BOUNDARY_PLAN
  2
AecDbDispRepSpaceBoundaryPlan
  3
AecArchBase50|Product Desc: Autodesk Architectural Desktop 2007 |Company: Autodesk,Inc. |WEB Address: www.autodesk.com
 90
    32897
280
     0
281
     0
  0
CLASS
  1
AEC_DISP_REP_SPACE_BOUNDARY_SCHEM
  2
AecDbDispRepSpaceBoundarySketch
  3
AecArchBase50|Product Desc: Autodesk Architectural Desktop 2007 |Company: Autodesk,Inc. |WEB Address: www.autodesk.com
 90
    32897
280
     0
281
     0
  0
CLASS
  1
AEC_DISP_REP_SPACE_MODEL
  2
AecDbDispRepSpaceModel
  3
AecArchBase50|Product Desc: Autodesk Architectural Desktop 2007 |Company: Autodesk,Inc. |WEB Address: www.autodesk.com
 90
      129
280
     0
281
     0
  0
CLASS
  1
AEC_DISP_REP_SPACE_PLAN
  2
AecDbDispRepSpacePlan
  3
AecArchBase50|Product Desc: Autodesk Architectural Desktop 2007 |Company: Autodesk,Inc. |WEB Address: www.autodesk.com
 90
      129
280
     0
281
     0
  0
CLASS
  1
AEC_DISP_REP_STAIR_MODEL
  2
AecDbDispRepStairModel
  3
AecArchBase50|Product Desc: Autodesk Architectural Desktop 2007 |Company: Autodesk,Inc. |WEB Address: www.autodesk.com
 90
      129
280
     0
281
     0
  0
CLASS
  1
AEC_DISP_REP_STAIR_PLAN
  2
AecDbDispRepStairPlan
  3
AecArchBase50|Product Desc: Autodesk Architectural Desktop 2007 |Company: Autodesk,Inc. |WEB Address: www.autodesk.com
 90
      129
280
     0
281
     0
  0
CLASS
  1
AEC_DISP_REP_WALL_GRAPH
  2
AecDbDispRepWallGraph
  3
AecArchBase50|Product Desc: Autodesk Architectural Desktop 2007 |Company: Autodesk,Inc. |WEB Address: www.autodesk.com
 90
      129
280
     0
281
     0
  0
CLASS
  1
AEC_DISP_REP_WALL_MODEL
  2
AecDbDispRepWallModel
  3
AecArchBase50|Product Desc: Autodesk Architectural Desktop 2007 |Company: Autodesk,Inc. |WEB Address: www.autodesk.com
 90
      129
280
     0
281
     0
  0
CLASS
  1
AEC_DISP_REP_WALL_PLAN
  2
AecDbDispRepWallPlan
  3
AecArchBase50|Product Desc: Autodesk Architectural Desktop 2007 |Company: Autodesk,Inc. |WEB Address: www.autodesk.com
 90
      129
280
     0
281
     0
  0
CLASS
  1
AEC_DISP_REP_WALL_SCHEM
  2
AecDbDispRepWallSchem
  3
AecArchBase50|Product Desc: Autodesk Architectural Desktop 2007 |Company: Autodesk,Inc. |WEB Address: www.autodesk.com
 90
      129
280
     0
281
     0
  0
CLASS
  1
AEC_DISP_REP_WINDOW_ASSEMBLY_MODEL
  2
AecDbDispRepWindowAssemblyModel
  3
AecArchBase50|Product Desc: Autodesk Architectural Desktop 2007 |Company: Autodesk,Inc. |WEB Address: www.autodesk.com
 90
      129
280
     0
281
     0
  0
CLASS
  1
AEC_DISP_REP_WINDOW_ASSEMBLY_PLAN
  2
AecDbDispRepWindowAssemblyPlan
  3
AecArchBase50|Product Desc: Autodesk Architectural Desktop 2007 |Company: Autodesk,Inc. |WEB Address: www.autodesk.com
 90
      129
280
     0
281
     0
  0
CLASS
  1
AEC_AECDBDISPREPWINDOWASSEMBLYPLAN100
  2
AecDbDispRepWindowAssemblyPlan100
  3
AecArchDACHBase50|Product Desc: Autodesk Architectural Desktop 2007 |Company: Autodesk,Inc. |WEB Address: www.autodesk.com
 90
      129
280
     0
281
     0
  0
CLASS
  1
AEC_DISP_REP_WINDOW_MODEL
  2
AecDbDispRepWindowModel
  3
AecArchBase50|Product Desc: Autodesk Architectural Desktop 2007 |Company: Autodesk,Inc. |WEB Address: www.autodesk.com
 90
      129
280
     0
281
     0
  0
CLASS
  1
AEC_DISP_REP_WINDOW_NOMINAL
  2
AecDbDispRepWindowNominal
  3
AecArchBase50|Product Desc: Autodesk Architectural Desktop 2007 |Company: Autodesk,Inc. |WEB Address: www.autodesk.com
 90
      129
280
     0
281
     0
  0
CLASS
  1
AEC_DISP_REP_WINDOW_PLAN
  2
AecDbDispRepWindowPlan
  3
AecArchBase50|Product Desc: Autodesk Architectural Desktop 2007 |Company: Autodesk,Inc. |WEB Address: www.autodesk.com
 90
      129
280
     0
281
     0
  0
CLASS
  1
AECS_DISP_REP_MEMBER_LOGICAL
  2
AecsDbDispRepMemberLogical
  3
AecStructureBase50|Product Desc: Autodesk Architectural Desktop 2007 |Company: Autodesk,Inc. |WEB Address: www.autodesk.com
 90
      129
280
     0
281
     0
  0
CLASS
  1
AECS_DISP_REP_MEMBER_MODEL_DESIGN
  2
AecsDbDispRepMemberModelDesign
  3
AecStructureBase50|Product Desc: Autodesk Architectural Desktop 2007 |Company: Autodesk,Inc. |WEB Address: www.autodesk.com
 90
      129
280
     0
281
     0
  0
CLASS
  1
AECS_DISP_REP_MEMBER_PLAN_DESIGN
  2
AecsDbDispRepMemberPlanDesign
  3
AecStructureBase50|Product Desc: Autodesk Architectural Desktop 2007 |Company: Autodesk,Inc. |WEB Address: www.autodesk.com
 90
      129
280
     0
281
     0
  0
CLASS
  1
AEC_DISP_PROPS_ENT
  2
AecDbDispPropsEnt
  3
AecBase50|Product Desc: Autodesk Architectural Desktop 2007 |Company: Autodesk,Inc. |WEB Address: www.autodesk.com
 90
      129
280
     0
281
     0
  0
CLASS
  1
AEC_DISP_PROPS_CLIP_VOLUME
  2
AecDbDispPropsClipVol
  3
AecBase50|Product Desc: Autodesk Architectural Desktop 2007 |Company: Autodesk,Inc. |WEB Address: www.autodesk.com
 90
      129
280
     0
281
     0
  0
CLASS
  1
AEC_DISP_PROPS_SLICE
  2
AecDbDispPropsSlice
  3
AecBase50|Product Desc: Autodesk Architectural Desktop 2007 |Company: Autodesk,Inc. |WEB Address: www.autodesk.com
 90
      129
280
     0
281
     0
  0
CLASS
  1
AEC_DISP_PROPS_ROOFSLAB_PLAN
  2
AecDbDispPropsRoofSlabPlan
  3
AecArchBase50|Product Desc: Autodesk Architectural Desktop 2007 |Company: Autodesk,Inc. |WEB Address: www.autodesk.com
 90
      129
280
     0
281
     0
  0
CLASS
  1
AEC_DISP_PROPS_GRID_ASSEMBLY_MODEL
  2
AecDbDispPropsGridAssemblyModel
  3
AecArchBase50|Product Desc: Autodesk Architectural Desktop 2007 |Company: Autodesk,Inc. |WEB Address: www.autodesk.com
 90
      129
280
     0
281
     0
  0
CLASS
  1
AEC_DISP_PROPS_ROOF
  2
AecDbDispPropsRoof
  3
AecArchBase50|Product Desc: Autodesk Architectural Desktop 2007 |Company: Autodesk,Inc. |WEB Address: www.autodesk.com
 90
      129
280
     0
281
     0
  0
CLASS
  1
AEC_DISP_PROPS_SPACE_MODEL
  2
AecDbDispPropsSpaceModel
  3
AecArchBase50|Product Desc: Autodesk Architectural Desktop 2007 |Company: Autodesk,Inc. |WEB Address: www.autodesk.com
 90
      129
280
     0
281
     0
  0
CLASS
  1
AEC_DISP_PROPS_EDITINPLACEPROFILE_MODEL
  2
AecDbDispPropsEditInPlaceProfile
  3
AecBase50|Product Desc: Autodesk Architectural Desktop 2007 |Company: Autodesk,Inc. |WEB Address: www.autodesk.com
 90
      129
280
     0
281
     0
  0
CLASS
  1
AEC_DISP_PROPS_DOOR
  2
AecDbDispPropsDoor
  3
AecArchBase50|Product Desc: Autodesk Architectural Desktop 2007 |Company: Autodesk,Inc. |WEB Address: www.autodesk.com
 90
      129
280
     0
281
     0
  0
CLASS
  1
AEC_DISP_PROPS_MASKBLOCK
  2
AecDbDispPropsMaskBlock
  3
AecBase50|Product Desc: Autodesk Architectural Desktop 2007 |Company: Autodesk,Inc. |WEB Address: www.autodesk.com
 90
      129
280
     0
281
     0
  0
CLASS
  1
AEC_DISP_PROPS_SPACE_PLAN
  2
AecDbDispPropsSpacePlan
  3
AecArchBase50|Product Desc: Autodesk Architectural Desktop 2007 |Company: Autodesk,Inc. |WEB Address: www.autodesk.com
 90
      129
280
     0
281
     0
  0
CLASS
  1
AEC_DISP_PROPS_RAILING_PLAN
  2
AecDbDispPropsRailingPlan
  3
AecArchBase50|Product Desc: Autodesk Architectural Desktop 2007 |Company: Autodesk,Inc. |WEB Address: www.autodesk.com
 90
      129
280
     0
281
     0
  0
CLASS
  1
AEC_DISP_PROPS_LAYOUT_GRID2D
  2
AecDbDispPropsLayoutGrid2d
  3
AecBase50|Product Desc: Autodesk Architectural Desktop 2007 |Company: Autodesk,Inc. |WEB Address: www.autodesk.com
 90
      129
280
     0
281
     0
  0
CLASS
  1
AEC_DISP_PROPS_CLIP_VOLUME_RESULT
  2
AecDbDispPropsClipVolResSubDiv
  3
AecBase50|Product Desc: Autodesk Architectural Desktop 2007 |Company: Autodesk,Inc. |WEB Address: www.autodesk.com
 90
      129
280
     0
281
     0
  0
CLASS
  1
AEC_DISP_PROPS_STAIR_MODEL
  2
AecDbDispPropsStairModel
  3
AecArchBase50|Product Desc: Autodesk Architectural Desktop 2007 |Company: Autodesk,Inc. |WEB Address: www.autodesk.com
 90
      129
280
     0
281
     0
  0
CLASS
  1
AEC_DISP_PROPS_LAYOUT_CURVE
  2
AecDbDispPropsLayoutCurve
  3
AecBase50|Product Desc: Autodesk Architectural Desktop 2007 |Company: Autodesk,Inc. |WEB Address: www.autodesk.com
 90
      129
280
     0
281
     0
  0
CLASS
  1
AEC_DISP_PROPS_POLYGON_MODEL
  2
AecDbDispPropsPolygonModel
  3
AecBase50|Product Desc: Autodesk Architectural Desktop 2007 |Company: Autodesk,Inc. |WEB Address: www.autodesk.com
 90
      129
280
     0
281
     0
  0
CLASS
  1
AEC_DISP_PROPS_MASS_GROUP
  2
AecDbDispPropsMassGroup
  3
AecBaseEx50|Product Desc: Autodesk Architectural Desktop 2007 |Company: Autodesk,Inc. |WEB Address: www.autodesk.com
 90
      129
280
     0
281
     0
  0
CLASS
  1
AEC_DISP_PROPS_STAIR_PLAN
  2
AecDbDispPropsStairPlan
  3
AecArchBase50|Product Desc: Autodesk Architectural Desktop 2007 |Company: Autodesk,Inc. |WEB Address: www.autodesk.com
 90
      129
280
     0
281
     0
  0
CLASS
  1
AEC_DISP_PROPS_OPENING
  2
AecDbDispPropsOpening
  3
AecArchBase50|Product Desc: Autodesk Architectural Desktop 2007 |Company: Autodesk,Inc. |WEB Address: www.autodesk.com
 90
      129
280
     0
281
     0
  0
CLASS
  1
AEC_DISP_PROPS_WALL_GRAPH
  2
AecDbDispPropsWallGraph
  3
AecArchBase50|Product Desc: Autodesk Architectural Desktop 2007 |Company: Autodesk,Inc. |WEB Address: www.autodesk.com
 90
      129
280
     0
281
     0
  0
CLASS
  1
AEC_DISP_PROPS_DOOR_NOMINAL
  2
AecDbDispPropsDoorNominal
  3
AecArchBase50|Product Desc: Autodesk Architectural Desktop 2007 |Company: Autodesk,Inc. |WEB Address: www.autodesk.com
 90
      129
280
     0
281
     0
  0
CLASS
  1
AEC_DISP_PROPS_SLAB
  2
AecDbDispPropsSlab
  3
AecArchBase50|Product Desc: Autodesk Architectural Desktop 2007 |Company: Autodesk,Inc. |WEB Address: www.autodesk.com
 90
      129
280
     0
281
     0
  0
CLASS
  1
AEC_DISP_PROPS_WALL_MODEL
  2
AecDbDispPropsWallModel
  3
AecArchBase50|Product Desc: Autodesk Architectural Desktop 2007 |Company: Autodesk,Inc. |WEB Address: www.autodesk.com
 90
      129
280
     0
281
     0
  0
CLASS
  1
AEC_DISP_PROPS_MATERIAL
  2
AecDbDispPropsMaterial
  3
AecBase50|Product Desc: Autodesk Architectural Desktop 2007 |Company: Autodesk,Inc. |WEB Address: www.autodesk.com
 90
      129
280
     0
281
     0
  0
CLASS
  1
AEC_DISP_PROPS_WINDOW
  2
AecDbDispPropsWindow
  3
AecArchBase50|Product Desc: Autodesk Architectural Desktop 2007 |Company: Autodesk,Inc. |WEB Address: www.autodesk.com
 90
      129
280
     0
281
     0
  0
CLASS
  1
AEC_DISP_PROPS_LAYOUT_GRID3D
  2
AecDbDispPropsLayoutGrid3d
  3
AecBase50|Product Desc: Autodesk Architectural Desktop 2007 |Company: Autodesk,Inc. |WEB Address: www.autodesk.com
 90
      129
280
     0
281
     0
  0
CLASS
  1
AEC_DISP_PROPS_GRID_ASSEMBLY_PLAN
  2
AecDbDispPropsGridAssemblyPlan
  3
AecArchBase50|Product Desc: Autodesk Architectural Desktop 2007 |Company: Autodesk,Inc. |WEB Address: www.autodesk.com
 90
      129
280
     0
281
     0
  0
CLASS
  1
AEC_DISP_PROPS_WALL_SCHEM
  2
AecDbDispPropsWallSchem
  3
AecArchBase50|Product Desc: Autodesk Architectural Desktop 2007 |Company: Autodesk,Inc. |WEB Address: www.autodesk.com
 90
      129
280
     0
281
     0
  0
CLASS
  1
AEC_DISP_PROPS_WALL_PLAN
  2
AecDbDispPropsWallPlan
  3
AecArchBase50|Product Desc: Autodesk Architectural Desktop 2007 |Company: Autodesk,Inc. |WEB Address: www.autodesk.com
 90
      129
280
     0
281
     0
  0
CLASS
  1
AEC_DISP_PROPS_SPACE_BOUNDARY
  2
AecDbDispPropsSpaceBoundary
  3
AecArchBase50|Product Desc: Autodesk Architectural Desktop 2007 |Company: Autodesk,Inc. |WEB Address: www.autodesk.com
 90
    32897
280
     0
281
     0
  0
CLASS
  1
AEC_DISP_PROPS_SLAB_PLAN
  2
AecDbDispPropsSlabPlan
  3
AecArchBase50|Product Desc: Autodesk Architectural Desktop 2007 |Company: Autodesk,Inc. |WEB Address: www.autodesk.com
 90
      129
280
     0
281
     0
  0
CLASS
  1
AEC_DISP_PROPS_RAILING_MODEL
  2
AecDbDispPropsRailingModel
  3
AecArchBase50|Product Desc: Autodesk Architectural Desktop 2007 |Company: Autodesk,Inc. |WEB Address: www.autodesk.com
 90
      129
280
     0
281
     0
  0
CLASS
  1
AEC_DISP_PROPS_MASS_ELEM_MODEL
  2
AecDbDispPropsMassElem
  3
AecBaseEx50|Product Desc: Autodesk Architectural Desktop 2007 |Company: Autodesk,Inc. |WEB Address: www.autodesk.com
 90
      129
280
     0
281
     0
  0
CLASS
  1
AEC_DISP_PROPS_DIM
  2
AecDbDispPropsDimGroup
  3
AecArchDACHBase50|Product Desc: Autodesk Architectural Desktop 2007 |Company: Autodesk,Inc. |WEB Address: www.autodesk.com
 90
      129
280
     0
281
     0
  0
CLASS
  1
AEC_DISP_PROPS_ROOFSLAB
  2
AecDbDispPropsRoofSlab
  3
AecArchBase50|Product Desc: Autodesk Architectural Desktop 2007 |Company: Autodesk,Inc. |WEB Address: www.autodesk.com
 90
      129
280
     0
281
     0
  0
CLASS
  1
AEC_DISP_PROPS_ENT_REF
  2
AecDbDispPropsEntRef
  3
AecBase50|Product Desc: Autodesk Architectural Desktop 2007 |Company: Autodesk,Inc. |WEB Address: www.autodesk.com
 90
      129
280
     0
281
     0
  0
CLASS
  1
AEC_DISP_PROPS_2D_SECTION
  2
AecDbDispProps2dSection
  3
AecBase50|Product Desc: Autodesk Architectural Desktop 2007 |Company: Autodesk,Inc. |WEB Address: www.autodesk.com
 90
      129
280
     0
281
     0
  0
CLASS
  1
AECS_DISP_PROPS_MEMBER_LOGICAL
  2
AecsDbDispPropsMemberLogical
  3
AecStructureBase50|Product Desc: Autodesk Architectural Desktop 2007 |Company: Autodesk,Inc. |WEB Address: www.autodesk.com
 90
      129
280
     0
281
     0
  0
CLASS
  1
AEC_DISP_PROPS_AREA_DECOMPOSED
  2
AecDbDispPropsAreaDecomposed
  3
AecAreaCalculationBase50|Product Desc: Autodesk Architectural Desktop 2007 |Company: Autodesk,Inc. |WEB Address: www.autodesk.com
 90
    32897
280
     0
281
     0
  0
CLASS
  1
AEC_DISP_PROPS_CAMERA
  2
AecDbDispPropsCamera
  3
AecBase50|Product Desc: Autodesk Architectural Desktop 2007 |Company: Autodesk,Inc. |WEB Address: www.autodesk.com
 90
    32897
280
     0
281
     0
  0
CLASS
  1
AECS_DISP_PROPS_MEMBER
  2
AecsDbDispPropsMember
  3
AecStructureBase50|Product Desc: Autodesk Architectural Desktop 2007 |Company: Autodesk,Inc. |WEB Address: www.autodesk.com
 90
      129
280
     0
281
     0
  0
CLASS
  1
AECS_DISP_PROPS_MEMBER_PLAN
  2
AecsDbDispPropsMemberPlan
  3
AecStructureBase50|Product Desc: Autodesk Architectural Desktop 2007 |Company: Autodesk,Inc. |WEB Address: www.autodesk.com
 90
      129
280
     0
281
     0
  0
CLASS
  1
AEC_DISP_PROPS_AREAGROUP
  2
AecDbDispPropsAreaGroup
  3
AecAreaCalculationBase50|Product Desc: Autodesk Architectural Desktop 2007 |Company: Autodesk,Inc. |WEB Address: www.autodesk.com
 90
    32897
280
     0
281
     0
  0
CLASS
  1
AEC_DISP_PROPS_WINDOW_NOMINAL
  2
AecDbDispPropsWindowNominal
  3
AecArchBase50|Product Desc: Autodesk Architectural Desktop 2007 |Company: Autodesk,Inc. |WEB Address: www.autodesk.com
 90
      129
280
     0
281
     0
  0
CLASS
  1
AEC_DISP_PROPS_AREA
  2
AecDbDispPropsArea
  3
AecAreaCalculationBase50|Product Desc: Autodesk Architectural Desktop 2007 |Company: Autodesk,Inc. |WEB Address: www.autodesk.com
 90
    32897
280
     0
281
     0
  0
CLASS
  1
AEC_DISP_PROPS_SCHEDULE_TABLE
  2
AecDbDispPropsScheduleTable
  3
AecSchedule50|Product Desc: Autodesk Architectural Desktop 2007 |Company: Autodesk,Inc. |WEB Address: www.autodesk.com
 90
      129
280
     0
281
     0
  0
CLASS
  1
AEC_LAYERKEY_STYLE
  2
AecDbLayerKeyStyle
  3
AecBase50|Product Desc: Autodesk Architectural Desktop 2007 |Company: Autodesk,Inc. |WEB Address: www.autodesk.com
 90
    32897
280
     0
281
     0
  0
CLASS
  1
AEC_VARS_ARCHBASE
  2
AecDbVarsArchBase
  3
AecArchBase50|Product Desc: Autodesk Architectural Desktop 2007 |Company: Autodesk,Inc. |WEB Address: www.autodesk.com
 90
      129
280
     0
281
     0
  0
CLASS
  1
AEC_VARS_MUNICH
  2
AecDbVarsMunich
  3
AecArchDACHBase50|Product Desc: Autodesk Architectural Desktop 2007 |Company: Autodesk,Inc. |WEB Address: www.autodesk.com
 90
      129
280
     0
281
     0
  0
CLASS
  1
AEC_NOTIFICATION_TRACKER
  2
AecDbNotificationTracker
  3
AecBase50|Product Desc: Autodesk Architectural Desktop 2007 |Company: Autodesk,Inc. |WEB Address: www.autodesk.com
 90
      129
280
     0
281
     0
  0
CLASS
  1
AEC_DISP_REP_ANCHOR
  2
AecDbDispRepAnchor
  3
AecBase50|Product Desc: Autodesk Architectural Desktop 2007 |Company: Autodesk,Inc. |WEB Address: www.autodesk.com
 90
      129
280
     0
281
     0
  0
CLASS
  1
AEC_DISP_REP_POLYGON_TRUECOLOUR
  2
AecDbDispRepPolygonTrueColour
  3
AecBase50|Product Desc: Autodesk Architectural Desktop 2007 |Company: Autodesk,Inc. |WEB Address: www.autodesk.com
 90
      129
280
     0
281
     0
  0
CLASS
  1
AEC_DISP_PROPS_POLYGON_TRUECOLOUR
  2
AecDbDispPropsPolygonTrueColour
  3
AecBase50|Product Desc: Autodesk Architectural Desktop 2007 |Company: Autodesk,Inc. |WEB Address: www.autodesk.com
 90
      129
280
     0
281
     0
  0
CLASS
  1
AEC_DISP_REP_BDG_ELEVLINE_RCP
  2
AecDbDispRepBdgElevLineRcp
  3
AecArchBase50|Product Desc: Autodesk Architectural Desktop 2007 |Company: Autodesk,Inc. |WEB Address: www.autodesk.com
 90
      129
280
     0
281
     0
  0
CLASS
  1
AEC_DISP_REP_BDG_SECTIONLINE_RCP
  2
AecDbDispRepBdgSectionLineRcp
  3
AecArchBase50|Product Desc: Autodesk Architectural Desktop 2007 |Company: Autodesk,Inc. |WEB Address: www.autodesk.com
 90
      129
280
     0
281
     0
  0
CLASS
  1
AEC_DISP_REP_BDG_SECTION_MODEL
  2
AecDbDispRepBdgSectionModel
  3
AecArchBase50|Product Desc: Autodesk Architectural Desktop 2007 |Company: Autodesk,Inc. |WEB Address: www.autodesk.com
 90
      129
280
     0
281
     0
  0
CLASS
  1
AEC_DISP_REP_DOOR_ELEV
  2
AecDbDispRepDoorElev
  3
AecArchBase50|Product Desc: Autodesk Architectural Desktop 2007 |Company: Autodesk,Inc. |WEB Address: www.autodesk.com
 90
      129
280
     0
281
     0
  0
CLASS
  1
AEC_DISP_REP_DOOR_RCP
  2
AecDbDispRepDoorRcp
  3
AecArchBase50|Product Desc: Autodesk Architectural Desktop 2007 |Company: Autodesk,Inc. |WEB Address: www.autodesk.com
 90
      129
280
     0
281
     0
  0
CLASS
  1
AEC_DISP_REP_DOOR_THRESHOLD_PLAN
  2
AecDbDispRepDoorThresholdPlan
  3
AecArchBase50|Product Desc: Autodesk Architectural Desktop 2007 |Company: Autodesk,Inc. |WEB Address: www.autodesk.com
 90
      129
280
     0
281
     0
  0
CLASS
  1
AEC_DISP_PROPS_DOOR_THRESHOLD_PLAN
  2
AecDbDispPropsDoorThresholdPlan
  3
AecArchBase50|Product Desc: Autodesk Architectural Desktop 2007 |Company: Autodesk,Inc. |WEB Address: www.autodesk.com
 90
      129
280
     0
281
     0
  0
CLASS
  1
AEC_DISP_REP_MASS_ELEM_RCP
  2
AecDbDispRepMassElemRcp
  3
AecArchBase50|Product Desc: Autodesk Architectural Desktop 2007 |Company: Autodesk,Inc. |WEB Address: www.autodesk.com
 90
      129
280
     0
281
     0
  0
CLASS
  1
AEC_DISP_REP_MASS_GROUP_RCP
  2
AecDbDispRepMassGroupRcp
  3
AecArchBase50|Product Desc: Autodesk Architectural Desktop 2007 |Company: Autodesk,Inc. |WEB Address: www.autodesk.com
 90
      129
280
     0
281
     0
  0
CLASS
  1
AEC_DISP_REP_MVBLOCK_REF_RCP
  2
AecDbDispRepMvBlockRefRcp
  3
AecArchBase50|Product Desc: Autodesk Architectural Desktop 2007 |Company: Autodesk,Inc. |WEB Address: www.autodesk.com
 90
      129
280
     0
281
     0
  0
CLASS
  1
AEC_DISP_REP_ROOF_RCP
  2
AecDbDispRepRoofRcp
  3
AecArchBase50|Product Desc: Autodesk Architectural Desktop 2007 |Company: Autodesk,Inc. |WEB Address: www.autodesk.com
 90
      129
280
     0
281
     0
  0
CLASS
  1
AEC_DISP_REP_SPACE_BOUNDARY_DIAGRAM
  2
AecDbDispRepSpaceBoundaryDgrm
  3
AecArchBase50|Product Desc: Autodesk Architectural Desktop 2007 |Company: Autodesk,Inc. |WEB Address: www.autodesk.com
 90
    32897
280
     0
281
     0
  0
CLASS
  1
AEC_DISP_REP_SPACE_RCP
  2
AecDbDispRepSpaceRcp
  3
AecArchBase50|Product Desc: Autodesk Architectural Desktop 2007 |Company: Autodesk,Inc. |WEB Address: www.autodesk.com
 90
      129
280
     0
281
     0
  0
CLASS
  1
AEC_DISP_REP_SPACE_VOLUME
  2
AecDbDispRepSpaceVolume
  3
AecArchBase50|Product Desc: Autodesk Architectural Desktop 2007 |Company: Autodesk,Inc. |WEB Address: www.autodesk.com
 90
      129
280
     0
281
     0
  0
CLASS
  1
AEC_DISP_REP_STAIR_PLAN_OVERLAPPING
  2
AecDbDispRepStairPlanOverlapping
  3
AecArchBase50|Product Desc: Autodesk Architectural Desktop 2007 |Company: Autodesk,Inc. |WEB Address: www.autodesk.com
 90
      129
280
     0
281
     0
  0
CLASS
  1
AEC_DISP_PROPS_STAIR_PLAN_OVERLAPPING
  2
AecDbDispPropsStairPlanOverlapping
  3
AecArchBase50|Product Desc: Autodesk Architectural Desktop 2007 |Company: Autodesk,Inc. |WEB Address: www.autodesk.com
 90
      129
280
     0
281
     0
  0
CLASS
  1
AEC_DISP_REP_STAIR_RCP
  2
AecDbDispRepStairRcp
  3
AecArchBase50|Product Desc: Autodesk Architectural Desktop 2007 |Company: Autodesk,Inc. |WEB Address: www.autodesk.com
 90
      129
280
     0
281
     0
  0
CLASS
  1
AEC_DISP_REP_WALL_RCP
  2
AecDbDispRepWallRcp
  3
AecArchBase50|Product Desc: Autodesk Architectural Desktop 2007 |Company: Autodesk,Inc. |WEB Address: www.autodesk.com
 90
      129
280
     0
281
     0
  0
CLASS
  1
AEC_DISP_REP_WINDOWASSEMBLY_SILL_PLAN
  2
AecDbDispRepWindowAssemblySillPlan
  3
AecArchBase50|Product Desc: Autodesk Architectural Desktop 2007 |Company: Autodesk,Inc. |WEB Address: www.autodesk.com
 90
      129
280
     0
281
     0
  0
CLASS
  1
AEC_DISP_PROPS_WINDOW_ASSEMBLY_SILL_PLAN
  2
AecDbDispPropsWindowAssemblySillPlan
  3
AecArchBase50|Product Desc: Autodesk Architectural Desktop 2007 |Company: Autodesk,Inc. |WEB Address: www.autodesk.com
 90
      129
280
     0
281
     0
  0
CLASS
  1
AEC_DISP_REP_WINDOW_ELEV
  2
AecDbDispRepWindowElev
  3
AecArchBase50|Product Desc: Autodesk Architectural Desktop 2007 |Company: Autodesk,Inc. |WEB Address: www.autodesk.com
 90
      129
280
     0
281
     0
  0
CLASS
  1
AEC_DISP_REP_WINDOW_RCP
  2
AecDbDispRepWindowRcp
  3
AecArchBase50|Product Desc: Autodesk Architectural Desktop 2007 |Company: Autodesk,Inc. |WEB Address: www.autodesk.com
 90
      129
280
     0
281
     0
  0
CLASS
  1
AEC_DISP_REP_WINDOW_SILL_PLAN
  2
AecDbDispRepWindowSillPlan
  3
AecArchBase50|Product Desc: Autodesk Architectural Desktop 2007 |Company: Autodesk,Inc. |WEB Address: www.autodesk.com
 90
      129
280
     0
281
     0
  0
CLASS
  1
AEC_DISP_PROPS_WINDOW_SILL_PLAN
  2
AecDbDispPropsWindowSillPlan
  3
AecArchBase50|Product Desc: Autodesk Architectural Desktop 2007 |Company: Autodesk,Inc. |WEB Address: www.autodesk.com
 90
      129
280
     0
281
     0
  0
CLASS
  1
AEC_DISP_REP_ANCHOR_BUB_TO_GRID_RCP
  2
AecDbDispRepAnchorBubToGridRcp
  3
AecStructureBase50|Product Desc: Autodesk Architectural Desktop 2007 |Company: Autodesk,Inc. |WEB Address: www.autodesk.com
 90
      129
280
     0
281
     0
  0
CLASS
  1
AEC_DISP_REP_COLUMN_GRID_RCP
  2
AecDbDispRepColumnGridRcp
  3
AecStructureBase50|Product Desc: Autodesk Architectural Desktop 2007 |Company: Autodesk,Inc. |WEB Address: www.autodesk.com
 90
      129
280
     0
281
     0
  0
CLASS
  1
AECS_DISP_REP_MEMBER_ELEVATION_DESIGN
  2
AecsDbDispRepMemberElevationDesign
  3
AecStructureBase50|Product Desc: Autodesk Architectural Desktop 2007 |Company: Autodesk,Inc. |WEB Address: www.autodesk.com
 90
      129
280
     0
281
     0
  0
CLASS
  1
AECS_DISP_PROPS_MEMBER_PROJECTED
  2
AecsDbDispPropsMemberProjected
  3
AecStructureBase50|Product Desc: Autodesk Architectural Desktop 2007 |Company: Autodesk,Inc. |WEB Address: www.autodesk.com
 90
      129
280
     0
281
     0
  0
CLASS
  1
AECS_DISP_REP_MEMBER_ELEVATION_DETAIL
  2
AecsDbDispRepMemberElevationDetail
  3
AecStructureBase50|Product Desc: Autodesk Architectural Desktop 2007 |Company: Autodesk,Inc. |WEB Address: www.autodesk.com
 90
      129
280
     0
281
     0
  0
CLASS
  1
AECS_DISP_REP_MEMBER_MODEL_DETAIL
  2
AecsDbDispRepMemberModelDetail
  3
AecStructureBase50|Product Desc: Autodesk Architectural Desktop 2007 |Company: Autodesk,Inc. |WEB Address: www.autodesk.com
 90
      129
280
     0
281
     0
  0
CLASS
  1
AECS_DISP_REP_MEMBER_PLAN_DETAIL
  2
AecsDbDispRepMemberPlanDetail
  3
AecStructureBase50|Product Desc: Autodesk Architectural Desktop 2007 |Company: Autodesk,Inc. |WEB Address: www.autodesk.com
 90
      129
280
     0
281
     0
  0
CLASS
  1
AECS_DISP_REP_MEMBER_PLAN_SKETCH
  2
AecsDbDispRepMemberPlanSketch
  3
AecStructureBase50|Product Desc: Autodesk Architectural Desktop 2007 |Company: Autodesk,Inc. |WEB Address: www.autodesk.com
 90
      129
280
     0
281
     0
  0
CLASS
  1
AECS_DISP_PROPS_MEMBER_PLAN_SKETCH
  2
AecsDbDispPropsMemberPlanSketch
  3
AecStructureBase50|Product Desc: Autodesk Architectural Desktop 2007 |Company: Autodesk,Inc. |WEB Address: www.autodesk.com
 90
      129
280
     0
281
     0
  0
CLASS
  1
AEC_AECDBDISPREPAREA100
  2
AecDbDispRepArea100
  3
AecArchDACHBase50|Product Desc: Autodesk Architectural Desktop 2007 |Company: Autodesk,Inc. |WEB Address: www.autodesk.com
 90
    32897
280
     0
281
     0
  0
CLASS
  1
AEC_AECDBDISPREPAREAGROUP100
  2
AecDbDispRepAreaGroup100
  3
AecArchDACHBase50|Product Desc: Autodesk Architectural Desktop 2007 |Company: Autodesk,Inc. |WEB Address: www.autodesk.com
 90
    32897
280
     0
281
     0
  0
CLASS
  1
AEC_AECDBDISPREPBDGELEVLINEPLAN100
  2
AecDbDispRepBdgElevLinePlan100
  3
AecArchDACHBase50|Product Desc: Autodesk Architectural Desktop 2007 |Company: Autodesk,Inc. |WEB Address: www.autodesk.com
 90
      129
280
     0
281
     0
  0
CLASS
  1
AEC_AECDBDISPREPBDGSECTIONLINEPLAN100
  2
AecDbDispRepBdgSectionLinePlan100
  3
AecArchDACHBase50|Product Desc: Autodesk Architectural Desktop 2007 |Company: Autodesk,Inc. |WEB Address: www.autodesk.com
 90
      129
280
     0
281
     0
  0
CLASS
  1
AEC_AECDBDISPREPCEILINGGRIDPLAN100
  2
AecDbDispRepCeilingGridPlan100
  3
AecArchDACHBase50|Product Desc: Autodesk Architectural Desktop 2007 |Company: Autodesk,Inc. |WEB Address: www.autodesk.com
 90
      129
280
     0
281
     0
  0
CLASS
  1
AEC_AECDBDISPREPCOLUMNGRIDPLAN100
  2
AecDbDispRepColumnGridPlan100
  3
AecArchDACHBase50|Product Desc: Autodesk Architectural Desktop 2007 |Company: Autodesk,Inc. |WEB Address: www.autodesk.com
 90
      129
280
     0
281
     0
  0
CLASS
  1
AEC_AECDBDISPREPCURTAINWALLLAYOUTPLAN100
  2
AecDbDispRepCurtainWallLayoutPlan100
  3
AecArchDACHBase50|Product Desc: Autodesk Architectural Desktop 2007 |Company: Autodesk,Inc. |WEB Address: www.autodesk.com
 90
      129
280
     0
281
     0
  0
CLASS
  1
AEC_AECDBDISPREPCURTAINWALLUNITPLAN100
  2
AecDbDispRepCurtainWallUnitPlan100
  3
AecArchDACHBase50|Product Desc: Autodesk Architectural Desktop 2007 |Company: Autodesk,Inc. |WEB Address: www.autodesk.com
 90
      129
280
     0
281
     0
  0
CLASS
  1
AEC_AECDBDISPREPMVBLOCKREFPLAN100
  2
AecDbDispRepMvBlockRefPlan100
  3
AecArchDACHBase50|Product Desc: Autodesk Architectural Desktop 2007 |Company: Autodesk,Inc. |WEB Address: www.autodesk.com
 90
      129
280
     0
281
     0
  0
CLASS
  1
AEC_AECDBDISPREPROOFPLAN100
  2
AecDbDispRepRoofPlan100
  3
AecArchDACHBase50|Product Desc: Autodesk Architectural Desktop 2007 |Company: Autodesk,Inc. |WEB Address: www.autodesk.com
 90
      129
280
     0
281
     0
  0
CLASS
  1
AEC_AECDBDISPREPROOFSLABPLAN100
  2
AecDbDispRepRoofSlabPlan100
  3
AecArchDACHBase50|Product Desc: Autodesk Architectural Desktop 2007 |Company: Autodesk,Inc. |WEB Address: www.autodesk.com
 90
      129
280
     0
281
     0
  0
CLASS
  1
AEC_AECDBDISPREPSLABPLAN100
  2
AecDbDispRepSlabPlan100
  3
AecArchDACHBase50|Product Desc: Autodesk Architectural Desktop 2007 |Company: Autodesk,Inc. |WEB Address: www.autodesk.com
 90
      129
280
     0
281
     0
  0
CLASS
  1
AEC_AECDBDISPREPSPACEBOUNDARYPLAN100
  2
AecDbDispRepSpaceBoundaryPlan100
  3
AecArchDACHBase50|Product Desc: Autodesk Architectural Desktop 2007 |Company: Autodesk,Inc. |WEB Address: www.autodesk.com
 90
    32897
280
     0
281
     0
  0
CLASS
  1
AEC_AECDBDISPREPSPACEPLAN100
  2
AecDbDispRepSpacePlan100
  3
AecArchDACHBase50|Product Desc: Autodesk Architectural Desktop 2007 |Company: Autodesk,Inc. |WEB Address: www.autodesk.com
 90
      129
280
     0
281
     0
  0
CLASS
  1
AEC_AECDBDISPREPWALLPLAN100
  2
AecDbDispRepWallPlan100
  3
AecArchDACHBase50|Product Desc: Autodesk Architectural Desktop 2007 |Company: Autodesk,Inc. |WEB Address: www.autodesk.com
 90
      129
280
     0
281
     0
  0
CLASS
  1
AEC_AECDBDISPREPAREA50
  2
AecDbDispRepArea50
  3
AecArchDACHBase50|Product Desc: Autodesk Architectural Desktop 2007 |Company: Autodesk,Inc. |WEB Address: www.autodesk.com
 90
    32897
280
     0
281
     0
  0
CLASS
  1
AEC_AECDBDISPREPAREAGROUP50
  2
AecDbDispRepAreaGroup50
  3
AecArchDACHBase50|Product Desc: Autodesk Architectural Desktop 2007 |Company: Autodesk,Inc. |WEB Address: www.autodesk.com
 90
    32897
280
     0
281
     0
  0
CLASS
  1
AEC_AECDBDISPREPBDGELEVLINEPLAN50
  2
AecDbDispRepBdgElevLinePlan50
  3
AecArchDACHBase50|Product Desc: Autodesk Architectural Desktop 2007 |Company: Autodesk,Inc. |WEB Address: www.autodesk.com
 90
      129
280
     0
281
     0
  0
CLASS
  1
AEC_AECDBDISPREPBDGSECTIONLINEPLAN50
  2
AecDbDispRepBdgSectionLinePlan50
  3
AecArchDACHBase50|Product Desc: Autodesk Architectural Desktop 2007 |Company: Autodesk,Inc. |WEB Address: www.autodesk.com
 90
      129
280
     0
281
     0
  0
CLASS
  1
AEC_AECDBDISPREPCEILINGGRIDPLAN50
  2
AecDbDispRepCeilingGridPlan50
  3
AecArchDACHBase50|Product Desc: Autodesk Architectural Desktop 2007 |Company: Autodesk,Inc. |WEB Address: www.autodesk.com
 90
      129
280
     0
281
     0
  0
CLASS
  1
AEC_AECDBDISPREPCOLUMNGRIDPLAN50
  2
AecDbDispRepColumnGridPlan50
  3
AecArchDACHBase50|Product Desc: Autodesk Architectural Desktop 2007 |Company: Autodesk,Inc. |WEB Address: www.autodesk.com
 90
      129
280
     0
281
     0
  0
CLASS
  1
AEC_AECDBDISPREPCURTAINWALLLAYOUTPLAN50
  2
AecDbDispRepCurtainWallLayoutPlan50
  3
AecArchDACHBase50|Product Desc: Autodesk Architectural Desktop 2007 |Company: Autodesk,Inc. |WEB Address: www.autodesk.com
 90
      129
280
     0
281
     0
  0
CLASS
  1
AEC_AECDBDISPREPCURTAINWALLUNITPLAN50
  2
AecDbDispRepCurtainWallUnitPlan50
  3
AecArchDACHBase50|Product Desc: Autodesk Architectural Desktop 2007 |Company: Autodesk,Inc. |WEB Address: www.autodesk.com
 90
      129
280
     0
281
     0
  0
CLASS
  1
AEC_AECDBDISPREPMVBLOCKREFPLAN50
  2
AecDbDispRepMvBlockRefPlan50
  3
AecArchDACHBase50|Product Desc: Autodesk Architectural Desktop 2007 |Company: Autodesk,Inc. |WEB Address: www.autodesk.com
 90
      129
280
     0
281
     0
  0
CLASS
  1
AEC_AECDBDISPREPROOFPLAN50
  2
AecDbDispRepRoofPlan50
  3
AecArchDACHBase50|Product Desc: Autodesk Architectural Desktop 2007 |Company: Autodesk,Inc. |WEB Address: www.autodesk.com
 90
      129
280
     0
281
     0
  0
CLASS
  1
AEC_AECDBDISPREPROOFSLABPLAN50
  2
AecDbDispRepRoofSlabPlan50
  3
AecArchDACHBase50|Product Desc: Autodesk Architectural Desktop 2007 |Company: Autodesk,Inc. |WEB Address: www.autodesk.com
 90
      129
280
     0
281
     0
  0
CLASS
  1
AEC_AECDBDISPREPSLABPLAN50
  2
AecDbDispRepSlabPlan50
  3
AecArchDACHBase50|Product Desc: Autodesk Architectural Desktop 2007 |Company: Autodesk,Inc. |WEB Address: www.autodesk.com
 90
      129
280
     0
281
     0
  0
CLASS
  1
AEC_AECDBDISPREPSPACEBOUNDARYPLAN50
  2
AecDbDispRepSpaceBoundaryPlan50
  3
AecArchDACHBase50|Product Desc: Autodesk Architectural Desktop 2007 |Company: Autodesk,Inc. |WEB Address: www.autodesk.com
 90
    32897
280
     0
281
     0
  0
CLASS
  1
AEC_AECDBDISPREPSPACEPLAN50
  2
AecDbDispRepSpacePlan50
  3
AecArchDACHBase50|Product Desc: Autodesk Architectural Desktop 2007 |Company: Autodesk,Inc. |WEB Address: www.autodesk.com
 90
      129
280
     0
281
     0
  0
CLASS
  1
AEC_AECDBDISPREPWALLPLAN50
  2
AecDbDispRepWallPlan50
  3
AecArchDACHBase50|Product Desc: Autodesk Architectural Desktop 2007 |Company: Autodesk,Inc. |WEB Address: www.autodesk.com
 90
      129
280
     0
281
     0
  0
CLASS
  1
AEC_AECDBDISPREPWINDOWASSEMBLYPLAN50
  2
AecDbDispRepWindowAssemblyPlan50
  3
AecArchDACHBase50|Product Desc: Autodesk Architectural Desktop 2007 |Company: Autodesk,Inc. |WEB Address: www.autodesk.com
 90
      129
280
     0
281
     0
  0
CLASS
  1
AEC_DB_DISP_REP_DIM_GROUP_PLAN100
  2
AecDbDispRepDimGroupPlan100
  3
AecArchDACHBase50|Product Desc: Autodesk Architectural Desktop 2007 |Company: Autodesk,Inc. |WEB Address: www.autodesk.com
 90
      129
280
     0
281
     0
  0
CLASS
  1
AEC_DB_DISP_REP_DIM_GROUP_PLAN50
  2
AecDbDispRepDimGroupPlan50
  3
AecArchDACHBase50|Product Desc: Autodesk Architectural Desktop 2007 |Company: Autodesk,Inc. |WEB Address: www.autodesk.com
 90
      129
280
     0
281
     0
  0
CLASS
  1
AEC_DISP_REP_DOOR_PLAN_50
  2
AecDbDispRepDoorPlan50
  3
AecArchDACHBase50|Product Desc: Autodesk Architectural Desktop 2007 |Company: Autodesk,Inc. |WEB Address: www.autodesk.com
 90
      129
280
     0
281
     0
  0
CLASS
  1
AEC_DISP_PROPS_DOOR_PLAN_50
  2
AecDbDispPropsDoorPlan50
  3
AecArchDACHBase50|Product Desc: Autodesk Architectural Desktop 2007 |Company: Autodesk,Inc. |WEB Address: www.autodesk.com
 90
      129
280
     0
281
     0
  0
CLASS
  1
AEC_DISP_REP_DOOR_PLAN_HEKTO
  2
AecDbDispRepDoorPlanHekto
  3
AecArchDACHBase50|Product Desc: Autodesk Architectural Desktop 2007 |Company: Autodesk,Inc. |WEB Address: www.autodesk.com
 90
      129
280
     0
281
     0
  0
CLASS
  1
AEC_DISP_PROPS_DOOR_PLAN_100
  2
AecDbDispPropsDoorPlan100
  3
AecArchDACHBase50|Product Desc: Autodesk Architectural Desktop 2007 |Company: Autodesk,Inc. |WEB Address: www.autodesk.com
 90
      129
280
     0
281
     0
  0
CLASS
  1
AEC_DISP_REP_DOOR_THRESHOLD_SYMBOL_PLAN
  2
AecDbDispRepDoorThresholdSymbolPlan
  3
AecArchDACHBase50|Product Desc: Autodesk Architectural Desktop 2007 |Company: Autodesk,Inc. |WEB Address: www.autodesk.com
 90
      129
280
     0
281
     0
  0
CLASS
  1
AEC_DISP_PROPS_DOOR_THRESHOLD_SYMBOL_PLAN
  2
AecDbDispPropsDoorThresholdSymbolPlan
  3
AecArchDACHBase50|Product Desc: Autodesk Architectural Desktop 2007 |Company: Autodesk,Inc. |WEB Address: www.autodesk.com
 90
      129
280
     0
281
     0
  0
CLASS
  1
AEC_DISPREPAECDBDISPREPMASSELEMPLAN100
  2
AecDbDispRepMassElemPlan100
  3
AecArchDACHBase50|Product Desc: Autodesk Architectural Desktop 2007 |Company: Autodesk,Inc. |WEB Address: www.autodesk.com
 90
      129
280
     0
281
     0
  0
CLASS
  1
AEC_DISPROPSMASSELEMPLANCOMMON
  2
AecDbDispPropsMassElemPlanCommon
  3
AecArchDACHBase50|Product Desc: Autodesk Architectural Desktop 2007 |Company: Autodesk,Inc. |WEB Address: www.autodesk.com
 90
      129
280
     0
281
     0
  0
CLASS
  1
AEC_DISPREPAECDBDISPREPMASSELEMPLAN50
  2
AecDbDispRepMassElemPlan50
  3
AecArchDACHBase50|Product Desc: Autodesk Architectural Desktop 2007 |Company: Autodesk,Inc. |WEB Address: www.autodesk.com
 90
      129
280
     0
281
     0
  0
CLASS
  1
AEC_DISPREPAECDBDISPREPMASSGROUPPLAN100
  2
AecDbDispRepMassGroupPlan100
  3
AecArchDACHBase50|Product Desc: Autodesk Architectural Desktop 2007 |Company: Autodesk,Inc. |WEB Address: www.autodesk.com
 90
      129
280
     0
281
     0
  0
CLASS
  1
AEC_DISPROPSMASSGROUPPLANCOMMON
  2
AecDbDispPropsMassGroupPlanCommon
  3
AecArchDACHBase50|Product Desc: Autodesk Architectural Desktop 2007 |Company: Autodesk,Inc. |WEB Address: www.autodesk.com
 90
      129
280
     0
281
     0
  0
CLASS
  1
AEC_DISPREPAECDBDISPREPMASSGROUPPLAN50
  2
AecDbDispRepMassGroupPlan50
  3
AecArchDACHBase50|Product Desc: Autodesk Architectural Desktop 2007 |Company: Autodesk,Inc. |WEB Address: www.autodesk.com
 90
      129
280
     0
281
     0
  0
CLASS
  1
AEC_DISPREPAECDBDISPREPOPENINGPLAN100
  2
AecDbDispRepOpeningPlan100
  3
AecArchDACHBase50|Product Desc: Autodesk Architectural Desktop 2007 |Company: Autodesk,Inc. |WEB Address: www.autodesk.com
 90
      129
280
     0
281
     0
  0
CLASS
  1
AEC_DISPROPSOPENINGPLANCOMMONHATCHED
  2
AecDbDispPropsOpeningPlanCommonHatched
  3
AecArchDACHBase50|Product Desc: Autodesk Architectural Desktop 2007 |Company: Autodesk,Inc. |WEB Address: www.autodesk.com
 90
      129
280
     0
281
     0
  0
CLASS
  1
AEC_DISPREPAECDBDISPREPOPENINGPLAN50
  2
AecDbDispRepOpeningPlan50
  3
AecArchDACHBase50|Product Desc: Autodesk Architectural Desktop 2007 |Company: Autodesk,Inc. |WEB Address: www.autodesk.com
 90
      129
280
     0
281
     0
  0
CLASS
  1
AEC_DISPREPAECDBDISPREPOPENINGPLANREFLECTED
  2
AecDbDispRepOpeningPlanReflected
  3
AecArchDACHBase50|Product Desc: Autodesk Architectural Desktop 2007 |Company: Autodesk,Inc. |WEB Address: www.autodesk.com
 90
      129
280
     0
281
     0
  0
CLASS
  1
AEC_DISPROPSOPENINGPLANCOMMON
  2
AecDbDispPropsOpeningPlanCommon
  3
AecArchDACHBase50|Product Desc: Autodesk Architectural Desktop 2007 |Company: Autodesk,Inc. |WEB Address: www.autodesk.com
 90
      129
280
     0
281
     0
  0
CLASS
  1
AEC_DISPREPAECDBDISPREPOPENINGSILLPLAN
  2
AecDbDispRepOpeningSillPlan
  3
AecArchDACHBase50|Product Desc: Autodesk Architectural Desktop 2007 |Company: Autodesk,Inc. |WEB Address: www.autodesk.com
 90
      129
280
     0
281
     0
  0
CLASS
  1
AEC_DISPROPSOPENINGSILLPLAN
  2
AecDbDispPropsOpeningSillPlan
  3
AecArchDACHBase50|Product Desc: Autodesk Architectural Desktop 2007 |Company: Autodesk,Inc. |WEB Address: www.autodesk.com
 90
      129
280
     0
281
     0
  0
CLASS
  1
AEC_DISP_REP_RAILING_PLAN_100
  2
AecDbDispRepRailingPlan100
  3
AecArchDACHBase50|Product Desc: Autodesk Architectural Desktop 2007 |Company: Autodesk,Inc. |WEB Address: www.autodesk.com
 90
      129
280
     0
281
     0
  0
CLASS
  1
AEC_DISP_ROPS_RAILING_PLAN_100
  2
AecDbDispPropsRailingPlan100
  3
AecArchDACHBase50|Product Desc: Autodesk Architectural Desktop 2007 |Company: Autodesk,Inc. |WEB Address: www.autodesk.com
 90
      129
280
     0
281
     0
  0
CLASS
  1
AEC_DISP_REP_RAILING_PLAN_50
  2
AecDbDispRepRailingPlan50
  3
AecArchDACHBase50|Product Desc: Autodesk Architectural Desktop 2007 |Company: Autodesk,Inc. |WEB Address: www.autodesk.com
 90
      129
280
     0
281
     0
  0
CLASS
  1
AEC_DISP_ROPS_RAILING_PLAN_50
  2
AecDbDispPropsRailingPlan50
  3
AecArchDACHBase50|Product Desc: Autodesk Architectural Desktop 2007 |Company: Autodesk,Inc. |WEB Address: www.autodesk.com
 90
      129
280
     0
281
     0
  0
CLASS
  1
AEC_DISP_REP_STAIR_PLAN_100
  2
AecDbDispRepStairPlan100
  3
AecArchDACHBase50|Product Desc: Autodesk Architectural Desktop 2007 |Company: Autodesk,Inc. |WEB Address: www.autodesk.com
 90
      129
280
     0
281
     0
  0
CLASS
  1
AEC_DISP_ROPS_STAIR_PLAN_100
  2
AecDbDispPropsStairPlan100
  3
AecArchDACHBase50|Product Desc: Autodesk Architectural Desktop 2007 |Company: Autodesk,Inc. |WEB Address: www.autodesk.com
 90
      129
280
     0
281
     0
  0
CLASS
  1
AEC_DISP_REP_STAIR_PLAN_50
  2
AecDbDispRepStairPlan50
  3
AecArchDACHBase50|Product Desc: Autodesk Architectural Desktop 2007 |Company: Autodesk,Inc. |WEB Address: www.autodesk.com
 90
      129
280
     0
281
     0
  0
CLASS
  1
AEC_DISP_ROPS_STAIR_PLAN_50
  2
AecDbDispPropsStairPlan50
  3
AecArchDACHBase50|Product Desc: Autodesk Architectural Desktop 2007 |Company: Autodesk,Inc. |WEB Address: www.autodesk.com
 90
      129
280
     0
281
     0
  0
CLASS
  1
AEC_DISP_REP_WINDOW_PLAN_100
  2
AecDbDispRepWindowPlan100
  3
AecArchDACHBase50|Product Desc: Autodesk Architectural Desktop 2007 |Company: Autodesk,Inc. |WEB Address: www.autodesk.com
 90
      129
280
     0
281
     0
  0
CLASS
  1
AEC_DISP_PROPS_WINDOW_PLAN_100
  2
AecDbDispPropsWindowPlan100
  3
AecArchDACHBase50|Product Desc: Autodesk Architectural Desktop 2007 |Company: Autodesk,Inc. |WEB Address: www.autodesk.com
 90
      129
280
     0
281
     0
  0
CLASS
  1
AEC_DISP_REP_WINDOW_PLAN_50
  2
AecDbDispRepWindowPlan50
  3
AecArchDACHBase50|Product Desc: Autodesk Architectural Desktop 2007 |Company: Autodesk,Inc. |WEB Address: www.autodesk.com
 90
      129
280
     0
281
     0
  0
CLASS
  1
AEC_DISP_PROPS_WINDOW_PLAN_50
  2
AecDbDispPropsWindowPlan50
  3
AecArchDACHBase50|Product Desc: Autodesk Architectural Desktop 2007 |Company: Autodesk,Inc. |WEB Address: www.autodesk.com
 90
      129
280
     0
281
     0
  0
CLASS
  1
BINRECORD
  2
AcAecBinRecord
  3
AecBase50|Product Desc: Autodesk Architectural Desktop 2007 |Company: Autodesk,Inc. |WEB Address: www.autodesk.com
 90
    32897
280
     0
281
     0
  0
CLASS
  1
SPATIAL_FILTER
  2
AcDbSpatialFilter
  3
ObjectDBX Classes
 90
    32768
280
     0
281
     0
  0
CLASS
  1
AEC_VARS_STRUCTUREBASE
  2
AecsDbVarsStructureBase
  3
AecStructureBase50|Product Desc: Autodesk Architectural Desktop 2007 |Company: Autodesk,Inc. |WEB Address: www.autodesk.com
 90
      129
280
     0
281
     0
  0
CLASS
  1
DIMASSOC
  2
AcDbDimAssoc
  3
"AcDbDimAssoc|Product Desc:     AcDim ARX App For Dimension|Company:          Autodesk, Inc.|WEB Address:      www.autodesk.com"
 90
        0
280
     0
281
     0
  0
CLASS
  1
OBJECT_PTR
  2
CAseDLPNTableRecord
  3
ASE-LPNTableRecord
 90
        1
280
     0
281
     0
  0
CLASS
  1
MATERIAL
  2
AcDbMaterial
  3
ObjectDBX Classes
 90
     1153
280
     0
281
     0
  0
CLASS
  1
VISUALSTYLE
  2
AcDbVisualStyle
  3
ObjectDBX Classes
 90
     4095
280
     0
281
     0
  0
CLASS
  1
TABLESTYLE
  2
AcDbTableStyle
  3
ObjectDBX Classes
 90
     4095
280
     0
281
     0
  0
CLASS
  1
SCALE
  2
AcDbScale
  3
ObjectDBX Classes
 90
     1153
280
     0
281
     0
  0
CLASS
  1
MLEADERSTYLE
  2
AcDbMLeaderStyle
  3
ACDB_MLEADERSTYLE_CLASS
 90
     4095
280
     0
281
     0
  0
CLASS
  1
CELLSTYLEMAP
  2
AcDbCellStyleMap
  3
ObjectDBX Classes
 90
     1152
280
     0
281
     0
  0
CLASS
  1
IMAGE
  2
AcDbRasterImage
  3
ISM
 90
     2175
280
     0
281
     1
  0
CLASS
  1
IMAGEDEF_REACTOR
  2
AcDbRasterImageDefReactor
  3
ISM
 90
        1
280
     0
281
     0
  0
CLASS
  1
AEC_SPACE
  2
AecDbSpace
  3
AecArchBase50|Product Desc: Autodesk Architectural Desktop 2007 |Company: Autodesk,Inc. |WEB Address: www.autodesk.com
 90
      893
280
     0
281
     1
  0
CLASS
  1
AecDbPropertySet
  2
AecDbPropertySet
  3
AecScheduleData50|Product Desc: Autodesk Architectural Desktop 2007 |Company: Autodesk,Inc. |WEB Address: www.autodesk.com
 90
      129
280
     0
281
     0
  0
CLASS
  1
AEC_SCHEDULE_TABLE
  2
AecDbScheduleTable
  3
AecSchedule50|Product Desc: Autodesk Architectural Desktop 2007 |Company: Autodesk,Inc. |WEB Address: www.autodesk.com
 90
      893
280
     0
281
     1
  0
CLASS
  1
AEC_CLEANUP_GROUP_DEF
  2
AecDbCleanupGroupDef
  3
AecArchBase50|Product Desc: Autodesk Architectural Desktop 2007 |Company: Autodesk,Inc. |WEB Address: www.autodesk.com
 90
      129
280
     0
281
     0
  0
CLASS
  1
AEC_DISP_REP_DISPLAYTHEME
  2
AecDbDispRepDisplayTheme
  3
AecBase50|Product Desc: Autodesk Architectural Desktop 2007 |Company: Autodesk,Inc. |WEB Address: www.autodesk.com
 90
      129
280
     0
281
     0
  0
CLASS
  1
AEC_DISP_REP_SPACE_DECOMPOSED
  2
AecDbDispRepSpaceDecomposed
  3
AecArchBase50|Product Desc: Autodesk Architectural Desktop 2007 |Company: Autodesk,Inc. |WEB Address: www.autodesk.com
 90
      129
280
     0
281
     0
  0
CLASS
  1
AEC_DISP_PROPS_DISPLAYTHEME
  2
AecDbDispPropsDisplayTheme
  3
AecBase50|Product Desc: Autodesk Architectural Desktop 2007 |Company: Autodesk,Inc. |WEB Address: www.autodesk.com
 90
      129
280
     0
281
     0
  0
CLASS
  1
AEC_DISP_PROPS_SPACE_DECOMPOSED
  2
AecDbDispPropsSpaceDecomposed
  3
AecArchBase50|Product Desc: Autodesk Architectural Desktop 2007 |Company: Autodesk,Inc. |WEB Address: www.autodesk.com
 90
      129
280
     0
281
     0
  0
CLASS
  1
AEC_ENDCAP_STYLE
  2
AecDbEndcapStyle
  3
AecArchBase50|Product Desc: Autodesk Architectural Desktop 2007 |Company: Autodesk,Inc. |WEB Address: www.autodesk.com
 90
      129
280
     0
281
     0
  0
CLASS
  1
AEC_MATERIAL_DEF
  2
AecDbMaterialDef
  3
AecBase50|Product Desc: Autodesk Architectural Desktop 2007 |Company: Autodesk,Inc. |WEB Address: www.autodesk.com
 90
      129
280
     0
281
     0
  0
CLASS
  1
AEC_FRAME_DEF
  2
AecDbOpeningEndcapStyle
  3
AecArchBase50|Product Desc: Autodesk Architectural Desktop 2007 |Company: Autodesk,Inc. |WEB Address: www.autodesk.com
 90
      129
280
     0
281
     0
  0
CLASS
  1
AEC_SCHEDULE_DATA_FORMAT
  2
AecDbScheduleDataFormat
  3
AecScheduleData50|Product Desc: Autodesk Architectural Desktop 2007 |Company: Autodesk,Inc. |WEB Address: www.autodesk.com
 90
      129
280
     0
281
     0
  0
CLASS
  1
AEC_PROPERTY_SET_DEF
  2
AecDbPropertySetDef
  3
AecScheduleData50|Product Desc: Autodesk Architectural Desktop 2007 |Company: Autodesk,Inc. |WEB Address: www.autodesk.com
 90
      129
280
     0
281
     0
  0
CLASS
  1
AEC_ROOFSLAB_STYLE
  2
AecDbRoofSlabStyle
  3
AecArchBase50|Product Desc: Autodesk Architectural Desktop 2007 |Company: Autodesk,Inc. |WEB Address: www.autodesk.com
 90
      129
280
     0
281
     0
  0
CLASS
  1
AEC_ROOFSLABEDGE_STYLE
  2
AecDbRoofSlabEdgeStyle
  3
AecArchBase50|Product Desc: Autodesk Architectural Desktop 2007 |Company: Autodesk,Inc. |WEB Address: www.autodesk.com
 90
      129
280
     0
281
     0
  0
CLASS
  1
AEC_SCHEDULE_TABLE_STYLE
  2
AecDbScheduleTableStyle
  3
AecSchedule50|Product Desc: Autodesk Architectural Desktop 2007 |Company: Autodesk,Inc. |WEB Address: www.autodesk.com
 90
      129
280
     0
281
     0
  0
CLASS
  1
AEC_SLAB_STYLE
  2
AecDbSlabStyle
  3
AecArchBase50|Product Desc: Autodesk Architectural Desktop 2007 |Company: Autodesk,Inc. |WEB Address: www.autodesk.com
 90
      129
280
     0
281
     0
  0
CLASS
  1
AEC_SLABEDGE_STYLE
  2
AecDbSlabEdgeStyle
  3
AecArchBase50|Product Desc: Autodesk Architectural Desktop 2007 |Company: Autodesk,Inc. |WEB Address: www.autodesk.com
 90
      129
280
     0
281
     0
  0
CLASS
  1
AEC_SPACE_STYLES
  2
AecDbSpaceStyle
  3
AecArchBase50|Product Desc: Autodesk Architectural Desktop 2007 |Company: Autodesk,Inc. |WEB Address: www.autodesk.com
 90
      129
280
     0
281
     0
  0
CLASS
  1
AEC_WALL_STYLE
  2
AecDbWallStyle
  3
AecArchBase50|Product Desc: Autodesk Architectural Desktop 2007 |Company: Autodesk,Inc. |WEB Address: www.autodesk.com
 90
      129
280
     0
281
     0
  0
CLASS
  1
IMAGEDEF
  2
AcDbRasterImageDef
  3
ISM
 90
        0
280
     0
281
     0
  0
CLASS
  1
NPOCOLLECTION
  2
AcDbImpNonPersistentObjectsCollection
  3
ObjectDBX Classes
 90
     1153
280
     0
281
     0
  0
CLASS
  1
AEC_DISP_REP_ANCHOR_EXT_TAG_TO_ENT
  2
AecDbDispRepAnchorExtendedTagToEnt
  3
AecScheduleData50|Product Desc: Autodesk Architectural Desktop 2007 |Company: Autodesk,Inc. |WEB Address: www.autodesk.com
 90
      129
280
     0
281
     0
  0
CLASS
  1
AEC_DISP_REP_ZONE
  2
AecDbDispRepZone
  3
AecArchBase50|Product Desc: Autodesk Architectural Desktop 2007 |Company: Autodesk,Inc. |WEB Address: www.autodesk.com
 90
      129
280
     0
281
     0
  0
CLASS
  1
AEC_DISP_PROPS_ZONE
  2
AecDbDispPropsZone
  3
AecArchBase50|Product Desc: Autodesk Architectural Desktop 2007 |Company: Autodesk,Inc. |WEB Address: www.autodesk.com
 90
      129
280
     0
281
     0
  0
CLASS
  1
AEC_AECDBDISPREPZONE100
  2
AecDbDispRepZonePlan100
  3
AecArchDACHBase50|Product Desc: Autodesk Architectural Desktop 2007 |Company: Autodesk,Inc. |WEB Address: www.autodesk.com
 90
      129
280
     0
281
     0
  0
CLASS
  1
AEC_AECDBDISPREPZONE50
  2
AecDbDispRepZonePlan50
  3
AecArchDACHBase50|Product Desc: Autodesk Architectural Desktop 2007 |Company: Autodesk,Inc. |WEB Address: www.autodesk.com
 90
      129
280
     0
281
     0
  0
CLASS
  1
RASTERVARIABLES
  2
AcDbRasterVariables
  3
ISM
 90
        0
280
     0
281
     0
  0
CLASS
  1
AEC_REFEDIT_STATUS_TRACKER
  2
AecDbRefEditStatusTracker
  3
AecArchBase50|Product Desc: Autodesk Architectural Desktop 2007 |Company: Autodesk,Inc. |WEB Address: www.autodesk.com
 90
      129
280
     0
281
     0
  0
ENDSEC
  0
SECTION
  2
TABLES
  0
TABLE
  2
VPORT
  5
1C
330
0
100
AcDbSymbolTable
 70
     1
  0
VPORT
  5
3240
330
1C
100
AcDbSymbolTableRecord
100
AcDbViewportTableRecord
  2
*Active
 70
     0
 10
0.0
 20
0.0
 11
1.0
 21
1.0
 12
203715.4988257211
 22
131009.0384088525
 13
0.0
 23
0.0
 14
10.0
 24
10.0
 15
10.0
 25
10.0
 16
0.0
 26
0.0
 36
1.0
 17
0.0
 27
0.0
 37
0.0
 40
35590.71812461696
 41
1.561333333333333
 42
50.0
 43
0.0
 44
0.0
 50
0.0
 51
0.0
 71
     0
 72
  1000
 73
     1
 74
     1
 75
     0
 76
     0
 77
     0
 78
     0
281
     0
 65
     1
110
0.0
120
0.0
130
0.0
111
1.0
121
0.0
131
0.0
112
0.0
122
1.0
132
0.0
 79
     0
146
0.0
  0
ENDTAB
  0
TABLE
  2
LTYPE
  5
17
330
0
100
AcDbSymbolTable
 70
    11
  0
LTYPE
  5
18
330
17
100
AcDbSymbolTableRecord
100
AcDbLinetypeTableRecord
  2
ByBlock
 70
     0
  3

 72
    65
 73
     0
 40
0.0
  0
LTYPE
  5
19
330
17
100
AcDbSymbolTableRecord
100
AcDbLinetypeTableRecord
  2
ByLayer
 70
     0
  3

 72
    65
 73
     0
 40
0.0
  0
LTYPE
  5
8
330
17
100
AcDbSymbolTableRecord
100
AcDbLinetypeTableRecord
  2
Continuous
 70
     0
  3
Solid line
 72
    65
 73
     0
 40
0.0
  0
LTYPE
  5
158
330
17
100
AcDbSymbolTableRecord
100
AcDbLinetypeTableRecord
  2
HIDDEN
 70
     0
  3
Hidden __ __ __ __ __ __ __ __ __ __ __ __ __ _
 72
    65
 73
     2
 40
0.375
 49
0.25
 74
     0
 49
-0.125
 74
     0
  0
LTYPE
  5
3E98
330
17
100
AcDbSymbolTableRecord
100
AcDbLinetypeTableRecord
  2
HIDDEN2
 70
     0
  3
Hidden (.5x) _ _ _ _ _ _ _ _ _ _ _ _ _ _ _ _ _
 72
    65
 73
     2
 40
0.1875
 49
0.125
 74
     0
 49
-0.0625
 74
     0
  0
LTYPE
  5
3E9A
330
17
100
AcDbSymbolTableRecord
100
AcDbLinetypeTableRecord
  2
PHANTOM2
 70
     0
  3
Phantom (.5x) ___ _ _ ___ _ _ ___ _ _ ___ _ _
 72
    65
 73
     6
 40
1.25
 49
0.625
 74
     0
 49
-0.125
 74
     0
 49
0.125
 74
     0
 49
-0.125
 74
     0
 49
0.125
 74
     0
 49
-0.125
 74
     0
  0
ENDTAB
  0
TABLE
  2
LAYER
  5
11
102
{ACAD_XDICTIONARY
360
12
102
}
330
0
100
AcDbSymbolTable
 70
    66
  0
LAYER
  5
4
102
{ACAD_XDICTIONARY
360
359F
102
}
330
11
100
AcDbSymbolTableRecord
100
AcDbLayerTableRecord
  2
0
 70
     0
 62
     7
  6
Continuous
370
    -3
390
5
1001
RAK
1000
{ACET-LAYISO
1070
     0
1070
     7
1000
Continuous
1071
       -3
1071
        1
1005
5
1000
ACET-LAYISO}
  0
LAYER
  5
65
330
11
100
AcDbSymbolTableRecord
100
AcDbLayerTableRecord
  2
DEFPOINTS
 70
     0
 62
     7
  6
Continuous
290
     0
370
    -3
390
5
1001
RAK
1000
{ACET-LAYISO
1070
     0
1070
     7
1000
Continuous
1071
       -3
1071
        0
1005
5
1000
ACET-LAYISO}
  0
LAYER
  5
15E
102
{ACAD_XDICTIONARY
360
35A7
102
}
330
11
100
AcDbSymbolTableRecord
100
AcDbLayerTableRecord
  2
RAMKI-A4
 70
     0
 62
     2
  6
Continuous
290
     0
370
    -3
390
5
1001
RAK
1000
{ACET-LAYISO
1070
     0
1070
     2
1000
Continuous
1071
       -3
1071
        0
1005
5
1000
ACET-LAYISO}
  0
LAYER
  5
143
102
{ACAD_XDICTIONARY
360
35AB
102
}
330
11
100
AcDbSymbolTableRecord
100
AcDbLayerTableRecord
  2
NAPISY
 70
     0
 62
   140
  6
Continuous
370
    -3
390
5
1001
RAK
1000
{ACET-LAYISO
1070
     0
1070
   140
1000
Continuous
1071
       -3
1071
        1
1005
5
1000
ACET-LAYISO}
  0
LAYER
  5
2250
102
{ACAD_XDICTIONARY
360
35C7
102
}
330
11
100
AcDbSymbolTableRecord
100
AcDbLayerTableRecord
  2
Rodo-teren$0$S-FloorSlab-G
 70
     0
 62
   162
  6
Continuous
370
    -3
390
5
1001
AcAecLayerStandard
1000
1m1_ARCHON
1001
RAK
1000
{ACET-LAYISO
1070
     0
1070
   162
1000
Continuous
1071
       -3
1071
        1
1005
5
1000
ACET-LAYISO}
  0
LAYER
  5
2540
102
{ACAD_XDICTIONARY
360
35D3
102
}
330
11
100
AcDbSymbolTableRecord
100
AcDbLayerTableRecord
  2
-widok
 70
     0
 62
   114
  6
Continuous
370
     9
390
5
1001
RAK
1000
{ACET-LAYISO
1070
     0
1070
   114
1000
Continuous
1071
        9
1071
        1
1005
5
1000
ACET-LAYISO}
  0
LAYER
  5
3EAD
102
{ACAD_XDICTIONARY
360
3EAE
102
}
330
11
100
AcDbSymbolTableRecord
100
AcDbLayerTableRecord
  2
G-Anno-Nplt
 70
     0
 62
   140
  6
Continuous
290
     0
370
    18
390
5
1001
AcAecLayerStandard
1000
NCSv2
1001
RAK
1000
{ACET-LAYISO
1070
     0
1070
   140
1000
Continuous
1071
       18
1071
        0
1005
5
1000
ACET-LAYISO}
  0
LAYER
  5
3EBB
102
{ACAD_XDICTIONARY
360
3EBC
102
}
330
11
100
AcDbSymbolTableRecord
100
AcDbLayerTableRecord
  2
A-Space-G
 70
     1
 62
    34
  6
Continuous
370
    15
390
5
1001
AcAecLayerStandard
1000

1000
Architects, Space (diagrams), Graphics
1001
RAK
1000
{ACET-LAYISO
1070
     1
1070
    34
1000
Continuous
1071
       15
1071
        1
1005
5
1000
ACET-LAYISO}
  0
LAYER
  5
3EBD
102
{ACAD_XDICTIONARY
360
3EBE
102
}
330
11
100
AcDbSymbolTableRecord
100
AcDbLayerTableRecord
  2
A-SpaceBoundary-G
 70
     1
 62
   140
  6
Continuous
370
    15
390
5
1001
AcAecLayerStandard
1000

1000
Architects, Space (boundaries), Graphics
1001
RAK
1000
{ACET-LAYISO
1070
     1
1070
   140
1000
Continuous
1071
       15
1071
        1
1005
5
1000
ACET-LAYISO}
  0
LAYER
  5
3EC9
102
{ACAD_XDICTIONARY
360
3ECA
102
}
330
11
100
AcDbSymbolTableRecord
100
AcDbLayerTableRecord
  2
-wymiary
 70
     0
 62
     1
  6
Continuous
370
     5
390
5
1001
RAK
1000
{ACET-LAYISO
1070
     0
1070
     1
1000
Continuous
1071
        5
1071
        1
1005
5
1000
ACET-LAYISO}
  0
LAYER
  5
6DA3
102
{ACAD_XDICTIONARY
360
6DA4
102
}
330
11
100
AcDbSymbolTableRecord
100
AcDbLayerTableRecord
  2
0Hatch
 70
     0
 62
   122
  6
Continuous
370
     5
390
5
  0
ENDTAB
  0
TABLE
  2
STYLE
  5
14
330
0
100
AcDbSymbolTable
 70
    32
  0
STYLE
  5
15
330
14
100
AcDbSymbolTableRecord
100
AcDbTextStyleTableRecord
  2
Standard
 70
     0
 40
0.0
 41
1.0
 50
0.0
 71
     0
 42
2.5
  3
txt
  4

  0
STYLE
  5
22
330
14
100
AcDbSymbolTableRecord
100
AcDbTextStyleTableRecord
  2
ROMANS
 70
     0
 40
0.0
 41
0.9
 50
0.0
 71
     0
 42
20.0
  3
romans.shx
  4

  0
STYLE
  5
144
330
14
100
AcDbSymbolTableRecord
100
AcDbTextStyleTableRecord
  2
AVA
 70
     0
 40
0.0
 41
1.0
 50
0.0
 71
     0
 42
158.5644099714409
  3
ARIAL.TTF
  4

1001
ACAD
1000
Arial CE
1071
    60962
  0
STYLE
  5
1C28
330
14
100
AcDbSymbolTableRecord
100
AcDbTextStyleTableRecord
  2
ARIAL
 70
     0
 40
0.0
 41
1.0
 50
0.0
 71
     0
 42
20.0
  3
ARIAL.TTF
  4

1001
ACAD
1000
Arial CE
1071
    60962
  0
ENDTAB
  0
TABLE
  2
VIEW
  5
1A
330
0
100
AcDbSymbolTable
 70
     1
  0
VIEW
  5
C
330
1A
100
AcDbSymbolTableRecord
100
AcDbViewTableRecord
  2
RODODENDRON 5
 70
     0
 40
14020.0
 10
220287.1664355166
 20
148687.514558954
 41
10200.00000000003
 11
0.0
 21
0.0
 31
1.0
 12
0.0
 22
0.0
 32
0.0
 42
50.0
 43
0.0
 44
0.0
 50
0.0
 71
     0
281
     0
 72
     1
110
0.0
120
0.0
130
0.0
111
1.0
121
0.0
131
0.0
112
0.0
122
1.0
132
0.0
 79
     0
146
0.0
  0
ENDTAB
  0
TABLE
  2
UCS
  5
1B
330
0
100
AcDbSymbolTable
 70
     0
  0
ENDTAB
  0
TABLE
  2
APPID
  5
1E
330
0
100
AcDbSymbolTable
 70
    11
  0
APPID
  5
1F
330
1E
100
AcDbSymbolTableRecord
100
AcDbRegAppTableRecord
  2
ACAD
 70
     0
  0
APPID
  5
1E1
330
1E
100
AcDbSymbolTableRecord
100
AcDbRegAppTableRecord
  2
RAK
 70
     0
  0
APPID
  5
1E2
330
1E
100
AcDbSymbolTableRecord
100
AcDbRegAppTableRecord
  2
AcAecLayerStandard
 70
     0
  0
APPID
  5
1BB7
330
1E
100
AcDbSymbolTableRecord
100
AcDbRegAppTableRecord
  2
DCO15
 70
     0
  0
APPID
  5
3291
330
1E
100
AcDbSymbolTableRecord
100
AcDbRegAppTableRecord
  2
ACAD_MLEADERVER
 70
     0
  0
APPID
  5
3343
330
1E
100
AcDbSymbolTableRecord
100
AcDbRegAppTableRecord
  2
ACAD_PSEXT
 70
     0
  0
APPID
  5
3EDF
330
1E
100
AcDbSymbolTableRecord
100
AcDbRegAppTableRecord
  2
AECBASE
 70
     0
  0
APPID
  5
3EE0
330
1E
100
AcDbSymbolTableRecord
100
AcDbRegAppTableRecord
  2
AcDbBlockRepETag
 70
     0
  0
APPID
  5
3EE1
330
1E
100
AcDbSymbolTableRecord
100
AcDbRegAppTableRecord
  2
AEC_XDATA_BOUND_SPACE
 70
     0
  0
APPID
  5
6C07
330
1E
100
AcDbSymbolTableRecord
100
AcDbRegAppTableRecord
  2
ACAD_EXEMPT_FROM_CAD_STANDARDS
 70
     0
  0
APPID
  5
709F
330
1E
100
AcDbSymbolTableRecord
100
AcDbRegAppTableRecord
  2
AcDbAttr
 70
     0
  0
ENDTAB
  0
TABLE
  2
DIMSTYLE
  5
20
330
0
100
AcDbSymbolTable
 70
    23
100
AcDbDimStyleTable
 71
     2
340
21
340
2B
  0
DIMSTYLE
105
21
102
{ACAD_REACTORS
330
317C
330
317B
330
317A
330
3179
330
3178
330
3177
330
3176
330
3175
330
6C2F
330
6C30
330
6C31
330
6C32
330
6C33
330
6C34
330
6C35
330
6C36
102
}
330
20
100
AcDbSymbolTableRecord
100
AcDbDimStyleTableRecord
  2
500
 70
     0
 41
30.0
 42
43.0
 43
0.0
 44
13.0
 45
0.5
 46
12.0
 73
     0
 74
     0
 75
     1
 76
     1
 78
    12
140
80.0
141
0.0
145
1.0
147
0.0
172
     1
174
     1
176
     1
177
     1
178
    10
271
     1
272
     1
279
     2
340
22
341
23
342
23
  0
DIMSTYLE
105
2B
330
20
100
AcDbSymbolTableRecord
100
AcDbDimStyleTableRecord
  2
Standard
 70
     0
340
15
  0
DIMSTYLE
105
3EDE
102
{ACAD_REACTORS
330
4271
330
4274
330
4277
330
427A
330
427D
330
4280
330
4283
330
4286
330
4289
330
428C
330
428F
330
4292
330
4295
330
4298
330
429C
330
429D
330
42A0
330
42A3
330
42A6
330
42A9
330
42AC
330
42AF
330
42B2
330
42B5
330
42B6
330
42B7
330
42BA
330
42BB
330
42BE
330
42C1
330
42C4
330
42C5
330
42C8
330
42CB
330
42CE
330
42D1
330
42D5
330
42D8
330
42DB
330
42DE
330
42E1
330
42E4
330
42E7
330
42EA
330
42EB
330
42EE
330
42F2
330
42F5
330
42F8
330
42FB
330
42FE
330
4301
330
4304
330
4307
330
430A
330
430D
330
4310
330
4313
330
4316
330
431A
330
4319
330
4318
330
4317
330
431B
330
431E
330
4321
330
4324
330
4327
330
4328
330
432B
330
432E
330
432F
330
4332
330
4335
330
4336
330
4339
330
433C
330
433D
330
433E
330
433F
330
4340
330
4347
330
434A
330
434D
330
4350
330
4353
330
4356
330
4359
330
435C
330
435F
330
4362
330
4365
330
4368
330
436B
330
436E
330
4371
330
4374
330
4375
330
4376
330
4377
330
437A
330
437D
330
4381
330
4382
330
4385
330
4388
330
4389
330
438A
330
438B
330
438F
330
4392
330
4395
330
4398
330
439B
330
439E
330
43A1
330
43A2
330
43B0
330
43FE
330
43FF
330
4380
330
4400
330
4401
330
4402
330
4403
330
4404
330
4405
330
4408
330
4409
330
440A
330
440B
330
440C
330
440D
330
4410
330
4413
330
4416
330
4419
330
441C
330
441D
330
441E
330
4421
330
4424
330
4425
330
4426
330
4429
330
442C
330
442F
330
4433
330
4436
330
4439
330
443C
330
445B
330
445C
330
445D
330
445E
330
446B
330
446E
330
446F
330
4472
330
4475
330
447B
330
447E
330
447F
330
448F
330
4490
330
4491
330
44A0
330
44A3
330
44A6
330
44A9
330
4B0D
330
4B33
102
}
330
20
100
AcDbSymbolTableRecord
100
AcDbDimStyleTableRecord
  2
100-archon
 70
     0
 41
8.0
 42
43.0
 43
24.0
 44
13.0
 45
0.5
 46
12.0
 73
     0
 74
     0
 75
     1
 76
     1
 78
     8
140
16.0
141
0.0
145
1.0
147
4.0
172
     1
174
     1
176
     1
177
     1
178
   140
271
     1
272
     1
279
     1
340
22
342
23
371
     5
  0
ENDTAB
  0
TABLE
  2
BLOCK_RECORD
  5
1
330
0
100
AcDbSymbolTable
 70
   589
  0
BLOCK_RECORD
  5
2
102
{ACAD_XDICTIONARY
360
6C13
102
}
330
1
100
AcDbSymbolTableRecord
100
AcDbBlockTableRecord
  2
*Model_Space
340
A
  0
BLOCK_RECORD
  5
D
330
1
100
AcDbSymbolTableRecord
100
AcDbBlockTableRecord
  2
*Paper_Space
340
10
  0
BLOCK_RECORD
  5
23
102
{ACAD_XDICTIONARY
360
24
102
}
330
1
100
AcDbSymbolTableRecord
100
AcDbBlockTableRecord
  2
B-DIM
340
0
102
{BLKREFS
331
264C
331
264D
331
2655
331
2656
331
265C
331
265D
331
2663
331
2664
331
266A
331
266B
331
2671
331
2672
331
2678
331
2679
331
267F
331
2680
331
2686
331
2687
331
271C
331
271D
331
2723
331
2724
331
272A
331
272B
331
2731
331
2732
331
2738
331
2739
331
273F
331
2740
331
2746
331
2747
331
274F
331
2750
331
2756
331
2757
331
308C
331
308D
331
3097
331
3098
331
3110
331
3111
331
311B
331
311C
331
3126
331
3127
331
3131
331
3132
331
313A
331
313B
331
3143
331
3144
331
314A
331
314B
331
3151
331
3152
331
3158
331
3159
331
3161
331
3162
331
3168
331
3169
331
316F
331
3170
331
3200
331
3201
331
3207
331
3208
331
3210
331
3211
331
3217
331
3218
331
321E
331
321F
331
3225
331
3226
331
3235
331
3236
331
329E
331
329F
331
32A8
331
32A9
331
32B2
331
32B3
331
32BC
331
32BD
331
32C8
331
32C9
331
32D2
331
32D3
331
32DC
331
32DD
331
32E6
331
32E7
331
32F0
331
32F1
331
32FA
331
32FB
331
3304
331
3305
331
330E
331
330F
331
331A
331
331B
331
3324
331
3325
331
332E
331
332F
331
3338
331
3339
331
34F9
331
34FA
331
3503
331
3504
331
350F
331
3510
331
3519
331
351A
331
3525
331
3526
331
352F
331
3530
331
3539
331
353A
331
3543
331
3544
331
354F
331
3550
331
3559
331
355A
331
3565
331
3566
331
356F
331
3570
331
357B
331
357C
331
3585
331
3586
331
358F
331
3590
331
3599
331
359A
331
394F
331
3950
331
3959
331
395A
331
3963
331
3964
331
396E
331
396F
331
3977
331
3978
331
3981
331
3982
331
398B
331
398C
331
3995
331
3996
331
39A1
331
39A2
331
39AB
331
39AC
331
39B7
331
39B8
331
39C1
331
39C2
331
39CD
331
39CE
331
39D9
331
39DA
331
39E3
331
39E4
331
39EF
331
39F0
331
39F9
331
39FA
331
3A03
331
3A04
331
3A25
331
3A26
331
3A19
331
3A1A
331
3A0F
331
3A10
331
3A2F
331
3A30
331
3A39
331
3A3A
331
3A43
331
3A44
331
3A4D
331
3A4E
331
3A57
331
3A58
331
3A61
331
3A62
331
3A6B
331
3A6C
331
3A75
331
3A76
331
3A7F
331
3A80
331
3A8A
331
3A8B
331
3A95
331
3A96
331
3A9F
331
3AA0
331
3AAB
331
3AAC
331
3AB5
331
3AB6
331
3ABF
331
3AC0
331
3AC9
331
3ACA
331
3AD3
331
3AD4
331
37D9
331
37DA
331
37E3
331
37E4
331
37ED
331
37EE
331
37F7
331
37F8
331
3801
331
3802
331
380B
331
380C
331
3815
331
3816
331
381F
331
3820
331
3829
331
382A
331
3833
331
3834
331
383D
331
383E
331
3849
331
384A
331
3853
331
3854
331
385F
331
3860
331
3869
331
386A
331
3873
331
3874
331
387D
331
387E
331
3887
331
3888
331
3891
331
3892
331
389B
331
389C
331
38A5
331
38A6
331
38AF
331
38B0
331
38BA
331
38BB
331
38C3
331
38C4
331
38CD
331
38CE
331
38D7
331
38D8
331
38E1
331
38E2
331
38EB
331
38EC
331
38F5
331
38F6
331
38FF
331
3900
331
3909
331
390A
331
3913
331
3914
331
391D
331
391E
331
3927
331
3928
331
3931
331
3932
331
393B
331
393C
331
3945
331
3946
331
37A7
331
37A8
331
37B1
331
37B2
331
37BB
331
37BC
331
37C5
331
37C6
331
37CF
331
37D0
331
3D87
331
3D88
331
3D93
331
3D94
331
3D9C
331
3D9D
331
3DA9
331
3DAA
331
3DB2
331
3DB3
331
3DC4
331
3DC5
331
3DD0
331
3DD1
331
3DDA
331
3DDB
331
3DE7
331
3DE8
331
3DFD
331
3DFE
331
3E09
331
3E0A
331
3E12
331
3E13
331
3E1E
331
3E1F
331
3E28
331
3E29
331
3E32
331
3E33
331
3E3C
331
3E3D
331
3E46
331
3E47
331
3E50
331
3E51
331
3E5A
331
3E5B
331
3E64
331
3E65
331
3E6E
331
3E6F
331
3E79
331
3E7A
331
3E84
331
3E85
331
3E8E
331
3E8F
331
3ADD
331
3ADE
331
3AE7
331
3AE8
331
3AF1
331
3AF2
331
3AFB
331
3AFC
331
3B05
331
3B06
331
3B0F
331
3B10
331
3B19
331
3B1A
331
3B23
331
3B24
331
3B2D
331
3B2E
331
3B37
331
3B38
331
3B41
331
3B42
331
3B4B
331
3B4C
331
3B55
331
3B56
331
3B5F
331
3B60
331
3B69
331
3B6A
331
3B73
331
3B74
331
3B7D
331
3B7E
331
3B87
331
3B88
331
3B91
331
3B92
331
3B9B
331
3B9C
331
3BA5
331
3BA6
331
3BAF
331
3BB0
331
3BB9
331
3BBA
331
3BC3
331
3BC4
331
3BCD
331
3BCE
331
3BD7
331
3BD8
331
3BE1
331
3BE2
331
3BEB
331
3BEC
331
3BF5
331
3BF6
331
3BFF
331
3C00
331
3C09
331
3C0A
331
3C13
331
3C14
331
3C20
331
3C21
331
3C29
331
3C2A
331
3C33
331
3C34
331
3C3D
331
3C3E
331
3C47
331
3C48
331
3C51
331
3C52
331
3C6D
331
3C6E
331
3C77
331
3C78
331
3C81
331
3C82
331
3C8E
331
3C8F
331
3C97
331
3C98
331
3CA1
331
3CA2
331
3CAE
331
3CAF
331
3CB8
331
3CB9
331
3CC4
331
3CC5
331
3CCD
331
3CCE
331
3CD7
331
3CD8
331
3CE1
331
3CE2
331
3CEB
331
3CEC
331
3CF5
331
3CF6
331
3CFF
331
3D00
331
3D09
331
3D0A
331
3D13
331
3D14
331
3D1D
331
3D1E
331
3D27
331
3D28
331
3D33
331
3D34
331
3D3E
331
3D3F
331
3D4A
331
3D4B
331
3D54
331
3D55
331
3D5D
331
3D5E
331
3D68
331
3D69
331
3D71
331
3D72
331
3D7D
331
3D7E
331
6717
331
6718
331
671E
331
671F
331
6725
331
6726
331
672C
331
672D
331
6733
331
6734
331
673A
331
673B
331
6741
331
6742
331
6748
331
6749
331
674F
331
6750
331
6756
331
6757
331
675D
331
675E
331
6764
331
6765
331
676B
331
676C
331
6772
331
6773
331
6779
331
677A
331
6780
331
6781
331
6789
331
678A
331
6790
331
6791
331
6799
331
679A
331
67A0
331
67A1
331
67A7
331
67A8
331
67AE
331
67AF
331
67B5
331
67B6
331
67BC
331
67BD
331
67C3
331
67C4
331
67CA
331
67CB
331
67D1
331
67D2
331
67D9
331
67DA
331
67DF
331
67E0
331
67E6
331
67E7
331
67ED
331
67EE
331
67F4
331
67F5
331
67FB
331
67FC
331
6802
331
6803
331
6809
331
680A
331
6810
331
6811
331
6817
331
6818
331
681E
331
681F
331
6825
331
6826
331
682C
331
682D
331
6833
331
6834
331
683A
331
683B
331
6841
331
6842
331
6848
331
6849
331
684F
331
6850
331
6857
331
6858
331
685D
331
685E
331
6864
331
6865
331
686B
331
686C
331
6872
331
6873
331
687B
331
687C
331
6882
331
6883
331
688B
331
688C
331
6892
331
6893
331
689B
331
689C
331
68A4
331
68A5
331
68AB
331
68AC
331
68B4
331
68B5
331
68BB
331
68BC
331
68C2
331
68C3
331
68CB
331
68CC
331
68D2
331
68D3
331
68DB
331
68DC
331
68E2
331
68E3
331
68E9
331
68EA
331
68F0
331
68F1
331
68F7
331
68F8
331
68FE
331
68FF
331
6905
331
6906
331
690C
331
690D
331
6913
331
6914
331
691A
331
691B
331
6922
331
6923
331
692A
331
692B
331
6931
331
6932
331
693A
331
693B
331
6941
331
6942
331
6948
331
6949
331
694F
331
6950
331
6956
331
6957
331
695D
331
695E
331
6964
331
6965
331
696B
331
696C
331
6972
331
6973
331
6979
331
697A
331
6980
331
6981
331
6987
331
6988
331
698E
331
698F
331
6995
331
6996
331
699C
331
699D
331
69A3
331
69A4
331
69AA
331
69AB
331
69B1
331
69B2
331
69B8
331
69B9
331
69BF
331
69C0
331
69CD
331
69CE
331
69D4
331
69D5
331
69DB
331
69DC
331
69E2
331
69E3
331
69E9
331
69EA
331
69F0
331
69F1
331
69F7
331
69F8
331
69FE
331
69FF
331
6A05
331
6A06
331
6A0C
331
6A0D
331
6A13
331
6A14
331
6A1A
331
6A1B
331
6A21
331
6A22
331
6A28
331
6A29
331
6A2F
331
6A30
331
6A36
331
6A37
331
6A40
331
6A41
331
6A46
331
6A47
331
6A4D
331
6A4E
331
6A54
331
6A55
331
6A5B
331
6A5C
331
6A62
331
6A63
331
6A69
331
6A6A
331
6A70
331
6A71
331
6A77
331
6A78
331
6A81
331
6A82
331
6A87
331
6A88
331
6A8E
331
6A8F
331
6A98
331
6A99
331
6A9F
331
6AA0
331
6AA8
331
6AA9
331
6AAE
331
6AAF
331
6AB5
331
6AB6
331
6ABC
331
6ABD
331
6AC3
331
6AC4
331
6ACA
331
6ACB
331
6AD1
331
6AD2
331
6AD8
331
6AD9
331
6ADF
331
6AE0
331
6AE6
331
6AE7
331
6AEF
331
6AF0
331
6B00
331
6B01
331
6B07
331
6B08
331
6B0D
331
6B0E
331
6B15
331
6B16
331
6B1B
331
6B1C
331
6B24
331
6B25
331
6B2B
331
6B2C
331
6B33
331
6B34
331
6B3C
331
6B3D
331
6B49
331
6B4A
331
6B52
331
6B53
331
6B59
331
6B5A
331
6B63
331
6B64
331
6B73
331
6B74
331
6B79
331
6B7A
331
6B82
331
6B83
331
6B89
331
6B8A
331
6B90
331
6B91
331
6B97
331
6B98
331
6B9E
331
6B9F
331
6BA5
331
6BA6
331
6BAC
331
6BAD
331
6BB3
331
6BB4
331
6BBA
331
6BBB
331
6BC2
331
6BC3
331
6BCA
331
6BCB
331
6BD1
331
6BD2
331
6BD8
331
6BD9
331
6BE6
331
6BE7
331
6BEE
331
6BEF
331
6BFC
331
6BFD
331
6C22
331
6C23
331
6C29
331
6C2A
331
6CB8
331
6CB9
331
6CC8
331
6CC9
331
6CCF
331
6CD0
331
6CE6
331
6CE7
331
6CED
331
6CEE
331
6CFF
331
6D00
331
6D09
331
6D0A
331
6D13
331
6D14
331
6D1D
331
6D1E
331
6D29
331
6D2A
331
6D33
331
6D34
331
6D3D
331
6D3E
331
6D47
331
6D48
331
6D51
331
6D52
331
6D5B
331
6D5C
331
6D65
331
6D66
331
6D6F
331
6D70
331
6D7B
331
6D7C
331
6D85
331
6D86
331
6D8F
331
6D90
331
6D99
331
6D9A
331
6F56
331
6F57
331
6F60
331
6F61
331
6F6C
331
6F6D
331
6F76
331
6F77
331
6F82
331
6F83
331
6F8C
331
6F8D
331
6F96
331
6F97
331
6FA0
331
6FA1
331
6FAC
331
6FAD
331
6FB6
331
6FB7
331
6FC2
331
6FC3
331
6FCC
331
6FCD
331
6FD8
331
6FD9
331
6FE2
331
6FE3
331
6FEC
331
6FED
331
6FF6
331
6FF7
331
6FFF
331
7000
331
7006
331
7007
331
7072
331
7073
331
707B
331
707C
102
}
  0
BLOCK_RECORD
  5
31AB
330
1
100
AcDbSymbolTableRecord
100
AcDbBlockTableRecord
  2
*D119
340
0
  0
BLOCK_RECORD
  5
31B5
330
1
100
AcDbSymbolTableRecord
100
AcDbBlockTableRecord
  2
*D120
340
0
  0
BLOCK_RECORD
  5
31BF
330
1
100
AcDbSymbolTableRecord
100
AcDbBlockTableRecord
  2
*D121
340
0
  0
BLOCK_RECORD
  5
31CB
330
1
100
AcDbSymbolTableRecord
100
AcDbBlockTableRecord
  2
*D122
340
0
  0
BLOCK_RECORD
  5
31D5
330
1
100
AcDbSymbolTableRecord
100
AcDbBlockTableRecord
  2
*D123
340
0
  0
BLOCK_RECORD
  5
31DF
330
1
100
AcDbSymbolTableRecord
100
AcDbBlockTableRecord
  2
*D124
340
0
  0
BLOCK_RECORD
  5
31E9
330
1
100
AcDbSymbolTableRecord
100
AcDbBlockTableRecord
  2
*D125
340
0
  0
BLOCK_RECORD
  5
31F5
330
1
100
AcDbSymbolTableRecord
100
AcDbBlockTableRecord
  2
*D126
340
0
  0
BLOCK_RECORD
  5
3E95
330
1
100
AcDbSymbolTableRecord
100
AcDbBlockTableRecord
  2
BM-Pieczatka1
340
0
102
{BLKREFS
331
44AC
102
}
1001
ACAD
1000
DesignCenter Data
1002
{
1070
     1
1070
     5
1002
}
  0
BLOCK_RECORD
  5
52AB
330
1
100
AcDbSymbolTableRecord
100
AcDbBlockTableRecord
  2
*D519
340
0
  0
BLOCK_RECORD
  5
533B
330
1
100
AcDbSymbolTableRecord
100
AcDbBlockTableRecord
  2
*D530
340
0
  0
BLOCK_RECORD
  5
6C63
330
1
100
AcDbSymbolTableRecord
100
AcDbBlockTableRecord
  2
*D544
340
0
  0
BLOCK_RECORD
  5
6C6D
330
1
100
AcDbSymbolTableRecord
100
AcDbBlockTableRecord
  2
*D545
340
0
  0
BLOCK_RECORD
  5
6C79
330
1
100
AcDbSymbolTableRecord
100
AcDbBlockTableRecord
  2
*D546
340
0
  0
BLOCK_RECORD
  5
6C83
330
1
100
AcDbSymbolTableRecord
100
AcDbBlockTableRecord
  2
*D547
340
0
  0
BLOCK_RECORD
  5
6C8D
330
1
100
AcDbSymbolTableRecord
100
AcDbBlockTableRecord
  2
*D548
340
0
  0
BLOCK_RECORD
  5
6C97
330
1
100
AcDbSymbolTableRecord
100
AcDbBlockTableRecord
  2
*D549
340
0
  0
BLOCK_RECORD
  5
6CA3
330
1
100
AcDbSymbolTableRecord
100
AcDbBlockTableRecord
  2
*D550
340
0
  0
BLOCK_RECORD
  5
6CAD
330
1
100
AcDbSymbolTableRecord
100
AcDbBlockTableRecord
  2
*D551
340
0
  0
ENDTAB
  0
ENDSEC
  0
SECTION
  2
BLOCKS
  0
BLOCK
  5
3
330
2
100
AcDbEntity
  8
0
100
AcDbBlockBegin
  2
*Model_Space
 70
     0
 10
0.0
 20
0.0
 30
0.0
  3
*Model_Space
  1

  0
ENDBLK
  5
9
330
2
100
AcDbEntity
  8
0
100
AcDbBlockEnd
  0
BLOCK
  5
E
330
D
100
AcDbEntity
 67
     1
  8
0
100
AcDbBlockBegin
  2
*Paper_Space
 70
     0
 10
0.0
 20
0.0
 30
0.0
  3
*Paper_Space
  1

  0
ENDBLK
  5
F
330
D
100
AcDbEntity
 67
     1
  8
0
100
AcDbBlockEnd
  0
BLOCK
  5
26
330
23
100
AcDbEntity
  8
0
100
AcDbBlockBegin
  2
B-DIM
 70
     0
 10
0.0
 20
0.0
 30
0.0
  3
B-DIM
  1

  0
LINE
  5
27
330
23
100
AcDbEntity
  8
0
 62
     1
100
AcDbLine
 10
0.000000000000091
 20
-1.1
 30
0.0
 11
0.000000000000091
 21
1.1
 31
0.0
  0
LWPOLYLINE
  5
28
330
23
100
AcDbEntity
  8
0
 62
     1
100
AcDbPolyline
 90
        2
 70
     0
 43
0.3
 10
-0.7071067811864851
 20
-0.7071067811864851
 10
0.707106781186576
 20
0.707106781186576
  0
LINE
  5
29
330
23
100
AcDbEntity
  8
0
 62
     1
100
AcDbLine
 10
1.20000000000009
 20
0.0
 30
0.0
 11
-1.199999999999909
 21
0.0
 31
0.0
  0
ENDBLK
  5
2A
330
23
100
AcDbEntity
  8
0
100
AcDbBlockEnd
  0
BLOCK
  5
31B3
330
31AB
100
AcDbEntity
  8
0
100
AcDbBlockBegin
  2
*D119
 70
     1
 10
0.0
 20
0.0
 30
0.0
  3
*D119
  1

  0
LINE
  5
31FF
330
31AB
100
AcDbEntity
  8
Rodo-teren$0$S-FloorSlab-G
 62
     1
370
    -2
100
AcDbLine
 10
208174.8560512441
 20
131645.489758037
 30
0.0
 11
208174.8560512441
 21
131970.489758037
 31
0.0
  0
INSERT
  5
3200
330
31AB
100
AcDbEntity
  8
Rodo-teren$0$S-FloorSlab-G
 62
     1
370
    -2
100
AcDbBlockReference
  2
B-DIM
 10
208174.8560512441
 20
131615.489758037
 30
0.0
 41
30.0
 42
30.0
 43
30.0
 50
270.0
  0
INSERT
  5
3201
330
31AB
100
AcDbEntity
  8
Rodo-teren$0$S-FloorSlab-G
 62
     1
370
    -2
100
AcDbBlockReference
  2
B-DIM
 10
208174.8560512441
 20
132000.4897580371
 30
0.0
 41
30.0
 42
30.0
 43
30.0
 50
90.0
  0
MTEXT
  5
3202
330
31AB
100
AcDbEntity
  8
Rodo-teren$0$S-FloorSlab-G
 62
    10
100
AcDbMText
 10
208094.8560512441
 20
131807.9897580371
 30
0.0
 40
80.0
 41
0.0
 71
     5
 72
     1
  1
\A1;385
  7
ROMANS
 11
0.0000000000000001
 21
1.0
 31
0.0
 73
     1
 44
1.0
1001
ACAD
1000
MTEXTBEGIN
1070
    73
1070
     1
1070
    44
1040
1.0
1070
    74
1070
     0
1000
MTEXTEND
  0
POINT
  5
3203
330
31AB
100
AcDbEntity
  8
DEFPOINTS
 62
     0
100
AcDbPoint
 10
208840.369695868
 20
131615.489758037
 30
0.0
  0
POINT
  5
3204
330
31AB
100
AcDbEntity
  8
DEFPOINTS
 62
     0
100
AcDbPoint
 10
208840.369695868
 20
132000.4897580371
 30
0.0
  0
POINT
  5
3205
330
31AB
100
AcDbEntity
  8
DEFPOINTS
 62
     0
100
AcDbPoint
 10
208174.8560512441
 20
132000.4897580371
 30
0.0
  0
ENDBLK
  5
31B4
330
31AB
100
AcDbEntity
  8
0
100
AcDbBlockEnd
  0
BLOCK
  5
31BD
330
31B5
100
AcDbEntity
  8
0
100
AcDbBlockBegin
  2
*D120
 70
     1
 10
0.0
 20
0.0
 30
0.0
  3
*D120
  1

  0
LINE
  5
3206
330
31B5
100
AcDbEntity
  8
Rodo-teren$0$S-FloorSlab-G
 62
     1
370
    -2
100
AcDbLine
 10
208174.8560512441
 20
132030.4897580371
 30
0.0
 11
208174.8560512441
 21
133115.489758037
 31
0.0
  0
INSERT
  5
3207
330
31B5
100
AcDbEntity
  8
Rodo-teren$0$S-FloorSlab-G
 62
     1
370
    -2
100
AcDbBlockReference
  2
B-DIM
 10
208174.8560512441
 20
132000.4897580371
 30
0.0
 41
30.0
 42
30.0
 43
30.0
 50
270.0
  0
INSERT
  5
3208
330
31B5
100
AcDbEntity
  8
Rodo-teren$0$S-FloorSlab-G
 62
     1
370
    -2
100
AcDbBlockReference
  2
B-DIM
 10
208174.8560512441
 20
133145.4897580371
 30
0.0
 41
30.0
 42
30.0
 43
30.0
 50
90.0
  0
MTEXT
  5
3209
330
31B5
100
AcDbEntity
  8
Rodo-teren$0$S-FloorSlab-G
 62
    10
100
AcDbMText
 10
208094.8560512441
 20
132572.9897580371
 30
0.0
 40
80.0
 41
0.0
 71
     5
 72
     1
  1
\A1;1145
  7
ROMANS
 11
0.0000000000000001
 21
1.0
 31
0.0
 73
     1
 44
1.0
1001
ACAD
1000
MTEXTBEGIN
1070
    73
1070
     1
1070
    44
1040
1.0
1070
    74
1070
     0
1000
MTEXTEND
  0
POINT
  5
320A
330
31B5
100
AcDbEntity
  8
DEFPOINTS
 62
     0
100
AcDbPoint
 10
208840.369695868
 20
132000.4897580371
 30
0.0
  0
POINT
  5
320B
330
31B5
100
AcDbEntity
  8
DEFPOINTS
 62
     0
100
AcDbPoint
 10
208710.3697044802
 20
133145.4897580371
 30
0.0
  0
POINT
  5
320C
330
31B5
100
AcDbEntity
  8
DEFPOINTS
 62
     0
100
AcDbPoint
 10
208174.8560512441
 20
133145.4897580371
 30
0.0
  0
ENDBLK
  5
31BE
330
31B5
100
AcDbEntity
  8
0
100
AcDbBlockEnd
  0
BLOCK
  5
31C9
330
31BF
100
AcDbEntity
  8
0
100
AcDbBlockBegin
  2
*D121
 70
     1
 10
0.0
 20
0.0
 30
0.0
  3
*D121
  1

  0
LINE
  5
320D
330
31BF
100
AcDbEntity
  8
Rodo-teren$0$S-FloorSlab-G
 62
     1
370
    -2
100
AcDbLine
 10
208174.8560512441
 20
133115.489758037
 30
0.0
 11
208174.8560512441
 21
133085.489758037
 31
0.0
  0
LINE
  5
320E
330
31BF
100
AcDbEntity
  8
Rodo-teren$0$S-FloorSlab-G
 62
     1
370
    -2
100
AcDbLine
 10
208174.8560512441
 20
133275.4897576784
 30
0.0
 11
208174.8560512441
 21
133305.4897576784
 31
0.0
  0
LINE
  5
320F
330
31BF
100
AcDbEntity
  8
Rodo-teren$0$S-FloorSlab-G
 62
     1
370
    -2
100
AcDbLine
 10
208174.8560512441
 20
133145.4897580371
 30
0.0
 11
208174.8560512441
 21
133245.4897576784
 31
0.0
  0
INSERT
  5
3210
330
31BF
100
AcDbEntity
  8
Rodo-teren$0$S-FloorSlab-G
 62
     1
370
    -2
100
AcDbBlockReference
  2
B-DIM
 10
208174.8560512441
 20
133145.4897580371
 30
0.0
 41
30.0
 42
30.0
 43
30.0
 50
90.0
  0
INSERT
  5
3211
330
31BF
100
AcDbEntity
  8
Rodo-teren$0$S-FloorSlab-G
 62
     1
370
    -2
100
AcDbBlockReference
  2
B-DIM
 10
208174.8560512441
 20
133245.4897576784
 30
0.0
 41
30.0
 42
30.0
 43
30.0
 50
270.0
  0
MTEXT
  5
3212
330
31BF
100
AcDbEntity
  8
Rodo-teren$0$S-FloorSlab-G
 62
    10
100
AcDbMText
 10
208094.8560512441
 20
133195.4897578578
 30
0.0
 40
80.0
 41
0.0
 71
     5
 72
     1
  1
\A1;100
  7
ROMANS
 11
0.0000000000000001
 21
1.0
 31
0.0
 73
     1
 44
1.0
1001
ACAD
1000
MTEXTBEGIN
1070
    73
1070
     1
1070
    44
1040
1.0
1070
    74
1070
     0
1000
MTEXTEND
  0
POINT
  5
3213
330
31BF
100
AcDbEntity
  8
DEFPOINTS
 62
     0
100
AcDbPoint
 10
208710.3697044802
 20
133145.4897580371
 30
0.0
  0
POINT
  5
3214
330
31BF
100
AcDbEntity
  8
DEFPOINTS
 62
     0
100
AcDbPoint
 10
209266.83417085
 20
133245.4897576784
 30
0.0
  0
POINT
  5
3215
330
31BF
100
AcDbEntity
  8
DEFPOINTS
 62
     0
100
AcDbPoint
 10
208174.8560512441
 20
133245.4897576784
 30
0.0
  0
ENDBLK
  5
31CA
330
31BF
100
AcDbEntity
  8
0
100
AcDbBlockEnd
  0
BLOCK
  5
31D3
330
31CB
100
AcDbEntity
  8
0
100
AcDbBlockBegin
  2
*D122
 70
     1
 10
0.0
 20
0.0
 30
0.0
  3
*D122
  1

  0
LINE
  5
3216
330
31CB
100
AcDbEntity
  8
Rodo-teren$0$S-FloorSlab-G
 62
     1
370
    -2
100
AcDbLine
 10
207981.276228155
 20
131645.489758037
 30
0.0
 11
207981.276228155
 21
133215.4897576784
 31
0.0
  0
INSERT
  5
3217
330
31CB
100
AcDbEntity
  8
Rodo-teren$0$S-FloorSlab-G
 62
     1
370
    -2
100
AcDbBlockReference
  2
B-DIM
 10
207981.276228155
 20
131615.489758037
 30
0.0
 41
30.0
 42
30.0
 43
30.0
 50
270.0
  0
INSERT
  5
3218
330
31CB
100
AcDbEntity
  8
Rodo-teren$0$S-FloorSlab-G
 62
     1
370
    -2
100
AcDbBlockReference
  2
B-DIM
 10
207981.276228155
 20
133245.4897576784
 30
0.0
 41
30.0
 42
30.0
 43
30.0
 50
90.0
  0
MTEXT
  5
3219
330
31CB
100
AcDbEntity
  8
Rodo-teren$0$S-FloorSlab-G
 62
    10
100
AcDbMText
 10
207901.276228155
 20
132430.4897578577
 30
0.0
 40
80.0
 41
0.0
 71
     5
 72
     1
  1
\A1;1630
  7
ROMANS
 11
0.0000000000000001
 21
1.0
 31
0.0
 73
     1
 44
1.0
1001
ACAD
1000
MTEXTBEGIN
1070
    73
1070
     1
1070
    44
1040
1.0
1070
    74
1070
     0
1000
MTEXTEND
  0
POINT
  5
321A
330
31CB
100
AcDbEntity
  8
DEFPOINTS
 62
     0
100
AcDbPoint
 10
208840.369695868
 20
131615.489758037
 30
0.0
  0
POINT
  5
321B
330
31CB
100
AcDbEntity
  8
DEFPOINTS
 62
     0
100
AcDbPoint
 10
209266.83417085
 20
133245.4897576784
 30
0.0
  0
POINT
  5
321C
330
31CB
100
AcDbEntity
  8
DEFPOINTS
 62
     0
100
AcDbPoint
 10
207981.276228155
 20
133245.4897576784
 30
0.0
  0
ENDBLK
  5
31D4
330
31CB
100
AcDbEntity
  8
0
100
AcDbBlockEnd
  0
BLOCK
  5
31DD
330
31D5
100
AcDbEntity
  8
0
100
AcDbBlockBegin
  2
*D123
 70
     1
 10
0.0
 20
0.0
 30
0.0
  3
*D123
  1

  0
LINE
  5
321D
330
31D5
100
AcDbEntity
  8
Rodo-teren$0$S-FloorSlab-G
 62
     1
370
    -2
100
AcDbLine
 10
209680.3697050318
 20
131208.4160715854
 30
0.0
 11
209528.369695868
 21
131208.4160715854
 31
0.0
  0
INSERT
  5
321E
330
31D5
100
AcDbEntity
  8
Rodo-teren$0$S-FloorSlab-G
 62
     1
370
    -2
100
AcDbBlockReference
  2
B-DIM
 10
209710.3697050318
 20
131208.4160715854
 30
0.0
 41
30.0
 42
30.0
 43
30.0
  0
INSERT
  5
321F
330
31D5
100
AcDbEntity
  8
Rodo-teren$0$S-FloorSlab-G
 62
     1
370
    -2
100
AcDbBlockReference
  2
B-DIM
 10
209498.369695868
 20
131208.4160715854
 30
0.0
 41
30.0
 42
30.0
 43
30.0
 50
180.0
  0
MTEXT
  5
3220
330
31D5
100
AcDbEntity
  8
Rodo-teren$0$S-FloorSlab-G
 62
    10
100
AcDbMText
 10
209604.3697004499
 20
131288.4160715854
 30
0.0
 40
80.0
 41
0.0
 71
     5
 72
     1
  1
\A1;212
  7
ROMANS
 73
     1
 44
1.0
1001
ACAD
1000
MTEXTBEGIN
1070
    73
1070
     1
1070
    44
1040
1.0
1070
    74
1070
     0
1000
MTEXTEND
  0
POINT
  5
3221
330
31D5
100
AcDbEntity
  8
DEFPOINTS
 62
     0
100
AcDbPoint
 10
209710.3697050318
 20
132370.4897580371
 30
0.0
  0
POINT
  5
3222
330
31D5
100
AcDbEntity
  8
DEFPOINTS
 62
     0
100
AcDbPoint
 10
209498.369695868
 20
132000.4897580371
 30
0.0
  0
POINT
  5
3223
330
31D5
100
AcDbEntity
  8
DEFPOINTS
 62
     0
100
AcDbPoint
 10
209498.369695868
 20
131208.4160715854
 30
0.0
  0
ENDBLK
  5
31DE
330
31D5
100
AcDbEntity
  8
0
100
AcDbBlockEnd
  0
BLOCK
  5
31E7
330
31DF
100
AcDbEntity
  8
0
100
AcDbBlockBegin
  2
*D124
 70
     1
 10
0.0
 20
0.0
 30
0.0
  3
*D124
  1

  0
LINE
  5
3224
330
31DF
100
AcDbEntity
  8
Rodo-teren$0$S-FloorSlab-G
 62
     1
370
    -2
100
AcDbLine
 10
209468.369695868
 20
131208.4160715854
 30
0.0
 11
208870.369695868
 21
131208.4160715854
 31
0.0
  0
INSERT
  5
3225
330
31DF
100
AcDbEntity
  8
Rodo-teren$0$S-FloorSlab-G
 62
     1
370
    -2
100
AcDbBlockReference
  2
B-DIM
 10
209498.369695868
 20
131208.4160715854
 30
0.0
 41
30.0
 42
30.0
 43
30.0
  0
INSERT
  5
3226
330
31DF
100
AcDbEntity
  8
Rodo-teren$0$S-FloorSlab-G
 62
     1
370
    -2
100
AcDbBlockReference
  2
B-DIM
 10
208840.369695868
 20
131208.4160715854
 30
0.0
 41
30.0
 42
30.0
 43
30.0
 50
180.0
  0
MTEXT
  5
3227
330
31DF
100
AcDbEntity
  8
Rodo-teren$0$S-FloorSlab-G
 62
    10
100
AcDbMText
 10
209169.369695868
 20
131288.4160715854
 30
0.0
 40
80.0
 41
0.0
 71
     5
 72
     1
  1
\A1;658
  7
ROMANS
 73
     1
 44
1.0
1001
ACAD
1000
MTEXTBEGIN
1070
    73
1070
     1
1070
    44
1040
1.0
1070
    74
1070
     0
1000
MTEXTEND
  0
POINT
  5
3228
330
31DF
100
AcDbEntity
  8
DEFPOINTS
 62
     0
100
AcDbPoint
 10
209498.369695868
 20
132000.4897580371
 30
0.0
  0
POINT
  5
3229
330
31DF
100
AcDbEntity
  8
DEFPOINTS
 62
     0
100
AcDbPoint
 10
208840.369695868
 20
131615.489758037
 30
0.0
  0
POINT
  5
322A
330
31DF
100
AcDbEntity
  8
DEFPOINTS
 62
     0
100
AcDbPoint
 10
208840.369695868
 20
131208.4160715854
 30
0.0
  0
ENDBLK
  5
31E8
330
31DF
100
AcDbEntity
  8
0
100
AcDbBlockEnd
  0
BLOCK
  5
31F3
330
31E9
100
AcDbEntity
  8
0
100
AcDbBlockBegin
  2
*D125
 70
     1
 10
0.0
 20
0.0
 30
0.0
  3
*D125
  1

  0
LINE
  5
706F
330
31E9
100
AcDbEntity
  8
Rodo-teren$0$S-FloorSlab-G
 62
     1
370
    -2
100
AcDbLine
 10
208870.369695868
 20
131208.4160715854
 30
0.0
 11
208900.369695868
 21
131208.4160715854
 31
0.0
  0
LINE
  5
7070
330
31E9
100
AcDbEntity
  8
Rodo-teren$0$S-FloorSlab-G
 62
     1
370
    -2
100
AcDbLine
 10
208695.3697044802
 20
131208.4160715854
 30
0.0
 11
208665.3697044802
 21
131208.4160715854
 31
0.0
  0
LINE
  5
7071
330
31E9
100
AcDbEntity
  8
Rodo-teren$0$S-FloorSlab-G
 62
     1
370
    -2
100
AcDbLine
 10
208840.369695868
 20
131208.4160715854
 30
0.0
 11
208725.3697044802
 21
131208.4160715854
 31
0.0
  0
INSERT
  5
7072
330
31E9
100
AcDbEntity
  8
Rodo-teren$0$S-FloorSlab-G
 62
     1
370
    -2
100
AcDbBlockReference
  2
B-DIM
 10
208840.369695868
 20
131208.4160715854
 30
0.0
 41
30.0
 42
30.0
 43
30.0
 50
180.0
  0
INSERT
  5
7073
330
31E9
100
AcDbEntity
  8
Rodo-teren$0$S-FloorSlab-G
 62
     1
370
    -2
100
AcDbBlockReference
  2
B-DIM
 10
208725.3697044802
 20
131208.4160715854
 30
0.0
 41
30.0
 42
30.0
 43
30.0
  0
MTEXT
  5
7074
330
31E9
100
AcDbEntity
  8
Rodo-teren$0$S-FloorSlab-G
 62
    10
100
AcDbMText
 10
208782.8697001741
 20
131288.4160715854
 30
0.0
 40
80.0
 41
0.0
 71
     5
 72
     1
  1
\A1;115
  7
ROMANS
 73
     1
 44
1.0
1001
ACAD
1000
MTEXTBEGIN
1070
    73
1070
     1
1070
    44
1040
1.0
1070
    74
1070
     0
1000
MTEXTEND
  0
POINT
  5
7075
330
31E9
100
AcDbEntity
  8
DEFPOINTS
 62
     0
100
AcDbPoint
 10
208840.369695868
 20
131615.489758037
 30
0.0
  0
POINT
  5
7076
330
31E9
100
AcDbEntity
  8
DEFPOINTS
 62
     0
100
AcDbPoint
 10
208725.3697044802
 20
132000.489758037
 30
0.0
  0
POINT
  5
7077
330
31E9
100
AcDbEntity
  8
DEFPOINTS
 62
     0
100
AcDbPoint
 10
208725.3697044802
 20
131208.4160715854
 30
0.0
  0
ENDBLK
  5
31F4
330
31E9
100
AcDbEntity
  8
0
100
AcDbBlockEnd
  0
BLOCK
  5
31FD
330
31F5
100
AcDbEntity
  8
0
100
AcDbBlockBegin
  2
*D126
 70
     1
 10
0.0
 20
0.0
 30
0.0
  3
*D126
  1

  0
LINE
  5
3234
330
31F5
100
AcDbEntity
  8
Rodo-teren$0$S-FloorSlab-G
 62
     1
370
    -2
100
AcDbLine
 10
209680.3697050318
 20
131018.9161400417
 30
0.0
 11
208755.3697044802
 21
131018.9161400417
 31
0.0
  0
INSERT
  5
3235
330
31F5
100
AcDbEntity
  8
Rodo-teren$0$S-FloorSlab-G
 62
     1
370
    -2
100
AcDbBlockReference
  2
B-DIM
 10
209710.3697050318
 20
131018.9161400417
 30
0.0
 41
30.0
 42
30.0
 43
30.0
  0
INSERT
  5
3236
330
31F5
100
AcDbEntity
  8
Rodo-teren$0$S-FloorSlab-G
 62
     1
370
    -2
100
AcDbBlockReference
  2
B-DIM
 10
208725.3697044802
 20
131018.9161400417
 30
0.0
 41
30.0
 42
30.0
 43
30.0
 50
180.0
  0
MTEXT
  5
3237
330
31F5
100
AcDbEntity
  8
Rodo-teren$0$S-FloorSlab-G
 62
    10
100
AcDbMText
 10
209217.869704756
 20
131098.9161400417
 30
0.0
 40
80.0
 41
0.0
 71
     5
 72
     1
  1
\A1;985
  7
ROMANS
 73
     1
 44
1.0
1001
ACAD
1000
MTEXTBEGIN
1070
    73
1070
     1
1070
    44
1040
1.0
1070
    74
1070
     0
1000
MTEXTEND
  0
POINT
  5
3238
330
31F5
100
AcDbEntity
  8
DEFPOINTS
 62
     0
100
AcDbPoint
 10
209710.3697050318
 20
132370.4897580371
 30
0.0
  0
POINT
  5
3239
330
31F5
100
AcDbEntity
  8
DEFPOINTS
 62
     0
100
AcDbPoint
 10
208725.3697044802
 20
132278.1702137414
 30
0.0
  0
POINT
  5
323A
330
31F5
100
AcDbEntity
  8
DEFPOINTS
 62
     0
100
AcDbPoint
 10
208725.3697044802
 20
131018.9161400417
 30
0.0
  0
ENDBLK
  5
31FE
330
31F5
100
AcDbEntity
  8
0
100
AcDbBlockEnd
  0
BLOCK
  5
3E96
330
3E95
100
AcDbEntity
  8
0
100
AcDbBlockBegin
  2
BM-Pieczatka1
 70
    36
 10
0.0000000000000284
 20
0.0
 30
0.0
  3
BM-Pieczatka1
  1
\\Mati\architekci\domy typowe\Lewkonie_2\LEWKONIE_2\2D_Projekt\BM-Pieczatka1.dwg
  0
ENDBLK
  5
3E97
330
3E95
100
AcDbEntity
  8
0
100
AcDbBlockEnd
  0
BLOCK
  5
52AC
330
52AB
100
AcDbEntity
  8
0
100
AcDbBlockBegin
  2
*D519
 70
     1
 10
0.0
 20
0.0
 30
0.0
  3
*D519
  1

  0
LINE
  5
6C21
330
52AB
100
AcDbEntity
  8
-wymiary
 62
     1
370
     5
100
AcDbLine
 10
213392.8806833286
 20
304.3879103130894
 30
0.0
 11
213222.880683385
 21
304.3879103130894
 31
0.0
  0
INSERT
  5
6C22
330
52AB
100
AcDbEntity
  8
-wymiary
 62
     1
370
     5
100
AcDbBlockReference
  2
B-DIM
 10
213400.8806833286
 20
304.3879103130894
 30
0.0
 41
8.0
 42
8.0
 43
8.0
  0
INSERT
  5
6C23
330
52AB
100
AcDbEntity
  8
-wymiary
 62
     1
370
     5
100
AcDbBlockReference
  2
B-DIM
 10
213214.880683385
 20
304.3879103130894
 30
0.0
 41
8.0
 42
8.0
 43
8.0
 50
180.0
  0
MTEXT
  5
6C24
330
52AB
100
AcDbEntity
  8
-wymiary
 62
   140
100
AcDbMText
 10
213307.8806833568
 20
320.3879103130894
 30
0.0
 40
16.0
 41
0.0
 71
     5
 72
     1
  1
\A1;186
  7
ROMANS
 73
     1
 44
1.0
1001
ACAD
1000
MTEXTBEGIN
1070
    73
1070
     1
1070
    44
1040
1.0
1070
    74
1070
     0
1000
MTEXTEND
  0
POINT
  5
6C25
330
52AB
100
AcDbEntity
  8
DEFPOINTS
 62
     0
100
AcDbPoint
 10
213400.8806833286
 20
270.9135637475701
 30
0.0
  0
POINT
  5
6C26
330
52AB
100
AcDbEntity
  8
DEFPOINTS
 62
     0
100
AcDbPoint
 10
213214.880683385
 20
304.3879103130603
 30
0.0
  0
POINT
  5
6C27
330
52AB
100
AcDbEntity
  8
DEFPOINTS
 62
     0
100
AcDbPoint
 10
213214.880683385
 20
304.3879103130894
 30
0.0
  0
ENDBLK
  5
52AD
330
52AB
100
AcDbEntity
  8
0
100
AcDbBlockEnd
  0
BLOCK
  5
533C
330
533B
100
AcDbEntity
  8
0
100
AcDbBlockBegin
  2
*D530
 70
     1
 10
0.0
 20
0.0
 30
0.0
  3
*D530
  1

  0
LINE
  5
6C28
330
533B
100
AcDbEntity
  8
-wymiary
 62
     1
370
     5
100
AcDbLine
 10
212956.8806833631
 20
-377.2660211207985
 30
0.0
 11
212670.8806828116
 21
-377.2660211207985
 31
0.0
  0
INSERT
  5
6C29
330
533B
100
AcDbEntity
  8
-wymiary
 62
     1
370
     5
100
AcDbBlockReference
  2
B-DIM
 10
212964.8806833631
 20
-377.2660211207985
 30
0.0
 41
8.0
 42
8.0
 43
8.0
  0
INSERT
  5
6C2A
330
533B
100
AcDbEntity
  8
-wymiary
 62
     1
370
     5
100
AcDbBlockReference
  2
B-DIM
 10
212662.8806828116
 20
-377.2660211207985
 30
0.0
 41
8.0
 42
8.0
 43
8.0
 50
180.0
  0
MTEXT
  5
6C2B
330
533B
100
AcDbEntity
  8
-wymiary
 62
   140
100
AcDbMText
 10
212813.8806830873
 20
-361.2660211207985
 30
0.0
 40
16.0
 41
0.0
 71
     5
 72
     1
  1
\A1;302
  7
ROMANS
 73
     1
 44
1.0
1001
ACAD
1000
MTEXTBEGIN
1070
    73
1070
     1
1070
    44
1040
1.0
1070
    74
1070
     0
1000
MTEXTEND
  0
POINT
  5
6C2C
330
533B
100
AcDbEntity
  8
DEFPOINTS
 62
     0
100
AcDbPoint
 10
212964.8806833631
 20
-377.2660211207985
 30
0.0
  0
POINT
  5
6C2D
330
533B
100
AcDbEntity
  8
DEFPOINTS
 62
     0
100
AcDbPoint
 10
212662.8806828116
 20
-377.2660211207985
 30
0.0
  0
POINT
  5
6C2E
330
533B
100
AcDbEntity
  8
DEFPOINTS
 62
     0
100
AcDbPoint
 10
212662.8806828116
 20
-377.2660211207985
 30
0.0
  0
ENDBLK
  5
533D
330
533B
100
AcDbEntity
  8
0
100
AcDbBlockEnd
  0
BLOCK
  5
6C64
330
6C63
100
AcDbEntity
  8
0
100
AcDbBlockBegin
  2
*D544
 70
     1
 10
0.0
 20
0.0
 30
0.0
  3
*D544
  1

  0
LINE
  5
6CB7
330
6C63
100
AcDbEntity
  8
Rodo-teren$0$S-FloorSlab-G
 62
     1
370
    -2
100
AcDbLine
 10
203967.2599185508
 20
131018.9161400417
 30
0.0
 11
204892.2599191024
 21
131018.9161400417
 31
0.0
  0
INSERT
  5
6CB8
330
6C63
100
AcDbEntity
  8
Rodo-teren$0$S-FloorSlab-G
 62
     1
370
    -2
100
AcDbBlockReference
  2
B-DIM
 10
203937.2599185508
 20
131018.9161400417
 30
0.0
 41
30.0
 42
30.0
 43
30.0
 50
180.0
  0
INSERT
  5
6CB9
330
6C63
100
AcDbEntity
  8
Rodo-teren$0$S-FloorSlab-G
 62
     1
370
    -2
100
AcDbBlockReference
  2
B-DIM
 10
204922.2599191024
 20
131018.9161400417
 30
0.0
 41
30.0
 42
30.0
 43
30.0
  0
MTEXT
  5
6CBA
330
6C63
100
AcDbEntity
  8
Rodo-teren$0$S-FloorSlab-G
 62
    10
100
AcDbMText
 10
204429.7599188265
 20
131098.9161400417
 30
0.0
 40
80.0
 41
0.0
 71
     5
 72
     1
  1
\A1;985
  7
ROMANS
 73
     1
 44
1.0
1001
ACAD
1000
MTEXTBEGIN
1070
    73
1070
     1
1070
    44
1040
1.0
1070
    74
1070
     0
1000
MTEXTEND
  0
POINT
  5
6CBB
330
6C63
100
AcDbEntity
  8
DEFPOINTS
 62
     0
100
AcDbPoint
 10
203937.2599185508
 20
132370.4897580371
 30
0.0
  0
POINT
  5
6CBC
330
6C63
100
AcDbEntity
  8
DEFPOINTS
 62
     0
100
AcDbPoint
 10
204922.2599191024
 20
132278.1702137414
 30
0.0
  0
POINT
  5
6CBD
330
6C63
100
AcDbEntity
  8
DEFPOINTS
 62
     0
100
AcDbPoint
 10
204922.2599191024
 20
131018.9161400417
 30
0.0
  0
ENDBLK
  5
6C65
330
6C63
100
AcDbEntity
  8
0
100
AcDbBlockEnd
  0
BLOCK
  5
6C6E
330
6C6D
100
AcDbEntity
  8
0
100
AcDbBlockBegin
  2
*D545
 70
     1
 10
0.0
 20
0.0
 30
0.0
  3
*D545
  1

  0
LINE
  5
7078
330
6C6D
100
AcDbEntity
  8
Rodo-teren$0$S-FloorSlab-G
 62
     1
370
    -2
100
AcDbLine
 10
204777.2599277146
 20
131208.4160715854
 30
0.0
 11
204747.2599277146
 21
131208.4160715854
 31
0.0
  0
LINE
  5
7079
330
6C6D
100
AcDbEntity
  8
Rodo-teren$0$S-FloorSlab-G
 62
     1
370
    -2
100
AcDbLine
 10
204952.2599191023
 20
131208.4160715854
 30
0.0
 11
204982.2599191024
 21
131208.4160715854
 31
0.0
  0
LINE
  5
707A
330
6C6D
100
AcDbEntity
  8
Rodo-teren$0$S-FloorSlab-G
 62
     1
370
    -2
100
AcDbLine
 10
204807.2599277146
 20
131208.4160715854
 30
0.0
 11
204922.2599191024
 21
131208.4160715854
 31
0.0
  0
INSERT
  5
707B
330
6C6D
100
AcDbEntity
  8
Rodo-teren$0$S-FloorSlab-G
 62
     1
370
    -2
100
AcDbBlockReference
  2
B-DIM
 10
204807.2599277146
 20
131208.4160715854
 30
0.0
 41
30.0
 42
30.0
 43
30.0
  0
INSERT
  5
707C
330
6C6D
100
AcDbEntity
  8
Rodo-teren$0$S-FloorSlab-G
 62
     1
370
    -2
100
AcDbBlockReference
  2
B-DIM
 10
204922.2599191024
 20
131208.4160715854
 30
0.0
 41
30.0
 42
30.0
 43
30.0
 50
180.0
  0
MTEXT
  5
707D
330
6C6D
100
AcDbEntity
  8
Rodo-teren$0$S-FloorSlab-G
 62
    10
100
AcDbMText
 10
204864.7599234085
 20
131288.4160715854
 30
0.0
 40
80.0
 41
0.0
 71
     5
 72
     1
  1
\A1;115
  7
ROMANS
 73
     1
 44
1.0
1001
ACAD
1000
MTEXTBEGIN
1070
    73
1070
     1
1070
    44
1040
1.0
1070
    74
1070
     0
1000
MTEXTEND
  0
POINT
  5
707E
330
6C6D
100
AcDbEntity
  8
DEFPOINTS
 62
     0
100
AcDbPoint
 10
204807.2599277146
 20
131615.489758037
 30
0.0
  0
POINT
  5
707F
330
6C6D
100
AcDbEntity
  8
DEFPOINTS
 62
     0
100
AcDbPoint
 10
204922.2599191024
 20
130970.3577320057
 30
0.0
  0
POINT
  5
7080
330
6C6D
100
AcDbEntity
  8
DEFPOINTS
 62
     0
100
AcDbPoint
 10
204922.2599191024
 20
131208.4160715854
 30
0.0
  0
ENDBLK
  5
6C6F
330
6C6D
100
AcDbEntity
  8
0
100
AcDbBlockEnd
  0
BLOCK
  5
6C7A
330
6C79
100
AcDbEntity
  8
0
100
AcDbBlockBegin
  2
*D546
 70
     1
 10
0.0
 20
0.0
 30
0.0
  3
*D546
  1

  0
LINE
  5
6CC7
330
6C79
100
AcDbEntity
  8
Rodo-teren$0$S-FloorSlab-G
 62
     1
370
    -2
100
AcDbLine
 10
204179.2599277146
 20
131208.4160715854
 30
0.0
 11
204777.2599277146
 21
131208.4160715854
 31
0.0
  0
INSERT
  5
6CC8
330
6C79
100
AcDbEntity
  8
Rodo-teren$0$S-FloorSlab-G
 62
     1
370
    -2
100
AcDbBlockReference
  2
B-DIM
 10
204149.2599277146
 20
131208.4160715854
 30
0.0
 41
30.0
 42
30.0
 43
30.0
 50
180.0
  0
INSERT
  5
6CC9
330
6C79
100
AcDbEntity
  8
Rodo-teren$0$S-FloorSlab-G
 62
     1
370
    -2
100
AcDbBlockReference
  2
B-DIM
 10
204807.2599277146
 20
131208.4160715854
 30
0.0
 41
30.0
 42
30.0
 43
30.0
  0
MTEXT
  5
6CCA
330
6C79
100
AcDbEntity
  8
Rodo-teren$0$S-FloorSlab-G
 62
    10
100
AcDbMText
 10
204478.2599277146
 20
131288.4160715854
 30
0.0
 40
80.0
 41
0.0
 71
     5
 72
     1
  1
\A1;658
  7
ROMANS
 73
     1
 44
1.0
1001
ACAD
1000
MTEXTBEGIN
1070
    73
1070
     1
1070
    44
1040
1.0
1070
    74
1070
     0
1000
MTEXTEND
  0
POINT
  5
6CCB
330
6C79
100
AcDbEntity
  8
DEFPOINTS
 62
     0
100
AcDbPoint
 10
204149.2599277146
 20
132000.4897580371
 30
0.0
  0
POINT
  5
6CCC
330
6C79
100
AcDbEntity
  8
DEFPOINTS
 62
     0
100
AcDbPoint
 10
204807.2599277146
 20
131615.489758037
 30
0.0
  0
POINT
  5
6CCD
330
6C79
100
AcDbEntity
  8
DEFPOINTS
 62
     0
100
AcDbPoint
 10
204807.2599277146
 20
131208.4160715854
 30
0.0
  0
ENDBLK
  5
6C7B
330
6C79
100
AcDbEntity
  8
0
100
AcDbBlockEnd
  0
BLOCK
  5
6C84
330
6C83
100
AcDbEntity
  8
0
100
AcDbBlockBegin
  2
*D547
 70
     1
 10
0.0
 20
0.0
 30
0.0
  3
*D547
  1

  0
LINE
  5
6CCE
330
6C83
100
AcDbEntity
  8
Rodo-teren$0$S-FloorSlab-G
 62
     1
370
    -2
100
AcDbLine
 10
203967.2599185508
 20
131208.4160715854
 30
0.0
 11
204119.2599277146
 21
131208.4160715854
 31
0.0
  0
INSERT
  5
6CCF
330
6C83
100
AcDbEntity
  8
Rodo-teren$0$S-FloorSlab-G
 62
     1
370
    -2
100
AcDbBlockReference
  2
B-DIM
 10
203937.2599185508
 20
131208.4160715854
 30
0.0
 41
30.0
 42
30.0
 43
30.0
 50
180.0
  0
INSERT
  5
6CD0
330
6C83
100
AcDbEntity
  8
Rodo-teren$0$S-FloorSlab-G
 62
     1
370
    -2
100
AcDbBlockReference
  2
B-DIM
 10
204149.2599277146
 20
131208.4160715854
 30
0.0
 41
30.0
 42
30.0
 43
30.0
  0
MTEXT
  5
6CD1
330
6C83
100
AcDbEntity
  8
Rodo-teren$0$S-FloorSlab-G
 62
    10
100
AcDbMText
 10
204043.2599231327
 20
131288.4160715854
 30
0.0
 40
80.0
 41
0.0
 71
     5
 72
     1
  1
\A1;212
  7
ROMANS
 73
     1
 44
1.0
1001
ACAD
1000
MTEXTBEGIN
1070
    73
1070
     1
1070
    44
1040
1.0
1070
    74
1070
     0
1000
MTEXTEND
  0
POINT
  5
6CD2
330
6C83
100
AcDbEntity
  8
DEFPOINTS
 62
     0
100
AcDbPoint
 10
203937.2599185508
 20
132370.4897580371
 30
0.0
  0
POINT
  5
6CD3
330
6C83
100
AcDbEntity
  8
DEFPOINTS
 62
     0
100
AcDbPoint
 10
204149.2599277146
 20
132000.4897580371
 30
0.0
  0
POINT
  5
6CD4
330
6C83
100
AcDbEntity
  8
DEFPOINTS
 62
     0
100
AcDbPoint
 10
204149.2599277146
 20
131208.4160715854
 30
0.0
  0
ENDBLK
  5
6C85
330
6C83
100
AcDbEntity
  8
0
100
AcDbBlockEnd
  0
BLOCK
  5
6C8E
330
6C8D
100
AcDbEntity
  8
0
100
AcDbBlockBegin
  2
*D548
 70
     1
 10
0.0
 20
0.0
 30
0.0
  3
*D548
  1

  0
LINE
  5
7005
330
6C8D
100
AcDbEntity
  8
0Hatch
 62
     1
370
    -2
100
AcDbLine
 10
205666.3533954275
 20
131645.489758037
 30
0.0
 11
205666.3533954275
 21
133215.4897576784
 31
0.0
  0
INSERT
  5
7006
330
6C8D
100
AcDbEntity
  8
0Hatch
 62
     1
370
    -2
100
AcDbBlockReference
  2
B-DIM
 10
205666.3533954275
 20
131615.489758037
 30
0.0
 41
30.0
 42
30.0
 43
30.0
 50
270.0
  0
INSERT
  5
7007
330
6C8D
100
AcDbEntity
  8
0Hatch
 62
     1
370
    -2
100
AcDbBlockReference
  2
B-DIM
 10
205666.3533954275
 20
133245.4897576784
 30
0.0
 41
30.0
 42
30.0
 43
30.0
 50
90.0
  0
MTEXT
  5
7008
330
6C8D
100
AcDbEntity
  8
0Hatch
 62
    10
100
AcDbMText
 10
205586.3533954275
 20
132430.4897578577
 30
0.0
 40
80.0
 41
0.0
 71
     5
 72
     1
  1
\A1;1630
  7
ROMANS
 11
0.0000000000000001
 21
1.0
 31
0.0
 73
     1
 44
1.0
1001
ACAD
1000
MTEXTBEGIN
1070
    73
1070
     1
1070
    44
1040
1.0
1070
    74
1070
     0
1000
MTEXTEND
  0
POINT
  5
7009
330
6C8D
100
AcDbEntity
  8
DEFPOINTS
 62
     0
100
AcDbPoint
 10
204807.2599277146
 20
131615.489758037
 30
0.0
  0
POINT
  5
700A
330
6C8D
100
AcDbEntity
  8
DEFPOINTS
 62
     0
100
AcDbPoint
 10
204380.7954527325
 20
133245.4897576784
 30
0.0
  0
POINT
  5
700B
330
6C8D
100
AcDbEntity
  8
DEFPOINTS
 62
     0
100
AcDbPoint
 10
205666.3533954275
 20
133245.4897576784
 30
0.0
  0
ENDBLK
  5
6C8F
330
6C8D
100
AcDbEntity
  8
0
100
AcDbBlockEnd
  0
BLOCK
  5
6C98
330
6C97
100
AcDbEntity
  8
0
100
AcDbBlockBegin
  2
*D549
 70
     1
 10
0.0
 20
0.0
 30
0.0
  3
*D549
  1

  0
LINE
  5
6FFC
330
6C97
100
AcDbEntity
  8
0Hatch
 62
     1
370
    -2
100
AcDbLine
 10
205472.7735723385
 20
133115.489758037
 30
0.0
 11
205472.7735723385
 21
133085.489758037
 31
0.0
  0
LINE
  5
6FFD
330
6C97
100
AcDbEntity
  8
0Hatch
 62
     1
370
    -2
100
AcDbLine
 10
205472.7735723385
 20
133275.4897576784
 30
0.0
 11
205472.7735723385
 21
133305.4897576784
 31
0.0
  0
LINE
  5
6FFE
330
6C97
100
AcDbEntity
  8
0Hatch
 62
     1
370
    -2
100
AcDbLine
 10
205472.7735723385
 20
133145.4897580371
 30
0.0
 11
205472.7735723385
 21
133245.4897576784
 31
0.0
  0
INSERT
  5
6FFF
330
6C97
100
AcDbEntity
  8
0Hatch
 62
     1
370
    -2
100
AcDbBlockReference
  2
B-DIM
 10
205472.7735723385
 20
133145.4897580371
 30
0.0
 41
30.0
 42
30.0
 43
30.0
 50
90.0
  0
INSERT
  5
7000
330
6C97
100
AcDbEntity
  8
0Hatch
 62
     1
370
    -2
100
AcDbBlockReference
  2
B-DIM
 10
205472.7735723385
 20
133245.4897576784
 30
0.0
 41
30.0
 42
30.0
 43
30.0
 50
270.0
  0
MTEXT
  5
7001
330
6C97
100
AcDbEntity
  8
0Hatch
 62
    10
100
AcDbMText
 10
205392.7735723384
 20
133195.4897578578
 30
0.0
 40
80.0
 41
0.0
 71
     5
 72
     1
  1
\A1;100
  7
ROMANS
 11
0.0000000000000001
 21
1.0
 31
0.0
 73
     1
 44
1.0
1001
ACAD
1000
MTEXTBEGIN
1070
    73
1070
     1
1070
    44
1040
1.0
1070
    74
1070
     0
1000
MTEXTEND
  0
POINT
  5
7002
330
6C97
100
AcDbEntity
  8
DEFPOINTS
 62
     0
100
AcDbPoint
 10
204937.2599191023
 20
133145.4897580371
 30
0.0
  0
POINT
  5
7003
330
6C97
100
AcDbEntity
  8
DEFPOINTS
 62
     0
100
AcDbPoint
 10
204380.7954527325
 20
133245.4897576784
 30
0.0
  0
POINT
  5
7004
330
6C97
100
AcDbEntity
  8
DEFPOINTS
 62
     0
100
AcDbPoint
 10
205472.7735723385
 20
133245.4897576784
 30
0.0
  0
ENDBLK
  5
6C99
330
6C97
100
AcDbEntity
  8
0
100
AcDbBlockEnd
  0
BLOCK
  5
6CA4
330
6CA3
100
AcDbEntity
  8
0
100
AcDbBlockBegin
  2
*D550
 70
     1
 10
0.0
 20
0.0
 30
0.0
  3
*D550
  1

  0
LINE
  5
6CE5
330
6CA3
100
AcDbEntity
  8
Rodo-teren$0$S-FloorSlab-G
 62
     1
370
    -2
100
AcDbLine
 10
205472.7735723385
 20
132030.4897580371
 30
0.0
 11
205472.7735723385
 21
133115.489758037
 31
0.0
  0
INSERT
  5
6CE6
330
6CA3
100
AcDbEntity
  8
Rodo-teren$0$S-FloorSlab-G
 62
     1
370
    -2
100
AcDbBlockReference
  2
B-DIM
 10
205472.7735723385
 20
132000.4897580371
 30
0.0
 41
30.0
 42
30.0
 43
30.0
 50
270.0
  0
INSERT
  5
6CE7
330
6CA3
100
AcDbEntity
  8
Rodo-teren$0$S-FloorSlab-G
 62
     1
370
    -2
100
AcDbBlockReference
  2
B-DIM
 10
205472.7735723385
 20
133145.4897580371
 30
0.0
 41
30.0
 42
30.0
 43
30.0
 50
90.0
  0
MTEXT
  5
6CE8
330
6CA3
100
AcDbEntity
  8
Rodo-teren$0$S-FloorSlab-G
 62
    10
100
AcDbMText
 10
205392.7735723384
 20
132572.9897580371
 30
0.0
 40
80.0
 41
0.0
 71
     5
 72
     1
  1
\A1;1145
  7
ROMANS
 11
0.0000000000000001
 21
1.0
 31
0.0
 73
     1
 44
1.0
1001
ACAD
1000
MTEXTBEGIN
1070
    73
1070
     1
1070
    44
1040
1.0
1070
    74
1070
     0
1000
MTEXTEND
  0
POINT
  5
6CE9
330
6CA3
100
AcDbEntity
  8
DEFPOINTS
 62
     0
100
AcDbPoint
 10
204807.2599277146
 20
132000.4897580371
 30
0.0
  0
POINT
  5
6CEA
330
6CA3
100
AcDbEntity
  8
DEFPOINTS
 62
     0
100
AcDbPoint
 10
204937.2599191023
 20
133145.4897580371
 30
0.0
  0
POINT
  5
6CEB
330
6CA3
100
AcDbEntity
  8
DEFPOINTS
 62
     0
100
AcDbPoint
 10
205472.7735723385
 20
133145.4897580371
 30
0.0
  0
ENDBLK
  5
6CA5
330
6CA3
100
AcDbEntity
  8
0
100
AcDbBlockEnd
  0
BLOCK
  5
6CAE
330
6CAD
100
AcDbEntity
  8
0
100
AcDbBlockBegin
  2
*D551
 70
     1
 10
0.0
 20
0.0
 30
0.0
  3
*D551
  1

  0
LINE
  5
6CEC
330
6CAD
100
AcDbEntity
  8
Rodo-teren$0$S-FloorSlab-G
 62
     1
370
    -2
100
AcDbLine
 10
205472.7735723385
 20
131645.489758037
 30
0.0
 11
205472.7735723385
 21
131970.489758037
 31
0.0
  0
INSERT
  5
6CED
330
6CAD
100
AcDbEntity
  8
Rodo-teren$0$S-FloorSlab-G
 62
     1
370
    -2
100
AcDbBlockReference
  2
B-DIM
 10
205472.7735723385
 20
131615.489758037
 30
0.0
 41
30.0
 42
30.0
 43
30.0
 50
270.0
  0
INSERT
  5
6CEE
330
6CAD
100
AcDbEntity
  8
Rodo-teren$0$S-FloorSlab-G
 62
     1
370
    -2
100
AcDbBlockReference
  2
B-DIM
 10
205472.7735723385
 20
132000.4897580371
 30
0.0
 41
30.0
 42
30.0
 43
30.0
 50
90.0
  0
MTEXT
  5
6CEF
330
6CAD
100
AcDbEntity
  8
Rodo-teren$0$S-FloorSlab-G
 62
    10
100
AcDbMText
 10
205392.7735723384
 20
131807.9897580371
 30
0.0
 40
80.0
 41
0.0
 71
     5
 72
     1
  1
\A1;385
  7
ROMANS
 11
0.0000000000000001
 21
1.0
 31
0.0
 73
     1
 44
1.0
1001
ACAD
1000
MTEXTBEGIN
1070
    73
1070
     1
1070
    44
1040
1.0
1070
    74
1070
     0
1000
MTEXTEND
  0
POINT
  5
6CF0
330
6CAD
100
AcDbEntity
  8
DEFPOINTS
 62
     0
100
AcDbPoint
 10
204807.2599277146
 20
131615.489758037
 30
0.0
  0
POINT
  5
6CF1
330
6CAD
100
AcDbEntity
  8
DEFPOINTS
 62
     0
100
AcDbPoint
 10
204807.2599277146
 20
132000.4897580371
 30
0.0
  0
POINT
  5
6CF2
330
6CAD
100
AcDbEntity
  8
DEFPOINTS
 62
     0
100
AcDbPoint
 10
205472.7735723385
 20
132000.4897580371
 30
0.0
  0
ENDBLK
  5
6CAF
330
6CAD
100
AcDbEntity
  8
0
100
AcDbBlockEnd
  0
ENDSEC
  0
SECTION
  2
ENTITIES
  0
LWPOLYLINE
  5
1A2A
330
2
100
AcDbEntity
  8
RAMKI-A4
100
AcDbPolyline
 90
        4
 70
     1
 43
0.0
 10
201611.1256215136
 20
124387.6604017192
 10
201611.1256215136
 20
138407.6604017192
 10
211811.1256215136
 20
138407.6604017192
 10
211811.1256215136
 20
124387.6604017192
  0
TEXT
  5
1A2B
330
2
100
AcDbEntity
  8
NAPISY
100
AcDbText
 10
203090.3553486713
 20
137846.4502228664
 30
0.0
 40
150.0
  1
"DOM W LEWKONIACH 2"
  7
ARIAL
100
AcDbText
  0
TEXT
  5
1A2C
330
2
100
AcDbEntity
  8
NAPISY
100
AcDbText
 10
203166.6906193065
 20
137516.5817455036
 30
0.0
 40
150.0
  1
MOŻNA WKLEIĆ DO PROJEKTU ZAGOSPODAROWANIA TERENU
  7
ARIAL
100
AcDbText
  0
TEXT
  5
1A2E
330
2
100
AcDbEntity
  8
NAPISY
100
AcDbText
 10
206764.2936347979
 20
131482.4546170886
 30
0.0
 40
100.0
  1
OŚ ODBICIA LUSTRZANEGO
 50
90.0
  7
AVA
100
AcDbText
  0
LINE
  5
1A2F
330
2
100
AcDbEntity
  8
NAPISY
  6
HIDDEN
 62
     1
 48
10.0
100
AcDbLine
 10
206823.8148117913
 20
130400.8074542681
 30
0.0
 11
206823.8148117913
 21
135203.2645117455
 31
0.0
  0
TEXT
  5
1A42
330
2
100
AcDbEntity
  8
NAPISY
100
AcDbText
 10
203070.4775681885
 20
125053.2164846217
 30
0.0
 40
150.0
  1
   O B R Y S   B U D Y N K U           S K A L A   1 : 5 0 0 
  7
ARIAL
100
AcDbText
  0
DIMENSION
  5
3175
330
2
100
AcDbEntity
  8
Rodo-teren$0$S-FloorSlab-G
100
AcDbDimension
  2
*D126
 10
208725.3697044802
 20
131018.9161400417
 30
0.0
 11
209217.869704756
 21
131098.9161400417
 31
0.0
 70
    32
 71
     5
 42
985.0000005515758
  3
500
100
AcDbAlignedDimension
 13
209710.3697050318
 23
132370.4897580371
 33
0.0
 14
208725.3697044802
 24
132278.1702137414
 34
0.0
 50
180.0
100
AcDbRotatedDimension
  0
DIMENSION
  5
3176
330
2
100
AcDbEntity
  8
Rodo-teren$0$S-FloorSlab-G
100
AcDbDimension
  2
*D125
 10
208725.3697044802
 20
131208.4160715854
 30
0.0
 11
208782.8697001741
 21
131288.4160715854
 31
0.0
 70
    32
 71
     5
 42
114.9999913877691
  3
500
100
AcDbAlignedDimension
 13
208840.369695868
 23
131615.489758037
 33
0.0
 14
208725.3697044802
 24
132000.489758037
 34
0.0
 50
180.0
100
AcDbRotatedDimension
  0
DIMENSION
  5
3177
330
2
100
AcDbEntity
  8
Rodo-teren$0$S-FloorSlab-G
100
AcDbDimension
  2
*D124
 10
208840.369695868
 20
131208.4160715854
 30
0.0
 11
209169.369695868
 21
131288.4160715854
 31
0.0
 70
    32
 71
     5
 42
658.0
  3
500
100
AcDbAlignedDimension
 13
209498.369695868
 23
132000.4897580371
 33
0.0
 14
208840.369695868
 24
131615.489758037
 34
0.0
 50
180.0
100
AcDbRotatedDimension
  0
DIMENSION
  5
3178
330
2
100
AcDbEntity
  8
Rodo-teren$0$S-FloorSlab-G
100
AcDbDimension
  2
*D123
 10
209498.369695868
 20
131208.4160715854
 30
0.0
 11
209604.3697004499
 21
131288.4160715854
 31
0.0
 70
    32
 71
     5
 42
212.0000091638067
  3
500
100
AcDbAlignedDimension
 13
209710.3697050318
 23
132370.4897580371
 33
0.0
 14
209498.369695868
 24
132000.4897580371
 34
0.0
 50
180.0
100
AcDbRotatedDimension
  0
DIMENSION
  5
3179
330
2
100
AcDbEntity
  8
Rodo-teren$0$S-FloorSlab-G
100
AcDbDimension
  2
*D122
 10
207981.276228155
 20
133245.4897576784
 30
0.0
 11
207901.276228155
 21
132430.4897578577
 31
0.0
 70
    32
 71
     5
 42
1629.999999641412
  3
500
100
AcDbAlignedDimension
 13
208840.369695868
 23
131615.489758037
 33
0.0
 14
209266.83417085
 24
133245.4897576784
 34
0.0
 50
90.0
100
AcDbRotatedDimension
  0
DIMENSION
  5
317A
330
2
100
AcDbEntity
  8
Rodo-teren$0$S-FloorSlab-G
100
AcDbDimension
  2
*D121
 10
208174.8560512441
 20
133245.4897576784
 30
0.0
 11
208094.8560512441
 21
133195.4897578578
 31
0.0
 70
    32
 71
     5
 42
99.9999996413535
  3
500
100
AcDbAlignedDimension
 13
208710.3697044802
 23
133145.4897580371
 33
0.0
 14
209266.83417085
 24
133245.4897576784
 34
0.0
 50
90.0
100
AcDbRotatedDimension
  0
DIMENSION
  5
317B
330
2
100
AcDbEntity
  8
Rodo-teren$0$S-FloorSlab-G
100
AcDbDimension
  2
*D120
 10
208174.8560512441
 20
133145.4897580371
 30
0.0
 11
208094.8560512441
 21
132572.9897580371
 31
0.0
 70
    32
 71
     5
 42
1145.0
  3
500
100
AcDbAlignedDimension
 13
208840.369695868
 23
132000.4897580371
 33
0.0
 14
208710.3697044802
 24
133145.4897580371
 34
0.0
 50
90.0
100
AcDbRotatedDimension
  0
DIMENSION
  5
317C
330
2
100
AcDbEntity
  8
Rodo-teren$0$S-FloorSlab-G
100
AcDbDimension
  2
*D119
 10
208174.8560512441
 20
132000.4897580371
 30
0.0
 11
208094.8560512441
 21
131807.9897580371
 31
0.0
 70
    32
 71
     5
 42
385.0000000000582
  3
500
100
AcDbAlignedDimension
 13
208840.369695868
 23
131615.489758037
 33
0.0
 14
208840.369695868
 24
132000.4897580371
 34
0.0
 50
90.0
100
AcDbRotatedDimension
  0
HATCH
  5
317D
330
2
100
AcDbEntity
  8
0Hatch
100
AcDbHatch
 10
0.0
 20
0.0
 30
0.0
210
0.0
220
0.0
230
1.0
  2
SOLID
 70
     1
 71
     0
 91
        2
 92
        7
 72
     0
 73
     1
 93
        4
 10
208650.3697044802
 20
132763.989758037
 10
208650.3697044802
 20
132712.989758037
 10
208599.3697044802
 20
132712.9897580371
 10
208599.3697044802
 20
132763.989758037
 97
        0
 92
        7
 72
     0
 73
     1
 93
        4
 10
208650.3697044802
 20
132432.989758037
 10
208650.3697044803
 20
132381.989758037
 10
208599.3697044802
 20
132381.989758037
 10
208599.3697044802
 20
132432.9897580371
 97
        0
 75
     0
 76
     1
 47
2.505771458162289
 98
        2
 10
208618.521058273
 20
132754.2777808693
 10
208628.5492031885
 20
132413.492813214
1001
ACAD
1010
0.0
1020
0.0
1030
0.0
  0
LINE
  5
3180
330
2
100
AcDbEntity
  8
-widok
  6
Continuous
 62
   210
370
    -3
100
AcDbLine
 10
208725.3697044802
 20
133145.4897580371
 30
0.0
 11
208710.3697044802
 21
133145.4897580371
 31
0.0
  0
LINE
  5
3187
330
2
100
AcDbEntity
  8
-widok
100
AcDbLine
 10
208725.3697044802
 20
132517.9897580371
 30
0.0
 11
208785.3697044802
 21
132517.9897580371
 31
0.0
  0
LINE
  5
3188
330
2
100
AcDbEntity
  8
-widok
100
AcDbLine
 10
208725.3697044802
 20
132627.989758037
 30
0.0
 11
208785.3697044802
 21
132627.989758037
 31
0.0
  0
LWPOLYLINE
  5
3189
330
2
100
AcDbEntity
  8
0Hatch
100
AcDbPolyline
 90
       15
 70
     1
 43
0.0
 10
209481.3697050318
 20
133088.1724775661
 10
209481.3697050318
 20
132715.5702383607
 10
209650.3697050318
 20
132715.34339988
 10
209650.3697050318
 20
132430.4897580371
 10
209610.3697050318
 20
132430.4897580371
 10
209610.3697050318
 20
132060.4897580371
 10
209438.369695868
 20
132060.4897580371
 10
209438.369695868
 20
131675.489758037
 10
208900.369695868
 20
131675.489758037
 10
208900.369695868
 20
132060.4897580371
 10
208785.3697044802
 20
132060.4897580371
 10
208785.3697044802
 20
133085.489758037
 10
209191.686984951
 20
133085.489758037
 10
209291.6869845924
 20
133185.4897576784
 10
209384.0524249195
 20
133185.4897576784
  0
LINE
  5
318A
330
2
100
AcDbEntity
  8
-widok
  6
Continuous
 62
   210
370
    -3
100
AcDbLine
 10
208710.3697044802
 20
133495.489758037
 30
0.0
 11
209650.296111903
 21
133495.489758037
 31
0.0
  0
LINE
  5
318B
330
2
100
AcDbEntity
  8
-widok
  6
Continuous
 62
   210
370
    -3
100
AcDbLine
 10
208740.3697044802
 20
133465.489758037
 30
0.0
 11
209637.8697050318
 21
133465.489758037
 31
0.0
  0
LINE
  5
318C
330
2
100
AcDbEntity
  8
-widok
  6
Continuous
 62
   210
370
    -3
100
AcDbLine
 10
208770.3697044802
 20
133435.489758037
 30
0.0
 11
209625.4432981606
 21
133435.489758037
 31
0.0
  0
LINE
  5
318D
102
{ACAD_REACTORS
330
704B
102
}
330
2
100
AcDbEntity
  8
0Hatch
100
AcDbLine
 10
209631.3697050318
 20
133106.489758037
 30
0.0
 11
209631.3697050318
 21
133161.489758037
 31
0.0
  0
LINE
  5
318E
330
2
100
AcDbEntity
  8
-widok
  6
Continuous
 62
   210
370
    -3
100
AcDbLine
 10
208569.3697044803
 20
132793.989758037
 30
0.0
 11
208725.3697044802
 21
132793.989758037
 31
0.0
  0
LINE
  5
318F
330
2
100
AcDbEntity
  8
-widok
  6
Continuous
 62
   210
370
    -3
100
AcDbLine
 10
208539.3697044803
 20
132823.9897580371
 30
0.0
 11
208725.3697044802
 21
132823.9897580371
 31
0.0
  0
LINE
  5
3190
330
2
100
AcDbEntity
  8
-widok
  6
Continuous
 62
   210
370
    -3
100
AcDbLine
 10
208599.3697044802
 20
132763.989758037
 30
0.0
 11
208725.3697044802
 21
132763.989758037
 31
0.0
  0
LINE
  5
3191
330
2
100
AcDbEntity
  8
0Hatch
100
AcDbLine
 10
208650.3697044802
 20
132712.989758037
 30
0.0
 11
208650.3697044802
 21
132763.989758037
 31
0.0
  0
LINE
  5
3192
330
2
100
AcDbEntity
  8
0Hatch
100
AcDbLine
 10
208650.3697044802
 20
132712.989758037
 30
0.0
 11
208599.3697044802
 21
132712.989758037
 31
0.0
  0
LINE
  5
3193
102
{ACAD_REACTORS
330
704B
102
}
330
2
100
AcDbEntity
  8
0Hatch
100
AcDbLine
 10
209686.3697050318
 20
133106.489758037
 30
0.0
 11
209686.3697050318
 21
133161.489758037
 31
0.0
  0
LINE
  5
3194
102
{ACAD_REACTORS
330
704B
102
}
330
2
100
AcDbEntity
  8
0Hatch
100
AcDbLine
 10
209631.3697050318
 20
133106.489758037
 30
0.0
 11
209686.3697050318
 21
133106.489758037
 31
0.0
  0
LINE
  5
3195
330
2
100
AcDbEntity
  8
-widok
  6
Continuous
 62
   210
370
    -3
100
AcDbLine
 10
209710.3697050318
 20
132678.989758037
 30
0.0
 11
209840.3697050318
 21
132678.989758037
 31
0.0
  0
LINE
  5
3196
330
2
100
AcDbEntity
  8
-widok
  6
Continuous
 62
   210
370
    -3
100
AcDbLine
 10
209710.3697050318
 20
132708.9897580371
 30
0.0
 11
209810.3697050318
 21
132708.9897580371
 31
0.0
  0
LINE
  5
3197
330
2
100
AcDbEntity
  8
-widok
  6
Continuous
 62
   210
370
    -3
100
AcDbLine
 10
209840.3697050318
 20
132678.989758037
 30
0.0
 11
209840.3697050318
 21
133262.989758037
 31
0.0
  0
LINE
  5
3198
330
2
100
AcDbEntity
  8
-widok
  6
Continuous
 62
   210
370
    -3
100
AcDbLine
 10
209810.3697050318
 20
132708.9897580371
 30
0.0
 11
209810.3697050318
 21
133250.5633511658
 31
0.0
  0
LINE
  5
3199
102
{ACAD_REACTORS
330
704B
102
}
330
2
100
AcDbEntity
  8
0Hatch
100
AcDbLine
 10
209686.3697050318
 20
133161.489758037
 30
0.0
 11
209631.3697050318
 21
133161.489758037
 31
0.0
  0
LINE
  5
319A
330
2
100
AcDbEntity
  8
-widok
  6
Continuous
 62
   210
370
    -3
100
AcDbLine
 10
208569.3697044803
 20
132351.9897580371
 30
0.0
 11
208725.3697044802
 21
132351.9897580371
 31
0.0
  0
LINE
  5
319B
330
2
100
AcDbEntity
  8
-widok
  6
Continuous
 62
   210
370
    -3
100
AcDbLine
 10
208539.3697044803
 20
132321.9897580371
 30
0.0
 11
208725.3697044802
 21
132321.9897580371
 31
0.0
  0
LINE
  5
319C
330
2
100
AcDbEntity
  8
-widok
  6
Continuous
 62
   210
370
    -3
100
AcDbLine
 10
208599.3697044802
 20
132381.989758037
 30
0.0
 11
208725.3697044802
 21
132381.989758037
 31
0.0
  0
LINE
  5
319D
330
2
100
AcDbEntity
  8
0Hatch
100
AcDbLine
 10
208650.3697044802
 20
132432.9897580371
 30
0.0
 11
208650.3697044802
 21
132381.989758037
 31
0.0
  0
LINE
  5
319E
330
2
100
AcDbEntity
  8
0Hatch
100
AcDbLine
 10
208650.3697044802
 20
132432.9897580371
 30
0.0
 11
208599.3697044802
 21
132432.9897580371
 31
0.0
  0
LINE
  5
319F
330
2
100
AcDbEntity
  8
-widok
  6
Continuous
 62
   210
370
    -3
100
AcDbLine
 10
209710.3697050318
 20
132648.989758037
 30
0.0
 11
209870.3697050318
 21
132648.989758037
 31
0.0
  0
LINE
  5
31A0
330
2
100
AcDbEntity
  8
-widok
  6
Continuous
 62
   210
370
    -3
100
AcDbLine
 10
209870.3697050318
 20
132648.989758037
 30
0.0
 11
209870.3697050318
 21
133275.4161649082
 31
0.0
  0
LINE
  5
31A1
330
2
100
AcDbEntity
  8
-widok
  6
Continuous
 62
   210
370
    -3
100
AcDbLine
 10
208539.3697044803
 20
132321.9897580371
 30
0.0
 11
208539.3697044803
 21
132823.9897580371
 31
0.0
  0
LINE
  5
31A2
330
2
100
AcDbEntity
  8
-widok
  6
Continuous
 62
   210
370
    -3
100
AcDbLine
 10
208569.3697044803
 20
132351.9897580371
 30
0.0
 11
208569.3697044803
 21
132793.989758037
 31
0.0
  0
LINE
  5
31A3
330
2
100
AcDbEntity
  8
-widok
  6
Continuous
 62
   210
370
    -3
100
AcDbLine
 10
208599.3697044802
 20
132381.989758037
 30
0.0
 11
208599.3697044802
 21
132763.989758037
 31
0.0
  0
LINE
  5
31A4
330
2
100
AcDbEntity
  8
-widok
  6
Continuous
 62
   210
370
    -3
100
AcDbLine
 10
209650.296111903
 20
133495.489758037
 30
0.0
 11
209870.3697050318
 21
133275.4161649082
 31
0.0
  0
LINE
  5
31A5
330
2
100
AcDbEntity
  8
-widok
  6
Continuous
 62
   210
370
    -3
100
AcDbLine
 10
209637.8697050318
 20
133465.489758037
 30
0.0
 11
209840.3697050318
 21
133262.989758037
 31
0.0
  0
LINE
  5
31A6
330
2
100
AcDbEntity
  8
-widok
  6
Continuous
 62
   210
370
    -3
100
AcDbLine
 10
209625.4432981606
 20
133435.489758037
 30
0.0
 11
209810.3697050318
 21
133250.5633511658
 31
0.0
  0
LINE
  5
31A7
330
2
100
AcDbEntity
  8
-widok
  6
Continuous
 62
   210
370
    -3
100
AcDbLine
 10
208770.3697044802
 20
133145.4897580371
 30
0.0
 11
208770.3697044802
 21
133435.489758037
 31
0.0
  0
LINE
  5
31A8
330
2
100
AcDbEntity
  8
-widok
  6
Continuous
 62
   210
370
    -3
100
AcDbLine
 10
208740.3697044802
 20
133145.4897580371
 30
0.0
 11
208740.3697044802
 21
133465.489758037
 31
0.0
  0
LINE
  5
31A9
330
2
100
AcDbEntity
  8
-widok
  6
Continuous
 62
   210
370
    -3
100
AcDbLine
 10
208710.3697044802
 20
133145.4897580371
 30
0.0
 11
208710.3697044802
 21
133495.489758037
 31
0.0
  0
LWPOLYLINE
  5
31AA
330
2
100
AcDbEntity
  8
0Hatch
100
AcDbPolyline
 90
       18
 70
     1
 43
0.0
 10
209541.3697050318
 20
133145.4897580371
 10
209541.3697050318
 20
132775.489758037
 10
209710.3697050318
 20
132775.2629195564
 10
209710.3697050318
 20
132370.4897580371
 10
209670.3697050318
 20
132370.4897580371
 10
209670.3697050318
 20
132000.4897580371
 10
209498.369695868
 20
132000.4897580371
 10
209498.369695868
 20
131659.489758037
 10
209555.369695868
 20
131659.489758037
 10
209555.369695868
 20
131615.489758037
 10
208840.369695868
 20
131615.489758037
 10
208840.369695868
 20
132000.4897580371
 10
208725.3697044802
 20
132000.4897580371
 10
208725.3697044802
 20
133145.4897580371
 10
209166.8341712087
 20
133145.4897580371
 10
209266.83417085
 20
133245.4897576784
 10
209408.9052386619
 20
133245.4897576784
 10
209508.9052383032
 20
133145.4897580371
  0
LWPOLYLINE
  5
4633
330
2
100
AcDbEntity
  8
A-SpaceBoundary-G
 62
     2
100
AcDbPolyline
 90
        5
 70
     1
 43
0.0
 10
214115.8185838565
 20
131948.6571305015
 10
214162.8185838562
 20
131948.6571305015
 10
214162.8185838563
 20
131763.6571305015
 10
214140.4666082459
 20
131763.6571305015
 10
214115.8185838563
 20
131863.6571305015
  0
DIMENSION
  5
4B0D
330
2
100
AcDbEntity
  8
-wymiary
100
AcDbDimension
  2
*D519
 10
213214.880683385
 20
304.3879103130894
 30
0.0
 11
213307.8806833568
 21
320.3879103130894
 31
0.0
 70
    32
 71
     5
 42
185.9999999435677
  3
100-archon
100
AcDbAlignedDimension
 13
213400.8806833286
 23
270.9135637475701
 33
0.0
 14
213214.880683385
 24
304.3879103130603
 34
0.0
100
AcDbRotatedDimension
1001
ACAD
1000
DSTYLE
1002
{
1070
    43
1040
168.9999999999927
1002
}
  0
DIMENSION
  5
4B33
330
2
100
AcDbEntity
  8
-wymiary
100
AcDbDimension
  2
*D530
 10
212662.8806828116
 20
-377.2660211207985
 30
0.0
 11
212813.8806830873
 21
-361.2660211207985
 31
0.0
 70
    32
 71
     5
 42
302.0000005515758
  3
100-archon
100
AcDbAlignedDimension
 13
212964.8806833631
 23
-377.2660211207985
 33
0.0
 14
212662.8806828116
 24
-377.2660211207985
 34
0.0
100
AcDbRotatedDimension
1001
ACAD
1000
DSTYLE
1002
{
1070
    43
1040
168.9999999999927
1002
}
  0
LWPOLYLINE
  5
6C0D
330
2
100
AcDbEntity
  8
0Hatch
100
AcDbPolyline
 90
       19
 70
     0
 43
0.0
 10
208725.3697044802
 20
132000.489758037
 10
208840.369695868
 20
132000.489758037
 10
208840.369695868
 20
131615.489758037
 10
209555.369695868
 20
131615.489758037
 10
209555.369695868
 20
131659.489758037
 10
209498.369695868
 20
131659.489758037
 10
209498.369695868
 20
132000.489758037
 10
209670.4551020021
 20
132000.489758037
 10
209670.4551020021
 20
132370.489758037
 10
209710.3697050318
 20
132370.489758037
 10
209710.3697050318
 20
132775.489758037
 10
209541.3697050318
 20
132775.489758037
 10
209541.3697050318
 20
133145.489758037
 10
209508.9052383032
 20
133145.489758037
 10
209408.9052386619
 20
133245.4897576783
 10
209266.83417085
 20
133245.4897576783
 10
209166.8341712087
 20
133145.489758037
 10
208725.3697044802
 20
133145.4897580369
 10
208725.3697044802
 20
132000.489758037
  0
LWPOLYLINE
  5
6C0E
330
2
100
AcDbEntity
  8
-widok
100
AcDbPolyline
 90
        2
 70
     0
 43
0.0
 10
208840.369695868
 20
131931.489758037
 10
208900.369695868
 20
131931.489758037
  0
LWPOLYLINE
  5
6C0F
330
2
100
AcDbEntity
  8
-widok
100
AcDbPolyline
 90
        2
 70
     0
 43
0.0
 10
208840.369695868
 20
131691.4897580369
 10
208900.369695868
 20
131691.4897580369
  0
LWPOLYLINE
  5
6C15
330
2
100
AcDbEntity
  8
0Hatch
100
AcDbPolyline
 90
       16
 70
     0
 43
60.0
 10
208755.3697044802
 20
132627.989758037
 10
208755.3697044802
 20
133115.4897580369
 10
209179.2605780799
 20
133115.489758037
 10
209279.2605777212
 20
133215.4897576783
 10
209396.4788317907
 20
133215.4897576783
 10
209496.478831432
 20
133115.489758037
 10
209511.3697050318
 20
133115.489758037
 10
209511.3697050318
 20
132745.489758037
 10
209680.3697050318
 20
132745.489758037
 10
209680.3697050318
 20
132400.489758037
 10
209640.4551020021
 20
132400.489758037
 10
209640.4551020021
 20
132030.489758037
 10
209468.369695868
 20
132030.489758037
 10
209468.369695868
 20
131645.489758037
 10
208870.369695868
 20
131645.489758037
 10
208870.369695868
 20
131691.4897580369
  0
LWPOLYLINE
  5
6C16
330
2
100
AcDbEntity
  8
0Hatch
100
AcDbPolyline
 90
        4
 70
     0
 43
60.0
 10
208870.369695868
 20
131931.489758037
 10
208870.369695868
 20
132030.489758037
 10
208755.3697044802
 20
132030.489758037
 10
208755.3697044802
 20
132517.9897580371
  0
LWPOLYLINE
  5
6C17
330
2
100
AcDbEntity
  8
0Hatch
100
AcDbPolyline
 90
        2
 70
     0
 43
60.0
 10
209468.369695868
 20
131645.489758037
 10
209555.369695868
 20
131645.489758037
  0
DIMENSION
  5
6C2F
330
2
100
AcDbEntity
  8
Rodo-teren$0$S-FloorSlab-G
100
AcDbDimension
  2
*D544
 10
204922.2599191024
 20
131018.9161400417
 30
0.0
 11
204429.7599188265
 21
131098.9161400417
 31
0.0
 70
    32
 71
     5
 42
985.0000005515758
  3
500
100
AcDbAlignedDimension
 13
203937.2599185508
 23
132370.4897580371
 33
0.0
 14
204922.2599191024
 24
132278.1702137414
 34
0.0
 50
0.000000000000007
100
AcDbRotatedDimension
  0
DIMENSION
  5
6C30
330
2
100
AcDbEntity
  8
Rodo-teren$0$S-FloorSlab-G
100
AcDbDimension
  2
*D545
 10
204922.2599191024
 20
131208.4160715854
 30
0.0
 11
204864.7599234085
 21
131288.4160715854
 31
0.0
 70
    32
 71
     5
 42
114.9999913877691
  3
500
100
AcDbAlignedDimension
 13
204807.2599277146
 23
131615.489758037
 33
0.0
 14
204922.2599191024
 24
130970.3577320057
 34
0.0
 50
0.000000000000007
100
AcDbRotatedDimension
  0
DIMENSION
  5
6C31
330
2
100
AcDbEntity
  8
Rodo-teren$0$S-FloorSlab-G
100
AcDbDimension
  2
*D546
 10
204807.2599277146
 20
131208.4160715854
 30
0.0
 11
204478.2599277146
 21
131288.4160715854
 31
0.0
 70
    32
 71
     5
 42
658.0
  3
500
100
AcDbAlignedDimension
 13
204149.2599277146
 23
132000.4897580371
 33
0.0
 14
204807.2599277146
 24
131615.489758037
 34
0.0
 50
0.000000000000007
100
AcDbRotatedDimension
  0
DIMENSION
  5
6C32
330
2
100
AcDbEntity
  8
Rodo-teren$0$S-FloorSlab-G
100
AcDbDimension
  2
*D547
 10
204149.2599277146
 20
131208.4160715854
 30
0.0
 11
204043.2599231327
 21
131288.4160715854
 31
0.0
 70
    32
 71
     5
 42
212.0000091638067
  3
500
100
AcDbAlignedDimension
 13
203937.2599185508
 23
132370.4897580371
 33
0.0
 14
204149.2599277146
 24
132000.4897580371
 34
0.0
 50
0.000000000000007
100
AcDbRotatedDimension
  0
DIMENSION
  5
6C33
330
2
100
AcDbEntity
  8
0Hatch
100
AcDbDimension
  2
*D548
 10
205666.3533954275
 20
133245.4897576784
 30
0.0
 11
205586.3533954275
 21
132430.4897578577
 31
0.0
 70
    32
 71
     5
 42
1629.999999641412
  3
500
100
AcDbAlignedDimension
 13
204807.2599277146
 23
131615.489758037
 33
0.0
 14
204380.7954527325
 24
133245.4897576784
 34
0.0
 50
90.0
100
AcDbRotatedDimension
  0
DIMENSION
  5
6C34
330
2
100
AcDbEntity
  8
0Hatch
100
AcDbDimension
  2
*D549
 10
205472.7735723385
 20
133245.4897576784
 30
0.0
 11
205392.7735723384
 21
133195.4897578578
 31
0.0
 70
    32
 71
     5
 42
99.9999996413535
  3
500
100
AcDbAlignedDimension
 13
204937.2599191023
 23
133145.4897580371
 33
0.0
 14
204380.7954527325
 24
133245.4897576784
 34
0.0
 50
90.0
100
AcDbRotatedDimension
  0
DIMENSION
  5
6C35
330
2
100
AcDbEntity
  8
Rodo-teren$0$S-FloorSlab-G
100
AcDbDimension
  2
*D550
 10
205472.7735723385
 20
133145.4897580371
 30
0.0
 11
205392.7735723384
 21
132572.9897580371
 31
0.0
 70
    32
 71
     5
 42
1145.0
  3
500
100
AcDbAlignedDimension
 13
204807.2599277146
 23
132000.4897580371
 33
0.0
 14
204937.2599191023
 24
133145.4897580371
 34
0.0
 50
90.0
100
AcDbRotatedDimension
  0
DIMENSION
  5
6C36
330
2
100
AcDbEntity
  8
Rodo-teren$0$S-FloorSlab-G
100
AcDbDimension
  2
*D551
 10
205472.7735723385
 20
132000.4897580371
 30
0.0
 11
205392.7735723384
 21
131807.9897580371
 31
0.0
 70
    32
 71
     5
 42
385.0000000000582
  3
500
100
AcDbAlignedDimension
 13
204807.2599277146
 23
131615.489758037
 33
0.0
 14
204807.2599277146
 24
132000.4897580371
 34
0.0
 50
90.0
100
AcDbRotatedDimension
  0
HATCH
  5
6C37
330
2
100
AcDbEntity
  8
0Hatch
100
AcDbHatch
 10
0.0
 20
0.0
 30
0.0
210
0.0
220
0.0
230
1.0
  2
SOLID
 70
     1
 71
     0
 91
        2
 92
        7
 72
     0
 73
     1
 93
        4
 10
204997.2599191023
 20
132763.989758037
 10
204997.2599191023
 20
132712.989758037
 10
205048.2599191024
 20
132712.9897580371
 10
205048.2599191023
 20
132763.989758037
 97
        0
 92
        7
 72
     0
 73
     1
 93
        4
 10
204997.2599191023
 20
132432.989758037
 10
204997.2599191023
 20
132381.989758037
 10
205048.2599191023
 20
132381.989758037
 10
205048.2599191024
 20
132432.9897580371
 97
        0
 75
     0
 76
     1
 47
2.505771458162289
 98
        2
 10
205029.1085653095
 20
132754.2777808693
 10
205019.0804203941
 20
132413.492813214
1001
ACAD
1010
0.0
1020
0.0
1030
0.0
  0
LINE
  5
6C38
330
2
100
AcDbEntity
  8
-widok
  6
Continuous
 62
   210
370
    -3
100
AcDbLine
 10
204922.2599191024
 20
133145.4897580371
 30
0.0
 11
204937.2599191023
 21
133145.4897580371
 31
0.0
  0
LINE
  5
6C39
330
2
100
AcDbEntity
  8
-widok
100
AcDbLine
 10
204922.2599191024
 20
132517.9897580371
 30
0.0
 11
204862.2599191023
 21
132517.9897580371
 31
0.0
  0
LINE
  5
6C3A
330
2
100
AcDbEntity
  8
-widok
100
AcDbLine
 10
204922.2599191023
 20
132627.989758037
 30
0.0
 11
204862.2599191023
 21
132627.989758037
 31
0.0
  0
LWPOLYLINE
  5
6C3B
330
2
100
AcDbEntity
  8
0Hatch
100
AcDbPolyline
 90
       15
 70
     1
 43
0.0
 10
204166.2599185508
 20
133088.1724775661
 10
204166.2599185508
 20
132715.5702383607
 10
203997.2599185508
 20
132715.34339988
 10
203997.2599185508
 20
132430.4897580371
 10
204037.2599185507
 20
132430.4897580371
 10
204037.2599185507
 20
132060.4897580371
 10
204209.2599277146
 20
132060.4897580371
 10
204209.2599277146
 20
131675.489758037
 10
204747.2599277146
 20
131675.489758037
 10
204747.2599277146
 20
132060.4897580371
 10
204862.2599191023
 20
132060.4897580371
 10
204862.2599191023
 20
133085.489758037
 10
204455.9426386315
 20
133085.489758037
 10
204355.9426389901
 20
133185.4897576784
 10
204263.577198663
 20
133185.4897576784
  0
LINE
  5
6C3C
330
2
100
AcDbEntity
  8
-widok
  6
Continuous
 62
   210
370
    -3
100
AcDbLine
 10
204937.2599191024
 20
133495.489758037
 30
0.0
 11
203997.3335116796
 21
133495.489758037
 31
0.0
  0
LINE
  5
6C3D
330
2
100
AcDbEntity
  8
-widok
  6
Continuous
 62
   210
370
    -3
100
AcDbLine
 10
204907.2599191024
 20
133465.489758037
 30
0.0
 11
204009.7599185507
 21
133465.489758037
 31
0.0
  0
LINE
  5
6C3E
330
2
100
AcDbEntity
  8
-widok
  6
Continuous
 62
   210
370
    -3
100
AcDbLine
 10
204877.2599191024
 20
133435.489758037
 30
0.0
 11
204022.1863254219
 21
133435.489758037
 31
0.0
  0
LINE
  5
6C3F
102
{ACAD_REACTORS
330
704B
102
}
330
2
100
AcDbEntity
  8
0Hatch
100
AcDbLine
 10
204016.2599185508
 20
133106.489758037
 30
0.0
 11
204016.2599185508
 21
133161.489758037
 31
0.0
  0
LINE
  5
6C40
330
2
100
AcDbEntity
  8
-widok
  6
Continuous
 62
   210
370
    -3
100
AcDbLine
 10
205078.2599191023
 20
132793.989758037
 30
0.0
 11
204922.2599191023
 21
132793.989758037
 31
0.0
  0
LINE
  5
6C41
330
2
100
AcDbEntity
  8
-widok
  6
Continuous
 62
   210
370
    -3
100
AcDbLine
 10
205108.2599191023
 20
132823.9897580371
 30
0.0
 11
204922.2599191023
 21
132823.9897580371
 31
0.0
  0
LINE
  5
6C42
330
2
100
AcDbEntity
  8
-widok
  6
Continuous
 62
   210
370
    -3
100
AcDbLine
 10
205048.2599191023
 20
132763.989758037
 30
0.0
 11
204922.2599191023
 21
132763.989758037
 31
0.0
  0
LINE
  5
6C43
330
2
100
AcDbEntity
  8
0Hatch
100
AcDbLine
 10
204997.2599191023
 20
132712.989758037
 30
0.0
 11
204997.2599191023
 21
132763.989758037
 31
0.0
  0
LINE
  5
6C44
330
2
100
AcDbEntity
  8
0Hatch
100
AcDbLine
 10
204997.2599191023
 20
132712.989758037
 30
0.0
 11
205048.2599191023
 21
132712.989758037
 31
0.0
  0
LINE
  5
6C45
102
{ACAD_REACTORS
330
704B
102
}
330
2
100
AcDbEntity
  8
0Hatch
100
AcDbLine
 10
203961.2599185508
 20
133106.489758037
 30
0.0
 11
203961.2599185508
 21
133161.489758037
 31
0.0
  0
LINE
  5
6C46
102
{ACAD_REACTORS
330
704B
102
}
330
2
100
AcDbEntity
  8
0Hatch
100
AcDbLine
 10
204016.2599185508
 20
133106.489758037
 30
0.0
 11
203961.2599185508
 21
133106.489758037
 31
0.0
  0
LINE
  5
6C47
330
2
100
AcDbEntity
  8
-widok
  6
Continuous
 62
   210
370
    -3
100
AcDbLine
 10
203937.2599185508
 20
132678.989758037
 30
0.0
 11
203807.2599185507
 21
132678.989758037
 31
0.0
  0
LINE
  5
6C48
330
2
100
AcDbEntity
  8
-widok
  6
Continuous
 62
   210
370
    -3
100
AcDbLine
 10
203937.2599185508
 20
132708.9897580371
 30
0.0
 11
203837.2599185508
 21
132708.9897580371
 31
0.0
  0
LINE
  5
6C49
330
2
100
AcDbEntity
  8
-widok
  6
Continuous
 62
   210
370
    -3
100
AcDbLine
 10
203807.2599185507
 20
132678.989758037
 30
0.0
 11
203807.2599185507
 21
133262.989758037
 31
0.0
  0
LINE
  5
6C4A
330
2
100
AcDbEntity
  8
-widok
  6
Continuous
 62
   210
370
    -3
100
AcDbLine
 10
203837.2599185508
 20
132708.9897580371
 30
0.0
 11
203837.2599185507
 21
133250.5633511658
 31
0.0
  0
LINE
  5
6C4B
102
{ACAD_REACTORS
330
704B
102
}
330
2
100
AcDbEntity
  8
0Hatch
100
AcDbLine
 10
203961.2599185508
 20
133161.489758037
 30
0.0
 11
204016.2599185508
 21
133161.489758037
 31
0.0
  0
LINE
  5
6C4C
330
2
100
AcDbEntity
  8
-widok
  6
Continuous
 62
   210
370
    -3
100
AcDbLine
 10
205078.2599191023
 20
132351.9897580371
 30
0.0
 11
204922.2599191024
 21
132351.9897580371
 31
0.0
  0
LINE
  5
6C4D
330
2
100
AcDbEntity
  8
-widok
  6
Continuous
 62
   210
370
    -3
100
AcDbLine
 10
205108.2599191023
 20
132321.9897580371
 30
0.0
 11
204922.2599191024
 21
132321.9897580371
 31
0.0
  0
LINE
  5
6C4E
330
2
100
AcDbEntity
  8
-widok
  6
Continuous
 62
   210
370
    -3
100
AcDbLine
 10
205048.2599191023
 20
132381.989758037
 30
0.0
 11
204922.2599191024
 21
132381.989758037
 31
0.0
  0
LINE
  5
6C4F
330
2
100
AcDbEntity
  8
0Hatch
100
AcDbLine
 10
204997.2599191023
 20
132432.9897580371
 30
0.0
 11
204997.2599191023
 21
132381.989758037
 31
0.0
  0
LINE
  5
6C50
330
2
100
AcDbEntity
  8
0Hatch
100
AcDbLine
 10
204997.2599191023
 20
132432.9897580371
 30
0.0
 11
205048.2599191023
 21
132432.9897580371
 31
0.0
  0
LINE
  5
6C51
330
2
100
AcDbEntity
  8
-widok
  6
Continuous
 62
   210
370
    -3
100
AcDbLine
 10
203937.2599185508
 20
132648.989758037
 30
0.0
 11
203777.2599185508
 21
132648.989758037
 31
0.0
  0
LINE
  5
6C52
330
2
100
AcDbEntity
  8
-widok
  6
Continuous
 62
   210
370
    -3
100
AcDbLine
 10
203777.2599185508
 20
132648.989758037
 30
0.0
 11
203777.2599185507
 21
133275.4161649082
 31
0.0
  0
LINE
  5
6C53
330
2
100
AcDbEntity
  8
-widok
  6
Continuous
 62
   210
370
    -3
100
AcDbLine
 10
205108.2599191023
 20
132321.9897580371
 30
0.0
 11
205108.2599191023
 21
132823.9897580371
 31
0.0
  0
LINE
  5
6C54
330
2
100
AcDbEntity
  8
-widok
  6
Continuous
 62
   210
370
    -3
100
AcDbLine
 10
205078.2599191023
 20
132351.9897580371
 30
0.0
 11
205078.2599191023
 21
132793.989758037
 31
0.0
  0
LINE
  5
6C55
330
2
100
AcDbEntity
  8
-widok
  6
Continuous
 62
   210
370
    -3
100
AcDbLine
 10
205048.2599191023
 20
132381.989758037
 30
0.0
 11
205048.2599191023
 21
132763.989758037
 31
0.0
  0
LINE
  5
6C56
330
2
100
AcDbEntity
  8
-widok
  6
Continuous
 62
   210
370
    -3
100
AcDbLine
 10
203997.3335116796
 20
133495.489758037
 30
0.0
 11
203777.2599185507
 21
133275.4161649082
 31
0.0
  0
LINE
  5
6C57
330
2
100
AcDbEntity
  8
-widok
  6
Continuous
 62
   210
370
    -3
100
AcDbLine
 10
204009.7599185507
 20
133465.489758037
 30
0.0
 11
203807.2599185507
 21
133262.989758037
 31
0.0
  0
LINE
  5
6C58
330
2
100
AcDbEntity
  8
-widok
  6
Continuous
 62
   210
370
    -3
100
AcDbLine
 10
204022.1863254219
 20
133435.489758037
 30
0.0
 11
203837.2599185507
 21
133250.5633511658
 31
0.0
  0
LINE
  5
6C59
330
2
100
AcDbEntity
  8
-widok
  6
Continuous
 62
   210
370
    -3
100
AcDbLine
 10
204877.2599191024
 20
133145.4897580371
 30
0.0
 11
204877.2599191024
 21
133435.489758037
 31
0.0
  0
LINE
  5
6C5A
330
2
100
AcDbEntity
  8
-widok
  6
Continuous
 62
   210
370
    -3
100
AcDbLine
 10
204907.2599191024
 20
133145.4897580371
 30
0.0
 11
204907.2599191024
 21
133465.489758037
 31
0.0
  0
LINE
  5
6C5B
330
2
100
AcDbEntity
  8
-widok
  6
Continuous
 62
   210
370
    -3
100
AcDbLine
 10
204937.2599191023
 20
133145.4897580371
 30
0.0
 11
204937.2599191024
 21
133495.489758037
 31
0.0
  0
LWPOLYLINE
  5
6C5C
330
2
100
AcDbEntity
  8
0Hatch
100
AcDbPolyline
 90
       18
 70
     1
 43
0.0
 10
204106.2599185508
 20
133145.4897580371
 10
204106.2599185508
 20
132775.489758037
 10
203937.2599185508
 20
132775.2629195564
 10
203937.2599185508
 20
132370.4897580371
 10
203977.2599185508
 20
132370.4897580371
 10
203977.2599185508
 20
132000.4897580371
 10
204149.2599277146
 20
132000.4897580371
 10
204149.2599277146
 20
131659.489758037
 10
204092.2599277146
 20
131659.489758037
 10
204092.2599277146
 20
131615.489758037
 10
204807.2599277146
 20
131615.489758037
 10
204807.2599277146
 20
132000.4897580371
 10
204922.2599191024
 20
132000.4897580371
 10
204922.2599191024
 20
133145.4897580371
 10
204480.7954523739
 20
133145.4897580371
 10
204380.7954527325
 20
133245.4897576784
 10
204238.7243849206
 20
133245.4897576784
 10
204138.7243852793
 20
133145.4897580371
  0
LWPOLYLINE
  5
6C5D
330
2
100
AcDbEntity
  8
0Hatch
100
AcDbPolyline
 90
       19
 70
     0
 43
0.0
 10
204922.2599191024
 20
132000.489758037
 10
204807.2599277146
 20
132000.489758037
 10
204807.2599277146
 20
131615.489758037
 10
204092.2599277146
 20
131615.489758037
 10
204092.2599277146
 20
131659.489758037
 10
204149.2599277146
 20
131659.489758037
 10
204149.2599277146
 20
132000.489758037
 10
203977.1745215805
 20
132000.489758037
 10
203977.1745215805
 20
132370.489758037
 10
203937.2599185508
 20
132370.489758037
 10
203937.2599185508
 20
132775.489758037
 10
204106.2599185508
 20
132775.489758037
 10
204106.2599185508
 20
133145.489758037
 10
204138.7243852793
 20
133145.489758037
 10
204238.7243849206
 20
133245.4897576783
 10
204380.7954527325
 20
133245.4897576783
 10
204480.7954523739
 20
133145.489758037
 10
204922.2599191024
 20
133145.4897580369
 10
204922.2599191024
 20
132000.489758037
  0
LWPOLYLINE
  5
6C5E
330
2
100
AcDbEntity
  8
-widok
100
AcDbPolyline
 90
        2
 70
     0
 43
0.0
 10
204807.2599277146
 20
131931.489758037
 10
204747.2599277146
 20
131931.489758037
  0
LWPOLYLINE
  5
6C5F
330
2
100
AcDbEntity
  8
-widok
100
AcDbPolyline
 90
        2
 70
     0
 43
0.0
 10
204807.2599277146
 20
131691.4897580369
 10
204747.2599277146
 20
131691.4897580369
  0
LWPOLYLINE
  5
6C60
330
2
100
AcDbEntity
  8
0Hatch
100
AcDbPolyline
 90
       16
 70
     0
 43
60.0
 10
204892.2599191023
 20
132627.989758037
 10
204892.2599191024
 20
133115.4897580369
 10
204468.3690455027
 20
133115.489758037
 10
204368.3690458613
 20
133215.4897576783
 10
204251.1507917918
 20
133215.4897576783
 10
204151.1507921505
 20
133115.489758037
 10
204136.2599185508
 20
133115.489758037
 10
204136.2599185508
 20
132745.489758037
 10
203967.2599185508
 20
132745.489758037
 10
203967.2599185508
 20
132400.489758037
 10
204007.1745215804
 20
132400.489758037
 10
204007.1745215804
 20
132030.489758037
 10
204179.2599277146
 20
132030.489758037
 10
204179.2599277146
 20
131645.489758037
 10
204777.2599277146
 20
131645.489758037
 10
204777.2599277146
 20
131691.4897580369
  0
LWPOLYLINE
  5
6C61
330
2
100
AcDbEntity
  8
0Hatch
100
AcDbPolyline
 90
        4
 70
     0
 43
60.0
 10
204777.2599277146
 20
131931.489758037
 10
204777.2599277146
 20
132030.489758037
 10
204892.2599191024
 20
132030.489758037
 10
204892.2599191024
 20
132517.9897580371
  0
LWPOLYLINE
  5
6C62
330
2
100
AcDbEntity
  8
0Hatch
100
AcDbPolyline
 90
        2
 70
     0
 43
60.0
 10
204179.2599277146
 20
131645.489758037
 10
204092.2599277146
 20
131645.489758037
  0
HATCH
  5
704B
330
2
100
AcDbEntity
  8
0Hatch
100
AcDbHatch
 10
0.0
 20
0.0
 30
0.0
210
0.0
220
0.0
230
1.0
  2
SOLID
 70
     1
 71
     1
 91
        2
 92
        7
 72
     0
 73
     1
 93
        4
 10
209631.3697050318
 20
133106.489758037
 10
209686.3697050318
 20
133106.489758037
 10
209686.3697050318
 20
133161.489758037
 10
209631.3697050318
 20
133161.489758037
 97
        4
330
3199
330
318D
330
3194
330
3193
 92
        7
 72
     0
 73
     1
 93
        4
 10
204016.2599185507
 20
133161.489758037
 10
203961.2599185507
 20
133161.489758037
 10
203961.2599185508
 20
133106.489758037
 10
204016.2599185508
 20
133106.489758037
 97
        4
330
6C4B
330
6C45
330
6C46
330
6C3F
 75
     0
 76
     1
 47
2.440998950645686
 98
        2
 10
209650.7234086712
 20
133126.4029727409
 10
203996.1981486312
 20
133140.2473920543
1001
ACAD
1010
0.0
1020
0.0
1030
0.0
  0
ENDSEC
  0
SECTION
  2
OBJECTS
  0
DICTIONARY
  5
7
330
0
100
AcDbDictionary
281
     1
  3
ACAD_COLOR
350
31
  3
ACAD_GROUP
350
2D
  3
ACAD_IMAGE_DICT
350
457E
  3
ACAD_IMAGE_VARS
350
461B
  3
ACAD_LAYOUT
350
B
  3
ACAD_MATERIAL
350
30
  3
ACAD_MLEADERSTYLE
350
328F
  3
ACAD_MLINESTYLE
350
2E
  3
ACAD_PLOTSETTINGS
350
2F
  3
ACAD_PLOTSTYLENAME
350
6
  3
ACAD_SCALELIST
350
326D
  3
ACAD_TABLESTYLE
350
326B
  3
ACAD_VISUALSTYLE
350
325A
  3
ACDB_RECOMPOSE_DATA
350
7093
  3
AcDbVariableDictionary
350
7089
  3
AEC_CLASSIFICATION_SYSTEM_DEFS
350
3C3
  3
AEC_CLEANUP_GROUP_DEFS
350
44B1
  3
AEC_DISP_REP_CONFIGURATIONS
350
44B3
  3
AEC_DISP_REP_SETS
350
44B5
  3
AEC_DISP_REPS
350
44BA
  3
AEC_DISPLAY_PROPS_DEFAULTS
350
4509
  3
AEC_ENDCAP_STYLES
350
4554
  3
AEC_MATERIAL_DEFS
350
4556
  3
AEC_OPENING_ENDCAP_STYLES
350
4558
  3
AEC_PROPERTY_FORMAT_DEFS
350
455A
  3
AEC_PROPERTY_SET_DEFS
350
3C4
  3
AEC_ROOFSLAB_STYLES
350
4566
  3
AEC_ROOFSLABEDGE_STYLES
350
4568
  3
AEC_SCHEDULE_TABLE_STYLES
350
456A
  3
AEC_SLAB_STYLES
350
456F
  3
AEC_SLABEDGE_STYLES
350
4571
  3
AEC_SPACE_STYLES
350
4573
  3
AEC_VARS
350
4575
  3
AEC_WALL_STYLES
350
457C
  3
ASE_INDEX_DICTIONARY
350
323B
  3
CONLABELDictionary
350
2282
  3
CONLDEFDictionary
350
2280
  3
DWGPROPS
350
7094
  0
DICTIONARY
  5
12
330
11
100
AcDbDictionary
280
     1
281
     1
  3
ACAD_LAYERSTATES
360
13
  0
DICTIONARY
  5
359F
330
4
100
AcDbDictionary
280
     1
281
     1
  3
ADSK_XREC_LAYER_RECONCILED
360
35A0
  0
DICTIONARY
  5
35A7
330
15E
100
AcDbDictionary
280
     1
281
     1
  3
ADSK_XREC_LAYER_RECONCILED
360
35A8
  0
DICTIONARY
  5
35AB
330
143
100
AcDbDictionary
280
     1
281
     1
  3
ADSK_XREC_LAYER_RECONCILED
360
35AC
  0
DICTIONARY
  5
35C7
330
2250
100
AcDbDictionary
280
     1
281
     1
  3
ADSK_XREC_LAYER_RECONCILED
360
35C8
  0
DICTIONARY
  5
35D3
330
2540
100
AcDbDictionary
280
     1
281
     1
  3
ADSK_XREC_LAYER_RECONCILED
360
35D4
  0
DICTIONARY
  5
3EAE
330
3EAD
100
AcDbDictionary
280
     1
281
     1
  0
DICTIONARY
  5
3EBC
330
3EBB
100
AcDbDictionary
280
     1
281
     1
  0
DICTIONARY
  5
3EBE
330
3EBD
100
AcDbDictionary
280
     1
281
     1
  0
DICTIONARY
  5
3ECA
330
3EC9
100
AcDbDictionary
280
     1
281
     1
  0
DICTIONARY
  5
6DA4
330
6DA3
100
AcDbDictionary
280
     1
281
     1
  0
DICTIONARY
  5
6C13
330
2
100
AcDbDictionary
280
     1
281
     1
  3
ACAD_SORTENTS
360
6C14
  0
DICTIONARY
  5
24
330
23
100
AcDbDictionary
280
     1
281
     1
  3
ACAD_SORTENTS
360
256E
  0
DICTIONARY
  5
31
102
{ACAD_REACTORS
330
7
102
}
330
7
100
AcDbDictionary
281
     1
  0
DICTIONARY
  5
2D
102
{ACAD_REACTORS
330
7
102
}
330
7
100
AcDbDictionary
281
     1
  0
DICTIONARY
  5
457E
102
{ACAD_REACTORS
330
7
102
}
330
7
100
AcDbDictionary
281
     1
  3
logo_JASNE6_1
350
457F
  0
RASTERVARIABLES
  5
461B
102
{ACAD_REACTORS
330
7
102
}
330
7
100
AcDbRasterVariables
 90
        0
 70
     1
 71
     1
 72
     2
  0
DICTIONARY
  5
B
102
{ACAD_REACTORS
330
7
102
}
330
7
100
AcDbDictionary
281
     1
  3
Layout1
350
10
  3
Model
350
A
  0
DICTIONARY
  5
30
102
{ACAD_REACTORS
330
7
102
}
330
7
100
AcDbDictionary
281
     1
  3
ByBlock
350
324A
  3
ByLayer
350
3242
  3
Global
350
3252
  0
DICTIONARY
  5
328F
102
{ACAD_REACTORS
330
7
102
}
330
7
100
AcDbDictionary
281
     1
  3
Standard
350
3290
  0
DICTIONARY
  5
2E
102
{ACAD_REACTORS
330
7
102
}
330
7
100
AcDbDictionary
281
     1
  3
Standard
350
33
  0
DICTIONARY
  5
2F
102
{ACAD_REACTORS
330
7
102
}
330
7
100
AcDbDictionary
281
     1
  0
ACDBDICTIONARYWDFLT
  5
6
102
{ACAD_REACTORS
330
7
102
}
330
7
100
AcDbDictionary
281
     1
  3
Extra Wide
350
3EE2
  3
Fine
350
3EE3
  3
Medium
350
3EE4
  3
Normal
350
5
  3
Standard
350
3EE5
  3
Thin
350
3EE6
  3
Wide
350
3EE7
100
AcDbDictionaryWithDefault
340
5
  0
DICTIONARY
  5
326D
102
{ACAD_REACTORS
330
7
102
}
330
7
100
AcDbDictionary
281
     1
  3
*A1
350
3344
  3
*A10
350
334D
  3
*A11
350
334E
  3
*A12
350
334F
  3
*A13
350
3350
  3
*A14
350
3351
  3
*A15
350
3352
  3
*A16
350
3353
  3
*A17
350
3354
  3
*A18
350
3355
  3
*A19
350
3356
  3
*A2
350
3345
  3
*A20
350
3357
  3
*A21
350
3358
  3
*A22
350
3EE8
  3
*A23
350
3EE9
  3
*A24
350
3EEA
  3
*A25
350
3EEB
  3
*A26
350
3EEC
  3
*A27
350
3EED
  3
*A28
350
3EEE
  3
*A29
350
3EEF
  3
*A3
350
3346
  3
*A30
350
3EF0
  3
*A31
350
3EF1
  3
*A32
350
3EF2
  3
*A33
350
3EF3
  3
*A34
350
3EF4
  3
*A35
350
3EF5
  3
*A36
350
3EF6
  3
*A37
350
3EF7
  3
*A38
350
3EF8
  3
*A39
350
3EF9
  3
*A4
350
3347
  3
*A40
350
3EFA
  3
*A41
350
3EFB
  3
*A42
350
3EFC
  3
*A43
350
3EFD
  3
*A44
350
3EFE
  3
*A45
350
3EFF
  3
*A46
350
3F00
  3
*A47
350
3F01
  3
*A48
350
3F02
  3
*A49
350
3F03
  3
*A5
350
3348
  3
*A50
350
3F04
  3
*A51
350
3F05
  3
*A52
350
3F06
  3
*A53
350
3F07
  3
*A54
350
3F08
  3
*A55
350
3F09
  3
*A56
350
3F0A
  3
*A57
350
3F0B
  3
*A58
350
3F0C
  3
*A59
350
3F0D
  3
*A6
350
3349
  3
*A60
350
3F0E
  3
*A61
350
3F0F
  3
*A62
350
3F10
  3
*A63
350
3F11
  3
*A64
350
3F12
  3
*A65
350
3F13
  3
*A66
350
3F14
  3
*A67
350
3F15
  3
*A68
350
3F16
  3
*A69
350
3F17
  3
*A7
350
334A
  3
*A70
350
3F18
  3
*A71
350
3F19
  3
*A72
350
3F1A
  3
*A73
350
3F1B
  3
*A74
350
3F1C
  3
*A75
350
3F1D
  3
*A76
350
3F1E
  3
*A77
350
6DA8
  3
*A78
350
6DA9
  3
*A79
350
6DAA
  3
*A8
350
334B
  3
*A80
350
6DAB
  3
*A81
350
6DAC
  3
*A82
350
6DAD
  3
*A83
350
6DAE
  3
*A84
350
6DAF
  3
*A85
350
6DB0
  3
*A86
350
6DB1
  3
*A87
350
6DB2
  3
*A88
350
6DB3
  3
*A89
350
6DB4
  3
*A9
350
334C
  3
*A90
350
6DB5
  3
A0
350
326E
  3
A1
350
326F
  3
A2
350
3270
  3
A3
350
3271
  3
A4
350
3272
  3
A5
350
3273
  3
A6
350
3274
  3
A7
350
3275
  3
A8
350
3276
  3
A9
350
3277
  3
B0
350
3278
  3
B1
350
3279
  3
B2
350
327A
  3
B3
350
327B
  3
B4
350
327C
  3
B5
350
327D
  3
B6
350
327E
  3
B7
350
327F
  3
B8
350
3280
  3
B9
350
3281
  3
C0
350
3282
  3
C1
350
3283
  3
C2
350
3284
  3
C3
350
3285
  3
C4
350
3286
  3
C5
350
3287
  3
C6
350
3288
  3
C7
350
3289
  3
C8
350
328A
  3
C9
350
328B
  3
D0
350
328C
  3
D1
350
328D
  3
D2
350
328E
  0
DICTIONARY
  5
326B
102
{ACAD_REACTORS
330
7
102
}
330
7
100
AcDbDictionary
281
     1
  3
Standard
350
326C
  0
DICTIONARY
  5
325A
102
{ACAD_REACTORS
330
7
102
}
330
7
100
AcDbDictionary
281
     1
  3
2dWireframe
350
3260
  3
3D Hidden
350
3262
  3
3dWireframe
350
3261
  3
Basic
350
325F
  3
Brighten
350
3266
  3
ColorChange
350
326A
  3
Conceptual
350
3263
  3
Dim
350
3265
  3
Facepattern
350
3269
  3
Flat
350
325B
  3
FlatWithEdges
350
325C
  3
Gouraud
350
325D
  3
GouraudWithEdges
350
325E
  3
Linepattern
350
3268
  3
Phong
350
3299
  3
PhongWithEdges
350
329A
  3
Realistic
350
3264
  3
Thicken
350
3267
  0
XRECORD
  5
7093
102
{ACAD_REACTORS
330
7
102
}
330
7
100
AcDbXrecord
280
     1
 90
        1
330
326C
  0
DICTIONARY
  5
7089
102
{ACAD_REACTORS
330
7
102
}
330
7
100
AcDbDictionary
281
     1
  3
CANNOSCALE
350
708C
  3
CMLEADERSTYLE
350
708B
  3
CTABLESTYLE
350
708A
  3
DIMASSOC
350
7090
  3
HIDETEXT
350
708F
  3
INDEXCTL
350
708E
  3
SORTENTS
350
708D
  0
DICTIONARY
  5
3C3
102
{ACAD_REACTORS
330
7
102
}
330
7
100
AcDbDictionary
281
     1
  0
DICTIONARY
  5
44B1
102
{ACAD_REACTORS
330
7
102
}
330
7
100
AcDbDictionary
281
     1
  3
Standard
350
44B2
  0
DICTIONARY
  5
44B3
102
{ACAD_REACTORS
330
7
102
}
330
7
100
AcDbDictionary
281
     1
  3
Medium Detail - WIEZBA
350
44B4
  3
Standard
350
461C
1001
AECBASE
1070
 10000
1005
44B4
  0
DICTIONARY
  5
44B5
102
{ACAD_REACTORS
330
7
102
}
330
7
100
AcDbDictionary
281
     1
  3
Model
350
44B6
  3
Model High Detail
350
4618
  3
Model Low Detail
350
4617
  3
Plan
350
4613
  3
Plan Diagnostic
350
44B7
  3
Plan High Detail
350
4616
  3
Plan Low Detail
350
4615
  3
Plan Medium - WIEZBA
350
44B8
  3
Reflected
350
4614
  3
Section_Elev
350
44B9
  0
DICTIONARY
  5
44BA
102
{ACAD_REACTORS
330
7
102
}
330
7
100
AcDbDictionary
281
     1
  3
AecDbDispRep2dSection
350
44BB
  3
AecDbDispRepAnchor
350
4582
  3
AecDbDispRepAnchorBubToGrid
350
44BC
  3
AecDbDispRepAnchorBubToGridMdl
350
44BD
  3
AecDbDispRepAnchorBubToGridRcp
350
45AD
  3
AecDbDispRepAnchorEntToNode
350
44BE
  3
AecDbDispRepAnchorExtendedTagToEnt
350
4585
  3
AecDbDispRepAnchorTagToEnt
350
44BF
  3
AecDbDispRepBdgElevLineModel
350
44C0
  3
AecDbDispRepBdgElevLinePlan
350
44C1
  3
AecDbDispRepBdgElevLinePlan100
350
45B9
  3
AecDbDispRepBdgElevLinePlan50
350
45D2
  3
AecDbDispRepBdgElevLineRcp
350
4587
  3
AecDbDispRepBdgSectionLineModel
350
44C2
  3
AecDbDispRepBdgSectionLinePlan
350
44C3
  3
AecDbDispRepBdgSectionLinePlan100
350
45BB
  3
AecDbDispRepBdgSectionLinePlan50
350
45D4
  3
AecDbDispRepBdgSectionLineRcp
350
4589
  3
AecDbDispRepBdgSectionModel
350
458B
  3
AecDbDispRepBdgSectionSubDiv
350
44C4
  3
AecDbDispRepCeilingGrid
350
44C5
  3
AecDbDispRepCeilingGridModel
350
44C6
  3
AecDbDispRepCeilingGridPlan100
350
45BD
  3
AecDbDispRepCeilingGridPlan50
350
45D6
  3
AecDbDispRepCeilingGridRcp
350
44C7
  3
AecDbDispRepClipVolModel
350
44C8
  3
AecDbDispRepClipVolPlan
350
44C9
  3
AecDbDispRepClipVolResSubDiv
350
44CA
  3
AecDbDispRepClipVolResult
350
44CB
  3
AecDbDispRepColumnGrid
350
44CC
  3
AecDbDispRepColumnGridModel
350
44CD
  3
AecDbDispRepColumnGridPlan100
350
45BF
  3
AecDbDispRepColumnGridPlan50
350
45D8
  3
AecDbDispRepColumnGridRcp
350
45AF
  3
AecDbDispRepCurtainWallLayoutModel
350
44CE
  3
AecDbDispRepCurtainWallLayoutPlan
350
44CF
  3
AecDbDispRepCurtainWallLayoutPlan100
350
45C1
  3
AecDbDispRepCurtainWallLayoutPlan50
350
45DA
  3
AecDbDispRepCurtainWallUnitModel
350
44D0
  3
AecDbDispRepCurtainWallUnitPlan
350
44D1
  3
AecDbDispRepCurtainWallUnitPlan100
350
45C3
  3
AecDbDispRepCurtainWallUnitPlan50
350
45DC
  3
AecDbDispRepDimGroupPlan
350
44D2
  3
AecDbDispRepDimGroupPlan100
350
45ED
  3
AecDbDispRepDimGroupPlan50
350
45EF
  3
AecDbDispRepDisplayTheme
350
44D3
  3
AecDbDispRepDoorElev
350
44D4
  3
AecDbDispRepDoorModel
350
44D5
  3
AecDbDispRepDoorNominal
350
44D6
  3
AecDbDispRepDoorPlan
350
44D7
  3
AecDbDispRepDoorPlan50
350
45F1
  3
AecDbDispRepDoorPlanHekto
350
45F3
  3
AecDbDispRepDoorRcp
350
458C
  3
AecDbDispRepDoorThresholdPlan
350
458E
  3
AecDbDispRepDoorThresholdSymbolPlan
350
45F5
  3
AecDbDispRepEditInPlaceProfile
350
44D8
  3
AecDbDispRepEntRef
350
44D9
  3
AecDbDispRepLayoutCurve
350
44DA
  3
AecDbDispRepLayoutGrid2d
350
44DB
  3
AecDbDispRepLayoutGrid3d
350
44DC
  3
AecDbDispRepMaskBlockRef
350
44DD
  3
AecDbDispRepMaskBlockRefRcp
350
44DE
  3
AecDbDispRepMassElemModel
350
44DF
  3
AecDbDispRepMassElemPlan100
350
45F7
  3
AecDbDispRepMassElemPlan50
350
45F9
  3
AecDbDispRepMassElemRcp
350
4590
  3
AecDbDispRepMassElemSchem
350
44E0
  3
AecDbDispRepMassGroupModel
350
44E1
  3
AecDbDispRepMassGroupPlan
350
44E2
  3
AecDbDispRepMassGroupPlan100
350
45FB
  3
AecDbDispRepMassGroupPlan50
350
45FD
  3
AecDbDispRepMassGroupRcp
350
4592
  3
AecDbDispRepMaterial
350
44E3
  3
AecDbDispRepMaterial$General Medium Detail
350
44E4
  3
AecDbDispRepMvBlockRef
350
44E5
  3
AecDbDispRepMvBlockRef$Plan
350
44E6
  3
AecDbDispRepMvBlockRefModel
350
44E7
  3
AecDbDispRepMvBlockRefPlan100
350
45C5
  3
AecDbDispRepMvBlockRefPlan50
350
45DE
  3
AecDbDispRepMvBlockRefRcp
350
4594
  3
AecDbDispRepOpening
350
44E8
  3
AecDbDispRepOpeningModel
350
44E9
  3
AecDbDispRepOpeningPlan100
350
45FF
  3
AecDbDispRepOpeningPlan50
350
4601
  3
AecDbDispRepOpeningPlanReflected
350
4603
  3
AecDbDispRepOpeningSillPlan
350
4605
  3
AecDbDispRepPolygonModel
350
44EA
  3
AecDbDispRepPolygonTrueColour
350
4583
  3
AecDbDispRepRailingModel
350
44EB
  3
AecDbDispRepRailingPlan
350
44EC
  3
AecDbDispRepRailingPlan100
350
4607
  3
AecDbDispRepRailingPlan50
350
4609
  3
AecDbDispRepRoofModel
350
44ED
  3
AecDbDispRepRoofPlan
350
44EE
  3
AecDbDispRepRoofPlan100
350
45C6
  3
AecDbDispRepRoofPlan50
350
45DF
  3
AecDbDispRepRoofRcp
350
4595
  3
AecDbDispRepRoofSlabModel
350
44EF
  3
AecDbDispRepRoofSlabPlan
350
4599
  3
AecDbDispRepRoofSlabPlan$Plan Presentation
350
44F0
  3
AecDbDispRepRoofSlabPlan100
350
45C8
  3
AecDbDispRepRoofSlabPlan50
350
45E1
  3
AecDbDispRepScheduleTable
350
44F1
  3
AecDbDispRepSlabModel
350
44F2
  3
AecDbDispRepSlabPlan
350
4597
  3
AecDbDispRepSlabPlan$Plan Presentation
350
44F3
  3
AecDbDispRepSlabPlan100
350
45CA
  3
AecDbDispRepSlabPlan50
350
45E3
  3
AecDbDispRepSlice
350
44F4
  3
AecDbDispRepSpaceDecomposed
350
44F5
  3
AecDbDispRepSpaceModel
350
44F6
  3
AecDbDispRepSpacePlan
350
44F7
  3
AecDbDispRepSpacePlan100
350
45CC
  3
AecDbDispRepSpacePlan50
350
45E5
  3
AecDbDispRepSpaceRcp
350
459B
  3
AecDbDispRepSpaceVolume
350
459D
  3
AecDbDispRepStairModel
350
44F8
  3
AecDbDispRepStairPlan
350
44F9
  3
AecDbDispRepStairPlan100
350
460B
  3
AecDbDispRepStairPlan50
350
460D
  3
AecDbDispRepStairPlanOverlapping
350
459F
  3
AecDbDispRepStairRcp
350
45A1
  3
AecDbDispRepWallGraph
350
44FA
  3
AecDbDispRepWallModel
350
44FB
  3
AecDbDispRepWallPlan
350
44FC
  3
AecDbDispRepWallPlan100
350
45CE
  3
AecDbDispRepWallPlan50
350
45E7
  3
AecDbDispRepWallRcp
350
45A3
  3
AecDbDispRepWallSchem
350
44FD
  3
AecDbDispRepWindowAssemblyModel
350
44FE
  3
AecDbDispRepWindowAssemblyPlan
350
44FF
  3
AecDbDispRepWindowAssemblyPlan100
350
4500
  3
AecDbDispRepWindowAssemblyPlan50
350
45E9
  3
AecDbDispRepWindowAssemblySillPlan
350
45A5
  3
AecDbDispRepWindowElev
350
4501
  3
AecDbDispRepWindowModel
350
4502
  3
AecDbDispRepWindowNominal
350
4503
  3
AecDbDispRepWindowPlan
350
4504
  3
AecDbDispRepWindowPlan100
350
460F
  3
AecDbDispRepWindowPlan50
350
4611
  3
AecDbDispRepWindowRcp
350
45A7
  3
AecDbDispRepWindowSillPlan
350
45A9
  3
AecDbDispRepZone
350
45AB
  3
AecDbDispRepZonePlan100
350
45D0
  3
AecDbDispRepZonePlan50
350
45EB
  3
AecsDbDispRepMemberElevationDesign
350
4505
  3
AecsDbDispRepMemberElevationDetail
350
45B1
  3
AecsDbDispRepMemberLogical
350
4506
  3
AecsDbDispRepMemberModelDesign
350
4507
  3
AecsDbDispRepMemberModelDetail
350
45B3
  3
AecsDbDispRepMemberPlanDesign
350
4508
  3
AecsDbDispRepMemberPlanDetail
350
45B5
  3
AecsDbDispRepMemberPlanSketch
350
45B7
  0
DICTIONARY
  5
4509
102
{ACAD_REACTORS
330
7
102
}
330
7
100
AcDbDictionary
281
     1
  3
*A1
350
450A
  3
*A10
350
450B
  3
*A100
350
45B8
  3
*A101
350
45BA
  3
*A102
350
45BC
  3
*A103
350
45BE
  3
*A104
350
45C0
  3
*A105
350
45C2
  3
*A106
350
45C4
  3
*A107
350
45C7
  3
*A108
350
45C9
  3
*A109
350
45CB
  3
*A11
350
450C
  3
*A110
350
45CD
  3
*A111
350
45CF
  3
*A112
350
45D1
  3
*A113
350
45D3
  3
*A114
350
45D5
  3
*A115
350
45D7
  3
*A116
350
45D9
  3
*A117
350
45DB
  3
*A118
350
45DD
  3
*A119
350
45E0
  3
*A12
350
450D
  3
*A120
350
45E2
  3
*A121
350
45E4
  3
*A122
350
45E6
  3
*A123
350
45E8
  3
*A124
350
45EA
  3
*A125
350
45EC
  3
*A126
350
45EE
  3
*A127
350
45F0
  3
*A128
350
45F2
  3
*A129
350
45F4
  3
*A13
350
450E
  3
*A130
350
45F6
  3
*A131
350
45F8
  3
*A132
350
45FA
  3
*A133
350
45FC
  3
*A134
350
45FE
  3
*A135
350
4600
  3
*A136
350
4602
  3
*A137
350
4604
  3
*A138
350
4606
  3
*A139
350
4608
  3
*A14
350
450F
  3
*A140
350
460A
  3
*A141
350
460C
  3
*A142
350
460E
  3
*A143
350
4610
  3
*A144
350
4612
  3
*A15
350
4510
  3
*A16
350
4511
  3
*A17
350
4512
  3
*A18
350
4513
  3
*A19
350
4514
  3
*A2
350
4515
  3
*A20
350
4516
  3
*A21
350
4517
  3
*A22
350
4518
  3
*A23
350
4519
  3
*A24
350
451A
  3
*A25
350
451B
  3
*A26
350
451C
  3
*A27
350
451D
  3
*A28
350
451E
  3
*A29
350
451F
  3
*A3
350
4520
  3
*A30
350
4521
  3
*A31
350
4522
  3
*A32
350
4523
  3
*A33
350
4524
  3
*A34
350
4525
  3
*A35
350
4526
  3
*A36
350
4527
  3
*A37
350
4528
  3
*A38
350
4529
  3
*A39
350
452A
  3
*A4
350
452B
  3
*A40
350
452C
  3
*A41
350
452D
  3
*A42
350
452E
  3
*A43
350
452F
  3
*A44
350
4530
  3
*A45
350
4531
  3
*A46
350
4532
  3
*A47
350
4533
  3
*A48
350
4534
  3
*A49
350
4535
  3
*A5
350
4536
  3
*A50
350
4537
  3
*A51
350
4538
  3
*A52
350
4539
  3
*A53
350
453A
  3
*A54
350
453B
  3
*A55
350
453C
  3
*A56
350
453D
  3
*A57
350
453E
  3
*A58
350
453F
  3
*A59
350
4540
  3
*A6
350
4541
  3
*A60
350
4542
  3
*A61
350
4543
  3
*A62
350
4544
  3
*A63
350
4545
  3
*A64
350
4546
  3
*A65
350
4547
  3
*A66
350
4548
  3
*A67
350
4549
  3
*A68
350
454A
  3
*A69
350
454B
  3
*A7
350
454C
  3
*A70
350
454D
  3
*A71
350
454E
  3
*A72
350
454F
  3
*A73
350
4550
  3
*A74
350
4551
  3
*A75
350
4584
  3
*A76
350
4586
  3
*A77
350
4588
  3
*A78
350
458A
  3
*A79
350
458D
  3
*A8
350
4552
  3
*A80
350
458F
  3
*A81
350
4591
  3
*A82
350
4593
  3
*A83
350
4596
  3
*A84
350
4598
  3
*A85
350
459A
  3
*A86
350
459C
  3
*A87
350
459E
  3
*A88
350
45A0
  3
*A89
350
45A2
  3
*A9
350
4553
  3
*A90
350
45A4
  3
*A91
350
45A6
  3
*A92
350
45A8
  3
*A93
350
45AA
  3
*A94
350
45AC
  3
*A95
350
45AE
  3
*A96
350
45B0
  3
*A97
350
45B2
  3
*A98
350
45B4
  3
*A99
350
45B6
  0
DICTIONARY
  5
4554
102
{ACAD_REACTORS
330
7
102
}
330
7
100
AcDbDictionary
281
     1
  3
Standard
350
4555
  0
DICTIONARY
  5
4556
102
{ACAD_REACTORS
330
7
102
}
330
7
100
AcDbDictionary
281
     1
  3
Standard
350
4557
  0
DICTIONARY
  5
4558
102
{ACAD_REACTORS
330
7
102
}
330
7
100
AcDbDictionary
281
     1
  3
Standard
350
4559
  0
DICTIONARY
  5
455A
102
{ACAD_REACTORS
330
7
102
}
330
7
100
AcDbDictionary
281
     1
  3
Area
350
455B
  3
Case - Lower
350
455C
  3
Case - Upper
350
455D
  3
Length - Long
350
455E
  3
Length - Nominal
350
455F
  3
Length - Short
350
4560
  3
Number - Object
350
4561
  3
poziom_bezwzgl
350
4562
  3
Standard
350
4563
  3
zaokragl do 1 miejsca po przecinku
350
4564
  0
DICTIONARY
  5
3C4
102
{ACAD_REACTORS
330
7
102
}
330
7
100
AcDbDictionary
281
     1
  3
SpaceObjects_ver3
350
4565
  0
DICTIONARY
  5
4566
102
{ACAD_REACTORS
330
7
102
}
330
7
100
AcDbDictionary
281
     1
  3
Standard
350
4567
  0
DICTIONARY
  5
4568
102
{ACAD_REACTORS
330
7
102
}
330
7
100
AcDbDictionary
281
     1
  3
Standard
350
4569
  0
DICTIONARY
  5
456A
102
{ACAD_REACTORS
330
7
102
}
330
7
100
AcDbDictionary
281
     1
  3
pomieszczenia-parter - space ver3
350
456B
  0
DICTIONARY
  5
456F
102
{ACAD_REACTORS
330
7
102
}
330
7
100
AcDbDictionary
281
     1
  3
Standard
350
4570
  0
DICTIONARY
  5
4571
102
{ACAD_REACTORS
330
7
102
}
330
7
100
AcDbDictionary
281
     1
  3
Standard
350
4572
  0
DICTIONARY
  5
4573
102
{ACAD_REACTORS
330
7
102
}
330
7
100
AcDbDictionary
281
     1
  3
Standard
350
4574
  0
DICTIONARY
  5
4575
102
{ACAD_REACTORS
330
7
102
}
330
7
100
AcDbDictionary
281
     1
  3
AEC_VARS_ARCHBASE
350
4576
  3
AEC_VARS_DWG_SETUP
350
4577
  3
AEC_VARS_STRUCTUREBASE
350
457A
  3
AECMX_VARS_MUNICH
350
457B
  0
DICTIONARY
  5
457C
102
{ACAD_REACTORS
330
7
102
}
330
7
100
AcDbDictionary
281
     1
  3
Standard
350
457D
  0
DICTIONARY
  5
323B
102
{ACAD_REACTORS
330
7
102
}
330
7
100
AcDbDictionary
281
     1
  3
ALFABETLink1
350
323C
  3
ASEBlockHierarchyIndexRecord
350
323D
1001
DCO15
1040
1556523217.328
  0
DICTIONARY
  5
2282
102
{ACAD_REACTORS
330
7
102
}
330
7
100
AcDbDictionary
281
     1
  3
ALFABET-Arial37
350
2283
  0
DICTIONARY
  5
2280
102
{ACAD_REACTORS
330
7
102
}
330
7
100
AcDbDictionary
281
     1
  3
ALFABETLink1
350
2281
  0
XRECORD
  5
7094
102
{ACAD_REACTORS
330
7
102
}
330
7
100
AcDbXrecord
280
     1
  1
DWGPROPS COOKIE
  2

  3

  4

  6

  7

  8
beata.rzonca
  9

300
=
301
=
302
=
303
=
304
=
305
=
306
=
307
=
308
=
309
=
 40
7.706572060185185
 41
2452027.670547454
 42
2454956.509350764
  1

 90
        0
  0
DICTIONARY
  5
13
102
{ACAD_REACTORS
330
12
102
}
330
12
100
AcDbDictionary
281
     1
  0
XRECORD
  5
35A0
102
{ACAD_REACTORS
330
359F
102
}
330
359F
100
AcDbXrecord
280
     1
290
     1
  0
XRECORD
  5
35A8
102
{ACAD_REACTORS
330
35A7
102
}
330
35A7
100
AcDbXrecord
280
     1
290
     1
  0
XRECORD
  5
35AC
102
{ACAD_REACTORS
330
35AB
102
}
330
35AB
100
AcDbXrecord
280
     1
290
     1
  0
XRECORD
  5
35C8
102
{ACAD_REACTORS
330
35C7
102
}
330
35C7
100
AcDbXrecord
280
     1
290
     1
  0
XRECORD
  5
35D4
102
{ACAD_REACTORS
330
35D3
102
}
330
35D3
100
AcDbXrecord
280
     1
290
     1
  0
SORTENTSTABLE
  5
6C14
102
{ACAD_REACTORS
330
6C13
102
}
330
6C13
100
AcDbSortentsTable
330
2
331
6C49
  5
6C4A
331
463C
  5
4640
331
704B
  5
318D
331
6C40
  5
6C41
331
319E
  5
319F
331
6C0D
  5
6C0F
331
6C5A
  5
6C5B
331
317C
  5
317C
331
6C2F
  5
6C30
331
318D
  5
318E
331
4654
  5
4658
331
6C3E
  5
6C3F
331
319C
  5
319D
331
317A
  5
317A
331
318B
  5
318B
331
6C58
  5
6C59
331
4638
  5
463C
331
6C3C
  5
6C3D
331
319A
  5
319B
331
6C56
  5
6C57
331
3178
  5
3178
331
3189
  5
3189
331
4650
  5
4654
331
6C3A
  5
6C3B
331
3198
  5
3199
331
6C54
  5
6C55
331
3176
  5
3176
331
3187
  5
3187
331
6C16
  5
6C17
331
6C38
  5
6C39
331
3196
  5
3197
331
31A7
  5
31A8
331
6C52
  5
6C53
331
4634
  5
4638
331
6C36
  5
6C37
331
3194
  5
3195
331
6C47
  5
6C48
331
31A5
  5
31A6
331
6C50
  5
6C51
331
6C61
  5
6C62
331
6C34
  5
6C35
331
3192
  5
3193
331
6C4E
  5
6C4F
331
6C45
  5
6C46
331
31A3
  5
31A4
331
6C5F
  5
6C60
331
1A2E
  5
1A2E
331
6C32
  5
6C33
331
3190
  5
3191
331
6C4C
  5
6C4D
331
31AA
  5
4633
331
6C43
  5
6C44
331
31A1
  5
31A2
331
6C5D
  5
6C5E
331
1A2C
  5
1A2C
331
6C30
  5
6C31
331
31A8
  5
31A9
331
6C4A
  5
6C4B
331
6C41
  5
6C42
331
319F
  5
31A0
331
6C0E
  5
6C12
331
6C5B
  5
6C5C
331
317D
  5
317D
331
318E
  5
318F
331
1A2A
  5
1A2A
331
6C48
  5
6C49
331
6C3F
  5
6C40
331
319D
  5
319E
331
4B33
  5
6C0D
331
6C59
  5
6C5A
331
317B
  5
317B
331
318C
  5
318C
331
464C
  5
4650
331
6C3D
  5
6C3E
331
319B
  5
319C
331
6C57
  5
6C58
331
3179
  5
3179
331
318A
  5
318A
331
6C3B
  5
6C3C
331
3199
  5
319A
331
4B0D
  5
4B33
331
4648
  5
464C
331
6C55
  5
6C56
331
3177
  5
3177
331
3188
  5
3188
331
6C17
  5
6C2F
331
6C39
  5
6C3A
331
3197
  5
3198
331
6C53
  5
6C54
331
3175
  5
3175
331
6C15
  5
6C16
331
6C37
  5
6C38
331
3195
  5
3196
331
4644
  5
4648
331
6C51
  5
6C52
331
31A6
  5
31A7
331
4633
  5
4634
331
6C62
  5
6E86
331
1A42
  5
1A42
331
6C35
  5
6C36
331
3193
  5
3194
331
6C4F
  5
6C50
331
6C46
  5
6C47
331
31A4
  5
31A5
331
6C60
  5
6C61
331
1A2F
  5
1A2F
331
6C33
  5
6C34
331
3191
  5
3192
331
4640
  5
4644
331
6C4D
  5
6C4E
331
6C44
  5
6C45
331
31A2
  5
31A3
331
3180
  5
3180
331
6C5E
  5
6C5F
331
6C31
  5
6C32
331
31A9
  5
31AA
331
4658
  5
4B0D
331
6C4B
  5
6C4C
331
6C42
  5
6C43
331
31A0
  5
31A1
331
6C0F
  5
6C15
331
6C5C
  5
6C5D
331
318F
  5
3190
331
1A2B
  5
1A2B
  0
SORTENTSTABLE
  5
256E
102
{ACAD_REACTORS
330
24
102
}
330
24
100
AcDbSortentsTable
330
23
  0
IMAGEDEF
  5
457F
102
{ACAD_REACTORS
330
457E
330
3F2B
330
4628
102
}
330
457E
100
AcDbRasterImageDef
 90
        0
  1
\\mati\matrix\matrix_arch\logo_JASNE6.tif
 10
741.0
 20
182.0
 11
0.0634999995155335
 21
0.0634999995155335
280
     1
281
     2
  0
LAYOUT
  5
10
102
{ACAD_XDICTIONARY
360
7097
102
}
102
{ACAD_REACTORS
330
B
102
}
330
B
100
AcDbPlotSettings
  1

  2
C:\PROGRAM FILES\AUTOCAD LT 2000\plotters\DWF ePlot.pc3
  4

  6

 40
0.0
 41
0.0
 42
0.0
 43
0.0
 44
0.0
 45
0.0
 46
0.0
 47
0.0
 48
0.0
 49
0.0
140
0.0
141
0.0
142
1.0
143
1.0
 70
   688
 72
     0
 73
     0
 74
     5
  7
100.ctb
 75
    16
147
1.0
148
0.0
149
0.0
100
AcDbLayout
  1
Layout1
 70
     1
 71
     1
 10
0.0
 20
0.0
 11
420.0
 21
297.0
 12
0.0
 22
0.0
 32
0.0
 14
1.000000000000000E+20
 24
1.000000000000000E+20
 34
1.000000000000000E+20
 15
-1.000000000000000E+20
 25
-1.000000000000000E+20
 35
-1.000000000000000E+20
146
0.0
 13
0.0
 23
0.0
 33
0.0
 16
1.0
 26
0.0
 36
0.0
 17
0.0
 27
1.0
 37
0.0
 76
     0
330
D
  0
LAYOUT
  5
A
102
{ACAD_XDICTIONARY
360
7095
102
}
102
{ACAD_REACTORS
330
B
102
}
330
B
100
AcDbPlotSettings
  1

  2
CutePDF Writer
  4
A4
  6
RODODENDRON 5
 40
3.174999952316284
 41
3.174999952316284
 42
3.175003051757812
 43
3.17498779296875
 44
209.8886566162109
 45
297.0530090332031
 46
0.0
 47
4.0
 48
201611.1256215136
 49
124387.6604017192
140
211811.1256215136
141
138407.6604017192
142
1.0
143
50.0
 70
 11952
 72
     1
 73
     0
 74
     4
  7
100.ctb
 75
    25
147
0.02
148
-201611.1256215136
149
-124387.6604017192
100
AcDbLayout
  1
Model
 70
     1
 71
     0
 10
0.0
 20
0.0
 11
12.0
 21
9.0
 12
0.0
 22
0.0
 32
0.0
 14
0.0
 24
0.0
 34
0.0
 15
0.0
 25
0.0
 35
0.0
146
0.0
 13
0.0
 23
0.0
 33
0.0
 16
1.0
 26
0.0
 36
0.0
 17
0.0
 27
1.0
 37
0.0
 76
     0
330
2
331
3240
  0
MATERIAL
  5
324A
102
{ACAD_XDICTIONARY
360
324B
102
}
102
{ACAD_REACTORS
330
30
102
}
330
30
100
AcDbMaterial
  1
ByBlock
 72
     0
 43
0.0082020997375328
 43
0.0
 43
0.0
 43
0.0
 43
0.0
 43
0.0082020997375328
 43
0.0
 43
0.0
 43
0.0
 43
0.0
 43
1.0
 43
0.0
 43
0.0
 43
0.0
 43
0.0
 43
1.0
 77
     0
 47
0.0082020997375328
 47
0.0
 47
0.0
 47
0.0
 47
0.0
 47
0.0082020997375328
 47
0.0
 47
0.0
 47
0.0
 47
0.0
 47
1.0
 47
0.0
 47
0.0
 47
0.0
 47
0.0
 47
1.0
171
     0
 49
0.0082020997375328
 49
0.0
 49
0.0
 49
0.0
 49
0.0
 49
0.0082020997375328
 49
0.0
 49
0.0
 49
0.0
 49
0.0
 49
1.0
 49
0.0
 49
0.0
 49
0.0
 49
0.0
 49
1.0
175
     0
142
0.0082020997375328
142
0.0
142
0.0
142
0.0
142
0.0
142
0.0082020997375328
142
0.0
142
0.0
142
0.0
142
0.0
142
1.0
142
0.0
142
0.0
142
0.0
142
0.0
142
1.0
179
     0
144
0.0082020997375328
144
0.0
144
0.0
144
0.0
144
0.0
144
0.0082020997375328
144
0.0
144
0.0
144
0.0
144
0.0
144
1.0
144
0.0
144
0.0
144
0.0
144
0.0
144
1.0
147
0.0082020997375328
147
0.0
147
0.0
147
0.0
147
0.0
147
0.0082020997375328
147
0.0
147
0.0
147
0.0
147
0.0
147
1.0
147
0.0
147
0.0
147
0.0
147
0.0
147
1.0
  0
MATERIAL
  5
3242
102
{ACAD_XDICTIONARY
360
3243
102
}
102
{ACAD_REACTORS
330
30
102
}
330
30
100
AcDbMaterial
  1
ByLayer
 72
     0
 43
0.0082020997375328
 43
0.0
 43
0.0
 43
0.0
 43
0.0
 43
0.0082020997375328
 43
0.0
 43
0.0
 43
0.0
 43
0.0
 43
1.0
 43
0.0
 43
0.0
 43
0.0
 43
0.0
 43
1.0
 77
     0
 47
0.0082020997375328
 47
0.0
 47
0.0
 47
0.0
 47
0.0
 47
0.0082020997375328
 47
0.0
 47
0.0
 47
0.0
 47
0.0
 47
1.0
 47
0.0
 47
0.0
 47
0.0
 47
0.0
 47
1.0
171
     0
 49
0.0082020997375328
 49
0.0
 49
0.0
 49
0.0
 49
0.0
 49
0.0082020997375328
 49
0.0
 49
0.0
 49
0.0
 49
0.0
 49
1.0
 49
0.0
 49
0.0
 49
0.0
 49
0.0
 49
1.0
175
     0
142
0.0082020997375328
142
0.0
142
0.0
142
0.0
142
0.0
142
0.0082020997375328
142
0.0
142
0.0
142
0.0
142
0.0
142
1.0
142
0.0
142
0.0
142
0.0
142
0.0
142
1.0
179
     0
144
0.0082020997375328
144
0.0
144
0.0
144
0.0
144
0.0
144
0.0082020997375328
144
0.0
144
0.0
144
0.0
144
0.0
144
1.0
144
0.0
144
0.0
144
0.0
144
0.0
144
1.0
147
0.0082020997375328
147
0.0
147
0.0
147
0.0
147
0.0
147
0.0082020997375328
147
0.0
147
0.0
147
0.0
147
0.0
147
1.0
147
0.0
147
0.0
147
0.0
147
0.0
147
1.0
  0
MATERIAL
  5
3252
102
{ACAD_XDICTIONARY
360
3253
102
}
102
{ACAD_REACTORS
330
30
102
}
330
30
100
AcDbMaterial
  1
Global
 72
     0
 43
0.0082020997375328
 43
0.0
 43
0.0
 43
0.0
 43
0.0
 43
0.0082020997375328
 43
0.0
 43
0.0
 43
0.0
 43
0.0
 43
1.0
 43
0.0
 43
0.0
 43
0.0
 43
0.0
 43
1.0
 77
     0
 47
0.0082020997375328
 47
0.0
 47
0.0
 47
0.0
 47
0.0
 47
0.0082020997375328
 47
0.0
 47
0.0
 47
0.0
 47
0.0
 47
1.0
 47
0.0
 47
0.0
 47
0.0
 47
0.0
 47
1.0
171
     0
 49
0.0082020997375328
 49
0.0
 49
0.0
 49
0.0
 49
0.0
 49
0.0082020997375328
 49
0.0
 49
0.0
 49
0.0
 49
0.0
 49
1.0
 49
0.0
 49
0.0
 49
0.0
 49
0.0
 49
1.0
175
     0
142
0.0082020997375328
142
0.0
142
0.0
142
0.0
142
0.0
142
0.0082020997375328
142
0.0
142
0.0
142
0.0
142
0.0
142
1.0
142
0.0
142
0.0
142
0.0
142
0.0
142
1.0
179
     0
144
0.0082020997375328
144
0.0
144
0.0
144
0.0
144
0.0
144
0.0082020997375328
144
0.0
144
0.0
144
0.0
144
0.0
144
1.0
144
0.0
144
0.0
144
0.0
144
0.0
144
1.0
147
0.0082020997375328
147
0.0
147
0.0
147
0.0
147
0.0
147
0.0082020997375328
147
0.0
147
0.0
147
0.0
147
0.0
147
1.0
147
0.0
147
0.0
147
0.0
147
0.0
147
1.0
  0
MLEADERSTYLE
  5
3290
102
{ACAD_REACTORS
330
328F
102
}
330
328F
100
AcDbMLeaderStyle
170
     2
171
     1
172
     0
 90
        2
 40
0.0
 41
0.0
173
     1
 91
-1056964608
340
18
 92
       -2
290
     1
 42
0.09
291
     1
 43
0.36
  3
Standard
 44
0.18
300

342
15
174
     1
178
     6
175
     1
176
     0
 93
-1056964608
 45
0.18
292
     0
297
     0
 46
0.18
 94
-1056964608
 47
1.0
 49
1.0
140
1.0
293
     1
141
0.0
294
     1
177
     0
142
1.0
295
     0
296
     0
143
0.125
1001
ACAD_MLEADERVER
1070
     2
  0
MLINESTYLE
  5
33
102
{ACAD_REACTORS
330
2E
102
}
330
2E
100
AcDbMlineStyle
  2
STANDARD
 70
     0
  3

 62
   256
 51
90.0
 52
90.0
 71
     2
 49
0.5
 62
   256
  6
BYLAYER
 49
-0.5
 62
   256
  6
BYLAYER
  0
ACDBPLACEHOLDER
  5
3EE2
102
{ACAD_REACTORS
330
6
102
}
330
6
  0
ACDBPLACEHOLDER
  5
3EE3
102
{ACAD_REACTORS
330
6
102
}
330
6
  0
ACDBPLACEHOLDER
  5
3EE4
102
{ACAD_REACTORS
330
6
102
}
330
6
  0
ACDBPLACEHOLDER
  5
5
102
{ACAD_REACTORS
330
6
102
}
330
6
  0
ACDBPLACEHOLDER
  5
3EE5
102
{ACAD_REACTORS
330
6
102
}
330
6
  0
ACDBPLACEHOLDER
  5
3EE6
102
{ACAD_REACTORS
330
6
102
}
330
6
  0
ACDBPLACEHOLDER
  5
3EE7
102
{ACAD_REACTORS
330
6
102
}
330
6
  0
SCALE
  5
3344
102
{ACAD_REACTORS
330
326D
102
}
330
326D
100
AcDbScale
 70
     0
300
1:10_1
140
1.0
141
1.0
290
     0
  0
SCALE
  5
334D
102
{ACAD_REACTORS
330
326D
102
}
330
326D
100
AcDbScale
 70
     0
300
1:10_2
140
1.0
141
10.0
290
     0
  0
SCALE
  5
334E
102
{ACAD_REACTORS
330
326D
102
}
330
326D
100
AcDbScale
 70
     0
300
1:20_2
140
1.0
141
20.0
290
     0
  0
SCALE
  5
334F
102
{ACAD_REACTORS
330
326D
102
}
330
326D
100
AcDbScale
 70
     0
300
1:50_2
140
1.0
141
50.0
290
     0
  0
SCALE
  5
3350
102
{ACAD_REACTORS
330
326D
102
}
330
326D
100
AcDbScale
 70
     0
300
1:100_2
140
1.0
141
100.0
290
     0
  0
SCALE
  5
3351
102
{ACAD_REACTORS
330
326D
102
}
330
326D
100
AcDbScale
 70
     0
300
1:1_1
140
1.0
141
0.1
290
     0
  0
SCALE
  5
3352
102
{ACAD_REACTORS
330
326D
102
}
330
326D
100
AcDbScale
 70
     0
300
1:1_1_1
140
1.0
141
1.0
290
     0
  0
SCALE
  5
3353
102
{ACAD_REACTORS
330
326D
102
}
330
326D
100
AcDbScale
 70
     0
300
1:2_1_1
140
1.0
141
2.0
290
     0
  0
SCALE
  5
3354
102
{ACAD_REACTORS
330
326D
102
}
330
326D
100
AcDbScale
 70
     0
300
1:5_1_1
140
1.0
141
5.0
290
     0
  0
SCALE
  5
3355
102
{ACAD_REACTORS
330
326D
102
}
330
326D
100
AcDbScale
 70
     0
300
1:10_1_1
140
1.0
141
10.0
290
     0
  0
SCALE
  5
3356
102
{ACAD_REACTORS
330
326D
102
}
330
326D
100
AcDbScale
 70
     0
300
1:20_1_1
140
1.0
141
20.0
290
     0
  0
SCALE
  5
3345
102
{ACAD_REACTORS
330
326D
102
}
330
326D
100
AcDbScale
 70
     0
300
1:2_1
140
1.0
141
0.2
290
     0
  0
SCALE
  5
3357
102
{ACAD_REACTORS
330
326D
102
}
330
326D
100
AcDbScale
 70
     0
300
1:50_1_1
140
1.0
141
50.0
290
     0
  0
SCALE
  5
3358
102
{ACAD_REACTORS
330
326D
102
}
330
326D
100
AcDbScale
 70
     0
300
1:100_1_1
140
1.0
141
100.0
290
     0
  0
SCALE
  5
3EE8
102
{ACAD_REACTORS
330
326D
102
}
330
326D
100
AcDbScale
 70
     0
300
1/2" = 1'-0"_XREF
140
0.5
141
12.0
290
     0
  0
SCALE
  5
3EE9
102
{ACAD_REACTORS
330
326D
102
}
330
326D
100
AcDbScale
 70
     0
300
1:4_XREF
140
1.0
141
4.0
290
     0
  0
SCALE
  5
3EEA
102
{ACAD_REACTORS
330
326D
102
}
330
326D
100
AcDbScale
 70
     0
300
1:5_XREF
140
1.0
141
5.0
290
     0
  0
SCALE
  5
3EEB
102
{ACAD_REACTORS
330
326D
102
}
330
326D
100
AcDbScale
 70
     0
300
1/16" = 1'-0"_XREF
140
0.0625
141
12.0
290
     0
  0
SCALE
  5
3EEC
102
{ACAD_REACTORS
330
326D
102
}
330
326D
100
AcDbScale
 70
     0
300
1:8_XREF
140
1.0
141
8.0
290
     0
  0
SCALE
  5
3EED
102
{ACAD_REACTORS
330
326D
102
}
330
326D
100
AcDbScale
 70
     0
300
1:10_XREF
140
1.0
141
10.0
290
     0
  0
SCALE
  5
3EEE
102
{ACAD_REACTORS
330
326D
102
}
330
326D
100
AcDbScale
 70
     0
300
1:16_XREF
140
1.0
141
16.0
290
     0
  0
SCALE
  5
3EEF
102
{ACAD_REACTORS
330
326D
102
}
330
326D
100
AcDbScale
 70
     0
300
1:20_XREF
140
1.0
141
20.0
290
     0
  0
SCALE
  5
3346
102
{ACAD_REACTORS
330
326D
102
}
330
326D
100
AcDbScale
 70
     0
300
1:5_1
140
1.0
141
0.5
290
     0
  0
SCALE
  5
3EF0
102
{ACAD_REACTORS
330
326D
102
}
330
326D
100
AcDbScale
 70
     0
300
1:30_XREF
140
1.0
141
30.0
290
     0
  0
SCALE
  5
3EF1
102
{ACAD_REACTORS
330
326D
102
}
330
326D
100
AcDbScale
 70
     0
300
1:40_XREF
140
1.0
141
40.0
290
     0
  0
SCALE
  5
3EF2
102
{ACAD_REACTORS
330
326D
102
}
330
326D
100
AcDbScale
 70
     0
300
1:50_XREF
140
1.0
141
50.0
290
     0
  0
SCALE
  5
3EF3
102
{ACAD_REACTORS
330
326D
102
}
330
326D
100
AcDbScale
 70
     0
300
1 1/2" = 1'-0"_XREF
140
1.5
141
12.0
290
     0
  0
SCALE
  5
3EF4
102
{ACAD_REACTORS
330
326D
102
}
330
326D
100
AcDbScale
 70
     0
300
1:100_XREF
140
1.0
141
100.0
290
     0
  0
SCALE
  5
3EF5
102
{ACAD_REACTORS
330
326D
102
}
330
326D
100
AcDbScale
 70
     0
300
2:1_XREF
140
2.0
141
1.0
290
     0
  0
SCALE
  5
3EF6
102
{ACAD_REACTORS
330
326D
102
}
330
326D
100
AcDbScale
 70
     0
300
4:1_XREF
140
4.0
141
1.0
290
     0
  0
SCALE
  5
3EF7
102
{ACAD_REACTORS
330
326D
102
}
330
326D
100
AcDbScale
 70
     0
300
3/32" = 1'-0"_XREF
140
0.09375
141
12.0
290
     0
  0
SCALE
  5
3EF8
102
{ACAD_REACTORS
330
326D
102
}
330
326D
100
AcDbScale
 70
     0
300
8:1_XREF
140
8.0
141
1.0
290
     0
  0
SCALE
  5
3EF9
102
{ACAD_REACTORS
330
326D
102
}
330
326D
100
AcDbScale
 70
     0
300
10:1_XREF
140
10.0
141
1.0
290
     0
  0
SCALE
  5
3347
102
{ACAD_REACTORS
330
326D
102
}
330
326D
100
AcDbScale
 70
     0
300
1:20_1
140
1.0
141
2.0
290
     0
  0
SCALE
  5
3EFA
102
{ACAD_REACTORS
330
326D
102
}
330
326D
100
AcDbScale
 70
     0
300
100:1_XREF
140
100.0
141
1.0
290
     0
  0
SCALE
  5
3EFB
102
{ACAD_REACTORS
330
326D
102
}
330
326D
100
AcDbScale
 70
     0
300
1/128" = 1'-0"_XREF
140
0.0078125
141
12.0
290
     0
  0
SCALE
  5
3EFC
102
{ACAD_REACTORS
330
326D
102
}
330
326D
100
AcDbScale
 70
     0
300
1-1/2" = 1'-0"_XREF
140
1.5
141
12.0
290
     0
  0
SCALE
  5
3EFD
102
{ACAD_REACTORS
330
326D
102
}
330
326D
100
AcDbScale
 70
     0
300
1/8" = 1'-0"_XREF
140
0.125
141
12.0
290
     0
  0
SCALE
  5
3EFE
102
{ACAD_REACTORS
330
326D
102
}
330
326D
100
AcDbScale
 70
     0
300
3" = 1'-0"_XREF
140
3.0
141
12.0
290
     0
  0
SCALE
  5
3EFF
102
{ACAD_REACTORS
330
326D
102
}
330
326D
100
AcDbScale
 70
     0
300
3/16" = 1'-0"_XREF
140
0.1875
141
12.0
290
     0
  0
SCALE
  5
3F00
102
{ACAD_REACTORS
330
326D
102
}
330
326D
100
AcDbScale
 70
     0
300
1/4" = 1'-0"_XREF
140
0.25
141
12.0
290
     0
  0
SCALE
  5
3F01
102
{ACAD_REACTORS
330
326D
102
}
330
326D
100
AcDbScale
 70
     0
300
3/8" = 1'-0"_XREF
140
0.375
141
12.0
290
     0
  0
SCALE
  5
3F02
102
{ACAD_REACTORS
330
326D
102
}
330
326D
100
AcDbScale
 70
     0
300
3/4" = 1'-0"_XREF
140
0.75
141
12.0
290
     0
  0
SCALE
  5
3F03
102
{ACAD_REACTORS
330
326D
102
}
330
326D
100
AcDbScale
 70
     0
300
1" = 1'-0"_XREF
140
1.0
141
12.0
290
     0
  0
SCALE
  5
3348
102
{ACAD_REACTORS
330
326D
102
}
330
326D
100
AcDbScale
 70
     0
300
1:50_1
140
1.0
141
5.0
290
     0
  0
SCALE
  5
3F04
102
{ACAD_REACTORS
330
326D
102
}
330
326D
100
AcDbScale
 70
     0
300
6" = 1'-0"_XREF
140
6.0
141
12.0
290
     0
  0
SCALE
  5
3F05
102
{ACAD_REACTORS
330
326D
102
}
330
326D
100
AcDbScale
 70
     0
300
1'-0" = 1'-0"_XREF
140
12.0
141
12.0
290
     0
  0
SCALE
  5
3F06
102
{ACAD_REACTORS
330
326D
102
}
330
326D
100
AcDbScale
 70
     0
300
1/64" = 1'-0"_XREF
140
0.015625
141
12.0
290
     0
  0
SCALE
  5
3F07
102
{ACAD_REACTORS
330
326D
102
}
330
326D
100
AcDbScale
 70
     0
300
1/32" = 1'-0"_XREF
140
0.03125
141
12.0
290
     0
  0
SCALE
  5
3F08
102
{ACAD_REACTORS
330
326D
102
}
330
326D
100
AcDbScale
 70
     0
300
1:1_XREF
140
1.0
141
1.0
290
     0
  0
SCALE
  5
3F09
102
{ACAD_REACTORS
330
326D
102
}
330
326D
100
AcDbScale
 70
     0
300
1:2_XREF
140
1.0
141
2.0
290
     0
  0
SCALE
  5
3F0A
102
{ACAD_REACTORS
330
326D
102
}
330
326D
100
AcDbScale
 70
     0
300
1:1_3
140
1.0
141
0.1
290
     0
  0
SCALE
  5
3F0B
102
{ACAD_REACTORS
330
326D
102
}
330
326D
100
AcDbScale
 70
     0
300
1:2_3
140
1.0
141
0.2
290
     0
  0
SCALE
  5
3F0C
102
{ACAD_REACTORS
330
326D
102
}
330
326D
100
AcDbScale
 70
     0
300
1:2.5
140
1.0
141
0.25
290
     0
  0
SCALE
  5
3F0D
102
{ACAD_REACTORS
330
326D
102
}
330
326D
100
AcDbScale
 70
     0
300
1:5_3
140
1.0
141
0.5
290
     0
  0
SCALE
  5
3349
102
{ACAD_REACTORS
330
326D
102
}
330
326D
100
AcDbScale
 70
     0
300
1:100_1
140
1.0
141
10.0
290
     0
  0
SCALE
  5
3F0E
102
{ACAD_REACTORS
330
326D
102
}
330
326D
100
AcDbScale
 70
     0
300
1:7.5
140
1.0
141
0.75
290
     0
  0
SCALE
  5
3F0F
102
{ACAD_REACTORS
330
326D
102
}
330
326D
100
AcDbScale
 70
     0
300
1:10_3
140
1.0
141
1.0
290
     0
  0
SCALE
  5
3F10
102
{ACAD_REACTORS
330
326D
102
}
330
326D
100
AcDbScale
 70
     0
300
1:20_3
140
1.0
141
2.0
290
     0
  0
SCALE
  5
3F11
102
{ACAD_REACTORS
330
326D
102
}
330
326D
100
AcDbScale
 70
     0
300
1:25
140
1.0
141
2.5
290
     0
  0
SCALE
  5
3F12
102
{ACAD_REACTORS
330
326D
102
}
330
326D
100
AcDbScale
 70
     0
300
1:50_3
140
1.0
141
5.0
290
     0
  0
SCALE
  5
3F13
102
{ACAD_REACTORS
330
326D
102
}
330
326D
100
AcDbScale
 70
     0
300
1:75
140
1.0
141
7.5
290
     0
  0
SCALE
  5
3F14
102
{ACAD_REACTORS
330
326D
102
}
330
326D
100
AcDbScale
 70
     0
300
1:100_3
140
1.0
141
10.0
290
     0
  0
SCALE
  5
3F15
102
{ACAD_REACTORS
330
326D
102
}
330
326D
100
AcDbScale
 70
     0
300
1:150
140
1.0
141
15.0
290
     0
  0
SCALE
  5
3F16
102
{ACAD_REACTORS
330
326D
102
}
330
326D
100
AcDbScale
 70
     0
300
1:200
140
1.0
141
20.0
290
     0
  0
SCALE
  5
3F17
102
{ACAD_REACTORS
330
326D
102
}
330
326D
100
AcDbScale
 70
     0
300
1:250
140
1.0
141
25.0
290
     0
  0
SCALE
  5
334A
102
{ACAD_REACTORS
330
326D
102
}
330
326D
100
AcDbScale
 70
     0
300
1:1_2
140
1.0
141
1.0
290
     0
  0
SCALE
  5
3F18
102
{ACAD_REACTORS
330
326D
102
}
330
326D
100
AcDbScale
 70
     0
300
1:500
140
1.0
141
50.0
290
     0
  0
SCALE
  5
3F19
102
{ACAD_REACTORS
330
326D
102
}
330
326D
100
AcDbScale
 70
     0
300
1:750
140
1.0
141
75.0
290
     0
  0
SCALE
  5
3F1A
102
{ACAD_REACTORS
330
326D
102
}
330
326D
100
AcDbScale
 70
     0
300
1:1000
140
1.0
141
100.0
290
     0
  0
SCALE
  5
3F1B
102
{ACAD_REACTORS
330
326D
102
}
330
326D
100
AcDbScale
 70
     0
300
1:1250
140
1.0
141
125.0
290
     0
  0
SCALE
  5
3F1C
102
{ACAD_REACTORS
330
326D
102
}
330
326D
100
AcDbScale
 70
     0
300
1:2000
140
1.0
141
200.0
290
     0
  0
SCALE
  5
3F1D
102
{ACAD_REACTORS
330
326D
102
}
330
326D
100
AcDbScale
 70
     0
300
1:2500
140
1.0
141
250.0
290
     0
  0
SCALE
  5
3F1E
102
{ACAD_REACTORS
330
326D
102
}
330
326D
100
AcDbScale
 70
     0
300
1:5000
140
1.0
141
500.0
290
     0
  0
SCALE
  5
6DA8
102
{ACAD_REACTORS
330
326D
102
}
330
326D
100
AcDbScale
 70
     0
300
1:10_4
140
1.0
141
1.0
290
     0
  0
SCALE
  5
6DA9
102
{ACAD_REACTORS
330
326D
102
}
330
326D
100
AcDbScale
 70
     0
300
1:2_4
140
1.0
141
0.2
290
     0
  0
SCALE
  5
6DAA
102
{ACAD_REACTORS
330
326D
102
}
330
326D
100
AcDbScale
 70
     0
300
1:5_4
140
1.0
141
0.5
290
     0
  0
SCALE
  5
334B
102
{ACAD_REACTORS
330
326D
102
}
330
326D
100
AcDbScale
 70
     0
300
1:2_2
140
1.0
141
2.0
290
     0
  0
SCALE
  5
6DAB
102
{ACAD_REACTORS
330
326D
102
}
330
326D
100
AcDbScale
 70
     0
300
1:20_4
140
1.0
141
2.0
290
     0
  0
SCALE
  5
6DAC
102
{ACAD_REACTORS
330
326D
102
}
330
326D
100
AcDbScale
 70
     0
300
1:50_4
140
1.0
141
5.0
290
     0
  0
SCALE
  5
6DAD
102
{ACAD_REACTORS
330
326D
102
}
330
326D
100
AcDbScale
 70
     0
300
1:100_4
140
1.0
141
10.0
290
     0
  0
SCALE
  5
6DAE
102
{ACAD_REACTORS
330
326D
102
}
330
326D
100
AcDbScale
 70
     0
300
1:1_4
140
1.0
141
0.1
290
     0
  0
SCALE
  5
6DAF
102
{ACAD_REACTORS
330
326D
102
}
330
326D
100
AcDbScale
 70
     0
300
1:1_1_2
140
1.0
141
1.0
290
     0
  0
SCALE
  5
6DB0
102
{ACAD_REACTORS
330
326D
102
}
330
326D
100
AcDbScale
 70
     0
300
1:2_1_2
140
1.0
141
2.0
290
     0
  0
SCALE
  5
6DB1
102
{ACAD_REACTORS
330
326D
102
}
330
326D
100
AcDbScale
 70
     0
300
1:5_1_2
140
1.0
141
5.0
290
     0
  0
SCALE
  5
6DB2
102
{ACAD_REACTORS
330
326D
102
}
330
326D
100
AcDbScale
 70
     0
300
1:10_1_2
140
1.0
141
10.0
290
     0
  0
SCALE
  5
6DB3
102
{ACAD_REACTORS
330
326D
102
}
330
326D
100
AcDbScale
 70
     0
300
1:20_1_2
140
1.0
141
20.0
290
     0
  0
SCALE
  5
6DB4
102
{ACAD_REACTORS
330
326D
102
}
330
326D
100
AcDbScale
 70
     0
300
1:50_1_2
140
1.0
141
50.0
290
     0
  0
SCALE
  5
334C
102
{ACAD_REACTORS
330
326D
102
}
330
326D
100
AcDbScale
 70
     0
300
1:5_2
140
1.0
141
5.0
290
     0
  0
SCALE
  5
6DB5
102
{ACAD_REACTORS
330
326D
102
}
330
326D
100
AcDbScale
 70
     0
300
1:100_1_2
140
1.0
141
100.0
290
     0
  0
SCALE
  5
326E
102
{ACAD_REACTORS
330
326D
102
}
330
326D
100
AcDbScale
 70
     0
300
1:1
140
1.0
141
1.0
290
     1
  0
SCALE
  5
326F
102
{ACAD_REACTORS
330
326D
102
}
330
326D
100
AcDbScale
 70
     0
300
1:2
140
1.0
141
2.0
290
     0
  0
SCALE
  5
3270
102
{ACAD_REACTORS
330
326D
102
}
330
326D
100
AcDbScale
 70
     0
300
1:4
140
1.0
141
4.0
290
     0
  0
SCALE
  5
3271
102
{ACAD_REACTORS
330
326D
102
}
330
326D
100
AcDbScale
 70
     0
300
1:5
140
1.0
141
5.0
290
     0
  0
SCALE
  5
3272
102
{ACAD_REACTORS
330
326D
102
}
330
326D
100
AcDbScale
 70
     0
300
1:8
140
1.0
141
8.0
290
     0
  0
SCALE
  5
3273
102
{ACAD_REACTORS
330
326D
102
}
330
326D
100
AcDbScale
 70
     0
300
1:10
140
1.0
141
10.0
290
     0
  0
SCALE
  5
3274
102
{ACAD_REACTORS
330
326D
102
}
330
326D
100
AcDbScale
 70
     0
300
1:16
140
1.0
141
16.0
290
     0
  0
SCALE
  5
3275
102
{ACAD_REACTORS
330
326D
102
}
330
326D
100
AcDbScale
 70
     0
300
1:20
140
1.0
141
20.0
290
     0
  0
SCALE
  5
3276
102
{ACAD_REACTORS
330
326D
102
}
330
326D
100
AcDbScale
 70
     0
300
1:30
140
1.0
141
30.0
290
     0
  0
SCALE
  5
3277
102
{ACAD_REACTORS
330
326D
102
}
330
326D
100
AcDbScale
 70
     0
300
1:40
140
1.0
141
40.0
290
     0
  0
SCALE
  5
3278
102
{ACAD_REACTORS
330
326D
102
}
330
326D
100
AcDbScale
 70
     0
300
1:50
140
1.0
141
50.0
290
     0
  0
SCALE
  5
3279
102
{ACAD_REACTORS
330
326D
102
}
330
326D
100
AcDbScale
 70
     0
300
1:100
140
1.0
141
100.0
290
     0
  0
SCALE
  5
327A
102
{ACAD_REACTORS
330
326D
102
}
330
326D
100
AcDbScale
 70
     0
300
2:1
140
2.0
141
1.0
290
     0
  0
SCALE
  5
327B
102
{ACAD_REACTORS
330
326D
102
}
330
326D
100
AcDbScale
 70
     0
300
4:1
140
4.0
141
1.0
290
     0
  0
SCALE
  5
327C
102
{ACAD_REACTORS
330
326D
102
}
330
326D
100
AcDbScale
 70
     0
300
8:1
140
8.0
141
1.0
290
     0
  0
SCALE
  5
327D
102
{ACAD_REACTORS
330
326D
102
}
330
326D
100
AcDbScale
 70
     0
300
10:1
140
10.0
141
1.0
290
     0
  0
SCALE
  5
327E
102
{ACAD_REACTORS
330
326D
102
}
330
326D
100
AcDbScale
 70
     0
300
100:1
140
100.0
141
1.0
290
     0
  0
SCALE
  5
327F
102
{ACAD_REACTORS
330
326D
102
}
330
326D
100
AcDbScale
 70
     0
300
1/128" = 1'-0"
140
0.0078125
141
12.0
290
     0
  0
SCALE
  5
3280
102
{ACAD_REACTORS
330
326D
102
}
330
326D
100
AcDbScale
 70
     0
300
1/64" = 1'-0"
140
0.015625
141
12.0
290
     0
  0
SCALE
  5
3281
102
{ACAD_REACTORS
330
326D
102
}
330
326D
100
AcDbScale
 70
     0
300
1/32" = 1'-0"
140
0.03125
141
12.0
290
     0
  0
SCALE
  5
3282
102
{ACAD_REACTORS
330
326D
102
}
330
326D
100
AcDbScale
 70
     0
300
1/16" = 1'-0"
140
0.0625
141
12.0
290
     0
  0
SCALE
  5
3283
102
{ACAD_REACTORS
330
326D
102
}
330
326D
100
AcDbScale
 70
     0
300
3/32" = 1'-0"
140
0.09375
141
12.0
290
     0
  0
SCALE
  5
3284
102
{ACAD_REACTORS
330
326D
102
}
330
326D
100
AcDbScale
 70
     0
300
1/8" = 1'-0"
140
0.125
141
12.0
290
     0
  0
SCALE
  5
3285
102
{ACAD_REACTORS
330
326D
102
}
330
326D
100
AcDbScale
 70
     0
300
3/16" = 1'-0"
140
0.1875
141
12.0
290
     0
  0
SCALE
  5
3286
102
{ACAD_REACTORS
330
326D
102
}
330
326D
100
AcDbScale
 70
     0
300
1/4" = 1'-0"
140
0.25
141
12.0
290
     0
  0
SCALE
  5
3287
102
{ACAD_REACTORS
330
326D
102
}
330
326D
100
AcDbScale
 70
     0
300
3/8" = 1'-0"
140
0.375
141
12.0
290
     0
  0
SCALE
  5
3288
102
{ACAD_REACTORS
330
326D
102
}
330
326D
100
AcDbScale
 70
     0
300
1/2" = 1'-0"
140
0.5
141
12.0
290
     0
  0
SCALE
  5
3289
102
{ACAD_REACTORS
330
326D
102
}
330
326D
100
AcDbScale
 70
     0
300
3/4" = 1'-0"
140
0.75
141
12.0
290
     0
  0
SCALE
  5
328A
102
{ACAD_REACTORS
330
326D
102
}
330
326D
100
AcDbScale
 70
     0
300
1" = 1'-0"
140
1.0
141
12.0
290
     0
  0
SCALE
  5
328B
102
{ACAD_REACTORS
330
326D
102
}
330
326D
100
AcDbScale
 70
     0
300
1-1/2" = 1'-0"
140
1.5
141
12.0
290
     0
  0
SCALE
  5
328C
102
{ACAD_REACTORS
330
326D
102
}
330
326D
100
AcDbScale
 70
     0
300
3" = 1'-0"
140
3.0
141
12.0
290
     0
  0
SCALE
  5
328D
102
{ACAD_REACTORS
330
326D
102
}
330
326D
100
AcDbScale
 70
     0
300
6" = 1'-0"
140
6.0
141
12.0
290
     0
  0
SCALE
  5
328E
102
{ACAD_REACTORS
330
326D
102
}
330
326D
100
AcDbScale
 70
     0
300
1'-0" = 1'-0"
140
12.0
141
12.0
290
     0
  0
TABLESTYLE
  5
326C
102
{ACAD_XDICTIONARY
360
7091
102
}
102
{ACAD_REACTORS
330
326B
102
}
330
326B
100
AcDbTableStyle
  3
Standard
 70
     0
 71
     0
 40
0.06
 41
0.06
280
     0
281
     0
  7
Standard
140
0.18
170
     2
 62
     0
 63
     7
283
     0
274
    -2
284
     1
 64
     0
275
    -2
285
     1
 65
     0
276
    -2
286
     1
 66
     0
277
    -2
287
     1
 67
     0
278
    -2
288
     1
 68
     0
279
    -2
289
     1
 69
     0
  7
Standard
140
0.25
170
     5
 62
     0
 63
     7
283
     0
274
    -2
284
     1
 64
     0
275
    -2
285
     1
 65
     0
276
    -2
286
     1
 66
     0
277
    -2
287
     1
 67
     0
278
    -2
288
     1
 68
     0
279
    -2
289
     1
 69
     0
  7
Standard
140
0.18
170
     5
 62
     0
 63
     7
283
     0
274
    -2
284
     1
 64
     0
275
    -2
285
     1
 65
     0
276
    -2
286
     1
 66
     0
277
    -2
287
     1
 67
     0
278
    -2
288
     1
 68
     0
279
    -2
289
     1
 69
     0
  0
VISUALSTYLE
  5
3260
102
{ACAD_REACTORS
330
325A
102
}
330
325A
100
AcDbVisualStyle
  2
2dWireframe
 70
     4
 71
     0
 72
     2
 73
     0
 90
        0
 40
-0.6
 41
-30.0
 62
     5
 63
     7
 74
     1
 91
        4
 64
     7
 65
   257
 75
     1
175
     1
 42
1.0
 92
        0
 66
   257
 43
1.0
 76
     1
 77
     6
 78
     2
 67
     7
 79
     5
170
     0
171
     0
290
     0
174
     0
 93
        1
 44
0.0
173
     0
291
     0
 45
0.0
1001
ACAD
1000
AcDbSavedByObjectVersion
1070
     0
  0
VISUALSTYLE
  5
3262
102
{ACAD_REACTORS
330
325A
102
}
330
325A
100
AcDbVisualStyle
  2
3D Hidden
 70
     6
 71
     1
 72
     2
 73
     2
 90
        0
 40
-0.6
 41
-30.0
 62
     5
 63
     7
 74
     2
 91
        2
 64
     7
 65
   257
 75
     2
175
     1
 42
40.0
 92
        0
 66
   257
 43
1.0
 76
     1
 77
     6
 78
     2
 67
     7
 79
     3
170
     0
171
     0
290
     0
174
     0
 93
        1
 44
0.0
173
     0
291
     0
 45
0.0
1001
ACAD
1000
AcDbSavedByObjectVersion
1070
     0
  0
VISUALSTYLE
  5
3261
102
{ACAD_REACTORS
330
325A
102
}
330
325A
100
AcDbVisualStyle
  2
3dWireframe
 70
     5
 71
     0
 72
     2
 73
     0
 90
        0
 40
-0.6
 41
-30.0
 62
     5
 63
     7
 74
     1
 91
        4
 64
     7
 65
   257
 75
     1
175
     1
 42
1.0
 92
        0
 66
   257
 43
1.0
 76
     1
 77
     6
 78
     2
 67
     7
 79
     5
170
     0
171
     0
290
     0
174
     0
 93
        1
 44
0.0
173
     0
291
     0
 45
0.0
1001
ACAD
1000
AcDbSavedByObjectVersion
1070
     0
  0
VISUALSTYLE
  5
325F
102
{ACAD_REACTORS
330
325A
102
}
330
325A
100
AcDbVisualStyle
  2
Basic
 70
     7
 71
     1
 72
     0
 73
     1
 90
        0
 40
-0.6
 41
-30.0
 62
     5
 63
     7
 74
     0
 91
        4
 64
     7
 65
   257
 75
     1
175
     1
 42
1.0
 92
        8
 66
     7
 43
1.0
 76
     1
 77
     6
 78
     2
 67
     7
 79
     5
170
     0
171
     0
290
     0
174
     0
 93
        1
 44
0.0
173
     0
291
     1
 45
0.0
1001
ACAD
1000
AcDbSavedByObjectVersion
1070
     0
  0
VISUALSTYLE
  5
3266
102
{ACAD_REACTORS
330
325A
102
}
330
325A
100
AcDbVisualStyle
  2
Brighten
 70
    12
 71
     2
 72
     2
 73
     0
 90
        0
 40
-0.6
 41
-30.0
 62
     5
 63
     7
 74
     1
 91
        4
 64
     7
 65
   257
 75
     1
175
     1
 42
1.0
 92
        8
 66
     7
 43
1.0
 76
     1
 77
     6
 78
     2
 67
     7
 79
     5
170
     0
171
     0
290
     0
174
     0
 93
        1
 44
50.0
173
     0
291
     1
 45
0.0
1001
ACAD
1000
AcDbSavedByObjectVersion
1070
     0
  0
VISUALSTYLE
  5
326A
102
{ACAD_REACTORS
330
325A
102
}
330
325A
100
AcDbVisualStyle
  2
ColorChange
 70
    16
 71
     2
 72
     2
 73
     3
 90
        0
 40
-0.6
 41
-30.0
 62
     5
 63
     8
 74
     1
 91
        4
 64
     7
 65
   257
 75
     1
175
     1
 42
1.0
 92
        8
 66
     8
 43
1.0
 76
     1
 77
     6
 78
     2
 67
     7
 79
     5
170
     0
171
     0
290
     0
174
     0
 93
        1
 44
0.0
173
     0
291
     1
 45
0.0
1001
ACAD
1000
AcDbSavedByObjectVersion
1070
     0
  0
VISUALSTYLE
  5
3263
102
{ACAD_REACTORS
330
325A
102
}
330
325A
100
AcDbVisualStyle
  2
Conceptual
 70
     9
 71
     3
 72
     2
 73
     0
 90
        0
 40
-0.6
 41
-30.0
 62
     5
 63
     7
 74
     2
 91
        2
 64
     7
 65
   257
 75
     1
175
     1
 42
40.0
 92
        8
 66
     7
 43
1.0
 76
     1
 77
     6
 78
     2
 67
     7
 79
     3
170
     0
171
     0
290
     0
174
     0
 93
        1
 44
0.0
173
     0
291
     0
 45
0.0
1001
ACAD
1000
AcDbSavedByObjectVersion
1070
     0
  0
VISUALSTYLE
  5
3265
102
{ACAD_REACTORS
330
325A
102
}
330
325A
100
AcDbVisualStyle
  2
Dim
 70
    11
 71
     2
 72
     2
 73
     0
 90
        0
 40
-0.6
 41
-30.0
 62
     5
 63
     7
 74
     1
 91
        4
 64
     7
 65
   257
 75
     1
175
     1
 42
1.0
 92
        8
 66
     7
 43
1.0
 76
     1
 77
     6
 78
     2
 67
     7
 79
     5
170
     0
171
     0
290
     0
174
     0
 93
        1
 44
-50.0
173
     0
291
     1
 45
0.0
1001
ACAD
1000
AcDbSavedByObjectVersion
1070
     0
  0
VISUALSTYLE
  5
3269
102
{ACAD_REACTORS
330
325A
102
}
330
325A
100
AcDbVisualStyle
  2
Facepattern
 70
    15
 71
     2
 72
     2
 73
     0
 90
        0
 40
-0.6
 41
-30.0
 62
     5
 63
     7
 74
     1
 91
        4
 64
     7
 65
   257
 75
     1
175
     1
 42
1.0
 92
        8
 66
     7
 43
1.0
 76
     1
 77
     6
 78
     2
 67
     7
 79
     5
170
     0
171
     0
290
     0
174
     0
 93
        1
 44
0.0
173
     0
291
     1
 45
0.0
1001
ACAD
1000
AcDbSavedByObjectVersion
1070
     0
  0
VISUALSTYLE
  5
325B
102
{ACAD_REACTORS
330
325A
102
}
330
325A
100
AcDbVisualStyle
  2
Flat
 70
     0
 71
     2
 72
     1
 73
     1
 90
        2
 40
-0.6
 41
30.0
 62
     5
 63
     7
 74
     0
 91
        4
 64
     7
 65
   257
 75
     1
175
     1
 42
1.0
 92
        8
 66
     7
 43
1.0
 76
     1
 77
     6
 78
     2
 67
     7
 79
     5
170
     0
171
     0
290
     0
174
     0
 93
       13
 44
0.0
173
     0
291
     0
 45
0.0
1001
ACAD
1000
AcDbSavedByObjectVersion
1070
     0
  0
VISUALSTYLE
  5
325C
102
{ACAD_REACTORS
330
325A
102
}
330
325A
100
AcDbVisualStyle
  2
FlatWithEdges
 70
     1
 71
     2
 72
     1
 73
     1
 90
        2
 40
-0.6
 41
30.0
 62
     5
 63
     7
 74
     1
 91
        4
 64
     7
 65
   257
 75
     1
175
     1
 42
1.0
 92
        0
 66
   257
 43
1.0
 76
     1
 77
     6
 78
     2
 67
     7
 79
     5
170
     0
171
     0
290
     0
174
     0
 93
       13
 44
0.0
173
     0
291
     0
 45
0.0
1001
ACAD
1000
AcDbSavedByObjectVersion
1070
     0
  0
VISUALSTYLE
  5
325D
102
{ACAD_REACTORS
330
325A
102
}
330
325A
100
AcDbVisualStyle
  2
Gouraud
 70
     2
 71
     2
 72
     2
 73
     1
 90
        2
 40
-0.6
 41
30.0
 62
     5
 63
     7
 74
     0
 91
        4
 64
     7
 65
   257
 75
     1
175
     1
 42
1.0
 92
        0
 66
     7
 43
1.0
 76
     1
 77
     6
 78
     2
 67
     7
 79
     5
170
     0
171
     0
290
     0
174
     0
 93
       13
 44
0.0
173
     0
291
     0
 45
0.0
1001
ACAD
1000
AcDbSavedByObjectVersion
1070
     0
  0
VISUALSTYLE
  5
325E
102
{ACAD_REACTORS
330
325A
102
}
330
325A
100
AcDbVisualStyle
  2
GouraudWithEdges
 70
     3
 71
     2
 72
     2
 73
     1
 90
        2
 40
-0.6
 41
30.0
 62
     5
 63
     7
 74
     1
 91
        4
 64
     7
 65
   257
 75
     1
175
     1
 42
1.0
 92
        0
 66
   257
 43
1.0
 76
     1
 77
     6
 78
     2
 67
     7
 79
     5
170
     0
171
     0
290
     0
174
     0
 93
       13
 44
0.0
173
     0
291
     0
 45
0.0
1001
ACAD
1000
AcDbSavedByObjectVersion
1070
     0
  0
VISUALSTYLE
  5
3268
102
{ACAD_REACTORS
330
325A
102
}
330
325A
100
AcDbVisualStyle
  2
Linepattern
 70
    14
 71
     2
 72
     2
 73
     0
 90
        0
 40
-0.6
 41
-30.0
 62
     5
 63
     7
 74
     1
 91
        4
 64
     7
 65
   257
 75
     7
175
     7
 42
1.0
 92
        8
 66
     7
 43
1.0
 76
     1
 77
     6
 78
     2
 67
     7
 79
     5
170
     0
171
     0
290
     0
174
     0
 93
        1
 44
0.0
173
     0
291
     1
 45
0.0
1001
ACAD
1000
AcDbSavedByObjectVersion
1070
     0
  0
VISUALSTYLE
  5
3299
102
{ACAD_REACTORS
330
325A
102
}
330
325A
100
AcDbVisualStyle
  2

 70
     8
 71
     2
 72
     2
 73
     0
 90
        0
 40
-0.6
 41
-30.0
 62
     5
 63
     7
 74
     0
 91
        0
 64
     7
 65
   257
 75
     1
175
     1
 42
1.0
 92
        8
 66
     8
 43
1.0
 76
     1
 77
     6
 78
     2
 67
     7
 79
     5
170
     0
171
     0
290
     0
174
     0
 93
       13
 44
0.0
173
     0
291
     0
 45
0.0
1001
ACAD
1000
AcDbSavedByObjectVersion
1070
     0
  0
VISUALSTYLE
  5
329A
102
{ACAD_REACTORS
330
325A
102
}
330
325A
100
AcDbVisualStyle
  2

 70
     8
 71
     2
 72
     2
 73
     0
 90
        0
 40
-0.6
 41
-30.0
 62
     5
 63
     7
 74
     1
 91
        0
 64
     7
 65
   257
 75
     1
175
     1
 42
1.0
 92
        8
 66
     8
 43
1.0
 76
     1
 77
     6
 78
     2
 67
     7
 79
     5
170
     0
171
     0
290
     0
174
     0
 93
       13
 44
0.0
173
     0
291
     0
 45
0.0
1001
ACAD
1000
AcDbSavedByObjectVersion
1070
     0
  0
VISUALSTYLE
  5
3264
102
{ACAD_REACTORS
330
325A
102
}
330
325A
100
AcDbVisualStyle
  2
Realistic
 70
     8
 71
     2
 72
     2
 73
     0
 90
        0
 40
-0.6
 41
-30.0
 62
     5
 63
     7
 74
     1
 91
        0
 64
     7
 65
   257
 75
     1
175
     1
 42
1.0
 92
        8
 66
     8
 43
1.0
 76
     1
 77
     6
 78
     2
 67
     7
 79
     5
170
     0
171
     0
290
     0
174
     0
 93
       13
 44
0.0
173
     0
291
     0
 45
0.0
1001
ACAD
1000
AcDbSavedByObjectVersion
1070
     0
  0
VISUALSTYLE
  5
3267
102
{ACAD_REACTORS
330
325A
102
}
330
325A
100
AcDbVisualStyle
  2
Thicken
 70
    13
 71
     2
 72
     2
 73
     0
 90
        0
 40
-0.6
 41
-30.0
 62
     5
 63
     7
 74
     1
 91
        4
 64
     7
 65
   257
 75
     1
175
     1
 42
1.0
 92
       12
 66
     7
 43
1.0
 76
     1
 77
     6
 78
     2
 67
     7
 79
     5
170
     0
171
     0
290
     0
174
     0
 93
        1
 44
0.0
173
     0
291
     1
 45
0.0
1001
ACAD
1000
AcDbSavedByObjectVersion
1070
     0
  0
DICTIONARYVAR
  5
708C
102
{ACAD_REACTORS
330
7089
102
}
330
7089
100
DictionaryVariables
280
     0
  1
1:1
  0
DICTIONARYVAR
  5
708B
102
{ACAD_REACTORS
330
7089
102
}
330
7089
100
DictionaryVariables
280
     0
  1
STANDARD
  0
DICTIONARYVAR
  5
708A
102
{ACAD_REACTORS
330
7089
102
}
330
7089
100
DictionaryVariables
280
     0
  1
STANDARD
  0
DICTIONARYVAR
  5
7090
102
{ACAD_REACTORS
330
7089
102
}
330
7089
100
DictionaryVariables
280
     0
  1
1
  0
DICTIONARYVAR
  5
708F
102
{ACAD_REACTORS
330
7089
102
}
330
7089
100
DictionaryVariables
280
     0
  1
1
  0
DICTIONARYVAR
  5
708E
102
{ACAD_REACTORS
330
7089
102
}
330
7089
100
DictionaryVariables
280
     0
  1
0
  0
DICTIONARYVAR
  5
708D
102
{ACAD_REACTORS
330
7089
102
}
330
7089
100
DictionaryVariables
280
     0
  1
127
  0
XRECORD
  5
323C
102
{ACAD_REACTORS
330
323B
102
}
330
323B
100
AcDbXrecord
280
     1
330
2288
1004
01000000FFFFFFFF0000000001000000
1000
ALFABET-Arial37
330
2289
1004
FFFFFFFF0000000001000000
1000
ALFABET-Arial37
  0
XRECORD
  5
323D
102
{ACAD_REACTORS
330
323B
102
}
330
323B
100
AcDbXrecord
280
     1
330
182
330
183
330
2686
330
2687
330
267F
330
2680
330
2678
330
2679
330
2671
330
2672
330
266A
330
266B
330
2663
330
2664
330
265C
330
265D
330
2655
330
2656
330
264C
330
264D
330
271C
330
271D
330
2723
330
2724
330
272A
330
272B
330
2731
330
2732
330
2738
330
2739
330
273F
330
2740
330
2746
330
2747
330
274F
330
2750
330
2756
330
2757
330
2978
330
2979
330
296E
330
296F
330
2964
330
2965
330
295A
330
295B
330
2950
330
2951
330
2873
330
2874
330
287D
330
287E
330
2946
330
2947
330
293C
330
293D
330
2932
330
2933
330
2928
330
2929
330
291E
330
291F
330
2914
330
2915
330
290A
330
290B
330
2900
330
2901
330
28F6
330
28F7
330
28EC
330
28ED
330
28E2
330
28E3
330
28D8
330
28D9
330
28CE
330
28CF
330
28C4
330
28C5
330
28B9
330
28BA
330
28AC
330
28AD
330
28A2
330
28A3
330
2800
330
2801
330
2803
330
2804
330
2805
330
2806
330
2807
330
2808
330
285D
330
285E
330
285F
330
2860
330
3008
330
3009
330
3001
330
3002
330
2FFA
330
2FFB
330
2FF3
330
2FF4
330
2FEC
330
2FED
330
2FE5
330
2FE6
330
3024
330
3025
330
2FDE
330
2FDF
330
2FD7
330
2FD8
330
3016
330
3017
330
2FC9
330
2FCA
330
2FC2
330
2FC3
330
2FBB
330
2FBC
330
301D
330
301E
330
2FAD
330
2FAE
330
2FA6
330
2FA7
330
2F9F
330
2FA0
330
2F98
330
2F99
330
2F91
330
2F92
330
2F89
330
2F8A
330
2F7F
330
2F80
330
2F78
330
2F79
330
2F71
330
2F72
330
2F6A
330
2F6B
330
308C
330
308D
330
3097
330
3098
330
316F
330
3170
330
3168
330
3169
330
3161
330
3162
330
3158
330
3159
330
3151
330
3152
330
314A
330
314B
330
3143
330
3144
330
313A
330
313B
330
3110
330
3111
330
311B
330
311C
330
3126
330
3127
330
3131
330
3132
330
3200
330
3201
330
3207
330
3208
330
3210
330
3211
330
3217
330
3218
330
321E
330
321F
330
3225
330
3226
330
322E
330
322F
330
3235
330
3236
  0
ACAD_PROXY_OBJECT
  5
2283
102
{ACAD_REACTORS
330
2282
102
}
330
2282
100
AcDbProxyObject
 90
      499
 91
      741
 95
   131097
 70
     0
 93
        0
 94
        0
1001
DCO15
1000
jet_dbsamples...ALFABET(ALFABET-Arial37)
1000
liter_alf
1040
1.0
1040
1.0
1040
0.0
1040
0.0
1040
0.0
1040
0.0
1040
0.0
1040
37.0
1071
        0
1071
      256
1071
        7
1071
        5
1071
        1
1000

1000
ByLayer
1000
{\fArial|b0|i0|c238|p34;#(liter_alf)}
1001
ACAD
1000
AcRTDxfName
1000
OBJECT_PTR
  0
ACAD_PROXY_OBJECT
  5
2281
102
{ACAD_REACTORS
330
2280
102
}
330
2280
100
AcDbProxyObject
 90
      499
 91
      741
 95
   131097
 70
     0
 93
        0
 94
        0
1001
DCO15
1000
jet_dbsamples...ALFABET(ALFABETLink1)
1000
IDENTYFIKATOR
1000

1000

1070
     4
1070
     0
1070
     0
1070
     0
1070
  1024
1001
ACAD
1000
AcRTDxfName
1000
OBJECT_PTR
  0
DICTIONARY
  5
7097
330
10
100
AcDbDictionary
280
     1
281
     1
  3
ACAD_XREC_ROUNDTRIP
360
7098
  0
DICTIONARY
  5
7095
330
A
100
AcDbDictionary
280
     1
281
     1
  3
ACAD_XREC_ROUNDTRIP
360
7096
  0
DICTIONARY
  5
324B
330
324A
100
AcDbDictionary
280
     1
281
     1
  3
ACAD_XREC_ROUNDTRIP
360
709C
  3
BUMPTILE
360
324D
  3
DIFFUSETILE
360
324C
  3
OPACITYTILE
360
3250
  3
REFLECTIONTILE
360
324F
  3
REFRACTIONTILE
360
3251
  3
SPECULARTILE
360
324E
  0
DICTIONARY
  5
3243
330
3242
100
AcDbDictionary
280
     1
281
     1
  3
ACAD_XREC_ROUNDTRIP
360
709B
  3
BUMPTILE
360
3245
  3
DIFFUSETILE
360
3244
  3
OPACITYTILE
360
3248
  3
REFLECTIONTILE
360
3247
  3
REFRACTIONTILE
360
3249
  3
SPECULARTILE
360
3246
  0
DICTIONARY
  5
3253
330
3252
100
AcDbDictionary
280
     1
281
     1
  3
ACAD_XREC_ROUNDTRIP
360
709D
  3
BUMPTILE
360
3255
  3
DIFFUSETILE
360
3254
  3
OPACITYTILE
360
3258
  3
REFLECTIONTILE
360
3257
  3
REFRACTIONTILE
360
3259
  3
SPECULARTILE
360
3256
  0
DICTIONARY
  5
7091
330
326C
100
AcDbDictionary
280
     1
281
     1
  3
ACAD_ROUNDTRIP_2008_TABLESTYLE_CELLSTYLEMAP
360
7092
  3
ACAD_XREC_ROUNDTRIP
360
709E
  0
XRECORD
  5
7098
102
{ACAD_REACTORS
330
7097
102
}
330
7097
100
AcDbXrecord
280
     1
102
SHADEPLOT
 70
     0
102
SHADEPLOTRESLEVEL
 70
     2
102
SHADEPLOTCUSTOMDPI
 70
   300
  0
XRECORD
  5
7096
102
{ACAD_REACTORS
330
7095
102
}
330
7095
100
AcDbXrecord
280
     1
102
SHADEPLOT
 70
     1
102
SHADEPLOTRESLEVEL
 70
     2
102
SHADEPLOTCUSTOMDPI
 70
   300
  0
XRECORD
  5
709C
102
{ACAD_REACTORS
330
324B
102
}
330
324B
100
AcDbXrecord
280
     1
102
MATERIAL
148
0.0
149
0.0
149
0.0
 93
        0
 94
      127
282
     0
 72
     0
 77
     0
171
     0
175
     0
179
     0
273
     0
  0
XRECORD
  5
324D
102
{ACAD_REACTORS
330
324B
102
}
330
324B
100
AcDbXrecord
280
     1
270
     1
271
     1
  0
XRECORD
  5
324C
102
{ACAD_REACTORS
330
324B
102
}
330
324B
100
AcDbXrecord
280
     1
270
     1
271
     1
  0
XRECORD
  5
3250
102
{ACAD_REACTORS
330
324B
102
}
330
324B
100
AcDbXrecord
280
     1
270
     1
271
     1
  0
XRECORD
  5
324F
102
{ACAD_REACTORS
330
324B
102
}
330
324B
100
AcDbXrecord
280
     1
270
     1
271
     1
  0
XRECORD
  5
3251
102
{ACAD_REACTORS
330
324B
102
}
330
324B
100
AcDbXrecord
280
     1
270
     1
271
     1
  0
XRECORD
  5
324E
102
{ACAD_REACTORS
330
324B
102
}
330
324B
100
AcDbXrecord
280
     1
270
     1
271
     1
  0
XRECORD
  5
709B
102
{ACAD_REACTORS
330
3243
102
}
330
3243
100
AcDbXrecord
280
     1
102
MATERIAL
148
0.0
149
0.0
149
0.0
 93
        0
 94
      127
282
     0
 72
     0
 77
     0
171
     0
175
     0
179
     0
273
     0
  0
XRECORD
  5
3245
102
{ACAD_REACTORS
330
3243
102
}
330
3243
100
AcDbXrecord
280
     1
270
     1
271
     1
  0
XRECORD
  5
3244
102
{ACAD_REACTORS
330
3243
102
}
330
3243
100
AcDbXrecord
280
     1
270
     1
271
     1
  0
XRECORD
  5
3248
102
{ACAD_REACTORS
330
3243
102
}
330
3243
100
AcDbXrecord
280
     1
270
     1
271
     1
  0
XRECORD
  5
3247
102
{ACAD_REACTORS
330
3243
102
}
330
3243
100
AcDbXrecord
280
     1
270
     1
271
     1
  0
XRECORD
  5
3249
102
{ACAD_REACTORS
330
3243
102
}
330
3243
100
AcDbXrecord
280
     1
270
     1
271
     1
  0
XRECORD
  5
3246
102
{ACAD_REACTORS
330
3243
102
}
330
3243
100
AcDbXrecord
280
     1
270
     1
271
     1
  0
XRECORD
  5
709D
102
{ACAD_REACTORS
330
3253
102
}
330
3253
100
AcDbXrecord
280
     1
102
MATERIAL
148
0.0
149
0.0
149
0.0
 93
        0
 94
      127
282
     0
 72
     0
 77
     0
171
     0
175
     0
179
     0
273
     0
  0
XRECORD
  5
3255
102
{ACAD_REACTORS
330
3253
102
}
330
3253
100
AcDbXrecord
280
     1
270
     1
271
     1
  0
XRECORD
  5
3254
102
{ACAD_REACTORS
330
3253
102
}
330
3253
100
AcDbXrecord
280
     1
270
     1
271
     1
  0
XRECORD
  5
3258
102
{ACAD_REACTORS
330
3253
102
}
330
3253
100
AcDbXrecord
280
     1
270
     1
271
     1
  0
XRECORD
  5
3257
102
{ACAD_REACTORS
330
3253
102
}
330
3253
100
AcDbXrecord
280
     1
270
     1
271
     1
  0
XRECORD
  5
3259
102
{ACAD_REACTORS
330
3253
102
}
330
3253
100
AcDbXrecord
280
     1
270
     1
271
     1
  0
XRECORD
  5
3256
102
{ACAD_REACTORS
330
3253
102
}
330
3253
100
AcDbXrecord
280
     1
270
     1
271
     1
  0
CELLSTYLEMAP
  5
7092
102
{ACAD_REACTORS
330
7091
102
}
330
7091
100
AcDbCellStyleMap
 90
        3
300
CELLSTYLE
  1
TABLEFORMAT_BEGIN
 90
        5
170
     1
 91
        0
 92
    32768
 62
   257
 93
        1
300
CONTENTFORMAT
  1
CONTENTFORMAT_BEGIN
 90
        0
 91
        0
 92
      512
 93
        0
300

 40
0.0
140
1.0
 94
        5
 62
     0
340
15
144
0.25
309
CONTENTFORMAT_END
171
     0
 94
        0
309
TABLEFORMAT_END
  1
CELLSTYLE_BEGIN
 90
        1
 91
        1
300
_TITLE
309
CELLSTYLE_END
300
CELLSTYLE
  1
TABLEFORMAT_BEGIN
 90
        5
170
     1
 91
        0
 92
        0
 62
   257
 93
        1
300
CONTENTFORMAT
  1
CONTENTFORMAT_BEGIN
 90
        0
 91
        0
 92
      512
 93
        0
300

 40
0.0
140
1.0
 94
        5
 62
     0
340
15
144
0.18
309
CONTENTFORMAT_END
171
     0
 94
        0
309
TABLEFORMAT_END
  1
CELLSTYLE_BEGIN
 90
        2
 91
        1
300
_HEADER
309
CELLSTYLE_END
300
CELLSTYLE
  1
TABLEFORMAT_BEGIN
 90
        5
170
     1
 91
        0
 92
        0
 62
   257
 93
        1
300
CONTENTFORMAT
  1
CONTENTFORMAT_BEGIN
 90
        0
 91
        0
 92
      512
 93
        0
300

 40
0.0
140
1.0
 94
        2
 62
     0
340
15
144
0.18
309
CONTENTFORMAT_END
171
     0
 94
        0
309
TABLEFORMAT_END
  1
CELLSTYLE_BEGIN
 90
        3
 91
        2
300
_DATA
309
CELLSTYLE_END
  0
XRECORD
  5
709E
102
{ACAD_REACTORS
330
7091
102
}
330
7091
100
AcDbXrecord
280
     1
102
ACAD_ROUNDTRIP_PRE2007_TABLESTYLE
 90
      512
 91
        0
  1

 92
      512
 93
        0
  2

 94
      512
 95
        0
  3

  0
ENDSEC
  0
EOF
