  0
SECTION
  2
HEADER
  9
$ACADVER
  1
AC1015
  9
$ACADMAINTVER
 70
    18
  9
$DWGCODEPAGE
  3
ANSI_1250
  9
$INSBASE
 10
215187.233673673
 20
127657.5168525552
 30
0.0
  9
$EXTMIN
 10
1.000000000000000E+20
 20
1.000000000000000E+20
 30
1.000000000000000E+20
  9
$EXTMAX
 10
0.0
 20
0.0
 30
0.0
  9
$LIMMIN
 10
0.0
 20
0.0
  9
$LIMMAX
 10
420.0
 20
297.0
  9
$ORTHOMODE
 70
     0
  9
$REGENMODE
 70
     1
  9
$FILLMODE
 70
     1
  9
$QTEXTMODE
 70
     0
  9
$MIRRTEXT
 70
     0
  9
$LTSCALE
 40
75.0
  9
$ATTMODE
 70
     1
  9
$TEXTSIZE
 40
20.0
  9
$TRACEWID
 40
1.0
  9
$TEXTSTYLE
  7
ROMANS
  9
$CLAYER
  8
0
  9
$CELTYPE
  6
ByLayer
  9
$CECOLOR
 62
   256
  9
$CELTSCALE
 40
1.0
  9
$DISPSILH
 70
     0
  9
$DIMSCALE
 40
10.0
  9
$DIMASZ
 40
30.0
  9
$DIMEXO
 40
43.0
  9
$DIMDLI
 40
0.0
  9
$DIMRND
 40
0.5
  9
$DIMDLE
 40
12.0
  9
$DIMEXE
 40
13.0
  9
$DIMTP
 40
0.0
  9
$DIMTM
 40
0.0
  9
$DIMTXT
 40
80.0
  9
$DIMCEN
 40
0.0
  9
$DIMTSZ
 40
0.0
  9
$DIMTOL
 70
     0
  9
$DIMLIM
 70
     0
  9
$DIMTIH
 70
     0
  9
$DIMTOH
 70
     0
  9
$DIMSE1
 70
     1
  9
$DIMSE2
 70
     1
  9
$DIMTAD
 70
     0
  9
$DIMZIN
 70
    12
  9
$DIMBLK
  1
B-DIM
  9
$DIMASO
 70
     1
  9
$DIMSHO
 70
     1
  9
$DIMPOST
  1

  9
$DIMAPOST
  1

  9
$DIMALT
 70
     0
  9
$DIMALTD
 70
     2
  9
$DIMALTF
 40
25.4
  9
$DIMLFAC
 40
10.0
  9
$DIMTOFL
 70
     1
  9
$DIMTVP
 40
1.0
  9
$DIMTIX
 70
     1
  9
$DIMSOXD
 70
     0
  9
$DIMSAH
 70
     0
  9
$DIMBLK1
  1

  9
$DIMBLK2
  1

  9
$DIMSTYLE
  2
500-RU
  9
$DIMCLRD
 70
     1
  9
$DIMCLRE
 70
     1
  9
$DIMCLRT
 70
   140
  9
$DIMTFAC
 40
1.0
  9
$DIMGAP
 40
0.0
  9
$DIMJUST
 70
     0
  9
$DIMSD1
 70
     0
  9
$DIMSD2
 70
     0
  9
$DIMTOLJ
 70
     1
  9
$DIMTZIN
 70
     0
  9
$DIMALTZ
 70
     0
  9
$DIMALTTZ
 70
     0
  9
$DIMUPT
 70
     0
  9
$DIMDEC
 70
     1
  9
$DIMTDEC
 70
     1
  9
$DIMALTU
 70
     2
  9
$DIMALTTD
 70
     2
  9
$DIMTXSTY
  7
ROMANS
  9
$DIMAUNIT
 70
     0
  9
$DIMADEC
 70
     0
  9
$DIMALTRND
 40
0.0
  9
$DIMAZIN
 70
     0
  9
$DIMDSEP
 70
    46
  9
$DIMATFIT
 70
     3
  9
$DIMFRAC
 70
     0
  9
$DIMLDRBLK
  1
B-DIM
  9
$DIMLUNIT
 70
     2
  9
$DIMLWD
 70
    -2
  9
$DIMLWE
 70
    -2
  9
$DIMTMOVE
 70
     2
  9
$LUNITS
 70
     2
  9
$LUPREC
 70
     1
  9
$SKETCHINC
 40
1.0
  9
$FILLETRAD
 40
0.0
  9
$AUNITS
 70
     0
  9
$AUPREC
 70
     0
  9
$MENU
  1
.
  9
$ELEVATION
 40
0.0
  9
$PELEVATION
 40
0.0
  9
$THICKNESS
 40
0.0
  9
$LIMCHECK
 70
     0
  9
$CHAMFERA
 40
0.0
  9
$CHAMFERB
 40
0.0
  9
$CHAMFERC
 40
20.0
  9
$CHAMFERD
 40
0.0
  9
$SKPOLY
 70
     0
  9
$TDCREATE
 40
2452027.628880787
  9
$TDUCREATE
 40
2452027.587214120
  9
$TDUPDATE
 40
2455566.610279942
  9
$TDUUPDATE
 40
2455566.568613276
  9
$TDINDWG
 40
8.9352122569
  9
$TDUSRTIMER
 40
8.9352122569
  9
$USRTIMER
 70
     1
  9
$ANGBASE
 50
0.0
  9
$ANGDIR
 70
     0
  9
$PDMODE
 70
     0
  9
$PDSIZE
 40
0.0
  9
$PLINEWID
 40
0.0
  9
$SPLFRAME
 70
     0
  9
$SPLINETYPE
 70
     6
  9
$SPLINESEGS
 70
     8
  9
$HANDSEED
  5
2D3
  9
$SURFTAB1
 70
     6
  9
$SURFTAB2
 70
     6
  9
$SURFTYPE
 70
     6
  9
$SURFU
 70
     6
  9
$SURFV
 70
     6
  9
$UCSBASE
  2

  9
$UCSNAME
  2

  9
$UCSORG
 10
0.0
 20
0.0
 30
0.0
  9
$UCSXDIR
 10
1.0
 20
0.0
 30
0.0
  9
$UCSYDIR
 10
0.0
 20
1.0
 30
0.0
  9
$UCSORTHOREF
  2

  9
$UCSORTHOVIEW
 70
     0
  9
$UCSORGTOP
 10
0.0
 20
0.0
 30
0.0
  9
$UCSORGBOTTOM
 10
0.0
 20
0.0
 30
0.0
  9
$UCSORGLEFT
 10
0.0
 20
0.0
 30
0.0
  9
$UCSORGRIGHT
 10
0.0
 20
0.0
 30
0.0
  9
$UCSORGFRONT
 10
0.0
 20
0.0
 30
0.0
  9
$UCSORGBACK
 10
0.0
 20
0.0
 30
0.0
  9
$PUCSBASE
  2

  9
$PUCSNAME
  2

  9
$PUCSORG
 10
0.0
 20
0.0
 30
0.0
  9
$PUCSXDIR
 10
1.0
 20
0.0
 30
0.0
  9
$PUCSYDIR
 10
0.0
 20
1.0
 30
0.0
  9
$PUCSORTHOREF
  2

  9
$PUCSORTHOVIEW
 70
     0
  9
$PUCSORGTOP
 10
0.0
 20
0.0
 30
0.0
  9
$PUCSORGBOTTOM
 10
0.0
 20
0.0
 30
0.0
  9
$PUCSORGLEFT
 10
0.0
 20
0.0
 30
0.0
  9
$PUCSORGRIGHT
 10
0.0
 20
0.0
 30
0.0
  9
$PUCSORGFRONT
 10
0.0
 20
0.0
 30
0.0
  9
$PUCSORGBACK
 10
0.0
 20
0.0
 30
0.0
  9
$USERI1
 70
     0
  9
$USERI2
 70
     0
  9
$USERI3
 70
     0
  9
$USERI4
 70
     0
  9
$USERI5
 70
     0
  9
$USERR1
 40
0.0
  9
$USERR2
 40
0.0
  9
$USERR3
 40
0.0
  9
$USERR4
 40
0.0
  9
$USERR5
 40
0.0
  9
$WORLDVIEW
 70
     1
  9
$SHADEDGE
 70
     3
  9
$SHADEDIF
 70
    70
  9
$TILEMODE
 70
     1
  9
$MAXACTVP
 70
    64
  9
$PINSBASE
 10
0.0
 20
0.0
 30
0.0
  9
$PLIMCHECK
 70
     0
  9
$PEXTMIN
 10
1.049999952316284
 20
0.7999999523162842
 30
0.0
  9
$PEXTMAX
 10
9.449999570846559
 20
7.199999570846558
 30
0.0
  9
$PLIMMIN
 10
-0.2500002402958907
 20
-0.2499999962453767
  9
$PLIMMAX
 10
10.74999951940822
 20
8.249999763458733
  9
$UNITMODE
 70
     0
  9
$VISRETAIN
 70
     1
  9
$PLINEGEN
 70
     0
  9
$PSLTSCALE
 70
     1
  9
$TREEDEPTH
 70
  3020
  9
$CMLSTYLE
  2
Standard
  9
$CMLJUST
 70
     0
  9
$CMLSCALE
 40
20.0
  9
$PROXYGRAPHICS
 70
     1
  9
$MEASUREMENT
 70
     0
  9
$CELWEIGHT
370
    -1
  9
$ENDCAPS
280
     0
  9
$JOINSTYLE
280
     0
  9
$LWDISPLAY
290
     0
  9
$INSUNITS
 70
     5
  9
$HYPERLINKBASE
  1

  9
$STYLESHEET
  1

  9
$XEDIT
290
     1
  9
$CEPSNTYPE
380
     0
  9
$PSTYLEMODE
290
     1
  9
$FINGERPRINTGUID
  2
{623CF119-87B4-4FED-840D-A237A821D7B5}
  9
$VERSIONGUID
  2
{9B1F1CD7-33CB-42D5-B276-1E5DF7736C8C}
  9
$EXTNAMES
290
     1
  9
$PSVPSCALE
 40
0.0
  9
$OLESTARTUP
290
     0
  0
ENDSEC
  0
SECTION
  2
CLASSES
  0
CLASS
  1
ACDBDICTIONARYWDFLT
  2
AcDbDictionaryWithDefault
  3
ObjectDBX Classes
 90
        0
280
     0
281
     0
  0
CLASS
  1
ACDBPLACEHOLDER
  2
AcDbPlaceHolder
  3
ObjectDBX Classes
 90
        0
280
     0
281
     0
  0
CLASS
  1
LAYOUT
  2
AcDbLayout
  3
ObjectDBX Classes
 90
        0
280
     0
281
     0
  0
CLASS
  1
DICTIONARYVAR
  2
AcDbDictionaryVar
  3
ObjectDBX Classes
 90
        0
280
     0
281
     0
  0
CLASS
  1
SORTENTSTABLE
  2
AcDbSortentsTable
  3
ObjectDBX Classes
 90
        0
280
     0
281
     0
  0
CLASS
  1
AEC_VARS_DWG_SETUP
  2
AecDbVarsDwgSetup
  3
AecBase50|Product Desc: Autodesk Architectural Desktop 2007 |Company: Autodesk,Inc. |WEB Address: www.autodesk.com
 90
    32897
280
     0
281
     0
  0
CLASS
  1
AEC_DISP_REP_CONFIG
  2
AecDbDispRepConfig
  3
AecBase50|Product Desc: Autodesk Architectural Desktop 2007 |Company: Autodesk,Inc. |WEB Address: www.autodesk.com
 90
    32897
280
     0
281
     0
  0
CLASS
  1
AEC_DISP_REP_SET
  2
AecDbDispRepSet
  3
AecBase50|Product Desc: Autodesk Architectural Desktop 2007 |Company: Autodesk,Inc. |WEB Address: www.autodesk.com
 90
    32897
280
     0
281
     0
  0
CLASS
  1
AEC_DISP_REP_2D_SECTION
  2
AecDbDispRep2dSection
  3
AecBase50|Product Desc: Autodesk Architectural Desktop 2007 |Company: Autodesk,Inc. |WEB Address: www.autodesk.com
 90
    32897
280
     0
281
     0
  0
CLASS
  1
AEC_DISP_REP_ANCHOR_BUB_TO_GRID
  2
AecDbDispRepAnchorBubToGrid
  3
AecStructureBase50|Product Desc: Autodesk Architectural Desktop 2007 |Company: Autodesk,Inc. |WEB Address: www.autodesk.com
 90
    32897
280
     0
281
     0
  0
CLASS
  1
AEC_DISP_REP_ANCHOR_BUB_TO_GRID_MODEL
  2
AecDbDispRepAnchorBubToGridMdl
  3
AecStructureBase50|Product Desc: Autodesk Architectural Desktop 2007 |Company: Autodesk,Inc. |WEB Address: www.autodesk.com
 90
    32897
280
     0
281
     0
  0
CLASS
  1
AEC_DISP_REP_ANCHOR_ENT_TO_NODE
  2
AecDbDispRepAnchorEntToNode
  3
AecBaseEx50|Product Desc: Autodesk Architectural Desktop 2007 |Company: Autodesk,Inc. |WEB Address: www.autodesk.com
 90
    32897
280
     0
281
     0
  0
CLASS
  1
AEC_DISP_REP_ANCHOR_TAG_TO_ENT
  2
AecDbDispRepAnchorTagToEnt
  3
AecScheduleData50|Product Desc: Autodesk Architectural Desktop 2007 |Company: Autodesk,Inc. |WEB Address: www.autodesk.com
 90
    32897
280
     0
281
     0
  0
CLASS
  1
AEC_DISP_REP_AREA
  2
AecDbDispRepArea
  3
AecAreaCalculationBase50|Product Desc: Autodesk Architectural Desktop 2007 |Company: Autodesk,Inc. |WEB Address: www.autodesk.com
 90
    32897
280
     0
281
     0
  0
CLASS
  1
AEC_DISP_REP_AREA_DECOMPOSED
  2
AecDbDispRepAreaDecomposed
  3
AecAreaCalculationBase50|Product Desc: Autodesk Architectural Desktop 2007 |Company: Autodesk,Inc. |WEB Address: www.autodesk.com
 90
    32897
280
     0
281
     0
  0
CLASS
  1
AEC_DISP_REP_AREAGROUP
  2
AecDbDispRepAreaGroup
  3
AecAreaCalculationBase50|Product Desc: Autodesk Architectural Desktop 2007 |Company: Autodesk,Inc. |WEB Address: www.autodesk.com
 90
    32897
280
     0
281
     0
  0
CLASS
  1
AEC_DISP_REP_BDG_ELEVLINE_MODEL
  2
AecDbDispRepBdgElevLineModel
  3
AecArchBase50|Product Desc: Autodesk Architectural Desktop 2007 |Company: Autodesk,Inc. |WEB Address: www.autodesk.com
 90
    32897
280
     0
281
     0
  0
CLASS
  1
AEC_DISP_REP_BDG_SECTIONLINE_PLAN
  2
AecDbDispRepBdgElevLinePlan
  3
AecArchBase50|Product Desc: Autodesk Architectural Desktop 2007 |Company: Autodesk,Inc. |WEB Address: www.autodesk.com
 90
    32897
280
     0
281
     0
  0
CLASS
  1
AEC_DISP_REP_BDG_SECTIONLINE_MODEL
  2
AecDbDispRepBdgSectionLineModel
  3
AecArchBase50|Product Desc: Autodesk Architectural Desktop 2007 |Company: Autodesk,Inc. |WEB Address: www.autodesk.com
 90
    32897
280
     0
281
     0
  0
CLASS
  1
AEC_DISP_REP_BDG_SECTIONLINE_PLAN
  2
AecDbDispRepBdgSectionLinePlan
  3
AecArchBase50|Product Desc: Autodesk Architectural Desktop 2007 |Company: Autodesk,Inc. |WEB Address: www.autodesk.com
 90
    32897
280
     0
281
     0
  0
CLASS
  1
AEC_DISP_REP_BDG_SECTION_SUBDIV
  2
AecDbDispRepBdgSectionSubDiv
  3
AecArchBase50|Product Desc: Autodesk Architectural Desktop 2007 |Company: Autodesk,Inc. |WEB Address: www.autodesk.com
 90
    32897
280
     0
281
     0
  0
CLASS
  1
AEC_DISP_REP_CAMERA
  2
AecDbDispRepCamera
  3
AecBase50|Product Desc: Autodesk Architectural Desktop 2007 |Company: Autodesk,Inc. |WEB Address: www.autodesk.com
 90
    32897
280
     0
281
     0
  0
CLASS
  1
AEC_DISP_REP_CEILING_GRID
  2
AecDbDispRepCeilingGrid
  3
AecArchBase50|Product Desc: Autodesk Architectural Desktop 2007 |Company: Autodesk,Inc. |WEB Address: www.autodesk.com
 90
    33661
280
     0
281
     0
  0
CLASS
  1
AEC_DISP_REP_CEILING_GRID_MODEL
  2
AecDbDispRepCeilingGridModel
  3
AecArchBase50|Product Desc: Autodesk Architectural Desktop 2007 |Company: Autodesk,Inc. |WEB Address: www.autodesk.com
 90
    32897
280
     0
281
     0
  0
CLASS
  1
AEC_DISP_REP_CEILING_GRID_RCP
  2
AecDbDispRepCeilingGridRcp
  3
AecArchBase50|Product Desc: Autodesk Architectural Desktop 2007 |Company: Autodesk,Inc. |WEB Address: www.autodesk.com
 90
    32897
280
     0
281
     0
  0
CLASS
  1
AEC_DISP_REP_CLIP_VOLUME_MODEL
  2
AecDbDispRepClipVolModel
  3
AecBase50|Product Desc: Autodesk Architectural Desktop 2007 |Company: Autodesk,Inc. |WEB Address: www.autodesk.com
 90
    32897
280
     0
281
     0
  0
CLASS
  1
AEC_DISP_REP_CLIP_VOLUME_PLAN
  2
AecDbDispRepClipVolPlan
  3
AecBase50|Product Desc: Autodesk Architectural Desktop 2007 |Company: Autodesk,Inc. |WEB Address: www.autodesk.com
 90
    32897
280
     0
281
     0
  0
CLASS
  1
AEC_DISP_REP_CLIP_VOLUME_RESULT_SUBDIV
  2
AecDbDispRepClipVolResSubDiv
  3
AecBase50|Product Desc: Autodesk Architectural Desktop 2007 |Company: Autodesk,Inc. |WEB Address: www.autodesk.com
 90
    32897
280
     0
281
     0
  0
CLASS
  1
AEC_DISP_REP_CLIP_VOLUME_RESULT
  2
AecDbDispRepClipVolResult
  3
AecBase50|Product Desc: Autodesk Architectural Desktop 2007 |Company: Autodesk,Inc. |WEB Address: www.autodesk.com
 90
    32897
280
     0
281
     0
  0
CLASS
  1
AEC_DISP_REP_COLUMN_GRID
  2
AecDbDispRepColumnGrid
  3
AecStructureBase50|Product Desc: Autodesk Architectural Desktop 2007 |Company: Autodesk,Inc. |WEB Address: www.autodesk.com
 90
    32897
280
     0
281
     0
  0
CLASS
  1
AEC_DISP_REP_COLUMN_GRID_MODEL
  2
AecDbDispRepColumnGridModel
  3
AecStructureBase50|Product Desc: Autodesk Architectural Desktop 2007 |Company: Autodesk,Inc. |WEB Address: www.autodesk.com
 90
    32897
280
     0
281
     0
  0
CLASS
  1
AEC_DISP_REP_CURTAIN_WALL_LAYOUT_MODEL
  2
AecDbDispRepCurtainWallLayoutModel
  3
AecArchBase50|Product Desc: Autodesk Architectural Desktop 2007 |Company: Autodesk,Inc. |WEB Address: www.autodesk.com
 90
    32897
280
     0
281
     0
  0
CLASS
  1
AEC_DISP_REP_CURTAIN_WALL_LAYOUT_PLAN
  2
AecDbDispRepCurtainWallLayoutPlan
  3
AecArchBase50|Product Desc: Autodesk Architectural Desktop 2007 |Company: Autodesk,Inc. |WEB Address: www.autodesk.com
 90
    32897
280
     0
281
     0
  0
CLASS
  1
AEC_DISP_REP_CURTAIN_WALL_UNIT_MODEL
  2
AecDbDispRepCurtainWallUnitModel
  3
AecArchBase50|Product Desc: Autodesk Architectural Desktop 2007 |Company: Autodesk,Inc. |WEB Address: www.autodesk.com
 90
    32897
280
     0
281
     0
  0
CLASS
  1
AEC_DISP_REP_CURTAIN_WALL_UNIT_PLAN
  2
AecDbDispRepCurtainWallUnitPlan
  3
AecArchBase50|Product Desc: Autodesk Architectural Desktop 2007 |Company: Autodesk,Inc. |WEB Address: www.autodesk.com
 90
    32897
280
     0
281
     0
  0
CLASS
  1
AEC_DB_DISP_REP_DIM_GROUP_PLAN
  2
AecDbDispRepDimGroupPlan
  3
AecArchDACHBase50|Product Desc: Autodesk Architectural Desktop 2007 |Company: Autodesk,Inc. |WEB Address: www.autodesk.com
 90
    32897
280
     0
281
     0
  0
CLASS
  1
AEC_DISP_REP_DOOR_MODEL
  2
AecDbDispRepDoorModel
  3
AecArchBase50|Product Desc: Autodesk Architectural Desktop 2007 |Company: Autodesk,Inc. |WEB Address: www.autodesk.com
 90
    32897
280
     0
281
     0
  0
CLASS
  1
AEC_DISP_REP_DOOR_NOMINAL
  2
AecDbDispRepDoorNominal
  3
AecArchBase50|Product Desc: Autodesk Architectural Desktop 2007 |Company: Autodesk,Inc. |WEB Address: www.autodesk.com
 90
    32897
280
     0
281
     0
  0
CLASS
  1
AEC_DISP_REP_DOOR_PLAN
  2
AecDbDispRepDoorPlan
  3
AecArchBase50|Product Desc: Autodesk Architectural Desktop 2007 |Company: Autodesk,Inc. |WEB Address: www.autodesk.com
 90
    32897
280
     0
281
     0
  0
CLASS
  1
AEC_DISP_REP_EDITINPLACEPROFILE
  2
AecDbDispRepEditInPlaceProfile
  3
AecBase50|Product Desc: Autodesk Architectural Desktop 2007 |Company: Autodesk,Inc. |WEB Address: www.autodesk.com
 90
    32897
280
     0
281
     0
  0
CLASS
  1
AEC_DISP_REP_ENT_REF
  2
AecDbDispRepEntRef
  3
AecBase50|Product Desc: Autodesk Architectural Desktop 2007 |Company: Autodesk,Inc. |WEB Address: www.autodesk.com
 90
    32897
280
     0
281
     0
  0
CLASS
  1
AEC_DISP_REP_LAYOUT_CURVE
  2
AecDbDispRepLayoutCurve
  3
AecBase50|Product Desc: Autodesk Architectural Desktop 2007 |Company: Autodesk,Inc. |WEB Address: www.autodesk.com
 90
    32897
280
     0
281
     0
  0
CLASS
  1
AEC_DISP_REP_LAYOUT_GRID2D
  2
AecDbDispRepLayoutGrid2d
  3
AecBase50|Product Desc: Autodesk Architectural Desktop 2007 |Company: Autodesk,Inc. |WEB Address: www.autodesk.com
 90
    32897
280
     0
281
     0
  0
CLASS
  1
AEC_DISP_REP_LAYOUT_GRID3D
  2
AecDbDispRepLayoutGrid3d
  3
AecBase50|Product Desc: Autodesk Architectural Desktop 2007 |Company: Autodesk,Inc. |WEB Address: www.autodesk.com
 90
    32897
280
     0
281
     0
  0
CLASS
  1
AEC_DISP_REP_MASKBLOCK_REF
  2
AecDbDispRepMaskBlockRef
  3
AecBase50|Product Desc: Autodesk Architectural Desktop 2007 |Company: Autodesk,Inc. |WEB Address: www.autodesk.com
 90
    32897
280
     0
281
     0
  0
CLASS
  1
AEC_DISP_REP_MASKBLOCK_REF_RCP
  2
AecDbDispRepMaskBlockRefRcp
  3
AecArchBase50|Product Desc: Autodesk Architectural Desktop 2007 |Company: Autodesk,Inc. |WEB Address: www.autodesk.com
 90
    32897
280
     0
281
     0
  0
CLASS
  1
AEC_DISP_REP_MASS_ELEM_MODEL
  2
AecDbDispRepMassElemModel
  3
AecBaseEx50|Product Desc: Autodesk Architectural Desktop 2007 |Company: Autodesk,Inc. |WEB Address: www.autodesk.com
 90
    32897
280
     0
281
     0
  0
CLASS
  1
AEC_DISP_REP_MASS_ELEM_SCHEM
  2
AecDbDispRepMassElemSchem
  3
AecBaseEx50|Product Desc: Autodesk Architectural Desktop 2007 |Company: Autodesk,Inc. |WEB Address: www.autodesk.com
 90
    32897
280
     0
281
     0
  0
CLASS
  1
AEC_DISP_REP_MASS_GROUP_MODEL
  2
AecDbDispRepMassGroupModel
  3
AecBaseEx50|Product Desc: Autodesk Architectural Desktop 2007 |Company: Autodesk,Inc. |WEB Address: www.autodesk.com
 90
    32897
280
     0
281
     0
  0
CLASS
  1
AEC_DISP_REP_MASS_GROUP_PLAN
  2
AecDbDispRepMassGroupPlan
  3
AecBaseEx50|Product Desc: Autodesk Architectural Desktop 2007 |Company: Autodesk,Inc. |WEB Address: www.autodesk.com
 90
    32897
280
     0
281
     0
  0
CLASS
  1
AEC_DISP_REP_MATERIAL
  2
AecDbDispRepMaterial
  3
AecBase50|Product Desc: Autodesk Architectural Desktop 2007 |Company: Autodesk,Inc. |WEB Address: www.autodesk.com
 90
    32897
280
     0
281
     0
  0
CLASS
  1
AEC_DISP_REP_MVBLOCK_REF
  2
AecDbDispRepMvBlockRef
  3
AecBase50|Product Desc: Autodesk Architectural Desktop 2007 |Company: Autodesk,Inc. |WEB Address: www.autodesk.com
 90
    32897
280
     0
281
     0
  0
CLASS
  1
AEC_DISP_REP_MVBLOCK_REF_MODEL
  2
AecDbDispRepMvBlockRefModel
  3
AecBase50|Product Desc: Autodesk Architectural Desktop 2007 |Company: Autodesk,Inc. |WEB Address: www.autodesk.com
 90
    32897
280
     0
281
     0
  0
CLASS
  1
AEC_DISP_REP_OPENING
  2
AecDbDispRepOpening
  3
AecArchBase50|Product Desc: Autodesk Architectural Desktop 2007 |Company: Autodesk,Inc. |WEB Address: www.autodesk.com
 90
    32897
280
     0
281
     0
  0
CLASS
  1
AEC_DISP_REP_OPENING_MODEL
  2
AecDbDispRepOpeningModel
  3
AecArchBase50|Product Desc: Autodesk Architectural Desktop 2007 |Company: Autodesk,Inc. |WEB Address: www.autodesk.com
 90
    32897
280
     0
281
     0
  0
CLASS
  1
AEC_DISP_REP_POLYGON_MODEL
  2
AecDbDispRepPolygonModel
  3
AecBaseEx50|Product Desc: Autodesk Architectural Desktop 2007 |Company: Autodesk,Inc. |WEB Address: www.autodesk.com
 90
    32897
280
     0
281
     0
  0
CLASS
  1
AEC_DISP_REP_RAILING_MODEL
  2
AecDbDispRepRailingModel
  3
AecArchBase50|Product Desc: Autodesk Architectural Desktop 2007 |Company: Autodesk,Inc. |WEB Address: www.autodesk.com
 90
    32897
280
     0
281
     0
  0
CLASS
  1
AEC_DISP_REP_RAILING_PLAN
  2
AecDbDispRepRailingPlan
  3
AecArchBase50|Product Desc: Autodesk Architectural Desktop 2007 |Company: Autodesk,Inc. |WEB Address: www.autodesk.com
 90
    32897
280
     0
281
     0
  0
CLASS
  1
AEC_DISP_REP_ROOF_MODEL
  2
AecDbDispRepRoofModel
  3
AecArchBase50|Product Desc: Autodesk Architectural Desktop 2007 |Company: Autodesk,Inc. |WEB Address: www.autodesk.com
 90
    32897
280
     0
281
     0
  0
CLASS
  1
AEC_DISP_REP_ROOF_PLAN
  2
AecDbDispRepRoofPlan
  3
AecArchBase50|Product Desc: Autodesk Architectural Desktop 2007 |Company: Autodesk,Inc. |WEB Address: www.autodesk.com
 90
    32897
280
     0
281
     0
  0
CLASS
  1
AEC_DISP_REP_ROOFSLAB_MODEL
  2
AecDbDispRepRoofSlabModel
  3
AecArchBase50|Product Desc: Autodesk Architectural Desktop 2007 |Company: Autodesk,Inc. |WEB Address: www.autodesk.com
 90
    32897
280
     0
281
     0
  0
CLASS
  1
AEC_DISP_REP_ROOFSLAB_PLAN
  2
AecDbDispRepRoofSlabPlan
  3
AecArchBase50|Product Desc: Autodesk Architectural Desktop 2007 |Company: Autodesk,Inc. |WEB Address: www.autodesk.com
 90
    32897
280
     0
281
     0
  0
CLASS
  1
AEC_DISP_REP_SCHEDULE_TABLE
  2
AecDbDispRepScheduleTable
  3
AecSchedule50|Product Desc: Autodesk Architectural Desktop 2007 |Company: Autodesk,Inc. |WEB Address: www.autodesk.com
 90
    32897
280
     0
281
     0
  0
CLASS
  1
AEC_DISP_REP_SLAB_MODEL
  2
AecDbDispRepSlabModel
  3
AecArchBase50|Product Desc: Autodesk Architectural Desktop 2007 |Company: Autodesk,Inc. |WEB Address: www.autodesk.com
 90
    32897
280
     0
281
     0
  0
CLASS
  1
AEC_DISP_REP_SLAB_PLAN
  2
AecDbDispRepSlabPlan
  3
AecArchBase50|Product Desc: Autodesk Architectural Desktop 2007 |Company: Autodesk,Inc. |WEB Address: www.autodesk.com
 90
    32897
280
     0
281
     0
  0
CLASS
  1
AEC_DISP_REP_SLICE
  2
AecDbDispRepSlice
  3
AecBase50|Product Desc: Autodesk Architectural Desktop 2007 |Company: Autodesk,Inc. |WEB Address: www.autodesk.com
 90
    32897
280
     0
281
     0
  0
CLASS
  1
AEC_DISP_REP_SPACE_BOUNDARY_MODEL
  2
AecDbDispRepSpaceBoundaryModel
  3
AecArchBase50|Product Desc: Autodesk Architectural Desktop 2007 |Company: Autodesk,Inc. |WEB Address: www.autodesk.com
 90
    32897
280
     0
281
     0
  0
CLASS
  1
AEC_DISP_REP_SPACE_BOUNDARY_PLAN
  2
AecDbDispRepSpaceBoundaryPlan
  3
AecArchBase50|Product Desc: Autodesk Architectural Desktop 2007 |Company: Autodesk,Inc. |WEB Address: www.autodesk.com
 90
    32897
280
     0
281
     0
  0
CLASS
  1
AEC_DISP_REP_SPACE_BOUNDARY_SCHEM
  2
AecDbDispRepSpaceBoundarySketch
  3
AecArchBase50|Product Desc: Autodesk Architectural Desktop 2007 |Company: Autodesk,Inc. |WEB Address: www.autodesk.com
 90
    32897
280
     0
281
     0
  0
CLASS
  1
AEC_DISP_REP_SPACE_MODEL
  2
AecDbDispRepSpaceModel
  3
AecArchBase50|Product Desc: Autodesk Architectural Desktop 2007 |Company: Autodesk,Inc. |WEB Address: www.autodesk.com
 90
    32897
280
     0
281
     0
  0
CLASS
  1
AEC_DISP_REP_SPACE_PLAN
  2
AecDbDispRepSpacePlan
  3
AecArchBase50|Product Desc: Autodesk Architectural Desktop 2007 |Company: Autodesk,Inc. |WEB Address: www.autodesk.com
 90
    32897
280
     0
281
     0
  0
CLASS
  1
AEC_DISP_REP_STAIR_MODEL
  2
AecDbDispRepStairModel
  3
AecArchBase50|Product Desc: Autodesk Architectural Desktop 2007 |Company: Autodesk,Inc. |WEB Address: www.autodesk.com
 90
    32897
280
     0
281
     0
  0
CLASS
  1
AEC_DISP_REP_STAIR_PLAN
  2
AecDbDispRepStairPlan
  3
AecArchBase50|Product Desc: Autodesk Architectural Desktop 2007 |Company: Autodesk,Inc. |WEB Address: www.autodesk.com
 90
    32897
280
     0
281
     0
  0
CLASS
  1
AEC_DISP_REP_WALL_GRAPH
  2
AecDbDispRepWallGraph
  3
AecArchBase50|Product Desc: Autodesk Architectural Desktop 2007 |Company: Autodesk,Inc. |WEB Address: www.autodesk.com
 90
    32897
280
     0
281
     0
  0
CLASS
  1
AEC_DISP_REP_WALL_MODEL
  2
AecDbDispRepWallModel
  3
AecArchBase50|Product Desc: Autodesk Architectural Desktop 2007 |Company: Autodesk,Inc. |WEB Address: www.autodesk.com
 90
    32897
280
     0
281
     0
  0
CLASS
  1
AEC_DISP_REP_WALL_PLAN
  2
AecDbDispRepWallPlan
  3
AecArchBase50|Product Desc: Autodesk Architectural Desktop 2007 |Company: Autodesk,Inc. |WEB Address: www.autodesk.com
 90
    32897
280
     0
281
     0
  0
CLASS
  1
AEC_DISP_REP_WALL_SCHEM
  2
AecDbDispRepWallSchem
  3
AecArchBase50|Product Desc: Autodesk Architectural Desktop 2007 |Company: Autodesk,Inc. |WEB Address: www.autodesk.com
 90
    32897
280
     0
281
     0
  0
CLASS
  1
AEC_DISP_REP_WINDOW_ASSEMBLY_MODEL
  2
AecDbDispRepWindowAssemblyModel
  3
AecArchBase50|Product Desc: Autodesk Architectural Desktop 2007 |Company: Autodesk,Inc. |WEB Address: www.autodesk.com
 90
    32897
280
     0
281
     0
  0
CLASS
  1
AEC_DISP_REP_WINDOW_ASSEMBLY_PLAN
  2
AecDbDispRepWindowAssemblyPlan
  3
AecArchBase50|Product Desc: Autodesk Architectural Desktop 2007 |Company: Autodesk,Inc. |WEB Address: www.autodesk.com
 90
    32897
280
     0
281
     0
  0
CLASS
  1
AEC_AECDBDISPREPWINDOWASSEMBLYPLAN100
  2
AecDbDispRepWindowAssemblyPlan100
  3
AecArchDACHBase50|Product Desc: Autodesk Architectural Desktop 2007 |Company: Autodesk,Inc. |WEB Address: www.autodesk.com
 90
    32897
280
     0
281
     0
  0
CLASS
  1
AEC_DISP_REP_WINDOW_MODEL
  2
AecDbDispRepWindowModel
  3
AecArchBase50|Product Desc: Autodesk Architectural Desktop 2007 |Company: Autodesk,Inc. |WEB Address: www.autodesk.com
 90
    32897
280
     0
281
     0
  0
CLASS
  1
AEC_DISP_REP_WINDOW_NOMINAL
  2
AecDbDispRepWindowNominal
  3
AecArchBase50|Product Desc: Autodesk Architectural Desktop 2007 |Company: Autodesk,Inc. |WEB Address: www.autodesk.com
 90
    32897
280
     0
281
     0
  0
CLASS
  1
AEC_DISP_REP_WINDOW_PLAN
  2
AecDbDispRepWindowPlan
  3
AecArchBase50|Product Desc: Autodesk Architectural Desktop 2007 |Company: Autodesk,Inc. |WEB Address: www.autodesk.com
 90
    32897
280
     0
281
     0
  0
CLASS
  1
AECS_DISP_REP_MEMBER_LOGICAL
  2
AecsDbDispRepMemberLogical
  3
AecStructureBase50|Product Desc: Autodesk Architectural Desktop 2007 |Company: Autodesk,Inc. |WEB Address: www.autodesk.com
 90
    32897
280
     0
281
     0
  0
CLASS
  1
AECS_DISP_REP_MEMBER_MODEL_DESIGN
  2
AecsDbDispRepMemberModelDesign
  3
AecStructureBase50|Product Desc: Autodesk Architectural Desktop 2007 |Company: Autodesk,Inc. |WEB Address: www.autodesk.com
 90
    32897
280
     0
281
     0
  0
CLASS
  1
AECS_DISP_REP_MEMBER_PLAN_DESIGN
  2
AecsDbDispRepMemberPlanDesign
  3
AecStructureBase50|Product Desc: Autodesk Architectural Desktop 2007 |Company: Autodesk,Inc. |WEB Address: www.autodesk.com
 90
    32897
280
     0
281
     0
  0
CLASS
  1
AEC_DISP_PROPS_ENT
  2
AecDbDispPropsEnt
  3
AecBase50|Product Desc: Autodesk Architectural Desktop 2007 |Company: Autodesk,Inc. |WEB Address: www.autodesk.com
 90
    32897
280
     0
281
     0
  0
CLASS
  1
AEC_DISP_PROPS_CLIP_VOLUME
  2
AecDbDispPropsClipVol
  3
AecBase50|Product Desc: Autodesk Architectural Desktop 2007 |Company: Autodesk,Inc. |WEB Address: www.autodesk.com
 90
    32897
280
     0
281
     0
  0
CLASS
  1
AEC_DISP_PROPS_SLICE
  2
AecDbDispPropsSlice
  3
AecBase50|Product Desc: Autodesk Architectural Desktop 2007 |Company: Autodesk,Inc. |WEB Address: www.autodesk.com
 90
    32897
280
     0
281
     0
  0
CLASS
  1
AEC_DISP_PROPS_ROOFSLAB_PLAN
  2
AecDbDispPropsRoofSlabPlan
  3
AecArchBase50|Product Desc: Autodesk Architectural Desktop 2007 |Company: Autodesk,Inc. |WEB Address: www.autodesk.com
 90
    32897
280
     0
281
     0
  0
CLASS
  1
AEC_DISP_PROPS_GRID_ASSEMBLY_MODEL
  2
AecDbDispPropsGridAssemblyModel
  3
AecArchBase50|Product Desc: Autodesk Architectural Desktop 2007 |Company: Autodesk,Inc. |WEB Address: www.autodesk.com
 90
    32897
280
     0
281
     0
  0
CLASS
  1
AEC_DISP_PROPS_ROOF
  2
AecDbDispPropsRoof
  3
AecArchBase50|Product Desc: Autodesk Architectural Desktop 2007 |Company: Autodesk,Inc. |WEB Address: www.autodesk.com
 90
    32897
280
     0
281
     0
  0
CLASS
  1
AEC_DISP_PROPS_SPACE_MODEL
  2
AecDbDispPropsSpaceModel
  3
AecArchBase50|Product Desc: Autodesk Architectural Desktop 2007 |Company: Autodesk,Inc. |WEB Address: www.autodesk.com
 90
    32897
280
     0
281
     0
  0
CLASS
  1
AEC_DISP_PROPS_EDITINPLACEPROFILE_MODEL
  2
AecDbDispPropsEditInPlaceProfile
  3
AecBase50|Product Desc: Autodesk Architectural Desktop 2007 |Company: Autodesk,Inc. |WEB Address: www.autodesk.com
 90
    32897
280
     0
281
     0
  0
CLASS
  1
AEC_DISP_PROPS_DOOR
  2
AecDbDispPropsDoor
  3
AecArchBase50|Product Desc: Autodesk Architectural Desktop 2007 |Company: Autodesk,Inc. |WEB Address: www.autodesk.com
 90
    32897
280
     0
281
     0
  0
CLASS
  1
AEC_DISP_PROPS_MASKBLOCK
  2
AecDbDispPropsMaskBlock
  3
AecBase50|Product Desc: Autodesk Architectural Desktop 2007 |Company: Autodesk,Inc. |WEB Address: www.autodesk.com
 90
    32897
280
     0
281
     0
  0
CLASS
  1
AEC_DISP_PROPS_SPACE_PLAN
  2
AecDbDispPropsSpacePlan
  3
AecArchBase50|Product Desc: Autodesk Architectural Desktop 2007 |Company: Autodesk,Inc. |WEB Address: www.autodesk.com
 90
    32897
280
     0
281
     0
  0
CLASS
  1
AEC_DISP_PROPS_RAILING_PLAN
  2
AecDbDispPropsRailingPlan
  3
AecArchBase50|Product Desc: Autodesk Architectural Desktop 2007 |Company: Autodesk,Inc. |WEB Address: www.autodesk.com
 90
    32897
280
     0
281
     0
  0
CLASS
  1
AEC_DISP_PROPS_LAYOUT_GRID2D
  2
AecDbDispPropsLayoutGrid2d
  3
AecBase50|Product Desc: Autodesk Architectural Desktop 2007 |Company: Autodesk,Inc. |WEB Address: www.autodesk.com
 90
    32897
280
     0
281
     0
  0
CLASS
  1
AEC_DISP_PROPS_CLIP_VOLUME_RESULT
  2
AecDbDispPropsClipVolResSubDiv
  3
AecBase50|Product Desc: Autodesk Architectural Desktop 2007 |Company: Autodesk,Inc. |WEB Address: www.autodesk.com
 90
    32897
280
     0
281
     0
  0
CLASS
  1
AEC_DISP_PROPS_STAIR_MODEL
  2
AecDbDispPropsStairModel
  3
AecArchBase50|Product Desc: Autodesk Architectural Desktop 2007 |Company: Autodesk,Inc. |WEB Address: www.autodesk.com
 90
    32897
280
     0
281
     0
  0
CLASS
  1
AEC_DISP_PROPS_LAYOUT_CURVE
  2
AecDbDispPropsLayoutCurve
  3
AecBase50|Product Desc: Autodesk Architectural Desktop 2007 |Company: Autodesk,Inc. |WEB Address: www.autodesk.com
 90
    32897
280
     0
281
     0
  0
CLASS
  1
AEC_DISP_PROPS_POLYGON_MODEL
  2
AecDbDispPropsPolygonModel
  3
AecBaseEx50|Product Desc: Autodesk Architectural Desktop 2007 |Company: Autodesk,Inc. |WEB Address: www.autodesk.com
 90
    32897
280
     0
281
     0
  0
CLASS
  1
AEC_DISP_PROPS_MASS_GROUP
  2
AecDbDispPropsMassGroup
  3
AecBaseEx50|Product Desc: Autodesk Architectural Desktop 2007 |Company: Autodesk,Inc. |WEB Address: www.autodesk.com
 90
    32897
280
     0
281
     0
  0
CLASS
  1
AEC_DISP_PROPS_STAIR_PLAN
  2
AecDbDispPropsStairPlan
  3
AecArchBase50|Product Desc: Autodesk Architectural Desktop 2007 |Company: Autodesk,Inc. |WEB Address: www.autodesk.com
 90
    32897
280
     0
281
     0
  0
CLASS
  1
AEC_DISP_PROPS_OPENING
  2
AecDbDispPropsOpening
  3
AecArchBase50|Product Desc: Autodesk Architectural Desktop 2007 |Company: Autodesk,Inc. |WEB Address: www.autodesk.com
 90
    32897
280
     0
281
     0
  0
CLASS
  1
AEC_DISP_PROPS_WALL_GRAPH
  2
AecDbDispPropsWallGraph
  3
AecArchBase50|Product Desc: Autodesk Architectural Desktop 2007 |Company: Autodesk,Inc. |WEB Address: www.autodesk.com
 90
    32897
280
     0
281
     0
  0
CLASS
  1
AEC_DISP_PROPS_DOOR_NOMINAL
  2
AecDbDispPropsDoorNominal
  3
AecArchBase50|Product Desc: Autodesk Architectural Desktop 2007 |Company: Autodesk,Inc. |WEB Address: www.autodesk.com
 90
    32897
280
     0
281
     0
  0
CLASS
  1
AEC_DISP_PROPS_SLAB
  2
AecDbDispPropsSlab
  3
AecArchBase50|Product Desc: Autodesk Architectural Desktop 2007 |Company: Autodesk,Inc. |WEB Address: www.autodesk.com
 90
    32897
280
     0
281
     0
  0
CLASS
  1
AEC_DISP_PROPS_WALL_MODEL
  2
AecDbDispPropsWallModel
  3
AecArchBase50|Product Desc: Autodesk Architectural Desktop 2007 |Company: Autodesk,Inc. |WEB Address: www.autodesk.com
 90
    32897
280
     0
281
     0
  0
CLASS
  1
AEC_DISP_PROPS_MATERIAL
  2
AecDbDispPropsMaterial
  3
AecBase50|Product Desc: Autodesk Architectural Desktop 2007 |Company: Autodesk,Inc. |WEB Address: www.autodesk.com
 90
    32897
280
     0
281
     0
  0
CLASS
  1
AEC_DISP_PROPS_WINDOW
  2
AecDbDispPropsWindow
  3
AecArchBase50|Product Desc: Autodesk Architectural Desktop 2007 |Company: Autodesk,Inc. |WEB Address: www.autodesk.com
 90
    32897
280
     0
281
     0
  0
CLASS
  1
AEC_DISP_PROPS_LAYOUT_GRID3D
  2
AecDbDispPropsLayoutGrid3d
  3
AecBase50|Product Desc: Autodesk Architectural Desktop 2007 |Company: Autodesk,Inc. |WEB Address: www.autodesk.com
 90
    32897
280
     0
281
     0
  0
CLASS
  1
AEC_DISP_PROPS_GRID_ASSEMBLY_PLAN
  2
AecDbDispPropsGridAssemblyPlan
  3
AecArchBase50|Product Desc: Autodesk Architectural Desktop 2007 |Company: Autodesk,Inc. |WEB Address: www.autodesk.com
 90
    32897
280
     0
281
     0
  0
CLASS
  1
AEC_DISP_PROPS_WALL_SCHEM
  2
AecDbDispPropsWallSchem
  3
AecArchBase50|Product Desc: Autodesk Architectural Desktop 2007 |Company: Autodesk,Inc. |WEB Address: www.autodesk.com
 90
    32897
280
     0
281
     0
  0
CLASS
  1
AEC_DISP_PROPS_WALL_PLAN
  2
AecDbDispPropsWallPlan
  3
AecArchBase50|Product Desc: Autodesk Architectural Desktop 2007 |Company: Autodesk,Inc. |WEB Address: www.autodesk.com
 90
    32897
280
     0
281
     0
  0
CLASS
  1
AEC_DISP_PROPS_SPACE_BOUNDARY
  2
AecDbDispPropsSpaceBoundary
  3
AecArchBase50|Product Desc: Autodesk Architectural Desktop 2007 |Company: Autodesk,Inc. |WEB Address: www.autodesk.com
 90
    32897
280
     0
281
     0
  0
CLASS
  1
AEC_DISP_PROPS_SLAB_PLAN
  2
AecDbDispPropsSlabPlan
  3
AecArchBase50|Product Desc: Autodesk Architectural Desktop 2007 |Company: Autodesk,Inc. |WEB Address: www.autodesk.com
 90
    32897
280
     0
281
     0
  0
CLASS
  1
AEC_DISP_PROPS_RAILING_MODEL
  2
AecDbDispPropsRailingModel
  3
AecArchBase50|Product Desc: Autodesk Architectural Desktop 2007 |Company: Autodesk,Inc. |WEB Address: www.autodesk.com
 90
    32897
280
     0
281
     0
  0
CLASS
  1
AEC_DISP_PROPS_MASS_ELEM_MODEL
  2
AecDbDispPropsMassElem
  3
AecBaseEx50|Product Desc: Autodesk Architectural Desktop 2007 |Company: Autodesk,Inc. |WEB Address: www.autodesk.com
 90
    32897
280
     0
281
     0
  0
CLASS
  1
AEC_DISP_PROPS_DIM
  2
AecDbDispPropsDimGroup
  3
AecArchDACHBase50|Product Desc: Autodesk Architectural Desktop 2007 |Company: Autodesk,Inc. |WEB Address: www.autodesk.com
 90
    32897
280
     0
281
     0
  0
CLASS
  1
AEC_DISP_PROPS_ROOFSLAB
  2
AecDbDispPropsRoofSlab
  3
AecArchBase50|Product Desc: Autodesk Architectural Desktop 2007 |Company: Autodesk,Inc. |WEB Address: www.autodesk.com
 90
    32897
280
     0
281
     0
  0
CLASS
  1
AEC_DISP_PROPS_ENT_REF
  2
AecDbDispPropsEntRef
  3
AecBase50|Product Desc: Autodesk Architectural Desktop 2007 |Company: Autodesk,Inc. |WEB Address: www.autodesk.com
 90
    32897
280
     0
281
     0
  0
CLASS
  1
AEC_DISP_PROPS_2D_SECTION
  2
AecDbDispProps2dSection
  3
AecBase50|Product Desc: Autodesk Architectural Desktop 2007 |Company: Autodesk,Inc. |WEB Address: www.autodesk.com
 90
    32897
280
     0
281
     0
  0
CLASS
  1
AECS_DISP_PROPS_MEMBER_LOGICAL
  2
AecsDbDispPropsMemberLogical
  3
AecStructureBase50|Product Desc: Autodesk Architectural Desktop 2007 |Company: Autodesk,Inc. |WEB Address: www.autodesk.com
 90
    32897
280
     0
281
     0
  0
CLASS
  1
AEC_DISP_PROPS_AREA_DECOMPOSED
  2
AecDbDispPropsAreaDecomposed
  3
AecAreaCalculationBase50|Product Desc: Autodesk Architectural Desktop 2007 |Company: Autodesk,Inc. |WEB Address: www.autodesk.com
 90
    32897
280
     0
281
     0
  0
CLASS
  1
AEC_DISP_PROPS_CAMERA
  2
AecDbDispPropsCamera
  3
AecBase50|Product Desc: Autodesk Architectural Desktop 2007 |Company: Autodesk,Inc. |WEB Address: www.autodesk.com
 90
    32897
280
     0
281
     0
  0
CLASS
  1
AECS_DISP_PROPS_MEMBER
  2
AecsDbDispPropsMember
  3
AecStructureBase50|Product Desc: Autodesk Architectural Desktop 2007 |Company: Autodesk,Inc. |WEB Address: www.autodesk.com
 90
    32897
280
     0
281
     0
  0
CLASS
  1
AECS_DISP_PROPS_MEMBER_PLAN
  2
AecsDbDispPropsMemberPlan
  3
AecStructureBase50|Product Desc: Autodesk Architectural Desktop 2007 |Company: Autodesk,Inc. |WEB Address: www.autodesk.com
 90
    32897
280
     0
281
     0
  0
CLASS
  1
AEC_DISP_PROPS_AREAGROUP
  2
AecDbDispPropsAreaGroup
  3
AecAreaCalculationBase50|Product Desc: Autodesk Architectural Desktop 2007 |Company: Autodesk,Inc. |WEB Address: www.autodesk.com
 90
    32897
280
     0
281
     0
  0
CLASS
  1
AEC_DISP_PROPS_WINDOW_NOMINAL
  2
AecDbDispPropsWindowNominal
  3
AecArchBase50|Product Desc: Autodesk Architectural Desktop 2007 |Company: Autodesk,Inc. |WEB Address: www.autodesk.com
 90
    32897
280
     0
281
     0
  0
CLASS
  1
AEC_DISP_PROPS_AREA
  2
AecDbDispPropsArea
  3
AecAreaCalculationBase50|Product Desc: Autodesk Architectural Desktop 2007 |Company: Autodesk,Inc. |WEB Address: www.autodesk.com
 90
    32897
280
     0
281
     0
  0
CLASS
  1
AEC_DISP_PROPS_SCHEDULE_TABLE
  2
AecDbDispPropsScheduleTable
  3
AecSchedule50|Product Desc: Autodesk Architectural Desktop 2007 |Company: Autodesk,Inc. |WEB Address: www.autodesk.com
 90
    32897
280
     0
281
     0
  0
CLASS
  1
AEC_LAYERKEY_STYLE
  2
AecDbLayerKeyStyle
  3
AecBase50|Product Desc: Autodesk Architectural Desktop 2007 |Company: Autodesk,Inc. |WEB Address: www.autodesk.com
 90
    32897
280
     0
281
     0
  0
CLASS
  1
AEC_VARS_ARCHBASE
  2
AecDbVarsArchBase
  3
AecArchBase50|Product Desc: Autodesk Architectural Desktop 2007 |Company: Autodesk,Inc. |WEB Address: www.autodesk.com
 90
    32897
280
     0
281
     0
  0
CLASS
  1
AEC_VARS_MUNICH
  2
AecDbVarsMunich
  3
AecArchDACHBase50|Product Desc: Autodesk Architectural Desktop 2007 |Company: Autodesk,Inc. |WEB Address: www.autodesk.com
 90
    32897
280
     0
281
     0
  0
CLASS
  1
AEC_NOTIFICATION_TRACKER
  2
AecDbNotificationTracker
  3
AecBase50|Product Desc: Autodesk Architectural Desktop 2007 |Company: Autodesk,Inc. |WEB Address: www.autodesk.com
 90
    32897
280
     0
281
     0
  0
CLASS
  1
AEC_DISP_REP_ANCHOR
  2
AecDbDispRepAnchor
  3
AecBase50|Product Desc: Autodesk Architectural Desktop 2007 |Company: Autodesk,Inc. |WEB Address: www.autodesk.com
 90
    32897
280
     0
281
     0
  0
CLASS
  1
AEC_DISP_REP_POLYGON_TRUECOLOUR
  2
AecDbDispRepPolygonTrueColour
  3
AecBaseEx50|Product Desc: Autodesk Architectural Desktop 2007 |Company: Autodesk,Inc. |WEB Address: www.autodesk.com
 90
    32897
280
     0
281
     0
  0
CLASS
  1
AEC_DISP_PROPS_POLYGON_TRUECOLOUR
  2
AecDbDispPropsPolygonTrueColour
  3
AecBaseEx50|Product Desc: Autodesk Architectural Desktop 2007 |Company: Autodesk,Inc. |WEB Address: www.autodesk.com
 90
    32897
280
     0
281
     0
  0
CLASS
  1
AEC_DISP_REP_BDG_ELEVLINE_RCP
  2
AecDbDispRepBdgElevLineRcp
  3
AecArchBase50|Product Desc: Autodesk Architectural Desktop 2007 |Company: Autodesk,Inc. |WEB Address: www.autodesk.com
 90
    32897
280
     0
281
     0
  0
CLASS
  1
AEC_DISP_REP_BDG_SECTIONLINE_RCP
  2
AecDbDispRepBdgSectionLineRcp
  3
AecArchBase50|Product Desc: Autodesk Architectural Desktop 2007 |Company: Autodesk,Inc. |WEB Address: www.autodesk.com
 90
    32897
280
     0
281
     0
  0
CLASS
  1
AEC_DISP_REP_BDG_SECTION_MODEL
  2
AecDbDispRepBdgSectionModel
  3
AecArchBase50|Product Desc: Autodesk Architectural Desktop 2007 |Company: Autodesk,Inc. |WEB Address: www.autodesk.com
 90
    32897
280
     0
281
     0
  0
CLASS
  1
AEC_DISP_REP_DOOR_ELEV
  2
AecDbDispRepDoorElev
  3
AecArchBase50|Product Desc: Autodesk Architectural Desktop 2007 |Company: Autodesk,Inc. |WEB Address: www.autodesk.com
 90
    32897
280
     0
281
     0
  0
CLASS
  1
AEC_DISP_REP_DOOR_RCP
  2
AecDbDispRepDoorRcp
  3
AecArchBase50|Product Desc: Autodesk Architectural Desktop 2007 |Company: Autodesk,Inc. |WEB Address: www.autodesk.com
 90
    32897
280
     0
281
     0
  0
CLASS
  1
AEC_DISP_REP_DOOR_THRESHOLD_PLAN
  2
AecDbDispRepDoorThresholdPlan
  3
AecArchBase50|Product Desc: Autodesk Architectural Desktop 2007 |Company: Autodesk,Inc. |WEB Address: www.autodesk.com
 90
    32897
280
     0
281
     0
  0
CLASS
  1
AEC_DISP_PROPS_DOOR_THRESHOLD_PLAN
  2
AecDbDispPropsDoorThresholdPlan
  3
AecArchBase50|Product Desc: Autodesk Architectural Desktop 2007 |Company: Autodesk,Inc. |WEB Address: www.autodesk.com
 90
    32897
280
     0
281
     0
  0
CLASS
  1
AEC_DISP_REP_MASS_ELEM_RCP
  2
AecDbDispRepMassElemRcp
  3
AecArchBase50|Product Desc: Autodesk Architectural Desktop 2007 |Company: Autodesk,Inc. |WEB Address: www.autodesk.com
 90
    32897
280
     0
281
     0
  0
CLASS
  1
AEC_DISP_REP_MASS_GROUP_RCP
  2
AecDbDispRepMassGroupRcp
  3
AecArchBase50|Product Desc: Autodesk Architectural Desktop 2007 |Company: Autodesk,Inc. |WEB Address: www.autodesk.com
 90
    32897
280
     0
281
     0
  0
CLASS
  1
AEC_DISP_REP_MVBLOCK_REF_RCP
  2
AecDbDispRepMvBlockRefRcp
  3
AecArchBase50|Product Desc: Autodesk Architectural Desktop 2007 |Company: Autodesk,Inc. |WEB Address: www.autodesk.com
 90
    32897
280
     0
281
     0
  0
CLASS
  1
AEC_DISP_REP_ROOF_RCP
  2
AecDbDispRepRoofRcp
  3
AecArchBase50|Product Desc: Autodesk Architectural Desktop 2007 |Company: Autodesk,Inc. |WEB Address: www.autodesk.com
 90
    32897
280
     0
281
     0
  0
CLASS
  1
AEC_DISP_REP_SPACE_BOUNDARY_DIAGRAM
  2
AecDbDispRepSpaceBoundaryDgrm
  3
AecArchBase50|Product Desc: Autodesk Architectural Desktop 2007 |Company: Autodesk,Inc. |WEB Address: www.autodesk.com
 90
    32897
280
     0
281
     0
  0
CLASS
  1
AEC_DISP_REP_SPACE_RCP
  2
AecDbDispRepSpaceRcp
  3
AecArchBase50|Product Desc: Autodesk Architectural Desktop 2007 |Company: Autodesk,Inc. |WEB Address: www.autodesk.com
 90
    32897
280
     0
281
     0
  0
CLASS
  1
AEC_DISP_REP_SPACE_VOLUME
  2
AecDbDispRepSpaceVolume
  3
AecArchBase50|Product Desc: Autodesk Architectural Desktop 2007 |Company: Autodesk,Inc. |WEB Address: www.autodesk.com
 90
    32897
280
     0
281
     0
  0
CLASS
  1
AEC_DISP_REP_STAIR_PLAN_OVERLAPPING
  2
AecDbDispRepStairPlanOverlapping
  3
AecArchBase50|Product Desc: Autodesk Architectural Desktop 2007 |Company: Autodesk,Inc. |WEB Address: www.autodesk.com
 90
    32897
280
     0
281
     0
  0
CLASS
  1
AEC_DISP_PROPS_STAIR_PLAN_OVERLAPPING
  2
AecDbDispPropsStairPlanOverlapping
  3
AecArchBase50|Product Desc: Autodesk Architectural Desktop 2007 |Company: Autodesk,Inc. |WEB Address: www.autodesk.com
 90
    32897
280
     0
281
     0
  0
CLASS
  1
AEC_DISP_REP_STAIR_RCP
  2
AecDbDispRepStairRcp
  3
AecArchBase50|Product Desc: Autodesk Architectural Desktop 2007 |Company: Autodesk,Inc. |WEB Address: www.autodesk.com
 90
    32897
280
     0
281
     0
  0
CLASS
  1
AEC_DISP_REP_WALL_RCP
  2
AecDbDispRepWallRcp
  3
AecArchBase50|Product Desc: Autodesk Architectural Desktop 2007 |Company: Autodesk,Inc. |WEB Address: www.autodesk.com
 90
    32897
280
     0
281
     0
  0
CLASS
  1
AEC_DISP_REP_WINDOWASSEMBLY_SILL_PLAN
  2
AecDbDispRepWindowAssemblySillPlan
  3
AecArchBase50|Product Desc: Autodesk Architectural Desktop 2007 |Company: Autodesk,Inc. |WEB Address: www.autodesk.com
 90
    32897
280
     0
281
     0
  0
CLASS
  1
AEC_DISP_PROPS_WINDOW_ASSEMBLY_SILL_PLAN
  2
AecDbDispPropsWindowAssemblySillPlan
  3
AecArchBase50|Product Desc: Autodesk Architectural Desktop 2007 |Company: Autodesk,Inc. |WEB Address: www.autodesk.com
 90
    32897
280
     0
281
     0
  0
CLASS
  1
AEC_DISP_REP_WINDOW_ELEV
  2
AecDbDispRepWindowElev
  3
AecArchBase50|Product Desc: Autodesk Architectural Desktop 2007 |Company: Autodesk,Inc. |WEB Address: www.autodesk.com
 90
    32897
280
     0
281
     0
  0
CLASS
  1
AEC_DISP_REP_WINDOW_RCP
  2
AecDbDispRepWindowRcp
  3
AecArchBase50|Product Desc: Autodesk Architectural Desktop 2007 |Company: Autodesk,Inc. |WEB Address: www.autodesk.com
 90
    32897
280
     0
281
     0
  0
CLASS
  1
AEC_DISP_REP_WINDOW_SILL_PLAN
  2
AecDbDispRepWindowSillPlan
  3
AecArchBase50|Product Desc: Autodesk Architectural Desktop 2007 |Company: Autodesk,Inc. |WEB Address: www.autodesk.com
 90
    32897
280
     0
281
     0
  0
CLASS
  1
AEC_DISP_PROPS_WINDOW_SILL_PLAN
  2
AecDbDispPropsWindowSillPlan
  3
AecArchBase50|Product Desc: Autodesk Architectural Desktop 2007 |Company: Autodesk,Inc. |WEB Address: www.autodesk.com
 90
    32897
280
     0
281
     0
  0
CLASS
  1
AEC_DISP_REP_ANCHOR_BUB_TO_GRID_RCP
  2
AecDbDispRepAnchorBubToGridRcp
  3
AecStructureBase50|Product Desc: Autodesk Architectural Desktop 2007 |Company: Autodesk,Inc. |WEB Address: www.autodesk.com
 90
    32897
280
     0
281
     0
  0
CLASS
  1
AEC_DISP_REP_COLUMN_GRID_RCP
  2
AecDbDispRepColumnGridRcp
  3
AecStructureBase50|Product Desc: Autodesk Architectural Desktop 2007 |Company: Autodesk,Inc. |WEB Address: www.autodesk.com
 90
    32897
280
     0
281
     0
  0
CLASS
  1
AECS_DISP_REP_MEMBER_ELEVATION_DESIGN
  2
AecsDbDispRepMemberElevationDesign
  3
AecStructureBase50|Product Desc: Autodesk Architectural Desktop 2007 |Company: Autodesk,Inc. |WEB Address: www.autodesk.com
 90
    32897
280
     0
281
     0
  0
CLASS
  1
AECS_DISP_PROPS_MEMBER_PROJECTED
  2
AecsDbDispPropsMemberProjected
  3
AecStructureBase50|Product Desc: Autodesk Architectural Desktop 2007 |Company: Autodesk,Inc. |WEB Address: www.autodesk.com
 90
    32897
280
     0
281
     0
  0
CLASS
  1
AECS_DISP_REP_MEMBER_ELEVATION_DETAIL
  2
AecsDbDispRepMemberElevationDetail
  3
AecStructureBase50|Product Desc: Autodesk Architectural Desktop 2007 |Company: Autodesk,Inc. |WEB Address: www.autodesk.com
 90
    32897
280
     0
281
     0
  0
CLASS
  1
AECS_DISP_REP_MEMBER_MODEL_DETAIL
  2
AecsDbDispRepMemberModelDetail
  3
AecStructureBase50|Product Desc: Autodesk Architectural Desktop 2007 |Company: Autodesk,Inc. |WEB Address: www.autodesk.com
 90
    32897
280
     0
281
     0
  0
CLASS
  1
AECS_DISP_REP_MEMBER_PLAN_DETAIL
  2
AecsDbDispRepMemberPlanDetail
  3
AecStructureBase50|Product Desc: Autodesk Architectural Desktop 2007 |Company: Autodesk,Inc. |WEB Address: www.autodesk.com
 90
    32897
280
     0
281
     0
  0
CLASS
  1
AECS_DISP_REP_MEMBER_PLAN_SKETCH
  2
AecsDbDispRepMemberPlanSketch
  3
AecStructureBase50|Product Desc: Autodesk Architectural Desktop 2007 |Company: Autodesk,Inc. |WEB Address: www.autodesk.com
 90
    32897
280
     0
281
     0
  0
CLASS
  1
AECS_DISP_PROPS_MEMBER_PLAN_SKETCH
  2
AecsDbDispPropsMemberPlanSketch
  3
AecStructureBase50|Product Desc: Autodesk Architectural Desktop 2007 |Company: Autodesk,Inc. |WEB Address: www.autodesk.com
 90
    32897
280
     0
281
     0
  0
CLASS
  1
AEC_AECDBDISPREPAREA100
  2
AecDbDispRepArea100
  3
AecArchDACHBase50|Product Desc: Autodesk Architectural Desktop 2007 |Company: Autodesk,Inc. |WEB Address: www.autodesk.com
 90
    32897
280
     0
281
     0
  0
CLASS
  1
AEC_AECDBDISPREPAREAGROUP100
  2
AecDbDispRepAreaGroup100
  3
AecArchDACHBase50|Product Desc: Autodesk Architectural Desktop 2007 |Company: Autodesk,Inc. |WEB Address: www.autodesk.com
 90
    32897
280
     0
281
     0
  0
CLASS
  1
AEC_AECDBDISPREPBDGELEVLINEPLAN100
  2
AecDbDispRepBdgElevLinePlan100
  3
AecArchDACHBase50|Product Desc: Autodesk Architectural Desktop 2007 |Company: Autodesk,Inc. |WEB Address: www.autodesk.com
 90
    32897
280
     0
281
     0
  0
CLASS
  1
AEC_AECDBDISPREPBDGSECTIONLINEPLAN100
  2
AecDbDispRepBdgSectionLinePlan100
  3
AecArchDACHBase50|Product Desc: Autodesk Architectural Desktop 2007 |Company: Autodesk,Inc. |WEB Address: www.autodesk.com
 90
    32897
280
     0
281
     0
  0
CLASS
  1
AEC_AECDBDISPREPCEILINGGRIDPLAN100
  2
AecDbDispRepCeilingGridPlan100
  3
AecArchDACHBase50|Product Desc: Autodesk Architectural Desktop 2007 |Company: Autodesk,Inc. |WEB Address: www.autodesk.com
 90
    32897
280
     0
281
     0
  0
CLASS
  1
AEC_AECDBDISPREPCOLUMNGRIDPLAN100
  2
AecDbDispRepColumnGridPlan100
  3
AecArchDACHBase50|Product Desc: Autodesk Architectural Desktop 2007 |Company: Autodesk,Inc. |WEB Address: www.autodesk.com
 90
    32897
280
     0
281
     0
  0
CLASS
  1
AEC_AECDBDISPREPCURTAINWALLLAYOUTPLAN100
  2
AecDbDispRepCurtainWallLayoutPlan100
  3
AecArchDACHBase50|Product Desc: Autodesk Architectural Desktop 2007 |Company: Autodesk,Inc. |WEB Address: www.autodesk.com
 90
    32897
280
     0
281
     0
  0
CLASS
  1
AEC_AECDBDISPREPCURTAINWALLUNITPLAN100
  2
AecDbDispRepCurtainWallUnitPlan100
  3
AecArchDACHBase50|Product Desc: Autodesk Architectural Desktop 2007 |Company: Autodesk,Inc. |WEB Address: www.autodesk.com
 90
    32897
280
     0
281
     0
  0
CLASS
  1
AEC_AECDBDISPREPMVBLOCKREFPLAN100
  2
AecDbDispRepMvBlockRefPlan100
  3
AecArchDACHBase50|Product Desc: Autodesk Architectural Desktop 2007 |Company: Autodesk,Inc. |WEB Address: www.autodesk.com
 90
    32897
280
     0
281
     0
  0
CLASS
  1
AEC_AECDBDISPREPROOFPLAN100
  2
AecDbDispRepRoofPlan100
  3
AecArchDACHBase50|Product Desc: Autodesk Architectural Desktop 2007 |Company: Autodesk,Inc. |WEB Address: www.autodesk.com
 90
    32897
280
     0
281
     0
  0
CLASS
  1
AEC_AECDBDISPREPROOFSLABPLAN100
  2
AecDbDispRepRoofSlabPlan100
  3
AecArchDACHBase50|Product Desc: Autodesk Architectural Desktop 2007 |Company: Autodesk,Inc. |WEB Address: www.autodesk.com
 90
    32897
280
     0
281
     0
  0
CLASS
  1
AEC_AECDBDISPREPSLABPLAN100
  2
AecDbDispRepSlabPlan100
  3
AecArchDACHBase50|Product Desc: Autodesk Architectural Desktop 2007 |Company: Autodesk,Inc. |WEB Address: www.autodesk.com
 90
    32897
280
     0
281
     0
  0
CLASS
  1
AEC_AECDBDISPREPSPACEBOUNDARYPLAN100
  2
AecDbDispRepSpaceBoundaryPlan100
  3
AecArchDACHBase50|Product Desc: Autodesk Architectural Desktop 2007 |Company: Autodesk,Inc. |WEB Address: www.autodesk.com
 90
    32897
280
     0
281
     0
  0
CLASS
  1
AEC_AECDBDISPREPSPACEPLAN100
  2
AecDbDispRepSpacePlan100
  3
AecArchDACHBase50|Product Desc: Autodesk Architectural Desktop 2007 |Company: Autodesk,Inc. |WEB Address: www.autodesk.com
 90
    32897
280
     0
281
     0
  0
CLASS
  1
AEC_AECDBDISPREPWALLPLAN100
  2
AecDbDispRepWallPlan100
  3
AecArchDACHBase50|Product Desc: Autodesk Architectural Desktop 2007 |Company: Autodesk,Inc. |WEB Address: www.autodesk.com
 90
    32897
280
     0
281
     0
  0
CLASS
  1
AEC_AECDBDISPREPAREA50
  2
AecDbDispRepArea50
  3
AecArchDACHBase50|Product Desc: Autodesk Architectural Desktop 2007 |Company: Autodesk,Inc. |WEB Address: www.autodesk.com
 90
    32897
280
     0
281
     0
  0
CLASS
  1
AEC_AECDBDISPREPAREAGROUP50
  2
AecDbDispRepAreaGroup50
  3
AecArchDACHBase50|Product Desc: Autodesk Architectural Desktop 2007 |Company: Autodesk,Inc. |WEB Address: www.autodesk.com
 90
    32897
280
     0
281
     0
  0
CLASS
  1
AEC_AECDBDISPREPBDGELEVLINEPLAN50
  2
AecDbDispRepBdgElevLinePlan50
  3
AecArchDACHBase50|Product Desc: Autodesk Architectural Desktop 2007 |Company: Autodesk,Inc. |WEB Address: www.autodesk.com
 90
    32897
280
     0
281
     0
  0
CLASS
  1
AEC_AECDBDISPREPBDGSECTIONLINEPLAN50
  2
AecDbDispRepBdgSectionLinePlan50
  3
AecArchDACHBase50|Product Desc: Autodesk Architectural Desktop 2007 |Company: Autodesk,Inc. |WEB Address: www.autodesk.com
 90
    32897
280
     0
281
     0
  0
CLASS
  1
AEC_AECDBDISPREPCEILINGGRIDPLAN50
  2
AecDbDispRepCeilingGridPlan50
  3
AecArchDACHBase50|Product Desc: Autodesk Architectural Desktop 2007 |Company: Autodesk,Inc. |WEB Address: www.autodesk.com
 90
    32897
280
     0
281
     0
  0
CLASS
  1
AEC_AECDBDISPREPCOLUMNGRIDPLAN50
  2
AecDbDispRepColumnGridPlan50
  3
AecArchDACHBase50|Product Desc: Autodesk Architectural Desktop 2007 |Company: Autodesk,Inc. |WEB Address: www.autodesk.com
 90
    32897
280
     0
281
     0
  0
CLASS
  1
AEC_AECDBDISPREPCURTAINWALLLAYOUTPLAN50
  2
AecDbDispRepCurtainWallLayoutPlan50
  3
AecArchDACHBase50|Product Desc: Autodesk Architectural Desktop 2007 |Company: Autodesk,Inc. |WEB Address: www.autodesk.com
 90
    32897
280
     0
281
     0
  0
CLASS
  1
AEC_AECDBDISPREPCURTAINWALLUNITPLAN50
  2
AecDbDispRepCurtainWallUnitPlan50
  3
AecArchDACHBase50|Product Desc: Autodesk Architectural Desktop 2007 |Company: Autodesk,Inc. |WEB Address: www.autodesk.com
 90
    32897
280
     0
281
     0
  0
CLASS
  1
AEC_AECDBDISPREPMVBLOCKREFPLAN50
  2
AecDbDispRepMvBlockRefPlan50
  3
AecArchDACHBase50|Product Desc: Autodesk Architectural Desktop 2007 |Company: Autodesk,Inc. |WEB Address: www.autodesk.com
 90
    32897
280
     0
281
     0
  0
CLASS
  1
AEC_AECDBDISPREPROOFPLAN50
  2
AecDbDispRepRoofPlan50
  3
AecArchDACHBase50|Product Desc: Autodesk Architectural Desktop 2007 |Company: Autodesk,Inc. |WEB Address: www.autodesk.com
 90
    32897
280
     0
281
     0
  0
CLASS
  1
AEC_AECDBDISPREPROOFSLABPLAN50
  2
AecDbDispRepRoofSlabPlan50
  3
AecArchDACHBase50|Product Desc: Autodesk Architectural Desktop 2007 |Company: Autodesk,Inc. |WEB Address: www.autodesk.com
 90
    32897
280
     0
281
     0
  0
CLASS
  1
AEC_AECDBDISPREPSLABPLAN50
  2
AecDbDispRepSlabPlan50
  3
AecArchDACHBase50|Product Desc: Autodesk Architectural Desktop 2007 |Company: Autodesk,Inc. |WEB Address: www.autodesk.com
 90
    32897
280
     0
281
     0
  0
CLASS
  1
AEC_AECDBDISPREPSPACEBOUNDARYPLAN50
  2
AecDbDispRepSpaceBoundaryPlan50
  3
AecArchDACHBase50|Product Desc: Autodesk Architectural Desktop 2007 |Company: Autodesk,Inc. |WEB Address: www.autodesk.com
 90
    32897
280
     0
281
     0
  0
CLASS
  1
AEC_AECDBDISPREPSPACEPLAN50
  2
AecDbDispRepSpacePlan50
  3
AecArchDACHBase50|Product Desc: Autodesk Architectural Desktop 2007 |Company: Autodesk,Inc. |WEB Address: www.autodesk.com
 90
    32897
280
     0
281
     0
  0
CLASS
  1
AEC_AECDBDISPREPWALLPLAN50
  2
AecDbDispRepWallPlan50
  3
AecArchDACHBase50|Product Desc: Autodesk Architectural Desktop 2007 |Company: Autodesk,Inc. |WEB Address: www.autodesk.com
 90
    32897
280
     0
281
     0
  0
CLASS
  1
AEC_AECDBDISPREPWINDOWASSEMBLYPLAN50
  2
AecDbDispRepWindowAssemblyPlan50
  3
AecArchDACHBase50|Product Desc: Autodesk Architectural Desktop 2007 |Company: Autodesk,Inc. |WEB Address: www.autodesk.com
 90
    32897
280
     0
281
     0
  0
CLASS
  1
AEC_DB_DISP_REP_DIM_GROUP_PLAN100
  2
AecDbDispRepDimGroupPlan100
  3
AecArchDACHBase50|Product Desc: Autodesk Architectural Desktop 2007 |Company: Autodesk,Inc. |WEB Address: www.autodesk.com
 90
    32897
280
     0
281
     0
  0
CLASS
  1
AEC_DB_DISP_REP_DIM_GROUP_PLAN50
  2
AecDbDispRepDimGroupPlan50
  3
AecArchDACHBase50|Product Desc: Autodesk Architectural Desktop 2007 |Company: Autodesk,Inc. |WEB Address: www.autodesk.com
 90
    32897
280
     0
281
     0
  0
CLASS
  1
AEC_DISP_REP_DOOR_PLAN_50
  2
AecDbDispRepDoorPlan50
  3
AecArchDACHBase50|Product Desc: Autodesk Architectural Desktop 2007 |Company: Autodesk,Inc. |WEB Address: www.autodesk.com
 90
    32897
280
     0
281
     0
  0
CLASS
  1
AEC_DISP_PROPS_DOOR_PLAN_50
  2
AecDbDispPropsDoorPlan50
  3
AecArchDACHBase50|Product Desc: Autodesk Architectural Desktop 2007 |Company: Autodesk,Inc. |WEB Address: www.autodesk.com
 90
    32897
280
     0
281
     0
  0
CLASS
  1
AEC_DISP_REP_DOOR_PLAN_HEKTO
  2
AecDbDispRepDoorPlanHekto
  3
AecArchDACHBase50|Product Desc: Autodesk Architectural Desktop 2007 |Company: Autodesk,Inc. |WEB Address: www.autodesk.com
 90
    32897
280
     0
281
     0
  0
CLASS
  1
AEC_DISP_PROPS_DOOR_PLAN_100
  2
AecDbDispPropsDoorPlan100
  3
AecArchDACHBase50|Product Desc: Autodesk Architectural Desktop 2007 |Company: Autodesk,Inc. |WEB Address: www.autodesk.com
 90
    32897
280
     0
281
     0
  0
CLASS
  1
AEC_DISP_REP_DOOR_THRESHOLD_SYMBOL_PLAN
  2
AecDbDispRepDoorThresholdSymbolPlan
  3
AecArchDACHBase50|Product Desc: Autodesk Architectural Desktop 2007 |Company: Autodesk,Inc. |WEB Address: www.autodesk.com
 90
    32897
280
     0
281
     0
  0
CLASS
  1
AEC_DISP_PROPS_DOOR_THRESHOLD_SYMBOL_PLAN
  2
AecDbDispPropsDoorThresholdSymbolPlan
  3
AecArchDACHBase50|Product Desc: Autodesk Architectural Desktop 2007 |Company: Autodesk,Inc. |WEB Address: www.autodesk.com
 90
    32897
280
     0
281
     0
  0
CLASS
  1
AEC_DISPREPAECDBDISPREPMASSELEMPLAN100
  2
AecDbDispRepMassElemPlan100
  3
AecArchDACHBase50|Product Desc: Autodesk Architectural Desktop 2007 |Company: Autodesk,Inc. |WEB Address: www.autodesk.com
 90
    32897
280
     0
281
     0
  0
CLASS
  1
AEC_DISPROPSMASSELEMPLANCOMMON
  2
AecDbDispPropsMassElemPlanCommon
  3
AecArchDACHBase50|Product Desc: Autodesk Architectural Desktop 2007 |Company: Autodesk,Inc. |WEB Address: www.autodesk.com
 90
    32897
280
     0
281
     0
  0
CLASS
  1
AEC_DISPREPAECDBDISPREPMASSELEMPLAN50
  2
AecDbDispRepMassElemPlan50
  3
AecArchDACHBase50|Product Desc: Autodesk Architectural Desktop 2007 |Company: Autodesk,Inc. |WEB Address: www.autodesk.com
 90
    32897
280
     0
281
     0
  0
CLASS
  1
AEC_DISPREPAECDBDISPREPMASSGROUPPLAN100
  2
AecDbDispRepMassGroupPlan100
  3
AecArchDACHBase50|Product Desc: Autodesk Architectural Desktop 2007 |Company: Autodesk,Inc. |WEB Address: www.autodesk.com
 90
    32897
280
     0
281
     0
  0
CLASS
  1
AEC_DISPROPSMASSGROUPPLANCOMMON
  2
AecDbDispPropsMassGroupPlanCommon
  3
AecArchDACHBase50|Product Desc: Autodesk Architectural Desktop 2007 |Company: Autodesk,Inc. |WEB Address: www.autodesk.com
 90
    32897
280
     0
281
     0
  0
CLASS
  1
AEC_DISPREPAECDBDISPREPMASSGROUPPLAN50
  2
AecDbDispRepMassGroupPlan50
  3
AecArchDACHBase50|Product Desc: Autodesk Architectural Desktop 2007 |Company: Autodesk,Inc. |WEB Address: www.autodesk.com
 90
    32897
280
     0
281
     0
  0
CLASS
  1
AEC_DISPREPAECDBDISPREPOPENINGPLAN100
  2
AecDbDispRepOpeningPlan100
  3
AecArchDACHBase50|Product Desc: Autodesk Architectural Desktop 2007 |Company: Autodesk,Inc. |WEB Address: www.autodesk.com
 90
    32897
280
     0
281
     0
  0
CLASS
  1
AEC_DISPROPSOPENINGPLANCOMMONHATCHED
  2
AecDbDispPropsOpeningPlanCommonHatched
  3
AecArchDACHBase50|Product Desc: Autodesk Architectural Desktop 2007 |Company: Autodesk,Inc. |WEB Address: www.autodesk.com
 90
    32897
280
     0
281
     0
  0
CLASS
  1
AEC_DISPREPAECDBDISPREPOPENINGPLAN50
  2
AecDbDispRepOpeningPlan50
  3
AecArchDACHBase50|Product Desc: Autodesk Architectural Desktop 2007 |Company: Autodesk,Inc. |WEB Address: www.autodesk.com
 90
    32897
280
     0
281
     0
  0
CLASS
  1
AEC_DISPREPAECDBDISPREPOPENINGPLANREFLECTED
  2
AecDbDispRepOpeningPlanReflected
  3
AecArchDACHBase50|Product Desc: Autodesk Architectural Desktop 2007 |Company: Autodesk,Inc. |WEB Address: www.autodesk.com
 90
    32897
280
     0
281
     0
  0
CLASS
  1
AEC_DISPROPSOPENINGPLANCOMMON
  2
AecDbDispPropsOpeningPlanCommon
  3
AecArchDACHBase50|Product Desc: Autodesk Architectural Desktop 2007 |Company: Autodesk,Inc. |WEB Address: www.autodesk.com
 90
    32897
280
     0
281
     0
  0
CLASS
  1
AEC_DISPREPAECDBDISPREPOPENINGSILLPLAN
  2
AecDbDispRepOpeningSillPlan
  3
AecArchDACHBase50|Product Desc: Autodesk Architectural Desktop 2007 |Company: Autodesk,Inc. |WEB Address: www.autodesk.com
 90
    32897
280
     0
281
     0
  0
CLASS
  1
AEC_DISPROPSOPENINGSILLPLAN
  2
AecDbDispPropsOpeningSillPlan
  3
AecArchDACHBase50|Product Desc: Autodesk Architectural Desktop 2007 |Company: Autodesk,Inc. |WEB Address: www.autodesk.com
 90
    32897
280
     0
281
     0
  0
CLASS
  1
AEC_DISP_REP_RAILING_PLAN_100
  2
AecDbDispRepRailingPlan100
  3
AecArchDACHBase50|Product Desc: Autodesk Architectural Desktop 2007 |Company: Autodesk,Inc. |WEB Address: www.autodesk.com
 90
    32897
280
     0
281
     0
  0
CLASS
  1
AEC_DISP_ROPS_RAILING_PLAN_100
  2
AecDbDispPropsRailingPlan100
  3
AecArchDACHBase50|Product Desc: Autodesk Architectural Desktop 2007 |Company: Autodesk,Inc. |WEB Address: www.autodesk.com
 90
    32897
280
     0
281
     0
  0
CLASS
  1
AEC_DISP_REP_RAILING_PLAN_50
  2
AecDbDispRepRailingPlan50
  3
AecArchDACHBase50|Product Desc: Autodesk Architectural Desktop 2007 |Company: Autodesk,Inc. |WEB Address: www.autodesk.com
 90
    32897
280
     0
281
     0
  0
CLASS
  1
AEC_DISP_ROPS_RAILING_PLAN_50
  2
AecDbDispPropsRailingPlan50
  3
AecArchDACHBase50|Product Desc: Autodesk Architectural Desktop 2007 |Company: Autodesk,Inc. |WEB Address: www.autodesk.com
 90
    32897
280
     0
281
     0
  0
CLASS
  1
AEC_DISP_REP_STAIR_PLAN_100
  2
AecDbDispRepStairPlan100
  3
AecArchDACHBase50|Product Desc: Autodesk Architectural Desktop 2007 |Company: Autodesk,Inc. |WEB Address: www.autodesk.com
 90
    32897
280
     0
281
     0
  0
CLASS
  1
AEC_DISP_ROPS_STAIR_PLAN_100
  2
AecDbDispPropsStairPlan100
  3
AecArchDACHBase50|Product Desc: Autodesk Architectural Desktop 2007 |Company: Autodesk,Inc. |WEB Address: www.autodesk.com
 90
    32897
280
     0
281
     0
  0
CLASS
  1
AEC_DISP_REP_STAIR_PLAN_50
  2
AecDbDispRepStairPlan50
  3
AecArchDACHBase50|Product Desc: Autodesk Architectural Desktop 2007 |Company: Autodesk,Inc. |WEB Address: www.autodesk.com
 90
    32897
280
     0
281
     0
  0
CLASS
  1
AEC_DISP_ROPS_STAIR_PLAN_50
  2
AecDbDispPropsStairPlan50
  3
AecArchDACHBase50|Product Desc: Autodesk Architectural Desktop 2007 |Company: Autodesk,Inc. |WEB Address: www.autodesk.com
 90
    32897
280
     0
281
     0
  0
CLASS
  1
AEC_DISP_REP_WINDOW_PLAN_100
  2
AecDbDispRepWindowPlan100
  3
AecArchDACHBase50|Product Desc: Autodesk Architectural Desktop 2007 |Company: Autodesk,Inc. |WEB Address: www.autodesk.com
 90
    32897
280
     0
281
     0
  0
CLASS
  1
AEC_DISP_PROPS_WINDOW_PLAN_100
  2
AecDbDispPropsWindowPlan100
  3
AecArchDACHBase50|Product Desc: Autodesk Architectural Desktop 2007 |Company: Autodesk,Inc. |WEB Address: www.autodesk.com
 90
    32897
280
     0
281
     0
  0
CLASS
  1
AEC_DISP_REP_WINDOW_PLAN_50
  2
AecDbDispRepWindowPlan50
  3
AecArchDACHBase50|Product Desc: Autodesk Architectural Desktop 2007 |Company: Autodesk,Inc. |WEB Address: www.autodesk.com
 90
    32897
280
     0
281
     0
  0
CLASS
  1
AEC_DISP_PROPS_WINDOW_PLAN_50
  2
AecDbDispPropsWindowPlan50
  3
AecArchDACHBase50|Product Desc: Autodesk Architectural Desktop 2007 |Company: Autodesk,Inc. |WEB Address: www.autodesk.com
 90
    32897
280
     0
281
     0
  0
CLASS
  1
BINRECORD
  2
AcAecBinRecord
  3
AecBase50|Product Desc: Autodesk Architectural Desktop 2007 |Company: Autodesk,Inc. |WEB Address: www.autodesk.com
 90
    32897
280
     0
281
     0
  0
CLASS
  1
SPATIAL_FILTER
  2
AcDbSpatialFilter
  3
ObjectDBX Classes
 90
    32768
280
     0
281
     0
  0
CLASS
  1
AEC_VARS_STRUCTUREBASE
  2
AecsDbVarsStructureBase
  3
AecStructureBase50|Product Desc: Autodesk Architectural Desktop 2007 |Company: Autodesk,Inc. |WEB Address: www.autodesk.com
 90
    32897
280
     0
281
     0
  0
CLASS
  1
DIMASSOC
  2
AcDbDimAssoc
  3
"AcDbDimAssoc|Product Desc:     AcDim ARX App For Dimension|Company:          Autodesk, Inc.|WEB Address:      www.autodesk.com"
 90
        0
280
     0
281
     0
  0
CLASS
  1
TABLESTYLE
  2
AcDbTableStyle
  3
ObjectDBX Classes
 90
     4095
280
     0
281
     0
  0
CLASS
  1
MATERIAL
  2
AcDbMaterial
  3
ObjectDBX Classes
 90
     1153
280
     0
281
     0
  0
CLASS
  1
VISUALSTYLE
  2
AcDbVisualStyle
  3
ObjectDBX Classes
 90
     4095
280
     0
281
     0
  0
CLASS
  1
EXACXREFPANELOBJECT
  2
ExAcXREFPanelObject
  3
EXAC_ESW
 90
    33793
280
     1
281
     0
  0
CLASS
  1
NPOCOLLECTION
  2
AcDbImpNonPersistentObjectsCollection
  3
ObjectDBX Classes
 90
    33921
280
     0
281
     0
  0
CLASS
  1
AEC_AECDBDISPREPZONE100
  2
AecDbDispRepZonePlan100
  3
AecArchDACHBase50|Product Desc: Autodesk Architectural Desktop 2007 |Company: Autodesk,Inc. |WEB Address: www.autodesk.com
 90
    32897
280
     0
281
     0
  0
CLASS
  1
AEC_DISP_PROPS_ZONE
  2
AecDbDispPropsZone
  3
AecArchBase50|Product Desc: Autodesk Architectural Desktop 2007 |Company: Autodesk,Inc. |WEB Address: www.autodesk.com
 90
    32897
280
     0
281
     0
  0
CLASS
  1
AEC_AECDBDISPREPZONE50
  2
AecDbDispRepZonePlan50
  3
AecArchDACHBase50|Product Desc: Autodesk Architectural Desktop 2007 |Company: Autodesk,Inc. |WEB Address: www.autodesk.com
 90
    32897
280
     0
281
     0
  0
CLASS
  1
AEC_DISP_REP_DISPLAYTHEME
  2
AecDbDispRepDisplayTheme
  3
AecBase50|Product Desc: Autodesk Architectural Desktop 2007 |Company: Autodesk,Inc. |WEB Address: www.autodesk.com
 90
    32897
280
     0
281
     0
  0
CLASS
  1
AEC_DISP_PROPS_DISPLAYTHEME
  2
AecDbDispPropsDisplayTheme
  3
AecBase50|Product Desc: Autodesk Architectural Desktop 2007 |Company: Autodesk,Inc. |WEB Address: www.autodesk.com
 90
    32897
280
     0
281
     0
  0
CLASS
  1
AEC_DISP_REP_ANCHOR_EXT_TAG_TO_ENT
  2
AecDbDispRepAnchorExtendedTagToEnt
  3
AecScheduleData50|Product Desc: Autodesk Architectural Desktop 2007 |Company: Autodesk,Inc. |WEB Address: www.autodesk.com
 90
    32897
280
     0
281
     0
  0
CLASS
  1
AEC_DISP_REP_SPACE_DECOMPOSED
  2
AecDbDispRepSpaceDecomposed
  3
AecArchBase50|Product Desc: Autodesk Architectural Desktop 2007 |Company: Autodesk,Inc. |WEB Address: www.autodesk.com
 90
    32897
280
     0
281
     0
  0
CLASS
  1
AEC_DISP_PROPS_SPACE_DECOMPOSED
  2
AecDbDispPropsSpaceDecomposed
  3
AecArchBase50|Product Desc: Autodesk Architectural Desktop 2007 |Company: Autodesk,Inc. |WEB Address: www.autodesk.com
 90
    32897
280
     0
281
     0
  0
CLASS
  1
AEC_DISP_REP_ZONE
  2
AecDbDispRepZone
  3
AecArchBase50|Product Desc: Autodesk Architectural Desktop 2007 |Company: Autodesk,Inc. |WEB Address: www.autodesk.com
 90
    32897
280
     0
281
     0
  0
CLASS
  1
ACAD_EVALUATION_GRAPH
  2
AcDbEvalGraph
  3
ObjectDBX Classes
 90
    33921
280
     0
281
     0
  0
CLASS
  1
BLOCKFLIPPARAMETER
  2
AcDbBlockFlipParameter
  3
ObjectDBX Classes
 90
    33921
280
     0
281
     0
  0
CLASS
  1
BLOCKFLIPGRIP
  2
AcDbBlockFlipGrip
  3
ObjectDBX Classes
 90
    33921
280
     0
281
     0
  0
CLASS
  1
BLOCKGRIPLOCATIONCOMPONENT
  2
AcDbBlockGripExpr
  3
ObjectDBX Classes
 90
    33921
280
     0
281
     0
  0
CLASS
  1
BLOCKFLIPACTION
  2
AcDbBlockFlipAction
  3
ObjectDBX Classes
 90
    33921
280
     0
281
     0
  0
CLASS
  1
BLOCKROTATIONPARAMETER
  2
AcDbBlockRotationParameter
  3
ObjectDBX Classes
 90
    33921
280
     0
281
     0
  0
CLASS
  1
BLOCKROTATIONGRIP
  2
AcDbBlockRotationGrip
  3
ObjectDBX Classes
 90
    33921
280
     0
281
     0
  0
CLASS
  1
BLOCKROTATEACTION
  2
AcDbBlockRotateAction
  3
ObjectDBX Classes
 90
    33921
280
     0
281
     0
  0
CLASS
  1
BLOCKBASEPOINTPARAMETER
  2
AcDbBlockBasepointParameter
  3
ObjectDBX Classes
 90
    33921
280
     0
281
     0
  0
CLASS
  1
ACDB_DYNAMICBLOCKPURGEPREVENTER_VERSION
  2
AcDbDynamicBlockPurgePreventer
  3
ObjectDBX Classes
 90
    33921
280
     0
281
     0
  0
CLASS
  1
ACDB_BLOCKREPRESENTATION_DATA
  2
AcDbBlockRepresentationData
  3
ObjectDBX Classes
 90
    33921
280
     0
281
     0
  0
CLASS
  1
BLOCKVISIBILITYPARAMETER
  2
AcDbBlockVisibilityParameter
  3
ObjectDBX Classes
 90
    33921
280
     0
281
     0
  0
CLASS
  1
BLOCKVISIBILITYGRIP
  2
AcDbBlockVisibilityGrip
  3
ObjectDBX Classes
 90
    33921
280
     0
281
     0
  0
CLASS
  1
BLOCKLINEARPARAMETER
  2
AcDbBlockLinearParameter
  3
ObjectDBX Classes
 90
    33921
280
     0
281
     0
  0
CLASS
  1
BLOCKSTRETCHACTION
  2
AcDbBlockStretchAction
  3
ObjectDBX Classes
 90
    33921
280
     0
281
     0
  0
CLASS
  1
BLOCKLOOKUPPARAMETER
  2
AcDbBlockLookupParameter
  3
ObjectDBX Classes
 90
    33921
280
     0
281
     0
  0
CLASS
  1
BLOCKLOOKUPGRIP
  2
AcDbBlockLookupGrip
  3
ObjectDBX Classes
 90
    33921
280
     0
281
     0
  0
CLASS
  1
BLOCKLOOKUPACTION
  2
AcDbBlockLookupAction
  3
ObjectDBX Classes
 90
    33921
280
     0
281
     0
  0
CLASS
  1
BLOCKMOVEACTION
  2
AcDbBlockMoveAction
  3
ObjectDBX Classes
 90
    33921
280
     0
281
     0
  0
CLASS
  1
BLOCKLINEARGRIP
  2
AcDbBlockLinearGrip
  3
ObjectDBX Classes
 90
    33921
280
     0
281
     0
  0
CLASS
  1
OBJECT_PTR
  2
CAseDLPNTableRecord
  3
ASE-LPNTableRecord
 90
        1
280
     0
281
     0
  0
CLASS
  1
SCALE
  2
AcDbScale
  3
ObjectDBX Classes
 90
     1153
280
     0
281
     0
  0
CLASS
  1
MLEADERSTYLE
  2
AcDbMLeaderStyle
  3
ACDB_MLEADERSTYLE_CLASS
 90
    36863
280
     0
281
     0
  0
CLASS
  1
CELLSTYLEMAP
  2
AcDbCellStyleMap
  3
ObjectDBX Classes
 90
     1152
280
     0
281
     0
  0
CLASS
  1
AEC_REFEDIT_STATUS_TRACKER
  2
AecDbRefEditStatusTracker
  3
AecArchBase50|Product Desc: Autodesk Architectural Desktop 2007 |Company: Autodesk,Inc. |WEB Address: www.autodesk.com
 90
    32897
280
     0
281
     0
  0
ENDSEC
  0
SECTION
  2
TABLES
  0
TABLE
  2
VPORT
  5
252
330
0
100
AcDbSymbolTable
 70
     1
  0
VPORT
  5
253
330
252
100
AcDbSymbolTableRecord
100
AcDbViewportTableRecord
  2
*Active
 70
     0
 10
0.0
 20
0.0
 11
1.0
 21
1.0
 12
231010.6818652688
 22
134373.9263614748
 13
0.0
 23
0.0
 14
10.0
 24
10.0
 15
10.0
 25
10.0
 16
0.0
 26
0.0
 36
1.0
 17
0.0
 27
0.0
 37
0.0
 40
29234.80904162583
 41
2.191040843214756
 42
50.0
 43
0.0
 44
0.0
 50
0.0
 51
0.0
 71
     0
 72
  1000
 73
     1
 74
     1
 75
     0
 76
     0
 77
     0
 78
     0
281
     0
 65
     1
110
0.0
120
0.0
130
0.0
111
1.0
121
0.0
131
0.0
112
0.0
122
1.0
132
0.0
 79
     0
146
0.0
  0
ENDTAB
  0
TABLE
  2
LTYPE
  5
24D
330
0
100
AcDbSymbolTable
 70
     2
  0
LTYPE
  5
24E
330
24D
100
AcDbSymbolTableRecord
100
AcDbLinetypeTableRecord
  2
ByBlock
 70
     0
  3

 72
    65
 73
     0
 40
0.0
  0
LTYPE
  5
24F
330
24D
100
AcDbSymbolTableRecord
100
AcDbLinetypeTableRecord
  2
ByLayer
 70
     0
  3

 72
    65
 73
     0
 40
0.0
  0
LTYPE
  5
E
330
24D
100
AcDbSymbolTableRecord
100
AcDbLinetypeTableRecord
  2
Continuous
 70
     0
  3
Solid line
 72
    65
 73
     0
 40
0.0
  0
LTYPE
  5
14
330
24D
100
AcDbSymbolTableRecord
100
AcDbLinetypeTableRecord
  2
HIDDEN
 70
     0
  3
Hidden __ __ __ __ __ __ __ __ __ __ __ __ __ _
 72
    65
 73
     2
 40
0.375
 49
0.25
 74
     0
 49
-0.125
 74
     0
  0
ENDTAB
  0
TABLE
  2
LAYER
  5
244
102
{ACAD_XDICTIONARY
360
245
102
}
330
0
100
AcDbSymbolTable
 70
     9
  0
LAYER
  5
6
102
{ACAD_XDICTIONARY
360
7
102
}
330
244
100
AcDbSymbolTableRecord
100
AcDbLayerTableRecord
  2
0
 70
     0
 62
     7
  6
Continuous
370
    -3
390
9
1001
RAK
1000
{ACET-LAYISO
1070
     0
1070
     7
1000
Continuous
1071
       -3
1071
        1
1005
9
1000
ACET-LAYISO}
  0
LAYER
  5
B5
330
244
100
AcDbSymbolTableRecord
100
AcDbLayerTableRecord
  2
DEFPOINTS
 70
     0
 62
     7
  6
Continuous
290
     0
370
    -3
390
9
1001
RAK
1000
{ACET-LAYISO
1070
     0
1070
     7
1000
Continuous
1071
       -3
1071
        0
1005
9
1000
ACET-LAYISO}
  0
LAYER
  5
1C
102
{ACAD_XDICTIONARY
360
1D
102
}
330
244
100
AcDbSymbolTableRecord
100
AcDbLayerTableRecord
  2
RAMKI-A4
 70
     0
 62
     2
  6
Continuous
290
     0
370
    -3
390
9
1001
RAK
1000
{ACET-LAYISO
1070
     0
1070
     2
1000
Continuous
1071
       -3
1071
        0
1005
9
1000
ACET-LAYISO}
  0
LAYER
  5
6E
102
{ACAD_XDICTIONARY
360
6F
102
}
330
244
100
AcDbSymbolTableRecord
100
AcDbLayerTableRecord
  2
0Wymiary-PL
 70
     0
 62
     1
  6
Continuous
370
     5
390
9
  0
LAYER
  5
16
102
{ACAD_XDICTIONARY
360
17
102
}
330
244
100
AcDbSymbolTableRecord
100
AcDbLayerTableRecord
  2
0Napisy-PL
 70
     0
 62
   140
  6
Continuous
370
    15
390
9
1001
RAK
1000
{ACET-LAYISO
1070
     0
1070
   140
1000
Continuous
1071
       15
1071
        1
1005
9
1000
ACET-LAYISO}
  0
LAYER
  5
11
102
{ACAD_XDICTIONARY
360
12
102
}
330
244
100
AcDbSymbolTableRecord
100
AcDbLayerTableRecord
  2
0Napisy
 70
     0
 62
   140
  6
Continuous
370
    15
390
9
1001
RAK
1000
{ACET-LAYISO
1070
     0
1070
    33
1000
Continuous
1071
       18
1071
        1
1005
9
1000
ACET-LAYISO}
  0
LAYER
  5
65
102
{ACAD_XDICTIONARY
360
66
102
}
330
244
100
AcDbSymbolTableRecord
100
AcDbLayerTableRecord
  2
teren$0$A-WallBelow-G
 70
     0
 62
     8
  6
Continuous
370
     5
390
68
1001
RAK
1000
{KONDYGNACJA POWTARZALNA
1070
     0
1070
    30
1000
CONTINUOUS
1071
       -3
1071
        1
1005
9
1000
KONDYGNACJA POWTARZALNA}
1001
AcAecLayerStandard
1000

1000
Architects, Wall (below cut plane), Graphics
  0
LAYER
  5
2C
102
{ACAD_XDICTIONARY
360
2D
102
}
330
244
100
AcDbSymbolTableRecord
100
AcDbLayerTableRecord
  2
teren$0$A-MassElement-G
 70
     0
 62
   210
  6
Continuous
370
    -3
390
9
1001
RAK
1000
{ACET-LAYISO
1070
     0
1070
   210
1000
Continuous
1071
       -3
1071
        1
1005
9
1000
ACET-LAYISO}
  0
LAYER
  5
28
102
{ACAD_XDICTIONARY
360
29
102
}
330
244
100
AcDbSymbolTableRecord
100
AcDbLayerTableRecord
  2
teren$0$0Wymiary-PL
 70
     0
 62
     1
  6
Continuous
370
     5
390
9
  0
ENDTAB
  0
TABLE
  2
STYLE
  5
24A
330
0
100
AcDbSymbolTable
 70
     4
  0
STYLE
  5
24B
330
24A
100
AcDbSymbolTableRecord
100
AcDbTextStyleTableRecord
  2
Standard
 70
     0
 40
0.0
 41
1.0
 50
0.0
 71
     0
 42
2.5
  3
txt
  4

  0
STYLE
  5
B3
330
24A
100
AcDbSymbolTableRecord
100
AcDbTextStyleTableRecord
  2
ROMANS
 70
     0
 40
0.0
 41
0.9
 50
0.0
 71
     0
 42
20.0
  3
romans.shx
  4

  0
STYLE
  5
19
330
24A
100
AcDbSymbolTableRecord
100
AcDbTextStyleTableRecord
  2
AVA
 70
     0
 40
0.0
 41
1.0
 50
0.0
 71
     0
 42
158.5644099714409
  3
ARIAL.TTF
  4

1001
ACAD
1000
Arial CE
1071
    60962
  0
STYLE
  5
20
330
24A
100
AcDbSymbolTableRecord
100
AcDbTextStyleTableRecord
  2
ARIAL
 70
     0
 40
0.0
 41
1.0
 50
0.0
 71
     0
 42
20.0
  3
ARIAL.TTF
  4

1001
ACAD
1000
Arial CE
1071
    60962
  0
ENDTAB
  0
TABLE
  2
VIEW
  5
250
330
0
100
AcDbSymbolTable
 70
     1
  0
VIEW
  5
236
330
250
100
AcDbSymbolTableRecord
100
AcDbViewTableRecord
  2
RODODENDRON 5
 70
     0
 40
14020.0
 10
220287.1664355166
 20
148687.514558954
 41
10200.00000000003
 11
0.0
 21
0.0
 31
1.0
 12
0.0
 22
0.0
 32
0.0
 42
50.0
 43
0.0
 44
0.0
 50
0.0
 71
     0
281
     0
 72
     1
110
0.0
120
0.0
130
0.0
111
1.0
121
0.0
131
0.0
112
0.0
122
1.0
132
0.0
 79
     0
146
0.0
  0
ENDTAB
  0
TABLE
  2
UCS
  5
251
330
0
100
AcDbSymbolTable
 70
     0
  0
ENDTAB
  0
TABLE
  2
APPID
  5
254
330
0
100
AcDbSymbolTable
 70
     7
  0
APPID
  5
1A
330
254
100
AcDbSymbolTableRecord
100
AcDbRegAppTableRecord
  2
ACAD
 70
     0
  0
APPID
  5
F
330
254
100
AcDbSymbolTableRecord
100
AcDbRegAppTableRecord
  2
RAK
 70
     0
  0
APPID
  5
69
330
254
100
AcDbSymbolTableRecord
100
AcDbRegAppTableRecord
  2
AcAecLayerStandard
 70
     0
  0
APPID
  5
239
330
254
100
AcDbSymbolTableRecord
100
AcDbRegAppTableRecord
  2
ACAD_PSEXT
 70
     0
  0
APPID
  5
22
330
254
100
AcDbSymbolTableRecord
100
AcDbRegAppTableRecord
  2
DCO15
 70
     0
  0
APPID
  5
248
330
254
100
AcDbSymbolTableRecord
100
AcDbRegAppTableRecord
  2
AcLayerTools
 70
     0
  0
APPID
  5
21
330
254
100
AcDbSymbolTableRecord
100
AcDbRegAppTableRecord
  2
AcDbBlockRepETag
 70
     0
  0
ENDTAB
  0
TABLE
  2
DIMSTYLE
  5
255
330
0
100
AcDbSymbolTable
 70
     3
100
AcDbDimStyleTable
 71
     3
340
B9
340
256
340
257
  0
DIMSTYLE
105
B9
102
{ACAD_REACTORS
330
133
330
F0
330
E3
330
D4
330
128
330
C7
330
BA
330
A2
330
119
330
10C
330
FD
330
21B
330
1C2
330
1B7
330
1AC
330
226
330
1E9
330
1DC
330
1CD
330
20E
330
203
330
1F6
102
}
330
255
100
AcDbSymbolTableRecord
100
AcDbDimStyleTableRecord
  2
500
 70
     0
 41
30.0
 42
43.0
 43
0.0
 44
13.0
 45
0.5
 46
12.0
 73
     0
 74
     0
 75
     1
 76
     1
 78
    12
140
80.0
141
0.0
145
1.0
147
0.0
172
     1
174
     1
176
     1
177
     1
178
   140
271
     1
272
     1
279
     2
340
B3
341
A9
342
A9
  0
DIMSTYLE
105
257
330
255
100
AcDbSymbolTableRecord
100
AcDbDimStyleTableRecord
  2
Standard
 70
     0
340
24B
  0
DIMSTYLE
105
256
330
255
100
AcDbSymbolTableRecord
100
AcDbDimStyleTableRecord
  2
500-RU
 70
     0
 41
30.0
 42
43.0
 43
0.0
 44
13.0
 45
0.5
 46
12.0
 73
     0
 74
     0
 75
     1
 76
     1
 78
    12
140
80.0
141
0.0
144
10.0
145
1.0
147
0.0
172
     1
174
     1
176
     1
177
     1
178
   140
271
     1
272
     1
279
     2
340
B3
341
A9
342
A9
  0
ENDTAB
  0
TABLE
  2
BLOCK_RECORD
  5
1
330
0
100
AcDbSymbolTable
 70
    23
  0
BLOCK_RECORD
  5
2
102
{ACAD_XDICTIONARY
360
3
102
}
330
1
100
AcDbSymbolTableRecord
100
AcDbBlockTableRecord
  2
*Model_Space
340
234
  0
BLOCK_RECORD
  5
23A
330
1
100
AcDbSymbolTableRecord
100
AcDbBlockTableRecord
  2
*Paper_Space
340
241
  0
BLOCK_RECORD
  5
A9
102
{ACAD_XDICTIONARY
360
AA
102
}
330
1
100
AcDbSymbolTableRecord
100
AcDbBlockTableRecord
  2
B-DIM
340
0
102
{BLKREFS
331
139
331
13A
331
F6
331
F7
331
E9
331
EA
331
DC
331
DD
331
12C
331
12D
331
CD
331
CE
331
C0
331
C1
331
A8
331
B1
331
121
331
122
331
112
331
113
331
105
331
106
331
21F
331
220
331
1C6
331
1C7
331
1BB
331
1BC
331
1B0
331
1B1
331
22C
331
22D
331
1EF
331
1F0
331
1E2
331
1E3
331
1D5
331
1D6
331
214
331
215
331
207
331
208
331
1FC
331
1FD
102
}
  0
BLOCK_RECORD
  5
129
330
1
100
AcDbSymbolTableRecord
100
AcDbBlockTableRecord
  2
*D1
340
0
  0
BLOCK_RECORD
  5
1AD
330
1
100
AcDbSymbolTableRecord
100
AcDbBlockTableRecord
  2
*D2
340
0
  0
BLOCK_RECORD
  5
1B8
330
1
100
AcDbSymbolTableRecord
100
AcDbBlockTableRecord
  2
*D3
340
0
  0
BLOCK_RECORD
  5
1C3
330
1
100
AcDbSymbolTableRecord
100
AcDbBlockTableRecord
  2
*D4
340
0
  0
BLOCK_RECORD
  5
1F7
330
1
100
AcDbSymbolTableRecord
100
AcDbBlockTableRecord
  2
*D5
340
0
  0
BLOCK_RECORD
  5
204
330
1
100
AcDbSymbolTableRecord
100
AcDbBlockTableRecord
  2
*D6
340
0
  0
BLOCK_RECORD
  5
20F
330
1
100
AcDbSymbolTableRecord
100
AcDbBlockTableRecord
  2
*D7
340
0
  0
BLOCK_RECORD
  5
21C
330
1
100
AcDbSymbolTableRecord
100
AcDbBlockTableRecord
  2
*D8
340
0
  0
BLOCK_RECORD
  5
A5
330
1
100
AcDbSymbolTableRecord
100
AcDbBlockTableRecord
  2
*D9
340
0
  0
BLOCK_RECORD
  5
BD
330
1
100
AcDbSymbolTableRecord
100
AcDbBlockTableRecord
  2
*D10
340
0
  0
BLOCK_RECORD
  5
CA
330
1
100
AcDbSymbolTableRecord
100
AcDbBlockTableRecord
  2
*D11
340
0
  0
BLOCK_RECORD
  5
D7
330
1
100
AcDbSymbolTableRecord
100
AcDbBlockTableRecord
  2
*D12
340
0
  0
BLOCK_RECORD
  5
E6
330
1
100
AcDbSymbolTableRecord
100
AcDbBlockTableRecord
  2
*D13
340
0
  0
BLOCK_RECORD
  5
F3
330
1
100
AcDbSymbolTableRecord
100
AcDbBlockTableRecord
  2
*D14
340
0
  0
BLOCK_RECORD
  5
100
330
1
100
AcDbSymbolTableRecord
100
AcDbBlockTableRecord
  2
*D15
340
0
  0
BLOCK_RECORD
  5
10F
330
1
100
AcDbSymbolTableRecord
100
AcDbBlockTableRecord
  2
*D16
340
0
  0
BLOCK_RECORD
  5
11C
330
1
100
AcDbSymbolTableRecord
100
AcDbBlockTableRecord
  2
*D17
340
0
  0
BLOCK_RECORD
  5
136
330
1
100
AcDbSymbolTableRecord
100
AcDbBlockTableRecord
  2
*D18
340
0
  0
BLOCK_RECORD
  5
1D0
330
1
100
AcDbSymbolTableRecord
100
AcDbBlockTableRecord
  2
*D19
340
0
  0
BLOCK_RECORD
  5
1DF
330
1
100
AcDbSymbolTableRecord
100
AcDbBlockTableRecord
  2
*D20
340
0
  0
BLOCK_RECORD
  5
1EC
330
1
100
AcDbSymbolTableRecord
100
AcDbBlockTableRecord
  2
*D21
340
0
  0
BLOCK_RECORD
  5
229
330
1
100
AcDbSymbolTableRecord
100
AcDbBlockTableRecord
  2
*D22
340
0
  0
ENDTAB
  0
ENDSEC
  0
SECTION
  2
BLOCKS
  0
BLOCK
  5
5
330
2
100
AcDbEntity
  8
0
100
AcDbBlockBegin
  2
*Model_Space
 70
     0
 10
0.0
 20
0.0
 30
0.0
  3
*Model_Space
  1

  0
ENDBLK
  5
233
330
2
100
AcDbEntity
  8
0
100
AcDbBlockEnd
  0
BLOCK
  5
23B
330
23A
100
AcDbEntity
 67
     1
  8
0
100
AcDbBlockBegin
  2
*Paper_Space
 70
     0
 10
0.0
 20
0.0
 30
0.0
  3
*Paper_Space
  1

  0
ENDBLK
  5
240
330
23A
100
AcDbEntity
 67
     1
  8
0
100
AcDbBlockEnd
  0
BLOCK
  5
AC
330
A9
100
AcDbEntity
  8
0
100
AcDbBlockBegin
  2
B-DIM
 70
     0
 10
0.0
 20
0.0
 30
0.0
  3
B-DIM
  1

  0
LINE
  5
AD
330
A9
100
AcDbEntity
  8
0
 62
     1
100
AcDbLine
 10
0.000000000000091
 20
-1.1
 30
0.0
 11
0.000000000000091
 21
1.1
 31
0.0
  0
LWPOLYLINE
  5
AE
330
A9
100
AcDbEntity
  8
0
 62
     1
100
AcDbPolyline
 90
        2
 70
     0
 43
0.3
 10
-0.7071067811864851
 20
-0.7071067811864851
 10
0.707106781186576
 20
0.707106781186576
  0
LINE
  5
AF
330
A9
100
AcDbEntity
  8
0
 62
     1
100
AcDbLine
 10
1.20000000000009
 20
0.0
 30
0.0
 11
-1.199999999999909
 21
0.0
 31
0.0
  0
ENDBLK
  5
B0
330
A9
100
AcDbEntity
  8
0
100
AcDbBlockEnd
  0
BLOCK
  5
12A
330
129
100
AcDbEntity
  8
0
100
AcDbBlockBegin
  2
*D1
 70
     1
 10
0.0
 20
0.0
 30
0.0
  3
*D1
  1

  0
LINE
  5
12B
330
129
100
AcDbEntity
  8
0Wymiary-PL
 62
     1
370
    -2
100
AcDbLine
 10
219243.5645230808
 20
136089.6689041237
 30
0.0
 11
219243.5645230808
 21
137129.6689041237
 31
0.0
  0
INSERT
  5
12C
330
129
100
AcDbEntity
  8
0Wymiary-PL
 62
     1
370
    -2
100
AcDbBlockReference
  2
B-DIM
 10
219243.5645230808
 20
136059.6689041237
 30
0.0
 41
30.0
 42
30.0
 43
30.0
 50
270.0
  0
INSERT
  5
12D
330
129
100
AcDbEntity
  8
0Wymiary-PL
 62
     1
370
    -2
100
AcDbBlockReference
  2
B-DIM
 10
219243.5645230808
 20
137159.6689041237
 30
0.0
 41
30.0
 42
30.0
 43
30.0
 50
90.0
  0
MTEXT
  5
12E
330
129
100
AcDbEntity
  8
0Wymiary-PL
 62
   140
100
AcDbMText
 10
219163.5645230808
 20
136609.6689041237
 30
0.0
 40
80.0
 41
0.0
 71
     5
 72
     1
  1
\A1;1100
  7
ROMANS
 11
0.0000000000000001
 21
1.0
 31
0.0
 73
     1
 44
1.0
1001
ACAD
1000
MTEXTBEGIN
1070
    73
1070
     1
1070
    44
1040
1.0
1070
    74
1070
     0
1000
MTEXTEND
  0
POINT
  5
12F
330
129
100
AcDbEntity
  8
DEFPOINTS
 62
     0
100
AcDbPoint
 10
218510.1986910328
 20
136059.6689041237
 30
0.0
  0
POINT
  5
130
330
129
100
AcDbEntity
  8
DEFPOINTS
 62
     0
100
AcDbPoint
 10
218510.1986910328
 20
137159.6689041237
 30
0.0
  0
POINT
  5
131
330
129
100
AcDbEntity
  8
DEFPOINTS
 62
     0
100
AcDbPoint
 10
219243.5645230808
 20
137159.6689041237
 30
0.0
  0
ENDBLK
  5
132
330
129
100
AcDbEntity
  8
0
100
AcDbBlockEnd
  0
BLOCK
  5
1AE
330
1AD
100
AcDbEntity
  8
0
100
AcDbBlockBegin
  2
*D2
 70
     1
 10
0.0
 20
0.0
 30
0.0
  3
*D2
  1

  0
LINE
  5
1AF
330
1AD
100
AcDbEntity
  8
0Wymiary-PL
 62
     1
370
    -2
100
AcDbLine
 10
221853.3958476645
 20
136089.6689041237
 30
0.0
 11
221853.3958476645
 21
136356.6689041237
 31
0.0
  0
INSERT
  5
1B0
330
1AD
100
AcDbEntity
  8
0Wymiary-PL
 62
     1
370
    -2
100
AcDbBlockReference
  2
B-DIM
 10
221853.3958476645
 20
136059.6689041237
 30
0.0
 41
30.0
 42
30.0
 43
30.0
 50
270.0
  0
INSERT
  5
1B1
330
1AD
100
AcDbEntity
  8
0Wymiary-PL
 62
     1
370
    -2
100
AcDbBlockReference
  2
B-DIM
 10
221853.3958476645
 20
136386.6689041237
 30
0.0
 41
30.0
 42
30.0
 43
30.0
 50
90.0
  0
MTEXT
  5
1B2
330
1AD
100
AcDbEntity
  8
0Wymiary-PL
 62
   140
100
AcDbMText
 10
221773.3958476645
 20
136223.1689041237
 30
0.0
 40
80.0
 41
0.0
 71
     5
 72
     1
  1
\A1;327
  7
ROMANS
 11
0.0000000000000001
 21
1.0
 31
0.0
 73
     1
 44
1.0
1001
ACAD
1000
MTEXTBEGIN
1070
    73
1070
     1
1070
    44
1040
1.0
1070
    74
1070
     0
1000
MTEXTEND
  0
POINT
  5
1B3
330
1AD
100
AcDbEntity
  8
DEFPOINTS
 62
     0
100
AcDbPoint
 10
222392.9032845698
 20
136059.6689041237
 30
0.0
  0
POINT
  5
1B4
330
1AD
100
AcDbEntity
  8
DEFPOINTS
 62
     0
100
AcDbPoint
 10
222392.9032845698
 20
136386.6689041237
 30
0.0
  0
POINT
  5
1B5
330
1AD
100
AcDbEntity
  8
DEFPOINTS
 62
     0
100
AcDbPoint
 10
221853.3958476645
 20
136386.6689041237
 30
0.0
  0
ENDBLK
  5
1B6
330
1AD
100
AcDbEntity
  8
0
100
AcDbBlockEnd
  0
BLOCK
  5
1B9
330
1B8
100
AcDbEntity
  8
0
100
AcDbBlockBegin
  2
*D3
 70
     1
 10
0.0
 20
0.0
 30
0.0
  3
*D3
  1

  0
LINE
  5
1BA
330
1B8
100
AcDbEntity
  8
0Wymiary-PL
 62
     1
370
    -2
100
AcDbLine
 10
221853.3958476645
 20
136416.6689041237
 30
0.0
 11
221853.3958476645
 21
136694.6689041237
 31
0.0
  0
INSERT
  5
1BB
330
1B8
100
AcDbEntity
  8
0Wymiary-PL
 62
     1
370
    -2
100
AcDbBlockReference
  2
B-DIM
 10
221853.3958476645
 20
136386.6689041237
 30
0.0
 41
30.0
 42
30.0
 43
30.0
 50
270.0
  0
INSERT
  5
1BC
330
1B8
100
AcDbEntity
  8
0Wymiary-PL
 62
     1
370
    -2
100
AcDbBlockReference
  2
B-DIM
 10
221853.3958476645
 20
136724.6689041237
 30
0.0
 41
30.0
 42
30.0
 43
30.0
 50
90.0
  0
MTEXT
  5
1BD
330
1B8
100
AcDbEntity
  8
0Wymiary-PL
 62
   140
100
AcDbMText
 10
221773.3958476645
 20
136555.6689041237
 30
0.0
 40
80.0
 41
0.0
 71
     5
 72
     1
  1
\A1;338
  7
ROMANS
 11
0.0000000000000001
 21
1.0
 31
0.0
 73
     1
 44
1.0
1001
ACAD
1000
MTEXTBEGIN
1070
    73
1070
     1
1070
    44
1040
1.0
1070
    74
1070
     0
1000
MTEXTEND
  0
POINT
  5
1BE
330
1B8
100
AcDbEntity
  8
DEFPOINTS
 62
     0
100
AcDbPoint
 10
218684.3277106036
 20
136386.6689041237
 30
0.0
  0
POINT
  5
1BF
330
1B8
100
AcDbEntity
  8
DEFPOINTS
 62
     0
100
AcDbPoint
 10
222257.9032845698
 20
136724.6689041237
 30
0.0
  0
POINT
  5
1C0
330
1B8
100
AcDbEntity
  8
DEFPOINTS
 62
     0
100
AcDbPoint
 10
221853.3958476645
 20
136724.6689041237
 30
0.0
  0
ENDBLK
  5
1C1
330
1B8
100
AcDbEntity
  8
0
100
AcDbBlockEnd
  0
BLOCK
  5
1C4
330
1C3
100
AcDbEntity
  8
0
100
AcDbBlockBegin
  2
*D4
 70
     1
 10
0.0
 20
0.0
 30
0.0
  3
*D4
  1

  0
LINE
  5
1C5
330
1C3
100
AcDbEntity
  8
0Wymiary-PL
 62
     1
370
    -2
100
AcDbLine
 10
221853.3958476645
 20
136754.6689041237
 30
0.0
 11
221853.3958476645
 21
137129.6689041237
 31
0.0
  0
INSERT
  5
1C6
330
1C3
100
AcDbEntity
  8
0Wymiary-PL
 62
     1
370
    -2
100
AcDbBlockReference
  2
B-DIM
 10
221853.3958476645
 20
136724.6689041237
 30
0.0
 41
30.0
 42
30.0
 43
30.0
 50
270.0
  0
INSERT
  5
1C7
330
1C3
100
AcDbEntity
  8
0Wymiary-PL
 62
     1
370
    -2
100
AcDbBlockReference
  2
B-DIM
 10
221853.3958476645
 20
137159.6689041237
 30
0.0
 41
30.0
 42
30.0
 43
30.0
 50
90.0
  0
MTEXT
  5
1C8
330
1C3
100
AcDbEntity
  8
0Wymiary-PL
 62
   140
100
AcDbMText
 10
221773.3958476645
 20
136942.1689041237
 30
0.0
 40
80.0
 41
0.0
 71
     5
 72
     1
  1
\A1;435
  7
ROMANS
 11
0.0000000000000001
 21
1.0
 31
0.0
 73
     1
 44
1.0
1001
ACAD
1000
MTEXTBEGIN
1070
    73
1070
     1
1070
    44
1040
1.0
1070
    74
1070
     0
1000
MTEXTEND
  0
POINT
  5
1C9
330
1C3
100
AcDbEntity
  8
DEFPOINTS
 62
     0
100
AcDbPoint
 10
222257.9032845698
 20
136724.6689041237
 30
0.0
  0
POINT
  5
1CA
330
1C3
100
AcDbEntity
  8
DEFPOINTS
 62
     0
100
AcDbPoint
 10
222392.9032845698
 20
137159.6689041237
 30
0.0
  0
POINT
  5
1CB
330
1C3
100
AcDbEntity
  8
DEFPOINTS
 62
     0
100
AcDbPoint
 10
221853.3958476645
 20
137159.6689041237
 30
0.0
  0
ENDBLK
  5
1CC
330
1C3
100
AcDbEntity
  8
0
100
AcDbBlockEnd
  0
BLOCK
  5
1F8
330
1F7
100
AcDbEntity
  8
0
100
AcDbBlockBegin
  2
*D5
 70
     1
 10
0.0
 20
0.0
 30
0.0
  3
*D5
  1

  0
LINE
  5
1F9
330
1F7
100
AcDbEntity
  8
0Wymiary-PL
 62
     1
370
    -2
100
AcDbLine
 10
223800.3675221595
 20
137189.6689041237
 30
0.0
 11
223800.3675221595
 21
137219.6689041237
 31
0.0
  0
LINE
  5
1FA
330
1F7
100
AcDbEntity
  8
0Wymiary-PL
 62
     1
370
    -2
100
AcDbLine
 10
223800.3675221595
 20
137009.6689041237
 30
0.0
 11
223800.3675221595
 21
136979.6689041237
 31
0.0
  0
LINE
  5
1FB
330
1F7
100
AcDbEntity
  8
0Wymiary-PL
 62
     1
370
    -2
100
AcDbLine
 10
223800.3675221595
 20
137159.6689041237
 30
0.0
 11
223800.3675221595
 21
137039.6689041237
 31
0.0
  0
INSERT
  5
1FC
330
1F7
100
AcDbEntity
  8
0Wymiary-PL
 62
     1
370
    -2
100
AcDbBlockReference
  2
B-DIM
 10
223800.3675221595
 20
137159.6689041237
 30
0.0
 41
30.0
 42
30.0
 43
30.0
 50
270.0
  0
INSERT
  5
1FD
330
1F7
100
AcDbEntity
  8
0Wymiary-PL
 62
     1
370
    -2
100
AcDbBlockReference
  2
B-DIM
 10
223800.3675221595
 20
137039.6689041237
 30
0.0
 41
30.0
 42
30.0
 43
30.0
 50
90.0
  0
MTEXT
  5
1FE
330
1F7
100
AcDbEntity
  8
0Wymiary-PL
 62
   140
100
AcDbMText
 10
223720.3675221594
 20
137099.6689041237
 30
0.0
 40
80.0
 41
0.0
 71
     5
 72
     1
  1
\A1;120
  7
ROMANS
 11
0.0000000000000001
 21
1.0
 31
0.0
 73
     1
 44
1.0
1001
ACAD
1000
MTEXTBEGIN
1070
    73
1070
     1
1070
    44
1040
1.0
1070
    74
1070
     0
1000
MTEXTEND
  0
POINT
  5
1FF
330
1F7
100
AcDbEntity
  8
DEFPOINTS
 62
     0
100
AcDbPoint
 10
223189.1611755793
 20
137159.6689041237
 30
0.0
  0
POINT
  5
200
330
1F7
100
AcDbEntity
  8
DEFPOINTS
 62
     0
100
AcDbPoint
 10
223189.1611755793
 20
137039.6689041237
 30
0.0
  0
POINT
  5
201
330
1F7
100
AcDbEntity
  8
DEFPOINTS
 62
     0
100
AcDbPoint
 10
223800.3675221595
 20
137039.6689041237
 30
0.0
  0
ENDBLK
  5
202
330
1F7
100
AcDbEntity
  8
0
100
AcDbBlockEnd
  0
BLOCK
  5
205
330
204
100
AcDbEntity
  8
0
100
AcDbBlockBegin
  2
*D6
 70
     1
 10
0.0
 20
0.0
 30
0.0
  3
*D6
  1

  0
LINE
  5
206
330
204
100
AcDbEntity
  8
0Wymiary-PL
 62
     1
370
    -2
100
AcDbLine
 10
223800.3675221595
 20
137009.6689041237
 30
0.0
 11
223800.3675221595
 21
136209.6689041237
 31
0.0
  0
INSERT
  5
207
330
204
100
AcDbEntity
  8
0Wymiary-PL
 62
     1
370
    -2
100
AcDbBlockReference
  2
B-DIM
 10
223800.3675221595
 20
137039.6689041237
 30
0.0
 41
30.0
 42
30.0
 43
30.0
 50
90.0
  0
INSERT
  5
208
330
204
100
AcDbEntity
  8
0Wymiary-PL
 62
     1
370
    -2
100
AcDbBlockReference
  2
B-DIM
 10
223800.3675221595
 20
136179.6689041237
 30
0.0
 41
30.0
 42
30.0
 43
30.0
 50
270.0
  0
MTEXT
  5
209
330
204
100
AcDbEntity
  8
0Wymiary-PL
 62
   140
100
AcDbMText
 10
223720.3675221594
 20
136609.6689041237
 30
0.0
 40
80.0
 41
0.0
 71
     5
 72
     1
  1
\A1;860
  7
ROMANS
 11
0.0000000000000001
 21
1.0
 31
0.0
 73
     1
 44
1.0
1001
ACAD
1000
MTEXTBEGIN
1070
    73
1070
     1
1070
    44
1040
1.0
1070
    74
1070
     0
1000
MTEXTEND
  0
POINT
  5
20A
330
204
100
AcDbEntity
  8
DEFPOINTS
 62
     0
100
AcDbPoint
 10
223189.1611755793
 20
137039.6689041237
 30
0.0
  0
POINT
  5
20B
330
204
100
AcDbEntity
  8
DEFPOINTS
 62
     0
100
AcDbPoint
 10
223559.1611755793
 20
136179.6689041237
 30
0.0
  0
POINT
  5
20C
330
204
100
AcDbEntity
  8
DEFPOINTS
 62
     0
100
AcDbPoint
 10
223800.3675221595
 20
136179.6689041237
 30
0.0
  0
ENDBLK
  5
20D
330
204
100
AcDbEntity
  8
0
100
AcDbBlockEnd
  0
BLOCK
  5
210
330
20F
100
AcDbEntity
  8
0
100
AcDbBlockBegin
  2
*D7
 70
     1
 10
0.0
 20
0.0
 30
0.0
  3
*D7
  1

  0
LINE
  5
211
330
20F
100
AcDbEntity
  8
0Wymiary-PL
 62
     1
370
    -2
100
AcDbLine
 10
223800.3675221595
 20
136209.6689041237
 30
0.0
 11
223800.3675221595
 21
136239.6689041237
 31
0.0
  0
LINE
  5
212
330
20F
100
AcDbEntity
  8
0Wymiary-PL
 62
     1
370
    -2
100
AcDbLine
 10
223800.3675221595
 20
136029.6689041237
 30
0.0
 11
223800.3675221595
 21
135999.6689041237
 31
0.0
  0
LINE
  5
213
330
20F
100
AcDbEntity
  8
0Wymiary-PL
 62
     1
370
    -2
100
AcDbLine
 10
223800.3675221595
 20
136179.6689041237
 30
0.0
 11
223800.3675221595
 21
136059.6689041237
 31
0.0
  0
INSERT
  5
214
330
20F
100
AcDbEntity
  8
0Wymiary-PL
 62
     1
370
    -2
100
AcDbBlockReference
  2
B-DIM
 10
223800.3675221595
 20
136179.6689041237
 30
0.0
 41
30.0
 42
30.0
 43
30.0
 50
270.0
  0
INSERT
  5
215
330
20F
100
AcDbEntity
  8
0Wymiary-PL
 62
     1
370
    -2
100
AcDbBlockReference
  2
B-DIM
 10
223800.3675221595
 20
136059.6689041237
 30
0.0
 41
30.0
 42
30.0
 43
30.0
 50
90.0
  0
MTEXT
  5
216
330
20F
100
AcDbEntity
  8
0Wymiary-PL
 62
   140
100
AcDbMText
 10
223720.3675221594
 20
136119.6689041237
 30
0.0
 40
80.0
 41
0.0
 71
     5
 72
     1
  1
\A1;120
  7
ROMANS
 11
0.0000000000000001
 21
1.0
 31
0.0
 73
     1
 44
1.0
1001
ACAD
1000
MTEXTBEGIN
1070
    73
1070
     1
1070
    44
1040
1.0
1070
    74
1070
     0
1000
MTEXTEND
  0
POINT
  5
217
330
20F
100
AcDbEntity
  8
DEFPOINTS
 62
     0
100
AcDbPoint
 10
223559.1611755793
 20
136179.6689041237
 30
0.0
  0
POINT
  5
218
330
20F
100
AcDbEntity
  8
DEFPOINTS
 62
     0
100
AcDbPoint
 10
223189.1611755793
 20
136059.6689041237
 30
0.0
  0
POINT
  5
219
330
20F
100
AcDbEntity
  8
DEFPOINTS
 62
     0
100
AcDbPoint
 10
223800.3675221595
 20
136059.6689041237
 30
0.0
  0
ENDBLK
  5
21A
330
20F
100
AcDbEntity
  8
0
100
AcDbBlockEnd
  0
BLOCK
  5
21D
330
21C
100
AcDbEntity
  8
0
100
AcDbBlockBegin
  2
*D8
 70
     1
 10
0.0
 20
0.0
 30
0.0
  3
*D8
  1

  0
LINE
  5
21E
330
21C
100
AcDbEntity
  8
0Wymiary-PL
 62
     1
370
    -2
100
AcDbLine
 10
221627.4402193784
 20
136089.6689041237
 30
0.0
 11
221627.4402193784
 21
137129.6689041237
 31
0.0
  0
INSERT
  5
21F
330
21C
100
AcDbEntity
  8
0Wymiary-PL
 62
     1
370
    -2
100
AcDbBlockReference
  2
B-DIM
 10
221627.4402193784
 20
136059.6689041237
 30
0.0
 41
30.0
 42
30.0
 43
30.0
 50
270.0
  0
INSERT
  5
220
330
21C
100
AcDbEntity
  8
0Wymiary-PL
 62
     1
370
    -2
100
AcDbBlockReference
  2
B-DIM
 10
221627.4402193784
 20
137159.6689041237
 30
0.0
 41
30.0
 42
30.0
 43
30.0
 50
90.0
  0
MTEXT
  5
221
330
21C
100
AcDbEntity
  8
0Wymiary-PL
 62
   140
100
AcDbMText
 10
221547.4402193784
 20
136609.6689041237
 30
0.0
 40
80.0
 41
0.0
 71
     5
 72
     1
  1
\A1;1100
  7
ROMANS
 11
0.0000000000000001
 21
1.0
 31
0.0
 73
     1
 44
1.0
1001
ACAD
1000
MTEXTBEGIN
1070
    73
1070
     1
1070
    44
1040
1.0
1070
    74
1070
     0
1000
MTEXTEND
  0
POINT
  5
222
330
21C
100
AcDbEntity
  8
DEFPOINTS
 62
     0
100
AcDbPoint
 10
222360.8060514264
 20
136059.6689041237
 30
0.0
  0
POINT
  5
223
330
21C
100
AcDbEntity
  8
DEFPOINTS
 62
     0
100
AcDbPoint
 10
222360.8060514264
 20
137159.6689041237
 30
0.0
  0
POINT
  5
224
330
21C
100
AcDbEntity
  8
DEFPOINTS
 62
     0
100
AcDbPoint
 10
221627.4402193784
 20
137159.6689041237
 30
0.0
  0
ENDBLK
  5
225
330
21C
100
AcDbEntity
  8
0
100
AcDbBlockEnd
  0
BLOCK
  5
A6
330
A5
100
AcDbEntity
  8
0
100
AcDbBlockBegin
  2
*D9
 70
     1
 10
0.0
 20
0.0
 30
0.0
  3
*D9
  1

  0
LINE
  5
A7
330
A5
100
AcDbEntity
  8
0Wymiary-PL
 62
     1
370
    -2
100
AcDbLine
 10
219017.6088947947
 20
136089.6689041237
 30
0.0
 11
219017.6088947947
 21
136356.6689041237
 31
0.0
  0
INSERT
  5
A8
330
A5
100
AcDbEntity
  8
0Wymiary-PL
 62
     1
370
    -2
100
AcDbBlockReference
  2
B-DIM
 10
219017.6088947947
 20
136059.6689041237
 30
0.0
 41
30.0
 42
30.0
 43
30.0
 50
270.0
  0
INSERT
  5
B1
330
A5
100
AcDbEntity
  8
0Wymiary-PL
 62
     1
370
    -2
100
AcDbBlockReference
  2
B-DIM
 10
219017.6088947947
 20
136386.6689041237
 30
0.0
 41
30.0
 42
30.0
 43
30.0
 50
90.0
  0
MTEXT
  5
B2
330
A5
100
AcDbEntity
  8
0Wymiary-PL
 62
   140
100
AcDbMText
 10
218937.6088947947
 20
136223.1689041237
 30
0.0
 40
80.0
 41
0.0
 71
     5
 72
     1
  1
\A1;327
  7
ROMANS
 11
0.0000000000000001
 21
1.0
 31
0.0
 73
     1
 44
1.0
1001
ACAD
1000
MTEXTBEGIN
1070
    73
1070
     1
1070
    44
1040
1.0
1070
    74
1070
     0
1000
MTEXTEND
  0
POINT
  5
B4
330
A5
100
AcDbEntity
  8
DEFPOINTS
 62
     0
100
AcDbPoint
 10
218478.1014578895
 20
136059.6689041237
 30
0.0
  0
POINT
  5
B6
330
A5
100
AcDbEntity
  8
DEFPOINTS
 62
     0
100
AcDbPoint
 10
218478.1014578895
 20
136386.6689041237
 30
0.0
  0
POINT
  5
B7
330
A5
100
AcDbEntity
  8
DEFPOINTS
 62
     0
100
AcDbPoint
 10
219017.6088947947
 20
136386.6689041237
 30
0.0
  0
ENDBLK
  5
B8
330
A5
100
AcDbEntity
  8
0
100
AcDbBlockEnd
  0
BLOCK
  5
BE
330
BD
100
AcDbEntity
  8
0
100
AcDbBlockBegin
  2
*D10
 70
     1
 10
0.0
 20
0.0
 30
0.0
  3
*D10
  1

  0
LINE
  5
BF
330
BD
100
AcDbEntity
  8
0Wymiary-PL
 62
     1
370
    -2
100
AcDbLine
 10
219017.6088947947
 20
136416.6689041236
 30
0.0
 11
219017.6088947947
 21
136694.6689041237
 31
0.0
  0
INSERT
  5
C0
330
BD
100
AcDbEntity
  8
0Wymiary-PL
 62
     1
370
    -2
100
AcDbBlockReference
  2
B-DIM
 10
219017.6088947947
 20
136386.6689041236
 30
0.0
 41
30.0
 42
30.0
 43
30.0
 50
270.0
  0
INSERT
  5
C1
330
BD
100
AcDbEntity
  8
0Wymiary-PL
 62
     1
370
    -2
100
AcDbBlockReference
  2
B-DIM
 10
219017.6088947947
 20
136724.6689041237
 30
0.0
 41
30.0
 42
30.0
 43
30.0
 50
90.0
  0
MTEXT
  5
C2
330
BD
100
AcDbEntity
  8
0Wymiary-PL
 62
   140
100
AcDbMText
 10
218937.6088947947
 20
136555.6689041237
 30
0.0
 40
80.0
 41
0.0
 71
     5
 72
     1
  1
\A1;338
  7
ROMANS
 11
0.0000000000000001
 21
1.0
 31
0.0
 73
     1
 44
1.0
1001
ACAD
1000
MTEXTBEGIN
1070
    73
1070
     1
1070
    44
1040
1.0
1070
    74
1070
     0
1000
MTEXTEND
  0
POINT
  5
C3
330
BD
100
AcDbEntity
  8
DEFPOINTS
 62
     0
100
AcDbPoint
 10
13068.01183783134
 20
136386.6689041237
 30
0.0
  0
POINT
  5
C4
330
BD
100
AcDbEntity
  8
DEFPOINTS
 62
     0
100
AcDbPoint
 10
218613.1014578895
 20
136724.6689041237
 30
0.0
  0
POINT
  5
C5
330
BD
100
AcDbEntity
  8
DEFPOINTS
 62
     0
100
AcDbPoint
 10
219017.6088947947
 20
136724.6689041237
 30
0.0
  0
ENDBLK
  5
C6
330
BD
100
AcDbEntity
  8
0
100
AcDbBlockEnd
  0
BLOCK
  5
CB
330
CA
100
AcDbEntity
  8
0
100
AcDbBlockBegin
  2
*D11
 70
     1
 10
0.0
 20
0.0
 30
0.0
  3
*D11
  1

  0
LINE
  5
CC
330
CA
100
AcDbEntity
  8
0Wymiary-PL
 62
     1
370
    -2
100
AcDbLine
 10
219017.6088947947
 20
136754.6689041237
 30
0.0
 11
219017.6088947947
 21
137129.6689041237
 31
0.0
  0
INSERT
  5
CD
330
CA
100
AcDbEntity
  8
0Wymiary-PL
 62
     1
370
    -2
100
AcDbBlockReference
  2
B-DIM
 10
219017.6088947947
 20
136724.6689041237
 30
0.0
 41
30.0
 42
30.0
 43
30.0
 50
270.0
  0
INSERT
  5
CE
330
CA
100
AcDbEntity
  8
0Wymiary-PL
 62
     1
370
    -2
100
AcDbBlockReference
  2
B-DIM
 10
219017.6088947947
 20
137159.6689041237
 30
0.0
 41
30.0
 42
30.0
 43
30.0
 50
90.0
  0
MTEXT
  5
CF
330
CA
100
AcDbEntity
  8
0Wymiary-PL
 62
   140
100
AcDbMText
 10
218937.6088947947
 20
136942.1689041237
 30
0.0
 40
80.0
 41
0.0
 71
     5
 72
     1
  1
\A1;435
  7
ROMANS
 11
0.0000000000000001
 21
1.0
 31
0.0
 73
     1
 44
1.0
1001
ACAD
1000
MTEXTBEGIN
1070
    73
1070
     1
1070
    44
1040
1.0
1070
    74
1070
     0
1000
MTEXTEND
  0
POINT
  5
D0
330
CA
100
AcDbEntity
  8
DEFPOINTS
 62
     0
100
AcDbPoint
 10
218613.1014578895
 20
136724.6689041237
 30
0.0
  0
POINT
  5
D1
330
CA
100
AcDbEntity
  8
DEFPOINTS
 62
     0
100
AcDbPoint
 10
218478.1014578895
 20
137159.6689041237
 30
0.0
  0
POINT
  5
D2
330
CA
100
AcDbEntity
  8
DEFPOINTS
 62
     0
100
AcDbPoint
 10
219017.6088947947
 20
137159.6689041237
 30
0.0
  0
ENDBLK
  5
D3
330
CA
100
AcDbEntity
  8
0
100
AcDbBlockEnd
  0
BLOCK
  5
D8
330
D7
100
AcDbEntity
  8
0
100
AcDbBlockBegin
  2
*D12
 70
     1
 10
0.0
 20
0.0
 30
0.0
  3
*D12
  1

  0
LINE
  5
D9
330
D7
100
AcDbEntity
  8
0Wymiary-PL
 62
     1
370
    -2
100
AcDbLine
 10
218643.1014578894
 20
137591.6176570179
 30
0.0
 11
218673.1014578894
 21
137591.6176570179
 31
0.0
  0
LINE
  5
DA
330
D7
100
AcDbEntity
  8
0Wymiary-PL
 62
     1
370
    -2
100
AcDbLine
 10
218448.1014578894
 20
137591.6176570179
 30
0.0
 11
218418.1014578895
 21
137591.6176570179
 31
0.0
  0
LINE
  5
DB
330
D7
100
AcDbEntity
  8
0Wymiary-PL
 62
     1
370
    -2
100
AcDbLine
 10
218613.1014578895
 20
137591.6176570179
 30
0.0
 11
218478.1014578895
 21
137591.6176570179
 31
0.0
  0
INSERT
  5
DC
330
D7
100
AcDbEntity
  8
0Wymiary-PL
 62
     1
370
    -2
100
AcDbBlockReference
  2
B-DIM
 10
218613.1014578895
 20
137591.6176570179
 30
0.0
 41
30.0
 42
30.0
 43
30.0
 50
180.0
  0
INSERT
  5
DD
330
D7
100
AcDbEntity
  8
0Wymiary-PL
 62
     1
370
    -2
100
AcDbBlockReference
  2
B-DIM
 10
218478.1014578895
 20
137591.6176570179
 30
0.0
 41
30.0
 42
30.0
 43
30.0
  0
MTEXT
  5
DE
330
D7
100
AcDbEntity
  8
0Wymiary-PL
 62
   140
100
AcDbMText
 10
218545.6014578894
 20
137671.6176570178
 30
0.0
 40
80.0
 41
0.0
 71
     5
 72
     1
  1
\A1;135
  7
ROMANS
 73
     1
 44
1.0
1001
ACAD
1000
MTEXTBEGIN
1070
    73
1070
     1
1070
    44
1040
1.0
1070
    74
1070
     0
1000
MTEXTEND
  0
POINT
  5
DF
330
D7
100
AcDbEntity
  8
DEFPOINTS
 62
     0
100
AcDbPoint
 10
218613.1014578895
 20
136724.6689041237
 30
0.0
  0
POINT
  5
E0
330
D7
100
AcDbEntity
  8
DEFPOINTS
 62
     0
100
AcDbPoint
 10
218478.1014578895
 20
136724.6689041237
 30
0.0
  0
POINT
  5
E1
330
D7
100
AcDbEntity
  8
DEFPOINTS
 62
     0
100
AcDbPoint
 10
218478.1014578895
 20
137591.6176570179
 30
0.0
  0
ENDBLK
  5
E2
330
D7
100
AcDbEntity
  8
0
100
AcDbBlockEnd
  0
BLOCK
  5
E7
330
E6
100
AcDbEntity
  8
0
100
AcDbBlockBegin
  2
*D13
 70
     1
 10
0.0
 20
0.0
 30
0.0
  3
*D13
  1

  0
LINE
  5
E8
330
E6
100
AcDbEntity
  8
0Wymiary-PL
 62
     1
370
    -2
100
AcDbLine
 10
218448.1014578894
 20
137591.6176570179
 30
0.0
 11
217688.1014578894
 21
137591.6176570179
 31
0.0
  0
INSERT
  5
E9
330
E6
100
AcDbEntity
  8
0Wymiary-PL
 62
     1
370
    -2
100
AcDbBlockReference
  2
B-DIM
 10
218478.1014578895
 20
137591.6176570179
 30
0.0
 41
30.0
 42
30.0
 43
30.0
  0
INSERT
  5
EA
330
E6
100
AcDbEntity
  8
0Wymiary-PL
 62
     1
370
    -2
100
AcDbBlockReference
  2
B-DIM
 10
217658.1014578895
 20
137591.6176570179
 30
0.0
 41
30.0
 42
30.0
 43
30.0
 50
180.0
  0
MTEXT
  5
EB
330
E6
100
AcDbEntity
  8
0Wymiary-PL
 62
   140
100
AcDbMText
 10
218068.1014578894
 20
137671.6176570178
 30
0.0
 40
80.0
 41
0.0
 71
     5
 72
     1
  1
\A1;820
  7
ROMANS
 73
     1
 44
1.0
1001
ACAD
1000
MTEXTBEGIN
1070
    73
1070
     1
1070
    44
1040
1.0
1070
    74
1070
     0
1000
MTEXTEND
  0
POINT
  5
EC
330
E6
100
AcDbEntity
  8
DEFPOINTS
 62
     0
100
AcDbPoint
 10
218478.1014578895
 20
136724.6689041237
 30
0.0
  0
POINT
  5
ED
330
E6
100
AcDbEntity
  8
DEFPOINTS
 62
     0
100
AcDbPoint
 10
217658.1014578895
 20
137159.6689041237
 30
0.0
  0
POINT
  5
EE
330
E6
100
AcDbEntity
  8
DEFPOINTS
 62
     0
100
AcDbPoint
 10
217658.1014578895
 20
137591.6176570179
 30
0.0
  0
ENDBLK
  5
EF
330
E6
100
AcDbEntity
  8
0
100
AcDbBlockEnd
  0
BLOCK
  5
F4
330
F3
100
AcDbEntity
  8
0
100
AcDbBlockBegin
  2
*D14
 70
     1
 10
0.0
 20
0.0
 30
0.0
  3
*D14
  1

  0
LINE
  5
F5
330
F3
100
AcDbEntity
  8
0Wymiary-PL
 62
     1
370
    -2
100
AcDbLine
 10
217628.1014578894
 20
137591.6176570179
 30
0.0
 11
217318.1014578895
 21
137591.6176570179
 31
0.0
  0
INSERT
  5
F6
330
F3
100
AcDbEntity
  8
0Wymiary-PL
 62
     1
370
    -2
100
AcDbBlockReference
  2
B-DIM
 10
217658.1014578895
 20
137591.6176570179
 30
0.0
 41
30.0
 42
30.0
 43
30.0
  0
INSERT
  5
F7
330
F3
100
AcDbEntity
  8
0Wymiary-PL
 62
     1
370
    -2
100
AcDbBlockReference
  2
B-DIM
 10
217288.1014578894
 20
137591.6176570179
 30
0.0
 41
30.0
 42
30.0
 43
30.0
 50
180.0
  0
MTEXT
  5
F8
330
F3
100
AcDbEntity
  8
0Wymiary-PL
 62
   140
100
AcDbMText
 10
217473.1014578894
 20
137671.6176570178
 30
0.0
 40
80.0
 41
0.0
 71
     5
 72
     1
  1
\A1;370
  7
ROMANS
 73
     1
 44
1.0
1001
ACAD
1000
MTEXTBEGIN
1070
    73
1070
     1
1070
    44
1040
1.0
1070
    74
1070
     0
1000
MTEXTEND
  0
POINT
  5
F9
330
F3
100
AcDbEntity
  8
DEFPOINTS
 62
     0
100
AcDbPoint
 10
217658.1014578895
 20
137159.6689041237
 30
0.0
  0
POINT
  5
FA
330
F3
100
AcDbEntity
  8
DEFPOINTS
 62
     0
100
AcDbPoint
 10
217288.1014578894
 20
137039.6689041237
 30
0.0
  0
POINT
  5
FB
330
F3
100
AcDbEntity
  8
DEFPOINTS
 62
     0
100
AcDbPoint
 10
217288.1014578894
 20
137591.6176570179
 30
0.0
  0
ENDBLK
  5
FC
330
F3
100
AcDbEntity
  8
0
100
AcDbBlockEnd
  0
BLOCK
  5
101
330
100
100
AcDbEntity
  8
0
100
AcDbBlockBegin
  2
*D15
 70
     1
 10
0.0
 20
0.0
 30
0.0
  3
*D15
  1

  0
LINE
  5
102
330
100
100
AcDbEntity
  8
0Wymiary-PL
 62
     1
370
    -2
100
AcDbLine
 10
217046.8951113093
 20
137189.6689041237
 30
0.0
 11
217046.8951113093
 21
137219.6689041237
 31
0.0
  0
LINE
  5
103
330
100
100
AcDbEntity
  8
0Wymiary-PL
 62
     1
370
    -2
100
AcDbLine
 10
217046.8951113093
 20
137009.6689041237
 30
0.0
 11
217046.8951113093
 21
136979.6689041237
 31
0.0
  0
LINE
  5
104
330
100
100
AcDbEntity
  8
0Wymiary-PL
 62
     1
370
    -2
100
AcDbLine
 10
217046.8951113093
 20
137159.6689041237
 30
0.0
 11
217046.8951113093
 21
137039.6689041237
 31
0.0
  0
INSERT
  5
105
330
100
100
AcDbEntity
  8
0Wymiary-PL
 62
     1
370
    -2
100
AcDbBlockReference
  2
B-DIM
 10
217046.8951113093
 20
137159.6689041237
 30
0.0
 41
30.0
 42
30.0
 43
30.0
 50
270.0
  0
INSERT
  5
106
330
100
100
AcDbEntity
  8
0Wymiary-PL
 62
     1
370
    -2
100
AcDbBlockReference
  2
B-DIM
 10
217046.8951113093
 20
137039.6689041237
 30
0.0
 41
30.0
 42
30.0
 43
30.0
 50
90.0
  0
MTEXT
  5
107
330
100
100
AcDbEntity
  8
0Wymiary-PL
 62
   140
100
AcDbMText
 10
216966.8951113093
 20
137099.6689041237
 30
0.0
 40
80.0
 41
0.0
 71
     5
 72
     1
  1
\A1;120
  7
ROMANS
 11
0.0000000000000001
 21
1.0
 31
0.0
 73
     1
 44
1.0
1001
ACAD
1000
MTEXTBEGIN
1070
    73
1070
     1
1070
    44
1040
1.0
1070
    74
1070
     0
1000
MTEXTEND
  0
POINT
  5
108
330
100
100
AcDbEntity
  8
DEFPOINTS
 62
     0
100
AcDbPoint
 10
217658.1014578895
 20
137159.6689041237
 30
0.0
  0
POINT
  5
109
330
100
100
AcDbEntity
  8
DEFPOINTS
 62
     0
100
AcDbPoint
 10
217658.1014578895
 20
137039.6689041237
 30
0.0
  0
POINT
  5
10A
330
100
100
AcDbEntity
  8
DEFPOINTS
 62
     0
100
AcDbPoint
 10
217046.8951113093
 20
137039.6689041237
 30
0.0
  0
ENDBLK
  5
10B
330
100
100
AcDbEntity
  8
0
100
AcDbBlockEnd
  0
BLOCK
  5
110
330
10F
100
AcDbEntity
  8
0
100
AcDbBlockBegin
  2
*D16
 70
     1
 10
0.0
 20
0.0
 30
0.0
  3
*D16
  1

  0
LINE
  5
111
330
10F
100
AcDbEntity
  8
0Wymiary-PL
 62
     1
370
    -2
100
AcDbLine
 10
217046.8951113093
 20
137009.6689041237
 30
0.0
 11
217046.8951113093
 21
136209.6689041237
 31
0.0
  0
INSERT
  5
112
330
10F
100
AcDbEntity
  8
0Wymiary-PL
 62
     1
370
    -2
100
AcDbBlockReference
  2
B-DIM
 10
217046.8951113093
 20
137039.6689041237
 30
0.0
 41
30.0
 42
30.0
 43
30.0
 50
90.0
  0
INSERT
  5
113
330
10F
100
AcDbEntity
  8
0Wymiary-PL
 62
     1
370
    -2
100
AcDbBlockReference
  2
B-DIM
 10
217046.8951113093
 20
136179.6689041237
 30
0.0
 41
30.0
 42
30.0
 43
30.0
 50
270.0
  0
MTEXT
  5
114
330
10F
100
AcDbEntity
  8
0Wymiary-PL
 62
   140
100
AcDbMText
 10
216966.8951113093
 20
136609.6689041237
 30
0.0
 40
80.0
 41
0.0
 71
     5
 72
     1
  1
\A1;860
  7
ROMANS
 11
0.0000000000000001
 21
1.0
 31
0.0
 73
     1
 44
1.0
1001
ACAD
1000
MTEXTBEGIN
1070
    73
1070
     1
1070
    44
1040
1.0
1070
    74
1070
     0
1000
MTEXTEND
  0
POINT
  5
115
330
10F
100
AcDbEntity
  8
DEFPOINTS
 62
     0
100
AcDbPoint
 10
217658.1014578895
 20
137039.6689041237
 30
0.0
  0
POINT
  5
116
330
10F
100
AcDbEntity
  8
DEFPOINTS
 62
     0
100
AcDbPoint
 10
217288.1014578894
 20
136179.6689041237
 30
0.0
  0
POINT
  5
117
330
10F
100
AcDbEntity
  8
DEFPOINTS
 62
     0
100
AcDbPoint
 10
217046.8951113093
 20
136179.6689041237
 30
0.0
  0
ENDBLK
  5
118
330
10F
100
AcDbEntity
  8
0
100
AcDbBlockEnd
  0
BLOCK
  5
11D
330
11C
100
AcDbEntity
  8
0
100
AcDbBlockBegin
  2
*D17
 70
     1
 10
0.0
 20
0.0
 30
0.0
  3
*D17
  1

  0
LINE
  5
11E
330
11C
100
AcDbEntity
  8
0Wymiary-PL
 62
     1
370
    -2
100
AcDbLine
 10
217046.8951113093
 20
136209.6689041237
 30
0.0
 11
217046.8951113093
 21
136239.6689041237
 31
0.0
  0
LINE
  5
11F
330
11C
100
AcDbEntity
  8
0Wymiary-PL
 62
     1
370
    -2
100
AcDbLine
 10
217046.8951113093
 20
136029.6689041237
 30
0.0
 11
217046.8951113093
 21
135999.6689041237
 31
0.0
  0
LINE
  5
120
330
11C
100
AcDbEntity
  8
0Wymiary-PL
 62
     1
370
    -2
100
AcDbLine
 10
217046.8951113093
 20
136179.6689041237
 30
0.0
 11
217046.8951113093
 21
136059.6689041237
 31
0.0
  0
INSERT
  5
121
330
11C
100
AcDbEntity
  8
0Wymiary-PL
 62
     1
370
    -2
100
AcDbBlockReference
  2
B-DIM
 10
217046.8951113093
 20
136179.6689041237
 30
0.0
 41
30.0
 42
30.0
 43
30.0
 50
270.0
  0
INSERT
  5
122
330
11C
100
AcDbEntity
  8
0Wymiary-PL
 62
     1
370
    -2
100
AcDbBlockReference
  2
B-DIM
 10
217046.8951113093
 20
136059.6689041237
 30
0.0
 41
30.0
 42
30.0
 43
30.0
 50
90.0
  0
MTEXT
  5
123
330
11C
100
AcDbEntity
  8
0Wymiary-PL
 62
   140
100
AcDbMText
 10
216966.8951113093
 20
136119.6689041237
 30
0.0
 40
80.0
 41
0.0
 71
     5
 72
     1
  1
\A1;120
  7
ROMANS
 11
0.0000000000000001
 21
1.0
 31
0.0
 73
     1
 44
1.0
1001
ACAD
1000
MTEXTBEGIN
1070
    73
1070
     1
1070
    44
1040
1.0
1070
    74
1070
     0
1000
MTEXTEND
  0
POINT
  5
124
330
11C
100
AcDbEntity
  8
DEFPOINTS
 62
     0
100
AcDbPoint
 10
217288.1014578894
 20
136179.6689041237
 30
0.0
  0
POINT
  5
125
330
11C
100
AcDbEntity
  8
DEFPOINTS
 62
     0
100
AcDbPoint
 10
217658.1014578895
 20
136059.6689041237
 30
0.0
  0
POINT
  5
126
330
11C
100
AcDbEntity
  8
DEFPOINTS
 62
     0
100
AcDbPoint
 10
217046.8951113093
 20
136059.6689041237
 30
0.0
  0
ENDBLK
  5
127
330
11C
100
AcDbEntity
  8
0
100
AcDbBlockEnd
  0
BLOCK
  5
137
330
136
100
AcDbEntity
  8
0
100
AcDbBlockBegin
  2
*D18
 70
     1
 10
0.0
 20
0.0
 30
0.0
  3
*D18
  1

  0
LINE
  5
138
330
136
100
AcDbEntity
  8
0Wymiary-PL
 62
     1
370
    -2
100
AcDbLine
 10
218583.1014578894
 20
137802.7421693643
 30
0.0
 11
217318.1014578895
 21
137802.7421693643
 31
0.0
  0
INSERT
  5
139
330
136
100
AcDbEntity
  8
0Wymiary-PL
 62
     1
370
    -2
100
AcDbBlockReference
  2
B-DIM
 10
218613.1014578895
 20
137802.7421693643
 30
0.0
 41
30.0
 42
30.0
 43
30.0
  0
INSERT
  5
13A
330
136
100
AcDbEntity
  8
0Wymiary-PL
 62
     1
370
    -2
100
AcDbBlockReference
  2
B-DIM
 10
217288.1014578894
 20
137802.7421693643
 30
0.0
 41
30.0
 42
30.0
 43
30.0
 50
180.0
  0
MTEXT
  5
13B
330
136
100
AcDbEntity
  8
0Wymiary-PL
 62
   140
100
AcDbMText
 10
217950.6014578894
 20
137882.7421693644
 30
0.0
 40
80.0
 41
0.0
 71
     5
 72
     1
  1
\A1;1325
  7
ROMANS
 73
     1
 44
1.0
1001
ACAD
1000
MTEXTBEGIN
1070
    73
1070
     1
1070
    44
1040
1.0
1070
    74
1070
     0
1000
MTEXTEND
  0
POINT
  5
13C
330
136
100
AcDbEntity
  8
DEFPOINTS
 62
     0
100
AcDbPoint
 10
218613.1014578895
 20
136555.6689041237
 30
0.0
  0
POINT
  5
13D
330
136
100
AcDbEntity
  8
DEFPOINTS
 62
     0
100
AcDbPoint
 10
217288.1014578894
 20
136555.6689041237
 30
0.0
  0
POINT
  5
13E
330
136
100
AcDbEntity
  8
DEFPOINTS
 62
     0
100
AcDbPoint
 10
217288.1014578894
 20
137802.7421693643
 30
0.0
  0
ENDBLK
  5
13F
330
136
100
AcDbEntity
  8
0
100
AcDbBlockEnd
  0
BLOCK
  5
1D1
330
1D0
100
AcDbEntity
  8
0
100
AcDbBlockBegin
  2
*D19
 70
     1
 10
0.0
 20
0.0
 30
0.0
  3
*D19
  1

  0
LINE
  5
1D2
330
1D0
100
AcDbEntity
  8
0Wymiary-PL
 62
     1
370
    -2
100
AcDbLine
 10
222156.6770318557
 20
137591.6176570179
 30
0.0
 11
222126.6770318556
 21
137591.6176570179
 31
0.0
  0
LINE
  5
1D3
330
1D0
100
AcDbEntity
  8
0Wymiary-PL
 62
     1
370
    -2
100
AcDbLine
 10
222351.6770318556
 20
137591.6176570179
 30
0.0
 11
222381.6770318556
 21
137591.6176570179
 31
0.0
  0
LINE
  5
1D4
330
1D0
100
AcDbEntity
  8
0Wymiary-PL
 62
     1
370
    -2
100
AcDbLine
 10
222186.6770318556
 20
137591.6176570179
 30
0.0
 11
222321.6770318556
 21
137591.6176570179
 31
0.0
  0
INSERT
  5
1D5
330
1D0
100
AcDbEntity
  8
0Wymiary-PL
 62
     1
370
    -2
100
AcDbBlockReference
  2
B-DIM
 10
222186.6770318556
 20
137591.6176570179
 30
0.0
 41
30.0
 42
30.0
 43
30.0
  0
INSERT
  5
1D6
330
1D0
100
AcDbEntity
  8
0Wymiary-PL
 62
     1
370
    -2
100
AcDbBlockReference
  2
B-DIM
 10
222321.6770318556
 20
137591.6176570179
 30
0.0
 41
30.0
 42
30.0
 43
30.0
 50
180.0
  0
MTEXT
  5
1D7
330
1D0
100
AcDbEntity
  8
0Wymiary-PL
 62
   140
100
AcDbMText
 10
222254.1770318557
 20
137671.6176570178
 30
0.0
 40
80.0
 41
0.0
 71
     5
 72
     1
  1
\A1;135
  7
ROMANS
 73
     1
 44
1.0
1001
ACAD
1000
MTEXTBEGIN
1070
    73
1070
     1
1070
    44
1040
1.0
1070
    74
1070
     0
1000
MTEXTEND
  0
POINT
  5
1D8
330
1D0
100
AcDbEntity
  8
DEFPOINTS
 62
     0
100
AcDbPoint
 10
222186.6770318556
 20
136724.6689041237
 30
0.0
  0
POINT
  5
1D9
330
1D0
100
AcDbEntity
  8
DEFPOINTS
 62
     0
100
AcDbPoint
 10
222321.6770318556
 20
136724.6689041237
 30
0.0
  0
POINT
  5
1DA
330
1D0
100
AcDbEntity
  8
DEFPOINTS
 62
     0
100
AcDbPoint
 10
222321.6770318556
 20
137591.6176570179
 30
0.0
  0
ENDBLK
  5
1DB
330
1D0
100
AcDbEntity
  8
0
100
AcDbBlockEnd
  0
BLOCK
  5
1E0
330
1DF
100
AcDbEntity
  8
0
100
AcDbBlockBegin
  2
*D20
 70
     1
 10
0.0
 20
0.0
 30
0.0
  3
*D20
  1

  0
LINE
  5
1E1
330
1DF
100
AcDbEntity
  8
0Wymiary-PL
 62
     1
370
    -2
100
AcDbLine
 10
222351.6770318556
 20
137591.6176570179
 30
0.0
 11
223111.6770318557
 21
137591.6176570179
 31
0.0
  0
INSERT
  5
1E2
330
1DF
100
AcDbEntity
  8
0Wymiary-PL
 62
     1
370
    -2
100
AcDbBlockReference
  2
B-DIM
 10
222321.6770318556
 20
137591.6176570179
 30
0.0
 41
30.0
 42
30.0
 43
30.0
 50
180.0
  0
INSERT
  5
1E3
330
1DF
100
AcDbEntity
  8
0Wymiary-PL
 62
     1
370
    -2
100
AcDbBlockReference
  2
B-DIM
 10
223141.6770318556
 20
137591.6176570179
 30
0.0
 41
30.0
 42
30.0
 43
30.0
  0
MTEXT
  5
1E4
330
1DF
100
AcDbEntity
  8
0Wymiary-PL
 62
   140
100
AcDbMText
 10
222731.6770318557
 20
137671.6176570178
 30
0.0
 40
80.0
 41
0.0
 71
     5
 72
     1
  1
\A1;820
  7
ROMANS
 73
     1
 44
1.0
1001
ACAD
1000
MTEXTBEGIN
1070
    73
1070
     1
1070
    44
1040
1.0
1070
    74
1070
     0
1000
MTEXTEND
  0
POINT
  5
1E5
330
1DF
100
AcDbEntity
  8
DEFPOINTS
 62
     0
100
AcDbPoint
 10
222321.6770318556
 20
136724.6689041237
 30
0.0
  0
POINT
  5
1E6
330
1DF
100
AcDbEntity
  8
DEFPOINTS
 62
     0
100
AcDbPoint
 10
223141.6770318556
 20
137159.6689041237
 30
0.0
  0
POINT
  5
1E7
330
1DF
100
AcDbEntity
  8
DEFPOINTS
 62
     0
100
AcDbPoint
 10
223141.6770318556
 20
137591.6176570179
 30
0.0
  0
ENDBLK
  5
1E8
330
1DF
100
AcDbEntity
  8
0
100
AcDbBlockEnd
  0
BLOCK
  5
1ED
330
1EC
100
AcDbEntity
  8
0
100
AcDbBlockBegin
  2
*D21
 70
     1
 10
0.0
 20
0.0
 30
0.0
  3
*D21
  1

  0
LINE
  5
1EE
330
1EC
100
AcDbEntity
  8
0Wymiary-PL
 62
     1
370
    -2
100
AcDbLine
 10
223171.6770318556
 20
137591.6176570179
 30
0.0
 11
223481.6770318556
 21
137591.6176570179
 31
0.0
  0
INSERT
  5
1EF
330
1EC
100
AcDbEntity
  8
0Wymiary-PL
 62
     1
370
    -2
100
AcDbBlockReference
  2
B-DIM
 10
223141.6770318556
 20
137591.6176570179
 30
0.0
 41
30.0
 42
30.0
 43
30.0
 50
180.0
  0
INSERT
  5
1F0
330
1EC
100
AcDbEntity
  8
0Wymiary-PL
 62
     1
370
    -2
100
AcDbBlockReference
  2
B-DIM
 10
223511.6770318557
 20
137591.6176570179
 30
0.0
 41
30.0
 42
30.0
 43
30.0
  0
MTEXT
  5
1F1
330
1EC
100
AcDbEntity
  8
0Wymiary-PL
 62
   140
100
AcDbMText
 10
223326.6770318556
 20
137671.6176570178
 30
0.0
 40
80.0
 41
0.0
 71
     5
 72
     1
  1
\A1;370
  7
ROMANS
 73
     1
 44
1.0
1001
ACAD
1000
MTEXTBEGIN
1070
    73
1070
     1
1070
    44
1040
1.0
1070
    74
1070
     0
1000
MTEXTEND
  0
POINT
  5
1F2
330
1EC
100
AcDbEntity
  8
DEFPOINTS
 62
     0
100
AcDbPoint
 10
223141.6770318556
 20
137159.6689041237
 30
0.0
  0
POINT
  5
1F3
330
1EC
100
AcDbEntity
  8
DEFPOINTS
 62
     0
100
AcDbPoint
 10
223511.6770318557
 20
137039.6689041237
 30
0.0
  0
POINT
  5
1F4
330
1EC
100
AcDbEntity
  8
DEFPOINTS
 62
     0
100
AcDbPoint
 10
223511.6770318557
 20
137591.6176570179
 30
0.0
  0
ENDBLK
  5
1F5
330
1EC
100
AcDbEntity
  8
0
100
AcDbBlockEnd
  0
BLOCK
  5
22A
330
229
100
AcDbEntity
  8
0
100
AcDbBlockBegin
  2
*D22
 70
     1
 10
0.0
 20
0.0
 30
0.0
  3
*D22
  1

  0
LINE
  5
22B
330
229
100
AcDbEntity
  8
0Wymiary-PL
 62
     1
370
    -2
100
AcDbLine
 10
222216.6770318557
 20
137802.7421693643
 30
0.0
 11
223481.6770318556
 21
137802.7421693643
 31
0.0
  0
INSERT
  5
22C
330
229
100
AcDbEntity
  8
0Wymiary-PL
 62
     1
370
    -2
100
AcDbBlockReference
  2
B-DIM
 10
222186.6770318556
 20
137802.7421693643
 30
0.0
 41
30.0
 42
30.0
 43
30.0
 50
180.0
  0
INSERT
  5
22D
330
229
100
AcDbEntity
  8
0Wymiary-PL
 62
     1
370
    -2
100
AcDbBlockReference
  2
B-DIM
 10
223511.6770318557
 20
137802.7421693643
 30
0.0
 41
30.0
 42
30.0
 43
30.0
  0
MTEXT
  5
22E
330
229
100
AcDbEntity
  8
0Wymiary-PL
 62
   140
100
AcDbMText
 10
222849.1770318556
 20
137882.7421693644
 30
0.0
 40
80.0
 41
0.0
 71
     5
 72
     1
  1
\A1;1325
  7
ROMANS
 73
     1
 44
1.0
1001
ACAD
1000
MTEXTBEGIN
1070
    73
1070
     1
1070
    44
1040
1.0
1070
    74
1070
     0
1000
MTEXTEND
  0
POINT
  5
22F
330
229
100
AcDbEntity
  8
DEFPOINTS
 62
     0
100
AcDbPoint
 10
222186.6770318556
 20
136555.6689041237
 30
0.0
  0
POINT
  5
230
330
229
100
AcDbEntity
  8
DEFPOINTS
 62
     0
100
AcDbPoint
 10
223511.6770318557
 20
136555.6689041237
 30
0.0
  0
POINT
  5
231
330
229
100
AcDbEntity
  8
DEFPOINTS
 62
     0
100
AcDbPoint
 10
223511.6770318557
 20
137802.7421693643
 30
0.0
  0
ENDBLK
  5
232
330
229
100
AcDbEntity
  8
0
100
AcDbBlockEnd
  0
ENDSEC
  0
SECTION
  2
ENTITIES
  0
LINE
  5
10
330
2
100
AcDbEntity
  8
0Napisy
  6
HIDDEN
 62
     1
 48
8.0
370
     5
100
AcDbLine
 10
220399.8892448725
 20
132297.6012553763
 30
0.0
 11
220399.8892448725
 21
138473.1198157809
 31
0.0
  0
TEXT
  5
15
330
2
100
AcDbEntity
  8
0Napisy-PL
370
     5
100
AcDbText
 10
216666.4297817526
 20
141116.3055269018
 30
0.0
 40
150.0
  1
"DOM W MORELACH 2"
  7
AVA
100
AcDbText
  0
LWPOLYLINE
  5
1B
330
2
100
AcDbEntity
  8
RAMKI-A4
370
     5
100
AcDbPolyline
 90
        4
 70
     1
 43
0.0
 10
215187.2000545948
 20
127657.5157057546
 10
215187.2000545948
 20
141677.5157057546
 10
225387.2000545948
 20
141677.5157057546
 10
225387.2000545948
 20
127657.5157057546
  0
MTEXT
  5
1F
102
{ACAD_XDICTIONARY
360
2C3
102
}
330
2
100
AcDbEntity
  8
0Napisy
100
AcDbMText
 10
216765.396492656
 20
140932.3689550166
 30
0.0
 40
150.0
 41
0.0
 71
     1
 72
     5
  1
{\fArial|b0|i0|c238|p34;MO\U+017BNA WKLEI\U+0106 DO PROJEKTU ZAGOSPODAROWANIA TERENU}
  7
ARIAL
 73
     1
 44
1.0
1001
AcDbBlockRepETag
1070
     1
1071
      383
1005
1F
1001
DCO15
1071
        1
1071
        1
1000
_tabelka_-_inform_i_etykiety_Link1
1004
19000000
1000
_tabelka_Arial151
1001
ACAD
1000
MTEXTBEGIN
1070
    73
1070
     1
1070
    44
1040
1.0
1070
    74
1070
     0
1000
MTEXTEND
  0
MTEXT
  5
23
102
{ACAD_XDICTIONARY
360
2C5
102
}
330
2
100
AcDbEntity
  8
0Napisy
100
AcDbMText
 10
220212.6558968869
 20
132370.0274562156
 30
0.0
 40
100.0
 41
0.0
 71
     1
 72
     5
  1
{\fArial|b0|i0|c238|p34;O\U+015A ODBICIA LUSTRZANEGO}
  7
ARIAL
 11
0.0000000000000001
 21
1.0
 31
0.0
 73
     1
 44
1.0
1001
AcDbBlockRepETag
1070
     1
1071
      383
1005
1F
1001
DCO15
1071
        1
1071
        1
1000
_tabelka_-_inform_i_etykiety_Link1
1004
1B000000
1000
_tabelka_Arial151
1001
ACAD
1000
MTEXTBEGIN
1070
    73
1070
     1
1070
    44
1040
1.0
1070
    74
1070
     0
1000
MTEXTEND
  0
MTEXT
  5
24
330
2
100
AcDbEntity
  8
0Napisy
100
AcDbMText
 10
216789.6764640862
 20
128621.0690977501
 30
0.0
 40
100.0
 41
0.0
 71
     1
 72
     5
  1
{\fArial|b0|i0|c238|p34;OBRYS  BUDYNKU}
  7
ARIAL
 73
     1
 44
1.0
1001
AcDbBlockRepETag
1070
     1
1071
      383
1005
1F
1001
DCO15
1071
        1
1071
        1
1000
_tabelka_-_inform_i_etykiety_Link1
1004
1A000000
1000
_tabelka_Arial151
1001
ACAD
1000
MTEXTBEGIN
1070
    73
1070
     1
1070
    44
1040
1.0
1070
    74
1070
     0
1000
MTEXTEND
  0
MTEXT
  5
25
330
2
100
AcDbEntity
  8
0Napisy
100
AcDbMText
 10
216789.6764640862
 20
128371.06909775
 30
0.0
 40
100.0
 41
0.0
 71
     1
 72
     5
  1
{\fArial|b0|i0|c238|p34;Skala:}
  7
ARIAL
 73
     1
 44
1.0
1001
AcDbBlockRepETag
1070
     1
1071
      383
1005
1F
1001
DCO15
1071
        1
1071
        1
1000
_tabelka_-_inform_i_etykiety_Link1
1004
08000000
1000
_tabelka_Arial151
1001
ACAD
1000
MTEXTBEGIN
1070
    73
1070
     1
1070
    44
1040
1.0
1070
    74
1070
     0
1000
MTEXTEND
  0
TEXT
  5
26
330
2
100
AcDbEntity
  8
0Napisy
100
AcDbText
 10
217457.3675813689
 20
128269.3637771498
 30
0.0
 40
100.0
  1
1:500
  7
ARIAL
100
AcDbText
1001
AcDbBlockRepETag
1070
     1
1071
      383
1005
1F
1001
DCO15
1071
        1
1071
        1
1000
_tabelka_-_inform_i_etykiety_Link1
1004
08000000
1000
_tabelka_Arial151
  0
LINE
  5
27
330
2
100
AcDbEntity
  8
teren$0$0Wymiary-PL
370
     5
100
AcDbLine
 10
218613.1014578895
 20
136710.6689041237
 30
0.0
 11
218685.398734773
 21
136710.6689041237
 31
0.0
  0
LINE
  5
2B
330
2
100
AcDbEntity
  8
teren$0$A-MassElement-G
  6
Continuous
 62
   210
370
     5
100
AcDbLine
 10
217658.1014578895
 20
137119.6689041237
 30
0.0
 11
217288.1014578894
 21
137119.6689041237
 31
0.0
  0
LINE
  5
2F
330
2
100
AcDbEntity
  8
teren$0$A-MassElement-G
  6
Continuous
 62
   210
370
     5
100
AcDbLine
 10
217288.1014578894
 20
137119.6689041237
 30
0.0
 11
217288.1014578894
 21
137039.6689041237
 31
0.0
  0
LINE
  5
30
330
2
100
AcDbEntity
  8
teren$0$A-MassElement-G
  6
Continuous
 62
   210
370
     5
100
AcDbLine
 10
217288.1014578894
 20
136179.6689041237
 30
0.0
 11
217288.1014578894
 21
136099.6689041237
 31
0.0
  0
LINE
  5
31
330
2
100
AcDbEntity
  8
teren$0$A-MassElement-G
  6
Continuous
 62
   210
370
     5
100
AcDbLine
 10
217288.1014578894
 20
136099.6689041237
 30
0.0
 11
217658.1014578895
 21
136099.6689041237
 31
0.0
  0
LINE
  5
32
330
2
100
AcDbEntity
  8
teren$0$A-MassElement-G
  6
Continuous
 62
   210
370
     5
100
AcDbLine
 10
217904.1038542028
 20
135932.6689041237
 30
0.0
 11
217844.1038542028
 21
135932.6689041237
 31
0.0
  0
LINE
  5
33
330
2
100
AcDbEntity
  8
teren$0$A-MassElement-G
  6
Continuous
 62
   210
370
     5
100
AcDbLine
 10
217844.1038542028
 20
135932.6689041237
 30
0.0
 11
217844.1038542028
 21
135872.6689041237
 31
0.0
  0
LINE
  5
34
330
2
100
AcDbEntity
  8
teren$0$A-MassElement-G
  6
Continuous
 62
   210
370
     5
100
AcDbLine
 10
217844.1038542028
 20
135872.6689041237
 30
0.0
 11
218292.1074858918
 21
135872.6689041237
 31
0.0
  0
LINE
  5
35
330
2
100
AcDbEntity
  8
teren$0$A-MassElement-G
  6
Continuous
 62
   210
370
     5
100
AcDbLine
 10
218292.1074858918
 20
135872.6689041237
 30
0.0
 11
218292.1074858918
 21
135932.6689041237
 31
0.0
  0
LINE
  5
36
330
2
100
AcDbEntity
  8
teren$0$A-MassElement-G
  6
Continuous
 62
   210
370
     5
100
AcDbLine
 10
218292.1074858918
 20
135932.6689041237
 30
0.0
 11
218232.1069151822
 21
135932.6689041237
 31
0.0
  0
LINE
  5
37
330
2
100
AcDbEntity
  8
teren$0$A-MassElement-G
  6
Continuous
 62
   210
370
     5
100
AcDbLine
 10
217904.1038542028
 20
135932.6689041237
 30
0.0
 11
218232.1069151822
 21
135932.6689041237
 31
0.0
  0
LINE
  5
38
330
2
100
AcDbEntity
  8
teren$0$A-MassElement-G
  6
Continuous
 62
   210
370
     5
100
AcDbLine
 10
217904.1038542028
 20
135932.6689041237
 30
0.0
 11
217874.1038542028
 21
135932.6689041237
 31
0.0
  0
LINE
  5
39
330
2
100
AcDbEntity
  8
teren$0$A-MassElement-G
  6
Continuous
 62
   210
370
     5
100
AcDbLine
 10
217874.1038542028
 20
135932.6689041237
 30
0.0
 11
217874.1038542028
 21
135902.6689041237
 31
0.0
  0
LINE
  5
3A
330
2
100
AcDbEntity
  8
teren$0$A-MassElement-G
  6
Continuous
 62
   210
370
     5
100
AcDbLine
 10
217874.1038542028
 20
135902.6689041237
 30
0.0
 11
218262.1074858919
 21
135902.6689041237
 31
0.0
  0
LINE
  5
3B
330
2
100
AcDbEntity
  8
teren$0$A-MassElement-G
  6
Continuous
 62
   210
370
     5
100
AcDbLine
 10
218262.1074858919
 20
135902.6689041237
 30
0.0
 11
218262.1074858919
 21
135932.6689041237
 31
0.0
  0
LINE
  5
3C
330
2
100
AcDbEntity
  8
teren$0$A-MassElement-G
  6
Continuous
 62
   210
370
     5
100
AcDbLine
 10
218262.1074858919
 20
135932.6689041237
 30
0.0
 11
218232.1069151822
 21
135932.6689041237
 31
0.0
  0
LINE
  5
3D
330
2
100
AcDbEntity
  8
teren$0$A-MassElement-G
  6
Continuous
 62
   210
370
     5
100
AcDbLine
 10
218613.1014578895
 20
136710.6665619724
 30
0.0
 11
218708.1014578895
 21
136710.6665619724
 31
0.0
  0
LINE
  5
3E
330
2
100
AcDbEntity
  8
teren$0$A-MassElement-G
  6
Continuous
 62
   210
370
     5
100
AcDbLine
 10
218708.1014578895
 20
136710.6665619724
 30
0.0
 11
218708.1014578895
 21
137069.6689041237
 31
0.0
  0
LINE
  5
3F
330
2
100
AcDbEntity
  8
teren$0$A-MassElement-G
  6
Continuous
 62
   210
370
     5
100
AcDbLine
 10
218708.1014578895
 20
137069.6689041237
 30
0.0
 11
218748.1014578894
 21
137069.6689041237
 31
0.0
  0
LINE
  5
40
330
2
100
AcDbEntity
  8
teren$0$A-MassElement-G
  6
Continuous
 62
   210
370
     5
100
AcDbLine
 10
218748.1014578894
 20
137069.6689041237
 30
0.0
 11
218748.1014578894
 21
137409.6689041237
 31
0.0
  0
LINE
  5
41
330
2
100
AcDbEntity
  8
teren$0$A-MassElement-G
  6
Continuous
 62
   210
370
     5
100
AcDbLine
 10
218748.1014578894
 20
137409.6689041237
 30
0.0
 11
218293.1014578894
 21
137409.6689041237
 31
0.0
  0
LINE
  5
42
330
2
100
AcDbEntity
  8
teren$0$A-MassElement-G
  6
Continuous
 62
   210
370
     5
100
AcDbLine
 10
218293.1014578894
 20
137409.6689041237
 30
0.0
 11
218293.1014578894
 21
137369.6689041237
 31
0.0
  0
LINE
  5
43
330
2
100
AcDbEntity
  8
teren$0$A-MassElement-G
  6
Continuous
 62
   210
370
     5
100
AcDbLine
 10
218293.1014578894
 20
137369.6689041237
 30
0.0
 11
217732.1014578895
 21
137369.6689041237
 31
0.0
  0
LINE
  5
44
330
2
100
AcDbEntity
  8
teren$0$A-MassElement-G
  6
Continuous
 62
   210
370
     5
100
AcDbLine
 10
217732.1014578895
 20
137369.6689041237
 30
0.0
 11
217732.1014578895
 21
137159.6689041237
 31
0.0
  0
LINE
  5
45
330
2
100
AcDbEntity
  8
teren$0$A-MassElement-G
  6
Continuous
 62
   210
370
     5
100
AcDbLine
 10
218613.1014578895
 20
136710.6665619724
 30
0.0
 11
218738.1014578894
 21
136710.6665619724
 31
0.0
  0
LINE
  5
46
330
2
100
AcDbEntity
  8
teren$0$A-MassElement-G
  6
Continuous
 62
   210
370
     5
100
AcDbLine
 10
218738.1014578894
 20
136710.6665619724
 30
0.0
 11
218738.1014578894
 21
137049.6689041237
 31
0.0
  0
LINE
  5
47
330
2
100
AcDbEntity
  8
teren$0$A-MassElement-G
  6
Continuous
 62
   210
370
     5
100
AcDbLine
 10
218738.1014578894
 20
137049.6689041237
 30
0.0
 11
218708.1014578895
 21
137049.6689041237
 31
0.0
  0
LINE
  5
48
330
2
100
AcDbEntity
  8
teren$0$A-MassElement-G
  6
Continuous
 62
   210
370
     5
100
AcDbLine
 10
218708.1014578895
 20
137049.6689041237
 30
0.0
 11
218708.1014578895
 21
137069.6689041237
 31
0.0
  0
LINE
  5
49
330
2
100
AcDbEntity
  8
teren$0$A-MassElement-G
  6
Continuous
 62
   210
370
     5
100
AcDbLine
 10
218708.1014578895
 20
137069.6689041237
 30
0.0
 11
218748.1014578894
 21
137069.6689041237
 31
0.0
  0
LINE
  5
4A
330
2
100
AcDbEntity
  8
teren$0$A-MassElement-G
  6
Continuous
 62
   210
370
     5
100
AcDbLine
 10
218748.1014578894
 20
137069.6689041237
 30
0.0
 11
218748.1014578894
 21
137409.6689041237
 31
0.0
  0
LINE
  5
4B
330
2
100
AcDbEntity
  8
teren$0$A-MassElement-G
  6
Continuous
 62
   210
370
     5
100
AcDbLine
 10
218748.1014578894
 20
137409.6689041237
 30
0.0
 11
218293.1014578894
 21
137409.6689041237
 31
0.0
  0
LINE
  5
4C
330
2
100
AcDbEntity
  8
teren$0$A-MassElement-G
  6
Continuous
 62
   210
370
     5
100
AcDbLine
 10
218293.1014578894
 20
137409.6689041237
 30
0.0
 11
218293.1014578894
 21
137369.6689041237
 31
0.0
  0
LINE
  5
4D
330
2
100
AcDbEntity
  8
teren$0$A-MassElement-G
  6
Continuous
 62
   210
370
     5
100
AcDbLine
 10
218293.1014578894
 20
137369.6689041237
 30
0.0
 11
218273.1014578894
 21
137369.6689041237
 31
0.0
  0
LINE
  5
4E
330
2
100
AcDbEntity
  8
teren$0$A-MassElement-G
  6
Continuous
 62
   210
370
     5
100
AcDbLine
 10
218273.1014578894
 20
137369.6689041237
 30
0.0
 11
218273.1014578894
 21
137399.6689041237
 31
0.0
  0
LINE
  5
4F
330
2
100
AcDbEntity
  8
teren$0$A-MassElement-G
  6
Continuous
 62
   210
370
     5
100
AcDbLine
 10
218273.1014578894
 20
137399.6689041237
 30
0.0
 11
218023.1014578895
 21
137399.6689041237
 31
0.0
  0
LINE
  5
50
330
2
100
AcDbEntity
  8
teren$0$A-MassElement-G
  6
Continuous
 62
   210
370
     5
100
AcDbLine
 10
218023.1014578895
 20
137399.6689041237
 30
0.0
 11
218023.1014578895
 21
137369.6689041237
 31
0.0
  0
LINE
  5
51
330
2
100
AcDbEntity
  8
teren$0$A-MassElement-G
  6
Continuous
 62
   210
370
     5
100
AcDbLine
 10
218023.1014578895
 20
137369.6689041237
 30
0.0
 11
217732.1014578895
 21
137369.6689041237
 31
0.0
  0
LINE
  5
52
330
2
100
AcDbEntity
  8
teren$0$A-MassElement-G
  6
Continuous
 62
   210
370
     5
100
AcDbLine
 10
217732.1014578895
 20
137369.6689041237
 30
0.0
 11
217732.1014578895
 21
137259.6689041237
 31
0.0
  0
LINE
  5
53
330
2
100
AcDbEntity
  8
teren$0$A-MassElement-G
  6
Continuous
 62
   210
370
     5
100
AcDbLine
 10
217702.1014578895
 20
137259.6689041237
 30
0.0
 11
217702.1014578895
 21
137159.6689041237
 31
0.0
  0
LINE
  5
54
330
2
100
AcDbEntity
  8
teren$0$A-MassElement-G
  6
Continuous
 62
   210
370
     5
100
AcDbLine
 10
218613.1014578895
 20
136710.6665619724
 30
0.0
 11
218768.1014578894
 21
136710.6665619724
 31
0.0
  0
LINE
  5
55
330
2
100
AcDbEntity
  8
teren$0$A-MassElement-G
  6
Continuous
 62
   210
370
     5
100
AcDbLine
 10
218768.1014578894
 20
136710.6665619724
 30
0.0
 11
218768.1014578894
 21
137049.6689041237
 31
0.0
  0
LINE
  5
56
330
2
100
AcDbEntity
  8
teren$0$A-MassElement-G
  6
Continuous
 62
   210
370
     5
100
AcDbLine
 10
218768.1014578894
 20
137049.6689041237
 30
0.0
 11
218708.1014578895
 21
137049.6689041237
 31
0.0
  0
LINE
  5
57
330
2
100
AcDbEntity
  8
teren$0$A-MassElement-G
  6
Continuous
 62
   210
370
     5
100
AcDbLine
 10
218708.1014578895
 20
137049.6689041237
 30
0.0
 11
218708.1014578895
 21
137069.6689041237
 31
0.0
  0
LINE
  5
58
330
2
100
AcDbEntity
  8
teren$0$A-MassElement-G
  6
Continuous
 62
   210
370
     5
100
AcDbLine
 10
218708.1014578895
 20
137069.6689041237
 30
0.0
 11
218748.1014578894
 21
137069.6689041237
 31
0.0
  0
LINE
  5
59
330
2
100
AcDbEntity
  8
teren$0$A-MassElement-G
  6
Continuous
 62
   210
370
     5
100
AcDbLine
 10
218748.1014578894
 20
137069.6689041237
 30
0.0
 11
218748.1014578894
 21
137409.6689041237
 31
0.0
  0
LINE
  5
5A
330
2
100
AcDbEntity
  8
teren$0$A-MassElement-G
  6
Continuous
 62
   210
370
     5
100
AcDbLine
 10
218748.1014578894
 20
137409.6689041237
 30
0.0
 11
218293.1014578894
 21
137409.6689041237
 31
0.0
  0
LINE
  5
5B
330
2
100
AcDbEntity
  8
teren$0$A-MassElement-G
  6
Continuous
 62
   210
370
     5
100
AcDbLine
 10
218293.1014578894
 20
137409.6689041237
 30
0.0
 11
218293.1014578894
 21
137369.6689041237
 31
0.0
  0
LINE
  5
5C
330
2
100
AcDbEntity
  8
teren$0$A-MassElement-G
  6
Continuous
 62
   210
370
     5
100
AcDbLine
 10
218293.1014578894
 20
137369.6689041237
 30
0.0
 11
218273.1014578894
 21
137369.6689041237
 31
0.0
  0
LINE
  5
5D
330
2
100
AcDbEntity
  8
teren$0$A-MassElement-G
  6
Continuous
 62
   210
370
     5
100
AcDbLine
 10
218273.1014578894
 20
137369.6689041237
 30
0.0
 11
218273.1014578894
 21
137429.6689041237
 31
0.0
  0
LINE
  5
5E
330
2
100
AcDbEntity
  8
teren$0$A-MassElement-G
  6
Continuous
 62
   210
370
     5
100
AcDbLine
 10
218273.1014578894
 20
137429.6689041237
 30
0.0
 11
218023.1014578895
 21
137429.6689041237
 31
0.0
  0
LINE
  5
5F
330
2
100
AcDbEntity
  8
teren$0$A-MassElement-G
  6
Continuous
 62
   210
370
     5
100
AcDbLine
 10
218023.1014578895
 20
137429.6689041237
 30
0.0
 11
218023.1014578895
 21
137369.6689041237
 31
0.0
  0
LINE
  5
60
330
2
100
AcDbEntity
  8
teren$0$A-MassElement-G
  6
Continuous
 62
   210
370
     5
100
AcDbLine
 10
218023.1014578895
 20
137369.6689041237
 30
0.0
 11
217732.1014578895
 21
137369.6689041237
 31
0.0
  0
LINE
  5
61
330
2
100
AcDbEntity
  8
teren$0$A-MassElement-G
  6
Continuous
 62
   210
370
     5
100
AcDbLine
 10
217732.1014578895
 20
137369.6689041237
 30
0.0
 11
217732.1014578895
 21
137259.6689041237
 31
0.0
  0
LINE
  5
62
330
2
100
AcDbEntity
  8
teren$0$A-MassElement-G
  6
Continuous
 62
   210
370
     5
100
AcDbLine
 10
217732.1014578895
 20
137259.6689041237
 30
0.0
 11
217672.1014578895
 21
137259.6689041237
 31
0.0
  0
LINE
  5
63
330
2
100
AcDbEntity
  8
teren$0$A-MassElement-G
  6
Continuous
 62
   210
370
     5
100
AcDbLine
 10
217672.1014578895
 20
137259.6689041237
 30
0.0
 11
217672.1014578895
 21
137159.6689041237
 31
0.0
  0
LINE
  5
64
330
2
100
AcDbEntity
  8
teren$0$A-WallBelow-G
  6
Continuous
 62
     8
370
     5
390
6A
100
AcDbLine
 10
217892.1014578895
 20
135944.6689041237
 30
0.0
 11
217856.1014578895
 21
135944.6689041237
 31
0.0
  0
LINE
  5
6B
330
2
100
AcDbEntity
  8
teren$0$A-WallBelow-G
  6
Continuous
 62
     8
370
     5
390
6A
100
AcDbLine
 10
217844.1014578895
 20
135932.6689041237
 30
0.0
 11
217904.1014578895
 21
135932.6689041237
 31
0.0
  0
LINE
  5
6C
330
2
100
AcDbEntity
  8
teren$0$A-WallBelow-G
  6
Continuous
 62
     8
370
     5
390
6A
100
AcDbLine
 10
217892.1014578895
 20
136059.6689041237
 30
0.0
 11
217892.1014578895
 21
135944.6689041237
 31
0.0
  0
HATCH
  5
6D
330
2
100
AcDbEntity
  8
0Wymiary-PL
370
     5
100
AcDbHatch
 10
0.0
 20
0.0
 30
0.0
210
0.0
220
0.0
230
1.0
  2
SOLID
 70
     1
 71
     0
 91
        2
 92
        7
 72
     0
 73
     1
 93
        4
 10
218232.1098822052
 20
136019.6689041237
 10
218172.1014578895
 20
136019.6689041237
 10
218172.1014578895
 20
135959.6689041237
 10
218232.1098822052
 20
135959.6689041237
 97
        0
 92
        7
 72
     0
 73
     1
 93
        4
 10
217964.1014578895
 20
136019.6689041237
 10
217904.1014578895
 20
136019.6689041237
 10
217904.1014578895
 20
135959.6689041237
 10
217964.1014578894
 20
135959.6689041237
 97
        0
 75
     0
 76
     1
 47
1.585731977361091
 98
        2
 10
218202.8100082133
 20
135980.968505921
 10
217934.6250476142
 20
135990.4828839717
1001
ACAD
1010
0.0
1020
0.0
1030
0.0
  0
LINE
  5
71
330
2
100
AcDbEntity
  8
teren$0$A-WallBelow-G
  6
Continuous
 62
     8
370
     5
390
6A
100
AcDbLine
 10
217904.1014578895
 20
135932.6689041237
 30
0.0
 11
217904.1014578895
 21
136059.6689041237
 31
0.0
  0
LINE
  5
72
330
2
100
AcDbEntity
  8
teren$0$A-WallBelow-G
  6
Continuous
 62
     8
370
     5
390
6A
100
AcDbLine
 10
217856.1014578895
 20
135944.6689041237
 30
0.0
 11
217856.1014578895
 21
136059.6689041237
 31
0.0
  0
LINE
  5
73
330
2
100
AcDbEntity
  8
teren$0$A-WallBelow-G
  6
Continuous
 62
     8
370
     5
390
6A
100
AcDbLine
 10
217844.1014578895
 20
136059.6689041237
 30
0.0
 11
217844.1014578895
 21
135932.6689041237
 31
0.0
  0
LINE
  5
74
330
2
100
AcDbEntity
  8
teren$0$A-WallBelow-G
  6
Continuous
 62
     8
370
     5
390
6A
100
AcDbLine
 10
218748.1014578894
 20
137409.6689041237
 30
0.0
 11
218748.1014578894
 21
137069.6689041237
 31
0.0
  0
LINE
  5
75
330
2
100
AcDbEntity
  8
teren$0$A-WallBelow-G
  6
Continuous
 62
     8
370
     5
390
6A
100
AcDbLine
 10
218768.1014578894
 20
137049.6689041237
 30
0.0
 11
218768.1014578894
 21
137429.6689041237
 31
0.0
  0
LINE
  5
76
330
2
100
AcDbEntity
  8
teren$0$A-WallBelow-G
  6
Continuous
 62
     8
370
     5
390
6A
100
AcDbLine
 10
218748.1014578894
 20
137069.6689041237
 30
0.0
 11
218708.1014578895
 21
137069.6689041237
 31
0.0
  0
LINE
  5
77
330
2
100
AcDbEntity
  8
teren$0$A-WallBelow-G
  6
Continuous
 62
     8
370
     5
390
6A
100
AcDbLine
 10
218708.1014578895
 20
137069.6689041237
 30
0.0
 11
218708.1014578895
 21
137049.6689041237
 31
0.0
  0
LINE
  5
78
330
2
100
AcDbEntity
  8
teren$0$A-WallBelow-G
  6
Continuous
 62
     8
370
     5
390
6A
100
AcDbLine
 10
218708.1014578895
 20
137049.6689041237
 30
0.0
 11
218768.1014578894
 21
137049.6689041237
 31
0.0
  0
LINE
  5
79
330
2
100
AcDbEntity
  8
teren$0$A-WallBelow-G
  6
Continuous
 62
     8
370
     5
390
6A
100
AcDbLine
 10
218273.1014578894
 20
137369.6689041237
 30
0.0
 11
218293.1014578894
 21
137369.6689041237
 31
0.0
  0
LINE
  5
7A
330
2
100
AcDbEntity
  8
teren$0$A-WallBelow-G
  6
Continuous
 62
     8
370
     5
390
6A
100
AcDbLine
 10
218293.1014578894
 20
137369.6689041237
 30
0.0
 11
218293.1014578894
 21
137409.6689041237
 31
0.0
  0
LINE
  5
7B
330
2
100
AcDbEntity
  8
teren$0$A-WallBelow-G
  6
Continuous
 62
     8
370
     5
390
6A
100
AcDbLine
 10
218273.1014578894
 20
137429.6689041237
 30
0.0
 11
218273.1014578894
 21
137369.6689041237
 31
0.0
  0
LINE
  5
7C
330
2
100
AcDbEntity
  8
teren$0$A-WallBelow-G
  6
Continuous
 62
     8
370
     5
390
6A
100
AcDbLine
 10
218293.1014578894
 20
137409.6689041237
 30
0.0
 11
218748.1014578894
 21
137409.6689041237
 31
0.0
  0
LINE
  5
7D
330
2
100
AcDbEntity
  8
teren$0$A-WallBelow-G
  6
Continuous
 62
     8
370
     5
390
6A
100
AcDbLine
 10
218768.1014578894
 20
137429.6689041237
 30
0.0
 11
218273.1014578894
 21
137429.6689041237
 31
0.0
  0
LINE
  5
7E
330
2
100
AcDbEntity
  8
teren$0$A-WallBelow-G
  6
Continuous
 62
     8
370
     5
390
6A
100
AcDbLine
 10
218003.1014578895
 20
137409.6689041237
 30
0.0
 11
218003.1014578895
 21
137379.6689041237
 31
0.0
  0
LINE
  5
7F
330
2
100
AcDbEntity
  8
teren$0$A-WallBelow-G
  6
Continuous
 62
     8
370
     5
390
6A
100
AcDbLine
 10
218023.1014578895
 20
137369.6689041237
 30
0.0
 11
218023.1014578895
 21
137429.6689041237
 31
0.0
  0
LINE
  5
80
330
2
100
AcDbEntity
  8
teren$0$A-WallBelow-G
  6
Continuous
 62
     8
370
     5
390
6A
100
AcDbLine
 10
217692.1014578895
 20
137409.6689041237
 30
0.0
 11
218003.1014578895
 21
137409.6689041237
 31
0.0
  0
LINE
  5
81
330
2
100
AcDbEntity
  8
teren$0$A-WallBelow-G
  6
Continuous
 62
     8
370
     5
390
6A
100
AcDbLine
 10
218023.1014578895
 20
137429.6689041237
 30
0.0
 11
217672.1014578895
 21
137429.6689041237
 31
0.0
  0
LINE
  5
82
330
2
100
AcDbEntity
  8
teren$0$A-WallBelow-G
  6
Continuous
 62
     8
370
     5
390
6A
100
AcDbLine
 10
217692.1014578895
 20
137279.6689041237
 30
0.0
 11
217692.1014578895
 21
137409.6689041237
 31
0.0
  0
LINE
  5
83
330
2
100
AcDbEntity
  8
teren$0$A-WallBelow-G
  6
Continuous
 62
     8
370
     5
390
6A
100
AcDbLine
 10
217672.1014578895
 20
137429.6689041237
 30
0.0
 11
217672.1014578895
 21
137259.6689041237
 31
0.0
  0
LINE
  5
84
330
2
100
AcDbEntity
  8
teren$0$A-WallBelow-G
  6
Continuous
 62
     8
370
     5
390
6A
100
AcDbLine
 10
217672.1014578895
 20
137259.6689041237
 30
0.0
 11
217732.1014578895
 21
137259.6689041237
 31
0.0
  0
LINE
  5
85
330
2
100
AcDbEntity
  8
teren$0$A-WallBelow-G
  6
Continuous
 62
     8
370
     5
390
6A
100
AcDbLine
 10
217732.1014578895
 20
137259.6689041237
 30
0.0
 11
217732.1014578895
 21
137369.6689041237
 31
0.0
  0
LINE
  5
86
330
2
100
AcDbEntity
  8
teren$0$A-WallBelow-G
  6
Continuous
 62
     8
370
     5
390
6A
100
AcDbLine
 10
217722.1014578895
 20
137379.6689041237
 30
0.0
 11
217722.1014578895
 21
137279.6689041237
 31
0.0
  0
LINE
  5
87
330
2
100
AcDbEntity
  8
teren$0$A-WallBelow-G
  6
Continuous
 62
     8
370
     5
390
6A
100
AcDbLine
 10
218003.1014578895
 20
137379.6689041237
 30
0.0
 11
217722.1014578895
 21
137379.6689041237
 31
0.0
  0
LINE
  5
88
330
2
100
AcDbEntity
  8
teren$0$A-WallBelow-G
  6
Continuous
 62
     8
370
     5
390
6A
100
AcDbLine
 10
217732.1014578895
 20
137369.6689041237
 30
0.0
 11
218023.1014578895
 21
137369.6689041237
 31
0.0
  0
LINE
  5
89
330
2
100
AcDbEntity
  8
teren$0$A-WallBelow-G
  6
Continuous
 62
     8
370
     5
390
6A
100
AcDbLine
 10
218280.1098822052
 20
135944.6689041237
 30
0.0
 11
218244.1098822052
 21
135944.6689041237
 31
0.0
  0
LINE
  5
8A
330
2
100
AcDbEntity
  8
teren$0$A-WallBelow-G
  6
Continuous
 62
     8
370
     5
390
6A
100
AcDbLine
 10
218232.1098822052
 20
135932.6689041237
 30
0.0
 11
218292.1098822052
 21
135932.6689041237
 31
0.0
  0
LINE
  5
8B
330
2
100
AcDbEntity
  8
teren$0$A-WallBelow-G
  6
Continuous
 62
     8
370
     5
390
6A
100
AcDbLine
 10
218244.1098822052
 20
135944.6689041237
 30
0.0
 11
218244.1098822052
 21
136059.6689041237
 31
0.0
  0
LINE
  5
8C
330
2
100
AcDbEntity
  8
teren$0$A-WallBelow-G
  6
Continuous
 62
     8
370
     5
390
6A
100
AcDbLine
 10
218232.1098822052
 20
136059.6689041237
 30
0.0
 11
218232.1098822052
 21
135932.6689041237
 31
0.0
  0
LINE
  5
8D
330
2
100
AcDbEntity
  8
teren$0$A-WallBelow-G
  6
Continuous
 62
     8
370
     5
390
6A
100
AcDbLine
 10
218280.1098822052
 20
136059.6689041237
 30
0.0
 11
218280.1098822052
 21
135944.6689041237
 31
0.0
  0
LINE
  5
8E
330
2
100
AcDbEntity
  8
teren$0$A-WallBelow-G
  6
Continuous
 62
     8
370
     5
390
6A
100
AcDbLine
 10
218292.1098822052
 20
135932.6689041237
 30
0.0
 11
218292.1098822052
 21
136059.6689041237
 31
0.0
  0
LINE
  5
8F
330
2
100
AcDbEntity
  8
teren$0$A-WallBelow-G
  6
Continuous
 62
     8
370
     5
390
6A
100
AcDbLine
 10
218768.1014578894
 20
136690.6665619724
 30
0.0
 11
218768.1014578894
 21
136710.6665619724
 31
0.0
  0
LINE
  5
90
330
2
100
AcDbEntity
  8
teren$0$A-WallBelow-G
  6
Continuous
 62
     8
370
     5
390
6A
100
AcDbLine
 10
218768.1014578894
 20
136710.6665619724
 30
0.0
 11
218613.1014578895
 21
136710.6665619724
 31
0.0
  0
LINE
  5
91
330
2
100
AcDbEntity
  8
teren$0$A-WallBelow-G
  6
Continuous
 62
     8
370
     5
390
6A
100
AcDbLine
 10
218613.1014578895
 20
136690.6665619724
 30
0.0
 11
218768.1014578894
 21
136690.6665619724
 31
0.0
  0
LINE
  5
92
330
2
100
AcDbEntity
  8
0Wymiary-PL
370
     5
100
AcDbLine
 10
217964.1014578894
 20
136019.6689041237
 30
0.0
 11
217964.1014578894
 21
135959.6689041237
 31
0.0
  0
LINE
  5
93
330
2
100
AcDbEntity
  8
0Wymiary-PL
370
     5
100
AcDbLine
 10
217904.1014578894
 20
135959.6689041237
 30
0.0
 11
217964.1014578894
 21
135959.6689041237
 31
0.0
  0
LINE
  5
94
330
2
100
AcDbEntity
  8
0Wymiary-PL
370
     5
100
AcDbLine
 10
217904.1014578894
 20
136019.6689041237
 30
0.0
 11
217964.1014578894
 21
136019.6689041237
 31
0.0
  0
LINE
  5
95
330
2
100
AcDbEntity
  8
0Wymiary-PL
370
     5
100
AcDbLine
 10
218172.1014578895
 20
136019.6689041237
 30
0.0
 11
218172.1014578895
 21
135959.6689041237
 31
0.0
  0
LINE
  5
96
330
2
100
AcDbEntity
  8
0Wymiary-PL
370
     5
100
AcDbLine
 10
218232.1014578895
 20
135959.6689041237
 30
0.0
 11
218172.1014578895
 21
135959.6689041237
 31
0.0
  0
LINE
  5
97
330
2
100
AcDbEntity
  8
0Wymiary-PL
370
     5
100
AcDbLine
 10
218232.1014578895
 20
136019.6689041237
 30
0.0
 11
218172.1014578895
 21
136019.6689041237
 31
0.0
  0
LINE
  5
98
330
2
100
AcDbEntity
  8
teren$0$A-WallBelow-G
  6
Continuous
 62
     8
370
     5
100
AcDbLine
 10
217692.1014578895
 20
137279.6689041237
 30
0.0
 11
217722.1014578895
 21
137279.6689041237
 31
0.0
  0
HATCH
  5
99
330
2
100
AcDbEntity
  8
0Wymiary-PL
370
     5
100
AcDbHatch
 10
0.0
 20
0.0
 30
0.0
210
0.0
220
0.0
230
1.0
  2
SOLID
 70
     1
 71
     0
 91
        3
 92
        7
 72
     0
 73
     1
 93
       20
 10
218478.1014578895
 20
137159.6689041237
 10
217658.1014578895
 20
137159.6689041237
 10
217658.1014578895
 20
137039.6689041237
 10
217553.1014578894
 20
137039.6689041237
 10
217553.1014578895
 20
136979.6689041237
 10
217718.1014578895
 20
136979.6689041237
 10
217718.1014578895
 20
137099.6689041237
 10
218418.1014578895
 20
137099.6689041237
 10
218418.1014578895
 20
136664.6689041237
 10
218553.1014578895
 20
136664.6689041237
 10
218553.1014578895
 20
136446.6689041237
 10
218418.1014578895
 20
136446.6689041237
 10
218418.1014578895
 20
136119.6689041237
 10
218138.1014578894
 20
136119.6689041237
 10
218138.1014578894
 20
136059.6689041237
 10
218478.1014578895
 20
136059.6689041237
 10
218478.1014578895
 20
136386.6689041237
 10
218613.1014578895
 20
136386.6689041237
 10
218613.1014578895
 20
136724.6689041237
 10
218478.1014578895
 20
136724.6689041237
 97
        0
 92
       22
 72
     0
 73
     1
 93
        8
 10
217998.1014578894
 20
136119.6689041237
 10
217718.1014578895
 20
136119.6689041237
 10
217718.1014578895
 20
136239.6689041237
 10
217622.5637926224
 20
136239.6689041237
 10
217622.5637926224
 20
136179.6689041237
 10
217658.1014578895
 20
136179.6689041237
 10
217658.1014578895
 20
136059.6689041237
 10
217998.1014578894
 20
136059.6689041237
 97
        0
 92
        7
 72
     0
 73
     1
 93
        8
 10
217348.1014578894
 20
136979.6689041237
 10
217453.1014578894
 20
136979.6689041237
 10
217453.1014578895
 20
137039.6689041237
 10
217288.1014578895
 20
137039.6689041237
 10
217288.1014578895
 20
136179.6689041237
 10
217372.5637926224
 20
136179.6689041237
 10
217372.5637926224
 20
136239.6689041237
 10
217348.1014578894
 20
136239.6689041237
 97
        0
 75
     0
 76
     1
 47
3.49130429837206
 98
        3
 10
217834.9312178082
 20
137127.9793891509
 10
217852.4005308301
 20
136098.0446157176
 10
217328.3213689239
 20
136283.0837428704
1001
ACAD
1010
0.0
1020
0.0
1030
0.0
  0
LWPOLYLINE
  5
9A
102
{ACAD_REACTORS
330
A4
330
BC
330
C9
330
D6
330
E5
330
F2
330
FF
330
10E
330
11B
330
135
102
}
330
2
100
AcDbEntity
  8
0Wymiary-PL
370
     5
100
AcDbPolyline
 90
       12
 70
     1
 43
0.0
 10
217288.1014578894
 20
137039.6689041237
 10
217658.1014578895
 20
137039.6689041237
 10
217658.1014578895
 20
137159.6689041237
 10
218478.1014578895
 20
137159.6689041237
 10
218478.1014578895
 20
136724.6689041237
 10
218613.1014578895
 20
136724.6689041237
 10
218613.1014578895
 20
136386.6689041237
 10
218478.1014578895
 20
136386.6689041237
 10
218478.1014578895
 20
136059.6689041237
 10
217658.1014578895
 20
136059.6689041237
 10
217658.1014578895
 20
136179.6689041237
 10
217288.1014578894
 20
136179.6689041237
  0
LWPOLYLINE
  5
9B
330
2
100
AcDbEntity
  8
0Wymiary-PL
370
     5
100
AcDbPolyline
 90
       12
 70
     1
 43
0.0
 10
217348.1014578894
 20
136979.6689041237
 10
217718.1014578895
 20
136979.6689041237
 10
217718.1014578895
 20
137099.6689041237
 10
218418.1014578895
 20
137099.6689041237
 10
218418.1014578895
 20
136664.6689041237
 10
218553.1014578895
 20
136664.6689041237
 10
218553.1014578895
 20
136446.6689041237
 10
218418.1014578895
 20
136446.6689041237
 10
218418.1014578895
 20
136119.6689041237
 10
217718.1014578895
 20
136119.6689041237
 10
217718.1014578895
 20
136239.6689041237
 10
217348.1014578894
 20
136239.6689041237
  0
LINE
  5
9C
330
2
100
AcDbEntity
  8
0Wymiary-PL
370
     5
100
AcDbLine
 10
217453.1014578894
 20
136979.6689041237
 30
0.0
 11
217453.1014578894
 21
137039.6689041237
 31
0.0
  0
LINE
  5
9D
330
2
100
AcDbEntity
  8
0Wymiary-PL
370
     5
100
AcDbLine
 10
217553.1014578894
 20
136979.6689041237
 30
0.0
 11
217553.1014578894
 21
137039.6689041237
 31
0.0
  0
LINE
  5
9E
330
2
100
AcDbEntity
  8
0Wymiary-PL
370
     5
100
AcDbLine
 10
218138.1014578894
 20
136119.6689041237
 30
0.0
 11
218138.1014578894
 21
136059.6689041237
 31
0.0
  0
LINE
  5
9F
330
2
100
AcDbEntity
  8
0Wymiary-PL
370
     5
100
AcDbLine
 10
217998.1014578894
 20
136119.6689041237
 30
0.0
 11
217998.1014578894
 21
136059.6689041237
 31
0.0
  0
LINE
  5
A0
330
2
100
AcDbEntity
  8
0Wymiary-PL
370
     5
100
AcDbLine
 10
217622.5637926224
 20
136239.6689041237
 30
0.0
 11
217622.5637926224
 21
136179.6689041237
 31
0.0
  0
LINE
  5
A1
330
2
100
AcDbEntity
  8
0Wymiary-PL
370
     5
100
AcDbLine
 10
217372.5637926224
 20
136179.6689041237
 30
0.0
 11
217372.5637926224
 21
136239.6689041237
 31
0.0
  0
DIMENSION
  5
A2
102
{ACAD_XDICTIONARY
360
A3
102
}
102
{ACAD_REACTORS
330
A4
102
}
330
2
100
AcDbEntity
  8
0Wymiary-PL
100
AcDbDimension
  2
*D9
 10
219017.6088947947
 20
136386.6689041237
 30
0.0
 11
218937.6088947947
 21
136223.1689041237
 31
0.0
 70
     1
 71
     5
 42
327.0
  3
500
100
AcDbAlignedDimension
 13
218478.1014578895
 23
136059.6689041237
 33
0.0
 14
218478.1014578895
 24
136386.6689041237
 34
0.0
  0
DIMENSION
  5
BA
102
{ACAD_XDICTIONARY
360
BB
102
}
102
{ACAD_REACTORS
330
BC
102
}
330
2
100
AcDbEntity
  8
0Wymiary-PL
100
AcDbDimension
  2
*D10
 10
219017.6088947947
 20
136724.6689041237
 30
0.0
 11
218937.6088947947
 21
136555.6689041237
 31
0.0
 71
     5
 42
338.0000000000291
  3
500
100
AcDbAlignedDimension
 13
13068.01183783135
 23
136386.6689041237
 33
0.0
 14
218613.1014578895
 24
136724.6689041237
 34
0.0
 50
270.0
100
AcDbRotatedDimension
  0
DIMENSION
  5
C7
102
{ACAD_XDICTIONARY
360
C8
102
}
102
{ACAD_REACTORS
330
C9
102
}
330
2
100
AcDbEntity
  8
0Wymiary-PL
100
AcDbDimension
  2
*D11
 10
219017.6088947947
 20
137159.6689041237
 30
0.0
 11
218937.6088947947
 21
136942.1689041237
 31
0.0
 71
     5
 42
435.0
  3
500
100
AcDbAlignedDimension
 13
218613.1014578895
 23
136724.6689041237
 33
0.0
 14
218478.1014578895
 24
137159.6689041237
 34
0.0
 50
270.0
100
AcDbRotatedDimension
  0
DIMENSION
  5
D4
102
{ACAD_XDICTIONARY
360
D5
102
}
102
{ACAD_REACTORS
330
D6
102
}
330
2
100
AcDbEntity
  8
0Wymiary-PL
100
AcDbDimension
  2
*D12
 10
218478.1014578895
 20
137591.6176570179
 30
0.0
 11
218545.6014578894
 21
137671.6176570178
 31
0.0
 70
     1
 71
     5
 42
135.0
  3
500
100
AcDbAlignedDimension
 13
218613.1014578895
 23
136724.6689041237
 33
0.0
 14
218478.1014578895
 24
136724.6689041237
 34
0.0
  0
DIMENSION
  5
E3
102
{ACAD_XDICTIONARY
360
E4
102
}
102
{ACAD_REACTORS
330
E5
102
}
330
2
100
AcDbEntity
  8
0Wymiary-PL
100
AcDbDimension
  2
*D13
 10
217658.1014578895
 20
137591.6176570179
 30
0.0
 11
218068.1014578894
 21
137671.6176570178
 31
0.0
 71
     5
 42
820.0
  3
500
100
AcDbAlignedDimension
 13
218478.1014578895
 23
136724.6689041237
 33
0.0
 14
217658.1014578895
 24
137159.6689041237
 34
0.0
100
AcDbRotatedDimension
  0
DIMENSION
  5
F0
102
{ACAD_XDICTIONARY
360
F1
102
}
102
{ACAD_REACTORS
330
F2
102
}
330
2
100
AcDbEntity
  8
0Wymiary-PL
100
AcDbDimension
  2
*D14
 10
217288.1014578894
 20
137591.6176570179
 30
0.0
 11
217473.1014578894
 21
137671.6176570178
 31
0.0
 71
     5
 42
370.0
  3
500
100
AcDbAlignedDimension
 13
217658.1014578895
 23
137159.6689041237
 33
0.0
 14
217288.1014578894
 24
137039.6689041237
 34
0.0
100
AcDbRotatedDimension
  0
DIMENSION
  5
FD
102
{ACAD_XDICTIONARY
360
FE
102
}
102
{ACAD_REACTORS
330
FF
102
}
330
2
100
AcDbEntity
  8
0Wymiary-PL
100
AcDbDimension
  2
*D15
 10
217046.8951113093
 20
137039.6689041237
 30
0.0
 11
216966.8951113093
 21
137099.6689041237
 31
0.0
 70
     1
 71
     5
 42
120.0
  3
500
100
AcDbAlignedDimension
 13
217658.1014578895
 23
137159.6689041237
 33
0.0
 14
217658.1014578895
 24
137039.6689041237
 34
0.0
  0
DIMENSION
  5
10C
102
{ACAD_XDICTIONARY
360
10D
102
}
102
{ACAD_REACTORS
330
10E
102
}
330
2
100
AcDbEntity
  8
0Wymiary-PL
100
AcDbDimension
  2
*D16
 10
217046.8951113093
 20
136179.6689041237
 30
0.0
 11
216966.8951113093
 21
136609.6689041237
 31
0.0
 71
     5
 42
860.0
  3
500
100
AcDbAlignedDimension
 13
217658.1014578895
 23
137039.6689041237
 33
0.0
 14
217288.1014578894
 24
136179.6689041237
 34
0.0
 50
90.0
100
AcDbRotatedDimension
  0
DIMENSION
  5
119
102
{ACAD_XDICTIONARY
360
11A
102
}
102
{ACAD_REACTORS
330
11B
102
}
330
2
100
AcDbEntity
  8
0Wymiary-PL
100
AcDbDimension
  2
*D17
 10
217046.8951113093
 20
136059.6689041237
 30
0.0
 11
216966.8951113093
 21
136119.6689041237
 31
0.0
 71
     5
 42
120.0
  3
500
100
AcDbAlignedDimension
 13
217288.1014578894
 23
136179.6689041237
 33
0.0
 14
217658.1014578895
 24
136059.6689041237
 34
0.0
 50
90.0
100
AcDbRotatedDimension
  0
DIMENSION
  5
128
330
2
100
AcDbEntity
  8
0Wymiary-PL
100
AcDbDimension
  2
*D1
 10
219243.5645230808
 20
137159.6689041237
 30
0.0
 11
219163.5645230808
 21
136609.6689041237
 31
0.0
 70
     1
 71
     5
 42
1100.0
  3
500
100
AcDbAlignedDimension
 13
218510.1986910328
 23
136059.6689041237
 33
0.0
 14
218510.1986910328
 24
137159.6689041237
 34
0.0
  0
DIMENSION
  5
133
102
{ACAD_XDICTIONARY
360
134
102
}
102
{ACAD_REACTORS
330
135
102
}
330
2
100
AcDbEntity
  8
0Wymiary-PL
100
AcDbDimension
  2
*D18
 10
217288.1014578894
 20
137802.7421693643
 30
0.0
 11
217950.6014578894
 21
137882.7421693644
 31
0.0
 70
     1
 71
     5
 42
1325.0
  3
500
100
AcDbAlignedDimension
 13
218613.1014578895
 23
136555.6689041237
 33
0.0
 14
217288.1014578894
 24
136555.6689041237
 34
0.0
  0
LINE
  5
140
330
2
100
AcDbEntity
  8
teren$0$0Wymiary-PL
370
     5
100
AcDbLine
 10
222186.6770318556
 20
136710.6689041237
 30
0.0
 11
222114.3797549721
 21
136710.6689041237
 31
0.0
  0
LINE
  5
141
330
2
100
AcDbEntity
  8
teren$0$A-MassElement-G
  6
Continuous
 62
   210
370
     5
100
AcDbLine
 10
223141.6770318556
 20
137119.6689041237
 30
0.0
 11
223511.6770318557
 21
137119.6689041237
 31
0.0
  0
LINE
  5
142
330
2
100
AcDbEntity
  8
teren$0$A-MassElement-G
  6
Continuous
 62
   210
370
     5
100
AcDbLine
 10
223511.6770318557
 20
137119.6689041237
 30
0.0
 11
223511.6770318557
 21
137039.6689041237
 31
0.0
  0
LINE
  5
143
330
2
100
AcDbEntity
  8
teren$0$A-MassElement-G
  6
Continuous
 62
   210
370
     5
100
AcDbLine
 10
223511.6770318557
 20
136179.6689041237
 30
0.0
 11
223511.6770318557
 21
136099.6689041237
 31
0.0
  0
LINE
  5
144
330
2
100
AcDbEntity
  8
teren$0$A-MassElement-G
  6
Continuous
 62
   210
370
     5
100
AcDbLine
 10
223511.6770318557
 20
136099.6689041237
 30
0.0
 11
223141.6770318556
 21
136099.6689041237
 31
0.0
  0
LINE
  5
145
330
2
100
AcDbEntity
  8
teren$0$A-MassElement-G
  6
Continuous
 62
   210
370
     5
100
AcDbLine
 10
222895.6746355422
 20
135932.6689041237
 30
0.0
 11
222955.6746355422
 21
135932.6689041237
 31
0.0
  0
LINE
  5
146
330
2
100
AcDbEntity
  8
teren$0$A-MassElement-G
  6
Continuous
 62
   210
370
     5
100
AcDbLine
 10
222955.6746355422
 20
135932.6689041237
 30
0.0
 11
222955.6746355422
 21
135872.6689041237
 31
0.0
  0
LINE
  5
147
330
2
100
AcDbEntity
  8
teren$0$A-MassElement-G
  6
Continuous
 62
   210
370
     5
100
AcDbLine
 10
222955.6746355422
 20
135872.6689041237
 30
0.0
 11
222507.6710038532
 21
135872.6689041237
 31
0.0
  0
LINE
  5
148
330
2
100
AcDbEntity
  8
teren$0$A-MassElement-G
  6
Continuous
 62
   210
370
     5
100
AcDbLine
 10
222507.6710038532
 20
135872.6689041237
 30
0.0
 11
222507.6710038532
 21
135932.6689041237
 31
0.0
  0
LINE
  5
149
330
2
100
AcDbEntity
  8
teren$0$A-MassElement-G
  6
Continuous
 62
   210
370
     5
100
AcDbLine
 10
222507.6710038532
 20
135932.6689041237
 30
0.0
 11
222567.6715745628
 21
135932.6689041237
 31
0.0
  0
LINE
  5
14A
330
2
100
AcDbEntity
  8
teren$0$A-MassElement-G
  6
Continuous
 62
   210
370
     5
100
AcDbLine
 10
222895.6746355422
 20
135932.6689041237
 30
0.0
 11
222567.6715745628
 21
135932.6689041237
 31
0.0
  0
LINE
  5
14B
330
2
100
AcDbEntity
  8
teren$0$A-MassElement-G
  6
Continuous
 62
   210
370
     5
100
AcDbLine
 10
222895.6746355422
 20
135932.6689041237
 30
0.0
 11
222925.6746355423
 21
135932.6689041237
 31
0.0
  0
LINE
  5
14C
330
2
100
AcDbEntity
  8
teren$0$A-MassElement-G
  6
Continuous
 62
   210
370
     5
100
AcDbLine
 10
222925.6746355423
 20
135932.6689041237
 30
0.0
 11
222925.6746355423
 21
135902.6689041237
 31
0.0
  0
LINE
  5
14D
330
2
100
AcDbEntity
  8
teren$0$A-MassElement-G
  6
Continuous
 62
   210
370
     5
100
AcDbLine
 10
222925.6746355423
 20
135902.6689041237
 30
0.0
 11
222537.6710038532
 21
135902.6689041237
 31
0.0
  0
LINE
  5
14E
330
2
100
AcDbEntity
  8
teren$0$A-MassElement-G
  6
Continuous
 62
   210
370
     5
100
AcDbLine
 10
222537.6710038532
 20
135902.6689041237
 30
0.0
 11
222537.6710038532
 21
135932.6689041237
 31
0.0
  0
LINE
  5
14F
330
2
100
AcDbEntity
  8
teren$0$A-MassElement-G
  6
Continuous
 62
   210
370
     5
100
AcDbLine
 10
222537.6710038532
 20
135932.6689041237
 30
0.0
 11
222567.6715745628
 21
135932.6689041237
 31
0.0
  0
LINE
  5
150
330
2
100
AcDbEntity
  8
teren$0$A-MassElement-G
  6
Continuous
 62
   210
370
     5
100
AcDbLine
 10
222186.6770318556
 20
136710.6665619724
 30
0.0
 11
222091.6770318556
 21
136710.6665619724
 31
0.0
  0
LINE
  5
151
330
2
100
AcDbEntity
  8
teren$0$A-MassElement-G
  6
Continuous
 62
   210
370
     5
100
AcDbLine
 10
222091.6770318556
 20
136710.6665619724
 30
0.0
 11
222091.6770318556
 21
137069.6689041237
 31
0.0
  0
LINE
  5
152
330
2
100
AcDbEntity
  8
teren$0$A-MassElement-G
  6
Continuous
 62
   210
370
     5
100
AcDbLine
 10
222091.6770318556
 20
137069.6689041237
 30
0.0
 11
222051.6770318556
 21
137069.6689041237
 31
0.0
  0
LINE
  5
153
330
2
100
AcDbEntity
  8
teren$0$A-MassElement-G
  6
Continuous
 62
   210
370
     5
100
AcDbLine
 10
222051.6770318556
 20
137069.6689041237
 30
0.0
 11
222051.6770318556
 21
137409.6689041237
 31
0.0
  0
LINE
  5
154
330
2
100
AcDbEntity
  8
teren$0$A-MassElement-G
  6
Continuous
 62
   210
370
     5
100
AcDbLine
 10
222051.6770318556
 20
137409.6689041237
 30
0.0
 11
222506.6770318556
 21
137409.6689041237
 31
0.0
  0
LINE
  5
155
330
2
100
AcDbEntity
  8
teren$0$A-MassElement-G
  6
Continuous
 62
   210
370
     5
100
AcDbLine
 10
222506.6770318556
 20
137409.6689041237
 30
0.0
 11
222506.6770318556
 21
137369.6689041237
 31
0.0
  0
LINE
  5
156
330
2
100
AcDbEntity
  8
teren$0$A-MassElement-G
  6
Continuous
 62
   210
370
     5
100
AcDbLine
 10
222506.6770318556
 20
137369.6689041237
 30
0.0
 11
223067.6770318556
 21
137369.6689041237
 31
0.0
  0
LINE
  5
157
330
2
100
AcDbEntity
  8
teren$0$A-MassElement-G
  6
Continuous
 62
   210
370
     5
100
AcDbLine
 10
223067.6770318556
 20
137369.6689041237
 30
0.0
 11
223067.6770318556
 21
137159.6689041237
 31
0.0
  0
LINE
  5
158
330
2
100
AcDbEntity
  8
teren$0$A-MassElement-G
  6
Continuous
 62
   210
370
     5
100
AcDbLine
 10
222186.6770318556
 20
136710.6665619724
 30
0.0
 11
222061.6770318557
 21
136710.6665619724
 31
0.0
  0
LINE
  5
159
330
2
100
AcDbEntity
  8
teren$0$A-MassElement-G
  6
Continuous
 62
   210
370
     5
100
AcDbLine
 10
222061.6770318557
 20
136710.6665619724
 30
0.0
 11
222061.6770318557
 21
137049.6689041237
 31
0.0
  0
LINE
  5
15A
330
2
100
AcDbEntity
  8
teren$0$A-MassElement-G
  6
Continuous
 62
   210
370
     5
100
AcDbLine
 10
222061.6770318557
 20
137049.6689041237
 30
0.0
 11
222091.6770318556
 21
137049.6689041237
 31
0.0
  0
LINE
  5
15B
330
2
100
AcDbEntity
  8
teren$0$A-MassElement-G
  6
Continuous
 62
   210
370
     5
100
AcDbLine
 10
222091.6770318556
 20
137049.6689041237
 30
0.0
 11
222091.6770318556
 21
137069.6689041237
 31
0.0
  0
LINE
  5
15C
330
2
100
AcDbEntity
  8
teren$0$A-MassElement-G
  6
Continuous
 62
   210
370
     5
100
AcDbLine
 10
222091.6770318556
 20
137069.6689041237
 30
0.0
 11
222051.6770318556
 21
137069.6689041237
 31
0.0
  0
LINE
  5
15D
330
2
100
AcDbEntity
  8
teren$0$A-MassElement-G
  6
Continuous
 62
   210
370
     5
100
AcDbLine
 10
222051.6770318556
 20
137069.6689041237
 30
0.0
 11
222051.6770318556
 21
137409.6689041237
 31
0.0
  0
LINE
  5
15E
330
2
100
AcDbEntity
  8
teren$0$A-MassElement-G
  6
Continuous
 62
   210
370
     5
100
AcDbLine
 10
222051.6770318556
 20
137409.6689041237
 30
0.0
 11
222506.6770318556
 21
137409.6689041237
 31
0.0
  0
LINE
  5
15F
330
2
100
AcDbEntity
  8
teren$0$A-MassElement-G
  6
Continuous
 62
   210
370
     5
100
AcDbLine
 10
222506.6770318556
 20
137409.6689041237
 30
0.0
 11
222506.6770318556
 21
137369.6689041237
 31
0.0
  0
LINE
  5
160
330
2
100
AcDbEntity
  8
teren$0$A-MassElement-G
  6
Continuous
 62
   210
370
     5
100
AcDbLine
 10
222506.6770318556
 20
137369.6689041237
 30
0.0
 11
222526.6770318556
 21
137369.6689041237
 31
0.0
  0
LINE
  5
161
330
2
100
AcDbEntity
  8
teren$0$A-MassElement-G
  6
Continuous
 62
   210
370
     5
100
AcDbLine
 10
222526.6770318556
 20
137369.6689041237
 30
0.0
 11
222526.6770318556
 21
137399.6689041237
 31
0.0
  0
LINE
  5
162
330
2
100
AcDbEntity
  8
teren$0$A-MassElement-G
  6
Continuous
 62
   210
370
     5
100
AcDbLine
 10
222526.6770318556
 20
137399.6689041237
 30
0.0
 11
222776.6770318556
 21
137399.6689041237
 31
0.0
  0
LINE
  5
163
330
2
100
AcDbEntity
  8
teren$0$A-MassElement-G
  6
Continuous
 62
   210
370
     5
100
AcDbLine
 10
222776.6770318556
 20
137399.6689041237
 30
0.0
 11
222776.6770318556
 21
137369.6689041237
 31
0.0
  0
LINE
  5
164
330
2
100
AcDbEntity
  8
teren$0$A-MassElement-G
  6
Continuous
 62
   210
370
     5
100
AcDbLine
 10
222776.6770318556
 20
137369.6689041237
 30
0.0
 11
223067.6770318556
 21
137369.6689041237
 31
0.0
  0
LINE
  5
165
330
2
100
AcDbEntity
  8
teren$0$A-MassElement-G
  6
Continuous
 62
   210
370
     5
100
AcDbLine
 10
223067.6770318556
 20
137369.6689041237
 30
0.0
 11
223067.6770318556
 21
137259.6689041237
 31
0.0
  0
LINE
  5
166
330
2
100
AcDbEntity
  8
teren$0$A-MassElement-G
  6
Continuous
 62
   210
370
     5
100
AcDbLine
 10
223097.6770318556
 20
137259.6689041237
 30
0.0
 11
223097.6770318556
 21
137159.6689041237
 31
0.0
  0
LINE
  5
167
330
2
100
AcDbEntity
  8
teren$0$A-MassElement-G
  6
Continuous
 62
   210
370
     5
100
AcDbLine
 10
222186.6770318556
 20
136710.6665619724
 30
0.0
 11
222031.6770318556
 21
136710.6665619724
 31
0.0
  0
LINE
  5
168
330
2
100
AcDbEntity
  8
teren$0$A-MassElement-G
  6
Continuous
 62
   210
370
     5
100
AcDbLine
 10
222031.6770318556
 20
136710.6665619724
 30
0.0
 11
222031.6770318556
 21
137049.6689041237
 31
0.0
  0
LINE
  5
169
330
2
100
AcDbEntity
  8
teren$0$A-MassElement-G
  6
Continuous
 62
   210
370
     5
100
AcDbLine
 10
222031.6770318556
 20
137049.6689041237
 30
0.0
 11
222091.6770318556
 21
137049.6689041237
 31
0.0
  0
LINE
  5
16A
330
2
100
AcDbEntity
  8
teren$0$A-MassElement-G
  6
Continuous
 62
   210
370
     5
100
AcDbLine
 10
222091.6770318556
 20
137049.6689041237
 30
0.0
 11
222091.6770318556
 21
137069.6689041237
 31
0.0
  0
LINE
  5
16B
330
2
100
AcDbEntity
  8
teren$0$A-MassElement-G
  6
Continuous
 62
   210
370
     5
100
AcDbLine
 10
222091.6770318556
 20
137069.6689041237
 30
0.0
 11
222051.6770318556
 21
137069.6689041237
 31
0.0
  0
LINE
  5
16C
330
2
100
AcDbEntity
  8
teren$0$A-MassElement-G
  6
Continuous
 62
   210
370
     5
100
AcDbLine
 10
222051.6770318556
 20
137069.6689041237
 30
0.0
 11
222051.6770318556
 21
137409.6689041237
 31
0.0
  0
LINE
  5
16D
330
2
100
AcDbEntity
  8
teren$0$A-MassElement-G
  6
Continuous
 62
   210
370
     5
100
AcDbLine
 10
222051.6770318556
 20
137409.6689041237
 30
0.0
 11
222506.6770318556
 21
137409.6689041237
 31
0.0
  0
LINE
  5
16E
330
2
100
AcDbEntity
  8
teren$0$A-MassElement-G
  6
Continuous
 62
   210
370
     5
100
AcDbLine
 10
222506.6770318556
 20
137409.6689041237
 30
0.0
 11
222506.6770318556
 21
137369.6689041237
 31
0.0
  0
LINE
  5
16F
330
2
100
AcDbEntity
  8
teren$0$A-MassElement-G
  6
Continuous
 62
   210
370
     5
100
AcDbLine
 10
222506.6770318556
 20
137369.6689041237
 30
0.0
 11
222526.6770318556
 21
137369.6689041237
 31
0.0
  0
LINE
  5
170
330
2
100
AcDbEntity
  8
teren$0$A-MassElement-G
  6
Continuous
 62
   210
370
     5
100
AcDbLine
 10
222526.6770318556
 20
137369.6689041237
 30
0.0
 11
222526.6770318556
 21
137429.6689041237
 31
0.0
  0
LINE
  5
171
330
2
100
AcDbEntity
  8
teren$0$A-MassElement-G
  6
Continuous
 62
   210
370
     5
100
AcDbLine
 10
222526.6770318556
 20
137429.6689041237
 30
0.0
 11
222776.6770318556
 21
137429.6689041237
 31
0.0
  0
LINE
  5
172
330
2
100
AcDbEntity
  8
teren$0$A-MassElement-G
  6
Continuous
 62
   210
370
     5
100
AcDbLine
 10
222776.6770318556
 20
137429.6689041237
 30
0.0
 11
222776.6770318556
 21
137369.6689041237
 31
0.0
  0
LINE
  5
173
330
2
100
AcDbEntity
  8
teren$0$A-MassElement-G
  6
Continuous
 62
   210
370
     5
100
AcDbLine
 10
222776.6770318556
 20
137369.6689041237
 30
0.0
 11
223067.6770318556
 21
137369.6689041237
 31
0.0
  0
LINE
  5
174
330
2
100
AcDbEntity
  8
teren$0$A-MassElement-G
  6
Continuous
 62
   210
370
     5
100
AcDbLine
 10
223067.6770318556
 20
137369.6689041237
 30
0.0
 11
223067.6770318556
 21
137259.6689041237
 31
0.0
  0
LINE
  5
175
330
2
100
AcDbEntity
  8
teren$0$A-MassElement-G
  6
Continuous
 62
   210
370
     5
100
AcDbLine
 10
223067.6770318556
 20
137259.6689041237
 30
0.0
 11
223127.6770318556
 21
137259.6689041237
 31
0.0
  0
LINE
  5
176
330
2
100
AcDbEntity
  8
teren$0$A-MassElement-G
  6
Continuous
 62
   210
370
     5
100
AcDbLine
 10
223127.6770318556
 20
137259.6689041237
 30
0.0
 11
223127.6770318556
 21
137159.6689041237
 31
0.0
  0
LINE
  5
177
330
2
100
AcDbEntity
  8
teren$0$A-WallBelow-G
  6
Continuous
 62
     8
370
     5
390
6A
100
AcDbLine
 10
222907.6770318556
 20
135944.6689041237
 30
0.0
 11
222943.6770318556
 21
135944.6689041237
 31
0.0
  0
LINE
  5
178
330
2
100
AcDbEntity
  8
teren$0$A-WallBelow-G
  6
Continuous
 62
     8
370
     5
390
6A
100
AcDbLine
 10
222955.6770318556
 20
135932.6689041237
 30
0.0
 11
222895.6770318556
 21
135932.6689041237
 31
0.0
  0
LINE
  5
179
330
2
100
AcDbEntity
  8
teren$0$A-WallBelow-G
  6
Continuous
 62
     8
370
     5
390
6A
100
AcDbLine
 10
222907.6770318556
 20
136059.6689041237
 30
0.0
 11
222907.6770318556
 21
135944.6689041237
 31
0.0
  0
HATCH
  5
17A
330
2
100
AcDbEntity
  8
0Wymiary-PL
370
     5
100
AcDbHatch
 10
0.0
 20
0.0
 30
0.0
210
0.0
220
0.0
230
1.0
  2
SOLID
 70
     1
 71
     0
 91
        2
 92
        7
 72
     0
 73
     1
 93
        4
 10
222567.6686075399
 20
136019.6689041237
 10
222627.6770318556
 20
136019.6689041237
 10
222627.6770318556
 20
135959.6689041237
 10
222567.6686075399
 20
135959.6689041237
 97
        0
 92
        7
 72
     0
 73
     1
 93
        4
 10
222835.6770318556
 20
136019.6689041237
 10
222895.6770318556
 20
136019.6689041237
 10
222895.6770318556
 20
135959.6689041237
 10
222835.6770318556
 20
135959.6689041237
 97
        0
 75
     0
 76
     1
 47
1.585731977361091
 98
        2
 10
222596.9684815317
 20
135980.968505921
 10
222865.1534421309
 20
135990.4828839717
1001
ACAD
1010
0.0
1020
0.0
1030
0.0
  0
LINE
  5
17B
330
2
100
AcDbEntity
  8
teren$0$A-WallBelow-G
  6
Continuous
 62
     8
370
     5
390
6A
100
AcDbLine
 10
222895.6770318556
 20
135932.6689041237
 30
0.0
 11
222895.6770318556
 21
136059.6689041237
 31
0.0
  0
LINE
  5
17C
330
2
100
AcDbEntity
  8
teren$0$A-WallBelow-G
  6
Continuous
 62
     8
370
     5
390
6A
100
AcDbLine
 10
222943.6770318556
 20
135944.6689041237
 30
0.0
 11
222943.6770318556
 21
136059.6689041237
 31
0.0
  0
LINE
  5
17D
330
2
100
AcDbEntity
  8
teren$0$A-WallBelow-G
  6
Continuous
 62
     8
370
     5
390
6A
100
AcDbLine
 10
222955.6770318556
 20
136059.6689041237
 30
0.0
 11
222955.6770318556
 21
135932.6689041237
 31
0.0
  0
LINE
  5
17E
330
2
100
AcDbEntity
  8
teren$0$A-WallBelow-G
  6
Continuous
 62
     8
370
     5
390
6A
100
AcDbLine
 10
222051.6770318556
 20
137409.6689041237
 30
0.0
 11
222051.6770318556
 21
137069.6689041237
 31
0.0
  0
LINE
  5
17F
330
2
100
AcDbEntity
  8
teren$0$A-WallBelow-G
  6
Continuous
 62
     8
370
     5
390
6A
100
AcDbLine
 10
222031.6770318556
 20
137049.6689041237
 30
0.0
 11
222031.6770318556
 21
137429.6689041237
 31
0.0
  0
LINE
  5
180
330
2
100
AcDbEntity
  8
teren$0$A-WallBelow-G
  6
Continuous
 62
     8
370
     5
390
6A
100
AcDbLine
 10
222051.6770318556
 20
137069.6689041237
 30
0.0
 11
222091.6770318556
 21
137069.6689041237
 31
0.0
  0
LINE
  5
181
330
2
100
AcDbEntity
  8
teren$0$A-WallBelow-G
  6
Continuous
 62
     8
370
     5
390
6A
100
AcDbLine
 10
222091.6770318556
 20
137069.6689041237
 30
0.0
 11
222091.6770318556
 21
137049.6689041237
 31
0.0
  0
LINE
  5
182
330
2
100
AcDbEntity
  8
teren$0$A-WallBelow-G
  6
Continuous
 62
     8
370
     5
390
6A
100
AcDbLine
 10
222091.6770318556
 20
137049.6689041237
 30
0.0
 11
222031.6770318556
 21
137049.6689041237
 31
0.0
  0
LINE
  5
183
330
2
100
AcDbEntity
  8
teren$0$A-WallBelow-G
  6
Continuous
 62
     8
370
     5
390
6A
100
AcDbLine
 10
222526.6770318556
 20
137369.6689041237
 30
0.0
 11
222506.6770318556
 21
137369.6689041237
 31
0.0
  0
LINE
  5
184
330
2
100
AcDbEntity
  8
teren$0$A-WallBelow-G
  6
Continuous
 62
     8
370
     5
390
6A
100
AcDbLine
 10
222506.6770318556
 20
137369.6689041237
 30
0.0
 11
222506.6770318556
 21
137409.6689041237
 31
0.0
  0
LINE
  5
185
330
2
100
AcDbEntity
  8
teren$0$A-WallBelow-G
  6
Continuous
 62
     8
370
     5
390
6A
100
AcDbLine
 10
222526.6770318556
 20
137429.6689041237
 30
0.0
 11
222526.6770318556
 21
137369.6689041237
 31
0.0
  0
LINE
  5
186
330
2
100
AcDbEntity
  8
teren$0$A-WallBelow-G
  6
Continuous
 62
     8
370
     5
390
6A
100
AcDbLine
 10
222506.6770318556
 20
137409.6689041237
 30
0.0
 11
222051.6770318556
 21
137409.6689041237
 31
0.0
  0
LINE
  5
187
330
2
100
AcDbEntity
  8
teren$0$A-WallBelow-G
  6
Continuous
 62
     8
370
     5
390
6A
100
AcDbLine
 10
222031.6770318556
 20
137429.6689041237
 30
0.0
 11
222526.6770318556
 21
137429.6689041237
 31
0.0
  0
LINE
  5
188
330
2
100
AcDbEntity
  8
teren$0$A-WallBelow-G
  6
Continuous
 62
     8
370
     5
390
6A
100
AcDbLine
 10
222796.6770318556
 20
137409.6689041237
 30
0.0
 11
222796.6770318556
 21
137379.6689041237
 31
0.0
  0
LINE
  5
189
330
2
100
AcDbEntity
  8
teren$0$A-WallBelow-G
  6
Continuous
 62
     8
370
     5
390
6A
100
AcDbLine
 10
222776.6770318556
 20
137369.6689041237
 30
0.0
 11
222776.6770318556
 21
137429.6689041237
 31
0.0
  0
LINE
  5
18A
330
2
100
AcDbEntity
  8
teren$0$A-WallBelow-G
  6
Continuous
 62
     8
370
     5
390
6A
100
AcDbLine
 10
223107.6770318556
 20
137409.6689041237
 30
0.0
 11
222796.6770318556
 21
137409.6689041237
 31
0.0
  0
LINE
  5
18B
330
2
100
AcDbEntity
  8
teren$0$A-WallBelow-G
  6
Continuous
 62
     8
370
     5
390
6A
100
AcDbLine
 10
222776.6770318556
 20
137429.6689041237
 30
0.0
 11
223127.6770318556
 21
137429.6689041237
 31
0.0
  0
LINE
  5
18C
330
2
100
AcDbEntity
  8
teren$0$A-WallBelow-G
  6
Continuous
 62
     8
370
     5
390
6A
100
AcDbLine
 10
223107.6770318556
 20
137279.6689041237
 30
0.0
 11
223107.6770318556
 21
137409.6689041237
 31
0.0
  0
LINE
  5
18D
330
2
100
AcDbEntity
  8
teren$0$A-WallBelow-G
  6
Continuous
 62
     8
370
     5
390
6A
100
AcDbLine
 10
223127.6770318556
 20
137429.6689041237
 30
0.0
 11
223127.6770318556
 21
137259.6689041237
 31
0.0
  0
LINE
  5
18E
330
2
100
AcDbEntity
  8
teren$0$A-WallBelow-G
  6
Continuous
 62
     8
370
     5
390
6A
100
AcDbLine
 10
223127.6770318556
 20
137259.6689041237
 30
0.0
 11
223067.6770318556
 21
137259.6689041237
 31
0.0
  0
LINE
  5
18F
330
2
100
AcDbEntity
  8
teren$0$A-WallBelow-G
  6
Continuous
 62
     8
370
     5
390
6A
100
AcDbLine
 10
223067.6770318556
 20
137259.6689041237
 30
0.0
 11
223067.6770318556
 21
137369.6689041237
 31
0.0
  0
LINE
  5
190
330
2
100
AcDbEntity
  8
teren$0$A-WallBelow-G
  6
Continuous
 62
     8
370
     5
390
6A
100
AcDbLine
 10
223077.6770318556
 20
137379.6689041237
 30
0.0
 11
223077.6770318556
 21
137279.6689041237
 31
0.0
  0
LINE
  5
191
330
2
100
AcDbEntity
  8
teren$0$A-WallBelow-G
  6
Continuous
 62
     8
370
     5
390
6A
100
AcDbLine
 10
222796.6770318556
 20
137379.6689041237
 30
0.0
 11
223077.6770318556
 21
137379.6689041237
 31
0.0
  0
LINE
  5
192
330
2
100
AcDbEntity
  8
teren$0$A-WallBelow-G
  6
Continuous
 62
     8
370
     5
390
6A
100
AcDbLine
 10
223067.6770318556
 20
137369.6689041237
 30
0.0
 11
222776.6770318556
 21
137369.6689041237
 31
0.0
  0
LINE
  5
193
330
2
100
AcDbEntity
  8
teren$0$A-WallBelow-G
  6
Continuous
 62
     8
370
     5
390
6A
100
AcDbLine
 10
222519.6686075399
 20
135944.6689041237
 30
0.0
 11
222555.6686075399
 21
135944.6689041237
 31
0.0
  0
LINE
  5
194
330
2
100
AcDbEntity
  8
teren$0$A-WallBelow-G
  6
Continuous
 62
     8
370
     5
390
6A
100
AcDbLine
 10
222567.6686075399
 20
135932.6689041237
 30
0.0
 11
222507.6686075399
 21
135932.6689041237
 31
0.0
  0
LINE
  5
195
330
2
100
AcDbEntity
  8
teren$0$A-WallBelow-G
  6
Continuous
 62
     8
370
     5
390
6A
100
AcDbLine
 10
222555.6686075399
 20
135944.6689041237
 30
0.0
 11
222555.6686075399
 21
136059.6689041237
 31
0.0
  0
LINE
  5
196
330
2
100
AcDbEntity
  8
teren$0$A-WallBelow-G
  6
Continuous
 62
     8
370
     5
390
6A
100
AcDbLine
 10
222567.6686075399
 20
136059.6689041237
 30
0.0
 11
222567.6686075399
 21
135932.6689041237
 31
0.0
  0
LINE
  5
197
330
2
100
AcDbEntity
  8
teren$0$A-WallBelow-G
  6
Continuous
 62
     8
370
     5
390
6A
100
AcDbLine
 10
222519.6686075399
 20
136059.6689041237
 30
0.0
 11
222519.6686075399
 21
135944.6689041237
 31
0.0
  0
LINE
  5
198
330
2
100
AcDbEntity
  8
teren$0$A-WallBelow-G
  6
Continuous
 62
     8
370
     5
390
6A
100
AcDbLine
 10
222507.6686075399
 20
135932.6689041237
 30
0.0
 11
222507.6686075399
 21
136059.6689041237
 31
0.0
  0
LINE
  5
199
330
2
100
AcDbEntity
  8
teren$0$A-WallBelow-G
  6
Continuous
 62
     8
370
     5
390
6A
100
AcDbLine
 10
222031.6770318556
 20
136690.6665619724
 30
0.0
 11
222031.6770318556
 21
136710.6665619724
 31
0.0
  0
LINE
  5
19A
330
2
100
AcDbEntity
  8
teren$0$A-WallBelow-G
  6
Continuous
 62
     8
370
     5
390
6A
100
AcDbLine
 10
222031.6770318556
 20
136710.6665619724
 30
0.0
 11
222186.6770318556
 21
136710.6665619724
 31
0.0
  0
LINE
  5
19B
330
2
100
AcDbEntity
  8
teren$0$A-WallBelow-G
  6
Continuous
 62
     8
370
     5
390
6A
100
AcDbLine
 10
222186.6770318556
 20
136690.6665619724
 30
0.0
 11
222031.6770318556
 21
136690.6665619724
 31
0.0
  0
LINE
  5
19C
330
2
100
AcDbEntity
  8
0Wymiary-PL
370
     5
100
AcDbLine
 10
222835.6770318556
 20
136019.6689041237
 30
0.0
 11
222835.6770318556
 21
135959.6689041237
 31
0.0
  0
LINE
  5
19D
330
2
100
AcDbEntity
  8
0Wymiary-PL
370
     5
100
AcDbLine
 10
222895.6770318557
 20
135959.6689041237
 30
0.0
 11
222835.6770318556
 21
135959.6689041237
 31
0.0
  0
LINE
  5
19E
330
2
100
AcDbEntity
  8
0Wymiary-PL
370
     5
100
AcDbLine
 10
222895.6770318557
 20
136019.6689041237
 30
0.0
 11
222835.6770318556
 21
136019.6689041237
 31
0.0
  0
LINE
  5
19F
330
2
100
AcDbEntity
  8
0Wymiary-PL
370
     5
100
AcDbLine
 10
222627.6770318556
 20
136019.6689041237
 30
0.0
 11
222627.6770318556
 21
135959.6689041237
 31
0.0
  0
LINE
  5
1A0
330
2
100
AcDbEntity
  8
0Wymiary-PL
370
     5
100
AcDbLine
 10
222567.6770318556
 20
135959.6689041237
 30
0.0
 11
222627.6770318556
 21
135959.6689041237
 31
0.0
  0
LINE
  5
1A1
330
2
100
AcDbEntity
  8
0Wymiary-PL
370
     5
100
AcDbLine
 10
222567.6770318556
 20
136019.6689041237
 30
0.0
 11
222627.6770318556
 21
136019.6689041237
 31
0.0
  0
LINE
  5
1A2
330
2
100
AcDbEntity
  8
teren$0$A-WallBelow-G
  6
Continuous
 62
     8
370
     5
100
AcDbLine
 10
223107.6770318556
 20
137279.6689041237
 30
0.0
 11
223077.6770318556
 21
137279.6689041237
 31
0.0
  0
HATCH
  5
1A3
330
2
100
AcDbEntity
  8
0Wymiary-PL
370
     5
100
AcDbHatch
 10
0.0
 20
0.0
 30
0.0
210
0.0
220
0.0
230
1.0
  2
SOLID
 70
     1
 71
     0
 91
        3
 92
        7
 72
     0
 73
     1
 93
       20
 10
222321.6770318556
 20
137159.6689041237
 10
223141.6770318556
 20
137159.6689041237
 10
223141.6770318556
 20
137039.6689041237
 10
223246.6770318557
 20
137039.6689041237
 10
223246.6770318556
 20
136979.6689041237
 10
223081.6770318556
 20
136979.6689041237
 10
223081.6770318556
 20
137099.6689041237
 10
222381.6770318556
 20
137099.6689041237
 10
222381.6770318556
 20
136664.6689041237
 10
222246.6770318556
 20
136664.6689041237
 10
222246.6770318556
 20
136446.6689041237
 10
222381.6770318556
 20
136446.6689041237
 10
222381.6770318556
 20
136119.6689041237
 10
222661.6770318556
 20
136119.6689041237
 10
222661.6770318556
 20
136059.6689041237
 10
222321.6770318556
 20
136059.6689041237
 10
222321.6770318556
 20
136386.6689041237
 10
222186.6770318556
 20
136386.6689041237
 10
222186.6770318556
 20
136724.6689041237
 10
222321.6770318556
 20
136724.6689041237
 97
        0
 92
       22
 72
     0
 73
     1
 93
        8
 10
222801.6770318556
 20
136119.6689041237
 10
223081.6770318556
 20
136119.6689041237
 10
223081.6770318556
 20
136239.6689041237
 10
223177.2146971227
 20
136239.6689041237
 10
223177.2146971227
 20
136179.6689041237
 10
223141.6770318556
 20
136179.6689041237
 10
223141.6770318556
 20
136059.6689041237
 10
222801.6770318556
 20
136059.6689041237
 97
        0
 92
        7
 72
     0
 73
     1
 93
        8
 10
223451.6770318557
 20
136979.6689041237
 10
223346.6770318556
 20
136979.6689041237
 10
223346.6770318556
 20
137039.6689041237
 10
223511.6770318556
 20
137039.6689041237
 10
223511.6770318556
 20
136179.6689041237
 10
223427.2146971227
 20
136179.6689041237
 10
223427.2146971227
 20
136239.6689041237
 10
223451.6770318557
 20
136239.6689041237
 97
        0
 75
     0
 76
     1
 47
3.49130429837206
 98
        3
 10
222964.8472719369
 20
137127.9793891509
 10
222947.377958915
 20
136098.0446157176
 10
223471.4571208212
 20
136283.0837428704
1001
ACAD
1010
0.0
1020
0.0
1030
0.0
  0
LWPOLYLINE
  5
1A4
102
{ACAD_REACTORS
330
1CF
330
1DE
330
1EB
330
228
102
}
330
2
100
AcDbEntity
  8
0Wymiary-PL
370
     5
100
AcDbPolyline
 90
       12
 70
     1
 43
0.0
 10
223511.6770318557
 20
137039.6689041237
 10
223141.6770318556
 20
137039.6689041237
 10
223141.6770318556
 20
137159.6689041237
 10
222321.6770318556
 20
137159.6689041237
 10
222321.6770318556
 20
136724.6689041237
 10
222186.6770318556
 20
136724.6689041237
 10
222186.6770318556
 20
136386.6689041237
 10
222321.6770318556
 20
136386.6689041237
 10
222321.6770318556
 20
136059.6689041237
 10
223141.6770318556
 20
136059.6689041237
 10
223141.6770318556
 20
136179.6689041237
 10
223511.6770318557
 20
136179.6689041237
  0
LWPOLYLINE
  5
1A5
330
2
100
AcDbEntity
  8
0Wymiary-PL
370
     5
100
AcDbPolyline
 90
       12
 70
     1
 43
0.0
 10
223451.6770318557
 20
136979.6689041237
 10
223081.6770318556
 20
136979.6689041237
 10
223081.6770318556
 20
137099.6689041237
 10
222381.6770318556
 20
137099.6689041237
 10
222381.6770318556
 20
136664.6689041237
 10
222246.6770318556
 20
136664.6689041237
 10
222246.6770318556
 20
136446.6689041237
 10
222381.6770318556
 20
136446.6689041237
 10
222381.6770318556
 20
136119.6689041237
 10
223081.6770318556
 20
136119.6689041237
 10
223081.6770318556
 20
136239.6689041237
 10
223451.6770318557
 20
136239.6689041237
  0
LINE
  5
1A6
330
2
100
AcDbEntity
  8
0Wymiary-PL
370
     5
100
AcDbLine
 10
223346.6770318556
 20
136979.6689041237
 30
0.0
 11
223346.6770318556
 21
137039.6689041237
 31
0.0
  0
LINE
  5
1A7
330
2
100
AcDbEntity
  8
0Wymiary-PL
370
     5
100
AcDbLine
 10
223246.6770318557
 20
136979.6689041237
 30
0.0
 11
223246.6770318557
 21
137039.6689041237
 31
0.0
  0
LINE
  5
1A8
330
2
100
AcDbEntity
  8
0Wymiary-PL
370
     5
100
AcDbLine
 10
222661.6770318556
 20
136119.6689041237
 30
0.0
 11
222661.6770318556
 21
136059.6689041237
 31
0.0
  0
LINE
  5
1A9
330
2
100
AcDbEntity
  8
0Wymiary-PL
370
     5
100
AcDbLine
 10
222801.6770318556
 20
136119.6689041237
 30
0.0
 11
222801.6770318556
 21
136059.6689041237
 31
0.0
  0
LINE
  5
1AA
330
2
100
AcDbEntity
  8
0Wymiary-PL
370
     5
100
AcDbLine
 10
223177.2146971227
 20
136239.6689041237
 30
0.0
 11
223177.2146971227
 21
136179.6689041237
 31
0.0
  0
LINE
  5
1AB
330
2
100
AcDbEntity
  8
0Wymiary-PL
370
     5
100
AcDbLine
 10
223427.2146971227
 20
136179.6689041237
 30
0.0
 11
223427.2146971227
 21
136239.6689041237
 31
0.0
  0
DIMENSION
  5
1AC
330
2
100
AcDbEntity
  8
0Wymiary-PL
100
AcDbDimension
  2
*D2
 10
221853.3958476645
 20
136386.6689041237
 30
0.0
 11
221773.3958476645
 21
136223.1689041237
 31
0.0
 70
     1
 71
     5
 42
327.0
  3
500
100
AcDbAlignedDimension
 13
222392.9032845698
 23
136059.6689041237
 33
0.0
 14
222392.9032845698
 24
136386.6689041237
 34
0.0
  0
DIMENSION
  5
1B7
330
2
100
AcDbEntity
  8
0Wymiary-PL
100
AcDbDimension
  2
*D3
 10
221853.3958476645
 20
136724.6689041237
 30
0.0
 11
221773.3958476645
 21
136555.6689041237
 31
0.0
 71
     5
 42
338.0
  3
500
100
AcDbAlignedDimension
 13
218684.3277106036
 23
136386.6689041237
 33
0.0
 14
222257.9032845698
 24
136724.6689041237
 34
0.0
 50
270.0
100
AcDbRotatedDimension
  0
DIMENSION
  5
1C2
330
2
100
AcDbEntity
  8
0Wymiary-PL
100
AcDbDimension
  2
*D4
 10
221853.3958476645
 20
137159.6689041237
 30
0.0
 11
221773.3958476645
 21
136942.1689041237
 31
0.0
 71
     5
 42
435.0
  3
500
100
AcDbAlignedDimension
 13
222257.9032845698
 23
136724.6689041237
 33
0.0
 14
222392.9032845698
 24
137159.6689041237
 34
0.0
 50
270.0
100
AcDbRotatedDimension
  0
DIMENSION
  5
1CD
102
{ACAD_XDICTIONARY
360
1CE
102
}
102
{ACAD_REACTORS
330
1CF
102
}
330
2
100
AcDbEntity
  8
0Wymiary-PL
100
AcDbDimension
  2
*D19
 10
222321.6770318556
 20
137591.6176570179
 30
0.0
 11
222254.1770318557
 21
137671.6176570178
 31
0.0
 70
     1
 71
     5
 42
135.0
  3
500
100
AcDbAlignedDimension
 13
222186.6770318556
 23
136724.6689041237
 33
0.0
 14
222321.6770318556
 24
136724.6689041237
 34
0.0
  0
DIMENSION
  5
1DC
102
{ACAD_XDICTIONARY
360
1DD
102
}
102
{ACAD_REACTORS
330
1DE
102
}
330
2
100
AcDbEntity
  8
0Wymiary-PL
100
AcDbDimension
  2
*D20
 10
223141.6770318556
 20
137591.6176570179
 30
0.0
 11
222731.6770318557
 21
137671.6176570178
 31
0.0
 71
     5
 42
820.0
  3
500
100
AcDbAlignedDimension
 13
222321.6770318556
 23
136724.6689041237
 33
0.0
 14
223141.6770318556
 24
137159.6689041237
 34
0.0
 50
180.0
100
AcDbRotatedDimension
  0
DIMENSION
  5
1E9
102
{ACAD_XDICTIONARY
360
1EA
102
}
102
{ACAD_REACTORS
330
1EB
102
}
330
2
100
AcDbEntity
  8
0Wymiary-PL
100
AcDbDimension
  2
*D21
 10
223511.6770318557
 20
137591.6176570179
 30
0.0
 11
223326.6770318556
 21
137671.6176570178
 31
0.0
 71
     5
 42
370.0
  3
500
100
AcDbAlignedDimension
 13
223141.6770318556
 23
137159.6689041237
 33
0.0
 14
223511.6770318557
 24
137039.6689041237
 34
0.0
 50
180.0
100
AcDbRotatedDimension
  0
DIMENSION
  5
1F6
330
2
100
AcDbEntity
  8
0Wymiary-PL
100
AcDbDimension
  2
*D5
 10
223800.3675221595
 20
137039.6689041237
 30
0.0
 11
223720.3675221594
 21
137099.6689041237
 31
0.0
 70
     1
 71
     5
 42
120.0
  3
500
100
AcDbAlignedDimension
 13
223189.1611755793
 23
137159.6689041237
 33
0.0
 14
223189.1611755793
 24
137039.6689041237
 34
0.0
  0
DIMENSION
  5
203
330
2
100
AcDbEntity
  8
0Wymiary-PL
100
AcDbDimension
  2
*D6
 10
223800.3675221595
 20
136179.6689041237
 30
0.0
 11
223720.3675221594
 21
136609.6689041237
 31
0.0
 71
     5
 42
860.0
  3
500
100
AcDbAlignedDimension
 13
223189.1611755793
 23
137039.6689041237
 33
0.0
 14
223559.1611755793
 24
136179.6689041237
 34
0.0
 50
90.0
100
AcDbRotatedDimension
  0
DIMENSION
  5
20E
330
2
100
AcDbEntity
  8
0Wymiary-PL
100
AcDbDimension
  2
*D7
 10
223800.3675221595
 20
136059.6689041237
 30
0.0
 11
223720.3675221594
 21
136119.6689041237
 31
0.0
 71
     5
 42
120.0
  3
500
100
AcDbAlignedDimension
 13
223559.1611755793
 23
136179.6689041237
 33
0.0
 14
223189.1611755793
 24
136059.6689041237
 34
0.0
 50
90.0
100
AcDbRotatedDimension
  0
DIMENSION
  5
21B
330
2
100
AcDbEntity
  8
0Wymiary-PL
100
AcDbDimension
  2
*D8
 10
221627.4402193784
 20
137159.6689041237
 30
0.0
 11
221547.4402193784
 21
136609.6689041237
 31
0.0
 70
     1
 71
     5
 42
1100.0
  3
500
100
AcDbAlignedDimension
 13
222360.8060514264
 23
136059.6689041237
 33
0.0
 14
222360.8060514264
 24
137159.6689041237
 34
0.0
  0
DIMENSION
  5
226
102
{ACAD_XDICTIONARY
360
227
102
}
102
{ACAD_REACTORS
330
228
102
}
330
2
100
AcDbEntity
  8
0Wymiary-PL
100
AcDbDimension
  2
*D22
 10
223511.6770318557
 20
137802.7421693643
 30
0.0
 11
222849.1770318556
 21
137882.7421693644
 31
0.0
 70
     1
 71
     5
 42
1325.0
  3
500
100
AcDbAlignedDimension
 13
222186.6770318556
 23
136555.6689041237
 33
0.0
 14
223511.6770318557
 24
136555.6689041237
 34
0.0
  0
VIEWPORT
  5
23C
102
{ACAD_XDICTIONARY
360
2C9
102
}
330
23A
100
AcDbEntity
 67
     1
  8
0
100
AcDbViewport
 10
5.249999639556165
 20
3.999999883606678
 30
0.0
 40
14.53241403783632
 41
8.992999745766949
 68
     1
 69
     1
 12
5.249999639556165
 22
3.999999883606678
 13
0.0
 23
0.0
 14
10.0
 24
10.0
 15
10.0
 25
10.0
 16
0.0
 26
0.0
 36
1.0
 17
0.0
 27
0.0
 37
0.0
 42
50.0
 43
0.0
 44
0.0
 45
8.992999745766949
 50
0.0
 51
0.0
 72
  1000
 90
   819232
  1

281
     0
 71
     1
 74
     0
110
0.0
120
0.0
130
0.0
111
1.0
121
0.0
131
0.0
112
0.0
122
1.0
132
0.0
 79
     0
146
0.0
  0
VIEWPORT
  5
23F
102
{ACAD_XDICTIONARY
360
2CB
102
}
330
23A
100
AcDbEntity
 67
     1
  8
0
100
AcDbViewport
 10
5.249999761581421
 20
3.999999761581421
 30
0.0
 40
8.399999618530275
 41
6.399999618530274
 68
     2
 69
     2
 12
220287.2000545949
 22
134667.5157057546
 13
0.0
 23
0.0
 14
10.0
 24
10.0
 15
10.0
 25
10.0
 16
0.0
 26
0.0
 36
1.0
 17
0.0
 27
0.0
 37
0.0
 42
50.0
 43
0.0
 44
0.0
 45
14170.21428571428
 50
0.0
 51
0.0
 72
  1000
 90
   819232
  1

281
     0
 71
     1
 74
     0
110
0.0
120
0.0
130
0.0
111
1.0
121
0.0
131
0.0
112
0.0
122
1.0
132
0.0
 79
     0
146
0.0
  0
ENDSEC
  0
SECTION
  2
OBJECTS
  0
DICTIONARY
  5
B
330
0
100
AcDbDictionary
281
     1
  3
ACAD_COLOR
350
25E
  3
ACAD_GROUP
350
259
  3
ACAD_LAYOUT
350
235
  3
ACAD_MATERIAL
350
D
  3
ACAD_MLINESTYLE
350
25A
  3
ACAD_PLOTSETTINGS
350
25B
  3
ACAD_PLOTSTYLENAME
350
A
  3
ACAD_SCALELIST
350
25F
  3
ACAD_TABLESTYLE
350
260
  3
ACAD_VISUALSTYLE
350
238
  3
ACDB_RECOMPOSE_DATA
350
2BF
  3
AcDbVariableDictionary
350
2B4
  3
CONLABELDictionary
350
28F
  3
CONLDEFDictionary
350
27E
  3
DWGPROPS
350
2C0
  0
DICTIONARY
  5
245
330
244
100
AcDbDictionary
280
     1
281
     1
  3
ACAD_LAYERFILTERS
360
246
  3
ACAD_LAYERSTATES
360
247
  3
ACLYDICTIONARY
360
249
  0
DICTIONARY
  5
7
330
6
100
AcDbDictionary
280
     1
281
     1
  3
ADSK_XREC_LAYER_RECONCILED
360
8
  0
DICTIONARY
  5
1D
330
1C
100
AcDbDictionary
280
     1
281
     1
  3
ADSK_XREC_LAYER_RECONCILED
360
1E
  0
DICTIONARY
  5
6F
330
6E
100
AcDbDictionary
280
     1
281
     1
  3
ADSK_XREC_LAYER_RECONCILED
360
70
  0
DICTIONARY
  5
17
330
16
100
AcDbDictionary
280
     1
281
     1
  3
ADSK_XREC_LAYER_RECONCILED
360
18
  0
DICTIONARY
  5
12
330
11
100
AcDbDictionary
280
     1
281
     1
  3
ADSK_XREC_LAYER_RECONCILED
360
13
  0
DICTIONARY
  5
66
330
65
100
AcDbDictionary
280
     1
281
     1
  3
ADSK_XREC_LAYER_RECONCILED
360
67
  0
DICTIONARY
  5
2D
330
2C
100
AcDbDictionary
280
     1
281
     1
  3
ADSK_XREC_LAYER_RECONCILED
360
2E
  0
DICTIONARY
  5
29
330
28
100
AcDbDictionary
280
     1
281
     1
  3
ADSK_XREC_LAYER_RECONCILED
360
2A
  0
DICTIONARY
  5
3
330
2
100
AcDbDictionary
280
     1
281
     1
  3
ACAD_SORTENTS
360
27D
  0
DICTIONARY
  5
AA
330
A9
100
AcDbDictionary
280
     1
281
     1
  3
ACAD_SORTENTS
360
27C
  0
DICTIONARY
  5
2C3
330
1F
100
AcDbDictionary
280
     1
281
     1
  3
ACAD_MTEXT_RT
360
2C4
  0
DICTIONARY
  5
2C5
330
23
100
AcDbDictionary
280
     1
281
     1
  3
ACAD_MTEXT_RT
360
2C6
  0
DICTIONARY
  5
A3
330
A2
100
AcDbDictionary
280
     1
281
     1
  3
ACAD_DIMASSOC
360
A4
  0
DICTIONARY
  5
BB
330
BA
100
AcDbDictionary
280
     1
281
     1
  3
ACAD_DIMASSOC
360
BC
  0
DICTIONARY
  5
C8
330
C7
100
AcDbDictionary
280
     1
281
     1
  3
ACAD_DIMASSOC
360
C9
  0
DICTIONARY
  5
D5
330
D4
100
AcDbDictionary
280
     1
281
     1
  3
ACAD_DIMASSOC
360
D6
  0
DICTIONARY
  5
E4
330
E3
100
AcDbDictionary
280
     1
281
     1
  3
ACAD_DIMASSOC
360
E5
  0
DICTIONARY
  5
F1
330
F0
100
AcDbDictionary
280
     1
281
     1
  3
ACAD_DIMASSOC
360
F2
  0
DICTIONARY
  5
FE
330
FD
100
AcDbDictionary
280
     1
281
     1
  3
ACAD_DIMASSOC
360
FF
  0
DICTIONARY
  5
10D
330
10C
100
AcDbDictionary
280
     1
281
     1
  3
ACAD_DIMASSOC
360
10E
  0
DICTIONARY
  5
11A
330
119
100
AcDbDictionary
280
     1
281
     1
  3
ACAD_DIMASSOC
360
11B
  0
DICTIONARY
  5
134
330
133
100
AcDbDictionary
280
     1
281
     1
  3
ACAD_DIMASSOC
360
135
  0
DICTIONARY
  5
1CE
330
1CD
100
AcDbDictionary
280
     1
281
     1
  3
ACAD_DIMASSOC
360
1CF
  0
DICTIONARY
  5
1DD
330
1DC
100
AcDbDictionary
280
     1
281
     1
  3
ACAD_DIMASSOC
360
1DE
  0
DICTIONARY
  5
1EA
330
1E9
100
AcDbDictionary
280
     1
281
     1
  3
ACAD_DIMASSOC
360
1EB
  0
DICTIONARY
  5
227
330
226
100
AcDbDictionary
280
     1
281
     1
  3
ACAD_DIMASSOC
360
228
  0
DICTIONARY
  5
2C9
330
23C
100
AcDbDictionary
280
     1
281
     1
  3
ACAD_XREC_ROUNDTRIP
360
2CA
  0
DICTIONARY
  5
2CB
330
23F
100
AcDbDictionary
280
     1
281
     1
  3
ACAD_XREC_ROUNDTRIP
360
2CC
  0
DICTIONARY
  5
25E
102
{ACAD_REACTORS
330
B
102
}
330
B
100
AcDbDictionary
281
     1
  0
DICTIONARY
  5
259
102
{ACAD_REACTORS
330
B
102
}
330
B
100
AcDbDictionary
281
     1
  0
DICTIONARY
  5
235
102
{ACAD_REACTORS
330
B
102
}
330
B
100
AcDbDictionary
281
     1
  3
Layout1
350
241
  3
Model
350
234
  0
DICTIONARY
  5
D
102
{ACAD_REACTORS
330
B
102
}
330
B
100
AcDbDictionary
281
     1
  3
ByBlock
350
25D
  3
ByLayer
350
25C
  3
Global
350
C
  0
DICTIONARY
  5
25A
102
{ACAD_REACTORS
330
B
102
}
330
B
100
AcDbDictionary
281
     1
  3
Standard
350
261
  0
DICTIONARY
  5
25B
102
{ACAD_REACTORS
330
B
102
}
330
B
100
AcDbDictionary
281
     1
  0
ACDBDICTIONARYWDFLT
  5
A
102
{ACAD_REACTORS
330
B
102
}
330
B
100
AcDbDictionary
281
     1
  3
Medium
350
6A
  3
Normal
350
9
  3
Style 1
350
68
100
AcDbDictionaryWithDefault
340
9
  0
DICTIONARY
  5
25F
102
{ACAD_REACTORS
330
B
102
}
330
B
100
AcDbDictionary
281
     1
  3
A0
350
266
  3
A1
350
267
  3
A2
350
268
  3
A3
350
269
  3
A4
350
26A
  3
A5
350
26B
  3
A6
350
26C
  3
A7
350
26D
  3
A8
350
26E
  3
A9
350
26F
  3
B0
350
270
  3
B1
350
271
  3
B2
350
272
  3
B3
350
273
  3
B4
350
274
  3
B5
350
275
  3
B6
350
276
  3
B7
350
277
  3
B8
350
278
  3
B9
350
279
  3
C0
350
27A
  0
DICTIONARY
  5
260
102
{ACAD_REACTORS
330
B
102
}
330
B
100
AcDbDictionary
281
     1
  3
Standard
350
262
  0
DICTIONARY
  5
238
102
{ACAD_REACTORS
330
B
102
}
330
B
100
AcDbDictionary
281
     1
  3
2dWireframe
350
237
  3
3dWireframe
350
265
  3
Realistic
350
264
  0
XRECORD
  5
2BF
102
{ACAD_REACTORS
330
B
102
}
330
B
100
AcDbXrecord
280
     1
 90
        1
330
262
  0
DICTIONARY
  5
2B4
102
{ACAD_REACTORS
330
B
102
}
330
B
100
AcDbDictionary
281
     1
  3
CANNOSCALE
350
2B7
  3
CMLEADERSTYLE
350
2B6
  3
CTABLESTYLE
350
2B5
  3
DIMASSOC
350
2BB
  3
HIDETEXT
350
2BA
  3
INDEXCTL
350
2B9
  3
SORTENTS
350
2B8
  0
DICTIONARY
  5
28F
102
{ACAD_REACTORS
330
B
102
}
330
B
100
AcDbDictionary
281
     1
  3
_el_wzb_Left_nazw_romans16
350
2B3
  3
_elementy_wiezby_SKROT_Romans16
350
2B2
  3
_materialy_przegrod_pl_Label1
350
2B1
  3
_nazwy_przegrod_romans18
350
2B0
  3
_nazwy_rysunkow_Arial37
350
2AF
  3
_nazwy_rysunkow_Romans18
350
2AE
  3
_opisy_rozne_II_Label1
350
2AD
  3
_opisy_rozne_II_Link1Label1
350
2AC
  3
_posadzki_do_zestawienia_pomieszczen_Romans17
350
2AB
  3
_rozne_opisy_rys_R16_right
350
2AA
  3
_rozne_opisy_rys_Romans12
350
2A9
  3
_rozne_opisy_rys_Romans16
350
2A8
  3
_tabelka_-_inform_i_etykiety_Romans13
350
2A7
  3
_tabelka_Arial15-center
350
2A6
  3
_tabelka_Arial151
350
2A5
  3
_tabelka_Romans 10
350
2A4
  3
_tabelka_Romans13
350
2A3
  3
_tabelka_Romans19
350
2A2
  3
ALFABET-Arial20
350
2A1
  3
ALFABET-Arial26
350
2A0
  3
ALFABET-Arial37
350
29F
  3
Arial_27
350
29E
  3
jednostki-Arial18
350
29D
  3
jednostki-Arial30
350
29C
  3
jednostki-Romans16
350
29B
  3
miesiace-Romans17
350
29A
  3
pomieszczenia-Arial 15
350
299
  3
pomieszczenia-Romans17
350
298
  3
romans16
350
297
  3
Romans_17
350
296
  3
stolarka-Arial14
350
295
  3
stolarka-Romans1607
350
294
  3
stolarka-Romans1608
350
293
  3
stolarkaLabel1
350
292
  3
tbl_PRZEGRODY
350
291
  3
uwag_og_na_ark_Arial18
350
290
  0
DICTIONARY
  5
27E
102
{ACAD_REACTORS
330
B
102
}
330
B
100
AcDbDictionary
281
     1
  3
_elementy_wiezby_Link1
350
28E
  3
_materialy_przegrod_pl_Link1
350
28D
  3
_nazwy_przegrod_pl_Link1
350
28C
  3
_nazwy_rysunkow_Arial37
350
28B
  3
_opisy_rozne_II_Link1
350
28A
  3
_opisy_rozne_II_Link2
350
289
  3
_posadzki_do_zestawienia_pomieszczen_Link1
350
288
  3
_rozne_opisy_rys_Link1
350
287
  3
_tabelka_-_inform_i_etykiety_Link1
350
286
  3
_uwagi_ogolne_na_arkuszu_Link1
350
285
  3
ALFABETLink1
350
284
  3
jednostkiLink1
350
283
  3
miesiaceLink1
350
282
  3
pomieszczeniaLink1
350
281
  3
stolarkaLink1
350
280
  3
tbl_PRZEGRODYLink1
350
27F
  0
XRECORD
  5
2C0
102
{ACAD_REACTORS
330
B
102
}
330
B
100
AcDbXrecord
280
     1
  1
DWGPROPS COOKIE
  2

  3

  4

  6

  7

  8
artur.skora
  9

300
=
301
=
302
=
303
=
304
=
305
=
306
=
307
=
308
=
309
=
 40
8.935212083333333
 41
2452027.628880787
 42
2455566.610279942
  1

 90
        0
  0
DICTIONARY
  5
246
102
{ACAD_REACTORS
330
245
102
}
330
245
100
AcDbDictionary
281
     1
  0
DICTIONARY
  5
247
102
{ACAD_REACTORS
330
245
102
}
330
245
100
AcDbDictionary
281
     1
1001
AcLayerTools
1000
A
1000
0
  0
DICTIONARY
  5
249
102
{ACAD_REACTORS
330
245
102
}
330
245
100
AcDbDictionary
281
     1
1001
ACAD
1000
<All
  0
XRECORD
  5
8
102
{ACAD_REACTORS
330
7
102
}
330
7
100
AcDbXrecord
280
     1
290
     1
  0
XRECORD
  5
1E
102
{ACAD_REACTORS
330
1D
102
}
330
1D
100
AcDbXrecord
280
     1
290
     1
  0
XRECORD
  5
70
102
{ACAD_REACTORS
330
6F
102
}
330
6F
100
AcDbXrecord
280
     1
290
     1
  0
XRECORD
  5
18
102
{ACAD_REACTORS
330
17
102
}
330
17
100
AcDbXrecord
280
     1
290
     1
  0
XRECORD
  5
13
102
{ACAD_REACTORS
330
12
102
}
330
12
100
AcDbXrecord
280
     1
290
     1
  0
XRECORD
  5
67
102
{ACAD_REACTORS
330
66
102
}
330
66
100
AcDbXrecord
280
     1
290
     1
  0
XRECORD
  5
2E
102
{ACAD_REACTORS
330
2D
102
}
330
2D
100
AcDbXrecord
280
     1
290
     1
  0
XRECORD
  5
2A
102
{ACAD_REACTORS
330
29
102
}
330
29
100
AcDbXrecord
280
     1
290
     1
  0
SORTENTSTABLE
  5
27D
102
{ACAD_REACTORS
330
3
102
}
330
3
100
AcDbSortentsTable
330
2
  0
SORTENTSTABLE
  5
27C
102
{ACAD_REACTORS
330
AA
102
}
330
AA
100
AcDbSortentsTable
330
A9
  0
XRECORD
  5
2C4
102
{ACAD_REACTORS
330
2C3
102
}
330
2C3
100
AcDbXrecord
280
     1
 40
264312.0
  1
{\fArial|b0|i0|c238|p34;MOŻNA WKLEIĆ DO PROJEKTU ZAGOSPODAROWANIA TERENU}
  0
XRECORD
  5
2C6
102
{ACAD_REACTORS
330
2C5
102
}
330
2C5
100
AcDbXrecord
280
     1
 40
106589.0
  1
{\fArial|b0|i0|c238|p34;OŚ ODBICIA LUSTRZANEGO}
  0
DIMASSOC
  5
A4
102
{ACAD_REACTORS
330
A3
102
}
330
A3
100
AcDbDimAssoc
330
A2
 90
        3
 70
     0
 71
     0
  1
AcDbOsnapPointRef
 72
     1
331
9A
 73
     2
 91
        8
 40
1.0
 10
0.0
 20
0.0
 30
2.000000000000000E+50
 75
     0
  1
AcDbOsnapPointRef
 72
     8
331
9A
 73
     2
 91
        7
 40
0.9999999999999864
 10
0.0
 20
0.0
 30
0.0
 75
     1
  1
AcDbOsnapPointRef
 72
     1
331
9A
 73
     2
 91
        8
 40
1.0
 10
0.0
 20
0.0
 30
2.000000000000000E+50
 75
     0
  0
DIMASSOC
  5
BC
102
{ACAD_REACTORS
330
BB
102
}
330
BB
100
AcDbDimAssoc
330
BA
 90
        3
 70
     0
 71
     0
  1
AcDbOsnapPointRef
 72
     8
331
9A
 73
     2
 91
        7
 40
0.9999999999999864
 10
0.0
 20
0.0
 30
0.0
 75
     1
  1
AcDbOsnapPointRef
 72
     0
 40
0.0
 10
13068.01183783136
 20
8872.439736060542
 30
0.0
 75
     0
  1
AcDbOsnapPointRef
 72
     1
331
9A
 73
     2
 91
        5
 40
1.0
 10
0.0
 20
0.0
 30
2.000000000000000E+50
 75
     0
  0
DIMASSOC
  5
C9
102
{ACAD_REACTORS
330
C8
102
}
330
C8
100
AcDbDimAssoc
330
C7
 90
        3
 70
     0
 71
     0
  1
AcDbOsnapPointRef
 72
     1
331
9A
 73
     2
 91
        5
 40
1.0
 10
0.0
 20
0.0
 30
2.000000000000000E+50
 75
     0
  1
AcDbOsnapPointRef
 72
     1
331
9A
 73
     2
 91
        3
 40
1.0
 10
0.0
 20
0.0
 30
2.000000000000000E+50
 75
     0
  0
DIMASSOC
  5
D6
102
{ACAD_REACTORS
330
D5
102
}
330
D5
100
AcDbDimAssoc
330
D4
 90
        3
 70
     0
 71
     0
  1
AcDbOsnapPointRef
 72
     1
331
9A
 73
     2
 91
        5
 40
1.0
 10
0.0
 20
0.0
 30
2.000000000000000E+50
 75
     0
  1
AcDbOsnapPointRef
 72
     1
331
9A
 73
     2
 91
        4
 40
1.0
 10
0.0
 20
0.0
 30
2.000000000000000E+50
 75
     0
  0
DIMASSOC
  5
E5
102
{ACAD_REACTORS
330
E4
102
}
330
E4
100
AcDbDimAssoc
330
E3
 90
        3
 70
     0
 71
     0
  1
AcDbOsnapPointRef
 72
     1
331
9A
 73
     2
 91
        4
 40
1.0
 10
0.0
 20
0.0
 30
2.000000000000000E+50
 75
     0
  1
AcDbOsnapPointRef
 72
     1
331
9A
 73
     2
 91
        2
 40
1.0
 10
0.0
 20
0.0
 30
2.000000000000000E+50
 75
     0
  0
DIMASSOC
  5
F2
102
{ACAD_REACTORS
330
F1
102
}
330
F1
100
AcDbDimAssoc
330
F0
 90
        3
 70
     0
 71
     0
  1
AcDbOsnapPointRef
 72
     1
331
9A
 73
     2
 91
        2
 40
1.0
 10
0.0
 20
0.0
 30
2.000000000000000E+50
 75
     0
  1
AcDbOsnapPointRef
 72
    13
331
9A
 73
     2
 91
        1
 40
0.0
 10
0.0
 20
0.0
 30
2.000000000000000E+50
 75
     0
  0
DIMASSOC
  5
FF
102
{ACAD_REACTORS
330
FE
102
}
330
FE
100
AcDbDimAssoc
330
FD
 90
        3
 70
     0
 71
     0
  1
AcDbOsnapPointRef
 72
     1
331
9A
 73
     2
 91
        2
 40
1.0
 10
0.0
 20
0.0
 30
2.000000000000000E+50
 75
     0
  1
AcDbOsnapPointRef
 72
     1
331
9A
 73
     2
 91
        1
 40
1.0
 10
0.0
 20
0.0
 30
2.000000000000000E+50
 75
     0
  0
DIMASSOC
  5
10E
102
{ACAD_REACTORS
330
10D
102
}
330
10D
100
AcDbDimAssoc
330
10C
 90
        3
 70
     0
 71
     0
  1
AcDbOsnapPointRef
 72
     1
331
9A
 73
     2
 91
        1
 40
1.0
 10
0.0
 20
0.0
 30
2.000000000000000E+50
 75
     0
  1
AcDbOsnapPointRef
 72
     1
331
9A
 73
     2
 91
       11
 40
1.0
 10
0.0
 20
0.0
 30
2.000000000000000E+50
 75
     0
  0
DIMASSOC
  5
11B
102
{ACAD_REACTORS
330
11A
102
}
330
11A
100
AcDbDimAssoc
330
119
 90
        3
 70
     0
 71
     0
  1
AcDbOsnapPointRef
 72
     1
331
9A
 73
     2
 91
       11
 40
1.0
 10
0.0
 20
0.0
 30
2.000000000000000E+50
 75
     0
  1
AcDbOsnapPointRef
 72
     1
331
9A
 73
     2
 91
        9
 40
1.0
 10
0.0
 20
0.0
 30
2.000000000000000E+50
 75
     0
  0
DIMASSOC
  5
135
102
{ACAD_REACTORS
330
134
102
}
330
134
100
AcDbDimAssoc
330
133
 90
        3
 70
     0
 71
     0
  1
AcDbOsnapPointRef
 72
     2
331
9A
 73
     2
 91
        6
 40
0.5
 10
0.0
 20
0.0
 30
0.0
 75
     0
  1
AcDbOsnapPointRef
 72
     8
331
9A
 73
     2
 91
       12
 40
0.4372093023255824
 10
0.0
 20
0.0
 30
0.0
 75
     1
  1
AcDbOsnapPointRef
 72
     2
331
9A
 73
     2
 91
        6
 40
0.5
 10
0.0
 20
0.0
 30
0.0
 75
     0
  0
DIMASSOC
  5
1CF
102
{ACAD_REACTORS
330
1CE
102
}
330
1CE
100
AcDbDimAssoc
330
1CD
 90
        3
 70
     0
 71
     0
  1
AcDbOsnapPointRef
 72
     1
331
1A4
 73
     2
 91
        5
 40
1.0
 10
0.0
 20
0.0
 30
2.000000000000000E+50
 75
     0
  1
AcDbOsnapPointRef
 72
     1
331
1A4
 73
     2
 91
        4
 40
1.0
 10
0.0
 20
0.0
 30
2.000000000000000E+50
 75
     0
  0
DIMASSOC
  5
1DE
102
{ACAD_REACTORS
330
1DD
102
}
330
1DD
100
AcDbDimAssoc
330
1DC
 90
        3
 70
     0
 71
     0
  1
AcDbOsnapPointRef
 72
     1
331
1A4
 73
     2
 91
        4
 40
1.0
 10
0.0
 20
0.0
 30
2.000000000000000E+50
 75
     0
  1
AcDbOsnapPointRef
 72
     1
331
1A4
 73
     2
 91
        2
 40
1.0
 10
0.0
 20
0.0
 30
2.000000000000000E+50
 75
     0
  0
DIMASSOC
  5
1EB
102
{ACAD_REACTORS
330
1EA
102
}
330
1EA
100
AcDbDimAssoc
330
1E9
 90
        3
 70
     0
 71
     0
  1
AcDbOsnapPointRef
 72
     1
331
1A4
 73
     2
 91
        2
 40
1.0
 10
0.0
 20
0.0
 30
2.000000000000000E+50
 75
     0
  1
AcDbOsnapPointRef
 72
    13
331
1A4
 73
     2
 91
        1
 40
0.0
 10
0.0
 20
0.0
 30
2.000000000000000E+50
 75
     0
  0
DIMASSOC
  5
228
102
{ACAD_REACTORS
330
227
102
}
330
227
100
AcDbDimAssoc
330
226
 90
        3
 70
     0
 71
     0
  1
AcDbOsnapPointRef
 72
     2
331
1A4
 73
     2
 91
        6
 40
0.5
 10
0.0
 20
0.0
 30
0.0
 75
     0
  1
AcDbOsnapPointRef
 72
     8
331
1A4
 73
     2
 91
       12
 40
0.4372093023255824
 10
0.0
 20
0.0
 30
0.0
 75
     1
  1
AcDbOsnapPointRef
 72
     2
331
1A4
 73
     2
 91
        6
 40
0.5
 10
0.0
 20
0.0
 30
0.0
 75
     0
  0
XRECORD
  5
2CA
102
{ACAD_REACTORS
330
2C9
102
}
330
2C9
100
AcDbXrecord
280
     1
102
SHADEPLOT
 70
     0
  0
XRECORD
  5
2CC
102
{ACAD_REACTORS
330
2CB
102
}
330
2CB
100
AcDbXrecord
280
     1
102
SHADEPLOT
 70
     0
  0
LAYOUT
  5
241
102
{ACAD_XDICTIONARY
360
242
102
}
102
{ACAD_REACTORS
330
235
102
}
330
235
100
AcDbPlotSettings
  1

  2
none_device
  4
Letter_(8.50_x_11.00_Inches)
  6

 40
6.349999904632568
 41
6.349999904632568
 42
6.350006103515625
 43
6.350006103515625
 44
215.8999938964844
 45
279.3999938964844
 46
0.0
 47
0.0
 48
0.0
 49
0.0
140
0.0
141
0.0
142
1.0
143
1.0
 70
   688
 72
     0
 73
     1
 74
     5
  7
monochrome_140.ctb
 75
    16
147
1.0
148
0.0
149
0.0
100
AcDbLayout
  1
Layout1
 70
     1
 71
     1
 10
-0.2500002402958907
 20
-0.2499999962453767
 11
10.74999951940822
 21
8.249999763458733
 12
0.0
 22
0.0
 32
0.0
 14
1.049999952316284
 24
0.7999999523162842
 34
0.0
 15
9.449999570846559
 25
7.199999570846558
 35
0.0
146
0.0
 13
0.0
 23
0.0
 33
0.0
 16
1.0
 26
0.0
 36
0.0
 17
0.0
 27
1.0
 37
0.0
 76
     0
330
23A
331
23C
1001
ACAD_PSEXT
1000
None
1000
None
1000
Not applicable
1000
The layout will not be plotted unless a new plotter configuration name is selected.
1070
     0
  0
LAYOUT
  5
234
102
{ACAD_XDICTIONARY
360
2C7
102
}
102
{ACAD_REACTORS
330
235
102
}
330
235
100
AcDbPlotSettings
  1

  2
PDFCreator
  4
A4
  6
RODODENDRON 5
 40
3.174999952316284
 41
3.174999952316284
 42
3.175003051757812
 43
3.17498779296875
 44
209.8886566162109
 45
297.0530090332031
 46
-0.230673193931878
 47
5.151510643959028
 48
215187.2000545948
 49
127657.5157057546
140
225387.2000545948
141
141677.5157057546
142
1.0
143
50.0
 70
 11956
 72
     1
 73
     0
 74
     4
  7
monochrome_140.ctb
 75
    25
147
0.02
148
-215187.2000545948
149
-127657.5157057546
100
AcDbLayout
  1
Model
 70
     1
 71
     0
 10
0.0
 20
0.0
 11
12.0
 21
9.0
 12
0.0
 22
0.0
 32
0.0
 14
0.0
 24
0.0
 34
0.0
 15
0.0
 25
0.0
 35
0.0
146
0.0
 13
0.0
 23
0.0
 33
0.0
 16
1.0
 26
0.0
 36
0.0
 17
0.0
 27
1.0
 37
0.0
 76
     0
330
2
331
253
1001
ACAD_PSEXT
1000
PDFCreator
1000
PDFCreator
1000
PDFCreator:
1000
eDoc Printer
1070
     0
  0
MATERIAL
  5
25D
102
{ACAD_XDICTIONARY
360
2D0
102
}
102
{ACAD_REACTORS
330
D
102
}
330
D
100
AcDbMaterial
  1
ByBlock
 73
     1
 78
     1
172
     1
176
     1
270
     1
274
     1
  0
MATERIAL
  5
25C
102
{ACAD_XDICTIONARY
360
2CE
102
}
102
{ACAD_REACTORS
330
D
102
}
330
D
100
AcDbMaterial
  1
ByLayer
 73
     1
 78
     1
172
     1
176
     1
270
     1
274
     1
  0
MATERIAL
  5
C
102
{ACAD_XDICTIONARY
360
2C1
102
}
102
{ACAD_REACTORS
330
D
102
}
330
D
100
AcDbMaterial
  1
Global
 73
     1
 78
     1
172
     1
176
     1
270
     1
274
     1
  0
MLINESTYLE
  5
261
102
{ACAD_REACTORS
330
25A
102
}
330
25A
100
AcDbMlineStyle
  2
STANDARD
 70
     0
  3

 62
   256
 51
90.0
 52
90.0
 71
     2
 49
0.5
 62
   256
  6
BYLAYER
 49
-0.5
 62
   256
  6
BYLAYER
  0
ACDBPLACEHOLDER
  5
6A
102
{ACAD_REACTORS
330
A
102
}
330
A
  0
ACDBPLACEHOLDER
  5
9
102
{ACAD_REACTORS
330
A
102
}
330
A
  0
ACDBPLACEHOLDER
  5
68
102
{ACAD_REACTORS
330
A
102
}
330
A
  0
SCALE
  5
266
102
{ACAD_REACTORS
330
25F
102
}
330
25F
100
AcDbScale
 70
     0
300
1:1
140
1.0
141
0.1
290
     0
  0
SCALE
  5
267
102
{ACAD_REACTORS
330
25F
102
}
330
25F
100
AcDbScale
 70
     0
300
1:2
140
1.0
141
0.2
290
     0
  0
SCALE
  5
268
102
{ACAD_REACTORS
330
25F
102
}
330
25F
100
AcDbScale
 70
     0
300
1:2.5
140
1.0
141
0.25
290
     0
  0
SCALE
  5
269
102
{ACAD_REACTORS
330
25F
102
}
330
25F
100
AcDbScale
 70
     0
300
1:5
140
1.0
141
0.5
290
     0
  0
SCALE
  5
26A
102
{ACAD_REACTORS
330
25F
102
}
330
25F
100
AcDbScale
 70
     0
300
1:7.5
140
1.0
141
0.75
290
     0
  0
SCALE
  5
26B
102
{ACAD_REACTORS
330
25F
102
}
330
25F
100
AcDbScale
 70
     0
300
1:10
140
1.0
141
1.0
290
     1
  0
SCALE
  5
26C
102
{ACAD_REACTORS
330
25F
102
}
330
25F
100
AcDbScale
 70
     0
300
1:20
140
1.0
141
2.0
290
     0
  0
SCALE
  5
26D
102
{ACAD_REACTORS
330
25F
102
}
330
25F
100
AcDbScale
 70
     0
300
1:25
140
1.0
141
2.5
290
     0
  0
SCALE
  5
26E
102
{ACAD_REACTORS
330
25F
102
}
330
25F
100
AcDbScale
 70
     0
300
1:50
140
1.0
141
5.0
290
     0
  0
SCALE
  5
26F
102
{ACAD_REACTORS
330
25F
102
}
330
25F
100
AcDbScale
 70
     0
300
1:75
140
1.0
141
7.5
290
     0
  0
SCALE
  5
270
102
{ACAD_REACTORS
330
25F
102
}
330
25F
100
AcDbScale
 70
     0
300
1:100
140
1.0
141
10.0
290
     0
  0
SCALE
  5
271
102
{ACAD_REACTORS
330
25F
102
}
330
25F
100
AcDbScale
 70
     0
300
1:150
140
1.0
141
15.0
290
     0
  0
SCALE
  5
272
102
{ACAD_REACTORS
330
25F
102
}
330
25F
100
AcDbScale
 70
     0
300
1:200
140
1.0
141
20.0
290
     0
  0
SCALE
  5
273
102
{ACAD_REACTORS
330
25F
102
}
330
25F
100
AcDbScale
 70
     0
300
1:250
140
1.0
141
25.0
290
     0
  0
SCALE
  5
274
102
{ACAD_REACTORS
330
25F
102
}
330
25F
100
AcDbScale
 70
     0
300
1:500
140
1.0
141
50.0
290
     0
  0
SCALE
  5
275
102
{ACAD_REACTORS
330
25F
102
}
330
25F
100
AcDbScale
 70
     0
300
1:750
140
1.0
141
75.0
290
     0
  0
SCALE
  5
276
102
{ACAD_REACTORS
330
25F
102
}
330
25F
100
AcDbScale
 70
     0
300
1:1000
140
1.0
141
100.0
290
     0
  0
SCALE
  5
277
102
{ACAD_REACTORS
330
25F
102
}
330
25F
100
AcDbScale
 70
     0
300
1:1250
140
1.0
141
125.0
290
     0
  0
SCALE
  5
278
102
{ACAD_REACTORS
330
25F
102
}
330
25F
100
AcDbScale
 70
     0
300
1:2000
140
1.0
141
200.0
290
     0
  0
SCALE
  5
279
102
{ACAD_REACTORS
330
25F
102
}
330
25F
100
AcDbScale
 70
     0
300
1:2500
140
1.0
141
250.0
290
     0
  0
SCALE
  5
27A
102
{ACAD_REACTORS
330
25F
102
}
330
25F
100
AcDbScale
 70
     0
300
1:5000
140
1.0
141
500.0
290
     0
  0
TABLESTYLE
  5
262
102
{ACAD_XDICTIONARY
360
263
102
}
102
{ACAD_REACTORS
330
260
102
}
330
260
100
AcDbTableStyle
  3
Standard
 70
     0
 71
     0
 40
0.06
 41
0.06
280
     0
281
     0
  7
Standard
140
0.18
170
     2
 62
     0
 63
     7
283
     0
274
    -2
284
     1
 64
     0
275
    -2
285
     1
 65
     0
276
    -2
286
     1
 66
     0
277
    -2
287
     1
 67
     0
278
    -2
288
     1
 68
     0
279
    -2
289
     1
 69
     0
  7
Standard
140
0.25
170
     5
 62
     0
 63
     7
283
     0
274
    -2
284
     1
 64
     0
275
    -2
285
     1
 65
     0
276
    -2
286
     1
 66
     0
277
    -2
287
     1
 67
     0
278
    -2
288
     1
 68
     0
279
    -2
289
     1
 69
     0
  7
Standard
140
0.18
170
     5
 62
     0
 63
     7
283
     0
274
    -2
284
     1
 64
     0
275
    -2
285
     1
 65
     0
276
    -2
286
     1
 66
     0
277
    -2
287
     1
 67
     0
278
    -2
288
     1
 68
     0
279
    -2
289
     1
 69
     0
  0
VISUALSTYLE
  5
237
102
{ACAD_REACTORS
330
238
102
}
330
238
100
AcDbVisualStyle
  2
2dWireframe
 70
     4
 71
     0
 72
     2
 73
     0
 90
        0
 40
-0.6
 41
-30.0
 62
     5
 63
     7
 74
     1
 91
        4
 64
     7
 65
   257
 75
     1
175
     1
 42
1.0
 92
        0
 66
   257
 43
1.0
 76
     1
 77
     6
 78
     2
 67
     7
 79
     5
170
     0
171
     0
290
     0
174
     0
 93
        1
 44
0.0
173
     0
291
     0
 45
0.0
1001
ACAD
1000
AcDbSavedByObjectVersion
1070
     0
  0
VISUALSTYLE
  5
265
102
{ACAD_REACTORS
330
238
102
}
330
238
100
AcDbVisualStyle
  2
3dWireframe
 70
     5
 71
     0
 72
     2
 73
     0
 90
        0
 40
-0.6
 41
-30.0
 62
     5
 63
     7
 74
     1
 91
        4
 64
     7
 65
   257
 75
     1
175
     1
 42
1.0
 92
        0
 66
   257
 43
1.0
 76
     1
 77
     6
 78
     2
 67
     7
 79
     5
170
     0
171
     0
290
     0
174
     0
 93
        1
 44
0.0
173
     0
291
     0
 45
0.0
1001
ACAD
1000
AcDbSavedByObjectVersion
1070
     0
  0
VISUALSTYLE
  5
264
102
{ACAD_REACTORS
330
238
102
}
330
238
100
AcDbVisualStyle
  2
Realistic
 70
     8
 71
     2
 72
     2
 73
     0
 90
        0
 40
-0.6
 41
-30.0
 62
     5
 63
     7
 74
     1
 91
        0
 64
     7
 65
   257
 75
     1
175
     1
 42
1.0
 92
        8
 66
     8
 43
1.0
 76
     1
 77
     6
 78
     2
 67
     7
 79
     5
170
     0
171
     0
290
     0
174
     0
 93
       13
 44
0.0
173
     0
291
     0
 45
0.0
1001
ACAD
1000
AcDbSavedByObjectVersion
1070
     0
  0
DICTIONARYVAR
  5
2B7
102
{ACAD_REACTORS
330
2B4
102
}
330
2B4
100
DictionaryVariables
280
     0
  1
1:100
  0
DICTIONARYVAR
  5
2B6
102
{ACAD_REACTORS
330
2B4
102
}
330
2B4
100
DictionaryVariables
280
     0
  1
STANDARD
  0
DICTIONARYVAR
  5
2B5
102
{ACAD_REACTORS
330
2B4
102
}
330
2B4
100
DictionaryVariables
280
     0
  1
STANDARD
  0
DICTIONARYVAR
  5
2BB
102
{ACAD_REACTORS
330
2B4
102
}
330
2B4
100
DictionaryVariables
280
     0
  1
1
  0
DICTIONARYVAR
  5
2BA
102
{ACAD_REACTORS
330
2B4
102
}
330
2B4
100
DictionaryVariables
280
     0
  1
1
  0
DICTIONARYVAR
  5
2B9
102
{ACAD_REACTORS
330
2B4
102
}
330
2B4
100
DictionaryVariables
280
     0
  1
0
  0
DICTIONARYVAR
  5
2B8
102
{ACAD_REACTORS
330
2B4
102
}
330
2B4
100
DictionaryVariables
280
     0
  1
127
  0
OBJECT_PTR
  5
2B3
102
{ACAD_REACTORS
330
28F
102
}
330
28F
1001
DCO15
1000
jet_dbsamples..."elementy wiezby"(_el_wzb_Left_nazw_romans16)
1000
nazw_el_wiezb
1040
1.0
1040
1.0
1040
0.0
1040
0.0
1040
0.0
1040
0.0
1040
0.0
1040
15.0
1071
        0
1071
      256
1071
        7
1071
        5
1071
        1
1000
ROMANS
1000
ByLayer
1000
#(nazw_el_wiezb)
  0
OBJECT_PTR
  5
2B2
102
{ACAD_REACTORS
330
28F
102
}
330
28F
1001
DCO15
1000
jet_dbsamples..."elementy wiezby"(_elementy_wiezby_SKROT_Romans16)
1000
skrot_el_wiezb
1040
1.0
1040
1.0
1040
0.0
1040
0.0
1040
0.0
1040
0.0
1040
0.0
1040
16.0
1071
        0
1071
      256
1071
        9
1071
        5
1071
        1
1000
ROMANS
1000
ByLayer
1000
#(skrot_el_wiezb)
  0
OBJECT_PTR
  5
2B1
102
{ACAD_REACTORS
330
28F
102
}
330
28F
1001
DCO15
1000
jet_dbsamples..."materialy przegrod pl"(_materialy_przegrod_pl_Label1)
1000
nazw_mat
1040
1.0
1040
1.0
1040
0.0
1040
0.0
1040
0.0
1040
0.0
1040
0.0
1040
17.0
1071
        0
1071
      256
1071
        7
1071
        5
1071
        1
1000
ROMANS
1000
ByLayer
1000
#(nazw_mat)
  0
OBJECT_PTR
  5
2B0
102
{ACAD_REACTORS
330
28F
102
}
330
28F
1001
DCO15
1000
jet_dbsamples..."nazwy przegrod pl"(_nazwy_przegrod_romans18)
1000
nzw_przegrody
1040
1.0
1040
1.0
1040
0.0
1040
0.0
1040
0.0
1040
0.0
1040
0.0
1040
17.0
1071
        0
1071
      256
1071
        7
1071
        5
1071
        1
1000
ROMANS
1000
ByLayer
1000
{\L\C2;#(nzw_przegrody)}
  0
OBJECT_PTR
  5
2AF
102
{ACAD_REACTORS
330
28F
102
}
330
28F
1001
DCO15
1000
jet_dbsamples..."nazwy rysunkow"(_nazwy_rysunkow_Arial37)
1000
1linia
1000
2linia
1000
3linia
1040
1.0
1040
1.0
1040
0.0
1040
0.0
1040
0.0
1040
0.0
1040
0.0
1040
37.0
1071
        0
1071
      256
1071
        1
1071
        5
1071
        1
1000
ROMANS
1000
ByLayer
1000
{\fArial|b0|i0|c238|p34;#(1linia)\P#(2linia)\P#(3linia)}
  0
OBJECT_PTR
  5
2AE
102
{ACAD_REACTORS
330
28F
102
}
330
28F
1001
DCO15
1000
jet_dbsamples..."nazwy rysunkow"(_nazwy_rysunkow_Romans18)
1000
1linia
1000
2linia
1000
3linia
1040
1.0
1040
1.0
1040
0.0
1040
0.0
1040
0.0
1040
0.0
1040
0.0
1040
18.0
1071
        0
1071
      256
1071
        2
1071
        5
1071
        1
1000
ROMANS
1000
ByLayer
1000
{\Fromans.shx|c238;#(1linia)\P#(2linia)\P#(3linia)}
  0
OBJECT_PTR
  5
2AD
102
{ACAD_REACTORS
330
28F
102
}
330
28F
1001
DCO15
1000
jet_dbsamples..."opisy rozne II"(_opisy_rozne_II_Label1)
1000
opis różny
1040
1.0
1040
1.0
1040
0.0
1040
0.0
1040
0.0
1040
0.0
1040
0.0
1040
10.0
1071
        0
1071
      256
1071
        1
1071
        5
1071
        1
1000
ROMANS
1000
ByLayer
1000
#(opis różny)
  0
OBJECT_PTR
  5
2AC
102
{ACAD_REACTORS
330
28F
102
}
330
28F
1001
DCO15
1000
jet_dbsamples..."opisy rozne II"(_opisy_rozne_II_Link1Label1)
1000
opis różny
1040
1.0
1040
1.0
1040
0.0
1040
0.0
1040
0.0
1040
0.0
1040
0.0
1040
10.0
1071
        0
1071
      256
1071
        1
1071
        5
1071
        1
1000
ROMANS
1000
ByLayer
1000
#(opis różny)
  0
OBJECT_PTR
  5
2AB
102
{ACAD_REACTORS
330
28F
102
}
330
28F
1001
DCO15
1000
jet_dbsamples..."posadzki do zestawienia pomieszczen"(_posadzki_do_zestawienia_pomieszczen_Romans17)
1000
nazwa_pos
1040
1.0
1040
1.0
1040
0.0
1040
0.0
1040
0.0
1040
0.0
1040
0.0
1040
17.0
1071
        0
1071
      256
1071
        7
1071
        5
1071
        1
1000
ROMANS
1000
ByLayer
1000
#(nazwa_pos)
  0
OBJECT_PTR
  5
2AA
102
{ACAD_REACTORS
330
28F
102
}
330
28F
1001
DCO15
1000
jet_dbsamples..."rozne opisy rys"(_rozne_opisy_rys_R16_right)
1000
1L
1000
2L
1000
3L
1000
4L
1000
5L
1040
1.0
1040
1.0
1040
0.0
1040
0.0
1040
0.0
1040
0.0
1040
0.0
1040
16.0
1071
        0
1071
      256
1071
        3
1071
        5
1071
        1
1000
ROMANS
1000
ByLayer
1000
#(1L)\P#(2L)\P#(3L)\P#(4L)\P#(5L)
  0
OBJECT_PTR
  5
2A9
102
{ACAD_REACTORS
330
28F
102
}
330
28F
1001
DCO15
1000
jet_dbsamples..."rozne opisy rys"(_rozne_opisy_rys_Romans12)
1000
1L
1000
2L
1000
3L
1000
4L
1000
5L
1040
1.0
1040
1.0
1040
0.0
1040
0.0
1040
0.0
1040
0.0
1040
0.0
1040
13.0
1071
        0
1071
      256
1071
        1
1071
        5
1071
        1
1000
ROMANS
1000
ByLayer
1000
#(1L)\P#(2L)\P#(3L)\P#(4L)\P#(5L)
  0
OBJECT_PTR
  5
2A8
102
{ACAD_REACTORS
330
28F
102
}
330
28F
1001
DCO15
1000
jet_dbsamples..."rozne opisy rys"(_rozne_opisy_rys_Romans16)
1000
1L
1000
2L
1000
3L
1000
4L
1000
5L
1040
1.0
1040
1.0
1040
0.0
1040
0.0
1040
0.0
1040
0.0
1040
0.0
1040
16.0
1071
        0
1071
      256
1071
        1
1071
        5
1071
        1
1000
ROMANS
1000
ByLayer
1000
#(1L)\P#(2L)\P#(3L)\P#(4L)\P#(5L)
  0
OBJECT_PTR
  5
2A7
102
{ACAD_REACTORS
330
28F
102
}
330
28F
1001
DCO15
1000
jet_dbsamples..."tabelka - inform i etykiety"(_tabelka_-_inform_i_etykiety_Romans13)
1000
1linia
1000
2linia_ewentualna
1000
3linia_ewentualna
1040
1.0
1040
1.0
1040
0.0
1040
0.0
1040
0.0
1040
0.0
1040
0.0
1040
13.0
1071
        0
1071
      256
1071
        1
1071
        5
1071
        1
1000
ROMANS
1000
ByLayer
1000
#(1linia)\P#(2linia_ewentualna)\P#(3linia_ewentualna)
  0
OBJECT_PTR
  5
2A6
102
{ACAD_REACTORS
330
28F
102
}
330
28F
1001
DCO15
1000
jet_dbsamples..."tabelka - inform i etykiety"(_tabelka_Arial15-center)
1000
1linia
1000
2linia_ewentualna
1000
3linia_ewentualna
1040
1.0
1040
1.0
1040
0.0
1040
0.0
1040
0.0
1040
0.0
1040
0.0
1040
15.0
1071
        0
1071
      256
1071
        2
1071
        5
1071
        1
1000
ROMANS
1000
ByLayer
1000
{\fArial|b0|i0|c238|p34;#(1linia)\P#(2linia_ewentualna)\P#(3linia_ewentualna)}
  0
OBJECT_PTR
  5
2A5
102
{ACAD_REACTORS
330
28F
102
}
330
28F
1001
DCO15
1000
jet_dbsamples..."tabelka - inform i etykiety"(_tabelka_Arial151)
1000
1linia
1040
1.0
1040
1.0
1040
0.0
1040
0.0
1040
0.0
1040
0.0
1040
0.0
1040
15.0
1071
        0
1071
      256
1071
        1
1071
        5
1071
        1
1000
ARIAL
1000
ByLayer
1000
{\fArial|b0|i0|c238|p34;#(1linia)}
  0
OBJECT_PTR
  5
2A4
102
{ACAD_REACTORS
330
28F
102
}
330
28F
1001
DCO15
1000
jet_dbsamples..."tabelka - inform i etykiety"(_tabelka_Romans 10)
1000
1linia
1000
2linia_ewentualna
1000
3linia_ewentualna
1040
1.0
1040
1.0
1040
0.0
1040
0.0
1040
0.0
1040
0.0
1040
0.0
1040
10.0
1071
        0
1071
      256
1071
        1
1071
        5
1071
        1
1000
ARIAL
1000
ByLayer
1000
#(1linia)\P#(2linia_ewentualna)\P#(3linia_ewentualna)
  0
OBJECT_PTR
  5
2A3
102
{ACAD_REACTORS
330
28F
102
}
330
28F
1001
DCO15
1000
jet_dbsamples..."tabelka - inform i etykiety"(_tabelka_Romans13)
1000
1linia
1000
2linia_ewentualna
1000
3linia_ewentualna
1040
1.0
1040
1.0
1040
0.0
1040
0.0
1040
0.0
1040
0.0
1040
0.0
1040
13.0
1071
        0
1071
      256
1071
        1
1071
        5
1071
        1
1000
ARIAL
1000
ByLayer
1000
#(1linia)\P#(2linia_ewentualna)\P#(3linia_ewentualna)
  0
OBJECT_PTR
  5
2A2
102
{ACAD_REACTORS
330
28F
102
}
330
28F
1001
DCO15
1000
jet_dbsamples..."tabelka - inform i etykiety"(_tabelka_Romans19)
1000
1linia
1000
2linia_ewentualna
1000
3linia_ewentualna
1040
1.0
1040
1.0
1040
0.0
1040
0.0
1040
0.0
1040
0.0
1040
0.0
1040
19.0
1071
        0
1071
      256
1071
        2
1071
        5
1071
        1
1000
ARIAL
1000
ByLayer
1000
#(1linia)\P#(2linia_ewentualna)\P#(3linia_ewentualna)
  0
OBJECT_PTR
  5
2A1
102
{ACAD_REACTORS
330
28F
102
}
330
28F
1001
DCO15
1000
jet_dbsamples...ALFABET(ALFABET-Arial20)
1000
liter_alf
1040
1.0
1040
1.0
1040
0.0
1040
0.0
1040
0.0
1040
0.0
1040
0.0
1040
20.0
1071
        0
1071
      256
1071
        7
1071
        5
1071
        1
1000
ARIAL
1000
ByLayer
1000
{\fArial|b0|i0|c238|p34;#(liter_alf)}
  0
OBJECT_PTR
  5
2A0
102
{ACAD_REACTORS
330
28F
102
}
330
28F
1001
DCO15
1000
jet_dbsamples...ALFABET(ALFABET-Arial26)
1000
liter_alf
1040
1.0
1040
1.0
1040
0.0
1040
0.0
1040
0.0
1040
0.0
1040
0.0
1040
26.0
1071
        0
1071
      256
1071
        7
1071
        5
1071
        1
1000
ARIAL
1000
ByLayer
1000
{\fArial|b0|i0|c238|p34;\C140;#(liter_alf)}
  0
OBJECT_PTR
  5
29F
102
{ACAD_REACTORS
330
28F
102
}
330
28F
1001
DCO15
1000
jet_dbsamples...ALFABET(ALFABET-Arial37)
1000
liter_alf
1040
1.0
1040
1.0
1040
0.0
1040
0.0
1040
0.0
1040
0.0
1040
0.0
1040
37.0
1071
        0
1071
      256
1071
        7
1071
        5
1071
        1
1000
ARIAL
1000
ByLayer
1000
{\fArial|b0|i0|c238|p34;#(liter_alf)}
  0
OBJECT_PTR
  5
29E
102
{ACAD_REACTORS
330
28F
102
}
330
28F
1001
DCO15
1000
jet_dbsamples..."uwagi ogolne na arkuszu"(Arial_27)
1000
1naglowek
1000
1linia
1000
2linia
1000
3linia
1000
4linia
1000
5linia
1000
6linia
1000
7linia
1000
8linia
1000
9linia
1000
10linia
1000
11linia
1000
12linia
1040
1.0
1040
1.0
1040
0.0
1040
0.0
1040
0.0
1040
0.0
1040
0.0
1040
26.0
1071
        0
1071
      256
1071
        1
1071
        5
1071
        1
1000
ARIAL
1000
ByLayer
1000
{\fArial|b0|i0|c238|p34;#(1naglowek)\P#(1linia)\P#(2linia)\P#(3linia)\P#(4linia)\P#(5linia)\P#(6linia)\P#(7linia)\P#(8linia)\P#(9linia)\P#(10linia)\P#(11linia)\P#(12linia)}
  0
OBJECT_PTR
  5
29D
102
{ACAD_REACTORS
330
28F
102
}
330
28F
1001
DCO15
1000
jet_dbsamples...jednostki(jednostki-Arial18)
1000
jedn
1040
1.0
1040
1.0
1040
0.0
1040
0.0
1040
0.0
1040
0.0
1040
0.0
1040
18.0
1071
        0
1071
      256
1071
        7
1071
        5
1071
        1
1000
ARIAL
1000
ByLayer
1000
{\fArial|b0|i0|c238|p34;#(jedn)}
  0
OBJECT_PTR
  5
29C
102
{ACAD_REACTORS
330
28F
102
}
330
28F
1001
DCO15
1000
jet_dbsamples...jednostki(jednostki-Arial30)
1000
jedn
1040
1.0
1040
1.0
1040
0.0
1040
0.0
1040
0.0
1040
0.0
1040
0.0
1040
30.0
1071
        0
1071
      256
1071
        7
1071
        5
1071
        1
1000
ARIAL
1000
ByLayer
1000
{\fArial|b0|i0|c238|p34;#(jedn)}
  0
OBJECT_PTR
  5
29B
102
{ACAD_REACTORS
330
28F
102
}
330
28F
1001
DCO15
1000
jet_dbsamples...jednostki(jednostki-Romans16)
1000
jedn
1040
1.0
1040
1.0
1040
0.0
1040
0.0
1040
0.0
1040
0.0
1040
0.0
1040
16.0
1071
        0
1071
      256
1071
        7
1071
        5
1071
        1
1000
ARIAL
1000
ByLayer
1000
#(jedn)
  0
OBJECT_PTR
  5
29A
102
{ACAD_REACTORS
330
28F
102
}
330
28F
1001
DCO15
1000
jet_dbsamples...miesiace(miesiace-Romans17)
1000
nzw_mies
1040
1.0
1040
1.0
1040
0.0
1040
0.0
1040
0.0
1040
0.0
1040
0.0
1040
17.0
1071
        0
1071
      256
1071
        1
1071
        5
1071
        1
1000
ARIAL
1000
ByLayer
1000
#(nzw_mies)
  0
OBJECT_PTR
  5
299
102
{ACAD_REACTORS
330
28F
102
}
330
28F
1001
DCO15
1000
jet_dbsamples...pomieszczenia(pomieszczenia-Arial 15)
1000
nazwa
1040
1.0
1040
1.0
1040
0.0
1040
0.0
1040
0.0
1040
0.0
1040
0.0
1040
15.0
1071
        0
1071
      256
1071
        8
1071
        5
1071
        1
1000
ARIAL
1000
ByLayer
1000
{\fArial|b0|i0|c238|p34;#(nazwa)}
  0
OBJECT_PTR
  5
298
102
{ACAD_REACTORS
330
28F
102
}
330
28F
1001
DCO15
1000
jet_dbsamples...pomieszczenia(pomieszczenia-Romans17)
1000
nazwa
1040
1.0
1040
1.0
1040
0.0
1040
0.0
1040
0.0
1040
0.0
1040
0.0
1040
17.0
1071
        0
1071
      256
1071
        7
1071
        5
1071
        1
1000
ARIAL
1000
ByLayer
1000
#(nazwa)
  0
OBJECT_PTR
  5
297
102
{ACAD_REACTORS
330
28F
102
}
330
28F
1001
DCO15
1000
jet_dbsamples..."elementy wiezby"(romans16)
1000
nazw_el_wiezb
1040
1.0
1040
1.0
1040
0.0
1040
0.0
1040
0.0
1040
0.0
1040
0.0
1040
16.0
1071
        0
1071
      256
1071
        1
1071
        5
1071
        1
1000
ARIAL
1000
ByLayer
1000
#(nazw_el_wiezb)
  0
OBJECT_PTR
  5
296
102
{ACAD_REACTORS
330
28F
102
}
330
28F
1001
DCO15
1000
jet_dbsamples..."uwagi ogolne na arkuszu"(Romans_17)
1000
1naglowek
1000
1linia
1000
2linia
1000
3linia
1000
4linia
1000
5linia
1000
6linia
1000
7linia
1000
8linia
1000
9linia
1000
10linia
1000
11linia
1000
12linia
1040
1.0
1040
1.0
1040
0.0
1040
0.0
1040
0.0
1040
0.0
1040
0.0
1040
17.0
1071
        0
1071
      256
1071
        1
1071
        5
1071
        1
1000
ARIAL
1000
ByLayer
1000
#(1naglowek)\P#(1linia)\P#(2linia)\P#(3linia)\P#(4linia)\P#(5linia)\P#(6linia)\P#(7linia)\P#(8linia)\P#(9linia)\P#(10linia)\P#(11linia)\P#(12linia)
  0
OBJECT_PTR
  5
295
102
{ACAD_REACTORS
330
28F
102
}
330
28F
1001
DCO15
1000
jet_dbsamples...stolarka(stolarka-Arial14)
1000
STOL_TKST
1000
STOL_TKST_2linia
1040
1.0
1040
1.0
1040
0.0
1040
0.0
1040
0.0
1040
0.0
1040
0.0
1040
14.0
1071
        0
1071
      256
1071
        1
1071
        5
1071
        1
1000
ARIAL
1000
ByLayer
1000
{\fArial|b0|i0|c238|p34;#(STOL_TKST)\P#(STOL_TKST_2linia)}
  0
OBJECT_PTR
  5
294
102
{ACAD_REACTORS
330
28F
102
}
330
28F
1001
DCO15
1000
jet_dbsamples...stolarka(stolarka-Romans1607)
1000
STOL_TKST
1000
STOL_TKST_2linia
1040
1.0
1040
1.0
1040
0.0
1040
0.0
1040
0.0
1040
0.0
1040
0.0
1040
16.0
1071
        0
1071
      256
1071
        5
1071
        5
1071
        1
1000
ARIAL
1000
ByLayer
1000
#(STOL_TKST)\P#(STOL_TKST_2linia)
  0
OBJECT_PTR
  5
293
102
{ACAD_REACTORS
330
28F
102
}
330
28F
1001
DCO15
1000
jet_dbsamples...stolarka(stolarka-Romans1608)
1000
STOL_TKST
1000
STOL_TKST_2linia
1040
1.0
1040
1.0
1040
0.0
1040
0.0
1040
0.0
1040
0.0
1040
0.0
1040
16.0
1071
        0
1071
      256
1071
        5
1071
        5
1071
        1
1000
ROMANS
1000
ByLayer
1000
#(STOL_TKST)\P#(STOL_TKST_2linia)
  0
OBJECT_PTR
  5
292
102
{ACAD_REACTORS
330
28F
102
}
330
28F
1001
DCO15
1000
jet_dbsamples...stolarka(stolarkaLabel1)
1000
STOL_TKST
1000
STOL_TKST_2linia
1040
1.0
1040
1.0
1040
0.0
1040
0.0
1040
0.0
1040
0.0
1040
0.0
1040
25.0
1071
        0
1071
      256
1071
        1
1071
        5
1071
        1
1000
ROMANS
1000
ByLayer
1000
{\fArial|b0|i0|c238|p34;#(STOL_TKST)\P#(STOL_TKST_2linia)}
  0
OBJECT_PTR
  5
291
102
{ACAD_REACTORS
330
28F
102
}
330
28F
1001
DCO15
1000
jet_dbsamples...tbl_PRZEGRODY(tbl_PRZEGRODY)
1000
nazwa przegrody
1000
1w
1000
2w
1000
3w
1000
4w
1000
5w
1000
6w
1000
7w
1000
8w
1000
9w
1000
10w
1000
11w
1000
12w
1000
13w
1000
14w
1000
15w
1000
16w
1040
1.0
1040
1.0
1040
0.0
1040
0.0
1040
0.0
1040
0.0
1040
0.0
1040
17.0
1071
        0
1071
      256
1071
        1
1071
        5
1071
        1
1000
ROMANS
1000
ByLayer
1000
{\Fromans.shx|c238;\L\C2;#(nazwa przegrody)\C4;\P}#(1w)\P#(2w)\P#(3w)\P#(4w)\P#(5w)\P#(6w)\P#(7w)\P#(8w)\P#(9w)\P#(10w)\P#(11w)\P#(12w)\P#(13w)\P#(14w)\P#(15w)\P#(16w)
  0
OBJECT_PTR
  5
290
102
{ACAD_REACTORS
330
28F
102
}
330
28F
1001
DCO15
1000
jet_dbsamples..."uwagi ogolne na arkuszu"(uwag_og_na_ark_Arial18)
1000
1naglowek
1000
1linia
1000
2linia
1000
3linia
1000
4linia
1000
5linia
1000
6linia
1000
7linia
1000
8linia
1000
9linia
1000
10linia
1000
11linia
1000
12linia
1040
1.0
1040
1.0
1040
0.0
1040
0.0
1040
0.0
1040
0.0
1040
0.0
1040
18.0
1071
        0
1071
      256
1071
        1
1071
        5
1071
        1
1000
ROMANS
1000
ByLayer
1000
{\fArial|b0|i0|c238|p34;#(1naglowek)\P#(1linia)\P#(2linia)\P#(3linia)\P#(4linia)\P#(5linia)\P#(6linia)\P#(7linia)\P#(8linia)\P#(9linia)\P#(10linia)\P#(11linia)\P#(12linia)}
  0
OBJECT_PTR
  5
28E
102
{ACAD_REACTORS
330
27E
102
}
330
27E
1001
DCO15
1000
jet_dbsamples..."elementy wiezby"(_elementy_wiezby_Link1)
1000
IDENTYFIKATOR
1000

1000

1070
     4
1070
     0
1070
     0
1070
     0
1070
  1024
  0
OBJECT_PTR
  5
28D
102
{ACAD_REACTORS
330
27E
102
}
330
27E
1001
DCO15
1000
jet_dbsamples..."materialy przegrod pl"(_materialy_przegrod_pl_Link1)
1000
IDENTYFIKATOR
1000

1000

1070
     4
1070
     0
1070
     0
1070
     0
1070
  1024
  0
OBJECT_PTR
  5
28C
102
{ACAD_REACTORS
330
27E
102
}
330
27E
1001
DCO15
1000
jet_dbsamples..."nazwy przegrod pl"(_nazwy_przegrod_pl_Link1)
1000
IDENTYFIKATOR
1000

1000

1070
     4
1070
     0
1070
     0
1070
     0
1070
  1024
  0
OBJECT_PTR
  5
28B
102
{ACAD_REACTORS
330
27E
102
}
330
27E
1001
DCO15
1000
jet_dbsamples..."nazwy rysunkow"(_nazwy_rysunkow_Arial37)
1000
IDENTYFIKATOR
1000

1000

1070
     4
1070
     0
1070
     0
1070
     0
1070
  1024
  0
OBJECT_PTR
  5
28A
102
{ACAD_REACTORS
330
27E
102
}
330
27E
1001
DCO15
1000
jet_dbsamples..."opisy rozne II"(_opisy_rozne_II_Link1)
1000
"opis różny"
1000
1250
1000
ASCII
1070
    12
1070
   200
1070
     0
1070
     0
1070
  1024
  0
OBJECT_PTR
  5
289
102
{ACAD_REACTORS
330
27E
102
}
330
27E
1001
DCO15
1000
jet_dbsamples..."opisy rozne II"(_opisy_rozne_II_Link2)
1000
IDENTYFIKATOR
1000

1000

1070
     4
1070
     0
1070
     0
1070
     0
1070
  1024
  0
OBJECT_PTR
  5
288
102
{ACAD_REACTORS
330
27E
102
}
330
27E
1001
DCO15
1000
jet_dbsamples..."posadzki do zestawienia pomieszczen"(_posadzki_do_zestawienia_pomieszczen_Link1)
1000
IDENTYFIKATOR
1000

1000

1070
     4
1070
     0
1070
     0
1070
     0
1070
  1024
  0
OBJECT_PTR
  5
287
102
{ACAD_REACTORS
330
27E
102
}
330
27E
1001
DCO15
1000
jet_dbsamples..."rozne opisy rys"(_rozne_opisy_rys_Link1)
1000
IDENTYFIKATOR
1000

1000

1070
     4
1070
     0
1070
     0
1070
     0
1070
  1024
  0
OBJECT_PTR
  5
286
102
{ACAD_REACTORS
330
27E
102
}
330
27E
1001
DCO15
1000
jet_dbsamples..."tabelka - inform i etykiety"(_tabelka_-_inform_i_etykiety_Link1)
1000
IDENTYFIKATOR
1000

1000

1070
     4
1070
     0
1070
     0
1070
     0
1070
  1024
  0
OBJECT_PTR
  5
285
102
{ACAD_REACTORS
330
27E
102
}
330
27E
1001
DCO15
1000
jet_dbsamples..."uwagi ogolne na arkuszu"(_uwagi_ogolne_na_arkuszu_Link1)
1000
IDENTYFIKATOR
1000

1000

1070
     4
1070
     0
1070
     0
1070
     0
1070
  1024
  0
OBJECT_PTR
  5
284
102
{ACAD_REACTORS
330
27E
102
}
330
27E
1001
DCO15
1000
jet_dbsamples...ALFABET(ALFABETLink1)
1000
IDENTYFIKATOR
1000

1000

1070
     4
1070
     0
1070
     0
1070
     0
1070
  1024
  0
OBJECT_PTR
  5
283
102
{ACAD_REACTORS
330
27E
102
}
330
27E
1001
DCO15
1000
jet_dbsamples...jednostki(jednostkiLink1)
1000
IDENTYFIKATOR
1000

1000

1070
     4
1070
     0
1070
     0
1070
     0
1070
  1024
  0
OBJECT_PTR
  5
282
102
{ACAD_REACTORS
330
27E
102
}
330
27E
1001
DCO15
1000
jet_dbsamples...miesiace(miesiaceLink1)
1000
IDENTYFIKATOR
1000

1000

1070
     4
1070
     0
1070
     0
1070
     0
1070
  1024
  0
OBJECT_PTR
  5
281
102
{ACAD_REACTORS
330
27E
102
}
330
27E
1001
DCO15
1000
jet_dbsamples...pomieszczenia(pomieszczeniaLink1)
1000
IDENTYFIKATOR
1000

1000

1070
     4
1070
     0
1070
     0
1070
     0
1070
  1024
  0
OBJECT_PTR
  5
280
102
{ACAD_REACTORS
330
27E
102
}
330
27E
1001
DCO15
1000
jet_dbsamples...stolarka(stolarkaLink1)
1000
IDENTYFIKATOR
1000

1000

1070
     4
1070
     0
1070
     0
1070
     0
1070
  1024
  0
OBJECT_PTR
  5
27F
102
{ACAD_REACTORS
330
27E
102
}
330
27E
1001
DCO15
1000
jet_dbsamples...tbl_PRZEGRODY(tbl_PRZEGRODYLink1)
1000
IDENTYFIKATOR
1000

1000

1070
     4
1070
     0
1070
     0
1070
     0
1070
  1024
  0
DICTIONARY
  5
242
330
241
100
AcDbDictionary
280
     1
281
     1
  3
ACAD_XREC_ROUNDTRIP
360
2CD
  3
ADSK_XREC_LAYOUTTHUMBNAIL
360
243
  0
DICTIONARY
  5
2C7
330
234
100
AcDbDictionary
280
     1
281
     1
  3
ACAD_XREC_ROUNDTRIP
360
2C8
  0
DICTIONARY
  5
2D0
330
25D
100
AcDbDictionary
280
     1
281
     1
  3
ACAD_XREC_ROUNDTRIP
360
2D1
  0
DICTIONARY
  5
2CE
330
25C
100
AcDbDictionary
280
     1
281
     1
  3
ACAD_XREC_ROUNDTRIP
360
2CF
  0
DICTIONARY
  5
2C1
330
C
100
AcDbDictionary
280
     1
281
     1
  3
ACAD_XREC_ROUNDTRIP
360
2C2
  0
DICTIONARY
  5
263
330
262
100
AcDbDictionary
280
     1
281
     1
  3
ACAD_ROUNDTRIP_2008_TABLESTYLE_CELLSTYLEMAP
360
2BE
  3
ACAD_XREC_ROUNDTRIP
360
2D2
  0
XRECORD
  5
2CD
102
{ACAD_REACTORS
330
242
102
}
330
242
100
AcDbXrecord
280
     1
102
SHADEPLOT
 70
     0
102
SHADEPLOTRESLEVEL
 70
     2
102
SHADEPLOTCUSTOMDPI
 70
   300
  0
XRECORD
  5
243
102
{ACAD_REACTORS
330
242
102
}
330
242
100
AcDbXrecord
280
     1
310
28000000B40000008A000000010008000000000008610000000000000000000000010000000000000000000000000000FFFFFF000000000000000000000000000000000000000000000000000000000000000000330000006600000099000000CC000000FF00000000330000333300006633000099330000CC330000FF3300
310
0000660000336600006666000099660000CC660000FF66000000990000339900006699000099990000CC990000FF99000000CC000033CC000066CC000099CC0000CCCC0000FFCC000000FF000033FF000066FF000099FF0000CCFF0000FFFF000000003300330033006600330099003300CC003300FF003300003333003333
310
33006633330099333300CC333300FF33330000663300336633006666330099663300CC663300FF66330000993300339933006699330099993300CC993300FF99330000CC330033CC330066CC330099CC3300CCCC3300FFCC330000FF330033FF330066FF330099FF3300CCFF3300FFFF330000006600330066006600660099
310
006600CC006600FF00660000336600333366006633660099336600CC336600FF33660000666600336666006666660099666600CC666600FF66660000996600339966006699660099996600CC996600FF99660000CC660033CC660066CC660099CC6600CCCC6600FFCC660000FF660033FF660066FF660099FF6600CCFF6600
310
FFFF660000009900330099006600990099009900CC009900FF00990000339900333399006633990099339900CC339900FF33990000669900336699006666990099669900CC669900FF66990000999900339999006699990099999900CC999900FF99990000CC990033CC990066CC990099CC9900CCCC9900FFCC990000FF99
310
0033FF990066FF990099FF9900CCFF9900FFFF99000000CC003300CC006600CC009900CC00CC00CC00FF00CC000033CC003333CC006633CC009933CC00CC33CC00FF33CC000066CC003366CC006666CC009966CC00CC66CC00FF66CC000099CC003399CC006699CC009999CC00CC99CC00FF99CC0000CCCC0033CCCC0066CC
310
CC0099CCCC00CCCCCC00FFCCCC0000FFCC0033FFCC0066FFCC0099FFCC00CCFFCC00FFFFCC000000FF003300FF006600FF009900FF00CC00FF00FF00FF000033FF003333FF006633FF009933FF00CC33FF00FF33FF000066FF003366FF006666FF009966FF00CC66FF00FF66FF000099FF003399FF006699FF009999FF00CC
310
99FF00FF99FF0000CCFF0033CCFF0066CCFF0099CCFF00CCCCFF00FFCCFF0000FFFF0033FFFF0066FFFF0099FFFF00CCFFFF00FFFFFF00000000000D0D0D001A1A1A00282828003535350043434300505050005D5D5D006B6B6B00787878008686860093939300A1A1A100AEAEAE00BBBBBB00C9C9C900D6D6D600E4E4E400
310
F1F1F100FFFFFF0000000000000000000000000000000000000000000000000000000000000000000000000000000000F5F5F5F5F5F5F5F5F5F5F5F5F5F5F5F5F5F5F5F5F5F5F5F5F5F5F5F5F5F5F5F5F5F5F5F5F5F5F5F5F5F5F5F5F5F5F5F5F5F5F5F5F5F5F5F5F5F5F5F5F5F5F5F5F5F5F5F5F5F5F5F5F5F5F5F5F5F5F5
310
F5F5F5F5F5F5F5F5F5F5F5F5F5F5F5F5F5F5F5F5F5F5F5F5F5F5F5F5F5F5F5F5F5F5F5F5F5F5F5F5F5F5F5F5F5F5F5F5F5F5F5F5F5F5F5F5F5F5F5F5F5F5F5F5F5F5F5F5F5F5F5F5F5F5F5F5F5F5F5F5F5F5F5F5F5F5F5F5F5F5F5F5F5F5F5F5F5F5F5F5EFF5E2E2E2E2E2E2E2E2E2E2E2E2E2E2E2E2E2E2E2E2E2E2E2E2E2
310
E2E2E2E2E2E2E2E2E2E2E2E2E2E2E2E2E2E2E2E2E2E2E2E2E2E2E2E2E2E2E2E2E2E2E2E2E2E2E2E2E2E2E2E2E2E2E2E2E2E2E2E2E2E2E2E2E2E2E2E2E2E2E2E2E2E2E2E2E2E2E2E2E2E2E2E2E2E2E2E2E2E2E2E2E2E2E2E2E2E2E2E2E2E2E2E2E2E2E2E2E2E2E2E2E2E2E2E2E2E2E2E2E2E2E2E2E2E2E2E2E2E2E2E2E2E2E2
310
E2E2E2E2E2E2E2E2E2E2E2E2E2E2E2E2E2E2E2E2E2E2E2E2F5F5EFF5E2E2E2E2E2E2E2E2E2E2E2E2E2E2E2E2E2E2E2E2E2E2E2E2E2E2E2E2E2E2E2E2E2E2E2E2E2E2E2E2E2E2E2E2E2E2E2E2E2E2E2E2E2E2E2E2E2E2E2E2E2E2E2E2E2E2E2E2E2E2E2E2E2E2E2E2E2E2E2E2E2E2E2E2E2E2E2E2E2E2E2E2E2E2E2E2E2E2E2
310
E2E2E2E2E2E2E2E2E2E2E2E2E2E2E2E2E2E2E2E2E2E2E2E2E2E2E2E2E2E2E2E2E2E2E2E2E2E2E2E2E2E2E2E2E2E2E2E2E2E2E2E2E2E2E2E2E2E2E2E2E2E2E2E2E2E2E2E2E2E2E2E2E2E2E2E2E2F5F5EFF5E2E2E2E2E2E2E2E2E2E2E2E2E2E2E2E2E2E2E2E2E2E2E2E2E2E2E2E2E2E2E2E2E2E2E2E2E2E2E2E2E2E2E2E2E2E2
310
E2E2E2E2E2E2E2E2E2E2E2E2E2E2E2E2E2E2E2E2E2E2E2E2E2E2E2E2E2E2E2E2E2E2E2E2E2E2E2E2E2E2E2E2E2E2E2E2E2E2E2E2E2E2E2E2E2E2E2E2E2E2E2E2E2E2E2E2E2E2E2E2E2E2E2E2E2E2E2E2E2E2E2E2E2E2E2E2E2E2E2E2E2E2E2E2E2E2E2E2E2E2E2E2E2E2E2E2E2E2E2E2E2E2E2E2E2E2E2E2E2E2E2E2E2E2E2
310
E2E2E2F5F5EFF5E2E2E2F5F5F5F5F5F5F5F5E2E2E2E2E2E2E2E2E2F5F5F5F5F5F5F5F5F5F5F5F5F5F5F5E2E2E2E2E2E2E2E2E2F5F5F5F5F5F5F5F5F5F5F5F5F5F5F5F5E2E2E2E2E2E2E2E2F5F5F5F5F5F5F5F5F5F5F5F5F5F5F5F5E2E2E2E2E2E2E2E2F5F5F5F5F5F5F5F5F5F5F5F5F5F5F5F5E2E2E2E2E2E2E2E2F5F5F5F5
310
F5F5F5F5F5F5F5F5F5F5F5F5E2E2E2E2E2E2E2E2E2F5F5F5F5F5F5F5F5F5F5F5F5F5F5F5E2E2E2E2E2E2E2E2E2F5F5F5F5F5F5F5F5E2E2E2F5F5EFF5E2E2E2F5E2E2E2E2E2E2E2E2E2E2E2E2E2E2E2E2E2E2E2E2E2E2E2E2E2E2E2E2E2E2E2E2E2E2E2E2E2E2E2E2E2E2E2E2E2E2E2E2E2E2E2E2E2E2E2E2E2E2E2E2E2E2E2
310
E2E2E2E2E2E2E2E2E2E2E2E2E2E2E2E2E2E2E2E2E2E2E2E2E2E2E2E2E2E2E2E2E2E2E2E2E2E2E2E2E2E2E2E2E2E2E2E2E2E2E2E2E2E2E2E2E2E2E2E2E2E2E2E2E2E2E2E2E2E2E2E2E2E2E2E2E2E2E2E2E2E2E2E2E2E2E2E2E2E2E2E2E2E2E2E2E2E2E2E2E2E2E2E2E2F5E2E2E2F5F5EFF5E2E2E2F5E2E2E2E2E2E2E2E2E2E2
310
E2E2E2E2E2E2E2E2E2E2E2E2E2E2E2E2E2E2E2E2E2E2E2E2E2E2E2E2E2E2E2E2E2E2E2E2E2E2E2E2E2E2E2E2E2E2E2E2E2E2E2E2E2E2E2E2E2E2E2E2E2E2E2E2E2E2E2E2E2E2E2E2E2E2E2E2E2E2E2E2E2E2E2E2E2E2E2E2E2E2E2E2E2E2E2E2E2E2E2E2E2E2E2E2E2E2E2E2E2E2E2E2E2E2E2E2E2E2E2E2E2E2E2E2E2E2E2
310
E2E2E2E2E2E2E2E2E2E2E2E2E2E2E2E2E2E2E2E2E2E2E2E2E2E2E2E2E2E2E2F5E2E2E2F5F5EFF5E2E2E2F5E2E2E2E2E2E2E2E2E2E2E2E2E2E2E2E2E2E2E2E2E2E2E2E2E2E2E2E2E2E2E2E2E2E2E2E2E2E2E2E2E2E2E2E2E2E2E2E2E2E2E2E2E2E2E2E2E2E2E2E2E2E2E2E2E2E2E2E2E2E2E2E2E2E2E2E2E2E2E2E2E2E2E2E2
310
E2E2E2E2E2E2E2E2E2E2E2E2E2E2E2E2E2E2E2E2E2E2E2E2E2E2E2E2E2E2E2E2E2E2E2E2E2E2E2E2E2E2E2E2E2E2E2E2E2E2E2E2E2E2E2E2E2E2E2E2E2E2E2E2E2E2E2E2E2E2E2E2E2E2E2E2E2E2E2E2E2E2E2E2F5E2E2E2F5F5EFF5E2E2E2F5E2E2E2E2E2E2E2E2E2E2E2E2E2E2E2E2E2E2E2E2E2E2E2E2E2E2E2E2E2E2E2
310
E2E2E2E2E2E2E2E2E2E2E2E2E2E2E2E2E2E2E2E2E2E2E2E2E2E2E2E2E2E2E2E2E2E2E2E2E2E2E2E2E2E2E2E2E2E2E2E2E2E2E2E2E2E2E2E2E2E2E2E2E2E2E2E2E2E2E2E2E2E2E2E2E2E2E2E2E2E2E2E2E2E2E2E2E2E2E2E2E2E2E2E2E2E2E2E2E2E2E2E2E2E2E2E2E2E2E2E2E2E2E2E2E2E2E2E2E2E2E2E2E2E2E2E2E2E2E2
310
E2E2E2E2E2E2E2E2E2E2F5E2E2E2F5F5EFF5E2E2E2F5E2E2E2E2E2E2E2E2E2E2E2E2E2E2E2E2E2E2E2E2E2E2E2E2E2E2E2E2E2E2E2E2E2E2E2E2E2E2E2E2E2E2E2E2E2E2E2E2E2E2E2E2E2E2E2E2E2E2E2E2E2E2E2E2E2E2E2E2E2E2E2E2E2E2E2E2E2E2E2E2E2E2E2E2E2E2E2E2E2E2E2E2E2E2E2E2E2E2E2E2E2E2E2E2E2
310
E2E2E2E2E2E2E2E2E2E2E2E2E2E2E2E2E2E2E2E2E2E2E2E2E2E2E2E2E2E2E2E2E2E2E2E2E2E2E2E2E2E2E2E2E2E2E2E2E2E2E2E2E2E2E2E2E2E2E2E2E2E2E2F5E2E2E2F5F5EFF5E2E2E2F5E2E2E2E2E2E2E2E2E2E2E2E2E2E2E2E2E2E2E2E2E2E2E2E2E2E2E2E2E2E2E2E2E2E2E2E2E2E2E2E2E2E2E2E2E2E2E2E2E2E2E2E2
310
E2E2E2E2E2E2E2E2E2E2E2E2E2E2E2E2E2E2E2E2E2E2E2E2E2E2E2E2E2E2E2E2E2E2E2E2E2E2E2E2E2E2E2E2E2E2E2E2E2E2E2E2E2E2E2E2E2E2E2E2E2E2E2E2E2E2E2E2E2E2E2E2E2E2E2E2E2E2E2E2E2E2E2E2E2E2E2E2E2E2E2E2E2E2E2E2E2E2E2E2E2E2E2E2E2E2E2E2E2E2E2E2E2E2E2E2F5E2E2E2F5F5EFF5E2E2E2
310
F5E2E2E2E2E2E2E2E2E2E2E2E2E2E2E2E2E2E2E2E2E2E2E2E2E2E2E2E2E2E2E2E2E2E2E2E2E2E2E2E2E2E2E2E2E2E2E2E2E2E2E2E2E2E2E2E2E2E2E2E2E2E2E2E2E2E2E2E2E2E2E2E2E2E2E2E2E2E2E2E2E2E2E2E2E2E2E2E2E2E2E2E2E2E2E2E2E2E2E2E2E2E2E2E2E2E2E2E2E2E2E2E2E2E2E2E2E2E2E2E2E2E2E2E2E2E2
310
E2E2E2E2E2E2E2E2E2E2E2E2E2E2E2E2E2E2E2E2E2E2E2E2E2E2E2E2E2E2E2E2E2E2E2E2E2E2E2E2E2E2F5E2E2E2F5F5EFF5E2E2E2F5E2E2E2E2E2E2E2E2E2E2E2E2E2E2E2E2E2E2E2E2E2E2E2E2E2E2E2E2E2E2E2E2E2E2E2E2E2E2E2E2E2E2E2E2E2E2E2E2E2E2E2E2E2E2E2E2E2E2E2E2E2E2E2E2E2E2E2E2E2E2E2E2E2
310
E2E2E2E2E2E2E2E2E2E2E2E2E2E2E2E2E2E2E2E2E2E2E2E2E2E2E2E2E2E2E2E2E2E2E2E2E2E2E2E2E2E2E2E2E2E2E2E2E2E2E2E2E2E2E2E2E2E2E2E2E2E2E2E2E2E2E2E2E2E2E2E2E2E2E2E2E2E2E2E2E2E2E2E2E2E2E2E2E2E2E2E2E2E2E2F5E2E2E2F5F5EFF5E2E2E2E2E2E2E2E2E2E2E2E2E2E2E2E2E2E2E2E2E2E2E2E2
310
E2E2E2E2E2E2E2E2E2E2E2E2E2E2E2E2E2E2E2E2E2E2E2E2E2E2E2E2E2E2E2E2E2E2E2E2E2E2E2E2E2E2E2E2E2E2E2E2E2E2E2E2E2E2E2E2E2E2E2E2E2E2E2E2E2E2E2E2E2E2E2E2E2E2E2E2E2E2E2E2E2E2E2E2E2E2E2E2E2E2E2E2E2E2E2E2E2E2E2E2E2E2E2E2E2E2E2E2E2E2E2E2E2E2E2E2E2E2E2E2E2E2E2E2E2E2E2
310
E2E2E2E2E2E2E2E2E2E2E2E2E2E2E2E2E2E2E2E2E2E2E2E2E2F5F5EFF5E2E2E2E2E2E2E2E2E2E2E2E2E2E2E2E2E2E2E2E2E2E2E2E2E2E2E2E2E2E2E2E2E2E2E2E2E2E2E2E2E2E2E2E2E2E2E2E2E2E2E2E2E2E2E2E2E2E2E2E2E2E2E2E2E2E2E2E2E2E2E2E2E2E2E2E2E2E2E2E2E2E2E2E2E2E2E2E2E2E2E2E2E2E2E2E2E2E2
310
E2E2E2E2E2E2E2E2E2E2E2E2E2E2E2E2E2E2E2E2E2E2E2E2E2E2E2E2E2E2E2E2E2E2E2E2E2E2E2E2E2E2E2E2E2E2E2E2E2E2E2E2E2E2E2E2E2E2E2E2E2E2E2E2E2E2E2E2E2E2E2E2E2E2E2E2E2E2F5F5EFF5E2E2E2E2E2E2E2E2E2E2E2E2E2E2E2E2E2E2E2E2E2E2E2E2E2E2E2E2E2E2E2E2E2E2E2E2E2E2E2E2E2E2E2E2E2
310
E2E2E2E2E2E2E2E2E2E2E2E2E2E2E2E2E2E2E2E2E2E2E2E2E2E2E2E2E2E2E2E2E2E2E2E2E2E2E2E2E2E2E2E2E2E2E2E2E2E2E2E2E2E2E2E2E2E2E2E2E2E2E2E2E2E2E2E2E2E2E2E2E2E2E2E2E2E2E2E2E2E2E2E2E2E2E2E2E2E2E2E2E2E2E2E2E2E2E2E2E2E2E2E2E2E2E2E2E2E2E2E2E2E2E2E2E2E2E2E2E2E2E2E2E2E2E2
310
E2E2E2E2F5F5EFF5E2E2E2E2E2E2E2E2E2E2E2E2E2E2E2E2E2E2E2E2E2E2E2E2E2E2E2E2E2E2E2E2E2E2E2E2E2E2E2E2E2E2E2E2E2E2E2E2E2E2E2E2E2E2E2E2E2E2E2E2E2E2E2E2E2E2E2E2E2E2E2E2E2E2E2E2E2E2E2E2E2E2E2E2E2E2E2E2E2E2E2E2E2E2E2E2E2E2E2E2E2E2E2E2E2E2E2E2E2E2E2E2E2E2E2E2E2E2E2
310
E2E2E2E2E2E2E2E2E2E2E2E2E2E2E2E2E2E2E2E2E2E2E2E2E2E2E2E2E2E2E2E2E2E2E2E2E2E2E2E2E2E2E2E2E2E2E2E2E2E2E2E2E2E2E2E2E2F5F5EFF5E2E2E2E2E2E2E2E2E2E2E2E2E2E2E2E2E2E2E2E2F5F5F5F5F5F5F5F5F5F5F5F5F5F5F5F5F5F5F5F5F5F5F5F5F5F5F5F5F5F5F5F5F5F5F5F5F5F5F5F5F5F5F5F5F5F5
310
F5F5F5F5F5F5F5F5F5F5F5F5F5F5F5F5F5F5F5F5F5F5F5F5F5F5F5F5F5F5F5F5F5F5F5F5F5F5F5F5F5F5F5F5F5F5F5F5F5F5F5F5F5F5F5F5F5F5F5F5F5F5F5F5F5F5F5F5F5F5F5F5F5F5F5F5F5F5F5F5F5F5F5F5F5F5F5F5F5F5E2E2E2E2E2E2E2E2E2E2E2E2E2E2E2E2E2E2E2E2F5F5EFF5E2E2E2E2E2E2E2E2E2E2E2E2E2
310
E2E2E2E2E2E2E2F5E2E2E2E2E2E2E2E2E2E2E2E2E2E2E2E2E2E2E2E2E2E2E2E2E2E2E2E2E2DCE2E2E2E2E2E2E2E2E2E2E2E2E2E2E2E2E2E2E2E2E2E2E2E2E2E2E2E2E2E2E2E2E2E2E2E2E2E2E2E2E2E2E2E2E2E2E2E2E2E2E2E2E2E2E2E2E2E2E2E2E2E2E2E2E2E2E2E2E2E2E2E2E2E2DCE2E2E2E2E2E2E2E2E2E2E2E2E2E2
310
E2E2E2E2E2E2E2E2E2E2E2E2E2E2E2F5E2E2E2E2E2E2E2E2E2E2E2E2E2E2E2E2E2E2E2E2F5F5EFF5E2E2E2E2E2E2E2E2E2E2E2E2E2E2E2E2E2E2E2E2F5E2E2E2E2E2E2E2E2E2E2E2E2E2E2E2E2E2E2E2E2E2E2E2E2E2E2E2E2E2DCE2E2E2E2E2E2E2E2E2E2E2E2E2E2E2E2E2E2E2E2E2E2E2E2E2E2E2E2E2E2E2E2E2E2E2E2
310
E2E2E2E2E2E2E2E2E2E2E2E2E2E2E2E2E2E2E2E2E2E2E2E2E2E2E2E2E2E2E2E2E2E2E2E2E2E2DCE2E2E2E2E2E2E2E2E2E2E2E2E2E2E2E2E2E2E2E2E2E2E2E2E2E2E2E2E2F5E2E2E2E2E2E2E2E2E2E2E2E2E2E2E2E2E2E2E2E2F5F5EFF5E2E2E2E2E2E2E2E2E2E2E2E2E2E2E2E2E2E2E2E2F5E2E2E2E2E2E2E2E2E2E2E2E2E2
310
E2E2E2E2E2E2E2E2E2E2E2E2E2E2E2E2DCE2E2E2E2E2E2E2E2E2E2E2E2E2E2E2E2E2E2E2E2E2E2E2E2E2E2E2E2E2E2E2E2E2E2E2E2E2E2E2E2E2E2E2E2E2E2E2E2E2E2E2E2E2E2E2E2E2E2E2E2E2E2E2E2E2E2E2E2E2E2E2E2E2E2DCE2E2E2E2E2E2E2E2E2E2E2E2E2E2E2E2E2E2E2E2E2E2E2E2E2E2E2E2E2F5E2E2E2E2E2
310
E2E2E2E2E2E2E2E2E2E2E2E2E2E2E2F5F5EFF5E2E2E2E2E2E2E2E2E2E2E2E2E2E2E2E2E2E2E2E2F5E2E2E2E2E2E2E2E2E2E2E2E2E2E2E2E2E2E2E2E2E2E2E2E2E2E2E2E2E2DCE2E2E2E2E2E2E2E2E2E2E2E2E2E2E2E2E2E2E2E2E2E2E2E2E2E2E2E2E2E2E2E2E2E2E2E2E2E2E2E2E2E2E2E2E2E2E2E2E2E2E2E2E2E2E2E2E2
310
E2E2E2E2E2E2E2E2E2E2E2E2E2E2E2E2E2DCE2E2E2E2E2E2E2E2E2E2E2E2E2E2E2E2E2E2E2E2E2E2E2E2E2E2E2E2E2F5E2E2E2E2E2E2E2E2E2E2E2E2E2E2E2E2E2E2E2E2F5F5EFF5E2E2E2F5E2E2E2E2E2E2E2E2E2E2E2E2E2E2E2E2F5E2E2E2E2E2E2E2E2E2E2E2E2E2E2E2E2E2E2E2E2E2E2E2E2E2E2E2E2E2DCE2E2E2E2
310
E2E2E2E2E2E2E2272727E2E22727E2E2E2E2E2E2E2E2E2E2E2E2E2E2E2E2E2E2E2E2E2E2E2E2E2E2E2E2E2E2E2E2E2E2E2E2E2E2E2E2E2E2E2E2E2E2E2E2E2E2E2E2E2E2E2E2DCE2E2E2E2E2E2E2E2E2E2E2E2E2E2E2E2E2E2E2E2E2E2E2E2E2E2E2E2E2F5E2E2E2E2E2E2E2E2E2E2E2E2E2E2E2E2F5E2E2E2F5F5EFF5E2E2
310
E2F5E2E2E2E2E2E2E2E2E2E2E2E2E2E2E2E2F5E2E2E2E2E2E2E2E2E2E2E2E2E2E2E2E2E2E2E2E2E2E2E2E2E2E2E2E2E2DCE2E2E2E2E2E2E2E2E2E2E2272727272727272727E2E2E2E2E2E2E2E2E2E2E2E2E2E2E2E2E2E2E2E2E2E2E2E2E2E2E2E2E2E2E2E2E2E2E2E2E2E2E2E2E2E2E2E2E2E2E2E2E2E2E2E2E2E2DCE2E2E2
310
E2E2E2E2E2E2E2E2E2E2E2E2E2E2E2E2E2E2E2E2E2E2E2E2E2E2F5E2E2E2E2E2E2E2E2E2E2E2E2E2E2E2E2F5E2E2E2F5F5EFF5E2E2E2F5E2E2E2E2E2E2E2E2E2E2E2E2E2E2E2E2F5E2E2E2E2E2E2E2E2E2E2E2E2E2E2E2E2E2E2E2E2E2E2E2E2E2E2E2E2E2DCE2E2E2E2E2E2E2E2E2E2E2272727272727272727E2E2E2E2E2
310
E2E2E2E2E2E2E2E2E2E2E2E2E2E2E2E2E2E2E2E2E2E2E2E2E2E2E2E2E2E2E2E2E2E2E2E2E2E2E2E2E2E2E2E2E2E2E2E2E2DCE2E2E2E2E2E2E2E2E2E2E2E2E2E2E2E2E2E2E2E2E2E2E2E2E2E2E2E2E2F5E2E2E2E2E2E2E2E2E2E2E2E2E2E2E2E2F5E2E2E2F5F5EFF5E2E2E2F5E2E2E2E2E2E2E2E2E2E2E2E2E2E2E2E2F5E2E2
310
E2E2E2E2E2E2E2E2E2E2E2E2E2E2E2E2E2E2E2E2E2E2E2E2E2E2E2DCE2E2E2E2E2E2E2E2E2E2E2E2E2E2E2E2E2E2E2E2E2E2E2E2E2E2E2E2E2E2E2E2E2E2E2E2E2E2E2E2E2E2E2E2E2E2E2E2E2E2E2E2E2E2E2E2E2E2E2E2E2E2E2E2E2E2E2E2E2E2E2E2E2E2DCE2E2E2E2E2E2E2E2E2E2E2E2E2E2E2E2E2E2E2E2E2E2E2E2
310
E2E2E2E2E2F5E2E2E2E2E2E2E2E2E2E2E2E2E2E2E2E2F5E2E2E2F5F5EFF5E2E2E2F5E2E2E2E2E2E2E2E2E2E2E2E2E2E2E2E2F5E2E2E2E2E2E2E2E2E2E2E2E2E2E2E2E2E2E2E2E2E2E2E2E2E2E2E2E2E2DCE2E2E2E2E2E2E2E2E2E2E2E2E2E2E2E2E2E2E2E2E2E2E2E2E2E2E2E2E2E2E2E2E2E2E2E2E2E2E2E2E2E2E2E2E2E2
310
E2E2E2E2E2E2E2E2E2E2E2E2E2E2E2E2E2E2E2E2E2E2E2E2E2E2E2E2DCE2E2E2E2E2E2E2E2E2E2E2E2E2E2E2E2E2E2E2E2E2E2E2E2E2E2E2E2E2F5E2E2E2E2E2E2E2E2E2E2E2E2E2E2E2E2F5E2E2E2F5F5EFF5E2E2E2F5E2E2E2E2E2E2E2E2E2E2E2E2E2E2E2E2F5E2E2E2E2E2E2E2E2E2E2E2E2E2E2E2E2E2E2E2E2E2E2E2
310
E2E2E2E2E2E2DCE2E2E2E2E2E2E2E2E2E2E2E2E2E2E2E2E2E2E2E2E2E2E2E2E2E2E2E2E2E2E2E2E2E2E2E2E2E2E2E2E2E2E2E2E2E2E2E2E2E2E2E2E2E2E2E2E2E2E2E2E2E2E2E2E2E2E2E2E2E2E2E2E2E2DCE2E2E2E2E2E2E2E2E2E2E2E2E2E2E2E2E2E2E2E2E2E2E2E2E2E2E2E2E2F5E2E2E2E2E2E2E2E2E2E2E2E2E2E2E2
310
E2F5E2E2E2F5F5EFF5E2E2E2F5E2E2E2E2E2E2E2E2E2E2E2E2E2E2E2E2F5E2E2E2E2E2E2E2E2E2E2E2E2E2E2E2E2E2E2E2E2E2E2E2E2E2E2E2E2E2DCE2E2E2E2E2E2E2E2E2E2E2E2E2E2E2E2E2E2E2E2E2E2E2E2E2E2E2E2E2E2E2E2E2E2E2E2E2E2E2E2E2E2E2E2E2E2E2E2E2E2E2E2E2E2E2E2E2E2E2E2E2E2E2E2E2E2E2
310
E2E2E2E2E2E2E2DCE2E2E2E2E2E2E2E2E2E2E2E2E2E2E2E2E2E2E2E2E2E2E2E2E2E2E2E2E2F5E2E2E2E2E2E2E2E2E2E2E2E2E2E2E2E2F5E2E2E2F5F5EFF5E2E2E2F5E2E2E2E2E2E2E2E2E2E2E2E2E2E2E2E2F5E2E2E2E2E2E2E2E2E2E2E2E2E2E2E2E2E2E2E2E2E2E2E2E2E2E2E2E2E2DCE2E2E2E2E2E2E2E2E2E2E2E2E2E2
310
E2E2E2E2E2E2E2E2E2E2E2E2E2E2E2E2E2E2E2E2E2E2E2E2E2E2E2E2E2E2E2E2E2E2E2E2E2E2E2E2E2E2E2E2E2E2E2E2E2E2E2E2E2E2E2E2E2E2E2E2DCE2E2E2E2E2E2E2E2E2E2E2E2E2E2E2E2E2E2E2E2E2E2E2E2E2E2E2E2E2F5E2E2E2E2E2E2E2E2E2E2E2E2E2E2E2E2F5E2E2E2F5F5EFF5E2E2E2F5E2E2E2E2E2E2E2E2
310
E2E2E2E2E2E2E2E2F5E2E2E2E2E2E2E2E2E2E2E2E2E2E2E2E2E2E2E2E2E2E2E2E2E2E2E2E2E2DCE2E2E2E2E2E2E2E2E2E2E2E2E2E2E2E2E2E2E2E2E2E2E2E2E2E2E2E2E2E2E2E2E2E2E2E2E2E2E2E2E2E2E2E2E2E2E2E2E2E2E2E2E2E2E2E2E2E2E2E2E2E2E2E2E2E2E2E2E2E2E2E2E2E2DCE2E2E2E2E2E2E2E2E2E2E2E2E2
310
E2E2E2E2E2E2E2E2E2E2E2E2E2E2E2E2F5E2E2E2E2E2E2E2E2E2E2E2E2E2E2E2E2F5E2E2E2F5F5EFF5E2E2E2F5E2E2E2E2E2E2E2E2E2E2E2E2E2E2E2E2F5E2E2E2E2E2E2E2E2E2E2E2E2E2E2E2E2E2E2E2E2E2E2E2E2E2E2E2E2E2DCE2E2E2E2E2E2E2E2E2E2E2E2E2E2E2E2E2E2E2E2E2E2E2E2E2E2E2E2E2E2E2E2E2E2E2
310
E2E2E2E2E2E2E2E2E2E2E2E2E2E2E2E2E2E2E2E2E2E2E2E2E2E2E2E2E2E2E2E2E2E2E2E2E2E2E2DCE2E2E2E2E2E2E2E2E2E2E2E2E2E2E2E2E2E2E2E2E2E2E2E2E2E2E2E2E2F5E2E2E2E2E2E2E2E2E2E2E2E2E2E2E2E2F5E2E2E2F5F5EFF5E2E2E2F5E2E2E2E2E2E2E2E2E2E2E2E2E2E2E2E2F5E2E2E2E2E2E2E2E2E2E2E2E2
310
E2E2E2E2E2E2E2E2E2E2E2E2E2E2E2E2E2DCE2E2E2E2E2E2E2E2E2E2E2E2E2E2E2E2E2E2E2E2E2E2E2E2E2E2E2E2E2E2E2E2E2E2E2E2E2E2E2E2E2E2E2E2E2E2E2E2E2E2E2E2E2E2E2E2E2E2E2E2E2E2E2E2E2E2E2E2E2E2E2E2E2E2DCE2E2E2E2E2E2E2E2E2E2E2E2E2E2E2E2E2E2E2E2E2E2E2E2E2E2E2E2E2F5E2E2E2E2
310
E2E2E2E2E2E2E2E2E2E2E2E2F5E2E2E2F5F5EFF5E2E2E2F5E2E2E2E2E2E2E2E2E2E2E2E2E2E2E2E2F5E2E2E2E2E2E2E2E2E2E2E2E2E2E2E2E2E2E2E2E2E2E2E2E2E2E2E2E2E2DCE2E2E2E2E2E2E2E2E2E2E2E2E2E2E2E2E2E2E2E2E2E2E2E2E2E2E2E2E2E2E2E2E2E2E2E2E2E2E2E2E2E2E2E2E2E2E2E2E2E2E2E2E2E2E2E2
310
E2E2E2E2E2E2E2E2E2E2E2E2E2E2E2E2E2E2DCE2E2E2E2E2E2E2E2E2E2E2E2E2E2E2E2E2E2E2E2E2E2E2E2E2E2E2E2E2F5E2E2E2E2E2E2E2E2E2E2E2E2E2E2E2E2F5E2E2E2F5F5EFF5E2E2E2F5E2E2E2E2E2E2E2E2E2E2E2E2E2E2E2E2F5E2E2E2E2E2E2E2E2E2E2E2E2E2E2E2E2E2E2E2E2E2E2E2E2E2E2E2E2E2DCE2E2E2
310
E2E2E2E2E2E2E2E2E2E2E2E2E2E2E2E2E2E2E2E2E2E2E2E2E2E2E2E2E2E2E2E2E2E2E2E2E2E2E2E2E2E2E2E2E2E2E2E2E2E2E2E2E2E2E2E2E2E2E2E2E2E2E2E2E2E2E2E2E2E2E2DCE2E2E2E2E2E2E2E2E2E2E2E2E2E2E2E2E2E2E2E2E2E2E2E2E2E2E2E2E2F5E2E2E2E2E2E2E2E2E2E2E2E2E2E2E2E2F5E2E2E2F5F5EFF5E2
310
E2E2F5E2E2E2E2E2E2E2E2E2E2E2E2E2E2E2E2F5E2E2E2E2E2E2E2E2E2E2E2E2E2E2E2E2E2E2E2E2E2E2E2E2E2E2E2E2E2DCE2E2E2E2E2E2E2E2E2E2E2E2E2E2E2E2E2E2E2E2E2E2E2E2E2E2E2E2E2E2E2E2E2E2E2E2E2E2E2E2E2E2E2E2E2E2E2E2E2E2E2E2E2E2E2E2E2E2E2E2E2E2E2E2E2E2E2E2E2E2E2E2E2E2DCE2E2
310
E2E2E2E2E2E2E2E2E2E2E2E2E2E2E2E2E2E2E2E2E2E2E2E2E2E2E2F5E2E2E2E2E2E2E2E2E2E2E2E2E2E2E2E2F5E2E2E2F5F5EFF5E2E2E2F5E2E2E2E2E2E2E2E2E2E2E2E2E2E2E2E2F5E2E2E2E2E2E2E2E2E2E2E2E2E2E2E2E2E2E2E2E2E2E2E2E2E2E2E2E2E2DCE2E2E2E2E2E2E2E2E2E2E2E2E2E2E2E2E2E2E2E2E2E2E2E2
310
E2E2E2E2E2E2E2E2E2E2E2E2E2E2E2E2E2E2E2E2E2E2E2E2E2E2E2E2E2E2E2E2E2E2E2E2E2E2E2E2E2E2E2E2E2E2E2E2E2E2DCE2E2E2E2E2E2E2E2E2E2E2E2E2E2E2E2E2E2E2E2E2E2E2E2E2E2E2E2E2F5E2E2E2E2E2E2E2E2E2E2E2E2E2E2E2E2F5E2E2E2F5F5EFF5E2E2E2F5E2E2E2E2E2E2E2E2E2E2E2E2E2E2E2E2F5E2
310
E2E2E2E2E2E2E2E2E2E2E2E2E2E2E2E2E2E2E2E2E2E2E2E2E2E2E2E2DCE2E2E2E2E2E2E2E2E2E2E2E2E2E2E2E2E2E2E2E2E2E2E2E2E2E2E2E2E2E2E2E2E2E2E2E2E2E2E2E2E2E2E2E2E2E2E2E2E2E2E2E2E2E2E2E2E2E2E2E2E2E2E2E2E2E2E2E2E2E2E2E2E2E2DCE2E2E2E2E2E2E2E2E2E2E2E2E2E2E2E2E2E2E2E2E2E2E2
310
E2E2E2E2E2E2F5E2E2E2E2E2E2E2E2E2E2E2E2E2E2E2E2F5E2E2E2F5F5EFF5E2E2E2F5E2E2E2E2E2E2E2E2E2E2E2E2E2E2E2E2F5E2E2E2E2E2E2E2E2E2E2E2E2E2E2E2E2E2E2E2E2E2E2E2E2E2E2E2E2E2DCE2E2E2E2E2E2E2E2E2E2E2E2E2E2E2E2E2E2E2E2E2E2E2E2E2E2E2E2E2E2E2E2E2E2E2E2E2E2E2E2E2E2E2E2E2
310
E2E2E2E2E2E2E2E2E2E2E2E2E2E2E2E2E2E2E2E2E2E2E2E2E2E2E2E2E2DCE2E2E2E2E2E2E2E2E2E2E2E2E2E2E2E2E2E2E2E2E2E2E2E2E2E2E2E2E2F5E2E2E2E2E2E2E2E2E2E2E2E2E2E2E2E2F5E2E2E2F5F5EFF5E2E2E2E2E2E2E2E2E2E2E2E2E2E2E2E2E2E2E2E2F5E2E2E2E2E2E2E2E2E2E2E2E2E2E2E2E2E2E2E2E2E2E2
310
E2E2E2E2E2E2E2DCE2E2E2E2E2E2E2E2E2E2E2E2E2E2E2E2E2E2E2E2E2E2E2E2E2E2E2E2E2E2E2E2E2E2E2E2E2E2E2E2E2E2E2E2E2E2E2E2E2E2E2E2E2E2E2E2E2E2E2E2E2E2E2E2E2E2E2E2E2E2E2E2E2E2DCE2E2E2E2E2E2E2E2E2E2E2E2E2E2E2E2E2E2E2E2E2E2E2E2E2E2E2E2E2F5E2E2E2E2E2E2E2E2E2E2E2E2E2E2
310
E2E2E2E2E2E2F5F5EFF5E2E2E2E2E2E2E2E2E2E2E2E2E2E2E2E2E2E2E2E2F5E2E2E2E2E2E2E2E2E2E2E2E2E2E2E2E2E2E2E2E2E2E2E2E2E2E2E2E2E2DCE2E2E2E2E2E2E2E2E2E2E2E2E2E2E2E2E2E2E2E2E2E2E2E2E2E2E2E2E2E2E2E2E2E2E2E2E2E2E2E2E2E2E2E2E2E2E2E2E2E2E2E2E2E2E2E2E2E2E2E2E2E2E2E2E2E2
310
E2E2E2E2E2E2E2E2DCE2E2E2E2E2E2E2E2E2E2E2E2E2E2E2E2E2E2E2E2E2E2E2E2E2E2E2E2E2F5E2E2E2E2E2E2E2E2E2E2E2E2E2E2E2E2E2E2E2E2F5F5EFF5E2E2E2E2E2E2E2E2E2E2E2E2E2E2E2E2E2E2E2E2F5E2E2E2E2E2E2E2E2E2E2E2E2E2E2E2E2E2E2E2E2E2E2E2E2E2E2E2E2E2DCE2E2E2E2E2E2E2E2E2E2E2E2E2
310
E2E2E2E2E2E2E2E2E2E2E2E2E2E2E2E2E2E2E2E2E2E2E2E2E2E2E2E2E2E2E2E2E2E2E2E2E2E2E2E2E2E2E2E2E2E2E2E2E2E2E2E2E2E2E2E2E2E2E2E2E2DCE2E2E2E2E2E2E2E2E2E2E2E2E2E2E2E2E2E2E2E2E2E2E2E2E2E2E2E2E2F5E2E2E2E2E2E2E2E2E2E2E2E2E2E2E2E2E2E2E2E2F5F5EFF5E2E2E2E2E2E2E2E2E2E2E2
310
E2E2E2E2E2E2E2E2E2F5E2E2E2E2E2E2E2E2E2E2E2E2E2E2E2E2E2E2E2E2E2E2E2E2E2E2E2E2E2DCE2E2E2E2E2E2E2E2E2E2E2E2E2E2E2E2E2E2E2E2E2E2E2E2E2E2E2E2E2E2E2E2E2E2E2E2E2E2E2E2E2E2E2E2E2E2E2E2E2E2E2E2E2E2E2E2E2E2E2E2E2E2E2E2E2E2E2E2E2E2E2E2E2E2DCE2E2E2E2E2E2E2E2E2E2E2E2
310
E2E2E2E2E2E2E2E2E2E2E2E2E2E2E2E2E2F5E2E2E2E2E2E2E2E2E2E2E2E2E2E2E2E2E2E2E2E2F5F5EFF5E2E2E2E2E2E2E2E2E2E2E2E2E2E2E2E2E2E2E2E2F5E2E2E2E2E2E2E2E2E2E2E2E2E2E2E2E2E2E2E2E2E2E2E2E2E2E2E2E2E2DCE2E2E2E2E2E2E2E2E2E2E2E2E2E2E2E2E2E2E2E2E2E2E2E2E2E2E2E2E2E2E2E2E2E2
310
E2E2E2E2E2E2E2E2E2E2E2E2E2E2E2E2E2E2E2E2E2E2E2E2E2E2E2E2E2E2E2E2E2E2E2E2E2E2E2E2DCE2E2E2E2E2E2E2E2E2E2E2E2E2E2E2E2E2E2E2E2E2E2E2E2E2E2E2E2E2F5E2E2E2E2E2E2E2E2E2E2E2E2E2E2E2E2E2E2E2E2F5F5EFF5E2E2E2E2E2E2E2E2E2E2E2E2E2E2E2E2E2E2E2E2F5E2E2E2E2E2E2E2E2E2E2E2
310
E2E2E2E2E2E2E2E2E2E2E2E2E2E2E2E2E2E2DCE2E2E2E2E2E2E2E2E2E2E2E2E2E2E2E2E2E2E2E2E2E2E2E2E2E2E2E2E2E2E2E2E2E2E2E2E2E2E2E2E2E2E2E2E2E2E2E2E2E2E2E2E2E2E2E2E2E2E2E2E2E2E2E2E2E2E2E2E2E2E2E2E2E2DCE2E2E2E2E2E2E2E2E2E2E2E2E2E2E2E2E2E2E2E2E2E2E2E2E2E2E2E2E2F5E2E2E2
310
E2E2E2E2E2E2E2E2E2E2E2E2E2E2E2E2E2F5F5EFF5E2E2E2E2E2E2E2E2E2E2E2E2E2E2E2E2E2E2E2E2F5E2E2E2E2E2E2E2E2E2E2E2E2E2E2E2E2E2E2E2E2E2E2E2E2E2E2E2E2E2DCE2E2E2E2E2E2E2E2E2E2E2E2E2E2E2E2E2E2E2E2E2E2E2E2E2E2E2E2E2E2E2E2E2E2E2E2E2E2E2E2E2E2E2E2E2E2E2E2E2E2E2E2E2E2E2
310
E2E2E2E2E2E2E2E2E2E2E2E2E2E2E2E2E2E2E2DCE2E2E2E2E2E2E2E2E2E2E2E2E2E2E2E2E2E2E2E2E2E2E2E2E2E2E2E2E2F5E2E2E2E2E2E2E2E2E2E2E2E2E2E2E2E2E2E2E2E2F5F5EFF5E2E2E2E2E2E2E2E2E2E2E2E2E2E2E2E2E2E2E2E2F5E2E2E2E2E2E2E2E2E2E2E2E2E2E2E2E2E2E2E2E2E2E2E2E2E2E2E2E2E2DCE2E2
310
E2E2E2E2E2E2E2E2E2E2E2E2E2E2E2E2E2E2E2E2E2E2E2E2E2E2E2E2E2E2E2E2E2E2E2E2E2E2E2E2E2E2E2E2E2E2E2E2E2E2E2E2E2E2E2E2E2E2E2E2E2E2E2E2E2E2E2E2E2E2E2E2DCE2E2E2E2E2E2E2E2E2E2E2E2E2E2E2E2E2E2E2E2E2E2E2E2E2E2E2E2E2F5E2E2E2E2E2E2E2E2E2E2E2E2E2E2E2E2E2E2E2E2F5F5EFF5
310
E2E2E2E2E2E2E2E2E2E2E2E2E2E2E2E2E2E2E2E2F5E2E2E2E2E2E2E2E2E2E2E2E2E2E2E2E2E2E2E2E2E2E2E2E2E2E2E2E2E2DCE2E2E2E2E2E2E2E2E2E2E2E2E2E2E2E2E2E2E2E2E2E2E2E2E2E2E2E2E2E2E2E2E2E2E2E2E2E2E2E2E2E2E2E2E2E2E2E2E2E2E2E2E2E2E2E2E2E2E2E2E2E2E2E2E2E2E2E2E2E2E2E2E2E2DCE2
310
E2E2E2E2E2E2E2E2E2E2E2E2E2E2E2E2E2E2E2E2E2E2E2E2E2E2E2E2F5E2E2E2E2E2E2E2E2E2E2E2E2E2E2E2E2E2E2E2E2F5F5EFF5E2E2E2F5E2E2E2E2E2E2E2E2E2E2E2E2E2E2E2E2F5E2E2E2E2E2E2E2E2E2E2E2E2E2E2E2E2E2E2E2E2E2E2E2E2E2E2E2E2E2DCE2E2E2E2E2E2E2E2E2E2E2E2E2E2E2E2E2E2E2E2E2E2E2
310
E2E2E2E2E2E2E2E2E2E2E2E2E2E2E2E2E2E2E2E2E2E2E2E2E2E2E2E2E2E2E2E2E2E2E2E2E2E2E2E2E2E2E2E2E2E2E2E2E2E2E2DCE2E2E2E2E2E2E2E2E2E2E2E2E2E2E2E2E2E2E2E2E2E2E2E2E2E2E2E2E2F5E2E2E2E2E2E2E2E2E2E2E2E2E2E2E2E2F5E2E2E2F5F5EFF5E2E2E2F5E2E2E2E2E2E2E2E2E2E2E2E2E2E2E2E2F5
310
E2E2E2E2E2E2E2E2E2E2E2E2E2E2E2E2E2E2E2E2E2E2E2E2E2E2E2E2E2DCE2E2E2E2E2E2E2E2E2E2E2E2E2E2E2E2E2E2E2E2E2E2E2E2E2E2E2E2E2E2E2E2E2E2E2E2E2E2E2E2E2E2E2E2E2E2E2E2E2E2E2E2E2E2E2E2E2E2E2E2E2E2E2E2E2E2E2E2E2E2E2E2E2E2DCE2E2E2E2E2E2E2E2E2E2E2E2E2E2E2E2E2E2E2E2E2E2
310
E2E2E2E2E2E2E2F5E2E2E2E2E2E2E2E2E2E2E2E2E2E2E2E2F5E2E2E2F5F5EFF5E2E2E2F5E2E2E2E2E2E2E2E2E2E2E2E2E2E2E2E2F5E2E2E2E2E2E2E2E2E2E2E2E2E2E2E2E2E2E2E2E2E2E2E2E2E2E2E2E2E2DCE2E2E2E2E2E2E2E2E2E2E2E2E2E2E2E2E2E2E2E2E2E2E2E2E2E2E2E2E2E2E2E2E2E2E2E2E2E2E2E2E2E2E2E2
310
E2E2E2E2E2E2E2E2E2E2E2E2E2E2E2E2E2E2E2E2E2E2E2E2E2E2E2E2E2E2DCE2E2E2E2E2E2E2E2E2E2E2E2E2E2E2E2E2E2E2E2E2E2E2E2E2E2E2E2E2F5E2E2E2E2E2E2E2E2E2E2E2E2E2E2E2E2F5E2E2E2F5F5EFF5E2E2E2F5E2E2E2E2E2E2E2E2E2E2E2E2E2E2E2E2F5E2E2E2E2E2E2E2E2E2E2E2E2E2E2E2E2E2E2E2E2E2
310
E2E2E2E2E2E2E2E2DCE2E2E2E2E2E2E2E2E2E2E2E2E2E2E2E2E2E2E2E2E2E2E2E2E2E2E2E2E2E2E2E2E2E2E2E2E2BEE2E2E2E2E2E2E2E2E2E2E2E2E2E2E2E2E2E2E2E2E2E2E2E2E2E2E2E2E2E2E2E2E2E2E2E2DCE2E2E2E2E2E2E2E2E2E2E2E2E2E2E2E2E2E2E2E2E2E2E2E2E2E2E2E2E2F5E2E2E2E2E2E2E2E2E2E2E2E2E2
310
E2E2E2F5E2E2E2F5F5EFF5E2E2E2F5E2E2E2E2E2E2E2E2E2E2E2E2E2E2E2E2F5E2E2E2E2E2E2E2E2E2E2E2E2E2E2E2E2E2E2E2E2E2E2E2E2E2E2E2E2E2DCE2E2E2E2E2E2E2E2E2E2E2E2E2E2E2E2E2E2E2E2E2E2E2E2E2E2E2E2E2E2E2E2E2E2E2E227BEE2E2E2E2E2E2E2E2E2E2E2E2E2E2E2E2E2E2E2E2E2E2E2E2E2E2E2
310
E2E2E2E2E2E2E2E2E2DCE2E2E2E2E2E2E2E2E2E2E2E2E2E2E2E2E2E2E2E2E2E2E2E2E2E2E2E2E2F5E2E2E2E2E2E2E2E2E2E2E2E2E2E2E2E2F5E2E2E2F5F5EFF5E2E2E2F5E2E2E2E2E2E2E2E2E2E2E2E2E2E2E2E2F5E2E2E2E2E2E2E2E2E2E2E2E2E2E2E2E2E2E2E2E2E2E2E2E2E2E2E2E2E2DCE2E2E2E2E2E2E2E2E2E2E2E2
310
E2E2E2E2E2E2E2E2E2E2E2E2E2E2E2E2E2E2E2E2E2E2E2E227BEE2E2E2E2E2E2E2E2E2E2E2E2E2E2E2E2E2E2E2E2E2E2E2E2E2E2E2E2E2E2E2E2E2E2E2E2DCE2E2E2E2E2E2E2E2E2E2E2E2E2E2E2E2E2E2E2E2E2E2E2E2E2E2E2E2E2F5E2E2E2E2E2E2E2E2E2E2E2E2E2E2E2E2F5E2E2E2F5F5EFF5E2E2E2F5E2E2E2E2E2E2
310
E2E2E2E2E2E2E2E2E2E2F5E2E2E2E2E2E2E2E2E2E2E2E2E2E2E2E2E2E2E2E2E2E2E2E2E2E2E2E2E2DCE2E2E2E2E2E2E2E2E2E2E2E2E2E2E2E2E2E2E2E2E2E2E2E2E2E2E2E2E2E2E2E2E2E2E2E227BEE2E2E2E2E2E2E2E2E2E2E2E2E2E2E2E2E2E2E2E2E2E2E2E2E2E2E2E2E2E2E2E2E2E2E2E2DCE2E2E2E2E2E2E2E2E2E2E2
310
E2E2E2E2E2E2E2E2E2E2E2E2E2E2E2E2E2E2F5E2E2E2E2E2E2E2E2E2E2E2E2E2E2E2E2F5E2E2E2F5F5EFF5E2E2E2F5E2E2E2E2E2E2E2E2E2E2E2E2E2E2E2E2F5E2E2E2E2E2E2E2E2E2E2E2E2E2E2E2E2E2E2E2E2E2E2E2E2E2E2E2E2E2DCE2E2E2E2E2E2E2E2E2E2E2E2E2E2E2E2E2E2E2E2E2E2E2E2E2E2E2E2E2E2E2E2E2
310
E2E2E227BEE2E2E2E2E2E2E2E2E2E2E2E2E2E2E2E2E2E2E2E2E2E2E2E2E2E2E2E2E2E2E2E2E2E2E2E2DCE2E2E2E2E2E2E2E2E2E2E2E2E2E2E2E2E2E2E2E2E2E2E2E2E2E2E2E2E2F5E2E2E2E2E2E2E2E2E2E2E2E2E2E2E2E2F5E2E2E2F5F5EFF5E2E2E2F5E2E2E2E2E2E2E2E2E2E2E2E2E2E2E2E2F5E2E2E2E2E2E2E2E2E2E2
310
E2E2E2E2E2E2E2E2E2E2E2E2E2E2E2E2E2E2E2DCE2E2E2E2E2E2E2E2E2E2E2E2E2E2E2E2E2E2E2E2E2E2E2E2E2E2E2E2E2E2E2E2E2E2E2E227BEE2E2E2E2E2E2E2E2E2E2E2E2E2E2E2E2E2E2E2E2E2E2E2E2E2E2E2E2E2E2E2E2E2E2E2E2DCE2E2E2E2E2E2E2E2E2E2E2E2E2E2E2E2E2E2E2E2E2E2E2E2E2E2E2E2E2F5E2E2
310
E2E2E2E2E2E2E2E2E2E2E2E2E2E2F5E2E2E2F5F5EFF5E2E2E2F5E2E2E2E2E2E2E2E2E2E2E2E2E2E2E2E2F5E2E2E2E2E2E2E2E2E2E2E2E2E2E2E2E2E2E2E2E2E2E2E2E2E2E2E2E2E2DCE2E2E2E2E2E2E2E2E2E2E2E2E2E2E2E2E2E2E2E2E2E2E2E2E2E2E2E2E2E2E2E2E2E2E2E227BEE2E2E2E2E2E2E2E2E2E2E2E2E2E2E2E2
310
E2E2E2E2E2E2E2E2E2E2E2E2E2E2E2E2E2E2E2E2DCE2E2E2E2E2E2E2E2E2E2E2E2E2E2E2E2E2E2E2E2E2E2E2E2E2E2E2E2E2F5E2E2E2E2E2E2E2E2E2E2E2E2E2E2E2E2F5E2E2E2F5F5EFF5E2E2E2F5E2E2E2E2E2E2E2E2E2E2E2E2E2E2E2E2F5E2E2E2E2E2E2E2E2E2E2E2E2E2E2E2E2E2E2E2E2E2E2E2E2E2E2E2E2E2DCE2
310
E2E2E2E2E2E2E2E2E2E2E2E2E2E2E2E2E2E2E2E2E2E2E2E2E2E2E2E2E2E2E2E2E2E2E227BEE2E2E2E2E2E2E2E2E2E2E2E2E2E2E2E2E2E2E2E2E2E2E2E2E2E2E2E2E2E2E2E2E2E2E2E2DCE2E2E2E2E2E2E2E2E2E2E2E2E2E2E2E2E2E2E2E2E2E2E2E2E2E2E2E2E2F5E2E2E2E2E2E2E2E2E2E2E2E2E2E2E2E2F5E2E2E2F5F5EF
310
F5E2E2E2F5E2E2E2E2E2E2E2E2E2E2E2E2E2E2E2E2F5E2E2E2E2E2E2E2E2E2E2E2E2E2E2E2E2E2E2E2E2E2E2E2E2E2E2E2E2E2DCE2E2E2E2E2E2E2E2E2E2E2E2E2E2E2E2E2E2E2E2E2E2E2E2E2E2E2E2E2E2E2E2E2E2E2E227BEE2E2E2E2E2E2E2E2E2E2E2E2E2E2E2E2E2E2E2E2E2E2E2E2E2E2E2E2E2E2E2E2E2E2E2E2DC
310
E2E2E2E2E2E2E2E2E2E2E2E2E2E2E2E2E2E2E2E2E2E2E2E2E2E2E2E2E2F5E2E2E2E2E2E2E2E2E2E2E2E2E2E2E2E2F5E2E2E2F5F5EFF5E2E2E2F5E2E2E2E2E2E2E2E2E2E2E2E2E2E2E2E2F5E2E2E2E2E2E2E2E2E2E2E2E2E2E2E2E2E2E2E2E2E2E2E2E2E2E2E2E2E2DCE2E2E2E2E2E2E2E2E2E2E2E2E2E2E2E2E2E2E2E2E2E2
310
E2E2E2E2E2E2E2E2E2E2E2E2E2E227BEE2E2E2E2E2E2E2E2E2E2E2E2E2E2E2E2E2E2E2E2E2E2E2E2E2E2E2E2E2E2E2E2E2E2E2E2DCE2E2E2E2E2E2E2E2E2E2E2E2E2E2E2E2E2E2E2E2E2E2E2E2E2E2E2E2E2F5E2E2E2E2E2E2E2E2E2E2E2E2E2E2E2E2F5E2E2E2F5F5EFF5E2E2E2F5E2E2E2E2E2E2E2E2E2E2E2E2E2E2E2E2
310
F5E2E2E2E2E2E2E2E2E2E2E2E2E2E2E2E2E2E2E2E2E2E2E2E2E2E2E2E2E2DCE2E2E2E2E2E2E2E2E2E2E2E2E2E2E2E2E2E2E2E2E2E2E2E2E2E2E2E2E2E2E2E2E2E2E2E227BEE2E2E2E2E2E2E2E2E2E2E2E2E2E2E2E2E2E2E2E2E2E2E2E2E2E2E2E2E2E2E2E2E2E2E2E2DCE2E2E2E2E2E2E2E2E2E2E2E2E2E2E2E2E2E2E2E2E2
310
E2E2E2E2E2E2E2E2F5E2E2E2E2E2E2E2E2E2E2E2E2E2E2E2E2F5E2E2E2F5F5EFF5E2E2E2F5E2E2E2E2E2E2E2E2E2E2E2E2E2E2E2E2F5E2E2E2E2E2E2E2E2E2E2E2E2E2E2E2E2E2E2E2E2E2E2E2E2E2E2E2E2E2DCE2E2E2E2E2E2E2E2E2E2E2E2E2E2E2E2E2E2E2E2E2E2E2E2E2E2E2E2E2E2E2E2E2E2E2E227BEE2E2E2E2E2
310
E2E2E2E2E2E2E2E2E2E2E2E2E2E2E2E2E2E2E2E2E2E2E2E2E2E2E2E2E2E2E2DCE2E2E2E2E2E2E2E2E2E2E2E2E2E2E2E2E2E2E2E2E2E2E2E2E2E2E2E2E2F5E2E2E2E2E2E2E2E2E2E2E2E2E2E2E2E2F5E2E2E2F5F5EFF5E2E2E2F5E2E2E2E2E2E2E2E2E2E2E2E2E2E2E2E2F5E2E2E2E2E2E2E2E2E2E2E2E2E2E2E2E2E2E2E2E2
310
E2E2E2E2E2E2E2E2E2DCE2E2E2E2E2E2E2E2E2E2E2E2E2E2E2E2E2E2E2E2E2E2E2E2E2E2E2E2E2E2E2E2E2E2E2E227BEE2E2E2E2E2E2E2E2E2E2E2E2E2E2E2E2E2E2E2E2E2E2E2E2E2E2E2E2E2E2E2E2E2E2E2E2DCE2E2E2E2E2E2E2E2E2E2E2E2E2E2E2E2E2E2E2E2E2E2E2E2E2E2E2E2E2F5E2E2E2E2E2E2E2E2E2E2E2E2
310
E2E2E2E2F5E2E2E2F5F5EFF5E2E2E2E2E2E2E2E2E2E2E2E2E2E2E2E2E2E2E2E2F5E2E2E2E2E2E2E2E2E2E2E2E2E2E2E2E2E2E2E2E2E2E2E2E2E2E2E2E2E2DCE2E2E2E2E2E2E2E2E2E2E2E2E2E2E2E2E2E2E2E2E2E2E2E2E2E2E2E2E2E2E2E2E2E2E2E227BEE2E2E2E2E2E2E2E2E2E2E2E2E2E2E2E2E2E2E2E2E2E2E2E2E2E2
310
E2E2E2E2E2E2E2E2E2E2DCE2E2E2E2E2E2E2E2E2E2E2E2E2E2E2E2E2E2E2E2E2E2E2E2E2E2E2E2E2F5E2E2E2E2E2E2E2E2E2E2E2E2E2E2E2E2E2E2E2E2F5F5EFF5E2E2E2E2E2E2E2E2E2E2E2E2E2E2E2E2E2E2E2E2F5E2E2E2E2E2E2E2E2E2E2E2E2E2E2E2E2E2E2E2E2E2E2E2E2E2E2E2E2E2DCE2E2E2E2E2E2E2E2E2E2E2
310
E2E2E2E2E2E2E2E2E2E2E2E2E2E2E2E2E2E2E2E2E2E2E2E2E227BEE2E2E2E2E2E2E2E2E2E2E2E2E2E2E2E2E2E2E2E2E2E2E2E2E2E2E2E2E2E2E2E2E2E2E2E2DCE2E2E2E2E2E2E2E2E2E2E2E2E2E2E2E2E2E2E2E2E2E2E2E2E2E2E2E2E2F5E2E2E2E2E2E2E2E2E2E2E2E2E2E2E2E2E2E2E2E2F5F5EFF5E2E2E2E2E2E2E2E2E2
310
E2E2E2E2E2E2E2E2E2E2E2F5E2E2E2E2E2E2E2E2E2E2E2E2E2E2E2E2E2E2E2E2E2E2E2E2E2E2E2E2E2DCE2E2E2E2E2E2E2E2E2E2E2E2E2E2E2E2E2E2E2E2E2E2E2E2E2E2E2E2E2E2E2E2E2E2E2E2E2BEE2E2E2E2E2E2E2E2E2E2E2E2E2E2E2E2E2E2E2E2E2E2E2E2E2E2E2E2E2E2E2E2E2E2E2E2DCE2E2E2E2E2E2E2E2E2E2
310
E2E2E2E2E2E2E2E2E2E2E2E2E2E2E2E2E2E2E2F5E2E2E2E2E2E2E2E2E2E2E2E2E2E2E2E2E2E2E2E2F5F5EFF5E2E2E2E2E2E2E2E2E2E2E2E2E2E2E2E2E2E2E2E2F5E2E2E2E2E2E2E2E2E2E2E2E2E2E2E2E2E2E2E2E2E2E2E2E2E2E2E2E2E2DCE2E2E2E2E2E2E2E2E2E2E2E2E2E2E2E2E2E2E2E2E2E2E2E2E2E2E2E2E2E2E2E2
310
E2E2E2E2E2BEE2E2E2E2E2E2E2E2E2E2E2E2E2E2E2E2E2E2E2E2E2E2E2E2E2E2E2E2E2E2E2E2E2E2E2E2DCE2E2E2E2E2E2E2E2E2E2E2E2E2E2E2E2E2E2E2E2E2E2E2E2E2E2E2E2E2F5E2E2E2E2E2E2E2E2E2E2E2E2E2E2E2E2E2E2E2E2F5F5EFF5E2E2E2E2E2E2E2E2E2E2E2E2E2E2E2E2E2E2E2E2F5E2E2E2E2E2E2E2E2E2
310
E2E2E2E2E2E2E2E2E2E2E2E2E2E2E2E2E2E2E2E2DCE2E2E2E2E2E2E2E2E2E2E2E2E2E2E2E2E2E2E2E2E2E2E2E2E2E2E2E2E2E2E2E2E2E2E2E2E2BEE2E2E2E2E2E2E2E2E2E2E2E2E2E2E2E2E2E2E2E2E2E2E2E2E2E2E2E2E2E2E2E2E2E2E2E2DCE2E2E2E2E2E2E2E2E2E2E2E2E2E2E2E2E2E2E2E2E2E2E2E2E2E2E2E2E2F5E2
310
E2E2E2E2E2E2E2E2E2E2E2E2E2E2E2E2E2E2E2F5F5EFF5E2E2E2E2E2E2E2E2E2E2E2E2E2E2E2E2E2E2E2E2F5E2E2E2E2E2E2E2E2E2E2E2E2E2E2E2E2E2E2E2E2E2E2E2E2E2E2E2E2E2DCE2E2E2E2E2E2E2E2E2E2E2E2E2E2E2E2E2E2E2E2E2E2E2E2E2E2E2E2E2E2E2E2E2E2E2E2E2BEE2E2E2E2E2E2E2E2E2E2E2E2E2E2E2
310
E2E2E2E2E2E2E2E2E2E2E2E2E2E2E2E2E2E2E2E2E2DCE2E2E2E2E2E2E2E2E2E2E2E2E2E2E2E2E2E2E2E2E2E2E2E2E2E2E2E2E2F5E2E2E2E2E2E2E2E2E2E2E2E2E2E2E2E2E2E2E2E2F5F5EFF5E2E2E2E2E2E2E2E2E2E2E2E2E2E2E2E2E2E2E2E2F5E2E2E2E2E2E2E2E2E2E2E2E2E2E2E2E2E2E2E2E2E2E2E2E2E2E2E2E2E2DC
310
E2E2E2E2E2E2E2E2E2E2E2E2E2E2E2E2E2E2E2E2E2E2E2E2E2E2E2E2E2E2E2E2E2E2E2E2E2BEE2E2E2E2E2E2E2E2E2E2E2E2E2E2E2E2E2E2E2E2E2E2E2E2E2E2E2E2E2E2E2E2E2E2E2E2DCE2E2E2E2E2E2E2E2E2E2E2E2E2E2E2E2E2E2E2E2E2E2E2E2E2E2E2E2E2F5E2E2E2E2E2E2E2E2E2E2E2E2E2E2E2E2E2E2E2E2F5F5
310
EFF5E2E2E2E2E2E2E2E2E2E2E2E2E2E2E2E2E2E2E2E2F5E2E2E2E2E2E2E2E2E2E2E2E2E2E2E2E2E2E2E2E2E2E2E2E2E2E2E2E2E2DCE2E2E2E2E2E2E2E2E2E2E2E2E2E2E2E2E2E2E2E2E2E2E2E2E2E2E2E2E2E2E2E2E2E2E2E2E2BEE2E2E2E2E2E2E2E2E2E2E2E2E2E2E2E2E2E2E2E2E2E2E2E2E2E2E2E2E2E2E2E2E2E2E2E2
310
DCE2E2E2E2E2E2E2E2E2E2E2E2E2E2E2E2E2E2E2E2E2E2E2E2E2E2E2E2E2F5E2E2E2E2E2E2E2E2E2E2E2E2E2E2E2E2E2E2E2E2F5F5EFF5E2E2E2E2E2E2E2E2E2E2E2E2E2E2E2E2E2E2E2E2F5E2E2E2E2E2E2E2E2E2E2E2E2E2E2E2E2E2E2E2E2E2E2E2E2E2E2E2E2E2DCE2E2E2E2E2E2E2E2E2E2E2E2E2E2E2E2E2E2E2E2E2
310
E2E2E2E2E2E2E2E2E2E2E2E2E2E2E2E2BEE2E2E2E2E2E2E2E2E2E2E2E2E2E2E2E2E2E2E2E2E2E2E2E2E2E2E2E2E2E2E2E2E2E2E2E2DCE2E2E2E2E2E2E2E2E2E2E2E2E2E2E2E2E2E2E2E2E2E2E2E2E2E2E2E2E2F5E2E2E2E2E2E2E2E2E2E2E2E2E2E2E2E2E2E2E2E2F5F5EFF5E2E2E2E2E2E2E2E2E2E2E2E2E2E2E2E2E2E2E2
310
E2F5E2E2E2E2E2E2E2E2E2E2E2E2E2E2E2E2E2E2E2E2E2E2E2E2E2E2E2E2E2DCE2E2E2E2E2E2E2E2E2E2E2E2E2E2E2E2E2E2E2E2E2C3C3C3C3C3C3E2E2E2E2E2E2E2E2E2E2BEE2E2E2E2E2E2E2E2E2E2E2C3C3C3C3C3C3E2E2E2E2E2E2E2E2E2E2E2E2E2E2E2E2E2E2E2DCE2E2E2E2E2E2E2E2E2E2E2E2E2E2E2E2E2E2E2E2
310
E2E2E2E2E2E2E2E2E2F5E2E2E2E2E2E2E2E2E2E2E2E2E2E2E2E2E2E2E2E2F5F5EFF5E2E2E2F5E2E2E2E2E2E2E2E2E2E2E2E2E2E2E2E2F5E2E2E2E2E2E2E2E2E2E2E2E2E2E2E2E2E2E2E2E2E2E2E2E2E2E2E2E2E2DCE2E2E2E2E2E2E2E2E2E2E2BEE2BEE2E2E2E2E2E2E2C3C3C3C3C3C3E2E2E2E2E2E2E2E2E2E2BEE2E2E2E2
310
E2E2E2E2E2E2E2C3C3C3C3C3C3E2E2E2E2E2E2E2E2BEE2BEE2E2E2E2E2E2E2E2DCE2E2E2E2E2E2E2E2E2E2E2E2E2E2E2E2E2E2E2E2E2E2E2E2E2E2E2E2E2F5E2E2E2E2E2E2E2E2E2E2E2E2E2E2E2E2F5E2E2E2F5F5EFF5E2E2E2F5E2E2E2E2E2E2E2E2E2E2E2E2E2E2E2E2F5E2E2E2E2E2E2E2E2E2E2E2E2E2E2E2E2E2E2E2
310
E2E2E2E2E2E2E2E2E2E2DCE2E2E2E2E2E2E2E2E2E2E2BEBEBEE2E2E2E2E2E2E2F5BEF5F5F5BEE2E2E2E2E2E2E2E2E2E2BEE2E2E2E2E2E2E2E2E2E2E2F5F5F5F5F5F5E2E2E2E2E2E2E227BEBEBEE2E2E2E2E2E2E2E2DCE2E2E2E2E2E2E2E2E2E2E2E2E2E2E2E2E2E2E2E2E2E2E2E2E2E2E2E2E2F5E2E2E2E2E2E2E2E2E2E2E2
310
E2E2E2E2E2F5E2E2E2F5F5EFF5E2E2E2F5E2E2E2E2E2E2E2E2E2E2E2E2E2E2E2E2F5E2E2E2E2E2E2E2E2E2E2E2E2E2E2E2E2E2E2E2E2E2E2E2E2E2E2E2E2E2DCE2E2E2E2E2E2E2E2E2E2E2BE2727E2E2E2E2E2E2E2F5E2E2E2F5F5E2E2E2E2E2E2E2E2E2E2BEE2E2E2E2E2E2E2E2E2E2E2F5E2E2E2F5F5E2E2E2E2E2E2E227
310
27E2BEE2E2E2E2E2E2E2E2DCE2E2E2E2E2E2E2E2E2E2E2E2E2E2E2E2E2E2E2E2E2E2E2E2E2E2E2E2E2F5E2E2E2E2E2E2E2E2E2E2E2E2E2E2E2E2F5E2E2E2F5F5EFF5E2E2E2F5E2E2E2E2E2E2E2E2E2E2E2E2E2E2E2E2F5E2E2E2E2E2E2E2E2E2E2E2E2E2E2E2E2E2E2E2E2E2E2E2E2E2E2E2E2E2DCE2E2E2E2E2E2E2E2E2E2
310
E2BE2727E2E2E2E2E2C3C3F5E2E2E2F5F5E2E2E2E2E2E2E2E2E2E2BEE2E2E2E2E2E2E2E2E2E2E2F5E2E2E2F5F5C3E2E2E2E2E2E22727E2BEE2E2E2E2E2E2E2E2DCE2E2E2E2E2E2E2E2E2E2E2E2E2E2E2E2E2E2E2E2E2E2E2E2E2E2E2E2E2F5E2E2E2E2E2E2E2E2E2E2E2E2E2E2E2E2F5E2E2E2F5F5EFF5E2E2E2F5E2E2E2E2
310
E2E2E2E2E2E2E2E2E2E2E2E2F5E2E2E2E2E2E2E2E2E2E2E2E2E2E2E2E2E2E2E2E2E2E2E2E2E2E2E2E2E2DCE2E2E2E2E2E2E2E2E2E2E2BE27BEC3C3C3F5BEF5F5F5E2E2E2F5F5E2E2E2E2E2E2E2E2E2E2BEE2E2E2E2E2E2E2E2E2E2E2F5E2E2E2F5F5F5F5F5F5C3C3E227BEE2BEE2E2E2E2E2E2E2E2DCE2E2E2E2E2E2E2E2E2
310
E2E2E2E2E2E2E2E2E2E2E2E2E2E2E2E2E2E2E2E2F5E2E2E2E2E2E2E2E2E2E2E2E2E2E2E2E2F5E2E2E2F5F5EFF5E2E2E2F5E2E2E2E2E2E2E2E2E2E2E2E2E2E2E2E2F5E2E2E2E2E2E2E2E2E2E2E2E2E2E2E2E2E2E2E2E2E2E2E2E2E2E2E2E2E2DCE2E2E2E2E2E2E2E2E2E227272727C3E2E2F5E2E2E2E2E2E2F5F5BEE2E2E2E2
310
E2E2E2E2E2E2BEE2E2E2E2E2E2E2E2E2E2E2F5F5F5E2E2E2E2E2E2F5E2C3E2272727BEE2E2E2E2E2E2E2E2DCE2E2E2E2E2E2E2E2E2E2E2E2E2E2E2E2E2E2E2E2E2E2E2E2E2E2E2E2E2F5E2E2E2E2E2E2E2E2E2E2E2E2E2E2E2E2F5E2E2E2F5F5EFF5E2E2E2F5E2E2E2E2E2E2E2E2E2E2E2E2E2E2E2E2F5E2E2E2E2E2E2E2E2
310
E2E2E2E2E2E2E2E2E2E2E2E2E2E2E2E2E2E2E2E2E2DCE2E2E2E2E2E2E2E2E2E227272727C3F5F5BEE2E2E2E2E2E2F5E2E2E2E2E2E2E2E2E2E2E2E2BEE2E2E2E2E2E2E2E2E2E2E2E2E2F5E2E2E2E2E2E2F5F5C3E2272727BEE2E2E2E2E2E2E2E2DCE2E2E2E2E2E2E2E2E2E2E2E2E2E2E2E2E2E2E2E2E2E2E2E2E2E2E2E2E2F5
310
E2E2E2E2E2E2E2E2E2E2E2E2E2E2E2E2F5E2E2E2F5F5EFF5E2E2E2F5E2E2E2E2E2E2E2E2E2E2E2E2E2E2E2E2F5E2E2E2E2E2E2E2E2E2E2E2E2E2E2E2E2E2E2E2E2E2E2E2E2E2E2E2E2E2DCE2E2E2E2E2E2E2E2E2E22727E2BEE2C3F5E2E2E2E2E2E2E2F5E2E2E2E2E2E2E2E2E2E2E2E2BEE2E2E2E2E2E2E2E2E2E2E2E2E2F5
310
E2E2E2E2E2E2E2C3C3E2E2BE27BEE2E2E2E2E2E2E2E2DCE2E2E2E2E2E2E2E2E2E2E2E2E2E2E2E2E2E2E2E2E2E2E2E2E2E2E2E2E2F5E2E2E2E2E2E2E2E2E2E2E2E2E2E2E2E2F5E2E2E2F5F5EFF5E2E2E2F5E2E2E2E2E2E2E2E2E2E2E2E2E2E2E2E2F5E2E2E2E2E2E2E2E2E2E2E2E2E2E2E2E2E2E2E2E2E2E2E2E2E2E2E2E2E2
310
DCE2E2E2E2E2E2E2E2E2E2E2272727E2F5F5E2E2E2E2E2E2E2F5E2E2E2E2E2E2E2E2E2E2E2E2BEE2E2E2E2E2E2E2E2E2E2E2E2E2F5E2E2E2E2E2E2E2F5E2E2272727BEE2E2E2E2E2E2E2E2DCE2E2E2E2E2E2E2E2E2E2E2E2E2E2E2E2E2E2E2E2E2E2E2E2E2E2E2E2E2F5E2E2E2E2E2E2E2E2E2E2E2E2E2E2E2E2F5E2E2E2F5
310
F5EFF5E2E2E2F5E2E2E2E2E2E2E2E2E2E2E2E2E2E2E2E2F5E2E2E2E2E2E2E2E2E2E2E2E2E2E2E2E2E2E2E2E2E2E2E2E2E2E2E2E2E2DCE2E2E2E2E2E2E2E2E2E2E2BE2727E2F5F5E2E2E2E2E2E2E2F5E2E2E2E2E2E2E2E2E2E2E2E2BEE2E2E2E2E2E2E2E2E2E2E2E2E2F5E2E2E2E2E2E2E2F5E2E22727E2BEE2E2E2E2E2E2E2
310
E2DCE2E2E2E2E2E2E2E2E2E2E2E2E2E2E2E2E2E2E2E2E2E2E2E2E2E2E2E2E2F5E2E2E2E2E2E2E2E2E2E2E2E2E2E2E2E2F5E2E2E2F5F5EFF5E2E2E2F5E2E2E2E2E2E2E2E2E2E2E2E2E2E2E2E2F5E2E2E2E2E2E2E2E2E2E2E2E2E2E2E2E2E2E2E2E2E2E2E2E2E2E2E2E2E2DCE2E2E2E2E2E2E2E2E2E2E2BE2727E2F5F5E2E2E2
310
E2E2E2E2F5E2E2E2E2E2E2E2E2E2E2E2E2BEE2E2E2E2E2E2E2E2E2E2E2E2E2F5E2E2E2E2E2E2E2F5E2E22727E2BEE2E2E2E2E2E2E2E2DCE2E2E2E2E2E2E2E2E2E2E2E2E2E2E2E2E2E2E2E2E2E2E2E2E2E2E2E2E2F5E2E2E2E2E2E2E2E2E2E2E2E2E2E2E2E2F5E2E2E2F5F5EFF5E2E2E2F5E2E2E2E2E2E2E2E2E2E2E2E2E2E2
310
E2E2F5E2E2E2E2E2E2E2E2E2E2E2E2E2E2E2E2E2E2E2E2E2E2E2E2E2E2E2E2E2DCE2E2E2E2E2E2E2E2E2E2E2BEE2BEE2F5F5E2E2F5F5F5F5F5BEE2E2E2E2E2E2E2E2E2E2E2E2BEE2E2E2E2E2E2E2E2E2E2E2E2E2F5F5F5F5F5F5E2E2F5E2E2E2BEE2BEE2E2E2E2E2E2E2E2DCE2E2E2E2E2E2E2E2E2E2E2E2E2E2E2E2E2E2E2
310
E2E2E2E2E2E2E2E2E2E2F5E2E2E2E2E2E2E2E2E2E2E2E2E2E2E2E2F5E2E2E2F5F5EFF5E2E2E2F5E2E2E2E2E2E2E2E2E2E2E2E2E2E2E2E2F5E2E2E2E2E2E2E2E2E2E2E2E2E2E2E2E2E2E2E2E2E2E2E2E2E2E2E2E2E2DCE2E2E2E2E2E2E2E2E2E2E2BEBEBEE2BEF5BEF5BEE2E2E2E2C3E2E2E2E2E2E2E2E2E2E2E2E2BEE2E2E2
310
E2E2E2E2E2E2E2E2E2E2C3E2E2E2F5F5F5F5F5BEE2E2BEBEBEE2E2E2E2E2E2E2E2DCE2E2E2E2E2E2E2E2E2E2E2E2E2E2E2E2E2E2E2E2E2E2E2E2E2E2E2E2E2F5E2E2E2E2E2E2E2E2E2E2E2E2E2E2E2E2F5E2E2E2F5F5EFF5E2E2E2F5E2E2E2E2E2E2E2E2E2E2E2E2E2E2E2E2F5E2E2E2E2E2E2E2E2E2E2E2E2E2E2E2E2E2E2
310
E2E2E2E2E2E2E2E2E2E2E2DCE2E2E2E2E2E2E2E2E2E2E2E2E2E2E2E2C3C3E2E2E2E2E2E2C3E2E2E2E2E2E2E2E2E2E2E2E2BEE2E2E2E2E2E2E2E2E2E2E2E2E2C3E2E2E2E2E2E2C3C3E2E2E2E2E2E2E2E2E2E2E2E2E2E2DCE2E2E2E2E2E2E2E2E2E2E2E2E2E2E2E2E2E2E2E2E2E2E2E2E2E2E2E2E2F5E2E2E2E2E2E2E2E2E2E2
310
E2E2E2E2E2E2F5E2E2E2F5F5EFF5E2E2E2F5E2E2E2E2E2E2E2E2E2E2E2E2E2E2E2E2F5E2E2E2E2E2E2E2E2E2E2E2E2E2E2E2E2E2E2E2E2E2E2E2E2E2E2E2E2E2DCE2E2E2E2E2E2E2E2E2E2E2E2E2E2E2E2C3C3C3C3C3C3C3C3C3E2E2E2E2E2E2E2E2E2E2E2E2BEE2E2E2E2E2E2E2E2E2E2E2E2E2C3C3C3C3C3C3C3C3C3E2E2
310
E2E2E2E2E2E2E2E2E2E2E2E2DCE2E2E2E2E2E2E2E2E2E2E2E2E2E2E2E2E2E2E2E2E2E2E2E2E2E2E2E2E2F5E2E2E2E2E2E2E2E2E2E2E2E2E2E2E2E2F5E2E2E2F5F5EFF5E2E2E2F5E2E2E2E2E2E2E2E2E2E2E2E2E2E2E2E2F5E2E2E2E2E2E2E2E2E2E2E2E2E2E2E2E2E2E2E2E2E2E2E2E2E2E2E2E2E2DCE2E2E2E2E2E2E2E2E2
310
E2E2E2E2E2E2E2E2E2E2E2E2E2E2E2E2E2E2E2E2E2E2E2E2E2E2E2E2BEE2E2E2E2E2E2E2E2E2E2E2E2E2E2E2E2E2E2E2E2E2E2E2E2E2E2E2E2E2E2E2E2E2E2E2E2DCE2E2E2E2E2E2E2E2E2E2E2E2E2E2E2E2E2E2E2E2E2E2E2E2E2E2E2E2E2F5E2E2E2E2E2E2E2E2E2E2E2E2E2E2E2E2F5E2E2E2F5F5EFF5E2E2E2E2E2E2E2
310
E2E2E2E2E2E2E2E2E2E2E2E2E2F5E2E2E2E2E2E2E2E2E2E2E2E2E2E2E2E2E2E2E2E2E2E2E2E2E2E2E2E2E2DCE2E2E2E2E2E2E2E2E2E2E2E2E2E2E2BE272727BEBE2727272727BEE2E2E2E2E2E2E2E2E2E2BEE2E2E2E2E2E2E2E2E2E2BEBE2727272727BEBE2727BEE2E2E2E2E2E2E2E2E2E2E2E2E2E2DCE2E2E2E2E2E2E2E2
310
E2E2E2E2E2E2E2E2E2E2E2E2E2E2E2E2E2E2E2E2E2F5E2E2E2E2E2E2E2E2E2E2E2E2E2E2E2E2E2E2E2E2F5F5EFF5E2E2E2E2E2E2E2E2E2E2E2E2E2E2E2E2E2E2E2E2F5E2E2E2E2E2E2E2E2E2E2E2E2E2E2E2E2E2E2E2E2E2E2E2E2E2E2E2E2E2DCE2E2E2E2E2E2E2E2E2E2E2E2E2E2E2BEBEBEBEBEBEBEBEBEBEBEBEE2E2E2
310
E2E2E2E2E2E2E2BEE2E2E2E2E2E2E2E2E2E2E2BEBEBEBEBEBEBEBEBEBEBEE2E2E2E2E2E2E2E2E2E2E2E2E2E2DCE2E2E2E2E2E2E2E2E2E2E2E2E2E2E2E2E2E2E2E2E2E2E2E2E2E2E2E2E2F5E2E2E2E2E2E2E2E2E2E2E2E2E2E2E2E2E2E2E2E2F5F5EFF5E2E2E2E2E2E2E2E2E2E2E2E2E2E2E2E2E2E2E2E2F5E2E2E2E2E2E2E2
310
E2E2E2E2E2E2E2E2E2E2E2E2E2E2E2E2E2E2E2E2E2E2DCE2E2E2E2E2E2E2E2E2E2E2E2E2E2E2BEBEE2E227272727E2E2E2BEE2E2E2E2E2E2E2E2E2E2BEE2E2E2E2E2E2E2E2E2E2E2BEE2E2E2272727E2E2E2BEE2E2E2E2E2E2E2E2E2E2E2E2E2E2DCE2E2E2E2E2E2E2E2E2E2E2E2E2E2E2E2E2E2E2E2E2E2E2E2E2E2E2E2E2
310
F5E2E2E2E2E2E2E2E2E2E2E2E2E2E2E2E2E2E2E2E2F5F5EFF5E2E2E2E2E2E2E2E2E2E2E2E2E2E2E2E2E2E2E2E2F5E2E2E2E2E2E2E2E2E2E2E2E2E2E2E2E2E2E2E2E2E2E2E2E2E2E2E2E2E2DCE2E2E2E2E2E2E2E2E2E2E2E2E2E2E2E2E2E2E2E2E2E2E2E2E2E2E2E2E2E2E2E2E2E2E2E2E2BEE2E2E2E2E2E2E2E2E2E2E2E2E2
310
E2E2E2E2E2E2E2E2E2E2E2E2E2E2E2E2E2E2E2E2E2E2E2DCE2E2E2E2E2E2E2E2E2E2E2E2E2E2E2E2E2E2E2E2E2E2E2E2E2E2E2E2E2F5E2E2E2E2E2E2E2E2E2E2E2E2E2E2E2E2E2E2E2E2F5F5EFF5E2E2E2E2E2E2E2E2E2E2E2E2E2E2E2E2E2E2E2E2F5E2E2E2E2E2E2E2E2E2E2E2E2E2E2E2E2E2E2E2E2E2E2E2E2E2E2E2E2
310
E2DCE2E2E2E2E2E2E2E2E2E2E2E2E2E2E2E2E2E2E2E2E2E2E2E2E2E2E2E2E2E2E2E2E2E2E2E2E2BEE2E2E2E2E2E2E2E2E2E2E2E2E2E2E2E2E2E2E2E2E2E2E2E2E2E2E2E2E2E2E2E2E2E2E2E2DCE2E2E2E2E2E2E2E2E2E2E2E2E2E2E2E2E2E2E2E2E2E2E2E2E2E2E2E2E2F5E2E2E2E2E2E2E2E2E2E2E2E2E2E2E2E2E2E2E2E2
310
F5F5EFF5E2E2E2E2E2E2E2E2E2E2E2E2E2E2E2E2E2E2E2E2F5E2E2E2E2E2E2E2E2E2E2E2E2E2E2E2E2E2E2E2E2E2E2E2E2E2E2E2E2E2DCE2E2E2E2E2E2E2E2E2E2E2E2E2E2E2E2E2E2E2E2E2E2E2E2E2E2E2E2E2E2E2E2E2E2E2E2E2BEE2E2E2E2E2E2E2E2E2E2E2E2E2E2E2E2E2E2E2E2E2E2E2E2E2E2E2E2E2E2E2E2E2E2
310
E2E2DCE2E2E2E2E2E2E2E2E2E2E2E2E2E2E2E2E2E2E2E2E2E2E2E2E2E2E2E2E2F5E2E2E2E2E2E2E2E2E2E2E2E2E2E2E2E2E2E2E2E2F5F5EFF5E2E2E2E2E2E2E2E2E2E2E2E2E2E2E2E2E2E2E2E2F5E2E2E2E2E2E2E2E2E2E2E2E2E2E2E2E2E2E2E2E2E2E2E2E2E2E2E2E2E2DCE2E2E2E2E2E2E2E2E2E2E2E2E2E2E2E2E2E2E2
310
E2E2E2E2E2E2E2E2E2E2E2E2E2E2E2E2E2E2BEE2E2E2E2E2E2E2E2E2E2E2E2E2E2E2E2E2E2E2E2E2E2E2E2E2E2E2E2E2E2E2E2E2E2E2E2DCE2E2E2E2E2E2E2E2E2E2E2E2E2E2E2E2E2E2E2E2E2E2E2E2E2E2E2E2E2F5E2E2E2E2E2E2E2E2E2E2E2E2E2E2E2E2E2E2E2E2F5F5EFF5E2E2E2E2E2E2E2E2E2E2E2E2E2E2E2E2E2
310
E2E2E2F5E2E2E2E2E2E2E2E2E2E2E2E2E2E2E2E2E2E2E2E2E2E2E2E2E2E2E2E2E2DCE2E2E2E2E2E2E2E2E2E2E2E2E2E2E2E2E2E2E2E2E2E2E2E2E2E2E2E2E2E2E2E2E2E2E2E2E2E2E2E2E2E2E2E2E2E2E2E2E2E2E2E2E2E2E2E2E2E2E2E2E2E2E2E2E2E2E2E2E2E2E2E2E2E2DCE2E2E2E2E2E2E2E2E2E2E2E2E2E2E2E2E2E2
310
E2E2E2E2E2E2E2E2E2E2E2F5E2E2E2E2E2E2E2E2E2E2E2E2E2E2E2E2E2E2E2E2F5F5EFF5E2E2E2E2E2E2E2E2E2E2E2E2E2E2E2E2E2E2E2E2F5E2E2E2E2E2E2E2E2E2E2E2E2E2E2E2E2E2E2E2E2E2E2E2E2E2E2E2E2E2DCE2E2E2E2E2E2E2E2E2E2E2E2E2E2E2E2E2E2E2E2E2E2E2E2E2E2E2E2E2E2E2E2E2E2E2E2E2E2E2E2
310
E2E2E2E2E2E2E2E2E2E2E2E2E2E2E2E2E2E2E2E2E2E2E2E2E2E2E2E2E2E2E2E2E2E2DCE2E2E2E2E2E2E2E2E2E2E2E2E2E2E2E2E2E2E2E2E2E2E2E2E2E2E2E2E2F5E2E2E2E2E2E2E2E2E2E2E2E2E2E2E2E2E2E2E2E2F5F5EFF5E2E2E2F5E2E2E2E2E2E2E2E2E2E2E2E2E2E2E2E2F5E2E2E2E2E2E2E2E2E2E2E2E2E2E2E2E2E2
310
E2E2E2E2E2E2E2E2E2E2E2E2DCE2E2E2E2E2E2E2E2E2E2E2E2E2E2E2E2E2E2E2E2E2E2E2E2E2E2E2E2E2E2E2E2E2E2E2E2E2E2E2E2E2E2E2E2E2E2E2E2E2E2E2E2E2E2E2E2E2E2E2E2E2E2E2E2E2E2E2E2E2E2E2E2E2E2DCE2E2E2E2E2E2E2E2E2E2E2E2E2E2E2E2E2E2E2E2E2E2E2E2E2E2E2E2E2F5E2E2E2E2E2E2E2E2E2
310
E2E2E2E2E2E2E2F5E2E2E2F5F5EFF5E2E2E2F5E2E2E2E2E2E2E2E2E2E2E2E2E2E2E2E2F5E2E2E2E2E2E2E2E2E2E2E2E2E2E2E2E2E2E2E2E2E2E2E2E2E2E2E2E2E2DCE2E2E2E2E2E2E2E2E2E2E2E2E2E2E2E2E2E2E2E2E2E2E2E2E2E2E2E2E2E2E2E2E2E2E2E2E2E2E2E2E2E2E2E2E2E2E2E2E2E2E2E2E2E2E2E2E2E2E2E2E2
310
E2E2E2E2E2E2E2E2E2E2E2E2E2DCE2E2E2E2E2E2E2E2E2E2E2E2E2E2E2E2E2E2E2E2E2E2E2E2E2E2E2E2E2F5E2E2E2E2E2E2E2E2E2E2E2E2E2E2E2E2F5E2E2E2F5F5EFF5E2E2E2F5E2E2E2E2E2E2E2E2E2E2E2E2E2E2E2E2F5E2E2E2E2E2E2E2E2E2E2E2E2E2E2E2E2E2E2E2E2E2E2E2E2E2E2E2E2E2DCE2E2E2E2E2E2E2E2
310
E2E2E2E2E2E2E2E2E2E2E2E2E2E2E2E2E2E2E2E2E2E2E2E2E2E2E2E2E2E2E2E2E2E2E2E2E2E2E2E2E2E2E2E2E2E2E2E2E2E2E2E2E2E2E2E2E2E2E2E2E2E2E2E2E2E2DCE2E2E2E2E2E2E2E2E2E2E2E2E2E2E2E2E2E2E2E2E2E2E2E2E2E2E2E2E2F5E2E2E2E2E2E2E2E2E2E2E2E2E2E2E2E2F5E2E2E2F5F5EFF5E2E2E2F5E2E2
310
E2E2E2E2E2E2E2E2E2E2E2E2E2E2F5E2E2E2E2E2E2E2E2E2E2E2E2E2E2E2E2E2E2E2E2E2E2E2E2E2E2E2E2E2DCE2E2E2E2E2E2E2E2E2E2E2E2E2E2E2E2E2E2E2E2E2E2E2E2E2E2E2E2E2E2E2E2E2E2E2E2E2E2E2E2E2E2E2E2E2E2E2E2E2E2E2E2E2E2E2E2E2E2E2E2E2E2E2E2E2E2E2E2E2E2E2E2E2E2DCE2E2E2E2E2E2E2
310
E2E2E2E2E2E2E2E2E2E2E2E2E2E2E2E2E2E2E2E2E2E2F5E2E2E2E2E2E2E2E2E2E2E2E2E2E2E2E2F5E2E2E2F5F5EFF5E2E2E2F5E2E2E2E2E2E2E2E2E2E2E2E2E2E2E2E2F5E2E2E2E2E2E2E2E2E2E2E2E2E2E2E2E2E2E2E2E2E2E2E2E2E2E2E2E2E2DCE2E2E2E2E2E2E2E2E2E2E2E2E2E2E2E2E2E2E2E2E2E2E2E2E2E2E2E2E2
310
E2E2E2E2E2E2E2E2E2E2E2E2E2E2E2E2E2E2E2E2E2E2E2E2E2E2E2E2E2E2E2E2E2E2E2E2E2E2E2E2E2E2E2E2E2DCE2E2E2E2E2E2E2E2E2E2E2E2E2E2E2E2E2E2E2E2E2E2E2E2E2E2E2E2E2F5E2E2E2E2E2E2E2E2E2E2E2E2E2E2E2E2F5E2E2E2F5F5EFF5E2E2E2F5E2E2E2E2E2E2E2E2E2E2E2E2E2E2E2E2F5E2E2E2E2E2E2
310
E2E2E2E2E2E2E2E2E2E2E2E2E2E2E2E2E2E2E2E2E2E2E2DCE2E2E2E2E2E2E2E2E2E2E2E2E2E2E2E2E2E2E2E2E2E2E2E2E2E2E2E2E2E2E2E2E2E2E2E2E2E2E2E2E2E2E2E2E2E2E2E2E2E2E2E2E2E2E2E2E2E2E2E2E2E2E2E2E2E2E2E2E2E2E2E2E2E2DCE2E2E2E2E2E2E2E2E2E2E2E2E2E2E2E2E2E2E2E2E2E2E2E2E2E2E2E2
310
E2F5E2E2E2E2E2E2E2E2E2E2E2E2E2E2E2E2F5E2E2E2F5F5EFF5E2E2E2F5E2E2E2E2E2E2E2E2E2E2E2E2E2E2E2E2F5E2E2E2E2E2E2E2E2E2E2E2E2E2E2E2E2E2E2E2E2E2E2E2E2E2E2E2E2E2DCE2E2E2E2E2E2E2E2E2E2E2E2E2E2E2E2E2E2E2E2E2E2E2E2E2E2E2E2E2E2E2E2E2E2E2E2E2E2E2E2E2E2E2E2E2E2E2E2E2E2
310
E2E2E2E2E2E2E2E2E2E2E2E2E2E2E2E2E2E2E2E2E2E2E2E2DCE2E2E2E2E2E2E2E2E2E2E2E2E2E2E2E2E2E2E2E2E2E2E2E2E2E2E2E2E2F5E2E2E2E2E2E2E2E2E2E2E2E2E2E2E2E2F5E2E2E2F5F5EFF5E2E2E2F5E2E2E2E2E2E2E2E2E2E2E2E2E2E2E2E2F5E2E2E2E2E2E2E2E2E2E2E2E2E2E2E2E2E2E2E2E2E2E2E2E2E2E2E2
310
E2E2DCE2E2E2E2E2E2E2E2E2E2E2E2E2E2E2E2E2E2E2E2E2E2E2E2E2E2E2E2E2E2E2E2E2E2E2E2E2E2E2E2E2E2E2E2E2E2E2E2E2E2E2E2E2E2E2E2E2E2E2E2E2E2E2E2E2E2E2E2E2E2E2E2E2E2DCE2E2E2E2E2E2E2E2E2E2E2E2E2E2E2E2E2E2E2E2E2E2E2E2E2E2E2E2E2F5E2E2E2E2E2E2E2E2E2E2E2E2E2E2E2E2F5E2E2
310
E2F5F5EFF5E2E2E2F5E2E2E2E2E2E2E2E2E2E2E2E2E2E2E2E2F5E2E2E2E2E2E2E2E2E2E2E2E2E2E2E2E2E2E2E2E2E2E2E2E2E2E2E2E2E2DCE2E2E2E2E2E2E2E2E2E2E2E2E2E2E2E2E2E2E2E2E2E2E2E2E2E2E2E2E2E2E2E2E2E2E2E2E2E2E2E2E2E2E2E2E2E2E2E2E2E2E2E2E2E2E2E2E2E2E2E2E2E2E2E2E2E2E2E2E2E2E2
310
E2E2E2DCE2E2E2E2E2E2E2E2E2E2E2E2E2E2E2E2E2E2E2E2E2E2E2E2E2E2E2E2E2F5E2E2E2E2E2E2E2E2E2E2E2E2E2E2E2E2F5E2E2E2F5F5EFF5E2E2E2F5E2E2E2E2E2E2E2E2E2E2E2E2E2E2E2E2F5E2E2E2E2E2E2E2E2E2E2E2E2E2E2E2E2E2E2E2E2E2E2E2E2E2E2E2E2E2DCE2E2E2E2E2E2E2E2E2E2E2E2E2E2E2E2E2E2
310
E2E2E2E2E2E2E2E2E2E2E2E2E2E2E2E2E2E2E2E2E2E2E2E2E2E2E2E2E2E2E2E2E2E2E2E2E2E2E2E2E2E2E2E2E2E2E2E2E2E2E2E2E2E2E2E2DCE2E2E2E2E2E2E2E2E2E2E2E2E2E2E2E2E2E2E2E2E2E2E2E2E2E2E2E2E2F5E2E2E2E2E2E2E2E2E2E2E2E2E2E2E2E2F5E2E2E2F5F5EFF5E2E2E2F5E2E2E2E2E2E2E2E2E2E2E2E2
310
E2E2E2E2F5E2E2E2E2E2E2E2E2E2E2E2E2E2E2E2E2E2E2E2E2E2E2E2E2E2E2E2E2E2DCE2E2E2E2E2E2E2E2E2E2E2E2E2E2E2E2E2E2E2E2E2E2E2E2E2E2E2E2E2E2E2E2E2E2E2E2E2E2E2E2E2E2E2E2E2E2E2E2E2E2E2E2E2E2E2E2E2E2E2E2E2E2E2E2E2E2E2E2E2E2E2E2E2E2DCE2E2E2E2E2E2E2E2E2E2E2E2E2E2E2E2E2
310
E2E2E2E2E2E2E2E2E2E2E2E2F5E2E2E2E2E2E2E2E2E2E2E2E2E2E2E2E2F5E2E2E2F5F5EFF5E2E2E2F5E2E2E2E2E2E2E2E2E2E2E2E2E2E2E2E2F5E2E2E2E2E2E2E2E2E2E2E2E2E2E2E2E2E2E2E2E2E2E2E2E2E2E2E2E2E2DCE2E2E2E2E2E2E2E2E2E2E2E2E2E2E2E2E2E2E2E2E2E2E2E2E2E2E2E2E2E2E2E2E2E2E2E2E2E2E2
310
E2E2E2E2E2E2E2E2E2E2E2E2E2E2E2E2E2E2E2E2E2E2E2E2E2E2E2E2E2E2E2E2E2E2E2DCE2E2E2E2E2E2E2E2E2E2E2E2E2E2E2E2E2E2E2E2E2E2E2E2E2E2E2E2E2F5E2E2E2E2E2E2E2E2E2E2E2E2E2E2E2E2F5E2E2E2F5F5EFF5E2E2E2F5E2E2E2E2E2E2E2E2E2E2E2E2E2E2E2E2F5E2E2E2E2E2E2E2E2E2E2E2E2E2E2E2E2
310
E2E2E2E2E2E2E2E2E2E2E2E2E2DCE2E2E2E2E2E2E2E2E2E2E2E2E2E2E2E2E2E2E2E2E2E2E2E2E2E2E2E2E2E2E2E2E2E2E2E2E2E2E2E2E2E2E2E2E2E2E2E2E2E2E2E2E2E2E2E2E2E2E2E2E2E2E2E2E2E2E2E2E2E2E2E2E2E2DCE2E2E2E2E2E2E2E2E2E2E2E2E2E2E2E2E2E2E2E2E2E2E2E2E2E2E2E2E2F5E2E2E2E2E2E2E2E2
310
E2E2E2E2E2E2E2E2F5E2E2E2F5F5EFF5E2E2E2F5E2E2E2E2E2E2E2E2E2E2E2E2E2E2E2E2F5E2E2E2E2E2E2E2E2E2E2E2E2E2E2E2E2E2E2E2E2E2E2E2E2E2E2E2E2E2DCE2E2E2E2E2E2E2E2E2E2E2E2E2E2E2E2E2E2E2E2E2E2E2E2E2E2E2E2E2E2E2E2E2E2E2E2E2E2E2E2E2E2E2E2E2E2E2E2E2E2E2E2E2E2E2E2E2E2E2E2
310
E2E2E2E2E2E2E2E2E2E2E2E2E2E2DCE2E2E2E2E2E2E2E2E2E2E2E2E2E2E2E2E2E2E2E2E2E2E2E2E2E2E2E2E2F5E2E2E2E2E2E2E2E2E2E2E2E2E2E2E2E2F5E2E2E2F5F5EFF5E2E2E2F5E2E2E2E2E2E2E2E2E2E2E2E2E2E2E2E2F5E2E2E2E2E2E2E2E2E2E2E2E2E2E2E2E2E2E2E2E2E2E2E2E2E2E2E2E2E2DCE2E2E2E2E2E2E2
310
E2E2E2E22727272727272727272727272727272727272727272727272727272727272727272727272727272727272727272727E2E2E2E2E2E2E2E2E2E2E2E2E2E2E2E2DCE2E2E2E2E2E2E2E2E2E2E2E2E2E2E2E2E2E2E2E2E2E2E2E2E2E2E2E2E2F5E2E2E2E2E2E2E2E2E2E2E2E2E2E2E2E2F5E2E2E2F5F5EFF5E2E2E2F5E2
310
E2E2E2E2E2E2E2E2E2E2E2E2E2E2E2F5E2E2E2E2E2E2E2E2E2E2E2E2E2E2E2E2E2E2E2E2E2E2E2E2E2E2E2E2E2DCE2E2E2E2E2E2E2E2E2E2E2E2E2E2E2E2E2E2E2E2E2E2E2E2E2E2E2E2E2E2E2E2E2E2E2E2E2E2E2E2E2E2E2E2E2E2E2E2E2E2E2E2E2E2E2E2E2E2E2E2E2E2E2E2E2E2E2E2E2E2E2E2E2E2DCE2E2E2E2E2E2
310
E2E2E2E2E2E2E2E2E2E2E2E2E2E2E2E2E2E2E2E2E2E2E2F5E2E2E2E2E2E2E2E2E2E2E2E2E2E2E2E2F5E2E2E2F5F5EFF5E2E2E2F5E2E2E2E2E2E2E2E2E2E2E2E2E2E2E2E2F5E2E2E2E2E2E2E2E2E2E2E2E2E2E2E2E2E2E2E2E2E2E2E2E2E2E2E2E2E2DCE2E2E2E2E2E2E2E2E2E2272727272727272727272727272727E2E2E2
310
E2E2E2E2E2E2E2E2E2E2E2E2E2E2E2E2E2E2E2E2E2E2E2E2E2E2E2E2E2E2E2E2E2E2E2E2E2E2E2E2E2E2E2E2E2E2DCE2E2E2E2E2E2E2E2E2E2E2E2E2E2E2E2E2E2E2E2E2E2E2E2E2E2E2E2E2F5E2E2E2E2E2E2E2E2E2E2E2E2E2E2E2E2F5E2E2E2F5F5EFF5E2E2E2E2E2E2E2E2E2E2E2E2E2E2E2E2E2E2E2E2F5E2E2E2E2E2
310
E2E2E2E2E2E2E2E2E2E2E2E2E2E2E2E2E2E2E2E2E2E2E2E2DCE2E2E2E2E2E2E2E2E2E2272727272727272727272727272727E2E2E2E2E2E2E2E2E2E2E2E2E2E2E2E2E2E2E2E2E2E2E2E2E2E2E2E2E2E2E2E2E2E2E2E2E2E2E2E2E2E2E2E2E2E2E2E2E2DCE2E2E2E2E2E2E2E2E2E2E2E2E2E2E2E2E2E2E2E2E2E2E2E2E2E2E2
310
E2E2F5E2E2E2E2E2E2E2E2E2E2E2E2E2E2E2E2E2E2E2E2F5F5EFF5E2E2E2E2E2E2E2E2E2E2E2E2E2E2E2E2E2E2E2E2F5E2E2E2E2E2E2E2E2E2E2E2E2E2E2E2E2E2E2E2E2E2E2E2E2E2E2E2E2E2DCE2E2E2E2E2E2E2E2E2E2E2E2E2E2E2E2E2E2E2E2E2E2E2E2E2E2E2E2E2E2E2E2E2E2E2E2E2E2E2E2E2E2E2E2E2E2E2E2E2
310
E2E2E2E2E2E2E2E2E2E2E2E2E2E2E2E2E2E2E2E2E2E2E2E2E2DCE2E2E2E2E2E2E2E2E2E2E2E2E2E2E2E2E2E2E2E2E2E2E2E2E2E2E2E2E2F5E2E2E2E2E2E2E2E2E2E2E2E2E2E2E2E2E2E2E2E2F5F5EFF5E2E2E2E2E2E2E2E2E2E2E2E2E2E2E2E2E2E2E2E2F5E2E2E2E2E2E2E2E2E2E2E2E2E2E2E2E2E2E2E2E2E2E2E2E2E2E2
310
E2E2E2DCE2E2E2E2E2E2E2E2E2E2E2E2E2E2E2E2E2E2E2E2E2E2E2E2E2E2E2E2E2E2E2E2E2E2E2E2E2E2E2E2E2E2E2E2E2E2E2E2E2E2E2E2E2E2E2E2E2E2E2E2E2E2E2E2E2E2E2E2E2E2E2E2E2E2DCE2E2E2E2E2E2E2E2E2E2E2E2E2E2E2E2E2E2E2E2E2E2E2E2E2E2E2E2E2F5E2E2E2E2E2E2E2E2E2E2E2E2E2E2E2E2E2E2
310
E2E2F5F5EFF5E2E2E2E2E2E2E2E2E2E2E2E2E2E2E2E2E2E2E2E2F5E2E2E2E2E2E2E2E2E2E2E2E2E2E2E2E2E2E2E2E2E2E2E2E2E2E2E2E2E2DCE2E2E2E2E2E2E2E2E2E2E2E2E2E2E2E2E2E2E2E2E2E2E2E2E2E2E2E2E2E2E2E2E2E2E2E2E2E2E2E2E2E2E2E2E2E2E2E2E2E2E2E2E2E2E2E2E2E2E2E2E2E2E2E2E2E2E2E2E2E2
310
E2E2E2E2DCE2E2E2E2E2E2E2E2E2E2E2E2E2E2E2E2E2E2E2E2E2E2E2E2E2E2E2E2E2F5E2E2E2E2E2E2E2E2E2E2E2E2E2E2E2E2E2E2E2E2F5F5EFF5E2E2E2E2E2E2E2E2E2E2E2E2E2E2E2E2E2E2E2E2F5F5F5F5F5F5F5F5F5F5F5F5F5F5F5F5F5F5F5F5F5F5F5F5F5F5F5F5F5F5F5F5F5F5F5F5F5F5F5F5F5F5F5F5F5F5F5F5
310
F5F5F5F5F5F5F5F5F5F5F5F5F5F5F5F5F5F5F5F5F5F5F5F5F5F5F5F5F5F5F5F5F5F5F5F5F5F5F5F5F5F5F5F5F5F5F5F5F5F5F5F5F5F5F5F5F5F5F5F5F5F5F5F5F5F5F5F5F5F5F5F5F5F5F5F5F5F5F5F5F5F5F5F5F5F5F5F5E2E2E2E2E2E2E2E2E2E2E2E2E2E2E2E2E2E2E2E2F5F5EFF5E2E2E2E2E2E2E2E2E2E2E2E2E2E2E2
310
E2E2E2E2E2E2E2E2E2E2E2E2E2E2E2E2E2E2E2E2E2E2E2E2E2E2E2E2E2E2E2E2E2E2E2E2E2E2E2E2E2E2E2E2E2E2E2E2E2E2E2E2E2E2E2E2E2E2E2E2E2E2E2E2E2E2E2E2E2E2E2E2E2E2E2E2E2E2E2E2E2E2E2E2E2E2E2E2E2E2E2E2E2E2E2E2E2E2E2E2E2E2E2E2E2E2E2E2E2E2E2E2E2E2E2E2E2E2E2E2E2E2E2E2E2E2E2
310
E2E2E2E2E2E2E2E2E2E2E2E2E2E2E2E2E2E2E2E2E2E2E2E2E2E2E2E2E2E2E2E2E2E2F5F5EFF5E2E2E2E2E2E2E2E2E2E2E2E2E2E2E2E2E2E2E2E2E2E2E2E2E2E2E2E2E2E2E2E2E2E2E2E2E2E2E2E2E2E2E2E2E2E2E2E2E2E2E2E2E2E2E2E2E2E2E2E2E2E2E2E2E2E2E2E2E2E2E2E2E2E2E2E2E2E2E2E2E2E2E2E2E2E2E2E2E2
310
E2E2E2E2E2E2E2E2E2E2E2E2E2E2E2E2E2E2E2E2E2E2E2E2E2E2E2E2E2E2E2E2E2E2E2E2E2E2E2E2E2E2E2E2E2E2E2E2E2E2E2E2E2E2E2E2E2E2E2E2E2E2E2E2E2E2E2E2E2E2E2E2E2E2E2E2E2E2E2E2E2E2E2E2E2E2E2F5F5EFF5E2E2E2E2E2E2E2E2E2E2E2E2E2E2E2E2E2E2E2E2E2E2E2E2E2E2E2E2E2E2E2E2E2E2E2E2
310
E2E2E2E2E2E2E2E2E2E2E2E2E2E2E2E2E2E2E2E2E2E2E2E2E2E2E2E2E2E2E2E2E2E2E2E2E2E2E2E2E2E2E2E2E2E2E2E2E2E2E2E2E2E2E2E2E2E2E2E2E2E2E2E2E2E2E2E2E2E2E2E2E2E2E2E2E2E2E2E2E2E2E2E2E2E2E2E2E2E2E2E2E2E2E2E2E2E2E2E2E2E2E2E2E2E2E2E2E2E2E2E2E2E2E2E2E2E2E2E2E2E2E2E2E2E2E2
310
E2E2E2E2E2E2E2E2E2E2E2E2E2F5F5EFF5E2E2E2E2E2E2E2E2E2E2E2E2E2E2E2E2E2E2E2E2E2E2E2E2E2E2E2E2E2E2E2E2E2E2E2E2E2E2E2E2E2E2E2E2E2E2E2E2E2E2E2E2E2E2E2E2E2E2E2E2E2E2E2E2E2E2E2E2E2E2E2E2E2E2E2E2E2E2E2E2E2E2E2E2E2E2E2E2E2E2E2E2E2E2E2E2E2E2E2E2E2E2E2E2E2E2E2E2E2E2
310
E2E2E2E2E2E2E2E2E2E2E2E2E2E2E2E2E2E2E2E2E2E2E2E2E2E2E2E2E2E2E2E2E2E2E2E2E2E2E2E2E2E2E2E2E2E2E2E2E2E2E2E2E2E2E2E2E2E2E2E2E2E2E2E2E2E2F5F5EFF5E2E2E2F5E2E2E2E2E2E2E2E2E2E2E2E2E2E2E2E2E2E2E2E2E2E2E2E2E2E2E2E2E2E2E2E2E2E2E2E2E2E2E2E2E2E2E2E2E2E2E2E2E2E2E2E2E2
310
E2E2E2E2E2E2E2E2E2E2E2E2E2E2E2E2E2E2E2E2E2E2E2E2E2E2E2E2E2E2E2E2E2E2E2E2E2E2E2E2E2E2E2E2E2E2E2E2E2E2E2E2E2E2E2E2E2E2E2E2E2E2E2E2E2E2E2E2E2E2E2E2E2E2E2E2E2E2E2E2E2E2E2E2E2E2E2E2E2E2E2E2E2E2E2E2E2E2E2E2E2E2E2E2E2E2E2E2E2E2E2E2E2E2E2F5E2E2E2F5F5EFF5E2E2E2F5
310
E2E2E2E2E2E2E2E2E2E2E2E2E2E2E2E2E2E2E2E2E2E2E2E2E2E2E2E2E2E2E2E2E2E2E2E2E2E2E2E2E2E2E2E2E2E2E2E2E2E2E2E2E2E2E2E2E2E2E2E2E2E2E2E2E2E2E2E2E2E2E2E2E2E2E2E2E2E2E2E2E2E2E2E2E2E2E2E2E2E2E2E2E2E2E2E2E2E2E2E2E2E2E2E2E2E2E2E2E2E2E2E2E2E2E2E2E2E2E2E2E2E2E2E2E2E2E2
310
E2E2E2E2E2E2E2E2E2E2E2E2E2E2E2E2E2E2E2E2E2E2E2E2E2E2E2E2E2E2E2E2E2E2E2E2E2E2E2E2E2F5E2E2E2F5F5EFF5E2E2E2F5E2E2E2E2E2E2E2E2E2E2E2E2E2E2E2E2E2E2E2E2E2E2E2E2E2E2E2E2E2E2E2E2E2E2E2E2E2E2E2E2E2E2E2E2E2E2E2E2E2E2E2E2E2E2E2E2E2E2E2E2E2E2E2E2E2E2E2E2E2E2E2E2E2E2
310
E2E2E2E2E2E2E2E2E2E2E2E2E2E2E2E2E2E2E2E2E2E2E2E2E2E2E2E2E2E2E2E2E2E2E2E2E2E2E2E2E2E2E2E2E2E2E2E2E2E2E2E2E2E2E2E2E2E2E2E2E2E2E2E2E2E2E2E2E2E2E2E2E2E2E2E2E2E2E2E2E2E2E2E2E2E2E2E2E2E2E2E2E2E2F5E2E2E2F5F5EFF5E2E2E2F5E2E2E2E2E2E2E2E2E2E2E2E2E2E2E2E2E2E2E2E2E2
310
E2E2E2E2E2E2E2E2E2E2E2E2E2E2E2E2E2E2E2E2E2E2E2E2E2E2E2E2E2E2E2E2E2E2E2E2E2E2E2E2E2E2E2E2E2E2E2E2E2E2E2E2E2E2E2E2E2E2E2E2E2E2E2E2E2E2E2E2E2E2E2E2E2E2E2E2E2E2E2E2E2E2E2E2E2E2E2E2E2E2E2E2E2E2E2E2E2E2E2E2E2E2E2E2E2E2E2E2E2E2E2E2E2E2E2E2E2E2E2E2E2E2E2E2E2E2E2
310
E2E2E2E2E2E2E2E2E2E2E2E2E2E2E2E2E2E2E2E2F5E2E2E2F5F5EFF5E2E2E2F5E2E2E2E2E2E2E2E2E2E2E2E2E2E2E2E2E2E2E2E2E2E2E2E2E2E2E2E2E2E2E2E2E2E2E2E2E2E2E2E2E2E2E2E2E2E2E2E2E2E2E2E2E2E2E2E2E2E2E2E2E2E2E2E2E2E2E2E2E2E2E2E2E2E2E2E2E2E2E2E2E2E2E2E2E2E2E2E2E2E2E2E2E2E2E2
310
E2E2E2E2E2E2E2E2E2E2E2E2E2E2E2E2E2E2E2E2E2E2E2E2E2E2E2E2E2E2E2E2E2E2E2E2E2E2E2E2E2E2E2E2E2E2E2E2E2E2E2E2E2E2E2E2E2E2E2E2E2E2E2E2E2E2E2E2E2E2E2E2E2F5E2E2E2F5F5EFF5E2E2E2F5E2E2E2E2E2E2E2E2E2E2E2E2E2E2E2E2E2E2E2E2E2E2E2E2E2E2E2E2E2E2E2E2E2E2E2E2E2E2E2E2E2E2
310
E2E2E2E2E2E2E2E2E2E2E2E2E2E2E2E2E2E2E2E2E2E2E2E2E2E2E2E2E2E2E2E2E2E2E2E2E2E2E2E2E2E2E2E2E2E2E2E2E2E2E2E2E2E2E2E2E2E2E2E2E2E2E2E2E2E2E2E2E2E2E2E2E2E2E2E2E2E2E2E2E2E2E2E2E2E2E2E2E2E2E2E2E2E2E2E2E2E2E2E2E2E2E2E2E2E2E2E2E2E2E2E2E2E2E2E2E2E2E2E2E2E2E2E2E2E2F5
310
E2E2E2F5F5EFF5E2E2E2F5E2E2E2E2E2E2E2E2E2E2E2E2E2E2E2E2E2E2E2E2E2E2E2E2E2E2E2E2E2E2E2E2E2E2E2E2E2E2E2E2E2E2E2E2E2E2E2E2E2E2E2E2E2E2E2E2E2E2E2E2E2E2E2E2E2E2E2E2E2E2E2E2E2E2E2E2E2E2E2E2E2E2E2E2E2E2E2E2E2E2E2E2E2E2E2E2E2E2E2E2E2E2E2E2E2E2E2E2E2E2E2E2E2E2E2E2
310
E2E2E2E2E2E2E2E2E2E2E2E2E2E2E2E2E2E2E2E2E2E2E2E2E2E2E2E2E2E2E2E2E2E2E2E2E2E2E2E2E2E2E2E2E2E2E2E2E2E2E2E2F5E2E2E2F5F5EFF5E2E2E2F5E2E2E2E2E2E2E2E2E2E2E2E2E2E2E2E2E2E2E2E2E2E2E2E2E2E2E2E2E2E2E2E2E2E2E2E2E2E2E2E2E2E2E2E2E2E2E2E2E2E2E2E2E2E2E2E2E2E2E2E2E2E2E2
310
E2E2E2E2E2E2E2E2E2E2E2E2E2E2E2E2E2E2E2E2E2E2E2E2E2E2E2E2E2E2E2E2E2E2E2E2E2E2E2E2E2E2E2E2E2E2E2E2E2E2E2E2E2E2E2E2E2E2E2E2E2E2E2E2E2E2E2E2E2E2E2E2E2E2E2E2E2E2E2E2E2E2E2E2E2E2E2E2E2E2E2E2E2E2E2E2E2E2E2E2E2E2E2E2E2F5E2E2E2F5F5EFF5E2E2E2F5F5F5F5F5F5F5F5E2E2E2
310
E2E2E2E2E2E2F5F5F5F5F5F5F5F5F5F5F5F5F5F5F5E2E2E2E2E2E2E2E2E2F5F5F5F5F5F5F5F5F5F5F5F5F5F5F5F5E2E2E2E2E2E2E2E2F5F5F5F5F5F5F5F5F5F5F5F5F5F5F5F5E2E2E2E2E2E2E2E2F5F5F5F5F5F5F5F5F5F5F5F5F5F5F5F5E2E2E2E2E2E2E2E2F5F5F5F5F5F5F5F5F5F5F5F5F5F5F5F5E2E2E2E2E2E2E2E2E2
310
F5F5F5F5F5F5F5F5F5F5F5F5F5F5F5E2E2E2E2E2E2E2E2E2F5F5F5F5F5F5F5F5E2E2E2F5F5EFF5E2E2E2E2E2E2E2E2E2E2E2E2E2E2E2E2E2E2E2E2E2E2E2E2E2E2E2E2E2E2E2E2E2E2E2E2E2E2E2E2E2E2E2E2E2E2E2E2E2E2E2E2E2E2E2E2E2E2E2E2E2E2E2E2E2E2E2E2E2E2E2E2E2E2E2E2E2E2E2E2E2E2E2E2E2E2E2E2
310
E2E2E2E2E2E2E2E2E2E2E2E2E2E2E2E2E2E2E2E2E2E2E2E2E2E2E2E2E2E2E2E2E2E2E2E2E2E2E2E2E2E2E2E2E2E2E2E2E2E2E2E2E2E2E2E2E2E2E2E2E2E2E2E2E2E2E2E2E2E2E2E2E2E2E2E2E2E2E2E2E2E2E2E2E2E2E2E2F5F5EFF5E2E2E2E2E2E2E2E2E2E2E2E2E2E2E2E2E2E2E2E2E2E2E2E2E2E2E2E2E2E2E2E2E2E2E2
310
E2E2E2E2E2E2E2E2E2E2E2E2E2E2E2E2E2E2E2E2E2E2E2E2E2E2E2E2E2E2E2E2E2E2E2E2E2E2E2E2E2E2E2E2E2E2E2E2E2E2E2E2E2E2E2E2E2E2E2E2E2E2E2E2E2E2E2E2E2E2E2E2E2E2E2E2E2E2E2E2E2E2E2E2E2E2E2E2E2E2E2E2E2E2E2E2E2E2E2E2E2E2E2E2E2E2E2E2E2E2E2E2E2E2E2E2E2E2E2E2E2E2E2E2E2E2E2
310
E2E2E2E2E2E2E2E2E2E2E2E2E2E2F5EFEFF5E2E2E2E2E2E2E2E2E2E2E2E2E2E2E2E2E2E2E2E2E2E2E2E2E2E2E2E2E2E2E2E2E2E2E2E2E2E2E2E2E2E2E2E2E2E2E2E2E2E2E2E2E2E2E2E2E2E2E2E2E2E2E2E2E2E2E2E2E2E2E2E2E2E2E2E2E2E2E2E2E2E2E2E2E2E2E2E2E2E2E2E2E2E2E2E2E2E2E2E2E2E2E2E2E2E2E2E2E2
310
E2E2E2E2E2E2E2E2E2E2E2E2E2E2E2E2E2E2E2E2E2E2E2E2E2E2E2E2E2E2E2E2E2E2E2E2E2E2E2E2E2E2E2E2E2E2E2E2E2E2E2E2E2E2E2E2E2E2E2E2E2E2E2E2E2E2E2F5EFEFF5F5F5F5F5F5F5F5F5F5F5F5F5F5F5F5F5F5F5F5F5F5F5F5F5F5F5F5F5F5F5F5F5F5F5F5F5F5F5F5F5F5F5F5F5F5F5F5F5F5F5F5F5F5F5F5F5
310
F5F5F5F5F5F5F5F5F5F5F5F5F5F5F5F5F5F5F5F5F5F5F5F5F5F5F5F5F5F5F5F5F5F5F5F5F5F5F5F5F5F5F5F5F5F5F5F5F5F5F5F5F5F5F5F5F5F5F5F5F5F5F5F5F5F5F5F5F5F5F5F5F5F5F5F5F5F5F5F5F5F5F5F5F5F5F5F5F5F5F5F5F5F5F5F5F5F5F5F5F5F5F5F5F5F5F5F5F5F5F5F5F5F5F5F5F5F5F5F5F5EFEF
  0
XRECORD
  5
2C8
102
{ACAD_REACTORS
330
2C7
102
}
330
2C7
100
AcDbXrecord
280
     1
102
SHADEPLOT
 70
     1
102
SHADEPLOTRESLEVEL
 70
     2
102
SHADEPLOTCUSTOMDPI
 70
   300
  0
XRECORD
  5
2D1
102
{ACAD_REACTORS
330
2D0
102
}
330
2D0
100
AcDbXrecord
280
     1
102
MATERIAL
148
0.0
149
0.0
149
0.0
 93
        0
 94
       63
282
     0
 72
     1
 77
     1
171
     1
175
     1
179
     1
273
     0
  0
XRECORD
  5
2CF
102
{ACAD_REACTORS
330
2CE
102
}
330
2CE
100
AcDbXrecord
280
     1
102
MATERIAL
148
0.0
149
0.0
149
0.0
 93
        0
 94
       63
282
     0
 72
     1
 77
     1
171
     1
175
     1
179
     1
273
     0
  0
XRECORD
  5
2C2
102
{ACAD_REACTORS
330
2C1
102
}
330
2C1
100
AcDbXrecord
280
     1
102
MATERIAL
148
0.0
149
0.0
149
0.0
 93
        0
 94
       63
282
     0
 72
     1
 77
     1
171
     1
175
     1
179
     1
273
     0
  0
CELLSTYLEMAP
  5
2BE
102
{ACAD_REACTORS
330
263
102
}
330
263
100
AcDbCellStyleMap
 90
        3
300
CELLSTYLE
  1
TABLEFORMAT_BEGIN
 90
        5
170
     1
 91
        0
 92
    32768
 62
   257
 93
        1
300
CONTENTFORMAT
  1
CONTENTFORMAT_BEGIN
 90
        0
 91
        0
 92
        4
 93
        0
300

 40
0.0
140
1.0
 94
        5
 62
     0
340
24B
144
0.25
309
CONTENTFORMAT_END
171
     0
 94
        6
 95
        1
302
GRIDFORMAT
  1
GRIDFORMAT_BEGIN
 90
        0
 91
        1
 62
     0
 92
       -2
340
0
 93
        0
 40
0.045
309
GRIDFORMAT_END
 95
        2
302
GRIDFORMAT
  1
GRIDFORMAT_BEGIN
 90
        0
 91
        1
 62
     0
 92
       -2
340
0
 93
        0
 40
0.045
309
GRIDFORMAT_END
 95
        4
302
GRIDFORMAT
  1
GRIDFORMAT_BEGIN
 90
        0
 91
        1
 62
     0
 92
       -2
340
0
 93
        0
 40
0.045
309
GRIDFORMAT_END
 95
        8
302
GRIDFORMAT
  1
GRIDFORMAT_BEGIN
 90
        0
 91
        1
 62
     0
 92
       -2
340
0
 93
        0
 40
0.045
309
GRIDFORMAT_END
 95
       16
302
GRIDFORMAT
  1
GRIDFORMAT_BEGIN
 90
        0
 91
        1
 62
     0
 92
       -2
340
0
 93
        0
 40
0.045
309
GRIDFORMAT_END
 95
       32
302
GRIDFORMAT
  1
GRIDFORMAT_BEGIN
 90
        0
 91
        1
 62
     0
 92
       -2
340
0
 93
        0
 40
0.045
309
GRIDFORMAT_END
309
TABLEFORMAT_END
  1
CELLSTYLE_BEGIN
 90
        1
 91
        1
300
_TITLE
309
CELLSTYLE_END
300
CELLSTYLE
  1
TABLEFORMAT_BEGIN
 90
        5
170
     1
 91
        0
 92
        0
 62
   257
 93
        1
300
CONTENTFORMAT
  1
CONTENTFORMAT_BEGIN
 90
        0
 91
        0
 92
        4
 93
        0
300

 40
0.0
140
1.0
 94
        5
 62
     0
340
24B
144
0.18
309
CONTENTFORMAT_END
171
     0
 94
        6
 95
        1
302
GRIDFORMAT
  1
GRIDFORMAT_BEGIN
 90
        0
 91
        1
 62
     0
 92
       -2
340
0
 93
        0
 40
0.045
309
GRIDFORMAT_END
 95
        2
302
GRIDFORMAT
  1
GRIDFORMAT_BEGIN
 90
        0
 91
        1
 62
     0
 92
       -2
340
0
 93
        0
 40
0.045
309
GRIDFORMAT_END
 95
        4
302
GRIDFORMAT
  1
GRIDFORMAT_BEGIN
 90
        0
 91
        1
 62
     0
 92
       -2
340
0
 93
        0
 40
0.045
309
GRIDFORMAT_END
 95
        8
302
GRIDFORMAT
  1
GRIDFORMAT_BEGIN
 90
        0
 91
        1
 62
     0
 92
       -2
340
0
 93
        0
 40
0.045
309
GRIDFORMAT_END
 95
       16
302
GRIDFORMAT
  1
GRIDFORMAT_BEGIN
 90
        0
 91
        1
 62
     0
 92
       -2
340
0
 93
        0
 40
0.045
309
GRIDFORMAT_END
 95
       32
302
GRIDFORMAT
  1
GRIDFORMAT_BEGIN
 90
        0
 91
        1
 62
     0
 92
       -2
340
0
 93
        0
 40
0.045
309
GRIDFORMAT_END
309
TABLEFORMAT_END
  1
CELLSTYLE_BEGIN
 90
        2
 91
        1
300
_HEADER
309
CELLSTYLE_END
300
CELLSTYLE
  1
TABLEFORMAT_BEGIN
 90
        5
170
     1
 91
        0
 92
        0
 62
   257
 93
        1
300
CONTENTFORMAT
  1
CONTENTFORMAT_BEGIN
 90
        0
 91
        0
 92
        4
 93
        0
300

 40
0.0
140
1.0
 94
        2
 62
     0
340
24B
144
0.18
309
CONTENTFORMAT_END
171
     0
 94
        6
 95
        1
302
GRIDFORMAT
  1
GRIDFORMAT_BEGIN
 90
        0
 91
        1
 62
     0
 92
       -2
340
0
 93
        0
 40
0.045
309
GRIDFORMAT_END
 95
        2
302
GRIDFORMAT
  1
GRIDFORMAT_BEGIN
 90
        0
 91
        1
 62
     0
 92
       -2
340
0
 93
        0
 40
0.045
309
GRIDFORMAT_END
 95
        4
302
GRIDFORMAT
  1
GRIDFORMAT_BEGIN
 90
        0
 91
        1
 62
     0
 92
       -2
340
0
 93
        0
 40
0.045
309
GRIDFORMAT_END
 95
        8
302
GRIDFORMAT
  1
GRIDFORMAT_BEGIN
 90
        0
 91
        1
 62
     0
 92
       -2
340
0
 93
        0
 40
0.045
309
GRIDFORMAT_END
 95
       16
302
GRIDFORMAT
  1
GRIDFORMAT_BEGIN
 90
        0
 91
        1
 62
     0
 92
       -2
340
0
 93
        0
 40
0.045
309
GRIDFORMAT_END
 95
       32
302
GRIDFORMAT
  1
GRIDFORMAT_BEGIN
 90
        0
 91
        1
 62
     0
 92
       -2
340
0
 93
        0
 40
0.045
309
GRIDFORMAT_END
309
TABLEFORMAT_END
  1
CELLSTYLE_BEGIN
 90
        3
 91
        2
300
_DATA
309
CELLSTYLE_END
  0
XRECORD
  5
2D2
102
{ACAD_REACTORS
330
263
102
}
330
263
100
AcDbXrecord
280
     1
102
ACAD_ROUNDTRIP_PRE2007_TABLESTYLE
 90
        4
 91
        0
  1

 92
        4
 93
        0
  2

 94
        4
 95
        0
  3

  0
ENDSEC
  0
EOF
