  0
SECTION
  2
HEADER
  9
$ACADVER
  1
AC1015
  9
$ACADMAINTVER
 70
    20
  9
$DWGCODEPAGE
  3
ANSI_1250
  9
$INSBASE
 10
0.0
 20
0.0
 30
0.0
  9
$EXTMIN
 10
-10549.62722241004
 20
-14028.24955202608
 30
-0.0000000349181948
  9
$EXTMAX
 10
-345.4729724338104
 20
-1.615876876487163
 30
0.0000000814935746
  9
$LIMMIN
 10
0.0
 20
0.0
  9
$LIMMAX
 10
53600.0
 20
41400.0
  9
$ORTHOMODE
 70
     0
  9
$REGENMODE
 70
     1
  9
$FILLMODE
 70
     1
  9
$QTEXTMODE
 70
     0
  9
$MIRRTEXT
 70
     0
  9
$LTSCALE
 40
50.0
  9
$ATTMODE
 70
     1
  9
$TEXTSIZE
 40
0.3
  9
$TRACEWID
 40
0.5
  9
$TEXTSTYLE
  7
RomanS
  9
$CLAYER
  8
0Wymiary-PL
  9
$CELTYPE
  6
ByLayer
  9
$CECOLOR
 62
   256
  9
$CELTSCALE
 40
1.0
  9
$DISPSILH
 70
     1
  9
$DIMSCALE
 40
1.0
  9
$DIMASZ
 40
30.0
  9
$DIMEXO
 40
43.0
  9
$DIMDLI
 40
0.0
  9
$DIMRND
 40
0.5
  9
$DIMDLE
 40
12.0
  9
$DIMEXE
 40
13.0
  9
$DIMTP
 40
0.0
  9
$DIMTM
 40
0.0
  9
$DIMTXT
 40
80.0
  9
$DIMCEN
 40
0.0
  9
$DIMTSZ
 40
0.0
  9
$DIMTOL
 70
     0
  9
$DIMLIM
 70
     0
  9
$DIMTIH
 70
     0
  9
$DIMTOH
 70
     0
  9
$DIMSE1
 70
     1
  9
$DIMSE2
 70
     1
  9
$DIMTAD
 70
     0
  9
$DIMZIN
 70
    12
  9
$DIMBLK
  1
B-DIM
  9
$DIMASO
 70
     1
  9
$DIMSHO
 70
     1
  9
$DIMPOST
  1

  9
$DIMAPOST
  1

  9
$DIMALT
 70
     0
  9
$DIMALTD
 70
     2
  9
$DIMALTF
 40
25.4
  9
$DIMLFAC
 40
1.0
  9
$DIMTOFL
 70
     1
  9
$DIMTVP
 40
1.0
  9
$DIMTIX
 70
     1
  9
$DIMSOXD
 70
     0
  9
$DIMSAH
 70
     0
  9
$DIMBLK1
  1

  9
$DIMBLK2
  1

  9
$DIMSTYLE
  2
500
  9
$DIMCLRD
 70
     1
  9
$DIMCLRE
 70
     1
  9
$DIMCLRT
 70
    10
  9
$DIMTFAC
 40
1.0
  9
$DIMGAP
 40
0.0
  9
$DIMJUST
 70
     0
  9
$DIMSD1
 70
     0
  9
$DIMSD2
 70
     0
  9
$DIMTOLJ
 70
     1
  9
$DIMTZIN
 70
     0
  9
$DIMALTZ
 70
     0
  9
$DIMALTTZ
 70
     0
  9
$DIMUPT
 70
     0
  9
$DIMDEC
 70
     1
  9
$DIMTDEC
 70
     1
  9
$DIMALTU
 70
     2
  9
$DIMALTTD
 70
     2
  9
$DIMTXSTY
  7
RomanS
  9
$DIMAUNIT
 70
     0
  9
$DIMADEC
 70
     0
  9
$DIMALTRND
 40
0.0
  9
$DIMAZIN
 70
     0
  9
$DIMDSEP
 70
    46
  9
$DIMATFIT
 70
     3
  9
$DIMFRAC
 70
     0
  9
$DIMLDRBLK
  1
B-DIM
  9
$DIMLUNIT
 70
     2
  9
$DIMLWD
 70
    -2
  9
$DIMLWE
 70
    -2
  9
$DIMTMOVE
 70
     2
  9
$LUNITS
 70
     2
  9
$LUPREC
 70
     2
  9
$SKETCHINC
 40
1.0
  9
$FILLETRAD
 40
0.0
  9
$AUNITS
 70
     0
  9
$AUPREC
 70
     2
  9
$MENU
  1
.
  9
$ELEVATION
 40
0.0
  9
$PELEVATION
 40
0.0
  9
$THICKNESS
 40
0.0
  9
$LIMCHECK
 70
     0
  9
$CHAMFERA
 40
30.0
  9
$CHAMFERB
 40
30.0
  9
$CHAMFERC
 40
0.0
  9
$CHAMFERD
 40
0.0
  9
$SKPOLY
 70
     0
  9
$TDCREATE
 40
2453924.424852963
  9
$TDUCREATE
 40
2453924.383186296
  9
$TDUPDATE
 40
2455182.569446250
  9
$TDUUPDATE
 40
2455182.527779583
  9
$TDINDWG
 40
1.0556427431
  9
$TDUSRTIMER
 40
1.0556425694
  9
$USRTIMER
 70
     1
  9
$ANGBASE
 50
0.0
  9
$ANGDIR
 70
     0
  9
$PDMODE
 70
     0
  9
$PDSIZE
 40
0.0
  9
$PLINEWID
 40
0.0
  9
$SPLFRAME
 70
     0
  9
$SPLINETYPE
 70
     6
  9
$SPLINESEGS
 70
     8
  9
$HANDSEED
  5
8F79
  9
$SURFTAB1
 70
     6
  9
$SURFTAB2
 70
     6
  9
$SURFTYPE
 70
     6
  9
$SURFU
 70
     6
  9
$SURFV
 70
     6
  9
$UCSBASE
  2

  9
$UCSNAME
  2

  9
$UCSORG
 10
0.0
 20
0.0
 30
0.0
  9
$UCSXDIR
 10
1.0
 20
0.0
 30
0.0
  9
$UCSYDIR
 10
0.0
 20
1.0
 30
0.0
  9
$UCSORTHOREF
  2

  9
$UCSORTHOVIEW
 70
     1
  9
$UCSORGTOP
 10
0.0
 20
0.0
 30
0.0
  9
$UCSORGBOTTOM
 10
0.0
 20
0.0
 30
0.0
  9
$UCSORGLEFT
 10
0.0
 20
0.0
 30
0.0
  9
$UCSORGRIGHT
 10
0.0
 20
0.0
 30
0.0
  9
$UCSORGFRONT
 10
0.0
 20
0.0
 30
0.0
  9
$UCSORGBACK
 10
0.0
 20
0.0
 30
0.0
  9
$PUCSBASE
  2

  9
$PUCSNAME
  2

  9
$PUCSORG
 10
0.0
 20
0.0
 30
0.0
  9
$PUCSXDIR
 10
1.0
 20
0.0
 30
0.0
  9
$PUCSYDIR
 10
0.0
 20
1.0
 30
0.0
  9
$PUCSORTHOREF
  2

  9
$PUCSORTHOVIEW
 70
     0
  9
$PUCSORGTOP
 10
0.0
 20
0.0
 30
0.0
  9
$PUCSORGBOTTOM
 10
0.0
 20
0.0
 30
0.0
  9
$PUCSORGLEFT
 10
0.0
 20
0.0
 30
0.0
  9
$PUCSORGRIGHT
 10
0.0
 20
0.0
 30
0.0
  9
$PUCSORGFRONT
 10
0.0
 20
0.0
 30
0.0
  9
$PUCSORGBACK
 10
0.0
 20
0.0
 30
0.0
  9
$USERI1
 70
     0
  9
$USERI2
 70
     0
  9
$USERI3
 70
     0
  9
$USERI4
 70
     0
  9
$USERI5
 70
     0
  9
$USERR1
 40
0.0
  9
$USERR2
 40
0.0
  9
$USERR3
 40
0.0
  9
$USERR4
 40
0.0
  9
$USERR5
 40
0.0
  9
$WORLDVIEW
 70
     1
  9
$SHADEDGE
 70
     3
  9
$SHADEDIF
 70
    70
  9
$TILEMODE
 70
     1
  9
$MAXACTVP
 70
    64
  9
$PINSBASE
 10
0.0
 20
0.0
 30
0.0
  9
$PLIMCHECK
 70
     0
  9
$PEXTMIN
 10
-0.3785752547503733
 20
0.1807636100571841
 30
0.0
  9
$PEXTMAX
 10
19.87273365404815
 20
28.48157452849739
 30
0.0
  9
$PLIMMIN
 10
-0.5027083396911621
 20
-0.5069413185119629
  9
$PLIMMAX
 10
20.49462442398072
 20
29.18989095687866
  9
$UNITMODE
 70
     0
  9
$VISRETAIN
 70
     1
  9
$PLINEGEN
 70
     0
  9
$PSLTSCALE
 70
     0
  9
$TREEDEPTH
 70
  3020
  9
$CMLSTYLE
  2
Standard
  9
$CMLJUST
 70
     0
  9
$CMLSCALE
 40
20.0
  9
$PROXYGRAPHICS
 70
     0
  9
$MEASUREMENT
 70
     1
  9
$CELWEIGHT
370
    -1
  9
$ENDCAPS
280
     0
  9
$JOINSTYLE
280
     0
  9
$LWDISPLAY
290
     0
  9
$INSUNITS
 70
     5
  9
$HYPERLINKBASE
  1

  9
$STYLESHEET
  1
monochrome_140.ctb
  9
$XEDIT
290
     1
  9
$CEPSNTYPE
380
     0
  9
$PSTYLEMODE
290
     1
  9
$FINGERPRINTGUID
  2
{37B35CCD-F15F-49F8-90FB-7B73A2861210}
  9
$VERSIONGUID
  2
{3ADDECDE-C12A-4242-9C64-3CCE0033B05D}
  9
$EXTNAMES
290
     1
  9
$PSVPSCALE
 40
0.0
  9
$OLESTARTUP
290
     0
  0
ENDSEC
  0
SECTION
  2
CLASSES
  0
CLASS
  1
ACDBDICTIONARYWDFLT
  2
AcDbDictionaryWithDefault
  3
ObjectDBX Classes
 90
        0
280
     0
281
     0
  0
CLASS
  1
ACDBPLACEHOLDER
  2
AcDbPlaceHolder
  3
ObjectDBX Classes
 90
        0
280
     0
281
     0
  0
CLASS
  1
LAYOUT
  2
AcDbLayout
  3
ObjectDBX Classes
 90
        0
280
     0
281
     0
  0
CLASS
  1
DICTIONARYVAR
  2
AcDbDictionaryVar
  3
ObjectDBX Classes
 90
        0
280
     0
281
     0
  0
CLASS
  1
AEC_DISP_REP_2D_SECTION
  2
AecDbDispRep2dSection
  3
AecBase50|Product Desc: Autodesk Architectural Desktop 2007 |Company: Autodesk,Inc. |WEB Address: www.autodesk.com
 90
      129
280
     0
281
     0
  0
CLASS
  1
AEC_DISP_PROPS_2D_SECTION
  2
AecDbDispProps2dSection
  3
AecBase50|Product Desc: Autodesk Architectural Desktop 2007 |Company: Autodesk,Inc. |WEB Address: www.autodesk.com
 90
      129
280
     0
281
     0
  0
CLASS
  1
AEC_DISP_REP_ANCHOR
  2
AecDbDispRepAnchor
  3
AecBase50|Product Desc: Autodesk Architectural Desktop 2007 |Company: Autodesk,Inc. |WEB Address: www.autodesk.com
 90
      129
280
     0
281
     0
  0
CLASS
  1
AEC_DISP_REP_ANCHOR_ENT_TO_NODE
  2
AecDbDispRepAnchorEntToNode
  3
AecBaseEx50|Product Desc: Autodesk Architectural Desktop 2007 |Company: Autodesk,Inc. |WEB Address: www.autodesk.com
 90
      129
280
     0
281
     0
  0
CLASS
  1
AEC_DISP_PROPS_ENT
  2
AecDbDispPropsEnt
  3
AecBase50|Product Desc: Autodesk Architectural Desktop 2007 |Company: Autodesk,Inc. |WEB Address: www.autodesk.com
 90
      129
280
     0
281
     0
  0
CLASS
  1
AEC_DISP_REP_CAMERA
  2
AecDbDispRepCamera
  3
AecBase50|Product Desc: Autodesk Architectural Desktop 2007 |Company: Autodesk,Inc. |WEB Address: www.autodesk.com
 90
    32897
280
     0
281
     0
  0
CLASS
  1
AEC_DISP_PROPS_CAMERA
  2
AecDbDispPropsCamera
  3
AecBase50|Product Desc: Autodesk Architectural Desktop 2007 |Company: Autodesk,Inc. |WEB Address: www.autodesk.com
 90
    32897
280
     0
281
     0
  0
CLASS
  1
AEC_DISP_REP_CLIP_VOLUME_MODEL
  2
AecDbDispRepClipVolModel
  3
AecBase50|Product Desc: Autodesk Architectural Desktop 2007 |Company: Autodesk,Inc. |WEB Address: www.autodesk.com
 90
      129
280
     0
281
     0
  0
CLASS
  1
AEC_DISP_PROPS_CLIP_VOLUME
  2
AecDbDispPropsClipVol
  3
AecBase50|Product Desc: Autodesk Architectural Desktop 2007 |Company: Autodesk,Inc. |WEB Address: www.autodesk.com
 90
      129
280
     0
281
     0
  0
CLASS
  1
AEC_DISP_REP_CLIP_VOLUME_PLAN
  2
AecDbDispRepClipVolPlan
  3
AecBase50|Product Desc: Autodesk Architectural Desktop 2007 |Company: Autodesk,Inc. |WEB Address: www.autodesk.com
 90
      129
280
     0
281
     0
  0
CLASS
  1
AEC_DISP_REP_CLIP_VOLUME_RESULT
  2
AecDbDispRepClipVolResult
  3
AecBase50|Product Desc: Autodesk Architectural Desktop 2007 |Company: Autodesk,Inc. |WEB Address: www.autodesk.com
 90
      129
280
     0
281
     0
  0
CLASS
  1
AEC_DISP_REP_CLIP_VOLUME_RESULT_SUBDIV
  2
AecDbDispRepClipVolResSubDiv
  3
AecBase50|Product Desc: Autodesk Architectural Desktop 2007 |Company: Autodesk,Inc. |WEB Address: www.autodesk.com
 90
      129
280
     0
281
     0
  0
CLASS
  1
AEC_DISP_PROPS_CLIP_VOLUME_RESULT
  2
AecDbDispPropsClipVolResSubDiv
  3
AecBase50|Product Desc: Autodesk Architectural Desktop 2007 |Company: Autodesk,Inc. |WEB Address: www.autodesk.com
 90
      129
280
     0
281
     0
  0
CLASS
  1
AEC_DISP_REP_ENT_REF
  2
AecDbDispRepEntRef
  3
AecBase50|Product Desc: Autodesk Architectural Desktop 2007 |Company: Autodesk,Inc. |WEB Address: www.autodesk.com
 90
      129
280
     0
281
     0
  0
CLASS
  1
AEC_DISP_PROPS_ENT_REF
  2
AecDbDispPropsEntRef
  3
AecBase50|Product Desc: Autodesk Architectural Desktop 2007 |Company: Autodesk,Inc. |WEB Address: www.autodesk.com
 90
      129
280
     0
281
     0
  0
CLASS
  1
AEC_DISP_REP_LAYOUT_CURVE
  2
AecDbDispRepLayoutCurve
  3
AecBase50|Product Desc: Autodesk Architectural Desktop 2007 |Company: Autodesk,Inc. |WEB Address: www.autodesk.com
 90
      129
280
     0
281
     0
  0
CLASS
  1
AEC_VARS_DWG_SETUP
  2
AecDbVarsDwgSetup
  3
AecBase50|Product Desc: Autodesk Architectural Desktop 2007 |Company: Autodesk,Inc. |WEB Address: www.autodesk.com
 90
      129
280
     0
281
     0
  0
CLASS
  1
AEC_DISP_PROPS_LAYOUT_CURVE
  2
AecDbDispPropsLayoutCurve
  3
AecBase50|Product Desc: Autodesk Architectural Desktop 2007 |Company: Autodesk,Inc. |WEB Address: www.autodesk.com
 90
      129
280
     0
281
     0
  0
CLASS
  1
AEC_DISP_REP_LAYOUT_GRID2D
  2
AecDbDispRepLayoutGrid2d
  3
AecBase50|Product Desc: Autodesk Architectural Desktop 2007 |Company: Autodesk,Inc. |WEB Address: www.autodesk.com
 90
      129
280
     0
281
     0
  0
CLASS
  1
AEC_DISP_PROPS_LAYOUT_GRID2D
  2
AecDbDispPropsLayoutGrid2d
  3
AecBase50|Product Desc: Autodesk Architectural Desktop 2007 |Company: Autodesk,Inc. |WEB Address: www.autodesk.com
 90
      129
280
     0
281
     0
  0
CLASS
  1
AEC_DISP_REP_LAYOUT_GRID3D
  2
AecDbDispRepLayoutGrid3d
  3
AecBase50|Product Desc: Autodesk Architectural Desktop 2007 |Company: Autodesk,Inc. |WEB Address: www.autodesk.com
 90
      129
280
     0
281
     0
  0
CLASS
  1
AEC_DISP_PROPS_LAYOUT_GRID3D
  2
AecDbDispPropsLayoutGrid3d
  3
AecBase50|Product Desc: Autodesk Architectural Desktop 2007 |Company: Autodesk,Inc. |WEB Address: www.autodesk.com
 90
      129
280
     0
281
     0
  0
CLASS
  1
AEC_DISP_REP_MASKBLOCK_REF
  2
AecDbDispRepMaskBlockRef
  3
AecBase50|Product Desc: Autodesk Architectural Desktop 2007 |Company: Autodesk,Inc. |WEB Address: www.autodesk.com
 90
      129
280
     0
281
     0
  0
CLASS
  1
AEC_DISP_PROPS_MASKBLOCK
  2
AecDbDispPropsMaskBlock
  3
AecBase50|Product Desc: Autodesk Architectural Desktop 2007 |Company: Autodesk,Inc. |WEB Address: www.autodesk.com
 90
      129
280
     0
281
     0
  0
CLASS
  1
AEC_DISP_REP_MASS_ELEM_MODEL
  2
AecDbDispRepMassElemModel
  3
AecBaseEx50|Product Desc: Autodesk Architectural Desktop 2007 |Company: Autodesk,Inc. |WEB Address: www.autodesk.com
 90
      129
280
     0
281
     0
  0
CLASS
  1
AEC_DISP_PROPS_MASS_ELEM_MODEL
  2
AecDbDispPropsMassElem
  3
AecBaseEx50|Product Desc: Autodesk Architectural Desktop 2007 |Company: Autodesk,Inc. |WEB Address: www.autodesk.com
 90
      129
280
     0
281
     0
  0
CLASS
  1
AEC_DISP_REP_MASS_ELEM_SCHEM
  2
AecDbDispRepMassElemSchem
  3
AecBaseEx50|Product Desc: Autodesk Architectural Desktop 2007 |Company: Autodesk,Inc. |WEB Address: www.autodesk.com
 90
      129
280
     0
281
     0
  0
CLASS
  1
AEC_DISP_REP_MASS_GROUP_MODEL
  2
AecDbDispRepMassGroupModel
  3
AecBaseEx50|Product Desc: Autodesk Architectural Desktop 2007 |Company: Autodesk,Inc. |WEB Address: www.autodesk.com
 90
      129
280
     0
281
     0
  0
CLASS
  1
AEC_DISP_PROPS_MASS_GROUP
  2
AecDbDispPropsMassGroup
  3
AecBaseEx50|Product Desc: Autodesk Architectural Desktop 2007 |Company: Autodesk,Inc. |WEB Address: www.autodesk.com
 90
      129
280
     0
281
     0
  0
CLASS
  1
AEC_DISP_REP_MASS_GROUP_PLAN
  2
AecDbDispRepMassGroupPlan
  3
AecBaseEx50|Product Desc: Autodesk Architectural Desktop 2007 |Company: Autodesk,Inc. |WEB Address: www.autodesk.com
 90
      129
280
     0
281
     0
  0
CLASS
  1
AEC_DISP_REP_MVBLOCK_REF
  2
AecDbDispRepMvBlockRef
  3
AecBase50|Product Desc: Autodesk Architectural Desktop 2007 |Company: Autodesk,Inc. |WEB Address: www.autodesk.com
 90
      129
280
     0
281
     0
  0
CLASS
  1
AEC_DISP_REP_MVBLOCK_REF_MODEL
  2
AecDbDispRepMvBlockRefModel
  3
AecBase50|Product Desc: Autodesk Architectural Desktop 2007 |Company: Autodesk,Inc. |WEB Address: www.autodesk.com
 90
      129
280
     0
281
     0
  0
CLASS
  1
AEC_DISP_REP_POLYGON_MODEL
  2
AecDbDispRepPolygonModel
  3
AecBaseEx50|Product Desc: Autodesk Architectural Desktop 2007 |Company: Autodesk,Inc. |WEB Address: www.autodesk.com
 90
      129
280
     0
281
     0
  0
CLASS
  1
AEC_DISP_PROPS_POLYGON_MODEL
  2
AecDbDispPropsPolygonModel
  3
AecBaseEx50|Product Desc: Autodesk Architectural Desktop 2007 |Company: Autodesk,Inc. |WEB Address: www.autodesk.com
 90
      129
280
     0
281
     0
  0
CLASS
  1
AEC_DISP_REP_POLYGON_TRUECOLOUR
  2
AecDbDispRepPolygonTrueColour
  3
AecBaseEx50|Product Desc: Autodesk Architectural Desktop 2007 |Company: Autodesk,Inc. |WEB Address: www.autodesk.com
 90
      129
280
     0
281
     0
  0
CLASS
  1
AEC_DISP_PROPS_POLYGON_TRUECOLOUR
  2
AecDbDispPropsPolygonTrueColour
  3
AecBaseEx50|Product Desc: Autodesk Architectural Desktop 2007 |Company: Autodesk,Inc. |WEB Address: www.autodesk.com
 90
      129
280
     0
281
     0
  0
CLASS
  1
AEC_DISP_REP_SLICE
  2
AecDbDispRepSlice
  3
AecBase50|Product Desc: Autodesk Architectural Desktop 2007 |Company: Autodesk,Inc. |WEB Address: www.autodesk.com
 90
      129
280
     0
281
     0
  0
CLASS
  1
AEC_DISP_PROPS_SLICE
  2
AecDbDispPropsSlice
  3
AecBase50|Product Desc: Autodesk Architectural Desktop 2007 |Company: Autodesk,Inc. |WEB Address: www.autodesk.com
 90
      129
280
     0
281
     0
  0
CLASS
  1
AEC_DISP_REP_ANCHOR_BUB_TO_GRID
  2
AecDbDispRepAnchorBubToGrid
  3
AecStructureBase50|Product Desc: Autodesk Architectural Desktop 2007 |Company: Autodesk,Inc. |WEB Address: www.autodesk.com
 90
      129
280
     0
281
     0
  0
CLASS
  1
AEC_DISP_REP_ANCHOR_BUB_TO_GRID_MODEL
  2
AecDbDispRepAnchorBubToGridMdl
  3
AecStructureBase50|Product Desc: Autodesk Architectural Desktop 2007 |Company: Autodesk,Inc. |WEB Address: www.autodesk.com
 90
      129
280
     0
281
     0
  0
CLASS
  1
AEC_DISP_REP_ANCHOR_BUB_TO_GRID_RCP
  2
AecDbDispRepAnchorBubToGridRcp
  3
AecStructureBase50|Product Desc: Autodesk Architectural Desktop 2007 |Company: Autodesk,Inc. |WEB Address: www.autodesk.com
 90
      129
280
     0
281
     0
  0
CLASS
  1
AEC_DISP_REP_BDG_ELEVLINE_MODEL
  2
AecDbDispRepBdgElevLineModel
  3
AecArchBase50|Product Desc: Autodesk Architectural Desktop 2007 |Company: Autodesk,Inc. |WEB Address: www.autodesk.com
 90
      129
280
     0
281
     0
  0
CLASS
  1
AEC_DISP_REP_BDG_SECTIONLINE_PLAN
  2
AecDbDispRepBdgElevLinePlan
  3
AecArchBase50|Product Desc: Autodesk Architectural Desktop 2007 |Company: Autodesk,Inc. |WEB Address: www.autodesk.com
 90
      129
280
     0
281
     0
  0
CLASS
  1
AEC_DISP_REP_BDG_ELEVLINE_RCP
  2
AecDbDispRepBdgElevLineRcp
  3
AecArchBase50|Product Desc: Autodesk Architectural Desktop 2007 |Company: Autodesk,Inc. |WEB Address: www.autodesk.com
 90
      129
280
     0
281
     0
  0
CLASS
  1
AEC_DISP_REP_BDG_SECTIONLINE_MODEL
  2
AecDbDispRepBdgSectionLineModel
  3
AecArchBase50|Product Desc: Autodesk Architectural Desktop 2007 |Company: Autodesk,Inc. |WEB Address: www.autodesk.com
 90
      129
280
     0
281
     0
  0
CLASS
  1
AEC_DISP_REP_BDG_SECTIONLINE_PLAN
  2
AecDbDispRepBdgSectionLinePlan
  3
AecArchBase50|Product Desc: Autodesk Architectural Desktop 2007 |Company: Autodesk,Inc. |WEB Address: www.autodesk.com
 90
      129
280
     0
281
     0
  0
CLASS
  1
AEC_DISP_REP_BDG_SECTIONLINE_RCP
  2
AecDbDispRepBdgSectionLineRcp
  3
AecArchBase50|Product Desc: Autodesk Architectural Desktop 2007 |Company: Autodesk,Inc. |WEB Address: www.autodesk.com
 90
      129
280
     0
281
     0
  0
CLASS
  1
AEC_DISP_REP_BDG_SECTION_MODEL
  2
AecDbDispRepBdgSectionModel
  3
AecArchBase50|Product Desc: Autodesk Architectural Desktop 2007 |Company: Autodesk,Inc. |WEB Address: www.autodesk.com
 90
      129
280
     0
281
     0
  0
CLASS
  1
AEC_DISP_REP_BDG_SECTION_SUBDIV
  2
AecDbDispRepBdgSectionSubDiv
  3
AecArchBase50|Product Desc: Autodesk Architectural Desktop 2007 |Company: Autodesk,Inc. |WEB Address: www.autodesk.com
 90
      129
280
     0
281
     0
  0
CLASS
  1
AEC_DISP_REP_CEILING_GRID
  2
AecDbDispRepCeilingGrid
  3
AecArchBase50|Product Desc: Autodesk Architectural Desktop 2007 |Company: Autodesk,Inc. |WEB Address: www.autodesk.com
 90
      893
280
     0
281
     0
  0
CLASS
  1
AEC_DISP_REP_CEILING_GRID_MODEL
  2
AecDbDispRepCeilingGridModel
  3
AecArchBase50|Product Desc: Autodesk Architectural Desktop 2007 |Company: Autodesk,Inc. |WEB Address: www.autodesk.com
 90
      129
280
     0
281
     0
  0
CLASS
  1
AEC_DISP_REP_CEILING_GRID_RCP
  2
AecDbDispRepCeilingGridRcp
  3
AecArchBase50|Product Desc: Autodesk Architectural Desktop 2007 |Company: Autodesk,Inc. |WEB Address: www.autodesk.com
 90
      129
280
     0
281
     0
  0
CLASS
  1
AEC_DISP_REP_COLUMN_GRID
  2
AecDbDispRepColumnGrid
  3
AecStructureBase50|Product Desc: Autodesk Architectural Desktop 2007 |Company: Autodesk,Inc. |WEB Address: www.autodesk.com
 90
      129
280
     0
281
     0
  0
CLASS
  1
AEC_DISP_REP_COLUMN_GRID_MODEL
  2
AecDbDispRepColumnGridModel
  3
AecStructureBase50|Product Desc: Autodesk Architectural Desktop 2007 |Company: Autodesk,Inc. |WEB Address: www.autodesk.com
 90
      129
280
     0
281
     0
  0
CLASS
  1
AEC_DISP_REP_COLUMN_GRID_RCP
  2
AecDbDispRepColumnGridRcp
  3
AecStructureBase50|Product Desc: Autodesk Architectural Desktop 2007 |Company: Autodesk,Inc. |WEB Address: www.autodesk.com
 90
      129
280
     0
281
     0
  0
CLASS
  1
AEC_DISP_REP_CURTAIN_WALL_LAYOUT_MODEL
  2
AecDbDispRepCurtainWallLayoutModel
  3
AecArchBase50|Product Desc: Autodesk Architectural Desktop 2007 |Company: Autodesk,Inc. |WEB Address: www.autodesk.com
 90
      129
280
     0
281
     0
  0
CLASS
  1
AEC_DISP_PROPS_GRID_ASSEMBLY_MODEL
  2
AecDbDispPropsGridAssemblyModel
  3
AecArchBase50|Product Desc: Autodesk Architectural Desktop 2007 |Company: Autodesk,Inc. |WEB Address: www.autodesk.com
 90
      129
280
     0
281
     0
  0
CLASS
  1
AEC_DISP_REP_CURTAIN_WALL_LAYOUT_PLAN
  2
AecDbDispRepCurtainWallLayoutPlan
  3
AecArchBase50|Product Desc: Autodesk Architectural Desktop 2007 |Company: Autodesk,Inc. |WEB Address: www.autodesk.com
 90
      129
280
     0
281
     0
  0
CLASS
  1
AEC_DISP_PROPS_GRID_ASSEMBLY_PLAN
  2
AecDbDispPropsGridAssemblyPlan
  3
AecArchBase50|Product Desc: Autodesk Architectural Desktop 2007 |Company: Autodesk,Inc. |WEB Address: www.autodesk.com
 90
      129
280
     0
281
     0
  0
CLASS
  1
AEC_DISP_REP_CURTAIN_WALL_UNIT_MODEL
  2
AecDbDispRepCurtainWallUnitModel
  3
AecArchBase50|Product Desc: Autodesk Architectural Desktop 2007 |Company: Autodesk,Inc. |WEB Address: www.autodesk.com
 90
      129
280
     0
281
     0
  0
CLASS
  1
AEC_DISP_REP_CURTAIN_WALL_UNIT_PLAN
  2
AecDbDispRepCurtainWallUnitPlan
  3
AecArchBase50|Product Desc: Autodesk Architectural Desktop 2007 |Company: Autodesk,Inc. |WEB Address: www.autodesk.com
 90
      129
280
     0
281
     0
  0
CLASS
  1
AEC_DISP_REP_DOOR_MODEL
  2
AecDbDispRepDoorModel
  3
AecArchBase50|Product Desc: Autodesk Architectural Desktop 2007 |Company: Autodesk,Inc. |WEB Address: www.autodesk.com
 90
      129
280
     0
281
     0
  0
CLASS
  1
AEC_DISP_PROPS_DOOR
  2
AecDbDispPropsDoor
  3
AecArchBase50|Product Desc: Autodesk Architectural Desktop 2007 |Company: Autodesk,Inc. |WEB Address: www.autodesk.com
 90
      129
280
     0
281
     0
  0
CLASS
  1
AEC_DISP_REP_DOOR_ELEV
  2
AecDbDispRepDoorElev
  3
AecArchBase50|Product Desc: Autodesk Architectural Desktop 2007 |Company: Autodesk,Inc. |WEB Address: www.autodesk.com
 90
      129
280
     0
281
     0
  0
CLASS
  1
AEC_DISP_REP_DOOR_PLAN
  2
AecDbDispRepDoorPlan
  3
AecArchBase50|Product Desc: Autodesk Architectural Desktop 2007 |Company: Autodesk,Inc. |WEB Address: www.autodesk.com
 90
      129
280
     0
281
     0
  0
CLASS
  1
AEC_DISP_REP_DOOR_NOMINAL
  2
AecDbDispRepDoorNominal
  3
AecArchBase50|Product Desc: Autodesk Architectural Desktop 2007 |Company: Autodesk,Inc. |WEB Address: www.autodesk.com
 90
      129
280
     0
281
     0
  0
CLASS
  1
AEC_DISP_PROPS_DOOR_NOMINAL
  2
AecDbDispPropsDoorNominal
  3
AecArchBase50|Product Desc: Autodesk Architectural Desktop 2007 |Company: Autodesk,Inc. |WEB Address: www.autodesk.com
 90
      129
280
     0
281
     0
  0
CLASS
  1
AEC_DISP_REP_DOOR_RCP
  2
AecDbDispRepDoorRcp
  3
AecArchBase50|Product Desc: Autodesk Architectural Desktop 2007 |Company: Autodesk,Inc. |WEB Address: www.autodesk.com
 90
      129
280
     0
281
     0
  0
CLASS
  1
AEC_DISP_REP_DOOR_THRESHOLD_PLAN
  2
AecDbDispRepDoorThresholdPlan
  3
AecArchBase50|Product Desc: Autodesk Architectural Desktop 2007 |Company: Autodesk,Inc. |WEB Address: www.autodesk.com
 90
      129
280
     0
281
     0
  0
CLASS
  1
AEC_DISP_PROPS_DOOR_THRESHOLD_PLAN
  2
AecDbDispPropsDoorThresholdPlan
  3
AecArchBase50|Product Desc: Autodesk Architectural Desktop 2007 |Company: Autodesk,Inc. |WEB Address: www.autodesk.com
 90
      129
280
     0
281
     0
  0
CLASS
  1
AEC_DISP_REP_MASKBLOCK_REF_RCP
  2
AecDbDispRepMaskBlockRefRcp
  3
AecArchBase50|Product Desc: Autodesk Architectural Desktop 2007 |Company: Autodesk,Inc. |WEB Address: www.autodesk.com
 90
      129
280
     0
281
     0
  0
CLASS
  1
AEC_DISP_REP_MASS_ELEM_RCP
  2
AecDbDispRepMassElemRcp
  3
AecArchBase50|Product Desc: Autodesk Architectural Desktop 2007 |Company: Autodesk,Inc. |WEB Address: www.autodesk.com
 90
      129
280
     0
281
     0
  0
CLASS
  1
AEC_DISP_REP_MASS_GROUP_RCP
  2
AecDbDispRepMassGroupRcp
  3
AecArchBase50|Product Desc: Autodesk Architectural Desktop 2007 |Company: Autodesk,Inc. |WEB Address: www.autodesk.com
 90
      129
280
     0
281
     0
  0
CLASS
  1
AEC_DISP_REP_MVBLOCK_REF_RCP
  2
AecDbDispRepMvBlockRefRcp
  3
AecArchBase50|Product Desc: Autodesk Architectural Desktop 2007 |Company: Autodesk,Inc. |WEB Address: www.autodesk.com
 90
      129
280
     0
281
     0
  0
CLASS
  1
AEC_DISP_REP_OPENING
  2
AecDbDispRepOpening
  3
AecArchBase50|Product Desc: Autodesk Architectural Desktop 2007 |Company: Autodesk,Inc. |WEB Address: www.autodesk.com
 90
      129
280
     0
281
     0
  0
CLASS
  1
AEC_DISP_PROPS_OPENING
  2
AecDbDispPropsOpening
  3
AecArchBase50|Product Desc: Autodesk Architectural Desktop 2007 |Company: Autodesk,Inc. |WEB Address: www.autodesk.com
 90
      129
280
     0
281
     0
  0
CLASS
  1
AEC_DISP_REP_OPENING_MODEL
  2
AecDbDispRepOpeningModel
  3
AecArchBase50|Product Desc: Autodesk Architectural Desktop 2007 |Company: Autodesk,Inc. |WEB Address: www.autodesk.com
 90
      129
280
     0
281
     0
  0
CLASS
  1
AEC_DISP_REP_RAILING_MODEL
  2
AecDbDispRepRailingModel
  3
AecArchBase50|Product Desc: Autodesk Architectural Desktop 2007 |Company: Autodesk,Inc. |WEB Address: www.autodesk.com
 90
      129
280
     0
281
     0
  0
CLASS
  1
AEC_DISP_PROPS_RAILING_MODEL
  2
AecDbDispPropsRailingModel
  3
AecArchBase50|Product Desc: Autodesk Architectural Desktop 2007 |Company: Autodesk,Inc. |WEB Address: www.autodesk.com
 90
      129
280
     0
281
     0
  0
CLASS
  1
AEC_DISP_REP_RAILING_PLAN
  2
AecDbDispRepRailingPlan
  3
AecArchBase50|Product Desc: Autodesk Architectural Desktop 2007 |Company: Autodesk,Inc. |WEB Address: www.autodesk.com
 90
      129
280
     0
281
     0
  0
CLASS
  1
AEC_DISP_PROPS_RAILING_PLAN
  2
AecDbDispPropsRailingPlan
  3
AecArchBase50|Product Desc: Autodesk Architectural Desktop 2007 |Company: Autodesk,Inc. |WEB Address: www.autodesk.com
 90
      129
280
     0
281
     0
  0
CLASS
  1
AEC_DISP_REP_ROOF_MODEL
  2
AecDbDispRepRoofModel
  3
AecArchBase50|Product Desc: Autodesk Architectural Desktop 2007 |Company: Autodesk,Inc. |WEB Address: www.autodesk.com
 90
      129
280
     0
281
     0
  0
CLASS
  1
AEC_DISP_PROPS_ROOF
  2
AecDbDispPropsRoof
  3
AecArchBase50|Product Desc: Autodesk Architectural Desktop 2007 |Company: Autodesk,Inc. |WEB Address: www.autodesk.com
 90
      129
280
     0
281
     0
  0
CLASS
  1
AEC_DISP_REP_ROOF_PLAN
  2
AecDbDispRepRoofPlan
  3
AecArchBase50|Product Desc: Autodesk Architectural Desktop 2007 |Company: Autodesk,Inc. |WEB Address: www.autodesk.com
 90
      129
280
     0
281
     0
  0
CLASS
  1
AEC_DISP_REP_ROOF_RCP
  2
AecDbDispRepRoofRcp
  3
AecArchBase50|Product Desc: Autodesk Architectural Desktop 2007 |Company: Autodesk,Inc. |WEB Address: www.autodesk.com
 90
      129
280
     0
281
     0
  0
CLASS
  1
AEC_DISP_REP_SLAB_MODEL
  2
AecDbDispRepSlabModel
  3
AecArchBase50|Product Desc: Autodesk Architectural Desktop 2007 |Company: Autodesk,Inc. |WEB Address: www.autodesk.com
 90
      129
280
     0
281
     0
  0
CLASS
  1
AEC_DISP_PROPS_SLAB
  2
AecDbDispPropsSlab
  3
AecArchBase50|Product Desc: Autodesk Architectural Desktop 2007 |Company: Autodesk,Inc. |WEB Address: www.autodesk.com
 90
      129
280
     0
281
     0
  0
CLASS
  1
AEC_DISP_REP_ROOFSLAB_MODEL
  2
AecDbDispRepRoofSlabModel
  3
AecArchBase50|Product Desc: Autodesk Architectural Desktop 2007 |Company: Autodesk,Inc. |WEB Address: www.autodesk.com
 90
      129
280
     0
281
     0
  0
CLASS
  1
AEC_DISP_PROPS_ROOFSLAB
  2
AecDbDispPropsRoofSlab
  3
AecArchBase50|Product Desc: Autodesk Architectural Desktop 2007 |Company: Autodesk,Inc. |WEB Address: www.autodesk.com
 90
      129
280
     0
281
     0
  0
CLASS
  1
AEC_DISP_REP_SLAB_PLAN
  2
AecDbDispRepSlabPlan
  3
AecArchBase50|Product Desc: Autodesk Architectural Desktop 2007 |Company: Autodesk,Inc. |WEB Address: www.autodesk.com
 90
      129
280
     0
281
     0
  0
CLASS
  1
AEC_DISP_PROPS_SLAB_PLAN
  2
AecDbDispPropsSlabPlan
  3
AecArchBase50|Product Desc: Autodesk Architectural Desktop 2007 |Company: Autodesk,Inc. |WEB Address: www.autodesk.com
 90
      129
280
     0
281
     0
  0
CLASS
  1
AEC_DISP_REP_ROOFSLAB_PLAN
  2
AecDbDispRepRoofSlabPlan
  3
AecArchBase50|Product Desc: Autodesk Architectural Desktop 2007 |Company: Autodesk,Inc. |WEB Address: www.autodesk.com
 90
      129
280
     0
281
     0
  0
CLASS
  1
AEC_DISP_PROPS_ROOFSLAB_PLAN
  2
AecDbDispPropsRoofSlabPlan
  3
AecArchBase50|Product Desc: Autodesk Architectural Desktop 2007 |Company: Autodesk,Inc. |WEB Address: www.autodesk.com
 90
      129
280
     0
281
     0
  0
CLASS
  1
AEC_DISP_REP_SPACE_BOUNDARY_DIAGRAM
  2
AecDbDispRepSpaceBoundaryDgrm
  3
AecArchBase50|Product Desc: Autodesk Architectural Desktop 2007 |Company: Autodesk,Inc. |WEB Address: www.autodesk.com
 90
    32897
280
     0
281
     0
  0
CLASS
  1
AEC_DISP_REP_SPACE_BOUNDARY_MODEL
  2
AecDbDispRepSpaceBoundaryModel
  3
AecArchBase50|Product Desc: Autodesk Architectural Desktop 2007 |Company: Autodesk,Inc. |WEB Address: www.autodesk.com
 90
    32897
280
     0
281
     0
  0
CLASS
  1
AEC_DISP_REP_SPACE_BOUNDARY_PLAN
  2
AecDbDispRepSpaceBoundaryPlan
  3
AecArchBase50|Product Desc: Autodesk Architectural Desktop 2007 |Company: Autodesk,Inc. |WEB Address: www.autodesk.com
 90
    32897
280
     0
281
     0
  0
CLASS
  1
AEC_DISP_REP_SPACE_BOUNDARY_SCHEM
  2
AecDbDispRepSpaceBoundarySketch
  3
AecArchBase50|Product Desc: Autodesk Architectural Desktop 2007 |Company: Autodesk,Inc. |WEB Address: www.autodesk.com
 90
    32897
280
     0
281
     0
  0
CLASS
  1
AEC_DISP_REP_SPACE_MODEL
  2
AecDbDispRepSpaceModel
  3
AecArchBase50|Product Desc: Autodesk Architectural Desktop 2007 |Company: Autodesk,Inc. |WEB Address: www.autodesk.com
 90
      129
280
     0
281
     0
  0
CLASS
  1
AEC_DISP_PROPS_SPACE_MODEL
  2
AecDbDispPropsSpaceModel
  3
AecArchBase50|Product Desc: Autodesk Architectural Desktop 2007 |Company: Autodesk,Inc. |WEB Address: www.autodesk.com
 90
      129
280
     0
281
     0
  0
CLASS
  1
AEC_DISP_REP_SPACE_PLAN
  2
AecDbDispRepSpacePlan
  3
AecArchBase50|Product Desc: Autodesk Architectural Desktop 2007 |Company: Autodesk,Inc. |WEB Address: www.autodesk.com
 90
      129
280
     0
281
     0
  0
CLASS
  1
AEC_DISP_PROPS_SPACE_PLAN
  2
AecDbDispPropsSpacePlan
  3
AecArchBase50|Product Desc: Autodesk Architectural Desktop 2007 |Company: Autodesk,Inc. |WEB Address: www.autodesk.com
 90
      129
280
     0
281
     0
  0
CLASS
  1
AEC_DISP_REP_SPACE_RCP
  2
AecDbDispRepSpaceRcp
  3
AecArchBase50|Product Desc: Autodesk Architectural Desktop 2007 |Company: Autodesk,Inc. |WEB Address: www.autodesk.com
 90
      129
280
     0
281
     0
  0
CLASS
  1
AEC_DISP_REP_SPACE_VOLUME
  2
AecDbDispRepSpaceVolume
  3
AecArchBase50|Product Desc: Autodesk Architectural Desktop 2007 |Company: Autodesk,Inc. |WEB Address: www.autodesk.com
 90
      129
280
     0
281
     0
  0
CLASS
  1
AEC_DISP_REP_STAIR_MODEL
  2
AecDbDispRepStairModel
  3
AecArchBase50|Product Desc: Autodesk Architectural Desktop 2007 |Company: Autodesk,Inc. |WEB Address: www.autodesk.com
 90
      129
280
     0
281
     0
  0
CLASS
  1
AEC_DISP_PROPS_STAIR_MODEL
  2
AecDbDispPropsStairModel
  3
AecArchBase50|Product Desc: Autodesk Architectural Desktop 2007 |Company: Autodesk,Inc. |WEB Address: www.autodesk.com
 90
      129
280
     0
281
     0
  0
CLASS
  1
AEC_DISP_REP_STAIR_PLAN
  2
AecDbDispRepStairPlan
  3
AecArchBase50|Product Desc: Autodesk Architectural Desktop 2007 |Company: Autodesk,Inc. |WEB Address: www.autodesk.com
 90
      129
280
     0
281
     0
  0
CLASS
  1
AEC_DISP_PROPS_STAIR_PLAN
  2
AecDbDispPropsStairPlan
  3
AecArchBase50|Product Desc: Autodesk Architectural Desktop 2007 |Company: Autodesk,Inc. |WEB Address: www.autodesk.com
 90
      129
280
     0
281
     0
  0
CLASS
  1
AEC_DISP_REP_STAIR_RCP
  2
AecDbDispRepStairRcp
  3
AecArchBase50|Product Desc: Autodesk Architectural Desktop 2007 |Company: Autodesk,Inc. |WEB Address: www.autodesk.com
 90
      129
280
     0
281
     0
  0
CLASS
  1
AEC_DISP_REP_WALL_GRAPH
  2
AecDbDispRepWallGraph
  3
AecArchBase50|Product Desc: Autodesk Architectural Desktop 2007 |Company: Autodesk,Inc. |WEB Address: www.autodesk.com
 90
      129
280
     0
281
     0
  0
CLASS
  1
AEC_DISP_PROPS_WALL_GRAPH
  2
AecDbDispPropsWallGraph
  3
AecArchBase50|Product Desc: Autodesk Architectural Desktop 2007 |Company: Autodesk,Inc. |WEB Address: www.autodesk.com
 90
      129
280
     0
281
     0
  0
CLASS
  1
AEC_DISP_REP_WALL_MODEL
  2
AecDbDispRepWallModel
  3
AecArchBase50|Product Desc: Autodesk Architectural Desktop 2007 |Company: Autodesk,Inc. |WEB Address: www.autodesk.com
 90
      129
280
     0
281
     0
  0
CLASS
  1
AEC_DISP_PROPS_WALL
  2
AecDbDispPropsWall
  3
AecArchBase50|Product Desc: Autodesk Architectural Desktop 2007 |Company: Autodesk,Inc. |WEB Address: www.autodesk.com
 90
    32897
280
     0
281
     0
  0
CLASS
  1
AEC_DISP_REP_WALL_PLAN
  2
AecDbDispRepWallPlan
  3
AecArchBase50|Product Desc: Autodesk Architectural Desktop 2007 |Company: Autodesk,Inc. |WEB Address: www.autodesk.com
 90
      129
280
     0
281
     0
  0
CLASS
  1
AEC_DISP_PROPS_WALL_PLAN
  2
AecDbDispPropsWallPlan
  3
AecArchBase50|Product Desc: Autodesk Architectural Desktop 2007 |Company: Autodesk,Inc. |WEB Address: www.autodesk.com
 90
      129
280
     0
281
     0
  0
CLASS
  1
AEC_DISP_REP_WALL_RCP
  2
AecDbDispRepWallRcp
  3
AecArchBase50|Product Desc: Autodesk Architectural Desktop 2007 |Company: Autodesk,Inc. |WEB Address: www.autodesk.com
 90
      129
280
     0
281
     0
  0
CLASS
  1
AEC_DISP_REP_WALL_SCHEM
  2
AecDbDispRepWallSchem
  3
AecArchBase50|Product Desc: Autodesk Architectural Desktop 2007 |Company: Autodesk,Inc. |WEB Address: www.autodesk.com
 90
      129
280
     0
281
     0
  0
CLASS
  1
AEC_DISP_PROPS_WALL_SCHEM
  2
AecDbDispPropsWallSchem
  3
AecArchBase50|Product Desc: Autodesk Architectural Desktop 2007 |Company: Autodesk,Inc. |WEB Address: www.autodesk.com
 90
      129
280
     0
281
     0
  0
CLASS
  1
AEC_DISP_REP_WINDOW_ASSEMBLY_MODEL
  2
AecDbDispRepWindowAssemblyModel
  3
AecArchBase50|Product Desc: Autodesk Architectural Desktop 2007 |Company: Autodesk,Inc. |WEB Address: www.autodesk.com
 90
      129
280
     0
281
     0
  0
CLASS
  1
AEC_DISP_REP_WINDOW_ASSEMBLY_PLAN
  2
AecDbDispRepWindowAssemblyPlan
  3
AecArchBase50|Product Desc: Autodesk Architectural Desktop 2007 |Company: Autodesk,Inc. |WEB Address: www.autodesk.com
 90
      129
280
     0
281
     0
  0
CLASS
  1
AEC_DISP_REP_WINDOW_MODEL
  2
AecDbDispRepWindowModel
  3
AecArchBase50|Product Desc: Autodesk Architectural Desktop 2007 |Company: Autodesk,Inc. |WEB Address: www.autodesk.com
 90
      129
280
     0
281
     0
  0
CLASS
  1
AEC_DISP_PROPS_WINDOW
  2
AecDbDispPropsWindow
  3
AecArchBase50|Product Desc: Autodesk Architectural Desktop 2007 |Company: Autodesk,Inc. |WEB Address: www.autodesk.com
 90
      129
280
     0
281
     0
  0
CLASS
  1
AEC_DISP_REP_WINDOW_ELEV
  2
AecDbDispRepWindowElev
  3
AecArchBase50|Product Desc: Autodesk Architectural Desktop 2007 |Company: Autodesk,Inc. |WEB Address: www.autodesk.com
 90
      129
280
     0
281
     0
  0
CLASS
  1
AEC_DISP_REP_WINDOW_PLAN
  2
AecDbDispRepWindowPlan
  3
AecArchBase50|Product Desc: Autodesk Architectural Desktop 2007 |Company: Autodesk,Inc. |WEB Address: www.autodesk.com
 90
      129
280
     0
281
     0
  0
CLASS
  1
AEC_DISP_REP_WINDOW_NOMINAL
  2
AecDbDispRepWindowNominal
  3
AecArchBase50|Product Desc: Autodesk Architectural Desktop 2007 |Company: Autodesk,Inc. |WEB Address: www.autodesk.com
 90
      129
280
     0
281
     0
  0
CLASS
  1
AEC_DISP_PROPS_WINDOW_NOMINAL
  2
AecDbDispPropsWindowNominal
  3
AecArchBase50|Product Desc: Autodesk Architectural Desktop 2007 |Company: Autodesk,Inc. |WEB Address: www.autodesk.com
 90
      129
280
     0
281
     0
  0
CLASS
  1
AEC_DISP_REP_WINDOW_RCP
  2
AecDbDispRepWindowRcp
  3
AecArchBase50|Product Desc: Autodesk Architectural Desktop 2007 |Company: Autodesk,Inc. |WEB Address: www.autodesk.com
 90
      129
280
     0
281
     0
  0
CLASS
  1
AEC_DISP_REP_WINDOW_SILL_PLAN
  2
AecDbDispRepWindowSillPlan
  3
AecArchBase50|Product Desc: Autodesk Architectural Desktop 2007 |Company: Autodesk,Inc. |WEB Address: www.autodesk.com
 90
      129
280
     0
281
     0
  0
CLASS
  1
AEC_DISP_PROPS_WINDOW_SILL_PLAN
  2
AecDbDispPropsWindowSillPlan
  3
AecArchBase50|Product Desc: Autodesk Architectural Desktop 2007 |Company: Autodesk,Inc. |WEB Address: www.autodesk.com
 90
      129
280
     0
281
     0
  0
CLASS
  1
AEC_DISP_REP_ANCHOR_TAG_TO_ENT
  2
AecDbDispRepAnchorTagToEnt
  3
AecScheduleData50|Product Desc: Autodesk Architectural Desktop 2007 |Company: Autodesk,Inc. |WEB Address: www.autodesk.com
 90
      129
280
     0
281
     0
  0
CLASS
  1
AECS_DISP_REP_MEMBER_ELEVATION_DESIGN
  2
AecsDbDispRepMemberElevationDesign
  3
AecStructureBase50|Product Desc: Autodesk Architectural Desktop 2007 |Company: Autodesk,Inc. |WEB Address: www.autodesk.com
 90
      129
280
     0
281
     0
  0
CLASS
  1
AECS_DISP_PROPS_MEMBER_PROJECTED
  2
AecsDbDispPropsMemberProjected
  3
AecStructureBase50|Product Desc: Autodesk Architectural Desktop 2007 |Company: Autodesk,Inc. |WEB Address: www.autodesk.com
 90
      129
280
     0
281
     0
  0
CLASS
  1
AECS_DISP_REP_MEMBER_ELEVATION_DETAIL
  2
AecsDbDispRepMemberElevationDetail
  3
AecStructureBase50|Product Desc: Autodesk Architectural Desktop 2007 |Company: Autodesk,Inc. |WEB Address: www.autodesk.com
 90
      129
280
     0
281
     0
  0
CLASS
  1
AECS_DISP_REP_MEMBER_LOGICAL
  2
AecsDbDispRepMemberLogical
  3
AecStructureBase50|Product Desc: Autodesk Architectural Desktop 2007 |Company: Autodesk,Inc. |WEB Address: www.autodesk.com
 90
      129
280
     0
281
     0
  0
CLASS
  1
AECS_DISP_PROPS_MEMBER_LOGICAL
  2
AecsDbDispPropsMemberLogical
  3
AecStructureBase50|Product Desc: Autodesk Architectural Desktop 2007 |Company: Autodesk,Inc. |WEB Address: www.autodesk.com
 90
      129
280
     0
281
     0
  0
CLASS
  1
AECS_DISP_REP_MEMBER_MODEL_DESIGN
  2
AecsDbDispRepMemberModelDesign
  3
AecStructureBase50|Product Desc: Autodesk Architectural Desktop 2007 |Company: Autodesk,Inc. |WEB Address: www.autodesk.com
 90
      129
280
     0
281
     0
  0
CLASS
  1
AECS_DISP_PROPS_MEMBER
  2
AecsDbDispPropsMember
  3
AecStructureBase50|Product Desc: Autodesk Architectural Desktop 2007 |Company: Autodesk,Inc. |WEB Address: www.autodesk.com
 90
      129
280
     0
281
     0
  0
CLASS
  1
AECS_DISP_REP_MEMBER_MODEL_DETAIL
  2
AecsDbDispRepMemberModelDetail
  3
AecStructureBase50|Product Desc: Autodesk Architectural Desktop 2007 |Company: Autodesk,Inc. |WEB Address: www.autodesk.com
 90
      129
280
     0
281
     0
  0
CLASS
  1
AECS_DISP_REP_MEMBER_PLAN_DESIGN
  2
AecsDbDispRepMemberPlanDesign
  3
AecStructureBase50|Product Desc: Autodesk Architectural Desktop 2007 |Company: Autodesk,Inc. |WEB Address: www.autodesk.com
 90
      129
280
     0
281
     0
  0
CLASS
  1
AECS_DISP_PROPS_MEMBER_PLAN
  2
AecsDbDispPropsMemberPlan
  3
AecStructureBase50|Product Desc: Autodesk Architectural Desktop 2007 |Company: Autodesk,Inc. |WEB Address: www.autodesk.com
 90
      129
280
     0
281
     0
  0
CLASS
  1
AECS_DISP_REP_MEMBER_PLAN_DETAIL
  2
AecsDbDispRepMemberPlanDetail
  3
AecStructureBase50|Product Desc: Autodesk Architectural Desktop 2007 |Company: Autodesk,Inc. |WEB Address: www.autodesk.com
 90
      129
280
     0
281
     0
  0
CLASS
  1
AECS_DISP_REP_MEMBER_PLAN_SKETCH
  2
AecsDbDispRepMemberPlanSketch
  3
AecStructureBase50|Product Desc: Autodesk Architectural Desktop 2007 |Company: Autodesk,Inc. |WEB Address: www.autodesk.com
 90
      129
280
     0
281
     0
  0
CLASS
  1
AECS_DISP_PROPS_MEMBER_PLAN_SKETCH
  2
AecsDbDispPropsMemberPlanSketch
  3
AecStructureBase50|Product Desc: Autodesk Architectural Desktop 2007 |Company: Autodesk,Inc. |WEB Address: www.autodesk.com
 90
      129
280
     0
281
     0
  0
CLASS
  1
AEC_DISP_REP_SCHEDULE_TABLE
  2
AecDbDispRepScheduleTable
  3
AecSchedule50|Product Desc: Autodesk Architectural Desktop 2007 |Company: Autodesk,Inc. |WEB Address: www.autodesk.com
 90
      129
280
     0
281
     0
  0
CLASS
  1
AEC_DISP_PROPS_SCHEDULE_TABLE
  2
AecDbDispPropsScheduleTable
  3
AecSchedule50|Product Desc: Autodesk Architectural Desktop 2007 |Company: Autodesk,Inc. |WEB Address: www.autodesk.com
 90
      129
280
     0
281
     0
  0
CLASS
  1
AEC_DISP_REP_AREA
  2
AecDbDispRepArea
  3
AecAreaCalculationBase50|Product Desc: Autodesk Architectural Desktop 2007 |Company: Autodesk,Inc. |WEB Address: www.autodesk.com
 90
    32897
280
     0
281
     0
  0
CLASS
  1
AEC_DISP_PROPS_AREA
  2
AecDbDispPropsArea
  3
AecAreaCalculationBase50|Product Desc: Autodesk Architectural Desktop 2007 |Company: Autodesk,Inc. |WEB Address: www.autodesk.com
 90
    32897
280
     0
281
     0
  0
CLASS
  1
AEC_DISP_REP_AREA_DECOMPOSED
  2
AecDbDispRepAreaDecomposed
  3
AecAreaCalculationBase50|Product Desc: Autodesk Architectural Desktop 2007 |Company: Autodesk,Inc. |WEB Address: www.autodesk.com
 90
    32897
280
     0
281
     0
  0
CLASS
  1
AEC_DISP_PROPS_AREA_DECOMPOSED
  2
AecDbDispPropsAreaDecomposed
  3
AecAreaCalculationBase50|Product Desc: Autodesk Architectural Desktop 2007 |Company: Autodesk,Inc. |WEB Address: www.autodesk.com
 90
    32897
280
     0
281
     0
  0
CLASS
  1
AEC_DISP_REP_AREAGROUP
  2
AecDbDispRepAreaGroup
  3
AecAreaCalculationBase50|Product Desc: Autodesk Architectural Desktop 2007 |Company: Autodesk,Inc. |WEB Address: www.autodesk.com
 90
    32897
280
     0
281
     0
  0
CLASS
  1
AEC_DISP_PROPS_AREAGROUP
  2
AecDbDispPropsAreaGroup
  3
AecAreaCalculationBase50|Product Desc: Autodesk Architectural Desktop 2007 |Company: Autodesk,Inc. |WEB Address: www.autodesk.com
 90
    32897
280
     0
281
     0
  0
CLASS
  1
AEC_AECDBDISPREPAREA100
  2
AecDbDispRepArea100
  3
AecArchDACHBase50|Product Desc: Autodesk Architectural Desktop 2007 |Company: Autodesk,Inc. |WEB Address: www.autodesk.com
 90
    32897
280
     0
281
     0
  0
CLASS
  1
AEC_AECDBDISPREPAREAGROUP100
  2
AecDbDispRepAreaGroup100
  3
AecArchDACHBase50|Product Desc: Autodesk Architectural Desktop 2007 |Company: Autodesk,Inc. |WEB Address: www.autodesk.com
 90
    32897
280
     0
281
     0
  0
CLASS
  1
AEC_AECDBDISPREPBDGELEVLINEPLAN100
  2
AecDbDispRepBdgElevLinePlan100
  3
AecArchDACHBase50|Product Desc: Autodesk Architectural Desktop 2007 |Company: Autodesk,Inc. |WEB Address: www.autodesk.com
 90
      129
280
     0
281
     0
  0
CLASS
  1
AEC_AECDBDISPREPBDGSECTIONLINEPLAN100
  2
AecDbDispRepBdgSectionLinePlan100
  3
AecArchDACHBase50|Product Desc: Autodesk Architectural Desktop 2007 |Company: Autodesk,Inc. |WEB Address: www.autodesk.com
 90
      129
280
     0
281
     0
  0
CLASS
  1
AEC_AECDBDISPREPCEILINGGRIDPLAN100
  2
AecDbDispRepCeilingGridPlan100
  3
AecArchDACHBase50|Product Desc: Autodesk Architectural Desktop 2007 |Company: Autodesk,Inc. |WEB Address: www.autodesk.com
 90
      129
280
     0
281
     0
  0
CLASS
  1
AEC_AECDBDISPREPCOLUMNGRIDPLAN100
  2
AecDbDispRepColumnGridPlan100
  3
AecArchDACHBase50|Product Desc: Autodesk Architectural Desktop 2007 |Company: Autodesk,Inc. |WEB Address: www.autodesk.com
 90
      129
280
     0
281
     0
  0
CLASS
  1
AEC_AECDBDISPREPCURTAINWALLLAYOUTPLAN100
  2
AecDbDispRepCurtainWallLayoutPlan100
  3
AecArchDACHBase50|Product Desc: Autodesk Architectural Desktop 2007 |Company: Autodesk,Inc. |WEB Address: www.autodesk.com
 90
      129
280
     0
281
     0
  0
CLASS
  1
AEC_AECDBDISPREPCURTAINWALLUNITPLAN100
  2
AecDbDispRepCurtainWallUnitPlan100
  3
AecArchDACHBase50|Product Desc: Autodesk Architectural Desktop 2007 |Company: Autodesk,Inc. |WEB Address: www.autodesk.com
 90
      129
280
     0
281
     0
  0
CLASS
  1
AEC_AECDBDISPREPMVBLOCKREFPLAN100
  2
AecDbDispRepMvBlockRefPlan100
  3
AecArchDACHBase50|Product Desc: Autodesk Architectural Desktop 2007 |Company: Autodesk,Inc. |WEB Address: www.autodesk.com
 90
      129
280
     0
281
     0
  0
CLASS
  1
AEC_AECDBDISPREPROOFPLAN100
  2
AecDbDispRepRoofPlan100
  3
AecArchDACHBase50|Product Desc: Autodesk Architectural Desktop 2007 |Company: Autodesk,Inc. |WEB Address: www.autodesk.com
 90
      129
280
     0
281
     0
  0
CLASS
  1
AEC_AECDBDISPREPROOFSLABPLAN100
  2
AecDbDispRepRoofSlabPlan100
  3
AecArchDACHBase50|Product Desc: Autodesk Architectural Desktop 2007 |Company: Autodesk,Inc. |WEB Address: www.autodesk.com
 90
      129
280
     0
281
     0
  0
CLASS
  1
AEC_AECDBDISPREPSLABPLAN100
  2
AecDbDispRepSlabPlan100
  3
AecArchDACHBase50|Product Desc: Autodesk Architectural Desktop 2007 |Company: Autodesk,Inc. |WEB Address: www.autodesk.com
 90
      129
280
     0
281
     0
  0
CLASS
  1
AEC_AECDBDISPREPSPACEBOUNDARYPLAN100
  2
AecDbDispRepSpaceBoundaryPlan100
  3
AecArchDACHBase50|Product Desc: Autodesk Architectural Desktop 2007 |Company: Autodesk,Inc. |WEB Address: www.autodesk.com
 90
    32897
280
     0
281
     0
  0
CLASS
  1
AEC_AECDBDISPREPSPACEPLAN100
  2
AecDbDispRepSpacePlan100
  3
AecArchDACHBase50|Product Desc: Autodesk Architectural Desktop 2007 |Company: Autodesk,Inc. |WEB Address: www.autodesk.com
 90
      129
280
     0
281
     0
  0
CLASS
  1
AEC_AECDBDISPREPWALLPLAN100
  2
AecDbDispRepWallPlan100
  3
AecArchDACHBase50|Product Desc: Autodesk Architectural Desktop 2007 |Company: Autodesk,Inc. |WEB Address: www.autodesk.com
 90
      129
280
     0
281
     0
  0
CLASS
  1
AEC_AECDBDISPREPWINDOWASSEMBLYPLAN100
  2
AecDbDispRepWindowAssemblyPlan100
  3
AecArchDACHBase50|Product Desc: Autodesk Architectural Desktop 2007 |Company: Autodesk,Inc. |WEB Address: www.autodesk.com
 90
      129
280
     0
281
     0
  0
CLASS
  1
AEC_AECSDBDISPREPMEMBERPLAN100
  2
AecsDbDispRepMemberPlan100
  3
AecArchDACHBase50|Product Desc: Autodesk Architectural Desktop 2007 |Company: Autodesk,Inc. |WEB Address: www.autodesk.com
 90
    32897
280
     0
281
     0
  0
CLASS
  1
AEC_AECDBDISPREPAREA50
  2
AecDbDispRepArea50
  3
AecArchDACHBase50|Product Desc: Autodesk Architectural Desktop 2007 |Company: Autodesk,Inc. |WEB Address: www.autodesk.com
 90
    32897
280
     0
281
     0
  0
CLASS
  1
AEC_AECDBDISPREPAREAGROUP50
  2
AecDbDispRepAreaGroup50
  3
AecArchDACHBase50|Product Desc: Autodesk Architectural Desktop 2007 |Company: Autodesk,Inc. |WEB Address: www.autodesk.com
 90
    32897
280
     0
281
     0
  0
CLASS
  1
AEC_AECDBDISPREPBDGELEVLINEPLAN50
  2
AecDbDispRepBdgElevLinePlan50
  3
AecArchDACHBase50|Product Desc: Autodesk Architectural Desktop 2007 |Company: Autodesk,Inc. |WEB Address: www.autodesk.com
 90
      129
280
     0
281
     0
  0
CLASS
  1
AEC_AECDBDISPREPBDGSECTIONLINEPLAN50
  2
AecDbDispRepBdgSectionLinePlan50
  3
AecArchDACHBase50|Product Desc: Autodesk Architectural Desktop 2007 |Company: Autodesk,Inc. |WEB Address: www.autodesk.com
 90
      129
280
     0
281
     0
  0
CLASS
  1
AEC_AECDBDISPREPCEILINGGRIDPLAN50
  2
AecDbDispRepCeilingGridPlan50
  3
AecArchDACHBase50|Product Desc: Autodesk Architectural Desktop 2007 |Company: Autodesk,Inc. |WEB Address: www.autodesk.com
 90
      129
280
     0
281
     0
  0
CLASS
  1
AEC_AECDBDISPREPCOLUMNGRIDPLAN50
  2
AecDbDispRepColumnGridPlan50
  3
AecArchDACHBase50|Product Desc: Autodesk Architectural Desktop 2007 |Company: Autodesk,Inc. |WEB Address: www.autodesk.com
 90
      129
280
     0
281
     0
  0
CLASS
  1
AEC_AECDBDISPREPCURTAINWALLLAYOUTPLAN50
  2
AecDbDispRepCurtainWallLayoutPlan50
  3
AecArchDACHBase50|Product Desc: Autodesk Architectural Desktop 2007 |Company: Autodesk,Inc. |WEB Address: www.autodesk.com
 90
      129
280
     0
281
     0
  0
CLASS
  1
AEC_AECDBDISPREPCURTAINWALLUNITPLAN50
  2
AecDbDispRepCurtainWallUnitPlan50
  3
AecArchDACHBase50|Product Desc: Autodesk Architectural Desktop 2007 |Company: Autodesk,Inc. |WEB Address: www.autodesk.com
 90
      129
280
     0
281
     0
  0
CLASS
  1
AEC_AECDBDISPREPMVBLOCKREFPLAN50
  2
AecDbDispRepMvBlockRefPlan50
  3
AecArchDACHBase50|Product Desc: Autodesk Architectural Desktop 2007 |Company: Autodesk,Inc. |WEB Address: www.autodesk.com
 90
      129
280
     0
281
     0
  0
CLASS
  1
AEC_AECDBDISPREPROOFPLAN50
  2
AecDbDispRepRoofPlan50
  3
AecArchDACHBase50|Product Desc: Autodesk Architectural Desktop 2007 |Company: Autodesk,Inc. |WEB Address: www.autodesk.com
 90
      129
280
     0
281
     0
  0
CLASS
  1
AEC_AECDBDISPREPROOFSLABPLAN50
  2
AecDbDispRepRoofSlabPlan50
  3
AecArchDACHBase50|Product Desc: Autodesk Architectural Desktop 2007 |Company: Autodesk,Inc. |WEB Address: www.autodesk.com
 90
      129
280
     0
281
     0
  0
CLASS
  1
AEC_AECDBDISPREPSLABPLAN50
  2
AecDbDispRepSlabPlan50
  3
AecArchDACHBase50|Product Desc: Autodesk Architectural Desktop 2007 |Company: Autodesk,Inc. |WEB Address: www.autodesk.com
 90
      129
280
     0
281
     0
  0
CLASS
  1
AEC_AECDBDISPREPSPACEBOUNDARYPLAN50
  2
AecDbDispRepSpaceBoundaryPlan50
  3
AecArchDACHBase50|Product Desc: Autodesk Architectural Desktop 2007 |Company: Autodesk,Inc. |WEB Address: www.autodesk.com
 90
    32897
280
     0
281
     0
  0
CLASS
  1
AEC_AECDBDISPREPSPACEPLAN50
  2
AecDbDispRepSpacePlan50
  3
AecArchDACHBase50|Product Desc: Autodesk Architectural Desktop 2007 |Company: Autodesk,Inc. |WEB Address: www.autodesk.com
 90
      129
280
     0
281
     0
  0
CLASS
  1
AEC_AECDBDISPREPWALLPLAN50
  2
AecDbDispRepWallPlan50
  3
AecArchDACHBase50|Product Desc: Autodesk Architectural Desktop 2007 |Company: Autodesk,Inc. |WEB Address: www.autodesk.com
 90
      129
280
     0
281
     0
  0
CLASS
  1
AEC_AECDBDISPREPWINDOWASSEMBLYPLAN50
  2
AecDbDispRepWindowAssemblyPlan50
  3
AecArchDACHBase50|Product Desc: Autodesk Architectural Desktop 2007 |Company: Autodesk,Inc. |WEB Address: www.autodesk.com
 90
      129
280
     0
281
     0
  0
CLASS
  1
AEC_AECSDBDISPREPMEMBERPLAN50
  2
AecsDbDispRepMemberPlan50
  3
AecArchDACHBase50|Product Desc: Autodesk Architectural Desktop 2007 |Company: Autodesk,Inc. |WEB Address: www.autodesk.com
 90
    32897
280
     0
281
     0
  0
CLASS
  1
AEC_AECDBDISPREPCURTAINWALLLAYOUTXSECTION
  2
AecDbDispRepCurtainWallLayoutXSection
  3
AecArchDACHBase50|Product Desc: Autodesk Architectural Desktop 2007 |Company: Autodesk,Inc. |WEB Address: www.autodesk.com
 90
    32897
280
     0
281
     0
  0
CLASS
  1
AEC_DISPROPSXSECTIONCOMMON
  2
AecDbDispPropsXSectionCmn
  3
AecArchDACHBase50|Product Desc: Autodesk Architectural Desktop 2007 |Company: Autodesk,Inc. |WEB Address: www.autodesk.com
 90
    32897
280
     0
281
     0
  0
CLASS
  1
AEC_AECDBDISPREPCURTAINWALLUNITXSECTION
  2
AecDbDispRepCurtainWallUnitXSection
  3
AecArchDACHBase50|Product Desc: Autodesk Architectural Desktop 2007 |Company: Autodesk,Inc. |WEB Address: www.autodesk.com
 90
    32897
280
     0
281
     0
  0
CLASS
  1
AEC_AECDBDISPREPDOORXSECTION
  2
AecDbDispRepDoorXSection
  3
AecArchDACHBase50|Product Desc: Autodesk Architectural Desktop 2007 |Company: Autodesk,Inc. |WEB Address: www.autodesk.com
 90
    32897
280
     0
281
     0
  0
CLASS
  1
AEC_AECDBDISPREPMASSELEMXSECTION
  2
AecDbDispRepMassElemXSection
  3
AecArchDACHBase50|Product Desc: Autodesk Architectural Desktop 2007 |Company: Autodesk,Inc. |WEB Address: www.autodesk.com
 90
    32897
280
     0
281
     0
  0
CLASS
  1
AEC_AECDBDISPREPROOFXSECTION
  2
AecDbDispRepRoofXSection
  3
AecArchDACHBase50|Product Desc: Autodesk Architectural Desktop 2007 |Company: Autodesk,Inc. |WEB Address: www.autodesk.com
 90
    32897
280
     0
281
     0
  0
CLASS
  1
AEC_AECDBDISPREPROOFSLABXSECTION
  2
AecDbDispRepRoofSlabXSection
  3
AecArchDACHBase50|Product Desc: Autodesk Architectural Desktop 2007 |Company: Autodesk,Inc. |WEB Address: www.autodesk.com
 90
    32897
280
     0
281
     0
  0
CLASS
  1
AEC_AECDBDISPREPSLABXSECTION
  2
AecDbDispRepSlabXSection
  3
AecArchDACHBase50|Product Desc: Autodesk Architectural Desktop 2007 |Company: Autodesk,Inc. |WEB Address: www.autodesk.com
 90
    32897
280
     0
281
     0
  0
CLASS
  1
AEC_AECDBDISPREPSPACEXSECTION
  2
AecDbDispRepSpaceXSection
  3
AecArchDACHBase50|Product Desc: Autodesk Architectural Desktop 2007 |Company: Autodesk,Inc. |WEB Address: www.autodesk.com
 90
    32897
280
     0
281
     0
  0
CLASS
  1
AEC_AECDBDISPREPSPACEBOUNDARYXSECTION
  2
AecDbDispRepSpaceBoundaryXSection
  3
AecArchDACHBase50|Product Desc: Autodesk Architectural Desktop 2007 |Company: Autodesk,Inc. |WEB Address: www.autodesk.com
 90
    32897
280
     0
281
     0
  0
CLASS
  1
AEC_AECDBDISPREPWINDOWXSECTION
  2
AecDbDispRepWindowXSection
  3
AecArchDACHBase50|Product Desc: Autodesk Architectural Desktop 2007 |Company: Autodesk,Inc. |WEB Address: www.autodesk.com
 90
    32897
280
     0
281
     0
  0
CLASS
  1
AEC_AECDBDISPREPWINDOWASSEMBLYXSECTION
  2
AecDbDispRepWindowAssemblyXSection
  3
AecArchDACHBase50|Product Desc: Autodesk Architectural Desktop 2007 |Company: Autodesk,Inc. |WEB Address: www.autodesk.com
 90
    32897
280
     0
281
     0
  0
CLASS
  1
AEC_AECDBDISPREPMEMBERXSECTION
  2
AecDbDispRepMemberXSection
  3
AecArchDACHBase50|Product Desc: Autodesk Architectural Desktop 2007 |Company: Autodesk,Inc. |WEB Address: www.autodesk.com
 90
    32897
280
     0
281
     0
  0
CLASS
  1
AEC_DB_DISP_REP_DIM_GROUP_PLAN100
  2
AecDbDispRepDimGroupPlan100
  3
AecArchDACHBase50|Product Desc: Autodesk Architectural Desktop 2007 |Company: Autodesk,Inc. |WEB Address: www.autodesk.com
 90
      129
280
     0
281
     0
  0
CLASS
  1
AEC_DISP_PROPS_DIM
  2
AecDbDispPropsDimGroup
  3
AecArchDACHBase50|Product Desc: Autodesk Architectural Desktop 2007 |Company: Autodesk,Inc. |WEB Address: www.autodesk.com
 90
      129
280
     0
281
     0
  0
CLASS
  1
AEC_DB_DISP_REP_DIM_GROUP_PLAN50
  2
AecDbDispRepDimGroupPlan50
  3
AecArchDACHBase50|Product Desc: Autodesk Architectural Desktop 2007 |Company: Autodesk,Inc. |WEB Address: www.autodesk.com
 90
      129
280
     0
281
     0
  0
CLASS
  1
AEC_DB_DISP_REP_DIM_GROUP_PLAN
  2
AecDbDispRepDimGroupPlan
  3
AecArchDACHBase50|Product Desc: Autodesk Architectural Desktop 2007 |Company: Autodesk,Inc. |WEB Address: www.autodesk.com
 90
      129
280
     0
281
     0
  0
CLASS
  1
AEC_DISP_REP_DOOR_PLAN_50
  2
AecDbDispRepDoorPlan50
  3
AecArchDACHBase50|Product Desc: Autodesk Architectural Desktop 2007 |Company: Autodesk,Inc. |WEB Address: www.autodesk.com
 90
      129
280
     0
281
     0
  0
CLASS
  1
AEC_DISP_PROPS_DOOR_PLAN_50
  2
AecDbDispPropsDoorPlan50
  3
AecArchDACHBase50|Product Desc: Autodesk Architectural Desktop 2007 |Company: Autodesk,Inc. |WEB Address: www.autodesk.com
 90
      129
280
     0
281
     0
  0
CLASS
  1
AEC_DISP_REP_DOOR_PLAN_HEKTO
  2
AecDbDispRepDoorPlanHekto
  3
AecArchDACHBase50|Product Desc: Autodesk Architectural Desktop 2007 |Company: Autodesk,Inc. |WEB Address: www.autodesk.com
 90
      129
280
     0
281
     0
  0
CLASS
  1
AEC_DISP_PROPS_DOOR_PLAN_100
  2
AecDbDispPropsDoorPlan100
  3
AecArchDACHBase50|Product Desc: Autodesk Architectural Desktop 2007 |Company: Autodesk,Inc. |WEB Address: www.autodesk.com
 90
      129
280
     0
281
     0
  0
CLASS
  1
AEC_DISP_REP_DOOR_THRESHOLD_SYMBOL_PLAN
  2
AecDbDispRepDoorThresholdSymbolPlan
  3
AecArchDACHBase50|Product Desc: Autodesk Architectural Desktop 2007 |Company: Autodesk,Inc. |WEB Address: www.autodesk.com
 90
      129
280
     0
281
     0
  0
CLASS
  1
AEC_DISP_PROPS_DOOR_THRESHOLD_SYMBOL_PLAN
  2
AecDbDispPropsDoorThresholdSymbolPlan
  3
AecArchDACHBase50|Product Desc: Autodesk Architectural Desktop 2007 |Company: Autodesk,Inc. |WEB Address: www.autodesk.com
 90
      129
280
     0
281
     0
  0
CLASS
  1
AEC_DISPREPAECDBDISPREPMASSELEMPLAN100
  2
AecDbDispRepMassElemPlan100
  3
AecArchDACHBase50|Product Desc: Autodesk Architectural Desktop 2007 |Company: Autodesk,Inc. |WEB Address: www.autodesk.com
 90
      129
280
     0
281
     0
  0
CLASS
  1
AEC_DISPROPSMASSELEMPLANCOMMON
  2
AecDbDispPropsMassElemPlanCommon
  3
AecArchDACHBase50|Product Desc: Autodesk Architectural Desktop 2007 |Company: Autodesk,Inc. |WEB Address: www.autodesk.com
 90
      129
280
     0
281
     0
  0
CLASS
  1
AEC_DISPREPAECDBDISPREPMASSELEMPLAN50
  2
AecDbDispRepMassElemPlan50
  3
AecArchDACHBase50|Product Desc: Autodesk Architectural Desktop 2007 |Company: Autodesk,Inc. |WEB Address: www.autodesk.com
 90
      129
280
     0
281
     0
  0
CLASS
  1
AEC_DISPREPAECDBDISPREPMASSGROUPPLAN100
  2
AecDbDispRepMassGroupPlan100
  3
AecArchDACHBase50|Product Desc: Autodesk Architectural Desktop 2007 |Company: Autodesk,Inc. |WEB Address: www.autodesk.com
 90
      129
280
     0
281
     0
  0
CLASS
  1
AEC_DISPROPSMASSGROUPPLANCOMMON
  2
AecDbDispPropsMassGroupPlanCommon
  3
AecArchDACHBase50|Product Desc: Autodesk Architectural Desktop 2007 |Company: Autodesk,Inc. |WEB Address: www.autodesk.com
 90
      129
280
     0
281
     0
  0
CLASS
  1
AEC_DISPREPAECDBDISPREPMASSGROUPPLAN50
  2
AecDbDispRepMassGroupPlan50
  3
AecArchDACHBase50|Product Desc: Autodesk Architectural Desktop 2007 |Company: Autodesk,Inc. |WEB Address: www.autodesk.com
 90
      129
280
     0
281
     0
  0
CLASS
  1
AEC_DISPREPMASSGROUPXSECTION
  2
AecDbDispRepMassGroupXSection
  3
AecArchDACHBase50|Product Desc: Autodesk Architectural Desktop 2007 |Company: Autodesk,Inc. |WEB Address: www.autodesk.com
 90
    32897
280
     0
281
     0
  0
CLASS
  1
AEC_DISPREPAECDBDISPREPOPENINGPLAN100
  2
AecDbDispRepOpeningPlan100
  3
AecArchDACHBase50|Product Desc: Autodesk Architectural Desktop 2007 |Company: Autodesk,Inc. |WEB Address: www.autodesk.com
 90
      129
280
     0
281
     0
  0
CLASS
  1
AEC_DISPROPSOPENINGPLANCOMMONHATCHED
  2
AecDbDispPropsOpeningPlanCommonHatched
  3
AecArchDACHBase50|Product Desc: Autodesk Architectural Desktop 2007 |Company: Autodesk,Inc. |WEB Address: www.autodesk.com
 90
      129
280
     0
281
     0
  0
CLASS
  1
AEC_DISPREPAECDBDISPREPOPENINGPLAN50
  2
AecDbDispRepOpeningPlan50
  3
AecArchDACHBase50|Product Desc: Autodesk Architectural Desktop 2007 |Company: Autodesk,Inc. |WEB Address: www.autodesk.com
 90
      129
280
     0
281
     0
  0
CLASS
  1
AEC_DISPREPAECDBDISPREPOPENINGPLANREFLECTED
  2
AecDbDispRepOpeningPlanReflected
  3
AecArchDACHBase50|Product Desc: Autodesk Architectural Desktop 2007 |Company: Autodesk,Inc. |WEB Address: www.autodesk.com
 90
      129
280
     0
281
     0
  0
CLASS
  1
AEC_DISPROPSOPENINGPLANCOMMON
  2
AecDbDispPropsOpeningPlanCommon
  3
AecArchDACHBase50|Product Desc: Autodesk Architectural Desktop 2007 |Company: Autodesk,Inc. |WEB Address: www.autodesk.com
 90
      129
280
     0
281
     0
  0
CLASS
  1
AEC_DISPREPAECDBDISPREPOPENINGSILLPLAN
  2
AecDbDispRepOpeningSillPlan
  3
AecArchDACHBase50|Product Desc: Autodesk Architectural Desktop 2007 |Company: Autodesk,Inc. |WEB Address: www.autodesk.com
 90
      129
280
     0
281
     0
  0
CLASS
  1
AEC_DISPROPSOPENINGSILLPLAN
  2
AecDbDispPropsOpeningSillPlan
  3
AecArchDACHBase50|Product Desc: Autodesk Architectural Desktop 2007 |Company: Autodesk,Inc. |WEB Address: www.autodesk.com
 90
      129
280
     0
281
     0
  0
CLASS
  1
AEC_DISP_REP_RAILING_PLAN_100
  2
AecDbDispRepRailingPlan100
  3
AecArchDACHBase50|Product Desc: Autodesk Architectural Desktop 2007 |Company: Autodesk,Inc. |WEB Address: www.autodesk.com
 90
      129
280
     0
281
     0
  0
CLASS
  1
AEC_DISP_ROPS_RAILING_PLAN_100
  2
AecDbDispPropsRailingPlan100
  3
AecArchDACHBase50|Product Desc: Autodesk Architectural Desktop 2007 |Company: Autodesk,Inc. |WEB Address: www.autodesk.com
 90
      129
280
     0
281
     0
  0
CLASS
  1
AEC_DISP_REP_RAILING_PLAN_50
  2
AecDbDispRepRailingPlan50
  3
AecArchDACHBase50|Product Desc: Autodesk Architectural Desktop 2007 |Company: Autodesk,Inc. |WEB Address: www.autodesk.com
 90
      129
280
     0
281
     0
  0
CLASS
  1
AEC_DISP_ROPS_RAILING_PLAN_COMMON
  2
AecDbDispPropsRailingPlanCommon
  3
AecArchDACHBase50|Product Desc: Autodesk Architectural Desktop 2007 |Company: Autodesk,Inc. |WEB Address: www.autodesk.com
 90
    32897
280
     0
281
     0
  0
CLASS
  1
AEC_DISPREPRAILINGXSECTION
  2
AecDbDispRepRailingXSection
  3
AecArchDACHBase50|Product Desc: Autodesk Architectural Desktop 2007 |Company: Autodesk,Inc. |WEB Address: www.autodesk.com
 90
    32897
280
     0
281
     0
  0
CLASS
  1
AEC_DISP_REP_STAIR_PLAN_100
  2
AecDbDispRepStairPlan100
  3
AecArchDACHBase50|Product Desc: Autodesk Architectural Desktop 2007 |Company: Autodesk,Inc. |WEB Address: www.autodesk.com
 90
      129
280
     0
281
     0
  0
CLASS
  1
AEC_DISP_ROPS_STAIR_PLAN_100
  2
AecDbDispPropsStairPlan100
  3
AecArchDACHBase50|Product Desc: Autodesk Architectural Desktop 2007 |Company: Autodesk,Inc. |WEB Address: www.autodesk.com
 90
      129
280
     0
281
     0
  0
CLASS
  1
AEC_DISP_REP_STAIR_PLAN_50
  2
AecDbDispRepStairPlan50
  3
AecArchDACHBase50|Product Desc: Autodesk Architectural Desktop 2007 |Company: Autodesk,Inc. |WEB Address: www.autodesk.com
 90
      129
280
     0
281
     0
  0
CLASS
  1
AEC_DISP_ROPS_STAIR_PLAN_50
  2
AecDbDispPropsStairPlan50
  3
AecArchDACHBase50|Product Desc: Autodesk Architectural Desktop 2007 |Company: Autodesk,Inc. |WEB Address: www.autodesk.com
 90
      129
280
     0
281
     0
  0
CLASS
  1
AEC_DISPREPSTAIRXSECTION
  2
AecDbDispRepStairXSection
  3
AecArchDACHBase50|Product Desc: Autodesk Architectural Desktop 2007 |Company: Autodesk,Inc. |WEB Address: www.autodesk.com
 90
    32897
280
     0
281
     0
  0
CLASS
  1
AEC_DISPREPWALLXSECTION
  2
AecDbDispRepWallXSection
  3
AecArchDACHBase50|Product Desc: Autodesk Architectural Desktop 2007 |Company: Autodesk,Inc. |WEB Address: www.autodesk.com
 90
    32897
280
     0
281
     0
  0
CLASS
  1
AEC_DISPROPSXSECTIONWALL
  2
AecDbDispPropsWallXSection
  3
AecArchDACHBase50|Product Desc: Autodesk Architectural Desktop 2007 |Company: Autodesk,Inc. |WEB Address: www.autodesk.com
 90
    32897
280
     0
281
     0
  0
CLASS
  1
AEC_DISP_REP_WINDOW_PLAN_100
  2
AecDbDispRepWindowPlan100
  3
AecArchDACHBase50|Product Desc: Autodesk Architectural Desktop 2007 |Company: Autodesk,Inc. |WEB Address: www.autodesk.com
 90
      129
280
     0
281
     0
  0
CLASS
  1
AEC_DISP_PROPS_WINDOW_PLAN_100
  2
AecDbDispPropsWindowPlan100
  3
AecArchDACHBase50|Product Desc: Autodesk Architectural Desktop 2007 |Company: Autodesk,Inc. |WEB Address: www.autodesk.com
 90
      129
280
     0
281
     0
  0
CLASS
  1
AEC_DISP_REP_WINDOW_PLAN_50
  2
AecDbDispRepWindowPlan50
  3
AecArchDACHBase50|Product Desc: Autodesk Architectural Desktop 2007 |Company: Autodesk,Inc. |WEB Address: www.autodesk.com
 90
      129
280
     0
281
     0
  0
CLASS
  1
AEC_DISP_PROPS_WINDOW_PLAN_50
  2
AecDbDispPropsWindowPlan50
  3
AecArchDACHBase50|Product Desc: Autodesk Architectural Desktop 2007 |Company: Autodesk,Inc. |WEB Address: www.autodesk.com
 90
      129
280
     0
281
     0
  0
CLASS
  1
AEC_DISP_REP_SET
  2
AecDbDispRepSet
  3
AecBase50|Product Desc: Autodesk Architectural Desktop 2007 |Company: Autodesk,Inc. |WEB Address: www.autodesk.com
 90
      129
280
     0
281
     0
  0
CLASS
  1
AEC_DISP_REP_CONFIG
  2
AecDbDispRepConfig
  3
AecBase50|Product Desc: Autodesk Architectural Desktop 2007 |Company: Autodesk,Inc. |WEB Address: www.autodesk.com
 90
      129
280
     0
281
     0
  0
CLASS
  1
AEC_LAYERKEY_STYLE
  2
AecDbLayerKeyStyle
  3
AecBase50|Product Desc: Autodesk Architectural Desktop 2007 |Company: Autodesk,Inc. |WEB Address: www.autodesk.com
 90
    32897
280
     0
281
     0
  0
CLASS
  1
AEC_VARS_ARCHBASE
  2
AecDbVarsArchBase
  3
AecArchBase50|Product Desc: Autodesk Architectural Desktop 2007 |Company: Autodesk,Inc. |WEB Address: www.autodesk.com
 90
      129
280
     0
281
     0
  0
CLASS
  1
BINRECORD
  2
AcAecBinRecord
  3
AecBase50|Product Desc: Autodesk Architectural Desktop 2007 |Company: Autodesk,Inc. |WEB Address: www.autodesk.com
 90
    32897
280
     0
281
     0
  0
CLASS
  1
AEC_VARS_MUNICH
  2
AecDbVarsMunich
  3
AecArchDACHBase50|Product Desc: Autodesk Architectural Desktop 2007 |Company: Autodesk,Inc. |WEB Address: www.autodesk.com
 90
      129
280
     0
281
     0
  0
CLASS
  1
AEC_STAIR_STYLE
  2
AecDbStairStyle
  3
AecArchBase50|Product Desc: Autodesk Architectural Desktop 2007 |Company: Autodesk,Inc. |WEB Address: www.autodesk.com
 90
    32897
280
     0
281
     0
  0
CLASS
  1
AEC_2DSECTION_STYLE
  2
AecDb2dSectionStyle
  3
AecBase50|Product Desc: Autodesk Architectural Desktop 2007 |Company: Autodesk,Inc. |WEB Address: www.autodesk.com
 90
    32897
280
     0
281
     0
  0
CLASS
  1
AEC_DIM_STYLE
  2
AecDbDimensionStyle
  3
AecArchDACHBase50|Product Desc: Autodesk Architectural Desktop 2007 |Company: Autodesk,Inc. |WEB Address: www.autodesk.com
 90
    32897
280
     0
281
     0
  0
CLASS
  1
AEC_LAYOUT_GRID2D
  2
AecDbLayoutGrid2d
  3
AecBase50|Product Desc: Autodesk Architectural Desktop 2007 |Company: Autodesk,Inc. |WEB Address: www.autodesk.com
 90
    33661
280
     0
281
     1
  0
CLASS
  1
AEC_MVBLOCK_DEF
  2
AecDbMvBlockDef
  3
AecBase50|Product Desc: Autodesk Architectural Desktop 2007 |Company: Autodesk,Inc. |WEB Address: www.autodesk.com
 90
      129
280
     0
281
     0
  0
CLASS
  1
AEC_AECDBAREAPROPOSALNAMES
  2
AecDbAreaProposalNames
  3
AecAreaCalculationBase50|Product Desc: Autodesk Architectural Desktop 2007 |Company: Autodesk,Inc. |WEB Address: www.autodesk.com
 90
    32897
280
     0
281
     0
  0
CLASS
  1
AEC_AECDBAREAGROUPSTYLE
  2
AecDbAreaGroupStyle
  3
AecAreaCalculationBase50|Product Desc: Autodesk Architectural Desktop 2007 |Company: Autodesk,Inc. |WEB Address: www.autodesk.com
 90
    32897
280
     0
281
     0
  0
CLASS
  1
AEC_AECDBAREAGROUPDEF
  2
AecDbAreaGroupDef
  3
AecAreaCalculationBase50|Product Desc: Autodesk Architectural Desktop 2007 |Company: Autodesk,Inc. |WEB Address: www.autodesk.com
 90
    32897
280
     0
281
     0
  0
CLASS
  1
AecDbPropertySet
  2
AecDbPropertySet
  3
AecScheduleData50|Product Desc: Autodesk Architectural Desktop 2007 |Company: Autodesk,Inc. |WEB Address: www.autodesk.com
 90
    32897
280
     0
281
     0
  0
CLASS
  1
AEC_TEXT_NOTE
  2
AecDbTextNote
  3
AecBase50|Product Desc: Autodesk Architectural Desktop 2007 |Company: Autodesk,Inc. |WEB Address: www.autodesk.com
 90
    32897
280
     0
281
     0
  0
CLASS
  1
AEC_SCHEDULE_DATA_FORMAT
  2
AecDbScheduleDataFormat
  3
AecScheduleData50|Product Desc: Autodesk Architectural Desktop 2007 |Company: Autodesk,Inc. |WEB Address: www.autodesk.com
 90
    32897
280
     0
281
     0
  0
CLASS
  1
AEC_PROPERTY_SET_DEF
  2
AecDbPropertySetDef
  3
AecScheduleData50|Product Desc: Autodesk Architectural Desktop 2007 |Company: Autodesk,Inc. |WEB Address: www.autodesk.com
 90
    32897
280
     0
281
     0
  0
CLASS
  1
AEC_SCHEDULE_TABLE_STYLE
  2
AecDbScheduleTableStyle
  3
AecSchedule50|Product Desc: Autodesk Architectural Desktop 2007 |Company: Autodesk,Inc. |WEB Address: www.autodesk.com
 90
    32897
280
     0
281
     0
  0
CLASS
  1
AEC_AECDBAREAMODIFIER
  2
AecDbAreaModifier
  3
AecAreaCalculationBase50|Product Desc: Autodesk Architectural Desktop 2007 |Company: Autodesk,Inc. |WEB Address: www.autodesk.com
 90
    32897
280
     0
281
     0
  0
CLASS
  1
AEC_AECDBAREASTYLE
  2
AecDbAreaStyle
  3
AecAreaCalculationBase50|Product Desc: Autodesk Architectural Desktop 2007 |Company: Autodesk,Inc. |WEB Address: www.autodesk.com
 90
    32897
280
     0
281
     0
  0
CLASS
  1
AEC_MATERIAL_DEF
  2
AecDbMaterialDef
  3
AecBase50|Product Desc: Autodesk Architectural Desktop 2007 |Company: Autodesk,Inc. |WEB Address: www.autodesk.com
 90
    32897
280
     0
281
     0
  0
CLASS
  1
AEC_DISP_PROPS_SPACE_BOUNDARY
  2
AecDbDispPropsSpaceBoundary
  3
AecArchBase50|Product Desc: Autodesk Architectural Desktop 2007 |Company: Autodesk,Inc. |WEB Address: www.autodesk.com
 90
    32897
280
     0
281
     0
  0
CLASS
  1
AEC_DISP_PROPS_WALL_MODEL
  2
AecDbDispPropsWallModel
  3
AecArchBase50|Product Desc: Autodesk Architectural Desktop 2007 |Company: Autodesk,Inc. |WEB Address: www.autodesk.com
 90
      129
280
     0
281
     0
  0
CLASS
  1
AEC_BLOCK_REF_PATH_MGR
  2
AecDbBlockRefPathMgr
  3
AecBase40
 90
    32897
280
     0
281
     0
  0
CLASS
  1
AEC_NOTIFICATION_TRACKER
  2
AecDbNotificationTracker
  3
AecBase50|Product Desc: Autodesk Architectural Desktop 2007 |Company: Autodesk,Inc. |WEB Address: www.autodesk.com
 90
    32897
280
     0
281
     0
  0
CLASS
  1
AEC_DISP_REP_EDITINPLACEPROFILE
  2
AecDbDispRepEditInPlaceProfile
  3
AecBase50|Product Desc: Autodesk Architectural Desktop 2007 |Company: Autodesk,Inc. |WEB Address: www.autodesk.com
 90
      129
280
     0
281
     0
  0
CLASS
  1
AEC_DISP_PROPS_EDITINPLACEPROFILE_MODEL
  2
AecDbDispPropsEditInPlaceProfile
  3
AecBase50|Product Desc: Autodesk Architectural Desktop 2007 |Company: Autodesk,Inc. |WEB Address: www.autodesk.com
 90
      129
280
     0
281
     0
  0
CLASS
  1
AEC_DISP_REP_MATERIAL
  2
AecDbDispRepMaterial
  3
AecBase50|Product Desc: Autodesk Architectural Desktop 2007 |Company: Autodesk,Inc. |WEB Address: www.autodesk.com
 90
      129
280
     0
281
     0
  0
CLASS
  1
AEC_DISP_PROPS_MATERIAL
  2
AecDbDispPropsMaterial
  3
AecBase50|Product Desc: Autodesk Architectural Desktop 2007 |Company: Autodesk,Inc. |WEB Address: www.autodesk.com
 90
      129
280
     0
281
     0
  0
CLASS
  1
AEC_DISP_REP_STAIR_PLAN_OVERLAPPING
  2
AecDbDispRepStairPlanOverlapping
  3
AecArchBase50|Product Desc: Autodesk Architectural Desktop 2007 |Company: Autodesk,Inc. |WEB Address: www.autodesk.com
 90
      129
280
     0
281
     0
  0
CLASS
  1
AEC_DISP_PROPS_STAIR_PLAN_OVERLAPPING
  2
AecDbDispPropsStairPlanOverlapping
  3
AecArchBase50|Product Desc: Autodesk Architectural Desktop 2007 |Company: Autodesk,Inc. |WEB Address: www.autodesk.com
 90
      129
280
     0
281
     0
  0
CLASS
  1
AEC_DISP_REP_WINDOWASSEMBLY_SILL_PLAN
  2
AecDbDispRepWindowAssemblySillPlan
  3
AecArchBase50|Product Desc: Autodesk Architectural Desktop 2007 |Company: Autodesk,Inc. |WEB Address: www.autodesk.com
 90
      129
280
     0
281
     0
  0
CLASS
  1
AEC_DISP_PROPS_WINDOW_ASSEMBLY_SILL_PLAN
  2
AecDbDispPropsWindowAssemblySillPlan
  3
AecArchBase50|Product Desc: Autodesk Architectural Desktop 2007 |Company: Autodesk,Inc. |WEB Address: www.autodesk.com
 90
      129
280
     0
281
     0
  0
CLASS
  1
SPATIAL_INDEX
  2
AcDbSpatialIndex
  3
ObjectDBX Classes
 90
        0
280
     0
281
     0
  0
CLASS
  1
AEC_MASS_ELEM_STYLE
  2
AecDbMassElemStyle
  3
AecBaseEx50|Product Desc: Autodesk Architectural Desktop 2007 |Company: Autodesk,Inc. |WEB Address: www.autodesk.com
 90
    32897
280
     0
281
     0
  0
CLASS
  1
MATERIAL
  2
AcDbMaterial
  3
ObjectDBX Classes
 90
     1153
280
     0
281
     0
  0
CLASS
  1
AEC_CURTAIN_WALL_UNIT_STYLE
  2
AecDbCurtainWallUnitStyle
  3
AecArchBase50|Product Desc: Autodesk Architectural Desktop 2007 |Company: Autodesk,Inc. |WEB Address: www.autodesk.com
 90
    32897
280
     0
281
     0
  0
CLASS
  1
AEC_CURTAIN_WALL_LAYOUT_STYLE
  2
AecDbCurtainWallLayoutStyle
  3
AecArchBase50|Product Desc: Autodesk Architectural Desktop 2007 |Company: Autodesk,Inc. |WEB Address: www.autodesk.com
 90
    32897
280
     0
281
     0
  0
CLASS
  1
AEC_DOOR_STYLE
  2
AecDbDoorStyle
  3
AecArchBase50|Product Desc: Autodesk Architectural Desktop 2007 |Company: Autodesk,Inc. |WEB Address: www.autodesk.com
 90
    32897
280
     0
281
     0
  0
CLASS
  1
AEC_WINDOW_STYLE
  2
AecDbWindowStyle
  3
AecArchBase50|Product Desc: Autodesk Architectural Desktop 2007 |Company: Autodesk,Inc. |WEB Address: www.autodesk.com
 90
    32897
280
     0
281
     0
  0
CLASS
  1
AEC_POLYGON_STYLE
  2
AecDbPolygonStyle
  3
AecBaseEx50|Product Desc: Autodesk Architectural Desktop 2007 |Company: Autodesk,Inc. |WEB Address: www.autodesk.com
 90
    32897
280
     0
281
     0
  0
CLASS
  1
AEC_WINDOW_ASSEMBLY_STYLE
  2
AecDbWindowAssemblyStyle
  3
AecArchBase50|Product Desc: Autodesk Architectural Desktop 2007 |Company: Autodesk,Inc. |WEB Address: www.autodesk.com
 90
    32897
280
     0
281
     0
  0
CLASS
  1
AEC_DISP_REP_GRIP_SAMPLER
  2
AecDbDispRepGripSampler
  3
AecTestBase40
 90
    32897
280
     0
281
     0
  0
CLASS
  1
AEC_DISP_ROPS_RAILING_PLAN_50
  2
AecDbDispPropsRailingPlan50
  3
AecArchDACHBase50|Product Desc: Autodesk Architectural Desktop 2007 |Company: Autodesk,Inc. |WEB Address: www.autodesk.com
 90
      129
280
     0
281
     0
  0
CLASS
  1
AEC_STAIR_WINDER_TYPE_BALANCED
  2
AecDbStairWinderTypeBalanced
  3
AecArchBase50|Product Desc: Autodesk Architectural Desktop 2007 |Company: Autodesk,Inc. |WEB Address: www.autodesk.com
 90
    32897
280
     0
281
     0
  0
CLASS
  1
AEC_STAIR_WINDER_TYPE_SINGLE_POINT
  2
AecDbStairWinderTypeSinglePoint
  3
AecArchBase50|Product Desc: Autodesk Architectural Desktop 2007 |Company: Autodesk,Inc. |WEB Address: www.autodesk.com
 90
    32897
280
     0
281
     0
  0
CLASS
  1
AEC_STAIR_WINDER_TYPE_MANUAL
  2
AecDbStairWinderTypeManual
  3
AecArchBase50|Product Desc: Autodesk Architectural Desktop 2007 |Company: Autodesk,Inc. |WEB Address: www.autodesk.com
 90
    32897
280
     0
281
     0
  0
CLASS
  1
AEC_STAIR_WINDER_STYLE
  2
AecDbStairWinderStyle
  3
AecArchBase50|Product Desc: Autodesk Architectural Desktop 2007 |Company: Autodesk,Inc. |WEB Address: www.autodesk.com
 90
    32897
280
     0
281
     0
  0
CLASS
  1
AEC_STAIR
  2
AecDbStair
  3
AecArchBase50|Product Desc: Autodesk Architectural Desktop 2007 |Company: Autodesk,Inc. |WEB Address: www.autodesk.com
 90
    33661
280
     0
281
     1
  0
CLASS
  1
AEC_MASKBLOCK_DEF
  2
AecDbMaskBlockDef
  3
AecBase50|Product Desc: Autodesk Architectural Desktop 2007 |Company: Autodesk,Inc. |WEB Address: www.autodesk.com
 90
    32897
280
     0
281
     0
  0
CLASS
  1
SORTENTSTABLE
  2
AcDbSortentsTable
  3
ObjectDBX Classes
 90
        0
280
     0
281
     0
  0
CLASS
  1
AECS_MEMBER_NODE_SHAPE
  2
AecsDbMemberNodeShape
  3
AecStructureBase50|Product Desc: Autodesk Architectural Desktop 2007 |Company: Autodesk,Inc. |WEB Address: www.autodesk.com
 90
    32897
280
     0
281
     0
  0
CLASS
  1
AECS_MEMBER_STYLE
  2
AecsDbMemberStyle
  3
AecStructureBase50|Product Desc: Autodesk Architectural Desktop 2007 |Company: Autodesk,Inc. |WEB Address: www.autodesk.com
 90
    32897
280
     0
281
     0
  0
CLASS
  1
AECS_MEMBER
  2
AecsDbMember
  3
AecStructureBase50|Product Desc: Autodesk Architectural Desktop 2007 |Company: Autodesk,Inc. |WEB Address: www.autodesk.com
 90
    33661
280
     0
281
     1
  0
CLASS
  1
AEC_MVBLOCK_REF
  2
AecDbMvBlockRef
  3
AecBase50|Product Desc: Autodesk Architectural Desktop 2007 |Company: Autodesk,Inc. |WEB Address: www.autodesk.com
 90
    33661
280
     0
281
     1
  0
CLASS
  1
AEC_VARS_STRUCTUREBASE
  2
AecsDbVarsStructureBase
  3
AecStructureBase50|Product Desc: Autodesk Architectural Desktop 2007 |Company: Autodesk,Inc. |WEB Address: www.autodesk.com
 90
      129
280
     0
281
     0
  0
CLASS
  1
AEC_MASS_ELEM
  2
AecDbMassElem
  3
AecBaseEx50|Product Desc: Autodesk Architectural Desktop 2007 |Company: Autodesk,Inc. |WEB Address: www.autodesk.com
 90
    33661
280
     0
281
     1
  0
CLASS
  1
AEC_WALL
  2
AecDbWall
  3
AecArchBase50|Product Desc: Autodesk Architectural Desktop 2007 |Company: Autodesk,Inc. |WEB Address: www.autodesk.com
 90
    33661
280
     0
281
     1
  0
CLASS
  1
AEC_WINDOW
  2
AecDbWindow
  3
AecArchBase50|Product Desc: Autodesk Architectural Desktop 2007 |Company: Autodesk,Inc. |WEB Address: www.autodesk.com
 90
    33661
280
     0
281
     1
  0
CLASS
  1
AEC_ANCHOR_OPENINGBASE_TO_WALL
  2
AecDbAnchorOpeningBaseToWall
  3
AecArchBase50|Product Desc: Autodesk Architectural Desktop 2007 |Company: Autodesk,Inc. |WEB Address: www.autodesk.com
 90
    32897
280
     0
281
     0
  0
CLASS
  1
AEC_DOOR
  2
AecDbDoor
  3
AecArchBase50|Product Desc: Autodesk Architectural Desktop 2007 |Company: Autodesk,Inc. |WEB Address: www.autodesk.com
 90
    33661
280
     0
281
     1
  0
CLASS
  1
AEC_ANCHOR_TAG_TO_ENT
  2
AecDbAnchorTagToEnt
  3
AecScheduleData50|Product Desc: Autodesk Architectural Desktop 2007 |Company: Autodesk,Inc. |WEB Address: www.autodesk.com
 90
    32897
280
     0
281
     0
  0
CLASS
  1
AEC_OPENING
  2
AecDbOpening
  3
AecArchBase50|Product Desc: Autodesk Architectural Desktop 2007 |Company: Autodesk,Inc. |WEB Address: www.autodesk.com
 90
    33661
280
     0
281
     1
  0
CLASS
  1
AEC_POLYGON
  2
AecDbPolygon
  3
AecBaseEx50|Product Desc: Autodesk Architectural Desktop 2007 |Company: Autodesk,Inc. |WEB Address: www.autodesk.com
 90
    33661
280
     0
281
     1
  0
CLASS
  1
AEC_ROOFSLAB
  2
AecDbRoofSlab
  3
AecArchBase50|Product Desc: Autodesk Architectural Desktop 2007 |Company: Autodesk,Inc. |WEB Address: www.autodesk.com
 90
    33661
280
     0
281
     1
  0
CLASS
  1
AEC_SPACE_BOUNDARY
  2
AecDbSpaceBoundary
  3
AecArchBase50|Product Desc: Autodesk Architectural Desktop 2007 |Company: Autodesk,Inc. |WEB Address: www.autodesk.com
 90
    33661
280
     0
281
     1
  0
CLASS
  1
AEC_SPACE
  2
AecDbSpace
  3
AecArchBase50|Product Desc: Autodesk Architectural Desktop 2007 |Company: Autodesk,Inc. |WEB Address: www.autodesk.com
 90
    33661
280
     0
281
     1
  0
CLASS
  1
AEC_CLASSIFICATION_SYSTEM_DEF
  2
AecDbClassificationSystemDef
  3
AecBase50|Product Desc: Autodesk Architectural Desktop 2007 |Company: Autodesk,Inc. |WEB Address: www.autodesk.com
 90
      129
280
     0
281
     0
  0
CLASS
  1
AEC_CLASSIFICATION_DEF
  2
AecDbClassificationDef
  3
AecBase50|Product Desc: Autodesk Architectural Desktop 2007 |Company: Autodesk,Inc. |WEB Address: www.autodesk.com
 90
      129
280
     0
281
     0
  0
CLASS
  1
AEC_CLEANUP_GROUP_DEF
  2
AecDbCleanupGroupDef
  3
AecArchBase50|Product Desc: Autodesk Architectural Desktop 2007 |Company: Autodesk,Inc. |WEB Address: www.autodesk.com
 90
    32897
280
     0
281
     0
  0
CLASS
  1
AEC_STDSIZE_OPENINGS
  2
AecDbStdSizeOpeningList
  3
AecArchBase50|Product Desc: Autodesk Architectural Desktop 2007 |Company: Autodesk,Inc. |WEB Address: www.autodesk.com
 90
    32897
280
     0
281
     0
  0
CLASS
  1
AEC_ENDCAP_STYLE
  2
AecDbEndcapStyle
  3
AecArchBase50|Product Desc: Autodesk Architectural Desktop 2007 |Company: Autodesk,Inc. |WEB Address: www.autodesk.com
 90
    32897
280
     0
281
     0
  0
CLASS
  1
AEC_FRAME_DEF
  2
AecDbOpeningEndcapStyle
  3
AecArchBase50|Product Desc: Autodesk Architectural Desktop 2007 |Company: Autodesk,Inc. |WEB Address: www.autodesk.com
 90
    32897
280
     0
281
     0
  0
CLASS
  1
AEC_PROFILE_DEF
  2
AecDbProfileDef
  3
AecBase50|Product Desc: Autodesk Architectural Desktop 2007 |Company: Autodesk,Inc. |WEB Address: www.autodesk.com
 90
    32897
280
     0
281
     0
  0
CLASS
  1
AEC_ROOFSLAB_STYLE
  2
AecDbRoofSlabStyle
  3
AecArchBase50|Product Desc: Autodesk Architectural Desktop 2007 |Company: Autodesk,Inc. |WEB Address: www.autodesk.com
 90
    32897
280
     0
281
     0
  0
CLASS
  1
AEC_ROOFSLABEDGE_STYLE
  2
AecDbRoofSlabEdgeStyle
  3
AecArchBase50|Product Desc: Autodesk Architectural Desktop 2007 |Company: Autodesk,Inc. |WEB Address: www.autodesk.com
 90
    32897
280
     0
281
     0
  0
CLASS
  1
AEC_SPACE_STYLES
  2
AecDbSpaceStyle
  3
AecArchBase50|Product Desc: Autodesk Architectural Desktop 2007 |Company: Autodesk,Inc. |WEB Address: www.autodesk.com
 90
    32897
280
     0
281
     0
  0
CLASS
  1
AEC_WALL_STYLE
  2
AecDbWallStyle
  3
AecArchBase50|Product Desc: Autodesk Architectural Desktop 2007 |Company: Autodesk,Inc. |WEB Address: www.autodesk.com
 90
    32897
280
     0
281
     0
  0
CLASS
  1
AEC_DIMENSION_GROUP
  2
AecDbDimensionGroup
  3
AecArchDACHBase50|Product Desc: Autodesk Architectural Desktop 2007 |Company: Autodesk,Inc. |WEB Address: www.autodesk.com
 90
    33661
280
     0
281
     1
  0
CLASS
  1
AEC_ANCHOR_TO_N_REF
  2
AecDbAnchorToNRef
  3
AecArchDACHBase50|Product Desc: Autodesk Architectural Desktop 2007 |Company: Autodesk,Inc. |WEB Address: www.autodesk.com
 90
    32897
280
     0
281
     0
  0
CLASS
  1
AEC_SLAB
  2
AecDbSlab
  3
AecArchBase50|Product Desc: Autodesk Architectural Desktop 2007 |Company: Autodesk,Inc. |WEB Address: www.autodesk.com
 90
    33661
280
     0
281
     1
  0
CLASS
  1
AEC_SLAB_STYLE
  2
AecDbSlabStyle
  3
AecArchBase50|Product Desc: Autodesk Architectural Desktop 2007 |Company: Autodesk,Inc. |WEB Address: www.autodesk.com
 90
    32897
280
     0
281
     0
  0
CLASS
  1
AEC_SLABEDGE_STYLE
  2
AecDbSlabEdgeStyle
  3
AecArchBase50|Product Desc: Autodesk Architectural Desktop 2007 |Company: Autodesk,Inc. |WEB Address: www.autodesk.com
 90
    32897
280
     0
281
     0
  0
CLASS
  1
RTEXT
  2
RText
  3
RText|AutoCAD Express Tool|expresstools@autodesk.com
 90
     3071
280
     0
281
     1
  0
CLASS
  1
ABAD_DB_WINROOF_DISPREP
  2
AbAdDbWinRoofDispRep
  3
AbAdDbWinRoof|Custom Application
 90
        1
280
     0
281
     0
  0
CLASS
  1
AB_AD_DISP_PROPS_WINROOF
  2
AbAdDbWinRoofDispProp
  3
AbAdDbWinRoof|Custom Application
 90
        1
280
     0
281
     0
  0
CLASS
  1
ABAD_DB_WINROOF_DISPREP_DRAWINGROOF
  2
AbAdDbWinRoofDispRepDrawingRoof
  3
AbAdDbWinRoof|Custom Application
 90
        1
280
     0
281
     0
  0
CLASS
  1
AB_AD_DISP_PROPS_WINROOF_DRAWINGROOF
  2
AbAdDbWinRoofDispPropDrawingRoof
  3
AbAdDbWinRoof|Custom Application
 90
        1
280
     0
281
     0
  0
CLASS
  1
ABAD_DB_WINROOF_DISPREP_PLAN
  2
AbAdDbWinRoofDispRepPlan
  3
AbAdDbWinRoof|Custom Application
 90
        1
280
     0
281
     0
  0
CLASS
  1
AB_AD_DISP_PROPS_WINROOF_PLAN
  2
AbAdDbWinRoofDispPropPlan
  3
AbAdDbWinRoof|Custom Application
 90
        1
280
     0
281
     0
  0
CLASS
  1
ABAD_PLATEOPENING_DISPREP_DESC
  2
AbAdOpeningPlateRepDesc
  3
AbAdPlateDbx|Custom Application
 90
        1
280
     0
281
     0
  0
CLASS
  1
ABAD_PLATEOPENING_DISPPROPS_DESC
  2
AbAdOpeningPlatePropsDesc
  3
AbAdPlateDbx|Custom Application
 90
        1
280
     0
281
     0
  0
CLASS
  1
ABAD_PLATEOPENING_DISPREP_MODEL
  2
AbAdOpeningPlateRepModel
  3
AbAdPlateDbx|Custom Application
 90
        1
280
     0
281
     0
  0
CLASS
  1
ABAD_PLATEOPENING_DISPPROPS_MODEL
  2
AbAdOpeningPlatePropsModel
  3
AbAdPlateDbx|Custom Application
 90
        1
280
     0
281
     0
  0
CLASS
  1
ABAD_PLATEOPENING_DISPREP_PLAN
  2
AbAdOpeningPlateRepPlan
  3
AbAdPlateDbx|Custom Application
 90
        1
280
     0
281
     0
  0
CLASS
  1
ABAD_PLATEOPENING_DISPPROPS_PLAN
  2
AbAdOpeningPlatePropsPlan
  3
AbAdPlateDbx|Custom Application
 90
        1
280
     0
281
     0
  0
CLASS
  1
ABAD_PLATEOPENING_DISPREP_SIMPLE
  2
AbAdOpeningPlateRepSimple
  3
AbAdPlateDbx|Custom Application
 90
        1
280
     0
281
     0
  0
CLASS
  1
ABAD_PLATEOPENING_DISPPROPS_SIMPLE
  2
AbAdOpeningPlatePropsSimple
  3
AbAdPlateDbx|Custom Application
 90
        1
280
     0
281
     0
  0
CLASS
  1
ABAD_PLATE_DISPREPPLAN
  2
AbAdPlateDispRepPlan
  3
AbAdPlateDbx|Custom Application
 90
        1
280
     0
281
     0
  0
CLASS
  1
ABAD_PLATE_DISPPROPS_PLAN
  2
AbAdPlateDispPropsPlan
  3
AbAdPlateDbx|Custom Application
 90
        1
280
     0
281
     0
  0
CLASS
  1
ABAD_PLATE_DISPREPCEILING
  2
AbAdPlateDispRepCeiling
  3
AbAdPlateDbx|Custom Application
 90
        1
280
     0
281
     0
  0
CLASS
  1
ABAD_PLATE_DISPREPMODEL
  2
AbAdPlateDispRepModel
  3
AbAdPlateDbx|Custom Application
 90
        1
280
     0
281
     0
  0
CLASS
  1
ABAD_PLATE_DISPPROPS_BASE
  2
AbAdPlateDispPropsBase
  3
AbAdPlateDbx|Custom Application
 90
        1
280
     0
281
     0
  0
CLASS
  1
ABAD_ROOF_OUTLINE_DISPREP
  2
AbAdRoofOutlineDispRep
  3
AbAdRoofDispRep|Custom Application
 90
        1
280
     0
281
     0
  0
CLASS
  1
ABAD_ROOF_OUTLINE_DISP_PROP
  2
AbAdRoofOutlineDispProp
  3
AbAdRoofDispRep|Custom Application
 90
        1
280
     0
281
     0
  0
CLASS
  1
ABAD_ROOF_PLANLOFT_DISPREP
  2
AbAdRoofPlanLoftDispRep
  3
AbAdRoofDispRep|Custom Application
 90
        1
280
     0
281
     0
  0
CLASS
  1
ABAD_ROOF_PLANLOFT_DISPROP
  2
AbAdRoofPlanLoftDispProp
  3
AbAdRoofDispRep|Custom Application
 90
        1
280
     0
281
     0
  0
CLASS
  1
ABAD_STAIR_DESC_DISPREP
  2
AbAdStairDesDispRep
  3
AbAdStairDispRep|Custom Application
 90
        1
280
     0
281
     0
  0
CLASS
  1
ADCG_STAIR_DESC_DISPROP
  2
AbAdStairDesDispProp
  3
AbAdStairDispRep|Custom Application
 90
        1
280
     0
281
     0
  0
CLASS
  1
ABAD_STAIR_DISP_REP
  2
AbAdStairDispRep
  3
AbAdStairDispRep|Custom Application
 90
        1
280
     0
281
     0
  0
CLASS
  1
ABAD_STAIR_DISP_PROP
  2
AbAdStairDispProp
  3
AbAdStairDispRep|Custom Application
 90
        1
280
     0
281
     0
  0
CLASS
  1
ABAD_WALL_DISP_REP
  2
AbAdWallDispRep
  3
AbAdWallDispRep|Custom Application
 90
        1
280
     0
281
     0
  0
CLASS
  1
ABAD_WINDOW_DISP_REP
  2
AbAdWindowDispRep
  3
AbAdWindowDispRep|Custom Application
 90
        1
280
     0
281
     0
  0
CLASS
  1
ABAD_WINDOW_DISP_PROP
  2
AbAdWindowDispProp
  3
AbAdWindowDispRep|Custom Application
 90
        1
280
     0
281
     0
  0
CLASS
  1
ABAD_DB_DISPREP_ROOF_HATCH
  2
AbAdDbDispRepRoofHatch
  3
AbAdDbWinRoof|Custom Application
 90
        1
280
     0
281
     0
  0
CLASS
  1
ABAD_DB_DISPPROP_ROOF_HATCH
  2
AbAdDbDispPropsRoofHatch
  3
AbAdDbWinRoof|Custom Application
 90
        1
280
     0
281
     0
  0
CLASS
  1
ABAD_DB_DISPREP_ROOFSLAB_HATCH
  2
AbAdDbDispRepRoofSlabHatch
  3
AbAdDbWinRoof|Custom Application
 90
        1
280
     0
281
     0
  0
CLASS
  1
ABAD_WIN_PANELS_ELEVATION_DISPREP
  2
AbAdDispRepWinPanelsElev
  3
AbAdWinDoorPanelsDbx|Custom Application
 90
        1
280
     0
281
     0
  0
CLASS
  1
ABAD_WIN_PANELS_DISPPROP
  2
AbAdDispPropWinPanels
  3
AbAdWinDoorPanelsDbx|Custom Application
 90
        1
280
     0
281
     0
  0
CLASS
  1
ABAD_WIN_PANELS_DISPREP
  2
AbAdDispRepWinPanels
  3
AbAdWinDoorPanelsDbx|Custom Application
 90
        1
280
     0
281
     0
  0
CLASS
  1
ABAD_DOOR_DISP_REP
  2
AbAdDoorDispRep
  3
AbAdDoorDispRep|Custom Application
 90
        1
280
     0
281
     0
  0
CLASS
  1
ABAD_DOOR_DISP_PROP
  2
AbAdDoorDispProp
  3
AbAdDoorDispRep|Custom Application
 90
        1
280
     0
281
     0
  0
CLASS
  1
ABAD_DOOR_THRESHOLD_DISP_REP
  2
AbAdThresholdDispRep
  3
AbAdDoorDispRep|Custom Application
 90
        1
280
     0
281
     0
  0
CLASS
  1
ABAD_DOOR_THRESHOLD_DISP_PROP
  2
AbAdThresholdDispProps
  3
AbAdDoorDispRep|Custom Application
 90
        1
280
     0
281
     0
  0
CLASS
  1
ABAD_ISOLATION_DISPREP
  2
AbAdIsolationDispRep
  3
AbAdIsolationDbx|Custom Application
 90
        1
280
     0
281
     0
  0
CLASS
  1
ABAD_ISOLATION_DISPPROPS
  2
AbAdIsolationDispProps
  3
AbAdIsolationDbx|Custom Application
 90
        1
280
     0
281
     0
  0
CLASS
  1
PLOTSETTINGS
  2
AcDbPlotSettings
  3
ObjectDBX Classes
 90
        0
280
     0
281
     0
  0
CLASS
  1
AEC_AREA
  2
AecDbArea
  3
AecAreaCalculationBase50|Product Desc: Autodesk Architectural Desktop 2007 |Company: Autodesk,Inc. |WEB Address: www.autodesk.com
 90
    33661
280
     0
281
     1
  0
CLASS
  1
AEC_SCHEDULE_TABLE
  2
AecDbScheduleTable
  3
AecSchedule50|Product Desc: Autodesk Architectural Desktop 2007 |Company: Autodesk,Inc. |WEB Address: www.autodesk.com
 90
    33661
280
     0
281
     1
  0
CLASS
  1
DIMASSOC
  2
AcDbDimAssoc
  3
"AcDbDimAssoc|Product Desc:     AcDim ARX App For Dimension|Company:          Autodesk, Inc.|WEB Address:      www.autodesk.com"
 90
        0
280
     0
281
     0
  0
CLASS
  1
AEC_ANCHOR_MVB_TO_UCS
  2
AecDbAnchorMVBToUCS
  3
AecBase50|Product Desc: Autodesk Architectural Desktop 2007 |Company: Autodesk,Inc. |WEB Address: www.autodesk.com
 90
    32897
280
     0
281
     0
  0
CLASS
  1
VISUALSTYLE
  2
AcDbVisualStyle
  3
ObjectDBX Classes
 90
     4095
280
     0
281
     0
  0
CLASS
  1
TABLESTYLE
  2
AcDbTableStyle
  3
ObjectDBX Classes
 90
     4095
280
     0
281
     0
  0
CLASS
  1
SCALE
  2
AcDbScale
  3
ObjectDBX Classes
 90
     1153
280
     0
281
     0
  0
CLASS
  1
MLEADERSTYLE
  2
AcDbMLeaderStyle
  3
ACDB_MLEADERSTYLE_CLASS
 90
     4095
280
     0
281
     0
  0
CLASS
  1
NPOCOLLECTION
  2
AcDbImpNonPersistentObjectsCollection
  3
ObjectDBX Classes
 90
     1153
280
     0
281
     0
  0
CLASS
  1
AEC_DISP_REP_DISPLAYTHEME
  2
AecDbDispRepDisplayTheme
  3
AecBase50|Product Desc: Autodesk Architectural Desktop 2007 |Company: Autodesk,Inc. |WEB Address: www.autodesk.com
 90
      129
280
     0
281
     0
  0
CLASS
  1
AEC_DISP_PROPS_DISPLAYTHEME
  2
AecDbDispPropsDisplayTheme
  3
AecBase50|Product Desc: Autodesk Architectural Desktop 2007 |Company: Autodesk,Inc. |WEB Address: www.autodesk.com
 90
      129
280
     0
281
     0
  0
CLASS
  1
AEC_DISP_REP_ANCHOR_EXT_TAG_TO_ENT
  2
AecDbDispRepAnchorExtendedTagToEnt
  3
AecScheduleData50|Product Desc: Autodesk Architectural Desktop 2007 |Company: Autodesk,Inc. |WEB Address: www.autodesk.com
 90
      129
280
     0
281
     0
  0
CLASS
  1
AEC_DISP_REP_SPACE_DECOMPOSED
  2
AecDbDispRepSpaceDecomposed
  3
AecArchBase50|Product Desc: Autodesk Architectural Desktop 2007 |Company: Autodesk,Inc. |WEB Address: www.autodesk.com
 90
      129
280
     0
281
     0
  0
CLASS
  1
AEC_DISP_PROPS_SPACE_DECOMPOSED
  2
AecDbDispPropsSpaceDecomposed
  3
AecArchBase50|Product Desc: Autodesk Architectural Desktop 2007 |Company: Autodesk,Inc. |WEB Address: www.autodesk.com
 90
      129
280
     0
281
     0
  0
CLASS
  1
AEC_DISP_REP_ZONE
  2
AecDbDispRepZone
  3
AecArchBase50|Product Desc: Autodesk Architectural Desktop 2007 |Company: Autodesk,Inc. |WEB Address: www.autodesk.com
 90
      129
280
     0
281
     0
  0
CLASS
  1
AEC_DISP_PROPS_ZONE
  2
AecDbDispPropsZone
  3
AecArchBase50|Product Desc: Autodesk Architectural Desktop 2007 |Company: Autodesk,Inc. |WEB Address: www.autodesk.com
 90
      129
280
     0
281
     0
  0
CLASS
  1
AEC_AECDBDISPREPZONE100
  2
AecDbDispRepZonePlan100
  3
AecArchDACHBase50|Product Desc: Autodesk Architectural Desktop 2007 |Company: Autodesk,Inc. |WEB Address: www.autodesk.com
 90
      129
280
     0
281
     0
  0
CLASS
  1
AEC_AECDBDISPREPZONE50
  2
AecDbDispRepZonePlan50
  3
AecArchDACHBase50|Product Desc: Autodesk Architectural Desktop 2007 |Company: Autodesk,Inc. |WEB Address: www.autodesk.com
 90
      129
280
     0
281
     0
  0
CLASS
  1
CELLSTYLEMAP
  2
AcDbCellStyleMap
  3
ObjectDBX Classes
 90
     1152
280
     0
281
     0
  0
CLASS
  1
AEC_REFEDIT_STATUS_TRACKER
  2
AecDbRefEditStatusTracker
  3
AecArchBase50|Product Desc: Autodesk Architectural Desktop 2007 |Company: Autodesk,Inc. |WEB Address: www.autodesk.com
 90
      129
280
     0
281
     0
  0
CLASS
  1
EXACXREFPANELOBJECT
  2
ExAcXREFPanelObject
  3
EXAC_ESW
 90
     1025
280
     0
281
     0
  0
ENDSEC
  0
SECTION
  2
TABLES
  0
TABLE
  2
VPORT
  5
8
330
0
100
AcDbSymbolTable
 70
     1
  0
VPORT
  5
7878
330
8
100
AcDbSymbolTableRecord
100
AcDbViewportTableRecord
  2
*Active
 70
     0
 10
0.0
 20
0.0
 11
1.0
 21
1.0
 12
-11547.54013632977
 22
-8650.022237447528
 13
0.0
 23
0.0
 14
1.0
 24
1.0
 15
3000.0
 25
3000.0
 16
0.0
 26
0.0
 36
1.0
 17
1608.303794464266
 27
1165.163023589292
 37
-212.0035039576694
 40
18892.15231965776
 41
1.853197674418604
 42
50.0
 43
0.0
 44
0.0
 50
0.0
 51
0.0
 71
     0
 72
 20000
 73
     1
 74
     1
 75
     0
 76
     0
 77
     0
 78
     0
281
     0
 65
     1
110
0.0
120
0.0
130
0.0
111
1.0
121
0.0
131
0.0
112
0.0
122
1.0
132
0.0
 79
     0
146
0.0
  0
ENDTAB
  0
TABLE
  2
LTYPE
  5
5
330
0
100
AcDbSymbolTable
 70
     7
  0
LTYPE
  5
14
330
5
100
AcDbSymbolTableRecord
100
AcDbLinetypeTableRecord
  2
ByBlock
 70
     0
  3

 72
    65
 73
     0
 40
0.0
  0
LTYPE
  5
15
330
5
100
AcDbSymbolTableRecord
100
AcDbLinetypeTableRecord
  2
ByLayer
 70
     0
  3

 72
    65
 73
     0
 40
0.0
  0
LTYPE
  5
16
330
5
100
AcDbSymbolTableRecord
100
AcDbLinetypeTableRecord
  2
Continuous
 70
     0
  3
Solid line
 72
    65
 73
     0
 40
0.0
  0
LTYPE
  5
26E
330
5
100
AcDbSymbolTableRecord
100
AcDbLinetypeTableRecord
  2
HIDDEN2
 70
     0
  3
Hidden (.5x) _ _ _ _ _ _ _ _ _ _ _ _ _ _ _ _ _
 72
    65
 73
     2
 40
0.1875
 49
0.125
 74
     0
 49
-0.0625
 74
     0
  0
LTYPE
  5
1BEC
330
5
100
AcDbSymbolTableRecord
100
AcDbLinetypeTableRecord
  2
DASHED
 70
     0
  3
Dashed __ __ __ __ __ __ __ __ __ __ __ __ __ _
 72
    65
 73
     2
 40
0.75
 49
0.5
 74
     0
 49
-0.25
 74
     0
  0
LTYPE
  5
279B
330
5
100
AcDbSymbolTableRecord
100
AcDbLinetypeTableRecord
  2
DIVIDE2
 70
     0
  3
Divide (.5x) __..__..__..__..__..__..__..__.._
 72
    65
 73
     6
 40
15.875
 49
6.349999999999999
 74
     0
 49
-3.174999999999999
 74
     0
 49
0.0
 74
     0
 49
-3.174999999999999
 74
     0
 49
0.0
 74
     0
 49
-3.174999999999999
 74
     0
  0
LTYPE
  5
27C3
330
5
100
AcDbSymbolTableRecord
100
AcDbLinetypeTableRecord
  2
DIVIDE
 70
     0
  3
Divide ____ . . ____ . . ____ . . ____ . . ____
 72
    65
 73
     6
 40
31.75
 49
12.7
 74
     0
 49
-6.349999999999999
 74
     0
 49
0.0
 74
     0
 49
-6.349999999999999
 74
     0
 49
0.0
 74
     0
 49
-6.349999999999999
 74
     0
  0
LTYPE
  5
4315
330
5
100
AcDbSymbolTableRecord
100
AcDbLinetypeTableRecord
  2
PHANTOM2
 70
     0
  3
Phantom (.5x) ___ _ _ ___ _ _ ___ _ _ ___ _ _
 72
    65
 73
     6
 40
1.25
 49
0.625
 74
     0
 49
-0.125
 74
     0
 49
0.125
 74
     0
 49
-0.125
 74
     0
 49
0.125
 74
     0
 49
-0.125
 74
     0
  0
LTYPE
  5
48E9
330
5
100
AcDbSymbolTableRecord
100
AcDbLinetypeTableRecord
  2
CENTER2
 70
     0
  3
Center (.5x) ___ _ ___ _ ___ _ ___ _ ___ _ ___
 72
    65
 73
     4
 40
1.125
 49
0.75
 74
     0
 49
-0.125
 74
     0
 49
0.125
 74
     0
 49
-0.125
 74
     0
  0
ENDTAB
  0
TABLE
  2
LAYER
  5
2
102
{ACAD_XDICTIONARY
360
91F
102
}
330
0
100
AcDbSymbolTable
 70
     9
  0
LAYER
  5
10
102
{ACAD_XDICTIONARY
360
78DC
102
}
330
2
100
AcDbSymbolTableRecord
100
AcDbLayerTableRecord
  2
0
 70
     0
 62
     7
  6
Continuous
370
    -3
390
F
1001
AcAecLayerStandard
1000

1001
RAK
1000
{ACET-LAYISO
1070
     0
1070
     7
1000
Continuous
1070
     1
1071
       -3
1071
        1
1005
F
1000
ACET-LAYISO}
  0
LAYER
  5
D21
330
2
100
AcDbSymbolTableRecord
100
AcDbLayerTableRecord
  2
Defpoints
 70
     0
 62
     7
  6
Continuous
290
     0
370
    -3
390
F
1001
AcAecLayerStandard
1000

1000
Default Non-Plotting Layer
1001
RAK
1000
{ACET-LAYISO
1070
     1
1070
     7
1000
Continuous
1071
       -3
1071
        0
1005
F
1000
ACET-LAYISO}
  0
LAYER
  5
2269
102
{ACAD_XDICTIONARY
360
78EC
102
}
330
2
100
AcDbSymbolTableRecord
100
AcDbLayerTableRecord
  2
A-Vports
 70
     0
 62
   252
  6
Continuous
290
     0
370
    -3
390
F
1001
RAK
1000
{ACET-LAYISO
1070
     0
1070
   252
1000
Continuous
1071
       -3
1071
        0
1005
F
1000
ACET-LAYISO}
  0
LAYER
  5
226A
102
{ACAD_XDICTIONARY
360
78EE
102
}
330
2
100
AcDbSymbolTableRecord
100
AcDbLayerTableRecord
  2
A-Annotation-T
 70
     0
 62
   140
  6
Continuous
370
    15
390
F
1001
AcAecLayerStandard
1000
1m1_ARCHON
1000
Architects, Annotation (general), Text
1001
RAK
1000
{ACET-LAYISO
1070
     0
1070
   140
1000
Continuous
1071
       15
1071
        1
1005
F
1000
ACET-LAYISO}
  0
LAYER
  5
35AC
102
{ACAD_XDICTIONARY
360
790A
102
}
330
2
100
AcDbSymbolTableRecord
100
AcDbLayerTableRecord
  2
A-SchedObject-G
 70
     0
 62
   171
  6
Continuous
370
     9
390
F
1001
RAK
1000
{ACET-LAYISO
1070
     0
1070
   171
1000
Continuous
1071
        9
1071
        1
1005
F
1000
ACET-LAYISO}
  0
LAYER
  5
48EA
102
{ACAD_XDICTIONARY
360
7928
102
}
330
2
100
AcDbSymbolTableRecord
100
AcDbLayerTableRecord
  2
G-Anno-Nplt
 70
     0
 62
   140
  6
Continuous
290
     0
370
    18
390
F
1001
AcAecLayerStandard
1000
NCSv2
  0
LAYER
  5
640B
102
{ACAD_XDICTIONARY
360
7930
102
}
330
2
100
AcDbSymbolTableRecord
100
AcDbLayerTableRecord
  2
NAPISY
 70
     0
 62
   140
  6
Continuous
370
    -3
390
F
1001
RAK
1000
{ACET-LAYISO
1070
     0
1070
   140
1000
CONTINUOUS
1071
       -3
1071
        1
1005
F
1000
ACET-LAYISO}
  0
LAYER
  5
79BD
330
2
100
AcDbSymbolTableRecord
100
AcDbLayerTableRecord
  2
0Wymiary-PL
 70
     0
 62
     1
  6
Continuous
370
     5
390
F
  0
LAYER
  5
7F82
330
2
100
AcDbSymbolTableRecord
100
AcDbLayerTableRecord
  2
0Hatch
 70
     0
 62
   122
  6
Continuous
370
     5
390
F
  0
ENDTAB
  0
TABLE
  2
STYLE
  5
3
330
0
100
AcDbSymbolTable
 70
    10
  0
STYLE
  5
11
330
3
100
AcDbSymbolTableRecord
100
AcDbTextStyleTableRecord
  2
Standard
 70
     0
 40
0.0
 41
1.0
 50
0.0
 71
     0
 42
0.2
  3
txt
  4

  0
STYLE
  5
338
330
3
100
AcDbSymbolTableRecord
100
AcDbTextStyleTableRecord
  2
RomanS
 70
     0
 40
0.0
 41
1.0
 50
0.0
 71
     0
 42
0.3
  3
romans.shx
  4

  0
STYLE
  5
226F
330
3
100
AcDbSymbolTableRecord
100
AcDbTextStyleTableRecord
  2
ARIAL-CE
 70
     0
 40
0.0
 41
1.0
 50
0.0
 71
     0
 42
16.0
  3
ARIAL.TTF
  4

1001
ACAD
1000
Arial CE
1071
    60962
  0
STYLE
  5
48ED
330
3
100
AcDbSymbolTableRecord
100
AcDbTextStyleTableRecord
  2
Arch-Dim
 70
     0
 40
0.0
 41
0.75
 50
0.0
 71
     0
 42
0.7
  3
romans.shx
  4

  0
STYLE
  5
640C
330
3
100
AcDbSymbolTableRecord
100
AcDbTextStyleTableRecord
  2
ARIAL
 70
     0
 40
0.0
 41
1.0
 50
0.0
 71
     0
 42
30.0
  3
ARIAL.TTF
  4

1001
ACAD
1000
Arial CE
1071
    60962
  0
STYLE
  5
6F51
330
3
100
AcDbSymbolTableRecord
100
AcDbTextStyleTableRecord
  2
AVA
 70
     0
 40
0.0
 41
1.0
 50
0.0
 71
     0
 42
15.0
  3

  4

1001
ACAD
1000
Avalon
1071
        2
  0
ENDTAB
  0
TABLE
  2
VIEW
  5
6
330
0
100
AcDbSymbolTable
 70
     0
  0
ENDTAB
  0
TABLE
  2
UCS
  5
7
330
0
100
AcDbSymbolTable
 70
     0
  0
ENDTAB
  0
TABLE
  2
APPID
  5
9
330
0
100
AcDbSymbolTable
 70
    28
  0
APPID
  5
12
330
9
100
AcDbSymbolTableRecord
100
AcDbRegAppTableRecord
  2
ACAD
 70
     0
  0
APPID
  5
49
330
9
100
AcDbSymbolTableRecord
100
AcDbRegAppTableRecord
  2
ADCADD_ZZ
 70
     0
  0
APPID
  5
4A
330
9
100
AcDbSymbolTableRecord
100
AcDbRegAppTableRecord
  2
SDSK_PMN
 70
     0
  0
APPID
  5
196
330
9
100
AcDbSymbolTableRecord
100
AcDbRegAppTableRecord
  2
AECBASE
 70
     0
  0
APPID
  5
197
330
9
100
AcDbSymbolTableRecord
100
AcDbRegAppTableRecord
  2
AEC_DWGVARSSETUP_DATA
 70
     0
  0
APPID
  5
198
330
9
100
AcDbSymbolTableRecord
100
AcDbRegAppTableRecord
  2
AEC_DISPREPCONFIG_DATA
 70
     0
  0
APPID
  5
199
330
9
100
AcDbSymbolTableRecord
100
AcDbRegAppTableRecord
  2
AEC_DISPREPSET_DATA
 70
     0
  0
APPID
  5
221
330
9
100
AcDbSymbolTableRecord
100
AcDbRegAppTableRecord
  2
AcAecLayerStandard
 70
     0
  0
APPID
  5
CE2
330
9
100
AcDbSymbolTableRecord
100
AcDbRegAppTableRecord
  2
AEC_TEXTNOTE_DATA
 70
     0
  0
APPID
  5
ECC
330
9
100
AcDbSymbolTableRecord
100
AcDbRegAppTableRecord
  2
AEC_URLDATA
 70
     0
  0
APPID
  5
1326
330
9
100
AcDbSymbolTableRecord
100
AcDbRegAppTableRecord
  2
AVE_RENDER
 70
     0
  0
APPID
  5
1327
330
9
100
AcDbSymbolTableRecord
100
AcDbRegAppTableRecord
  2
AVE_ENTITY_MATERIAL
 70
     0
  0
APPID
  5
1334
330
9
100
AcDbSymbolTableRecord
100
AcDbRegAppTableRecord
  2
AVE_FINISH
 70
     0
  0
APPID
  5
1335
330
9
100
AcDbSymbolTableRecord
100
AcDbRegAppTableRecord
  2
AVE_MATERIAL
 70
     0
  0
APPID
  5
1336
330
9
100
AcDbSymbolTableRecord
100
AcDbRegAppTableRecord
  2
AVE_GLOBAL
 70
     0
  0
APPID
  5
1799
330
9
100
AcDbSymbolTableRecord
100
AcDbRegAppTableRecord
  2
ADCADD_MATERIAL
 70
     0
  0
APPID
  5
179A
330
9
100
AcDbSymbolTableRecord
100
AcDbRegAppTableRecord
  2
ADCADD_KEYNOTES
 70
     0
  0
APPID
  5
1A6A
330
9
100
AcDbSymbolTableRecord
100
AcDbRegAppTableRecord
  2
RAK
 70
     0
  0
APPID
  5
1EED
330
9
100
AcDbSymbolTableRecord
100
AcDbRegAppTableRecord
  2
ACCURENDER3
 70
     0
  0
APPID
  5
2415
330
9
100
AcDbSymbolTableRecord
100
AcDbRegAppTableRecord
  2
AECGUIBASE
 70
     0
  0
APPID
  5
28CC
330
9
100
AcDbSymbolTableRecord
100
AcDbRegAppTableRecord
  2
DCO15
 70
     0
  0
APPID
  5
36BC
330
9
100
AcDbSymbolTableRecord
100
AcDbRegAppTableRecord
  2
PE_URL
 70
     0
  0
APPID
  5
36BD
330
9
100
AcDbSymbolTableRecord
100
AcDbRegAppTableRecord
  2
ACAD_PSEXT
 70
     0
  0
APPID
  5
36BE
330
9
100
AcDbSymbolTableRecord
100
AcDbRegAppTableRecord
  2
AcDbAttr
 70
     0
  0
APPID
  5
78BD
330
9
100
AcDbSymbolTableRecord
100
AcDbRegAppTableRecord
  2
ACAD_MLEADERVER
 70
     0
  0
APPID
  5
78CA
330
9
100
AcDbSymbolTableRecord
100
AcDbRegAppTableRecord
  2
ACAD_EXEMPT_FROM_CAD_STANDARDS
 70
     0
  0
APPID
  5
78CB
330
9
100
AcDbSymbolTableRecord
100
AcDbRegAppTableRecord
  2
AEC_XDATA_BOUND_SPACE
 70
     0
  0
APPID
  5
7AEF
330
9
100
AcDbSymbolTableRecord
100
AcDbRegAppTableRecord
  2
AcLayerTools
 70
     0
  0
ENDTAB
  0
TABLE
  2
DIMSTYLE
  5
A
330
0
100
AcDbSymbolTable
 70
     9
100
AcDbDimStyleTable
 71
     1
340
6411
  0
DIMSTYLE
105
48EF
330
A
100
AcDbSymbolTableRecord
100
AcDbDimStyleTableRecord
  2
Standard
 70
     0
340
11
  0
DIMSTYLE
105
48F0
330
A
100
AcDbSymbolTableRecord
100
AcDbDimStyleTableRecord
  2
Aec-Arch-M-100
 70
     0
 40
100.0
 41
1.5
 42
0.15
 43
9.5
 44
0.15
 73
     0
 74
     0
 77
     1
 78
     3
 79
     2
140
0.25
141
2.5
146
0.75
147
0.08
172
     1
174
     1
179
     2
271
     0
272
     0
279
     2
289
     2
340
48ED
342
489E
  0
DIMSTYLE
105
48F1
330
A
100
AcDbSymbolTableRecord
100
AcDbDimStyleTableRecord
  2
Aec_Stair_M
 70
     0
 40
100.0
 41
2.5
 42
0.625
 43
3.75
 44
1.25
 73
     0
 74
     0
 77
     1
 78
     8
140
2.5
141
2.5
143
0.03937007874016
147
0.625
171
     3
172
     1
173
     1
271
     2
272
     2
274
     3
278
    44
283
     0
284
     8
340
11
341
48A8
343
48A8
344
48A2
  0
DIMSTYLE
105
6411
102
{ACAD_REACTORS
330
8B7A
330
8B8E
330
8BA2
330
8BB6
330
8BC1
330
8BD9
330
8BED
330
8C01
330
8ED9
330
8EDC
330
8EDF
330
8EE2
330
8EE3
330
8EE6
330
8EE9
330
8EEC
102
}
330
A
100
AcDbSymbolTableRecord
100
AcDbDimStyleTableRecord
  2
500
 70
     0
 41
30.0
 42
43.0
 43
0.0
 44
13.0
 45
0.5
 46
12.0
 73
     0
 74
     0
 75
     1
 76
     1
 78
    12
140
80.0
141
0.0
145
1.0
147
0.0
172
     1
174
     1
176
     1
177
     1
178
    10
271
     1
272
     1
279
     2
340
338
341
1A8A
342
1A8A
  0
ENDTAB
  0
TABLE
  2
BLOCK_RECORD
  5
1
330
0
100
AcDbSymbolTable
 70
    35
  0
BLOCK_RECORD
  5
1F
102
{ACAD_XDICTIONARY
360
DE5
102
}
330
1
100
AcDbSymbolTableRecord
100
AcDbBlockTableRecord
  2
*Model_Space
340
22
  0
BLOCK_RECORD
  5
2286
102
{ACAD_XDICTIONARY
360
239E
102
}
330
1
100
AcDbSymbolTableRecord
100
AcDbBlockTableRecord
  2
*Paper_Space
340
2285
  0
BLOCK_RECORD
  5
1A8A
102
{ACAD_XDICTIONARY
360
1A8B
102
}
330
1
100
AcDbSymbolTableRecord
100
AcDbBlockTableRecord
  2
B-DIM
340
0
310
2800000020000000200000000100080000000000000400000000000000000000000000000000000000000000000080000080000000808000800000008000800080800000C0C0C000C0DCC000F0CAA6000020400000206000002080000020A0000020C0000020E00000400000004020000040400000406000004080000040A0
310
000040C0000040E00000600000006020000060400000606000006080000060A0000060C0000060E00000800000008020000080400000806000008080000080A0000080C0000080E00000A0000000A0200000A0400000A0600000A0800000A0A00000A0C00000A0E00000C0000000C0200000C0400000C0600000C0800000C0
310
A00000C0C00000C0E00000E0000000E0200000E0400000E0600000E0800000E0A00000E0C00000E0E00040000000400020004000400040006000400080004000A0004000C0004000E00040200000402020004020400040206000402080004020A0004020C0004020E000404000004040200040404000404060004040800040
310
40A0004040C0004040E00040600000406020004060400040606000406080004060A0004060C0004060E00040800000408020004080400040806000408080004080A0004080C0004080E00040A0000040A0200040A0400040A0600040A0800040A0A00040A0C00040A0E00040C0000040C0200040C0400040C0600040C08000
310
40C0A00040C0C00040C0E00040E0000040E0200040E0400040E0600040E0800040E0A00040E0C00040E0E00080000000800020008000400080006000800080008000A0008000C0008000E00080200000802020008020400080206000802080008020A0008020C0008020E00080400000804020008040400080406000804080
310
008040A0008040C0008040E00080600000806020008060400080606000806080008060A0008060C0008060E00080800000808020008080400080806000808080008080A0008080C0008080E00080A0000080A0200080A0400080A0600080A0800080A0A00080A0C00080A0E00080C0000080C0200080C0400080C0600080C0
310
800080C0A00080C0C00080C0E00080E0000080E0200080E0400080E0600080E0800080E0A00080E0C00080E0E000C0000000C0002000C0004000C0006000C0008000C000A000C000C000C000E000C0200000C0202000C0204000C0206000C0208000C020A000C020C000C020E000C0400000C0402000C0404000C0406000C0
310
408000C040A000C040C000C040E000C0600000C0602000C0604000C0606000C0608000C060A000C060C000C060E000C0800000C0802000C0804000C0806000C0808000C080A000C080C000C080E000C0A00000C0A02000C0A04000C0A06000C0A08000C0A0A000C0A0C000C0A0E000C0C00000C0C02000C0C04000C0C06000
310
C0C08000C0C0A000F0FBFF00A4A0A000808080000000FF0000FF000000FFFF00FF000000FF00FF00FFFF0000FFFFFF0000000000000000000000000000000000000000000000000000000000000000000000000000000000000000000000000000000000000000000000000000000000000000000000000000000000000000
310
000000000000000000000000000000000000000000000000000000000000000000F900000000000000000000000000000000000000000000000000000000000000F900000000000000000000000000000000000000000000000000000000000000F90000000000000000000000000000000000000000000000F90000000000
310
0000F900000000000000000000000000000000000000000000F900F9000000000000F9000000000000000000000000000000000000000000F9000000F90000000000F900000000000000000000000000000000000000000000F9000000F900000000F90000000000000000000000000000000000000000000000F9000000F9
310
000000F9000000000000000000000000000000000000000000000000F9000000F90000F900000000000000000000000000000000000000000000000000F9000000F900F90000000000000000000000000000000000000000000000000000F9000000F9F9000000000000000000000000000000000000000000000000000000
310
F9000000F900000000000000000000000000000000000000000000000000000000F90000F9F9000000000000000000000000000000F9F9F9F9F9F9F9F9F9F9F9F9F9F9F9F9F9F9F9F9F9F9F9F9F9F9F9F9F9F900000000000000000000000000000000F9F90000F90000000000000000000000000000000000000000000000
310
0000000000F9000000F9000000000000000000000000000000000000000000000000000000F9F9000000F90000000000000000000000000000000000000000000000000000F900F9000000F900000000000000000000000000000000000000000000000000F90000F9000000F9000000000000000000000000000000000000
310
000000000000F9000000F9000000F90000000000000000000000000000000000000000000000F900000000F9000000F900000000000000000000000000000000000000000000F90000000000F900F90000000000000000000000000000000000000000000000F9000000000000F90000000000000000000000000000000000
310
00000000000000F900000000000000000000000000000000000000000000000000000000000000F900000000000000000000000000000000000000000000000000000000000000F900000000000000000000000000000000000000000000000000000000000000000000000000000000000000000000000000000000000000
310
0000000000000000000000000000000000000000000000000000000000000000000000000000000000000000000000000000000000000000
102
{BLKREFS
331
8C0D
331
8C0E
331
8C14
331
8C15
331
8C22
331
8C23
331
8C2B
331
8C2C
331
8C32
331
8C33
331
8C39
331
8C3A
331
8C40
331
8C41
331
8C47
331
8C48
331
8DD7
331
8DD8
331
8DE1
331
8DE2
331
8DEB
331
8DEC
331
8DF2
331
8DF3
331
8DFE
331
8DFF
331
8E08
331
8E09
331
8E12
331
8E13
331
8E19
331
8E1A
331
8F06
331
8F07
331
8F10
331
8F11
331
8F1A
331
8F1B
331
8F21
331
8F22
331
8F2D
331
8F2E
331
8F37
331
8F38
331
8F41
331
8F42
331
8F48
331
8F49
102
}
  0
BLOCK_RECORD
  5
1B88
330
1
100
AcDbSymbolTableRecord
100
AcDbBlockTableRecord
  2
nieplot_krzyz
340
0
310
2800000020000000200000000100080000000000000400000000000000000000000000000000000000000000000080000080000000808000800000008000800080800000C0C0C000C0DCC000F0CAA6000020400000206000002080000020A0000020C0000020E00000400000004020000040400000406000004080000040A0
310
000040C0000040E00000600000006020000060400000606000006080000060A0000060C0000060E00000800000008020000080400000806000008080000080A0000080C0000080E00000A0000000A0200000A0400000A0600000A0800000A0A00000A0C00000A0E00000C0000000C0200000C0400000C0600000C0800000C0
310
A00000C0C00000C0E00000E0000000E0200000E0400000E0600000E0800000E0A00000E0C00000E0E00040000000400020004000400040006000400080004000A0004000C0004000E00040200000402020004020400040206000402080004020A0004020C0004020E000404000004040200040404000404060004040800040
310
40A0004040C0004040E00040600000406020004060400040606000406080004060A0004060C0004060E00040800000408020004080400040806000408080004080A0004080C0004080E00040A0000040A0200040A0400040A0600040A0800040A0A00040A0C00040A0E00040C0000040C0200040C0400040C0600040C08000
310
40C0A00040C0C00040C0E00040E0000040E0200040E0400040E0600040E0800040E0A00040E0C00040E0E00080000000800020008000400080006000800080008000A0008000C0008000E00080200000802020008020400080206000802080008020A0008020C0008020E00080400000804020008040400080406000804080
310
008040A0008040C0008040E00080600000806020008060400080606000806080008060A0008060C0008060E00080800000808020008080400080806000808080008080A0008080C0008080E00080A0000080A0200080A0400080A0600080A0800080A0A00080A0C00080A0E00080C0000080C0200080C0400080C0600080C0
310
800080C0A00080C0C00080C0E00080E0000080E0200080E0400080E0600080E0800080E0A00080E0C00080E0E000C0000000C0002000C0004000C0006000C0008000C000A000C000C000C000E000C0200000C0202000C0204000C0206000C0208000C020A000C020C000C020E000C0400000C0402000C0404000C0406000C0
310
408000C040A000C040C000C040E000C0600000C0602000C0604000C0606000C0608000C060A000C060C000C060E000C0800000C0802000C0804000C0806000C0808000C080A000C080C000C080E000C0A00000C0A02000C0A04000C0A06000C0A08000C0A0A000C0A0C000C0A0E000C0C00000C0C02000C0C04000C0C06000
310
C0C08000C0C0A000F0FBFF00A4A0A000808080000000FF0000FF000000FFFF00FF000000FF00FF00FFFF0000FFFFFF000000000000000000000000000000000000000000000000000000000000000000000000000000000000000000000000FF00000000000000000000000000000000000000000000000000000000000000
310
FF00000000000000000000000000000000000000000000000000000000000000FF00000000000000000000000000000000000000000000000000000000000000FF00000000000000000000000000000000000000000000000000000000000000FF000000000000000000000000000000000000000000000000000000000000
310
00FF00000000000000000000000000000000000000000000000000000000000000FF00000000000000000000000000000000000000000000000000000000000000FF00000000000000000000000000000000000000000000000000000000000000FF0000000000000000000000000000000000000000000000000000000000
310
0000FF00000000000000000000000000000000000000000000000000000000000000FF00000000000000000000000000000000000000000000000000000000000000FF00000000000000000000000000000000000000000000000000000000000000FF00000000000000000000000000000000000000000000000000000000
310
000000FF0000000000000000000000000000000000FFFFFFFFFFFFFFFFFFFFFFFFFFFFFFFFFFFFFFFFFFFFFFFFFFFFFFFF000000000000000000000000000000000000FF00000000000000000000000000000000000000000000000000000000000000FF000000000000000000000000000000000000000000000000000000
310
00000000FF00000000000000000000000000000000000000000000000000000000000000FF00000000000000000000000000000000000000000000000000000000000000FF00000000000000000000000000000000000000000000000000000000000000FF0000000000000000000000000000000000000000000000000000
310
0000000000FF00000000000000000000000000000000000000000000000000000000000000FF00000000000000000000000000000000000000000000000000000000000000FF00000000000000000000000000000000000000000000000000000000000000FF00000000000000000000000000000000000000000000000000
310
000000000000FF00000000000000000000000000000000000000000000000000000000000000FF00000000000000000000000000000000000000000000000000000000000000FF0000000000000000000000000000000000000000000000000000000000000000000000000000000000000000000000000000000000000000
310
0000000000000000000000000000000000000000000000000000000000000000000000000000000000000000000000000000000000000000
1001
ACAD
1000
DesignCenter Data
1002
{
1070
     1
1070
     5
1002
}
  0
BLOCK_RECORD
  5
224D
102
{ACAD_XDICTIONARY
360
23AB
102
}
330
1
100
AcDbSymbolTableRecord
100
AcDbBlockTableRecord
  2
koncepcja-opis-A4
340
0
310
2800000020000000200000000100080000000000000400000000000000000000000000000000000000000000000080000080000000808000800000008000800080800000C0C0C000C0DCC000F0CAA6000020400000206000002080000020A0000020C0000020E00000400000004020000040400000406000004080000040A0
310
000040C0000040E00000600000006020000060400000606000006080000060A0000060C0000060E00000800000008020000080400000806000008080000080A0000080C0000080E00000A0000000A0200000A0400000A0600000A0800000A0A00000A0C00000A0E00000C0000000C0200000C0400000C0600000C0800000C0
310
A00000C0C00000C0E00000E0000000E0200000E0400000E0600000E0800000E0A00000E0C00000E0E00040000000400020004000400040006000400080004000A0004000C0004000E00040200000402020004020400040206000402080004020A0004020C0004020E000404000004040200040404000404060004040800040
310
40A0004040C0004040E00040600000406020004060400040606000406080004060A0004060C0004060E00040800000408020004080400040806000408080004080A0004080C0004080E00040A0000040A0200040A0400040A0600040A0800040A0A00040A0C00040A0E00040C0000040C0200040C0400040C0600040C08000
310
40C0A00040C0C00040C0E00040E0000040E0200040E0400040E0600040E0800040E0A00040E0C00040E0E00080000000800020008000400080006000800080008000A0008000C0008000E00080200000802020008020400080206000802080008020A0008020C0008020E00080400000804020008040400080406000804080
310
008040A0008040C0008040E00080600000806020008060400080606000806080008060A0008060C0008060E00080800000808020008080400080806000808080008080A0008080C0008080E00080A0000080A0200080A0400080A0600080A0800080A0A00080A0C00080A0E00080C0000080C0200080C0400080C0600080C0
310
800080C0A00080C0C00080C0E00080E0000080E0200080E0400080E0600080E0800080E0A00080E0C00080E0E000C0000000C0002000C0004000C0006000C0008000C000A000C000C000C000E000C0200000C0202000C0204000C0206000C0208000C020A000C020C000C020E000C0400000C0402000C0404000C0406000C0
310
408000C040A000C040C000C040E000C0600000C0602000C0604000C0606000C0608000C060A000C060C000C060E000C0800000C0802000C0804000C0806000C0808000C080A000C080C000C080E000C0A00000C0A02000C0A04000C0A06000C0A08000C0A0A000C0A0C000C0A0E000C0C00000C0C02000C0C04000C0C06000
310
C0C08000C0C0A000F0FBFF00A4A0A000808080000000FF0000FF000000FFFF00FF000000FF00FF00FFFF0000FFFFFF000000000000000000000000000000000000000000000000000000000000000000000000000000FF000000000000FFFFFFFFFF000000000000FFFF000000000000000000000000FF000000000000FFFF
310
FFFFFF000000000000FFFF000000000000000000000000FF0000000000000000000000000000000000FFFF000000000000000000000000FF0000000000000000000000000000000000FFFF000000000000000000000000FF0000000000000000000000000000000000FFFF000000000000000000000000FF00000000000000
310
00000000000000000000FFFF000000000000000000000000FF0000000000000000000000000000000000FFFF000000000000000000000000FF0000000000000000000000000000000000FFFF000000000000000000000000FF0000000000000000000000000000000000FFFF000000000000000000000000FF000000000000
310
0000000000000000000000FFFF000000000000000000000000FF0000000000000000000000000000000000FFFF000000000000000000000000FF0000000000000000000000000000000000FFFF000000000000000000000000FF0000000000000000000000000000000000FFFF000000000000000000000000FF0000000000
310
000000000000000000000000FFFF000000000000000000000000FF0000000000000000000000000000000000FFFF000000000000000000000000FF0000000000000000000000000000000000FFFF000000000000000000000000FF0000000000000000000000000000000000FFFF000000000000000000000000FF00000000
310
00000000000000000000000000FFFF000000000000000000000000FF0000000000000000000000000000000000FFFF000000000000000000000000FF00000000000000000000000000000000000000000000000000000000000000FF0000000000000000000000000000000000000000000000000000000000000000000000
310
00000000000000000000000000000000000000000000000000000000000000000000000000000000000000000000000000000000000000000000000000000000000000000000000000000000000000000000000000000000000000000000000000000000000000000000000000000000000000000000000000000000000000
310
000000000000000000000000000000000000000000000000000000000000000000000000000000000000000000000000000000000000000000000000000000000000000000FFFFFF0000000000000000000000000000000000000000000000000000000000FFFFFFFF00000000000000000000000000000000000000000000
310
0000000000000000000000000000000000000000000000000000000000000000000000000000000000000000000000000000000000000000
102
{BLKREFS
331
2289
102
}
  0
BLOCK_RECORD
  5
225A
102
{ACAD_XDICTIONARY
360
23C4
102
}
330
1
100
AcDbSymbolTableRecord
100
AcDbBlockTableRecord
  2
koncepcja-opis-A3
340
0
310
2800000020000000200000000100080000000000000400000000000000000000000000000000000000000000000080000080000000808000800000008000800080800000C0C0C000C0DCC000F0CAA6000020400000206000002080000020A0000020C0000020E00000400000004020000040400000406000004080000040A0
310
000040C0000040E00000600000006020000060400000606000006080000060A0000060C0000060E00000800000008020000080400000806000008080000080A0000080C0000080E00000A0000000A0200000A0400000A0600000A0800000A0A00000A0C00000A0E00000C0000000C0200000C0400000C0600000C0800000C0
310
A00000C0C00000C0E00000E0000000E0200000E0400000E0600000E0800000E0A00000E0C00000E0E00040000000400020004000400040006000400080004000A0004000C0004000E00040200000402020004020400040206000402080004020A0004020C0004020E000404000004040200040404000404060004040800040
310
40A0004040C0004040E00040600000406020004060400040606000406080004060A0004060C0004060E00040800000408020004080400040806000408080004080A0004080C0004080E00040A0000040A0200040A0400040A0600040A0800040A0A00040A0C00040A0E00040C0000040C0200040C0400040C0600040C08000
310
40C0A00040C0C00040C0E00040E0000040E0200040E0400040E0600040E0800040E0A00040E0C00040E0E00080000000800020008000400080006000800080008000A0008000C0008000E00080200000802020008020400080206000802080008020A0008020C0008020E00080400000804020008040400080406000804080
310
008040A0008040C0008040E00080600000806020008060400080606000806080008060A0008060C0008060E00080800000808020008080400080806000808080008080A0008080C0008080E00080A0000080A0200080A0400080A0600080A0800080A0A00080A0C00080A0E00080C0000080C0200080C0400080C0600080C0
310
800080C0A00080C0C00080C0E00080E0000080E0200080E0400080E0600080E0800080E0A00080E0C00080E0E000C0000000C0002000C0004000C0006000C0008000C000A000C000C000C000E000C0200000C0202000C0204000C0206000C0208000C020A000C020C000C020E000C0400000C0402000C0404000C0406000C0
310
408000C040A000C040C000C040E000C0600000C0602000C0604000C0606000C0608000C060A000C060C000C060E000C0800000C0802000C0804000C0806000C0808000C080A000C080C000C080E000C0A00000C0A02000C0A04000C0A06000C0A08000C0A0A000C0A0C000C0A0E000C0C00000C0C02000C0C04000C0C06000
310
C0C08000C0C0A000F0FBFF00A4A0A000808080000000FF0000FF000000FFFF00FF000000FF00FF00FFFF0000FFFFFF0000000000000000000000000000000000000000000000000000000000000000000000000000000000000000000000000000000000000000000000000000000000000000000000000000000000000000
310
00000000000000000000000000000000000000000000000000000000000000000000000000000000000000000000000000000000000000000000000000000000000000000000000000000000000000000000FF00000000000000000000000000000000000000FFFFFFFF00000000FF000000FF000000000000000000000000
310
00000000000000FFFFFFFF00000000FF000000FF000000000000000000000000000000000000000000000000000000FF000000FF000000000000000000000000000000000000000000000000000000FF000000FF000000000000000000000000000000000000000000000000000000FF000000FF0000000000000000000000
310
00000000000000000000000000000000FF000000FF000000000000000000000000000000000000000000000000000000FF000000FF000000000000000000000000000000000000000000000000000000FF000000FF000000000000000000000000000000000000000000000000000000FF000000FF00000000000000000000
310
0000000000000000000000000000000000FF000000FF000000000000000000000000000000000000000000000000000000FF000000FF000000000000000000000000000000000000000000000000000000FF000000FF000000000000000000000000000000000000000000000000000000FF000000FF000000000000000000
310
000000000000000000000000000000000000FF000000FF0000000000000000000000000000000000000000000000000000000000000000000000000000000000000000000000000000000000000000000000000000000000000000000000000000000000000000000000000000000000000000000000000000000000000000
310
000000000000000000000000000000000000000000000000000000000000000000000000000000000000000000000000000000000000000000000000000000000000000000000000000000FFFFFF0000000000000000000000000000000000000000000000000000000000FFFFFFFF00000000000000000000000000000000
310
00000000000000000000000000000000000000000000000000000000000000000000000000000000000000000000000000000000000000000000000000000000000000000000000000000000000000000000000000000000000000000000000000000000000000000000000000000000000000000000000000000000000000
310
0000000000000000000000000000000000000000000000000000000000000000000000000000000000000000000000000000000000000000
102
{BLKREFS
331
232E
102
}
  0
BLOCK_RECORD
  5
232B
102
{ACAD_XDICTIONARY
360
23B8
102
}
330
1
100
AcDbSymbolTableRecord
100
AcDbBlockTableRecord
  2
*Paper_Space4
340
232A
  0
BLOCK_RECORD
  5
3A5F
330
1
100
AcDbSymbolTableRecord
100
AcDbBlockTableRecord
  2
*U5
340
0
102
{BLKREFS
331
4046
102
}
  0
BLOCK_RECORD
  5
3AD3
330
1
100
AcDbSymbolTableRecord
100
AcDbBlockTableRecord
  2
teren$0$teren
340
0
102
{BLKREFS
331
4047
102
}
  0
BLOCK_RECORD
  5
489E
330
1
100
AcDbSymbolTableRecord
100
AcDbBlockTableRecord
  2
_ArchTick
340
0
  0
BLOCK_RECORD
  5
48A2
330
1
100
AcDbSymbolTableRecord
100
AcDbBlockTableRecord
  2
_Open90
340
0
  0
BLOCK_RECORD
  5
48A8
330
1
100
AcDbSymbolTableRecord
100
AcDbBlockTableRecord
  2
_Small
340
0
310
2800000020000000200000000100080000000000000400000000000000000000000000000000000000000000000080000080000000808000800000008000800080800000C0C0C000C0DCC000F0CAA6000020400000206000002080000020A0000020C0000020E00000400000004020000040400000406000004080000040A0
310
000040C0000040E00000600000006020000060400000606000006080000060A0000060C0000060E00000800000008020000080400000806000008080000080A0000080C0000080E00000A0000000A0200000A0400000A0600000A0800000A0A00000A0C00000A0E00000C0000000C0200000C0400000C0600000C0800000C0
310
A00000C0C00000C0E00000E0000000E0200000E0400000E0600000E0800000E0A00000E0C00000E0E00040000000400020004000400040006000400080004000A0004000C0004000E00040200000402020004020400040206000402080004020A0004020C0004020E000404000004040200040404000404060004040800040
310
40A0004040C0004040E00040600000406020004060400040606000406080004060A0004060C0004060E00040800000408020004080400040806000408080004080A0004080C0004080E00040A0000040A0200040A0400040A0600040A0800040A0A00040A0C00040A0E00040C0000040C0200040C0400040C0600040C08000
310
40C0A00040C0C00040C0E00040E0000040E0200040E0400040E0600040E0800040E0A00040E0C00040E0E00080000000800020008000400080006000800080008000A0008000C0008000E00080200000802020008020400080206000802080008020A0008020C0008020E00080400000804020008040400080406000804080
310
008040A0008040C0008040E00080600000806020008060400080606000806080008060A0008060C0008060E00080800000808020008080400080806000808080008080A0008080C0008080E00080A0000080A0200080A0400080A0600080A0800080A0A00080A0C00080A0E00080C0000080C0200080C0400080C0600080C0
310
800080C0A00080C0C00080C0E00080E0000080E0200080E0400080E0600080E0800080E0A00080E0C00080E0E000C0000000C0002000C0004000C0006000C0008000C000A000C000C000C000E000C0200000C0202000C0204000C0206000C0208000C020A000C020C000C020E000C0400000C0402000C0404000C0406000C0
310
408000C040A000C040C000C040E000C0600000C0602000C0604000C0606000C0608000C060A000C060C000C060E000C0800000C0802000C0804000C0806000C0808000C080A000C080C000C080E000C0A00000C0A02000C0A04000C0A06000C0A08000C0A0A000C0A0C000C0A0E000C0C00000C0C02000C0C04000C0C06000
310
C0C08000C0C0A000F0FBFF00A4A0A000808080000000FF0000FF000000FFFF00FF000000FF00FF00FFFF0000FFFFFF00FFFFFFFFFFFFFFFFFFFFFFFFFFFFFFFFFFFFFFFFFFFFFFFFFFFFFFFFFFFFFFFFFFFFFFFFFFFFFFFFFFFFFFFFFF00000000FFFFFFFFFFFFFFFFFFFFFFFFFFFFFFFFFFFFFFFFFFFFFFFFFF000000FFFF
310
FFFF0000000000FFFFFFFFFFFFFFFFFFFFFFFFFFFFFFFFFFFF0000FFFFFFFFFFFFFFFFFFFFFFFF00FFFFFFFFFFFFFFFFFFFFFFFFFFFFFF0000FFFFFFFFFFFFFFFFFFFFFFFFFFFFFF00FFFFFFFFFFFFFFFFFFFFFFFFFF00FFFFFFFFFFFFFFFFFFFFFFFFFFFFFFFFFFFF00FFFFFFFFFFFFFFFFFFFFFFFF00FFFFFFFFFFFFFFFF
310
FFFFFFFFFFFFFFFFFFFFFF00FFFFFFFFFFFFFFFFFFFF00FFFFFFFFFFFFFFFFFFFFFFFFFFFFFFFFFFFFFFFFFF00FFFFFFFFFFFFFFFF00FFFFFFFFFFFFFFFFFFFFFFFFFFFFFFFFFFFFFFFFFFFFFF00FFFFFFFFFFFFFF00FFFFFFFFFFFFFFFFFFFFFFFFFFFFFFFFFFFFFFFFFFFFFF00FFFFFFFFFFFF00FFFFFFFFFFFFFFFFFFFF
310
FFFFFFFFFFFFFFFFFFFFFFFFFFFFFF00FFFFFFFF00FFFFFFFFFFFFFFFFFFFFFFFFFFFFFFFFFFFFFFFFFFFFFFFFFFFF00FFFFFFFF00FFFFFFFFFFFFFFFFFFFFFFFFFFFFFFFFFFFFFFFFFFFFFFFFFFFF00FFFFFFFF00FFFFFFFFFFFFFFFFFFFFFFFFFFFFFFFFFFFFFFFFFFFFFFFFFFFF00FFFFFFFF00FFFFFFFFFFFFFFFFFFFF
310
FFFFFFFFFFFFFFFFFFFFFFFFFFFFFFFFFF00FFFFFF00FFFFFFFFFFFFFFFFFFFFFFFFFFFFFFFFFFFFFFFFFFFFFFFFFFFFFF00FFFFFF00FFFFFFFFFFFFFFFFFFFFFFFFFFFFFFFFFFFFFFFFFFFFFFFFFFFFFF00FFFFFF00FFFFFFFFFFFFFFFFFFFFFFFFFFFFFFFFFFFFFFFFFFFFFFFFFFFF00FFFFFFFF00FFFFFFFFFFFFFFFFFF
310
FFFFFFFFFFFFFFFFFFFFFFFFFFFFFFFFFF00FFFFFFFF00FFFFFFFFFFFFFFFFFFFFFFFFFFFFFFFFFFFFFFFFFFFFFFFFFFFF00FFFFFFFFFF00FFFFFFFFFFFFFFFFFFFFFFFFFFFFFFFFFFFFFFFFFFFFFFFFFF00FFFFFFFFFFFF00FFFFFFFFFFFFFFFFFFFFFFFFFFFFFFFFFFFFFFFFFFFFFF00FFFFFFFFFFFFFF00FFFFFFFFFFFF
310
FFFFFFFFFFFFFFFFFFFFFFFFFFFFFFFFFF00FFFFFFFFFFFFFFFF00FFFFFFFFFFFFFFFFFFFFFFFFFFFFFFFFFFFFFFFFFF00FFFFFFFFFFFFFFFFFFFF00FFFFFFFFFFFFFFFFFFFFFFFFFFFFFFFFFFFFFF00FFFFFFFFFFFFFFFFFFFFFF00FFFFFFFFFFFFFFFFFFFFFFFFFFFFFFFFFFFF00FFFFFFFFFFFFFFFFFFFFFFFFFF0000FF
310
FFFFFFFFFFFFFFFFFFFFFFFFFFFF00FFFFFFFFFFFFFFFFFFFFFFFFFFFFFFFF0000FFFFFFFFFFFFFFFFFFFFFFFF00FFFFFFFFFFFFFFFFFFFFFFFFFFFFFFFFFFFFFF000000FFFFFFFF0000000000FFFFFFFFFFFFFFFFFFFFFFFFFFFFFFFFFFFFFFFFFFFFFF00000000FFFFFFFFFFFFFFFFFFFFFFFFFFFFFFFFFFFFFFFFFFFFFF
310
FFFFFFFFFFFFFFFFFFFFFFFFFFFFFFFFFFFFFFFFFFFFFFFFFFFFFFFFFFFFFFFFFFFFFFFFFFFFFFFFFFFFFFFFFFFFFFFFFFFFFFFFFFFFFFFF
  0
BLOCK_RECORD
  5
48D4
102
{ACAD_XDICTIONARY
360
48D5
102
}
330
1
100
AcDbSymbolTableRecord
100
AcDbBlockTableRecord
  2
Anno_Elevation_Label_4_1m1
340
0
310
2800000020000000200000000100080000000000000400000000000000000000000000000000000000000000000080000080000000808000800000008000800080800000C0C0C000C0DCC000F0CAA6000020400000206000002080000020A0000020C0000020E00000400000004020000040400000406000004080000040A0
310
000040C0000040E00000600000006020000060400000606000006080000060A0000060C0000060E00000800000008020000080400000806000008080000080A0000080C0000080E00000A0000000A0200000A0400000A0600000A0800000A0A00000A0C00000A0E00000C0000000C0200000C0400000C0600000C0800000C0
310
A00000C0C00000C0E00000E0000000E0200000E0400000E0600000E0800000E0A00000E0C00000E0E00040000000400020004000400040006000400080004000A0004000C0004000E00040200000402020004020400040206000402080004020A0004020C0004020E000404000004040200040404000404060004040800040
310
40A0004040C0004040E00040600000406020004060400040606000406080004060A0004060C0004060E00040800000408020004080400040806000408080004080A0004080C0004080E00040A0000040A0200040A0400040A0600040A0800040A0A00040A0C00040A0E00040C0000040C0200040C0400040C0600040C08000
310
40C0A00040C0C00040C0E00040E0000040E0200040E0400040E0600040E0800040E0A00040E0C00040E0E00080000000800020008000400080006000800080008000A0008000C0008000E00080200000802020008020400080206000802080008020A0008020C0008020E00080400000804020008040400080406000804080
310
008040A0008040C0008040E00080600000806020008060400080606000806080008060A0008060C0008060E00080800000808020008080400080806000808080008080A0008080C0008080E00080A0000080A0200080A0400080A0600080A0800080A0A00080A0C00080A0E00080C0000080C0200080C0400080C0600080C0
310
800080C0A00080C0C00080C0E00080E0000080E0200080E0400080E0600080E0800080E0A00080E0C00080E0E000C0000000C0002000C0004000C0006000C0008000C000A000C000C000C000E000C0200000C0202000C0204000C0206000C0208000C020A000C020C000C020E000C0400000C0402000C0404000C0406000C0
310
408000C040A000C040C000C040E000C0600000C0602000C0604000C0606000C0608000C060A000C060C000C060E000C0800000C0802000C0804000C0806000C0808000C080A000C080C000C080E000C0A00000C0A02000C0A04000C0A06000C0A08000C0A0A000C0A0C000C0A0E000C0C00000C0C02000C0C04000C0C06000
310
C0C08000C0C0A000F0FBFF00A4A0A000808080000000FF0000FF000000FFFF00FF000000FF00FF00FFFF0000FFFFFF00FFFFFFFFFFFFFFFFFFFFFFFFFFFFFFFFFFFFFFFFFFFFFFFFFFFFFFFFFFFFFFFFFFFFFFFFFFFFFFFFFFFFFFFFFFFFFFFFFFFFFFFFFFFFFFFFFFFFFFFFFFFFFFFFFFFFFFFFFFFFFFFFFFFFFFFFFFFFFF
310
FFFFFFFFFFFFFFFFFFFFFFFFFFFFFFFFFFFFFFFFFFFFFFFFFFFFFFFFFFFFFFFFFFFFFFFFFFFFFFFFFFFFFFFFFFFFFFFFFFFFFFFFFFFFFFFFFFFFFFFFFFFFFFFFFFFFFFFFFFFFFFFFFFFFFFFFFFFFFFFFFFFFFFFFFFFFFFFFFFFFFFFFFFFFFFFFFFFFFFFFFFFFFFFFFFFFFFFFFFFFFFFFFFFFFFFFFFFFFFFFFFFFFFFFFFFFFF
310
FFFFFFFFFFFFFFFFFFFFFFFFFFFFFFFFFFFFFFFFFFFFFFFFFFFFFFFFFFFFFFFFFFFFFFFFFFFFFFFFFFFFFFFFFFFFFFFFFFFFFFFFFFFFFFFFFFFFFFFFFFFFFFFFFFFFFFFFFFFFFFFFFFFFFFFFFFFFFFFFFFFFFFFFFFFFFFFFFFFFFFFFFFFFFFFFFFFFFFFFFFFFFFFFFFFFFFFFFFFFFFFFFFFFFFFFFFFFFFFFFFFFFFFFFFFFFF
310
FFFFFFFFFFFFFFFFFFFFFFFFFFFFFFFFFFFFFFFFFFFFFFFFFFFFFFFFFFFFFFFFFFFFFFFFFFFFFFFFFFFFFFFFFFFFFFFFFFFFFFFFFFFFFFFFFFFFFFFFFFFFFFFFFFFFFFFFFFFFFFFFFFFFFFFFFFFFFFFFFFFFFFFFFFFFFFFFFFFFFFFFFFFFFFFF000000FF000000000000FF00FF000000FFFFFFFFFFFFFFFFFFFFFFFFFFFFFF
310
FFFF0000FF00000000000000000000FF00FFFFFFFFFFFFFFFFFFFFFFFFFFFFFFFF000000FF000000000000000000000000FFFFFFFF00FFFF0000000000FF000000FF0000000000000000FF000000000000FF00FFFF00000000000000000000FF00FF00FF000000FF0000000000000000000000FFFF00000000000000000000
310
0000FF000000000000FF0000000000000000FF00FFFFFFFFFFFFFFFFFFFFFFFFFFFFFFFFFFFFFFFFFFFFFFFFFFFFFFFFFFFFFFFFFFFFFFFFFFFFFFFFFFFFFFFFFFFFFFFFFFFFFFFFFFFFFFFFFFFFFFFFFFFFFFFFFFFFFFFFFFFFFFFFFFFFFFFFFFFFFFFFFFFFFFFFFFFFFFFFFFFFFFFFFFFFFFFFFFFFFFFFFFFFFFFFFFFFFF
310
FFFFFFFFFFFFFFFFFFFFFFFFFFFFFFFFFFFFFFFFFFFFFFFFFFFFFFFFFFFFFFFFFFFFFFFFFFFFFFFFFFFFFFFFFFFFFFFFFFFFFFFFFFFFFFFFFFFFFFFFFFFFFFFFFFFFFFFFFFFFFFFFFFFFFFFFFFFFFFFFFFFFFFFFFFFFFFFFFFFFFFFFFFFFFFFFFFFFFFFFFFFFFFFFFFFFFFFFFFFFFFFFFFFFFFFFFFFFFFFFFFFFFFFFFFFFFF
310
FFFFFFFFFFFFFFFFFFFFFFFFFFFFFFFFFFFFFFFFFFFFFFFFFFFFFFFFFFFFFFFFFFFFFFFFFFFFFFFFFFFFFFFFFFFFFFFFFFFFFFFFFFFFFFFFFFFFFFFFFFFFFFFFFFFFFFFFFFFFFFFFFFFFFFFFFFFFFFFFFFFFFFFFFFFFFFFFFFFFFFFFFFFFFFFFFFFFFFFFFFFFFFFFFFFFFFFFFFFFFFFFFFFFFFFFFFFFFFFFFFFFFFFFFFFFFF
310
FFFFFFFFFFFFFFFFFFFFFFFFFFFFFFFFFFFFFFFFFFFFFFFFFFFFFFFFFFFFFFFFFFFFFFFFFFFFFFFFFFFFFFFFFFFFFFFFFFFFFFFFFFFFFFFF
  0
BLOCK_RECORD
  5
8B7B
330
1
100
AcDbSymbolTableRecord
100
AcDbBlockTableRecord
  2
*D11
340
0
  0
BLOCK_RECORD
  5
8B8F
330
1
100
AcDbSymbolTableRecord
100
AcDbBlockTableRecord
  2
*D12
340
0
  0
BLOCK_RECORD
  5
8BA3
330
1
100
AcDbSymbolTableRecord
100
AcDbBlockTableRecord
  2
*D13
340
0
  0
BLOCK_RECORD
  5
8BB7
330
1
100
AcDbSymbolTableRecord
100
AcDbBlockTableRecord
  2
*D14
340
0
  0
BLOCK_RECORD
  5
8BC2
330
1
100
AcDbSymbolTableRecord
100
AcDbBlockTableRecord
  2
*D15
340
0
  0
BLOCK_RECORD
  5
8BDA
330
1
100
AcDbSymbolTableRecord
100
AcDbBlockTableRecord
  2
*D16
340
0
  0
BLOCK_RECORD
  5
8BEE
330
1
100
AcDbSymbolTableRecord
100
AcDbBlockTableRecord
  2
*D17
340
0
  0
BLOCK_RECORD
  5
8C02
330
1
100
AcDbSymbolTableRecord
100
AcDbBlockTableRecord
  2
*D18
340
0
  0
BLOCK_RECORD
  5
8DBF
330
1
100
AcDbSymbolTableRecord
100
AcDbBlockTableRecord
  2
*D19
340
0
  0
BLOCK_RECORD
  5
8DC9
330
1
100
AcDbSymbolTableRecord
100
AcDbBlockTableRecord
  2
*D20
340
0
  0
BLOCK_RECORD
  5
8DD3
330
1
100
AcDbSymbolTableRecord
100
AcDbBlockTableRecord
  2
*D21
340
0
  0
BLOCK_RECORD
  5
8DDD
330
1
100
AcDbSymbolTableRecord
100
AcDbBlockTableRecord
  2
*D22
340
0
  0
BLOCK_RECORD
  5
8DE7
330
1
100
AcDbSymbolTableRecord
100
AcDbBlockTableRecord
  2
*D23
340
0
  0
BLOCK_RECORD
  5
8DF8
330
1
100
AcDbSymbolTableRecord
100
AcDbBlockTableRecord
  2
*D24
340
0
  0
BLOCK_RECORD
  5
8E04
330
1
100
AcDbSymbolTableRecord
100
AcDbBlockTableRecord
  2
*D25
340
0
  0
BLOCK_RECORD
  5
8E0E
330
1
100
AcDbSymbolTableRecord
100
AcDbBlockTableRecord
  2
*D26
340
0
  0
BLOCK_RECORD
  5
8EEE
330
1
100
AcDbSymbolTableRecord
100
AcDbBlockTableRecord
  2
*D27
340
0
  0
BLOCK_RECORD
  5
8EF8
330
1
100
AcDbSymbolTableRecord
100
AcDbBlockTableRecord
  2
*D28
340
0
  0
BLOCK_RECORD
  5
8F02
330
1
100
AcDbSymbolTableRecord
100
AcDbBlockTableRecord
  2
*D29
340
0
  0
BLOCK_RECORD
  5
8F0C
330
1
100
AcDbSymbolTableRecord
100
AcDbBlockTableRecord
  2
*D30
340
0
  0
BLOCK_RECORD
  5
8F16
330
1
100
AcDbSymbolTableRecord
100
AcDbBlockTableRecord
  2
*D31
340
0
  0
BLOCK_RECORD
  5
8F27
330
1
100
AcDbSymbolTableRecord
100
AcDbBlockTableRecord
  2
*D32
340
0
  0
BLOCK_RECORD
  5
8F33
330
1
100
AcDbSymbolTableRecord
100
AcDbBlockTableRecord
  2
*D33
340
0
  0
BLOCK_RECORD
  5
8F3D
330
1
100
AcDbSymbolTableRecord
100
AcDbBlockTableRecord
  2
*D34
340
0
  0
ENDTAB
  0
ENDSEC
  0
SECTION
  2
BLOCKS
  0
BLOCK
  5
20
330
1F
100
AcDbEntity
  8
0
100
AcDbBlockBegin
  2
*Model_Space
 70
     0
 10
0.0
 20
0.0
 30
0.0
  3
*Model_Space
  1

  0
ENDBLK
  5
21
330
1F
100
AcDbEntity
  8
0
100
AcDbBlockEnd
  0
BLOCK
  5
228A
330
2286
100
AcDbEntity
 67
     1
  8
0
100
AcDbBlockBegin
  2
*Paper_Space
 70
     0
 10
0.0
 20
0.0
 30
0.0
  3
*Paper_Space
  1

  0
ENDBLK
  5
228B
330
2286
100
AcDbEntity
 67
     1
  8
0
100
AcDbBlockEnd
  0
BLOCK
  5
1A8D
330
1A8A
100
AcDbEntity
  8
0
100
AcDbBlockBegin
  2
B-DIM
 70
     0
 10
0.0
 20
0.0
 30
0.0
  3
B-DIM
  1

  0
LINE
  5
1A8E
330
1A8A
100
AcDbEntity
  8
0
 62
     1
100
AcDbLine
 10
0.000000000000091
 20
-1.1
 30
0.0
 11
0.000000000000091
 21
1.1
 31
0.0
  0
LWPOLYLINE
  5
1A8F
330
1A8A
100
AcDbEntity
  8
0
 62
     1
100
AcDbPolyline
 90
        2
 70
     0
 43
0.3
 10
-0.7071067811864851
 20
-0.7071067811864851
 10
0.707106781186576
 20
0.707106781186576
  0
LINE
  5
1A90
330
1A8A
100
AcDbEntity
  8
0
 62
     1
100
AcDbLine
 10
1.20000000000009
 20
0.0
 30
0.0
 11
-1.199999999999909
 21
0.0
 31
0.0
  0
ENDBLK
  5
1A91
330
1A8A
100
AcDbEntity
  8
0
100
AcDbBlockEnd
  0
BLOCK
  5
1B89
330
1B88
100
AcDbEntity
  8
0
100
AcDbBlockBegin
  2
nieplot_krzyz
 70
     0
 10
0.0
 20
0.0
 30
0.0
  3
nieplot_krzyz
  1

  0
LINE
  5
1B8A
330
1B88
100
AcDbEntity
  8
Defpoints
  6
ByBlock
 62
     0
370
    -2
100
AcDbLine
 10
0.0
 20
-5.56546047199663
 30
0.0
 11
0.0
 21
5.56546047199663
 31
0.0
  0
LINE
  5
1B8B
330
1B88
100
AcDbEntity
  8
Defpoints
  6
ByBlock
 62
     0
370
    -2
100
AcDbLine
 10
-5.565460471996857
 20
0.0
 30
0.0
 11
5.565460471996857
 21
0.0
 31
0.0
  0
ENDBLK
  5
1B8C
330
1B88
100
AcDbEntity
  8
0
100
AcDbBlockEnd
  0
BLOCK
  5
224E
330
224D
100
AcDbEntity
  8
0
100
AcDbBlockBegin
  2
koncepcja-opis-A4
 70
     0
 10
0.0
 20
0.0
 30
0.0
  3
koncepcja-opis-A4
  1

  0
RTEXT
  5
224F
330
224D
100
AcDbEntity
  8
A-Annotation-T
  6
ByBlock
 62
     0
 92
      268
310
0C01000003000000780000000A0000002BBCDA21009926C095D60A7D14B13B40000000000000000000000000000000000000000000000000000000000000F03F000000000000F03F0000000000000000000000000000000055851B962B90D03F000000000000F03F0000000000000000525465787420285254657874290000
310
00840000000600000005000000402A33D040DB26C08A9FDE25F48F3B40000000000000000037386B3AF56F1CC08A9FDE25F48F3B40000000000000000037386B3AF56F1CC0AA44632B55F33B400000000000000000402A33D040DB26C0AA44632B55F33B400000000000000000402A33D040DB26C08A9FDE25F48F3B400000
310
0000000000000800000015000000
370
    -2
100
RText
 10
-11.42822886108945
 20
27.95051833318272
 30
0.0
210
0.0
220
0.0
230
1.0
 50
0.0
 40
0.3
  7
ARIAL-CE
 70
     1
  1
$(getvar,dwgname)
  0
RTEXT
  5
2251
330
224D
100
AcDbEntity
  8
A-Annotation-T
  6
ByBlock
 62
     0
 92
      268
310
0C01000003000000780000000A000000BE4B1C618FD732C046AFC4DCB2B6DE3F000000000000000000000000000000000000000000000000000000000000F03F000000000000F03F00000000000000000000000000000000333333333333D33F000000000000F03F0000000000000000525465787420285254657874290000
310
0084000000060000000500000024B282C7F5FD32C0AC152B43191DD53F0000000000000000C822C0D1CCE132C0AC152B43191DD53F0000000000000000C822C0D1CCE132C009BEC8D4BFC1ED3F000000000000000024B282C7F5FD32C009BEC8D4BFC1ED3F000000000000000024B282C7F5FD32C0AC152B43191DD53F0000
310
0000000000000800000015000000
370
    -2
100
RText
 10
-18.99203154507462
 20
0.3299010425510811
 30
0.0
210
0.0
220
0.0
230
1.0
 50
90.0
 40
0.11
  7
ARIAL-CE
 70
     1
  1
$(xrefs,3)
  0
RTEXT
  5
2252
330
224D
100
AcDbEntity
  8
A-Annotation-T
  6
ByBlock
 62
     0
 92
      268
310
0C01000003000000780000000A0000007EEE519244ABE1BF2C52C922DE47DC3F000000000000000000000000000000000000000000000000000000000000F03F000000000000F03F000000000000000000000000000000007180AB8BC52D933F000000000000F03F0000000000000000525465787420285254657874290000
310
00840000000600000005000000809C80A8FBF7E1BF28F66BF66FAEDB3F00000000000000009D28CB76EA27D3BF28F66BF66FAEDB3F00000000000000009D28CB76EA27D3BFDCC3393C59D523400000000000000000809C80A8FBF7E1BFDCC3393C59D523400000000000000000809C80A8FBF7E1BF28F66BF66FAEDB3F0000
310
0000000000000800000015000000
370
    -2
100
RText
 10
-0.5615213671743647
 20
0.4325218111478955
 30
0.0
210
0.0
220
0.0
230
1.0
 50
90.0
 40
0.2
  7
ARIAL-CE
 70
     1
  1
$(getvar,dwgprefix)$(getvar,dwgname)
  0
TEXT
  5
2253
330
224D
100
AcDbEntity
  8
A-Annotation-T
  6
ByBlock
 62
     0
370
    -2
100
AcDbText
 10
-16.31805438268841
 20
-0.0111128004430271
 30
0.0
 40
0.2
  1
data wydruku:
  7
ARIAL-CE
 11
-16.31805438268841
 21
0.188887199556973
 31
0.0
100
AcDbText
 73
     3
  0
TEXT
  5
2254
330
224D
100
AcDbEntity
  8
A-Annotation-T
  6
ByBlock
 62
     0
370
    -2
100
AcDbText
 10
-15.75764457501989
 20
0.5941933267327386
 30
0.0
 40
0.2
  1
zakładka:
  7
ARIAL-CE
 11
-15.75764457501989
 21
0.7941933267327386
 31
0.0
100
AcDbText
 73
     3
  0
TEXT
  5
2255
330
224D
100
AcDbEntity
  8
A-Annotation-T
  6
ByBlock
 62
     0
370
    -2
100
AcDbText
 10
-16.62838598052184
 20
0.2986308364966838
 30
0.0
 40
0.2
  1
wydruk wykonał:
  7
ARIAL-CE
 11
-16.62838598052184
 21
0.4986308364966839
 31
0.0
100
AcDbText
 73
     3
  0
RTEXT
  5
2256
330
224D
100
AcDbEntity
  8
A-Annotation-T
  6
ByBlock
 62
     0
 92
      268
310
0C01000003000000780000000A0000002A86B61B7A8D2CC00834CE2415F4AA3F000000000000000000000000000000000000000000000000000000000000F03F000000000000F03F00000000000000000000000000000000FEE229636F70C13F000000000000F03F0000000000000000525465787420285254657874290000
310
00840000000600000005000000F0D97CFA5AB02CC0D047168626B38FBF000000000000000011463114EB5128C0D047168626B38FBF000000000000000011463114EB5128C000705DAC742DC83F0000000000000000F0D97CFA5AB02CC000705DAC742DC83F0000000000000000F0D97CFA5AB02CC0D047168626B38FBF0000
310
0000000000000800000015000000
370
    -2
100
RText
 10
-14.34444411062301
 20
0.1888871995569161
 30
0.0
210
0.0
220
0.0
230
1.0
 50
0.0
 40
0.2
  7
ARIAL-CE
 70
     1
  1
$(edtime,$(getvar,date),YYYY-MO-DD HH:MM)
  0
RTEXT
  5
2257
330
224D
100
AcDbEntity
  8
A-Annotation-T
  6
ByBlock
 62
     0
 92
      268
310
0C01000003000000780000000A000000AD89452FC69D2CC0C5C9C4EBA2BBE33F000000000000000000000000000000000000000000000000000000000000F03F000000000000F03F00000000000000000000000000000000B7A63234775AAA3F000000000000F03F0000000000000000525465787420285254657874290000
310
0084000000060000000500000000A3DF6AF3AA2CC08F342332CFE8E23F0000000000000000E2DD04E6003A2BC08F342332CFE8E23F0000000000000000E2DD04E6003A2BC00096A01F086AE93F000000000000000000A3DF6AF3AA2CC00096A01F086AE93F000000000000000000A3DF6AF3AA2CC08F342332CFE8E23F0000
310
0000000000000800000015000000
370
    -2
100
RText
 10
-14.33388837795201
 20
0.7941933267326818
 30
0.0
210
0.0
220
0.0
230
1.0
 50
0.0
 40
0.2
  7
ARIAL-CE
 70
     1
  1
$(getvar,ctab)
  0
RTEXT
  5
2258
330
224D
100
AcDbEntity
  8
A-Annotation-T
  6
ByBlock
 62
     0
 92
      268
310
0C01000003000000780000000A00000047C8F5D677872CC081EA883749F8D23F000000000000000000000000000000000000000000000000000000000000F03F000000000000F03F00000000000000000000000000000000C91814EE1BF7BC3F000000000000F03F0000000000000000525465787420285254657874290000
310
0084000000060000000500000060DCE3F26EA42CC0D0CE8C73CBB2CE3F0000000000000000AAA9D9E4677929C0D0CE8C73CBB2CE3F0000000000000000AAA9D9E4677929C0C0ECE14F91E9DF3F000000000000000060DCE3F26EA42CC0C0ECE14F91E9DF3F000000000000000060DCE3F26EA42CC0D0CE8C73CBB2CE3F0000
310
0000000000000800000015000000
370
    -2
100
RText
 10
-14.32115897208695
 20
0.4986308364966128
 30
0.0
210
0.0
220
0.0
230
1.0
 50
0.0
 40
0.2
  7
ARIAL-CE
 70
     1
  1
$(getvar,loginname)
  0
ENDBLK
  5
2259
330
224D
100
AcDbEntity
  8
0
100
AcDbBlockEnd
  0
BLOCK
  5
225B
330
225A
100
AcDbEntity
  8
0
100
AcDbBlockBegin
  2
koncepcja-opis-A3
 70
     0
 10
0.0
 20
0.0
 30
0.0
  3
koncepcja-opis-A3
  1

  0
RTEXT
  5
225C
330
225A
100
AcDbEntity
  8
A-Annotation-T
  6
ByBlock
 62
     0
 92
      268
310
0C01000003000000780000000A0000003ADD9161F4B425C059B593570F363B40000000000000000000000000000000000000000000000000000000000000F03F000000000000F03F0000000000000000000000000000000000E329636F70C13F000000000000F03F0000000000000000525465787420285254657874290000
310
0084000000060000000500000000315840D5D725C0768B30E89E243B400000000000000000219D0C5A657921C0768B30E89E243B400000000000000000219D0C5A657921C01F095A36F0583B40000000000000000000315840D5D725C01F095A36F0583B40000000000000000000315840D5D725C0768B30E89E243B400000
310
0000000000000800000015000000
370
    -2
100
RText
 10
-10.92154885365062
 20
27.34741534898887
 30
0.0
210
0.0
220
0.0
230
1.0
 50
0.0
 40
0.2
  7
ARIAL-CE
 70
     1
  1
$(edtime,$(getvar,tdupdate),YYYY-MO-DD HH:MM)
  0
RTEXT
  5
225D
330
225A
100
AcDbEntity
  8
A-Annotation-T
  6
ByBlock
 62
     0
 92
      268
310
0C01000003000000780000000A000000DB4565D1EE9D25C045054F3A6AB03B40000000000000000000000000000000000000000000000000000000000000F03F000000000000F03F0000000000000000000000000000000055851B962B90D03F000000000000F03F0000000000000000525465787420285254657874290000
310
00840000000600000005000000F0B3BD7F2FE025C03ACE22E3498F3B400000000000000000974B8099D2791AC03ACE22E3498F3B400000000000000000974B8099D2791AC05A73A7E8AAF23B400000000000000000F0B3BD7F2FE025C05A73A7E8AAF23B400000000000000000F0B3BD7F2FE025C03ACE22E3498F3B400000
310
0000000000000800000015000000
370
    -2
100
RText
 10
-10.93786238852223
 20
27.94792036140584
 30
0.0
210
0.0
220
0.0
230
1.0
 50
0.0
 40
0.3
  7
ARIAL-CE
 70
     1
  1
$(getvar,dwgname)
  0
RTEXT
  5
225E
330
225A
100
AcDbEntity
  8
A-Annotation-T
  6
ByBlock
 62
     0
 92
      268
310
0C01000003000000780000000A000000FCF2DA41FE2FDFBF2EFED4734D1DDC3F000000000000000000000000000000000000000000000000000000000000F03F000000000000F03F000000000000000000000000000000007280AB8BC52D933F000000000000F03F0000000000000000525465787420285254657874290000
310
00840000000600000005000000004F386E6CC9DFBF2AA27747DF83DB3F0000000000000000397D0428BF02CEBF2AA27747DF83DB3F0000000000000000397D0428BF02CEBF3C21C2B604D423400000000000000000004F386E6CC9DFBF3C21C2B604D423400000000000000000004F386E6CC9DFBF2AA27747DF83DB3F0000
310
0000000000000800000015000000
370
    -2
100
RText
 10
-0.4966689182631257
 20
0.4299238393710164
 30
0.0
210
0.0
220
0.0
230
1.0
 50
90.0
 40
0.2
  7
ARIAL-CE
 70
     1
  1
$(getvar,dwgprefix)$(getvar,dwgname)
  0
TEXT
  5
225F
330
225A
100
AcDbEntity
  8
A-Annotation-T
  6
ByBlock
 62
     0
370
    -2
100
AcDbText
 10
-11.36466321312392
 20
1.072040999248189
 30
0.0
 40
0.2
  1
data wydruku:
  7
ARIAL-CE
 11
-11.36466321312392
 21
1.272040999248189
 31
0.0
100
AcDbText
 73
     3
  0
TEXT
  5
2260
330
225A
100
AcDbEntity
  8
A-Annotation-T
  6
ByBlock
 62
     0
370
    -2
100
AcDbText
 10
-11.67499481095734
 20
0.5053440586720364
 30
0.0
 40
0.2
  1
wydruk wykonał:
  7
ARIAL-CE
 11
-11.67499481095734
 21
0.7053440586720364
 31
0.0
100
AcDbText
 73
     3
  0
RTEXT
  5
2261
330
225A
100
AcDbEntity
  8
A-Annotation-T
  6
ByBlock
 62
     0
 92
      268
310
0C01000003000000780000000A000000EA5F8B3857A522C09CD549BD392CF23F000000000000000000000000000000000000000000000000000000000000F03F000000000000F03F0000000000000000000000000000000000E329636F70C13F000000000000F03F0000000000000000525465787420285254657874290000
310
00840000000600000005000000B0B3511738C822C06C3717C73215F13F0000000000000000A23F0C6290D31CC06C3717C73215F13F0000000000000000A23F0C6290D31CC0FC11AFA9475AF43F0000000000000000B0B3511738C822C0FC11AFA9475AF43F0000000000000000B0B3511738C822C06C3717C73215F13F0000
310
0000000000000800000015000000
370
    -2
100
RText
 10
-9.391052941058518
 20
1.272040999248132
 30
0.0
210
0.0
220
0.0
230
1.0
 50
0.0
 40
0.2
  7
ARIAL-CE
 70
     1
  1
$(edtime,$(getvar,date),YYYY-MO-DD HH:MM)
  0
RTEXT
  5
2262
330
225A
100
AcDbEntity
  8
A-Annotation-T
  6
ByBlock
 62
     0
 92
      268
310
0C01000003000000780000000A00000007A2CAF3549F22C04210E1A78919E03F000000000000000000000000000000000000000000000000000000000000F03F000000000000F03F00000000000000000000000000000000C91814EE1BF7BC3F000000000000F03F0000000000000000525465787420285254657874290000
310
0084000000060000000500000020B6B80F4CBC22C06A9DFFD12F94DC3F0000000000000000D4065D038A221FC06A9DFFD12F94DC3F0000000000000000D4065D038A221FC061910DB42D92E63F000000000000000020B6B80F4CBC22C061910DB42D92E63F000000000000000020B6B80F4CBC22C06A9DFFD12F94DC3F0000
310
0000000000000800000015000000
370
    -2
100
RText
 10
-9.36776780252245
 20
0.7053440586719654
 30
0.0
210
0.0
220
0.0
230
1.0
 50
0.0
 40
0.2
  7
ARIAL-CE
 70
     1
  1
$(getvar,loginname)
  0
RTEXT
  5
2263
330
225A
100
AcDbEntity
  8
A-Annotation-T
  6
ByBlock
 62
     0
 92
      268
310
0C01000003000000780000000A0000006D631A4CA3B522C0BD228118DC84E93F000000000000000000000000000000000000000000000000000000000000F03F000000000000F03F00000000000000000000000000000000B7A63234775AAA3F000000000000F03F0000000000000000525465787420285254657874290000
310
00840000000600000005000000C07CB487D0C222C0878DDF5E08B2E83F0000000000000000A2B7D902DE5121C0878DDF5E08B2E83F0000000000000000A2B7D902DE5121C0F8EE5C4C4133EF3F0000000000000000C07CB487D0C222C0F8EE5C4C4133EF3F0000000000000000C07CB487D0C222C0878DDF5E08B2E83F0000
310
0000000000000800000015000000
370
    -2
100
RText
 10
-9.380497208387509
 20
0.9750067225899945
 30
0.0
210
0.0
220
0.0
230
1.0
 50
0.0
 40
0.2
  7
ARIAL-CE
 70
     1
  1
$(getvar,ctab)
  0
TEXT
  5
2264
330
225A
100
AcDbEntity
  8
A-Annotation-T
  6
ByBlock
 62
     0
370
    -2
100
AcDbText
 10
-10.8042534054554
 20
0.7750067225900514
 30
0.0
 40
0.2
  1
zakładka:
  7
ARIAL-CE
 11
-10.8042534054554
 21
0.9750067225900513
 31
0.0
100
AcDbText
 73
     3
  0
RTEXT
  5
2265
330
225A
100
AcDbEntity
  8
A-Annotation-T
  6
ByBlock
 62
     0
 92
      268
310
0C01000003000000780000000A0000009F5E981D68C443C01DA995C58931E43F000000000000000000000000000000000000000000000000000000000000F03F000000000000F03F00000000000000000000000000000000333333333333D33F000000000000F03F0000000000000000525465787420285254657874290000
310
00840000000600000005000000D291CB509BD743C0A0B891F179C9DE3F0000000000000000244AEAD586C943C0A0B891F179C9DE3F0000000000000000244AEAD586C943C0C207FE15F84BF13F0000000000000000D291CB509BD743C0C207FE15F84BF13F0000000000000000D291CB509BD743C0A0B891F179C9DE3F0000
310
0000000000000800000015000000
370
    -2
100
RText
 10
-39.68442735614703
 20
0.4810471400331924
 30
0.0
210
0.0
220
0.0
230
1.0
 50
90.0
 40
0.11
  7
ARIAL-CE
 70
     1
  1
$(xrefs,3)
  0
ENDBLK
  5
2266
330
225A
100
AcDbEntity
  8
0
100
AcDbBlockEnd
  0
BLOCK
  5
232F
330
232B
100
AcDbEntity
 67
     1
  8
0
100
AcDbBlockBegin
  2
*Paper_Space4
 70
     0
 10
0.0
 20
0.0
 30
0.0
  3
*Paper_Space4
  1

  0
VIEWPORT
  5
232C
102
{ACAD_XDICTIONARY
360
8F6B
102
}
330
232B
100
AcDbEntity
 67
     1
  8
0
100
AcDbViewport
 10
21.22443406924518
 20
14.26104116439819
 30
0.0
 40
50.01191248175803
 41
31.41924854736329
 68
     0
 69
     0
 12
21.22443406924518
 22
14.26104116439819
 13
0.0
 23
0.0
 14
10.0
 24
10.0
 15
10.0
 25
10.0
 16
0.0
 26
0.0
 36
1.0
 17
0.0
 27
0.0
 37
0.0
 42
50.0
 43
0.0
 44
0.0
 45
31.41924854736329
 50
0.0
 51
0.0
 72
 20000
 90
    32800
  1

281
     0
 71
     1
 74
     0
110
0.0
120
0.0
130
0.0
111
1.0
121
0.0
131
0.0
112
0.0
122
1.0
132
0.0
 79
     0
146
0.0
  0
VIEWPORT
  5
232D
102
{ACAD_XDICTIONARY
360
8F6D
102
}
330
232B
100
AcDbEntity
 67
     1
  8
A-Vports
100
AcDbViewport
 10
20.12251119321156
 20
14.26207605808594
 30
0.0
 40
39.1663003322434
 41
25.28904652781859
 68
     0
 69
     0
 12
459.1940352922977
 22
2077.347168593903
 13
0.0
 23
0.0
 14
1.0
 24
1.0
 15
3000.0
 25
3000.0
 16
0.0
 26
0.0
 36
1.0
 17
-54.71127335617393
 27
-1392.191875242959
 37
989.7342240912781
 42
37.56574004507809
 43
0.0
 44
0.0
 45
2528.904666901206
 50
0.0
 51
0.0
 72
 20000
 90
    32800
  1

281
     0
 71
     1
 74
     0
110
0.0
120
0.0
130
0.0
111
1.0
121
0.0
131
0.0
112
0.0
122
1.0
132
0.0
 79
     1
146
0.0
  0
INSERT
  5
232E
330
232B
100
AcDbEntity
 67
     1
  8
A-Annotation-T
100
AcDbBlockReference
  2
koncepcja-opis-A3
 10
40.32455792997384
 20
0.2681881593354092
 30
0.0
  0
ENDBLK
  5
2330
330
232B
100
AcDbEntity
 67
     1
  8
0
100
AcDbBlockEnd
  0
BLOCK
  5
3A60
330
3A5F
100
AcDbEntity
  8
0
100
AcDbBlockBegin
  2
*U5
 70
     1
 10
0.0
 20
0.0
 30
0.0
  3
*U5
  1

  0
ENDBLK
  5
3A61
330
3A5F
100
AcDbEntity
  8
0
100
AcDbBlockEnd
  0
BLOCK
  5
3AD4
330
3AD3
100
AcDbEntity
  8
0
100
AcDbBlockBegin
  2
teren$0$teren
 70
     0
 10
0.0
 20
0.0
 30
0.0
  3
teren$0$teren
  1
\\mati\architekci\domy typowe\willa anna\willa_anna\Constructs\teren.dwg
  0
ENDBLK
  5
3AD5
330
3AD3
100
AcDbEntity
  8
0
100
AcDbBlockEnd
  0
BLOCK
  5
489F
330
489E
100
AcDbEntity
  8
0
100
AcDbBlockBegin
  2
_ArchTick
 70
     0
 10
0.0
 20
0.0
 30
0.0
  3
_ArchTick
  1

  0
LWPOLYLINE
  5
48A0
330
489E
100
AcDbEntity
  8
0
  6
ByBlock
 62
     0
100
AcDbPolyline
 90
        2
 70
     0
 43
0.0150000081
 10
-0.0500000269999873
 20
-0.0500000269999873
 10
0.0500000269999873
 20
0.0500000269999873
  0
ENDBLK
  5
48A1
330
489E
100
AcDbEntity
  8
0
100
AcDbBlockEnd
  0
BLOCK
  5
48A3
330
48A2
100
AcDbEntity
  8
0
100
AcDbBlockBegin
  2
_Open90
 70
     0
 10
0.0
 20
0.0
 30
0.0
  3
_Open90
  1

  0
LINE
  5
48A4
330
48A2
100
AcDbEntity
  8
0
  6
ByBlock
 62
     0
370
    -2
100
AcDbLine
 10
-0.0500000269999873
 20
0.0500000269999873
 30
0.0
 11
0.0
 21
0.0
 31
0.0
  0
LINE
  5
48A5
330
48A2
100
AcDbEntity
  8
0
  6
ByBlock
 62
     0
370
    -2
100
AcDbLine
 10
0.0
 20
0.0
 30
0.0
 11
-0.0500000269999873
 21
-0.0500000269999873
 31
0.0
  0
LINE
  5
48A6
330
48A2
100
AcDbEntity
  8
0
  6
ByBlock
 62
     0
370
    -2
100
AcDbLine
 10
0.0
 20
0.0
 30
0.0
 11
-0.1000000539999746
 21
0.0
 31
0.0
  0
ENDBLK
  5
48A7
330
48A2
100
AcDbEntity
  8
0
100
AcDbBlockEnd
  0
BLOCK
  5
48A9
330
48A8
100
AcDbEntity
  8
0
100
AcDbBlockBegin
  2
_Small
 70
     0
 10
0.0
 20
0.0
 30
0.0
  3
_Small
  1

  0
CIRCLE
  5
48AA
330
48A8
100
AcDbEntity
  8
0
 62
     0
370
    -2
100
AcDbCircle
 10
0.0
 20
0.0
 30
0.0
 40
0.025
  0
ENDBLK
  5
48AB
330
48A8
100
AcDbEntity
  8
0
100
AcDbBlockEnd
  0
BLOCK
  5
48D7
330
48D4
100
AcDbEntity
  8
0
100
AcDbBlockBegin
  2
Anno_Elevation_Label_4_1m1
 70
     2
 10
0.0
 20
0.0
 30
0.0
  3
Anno_Elevation_Label_4_1m1
  1

  0
ATTDEF
  5
48D8
330
48D4
100
AcDbEntity
  8
0
  6
ByBlock
 62
     0
100
AcDbText
 10
-0.0970929370275258
 20
0.1404806350946103
 30
0.0
 40
0.1
  1

  7
RomanS
 72
     2
 11
-0.0970929370275258
 21
0.1404806350946103
 31
0.0
100
AcDbAttributeDefinition
  3
Prefix
  2
PREFIX
 70
     0
  0
ATTDEF
  5
48D9
330
48D4
100
AcDbEntity
  8
0
  6
ByBlock
 62
     0
100
AcDbText
 10
-0.05
 20
0.1404806350946103
 30
0.0
 40
0.1
  1
+10"
  7
RomanS
100
AcDbAttributeDefinition
  3
Elevation
  2
ELEVATION
 70
     0
  0
ATTDEF
  5
48DA
330
48D4
100
AcDbEntity
  8
0
  6
ByBlock
 62
     0
100
AcDbText
 10
0.1278747890669933
 20
0.0
 30
0.0
 40
0.1
  1

  7
RomanS
100
AcDbAttributeDefinition
  3
Suffix
  2
SUFFIX
 70
     0
  0
LWPOLYLINE
  5
48DB
330
48D4
100
AcDbEntity
  8
0
  6
Continuous
 62
     1
370
     5
100
AcDbPolyline
 90
        3
 70
     1
 43
0.0
 10
0.0
 20
0.0
 10
0.05
 20
0.086602540378442
 10
-0.05
 20
0.086602540378442
  0
LINE
  5
48DC
330
48D4
100
AcDbEntity
  8
0
  6
Continuous
 62
     1
370
     5
100
AcDbLine
 10
0.05
 20
0.0
 30
0.0
 11
-0.05
 21
0.0
 31
0.0
  0
ENDBLK
  5
48DD
330
48D4
100
AcDbEntity
  8
0
100
AcDbBlockEnd
  0
BLOCK
  5
8B7C
330
8B7B
100
AcDbEntity
  8
0
100
AcDbBlockBegin
  2
*D11
 70
     1
 10
0.0
 20
0.0
 30
0.0
  3
*D11
  1

  0
LINE
  5
8C0C
330
8B7B
100
AcDbEntity
  8
0Wymiary-PL
 62
     1
370
    -2
100
AcDbLine
 10
-8817.407600137412
 20
-3502.174664763578
 30
0.0
 11
-8209.407600137412
 21
-3502.174664763578
 31
0.0
  0
INSERT
  5
8C0D
330
8B7B
100
AcDbEntity
  8
0Wymiary-PL
 62
     1
370
    -2
100
AcDbBlockReference
  2
B-DIM
 10
-8847.407600137414
 20
-3502.174664763578
 30
0.0
 41
30.0
 42
30.0
 43
30.0
 50
180.0
  0
INSERT
  5
8C0E
330
8B7B
100
AcDbEntity
  8
0Wymiary-PL
 62
     1
370
    -2
100
AcDbBlockReference
  2
B-DIM
 10
-8179.407600137412
 20
-3502.174664763578
 30
0.0
 41
30.0
 42
30.0
 43
30.0
  0
MTEXT
  5
8C0F
330
8B7B
100
AcDbEntity
  8
0Wymiary-PL
 62
    10
100
AcDbMText
 10
-8513.407600137412
 20
-3422.174664763577
 30
0.0
 40
80.0
 41
0.0
 71
     5
 72
     1
  1
\A1;668
  7
RomanS
 73
     1
 44
1.0
1001
ACAD
1000
MTEXTBEGIN
1070
    73
1070
     1
1070
    44
1040
1.0
1070
    74
1070
     0
1000
MTEXTEND
  0
POINT
  5
8C10
330
8B7B
100
AcDbEntity
  8
Defpoints
 62
     0
100
AcDbPoint
 10
-8847.407600137414
 20
-4024.132091488047
 30
0.0
  0
POINT
  5
8C11
330
8B7B
100
AcDbEntity
  8
Defpoints
 62
     0
100
AcDbPoint
 10
-8179.407600137412
 20
-4024.132091488047
 30
0.0
  0
POINT
  5
8C12
330
8B7B
100
AcDbEntity
  8
Defpoints
 62
     0
100
AcDbPoint
 10
-8179.407600137412
 20
-3502.174664763578
 30
0.0
  0
ENDBLK
  5
8B7D
330
8B7B
100
AcDbEntity
  8
0
100
AcDbBlockEnd
  0
BLOCK
  5
8B90
330
8B8F
100
AcDbEntity
  8
0
100
AcDbBlockBegin
  2
*D12
 70
     1
 10
0.0
 20
0.0
 30
0.0
  3
*D12
  1

  0
LINE
  5
8C13
330
8B8F
100
AcDbEntity
  8
0Wymiary-PL
 62
     1
370
    -2
100
AcDbLine
 10
-8149.407600137413
 20
-3502.174664763578
 30
0.0
 11
-7662.407600137409
 21
-3502.174664763578
 31
0.0
  0
INSERT
  5
8C14
330
8B8F
100
AcDbEntity
  8
0Wymiary-PL
 62
     1
370
    -2
100
AcDbBlockReference
  2
B-DIM
 10
-8179.407600137412
 20
-3502.174664763578
 30
0.0
 41
30.0
 42
30.0
 43
30.0
 50
180.0
  0
INSERT
  5
8C15
330
8B8F
100
AcDbEntity
  8
0Wymiary-PL
 62
     1
370
    -2
100
AcDbBlockReference
  2
B-DIM
 10
-7632.407600137409
 20
-3502.174664763578
 30
0.0
 41
30.0
 42
30.0
 43
30.0
  0
MTEXT
  5
8C16
330
8B8F
100
AcDbEntity
  8
0Wymiary-PL
 62
    10
100
AcDbMText
 10
-7905.90760013741
 20
-3422.174664763577
 30
0.0
 40
80.0
 41
0.0
 71
     5
 72
     1
  1
\A1;547
  7
RomanS
 73
     1
 44
1.0
1001
ACAD
1000
MTEXTBEGIN
1070
    73
1070
     1
1070
    44
1040
1.0
1070
    74
1070
     0
1000
MTEXTEND
  0
POINT
  5
8C17
330
8B8F
100
AcDbEntity
  8
Defpoints
 62
     0
100
AcDbPoint
 10
-8179.407600137412
 20
-4024.132091488047
 30
0.0
  0
POINT
  5
8C18
330
8B8F
100
AcDbEntity
  8
Defpoints
 62
     0
100
AcDbPoint
 10
-7632.407600137409
 20
-4074.132091488047
 30
0.0
  0
POINT
  5
8C19
330
8B8F
100
AcDbEntity
  8
Defpoints
 62
     0
100
AcDbPoint
 10
-7632.407600137409
 20
-3502.174664763578
 30
0.0
  0
ENDBLK
  5
8B91
330
8B8F
100
AcDbEntity
  8
0
100
AcDbBlockEnd
  0
BLOCK
  5
8BA4
330
8BA3
100
AcDbEntity
  8
0
100
AcDbBlockBegin
  2
*D13
 70
     1
 10
0.0
 20
0.0
 30
0.0
  3
*D13
  1

  0
LINE
  5
8C46
330
8BA3
100
AcDbEntity
  8
0Wymiary-PL
 62
     1
370
    -2
100
AcDbLine
 10
-7602.407600137411
 20
-3502.174664763578
 30
0.0
 11
-6994.407600137411
 21
-3502.174664763578
 31
0.0
  0
INSERT
  5
8C47
330
8BA3
100
AcDbEntity
  8
0Wymiary-PL
 62
     1
370
    -2
100
AcDbBlockReference
  2
B-DIM
 10
-7632.407600137411
 20
-3502.174664763578
 30
0.0
 41
30.0
 42
30.0
 43
30.0
 50
180.0
  0
INSERT
  5
8C48
330
8BA3
100
AcDbEntity
  8
0Wymiary-PL
 62
     1
370
    -2
100
AcDbBlockReference
  2
B-DIM
 10
-6964.40760013741
 20
-3502.174664763578
 30
0.0
 41
30.0
 42
30.0
 43
30.0
  0
MTEXT
  5
8C49
330
8BA3
100
AcDbEntity
  8
0Wymiary-PL
 62
    10
100
AcDbMText
 10
-7298.40760013741
 20
-3422.174664763577
 30
0.0
 40
80.0
 41
0.0
 71
     5
 72
     1
  1
\A1;668
  7
RomanS
 73
     1
 44
1.0
1001
ACAD
1000
MTEXTBEGIN
1070
    73
1070
     1
1070
    44
1040
1.0
1070
    74
1070
     0
1000
MTEXTEND
  0
POINT
  5
8C4A
330
8BA3
100
AcDbEntity
  8
Defpoints
 62
     0
100
AcDbPoint
 10
-7632.407600137411
 20
-4074.132091488047
 30
0.0
  0
POINT
  5
8C4B
330
8BA3
100
AcDbEntity
  8
Defpoints
 62
     0
100
AcDbPoint
 10
-6964.40760013741
 20
-4074.132091488047
 30
0.0
  0
POINT
  5
8C4C
330
8BA3
100
AcDbEntity
  8
Defpoints
 62
     0
100
AcDbPoint
 10
-6964.40760013741
 20
-3502.174664763578
 30
0.0
  0
ENDBLK
  5
8BA5
330
8BA3
100
AcDbEntity
  8
0
100
AcDbBlockEnd
  0
BLOCK
  5
8BB8
330
8BB7
100
AcDbEntity
  8
0
100
AcDbBlockBegin
  2
*D14
 70
     1
 10
0.0
 20
0.0
 30
0.0
  3
*D14
  1

  0
LINE
  5
8C21
330
8BB7
100
AcDbEntity
  8
0Wymiary-PL
 62
     1
370
    -2
100
AcDbLine
 10
-6994.40760013741
 20
-3219.257263830022
 30
0.0
 11
-8817.407600137412
 21
-3219.257263830022
 31
0.0
  0
INSERT
  5
8C22
330
8BB7
100
AcDbEntity
  8
0Wymiary-PL
 62
     1
370
    -2
100
AcDbBlockReference
  2
B-DIM
 10
-6964.40760013741
 20
-3219.257263830022
 30
0.0
 41
30.0
 42
30.0
 43
30.0
  0
INSERT
  5
8C23
330
8BB7
100
AcDbEntity
  8
0Wymiary-PL
 62
     1
370
    -2
100
AcDbBlockReference
  2
B-DIM
 10
-8847.407600137414
 20
-3219.257263830022
 30
0.0
 41
30.0
 42
30.0
 43
30.0
 50
180.0
  0
MTEXT
  5
8C24
330
8BB7
100
AcDbEntity
  8
0Wymiary-PL
 62
    10
100
AcDbMText
 10
-7905.90760013741
 20
-3139.257263830022
 30
0.0
 40
80.0
 41
0.0
 71
     5
 72
     1
  1
\A1;1883
  7
RomanS
 73
     1
 44
1.0
1001
ACAD
1000
MTEXTBEGIN
1070
    73
1070
     1
1070
    44
1040
1.0
1070
    74
1070
     0
1000
MTEXTEND
  0
POINT
  5
8C25
330
8BB7
100
AcDbEntity
  8
Defpoints
 62
     0
100
AcDbPoint
 10
-6964.40760013741
 20
-4074.132091488047
 30
0.0
  0
POINT
  5
8C26
330
8BB7
100
AcDbEntity
  8
Defpoints
 62
     0
100
AcDbPoint
 10
-8847.407600137414
 20
-4024.132091488047
 30
0.0
  0
POINT
  5
8C27
330
8BB7
100
AcDbEntity
  8
Defpoints
 62
     0
100
AcDbPoint
 10
-8847.407600137414
 20
-3219.257263830022
 30
0.0
  0
ENDBLK
  5
8BB9
330
8BB7
100
AcDbEntity
  8
0
100
AcDbBlockEnd
  0
BLOCK
  5
8BC3
330
8BC2
100
AcDbEntity
  8
0
100
AcDbBlockBegin
  2
*D15
 70
     1
 10
0.0
 20
0.0
 30
0.0
  3
*D15
  1

  0
LINE
  5
8C28
330
8BC2
100
AcDbEntity
  8
0Wymiary-PL
 62
     1
370
    -2
100
AcDbLine
 10
-6690.851331806688
 20
-3994.132091488047
 30
0.0
 11
-6690.851331806688
 21
-3964.132091488048
 31
0.0
  0
LINE
  5
8C29
330
8BC2
100
AcDbEntity
  8
0Wymiary-PL
 62
     1
370
    -2
100
AcDbLine
 10
-6690.851331806688
 20
-4104.132091488047
 30
0.0
 11
-6690.851331806688
 21
-4134.132091488047
 31
0.0
  0
LINE
  5
8C2A
330
8BC2
100
AcDbEntity
  8
0Wymiary-PL
 62
     1
370
    -2
100
AcDbLine
 10
-6690.851331806688
 20
-4024.132091488047
 30
0.0
 11
-6690.851331806688
 21
-4074.132091488047
 31
0.0
  0
INSERT
  5
8C2B
330
8BC2
100
AcDbEntity
  8
0Wymiary-PL
 62
     1
370
    -2
100
AcDbBlockReference
  2
B-DIM
 10
-6690.851331806688
 20
-4024.132091488047
 30
0.0
 41
30.0
 42
30.0
 43
30.0
 50
270.0
  0
INSERT
  5
8C2C
330
8BC2
100
AcDbEntity
  8
0Wymiary-PL
 62
     1
370
    -2
100
AcDbBlockReference
  2
B-DIM
 10
-6690.851331806688
 20
-4074.132091488047
 30
0.0
 41
30.0
 42
30.0
 43
30.0
 50
90.0
  0
MTEXT
  5
8C2D
330
8BC2
100
AcDbEntity
  8
0Wymiary-PL
 62
    10
100
AcDbMText
 10
-6770.851331806688
 20
-4049.132091488048
 30
0.0
 40
80.0
 41
0.0
 71
     5
 72
     1
  1
\A1;50
  7
RomanS
 11
0.0000000000000001
 21
1.0
 31
0.0
 73
     1
 44
1.0
1001
ACAD
1000
MTEXTBEGIN
1070
    73
1070
     1
1070
    44
1040
1.0
1070
    74
1070
     0
1000
MTEXTEND
  0
POINT
  5
8C2E
330
8BC2
100
AcDbEntity
  8
Defpoints
 62
     0
100
AcDbPoint
 10
-8179.407600137412
 20
-4024.132091488047
 30
0.0
  0
POINT
  5
8C2F
330
8BC2
100
AcDbEntity
  8
Defpoints
 62
     0
100
AcDbPoint
 10
-7298.40760013741
 20
-4074.132091488047
 30
0.0
  0
POINT
  5
8C30
330
8BC2
100
AcDbEntity
  8
Defpoints
 62
     0
100
AcDbPoint
 10
-6690.851331806688
 20
-4074.132091488047
 30
0.0
  0
ENDBLK
  5
8BC4
330
8BC2
100
AcDbEntity
  8
0
100
AcDbBlockEnd
  0
BLOCK
  5
8BDB
330
8BDA
100
AcDbEntity
  8
0
100
AcDbBlockBegin
  2
*D16
 70
     1
 10
0.0
 20
0.0
 30
0.0
  3
*D16
  1

  0
LINE
  5
8C31
330
8BDA
100
AcDbEntity
  8
0Wymiary-PL
 62
     1
370
    -2
100
AcDbLine
 10
-6690.851331806688
 20
-4104.132091488047
 30
0.0
 11
-6690.851331806688
 21
-5414.132091488047
 31
0.0
  0
INSERT
  5
8C32
330
8BDA
100
AcDbEntity
  8
0Wymiary-PL
 62
     1
370
    -2
100
AcDbBlockReference
  2
B-DIM
 10
-6690.851331806688
 20
-4074.132091488047
 30
0.0
 41
30.0
 42
30.0
 43
30.0
 50
90.0
  0
INSERT
  5
8C33
330
8BDA
100
AcDbEntity
  8
0Wymiary-PL
 62
     1
370
    -2
100
AcDbBlockReference
  2
B-DIM
 10
-6690.851331806688
 20
-5444.132091488047
 30
0.0
 41
30.0
 42
30.0
 43
30.0
 50
270.0
  0
MTEXT
  5
8C34
330
8BDA
100
AcDbEntity
  8
0Wymiary-PL
 62
    10
100
AcDbMText
 10
-6770.851331806688
 20
-4759.132091488049
 30
0.0
 40
80.0
 41
0.0
 71
     5
 72
     1
  1
\A1;1370
  7
RomanS
 11
0.0000000000000001
 21
1.0
 31
0.0
 73
     1
 44
1.0
1001
ACAD
1000
MTEXTBEGIN
1070
    73
1070
     1
1070
    44
1040
1.0
1070
    74
1070
     0
1000
MTEXTEND
  0
POINT
  5
8C35
330
8BDA
100
AcDbEntity
  8
Defpoints
 62
     0
100
AcDbPoint
 10
-7298.40760013741
 20
-4074.132091488047
 30
0.0
  0
POINT
  5
8C36
330
8BDA
100
AcDbEntity
  8
Defpoints
 62
     0
100
AcDbPoint
 10
-6964.40760013741
 20
-5444.132091488047
 30
0.0
  0
POINT
  5
8C37
330
8BDA
100
AcDbEntity
  8
Defpoints
 62
     0
100
AcDbPoint
 10
-6690.851331806688
 20
-5444.132091488047
 30
0.0
  0
ENDBLK
  5
8BDC
330
8BDA
100
AcDbEntity
  8
0
100
AcDbBlockEnd
  0
BLOCK
  5
8BEF
330
8BEE
100
AcDbEntity
  8
0
100
AcDbBlockBegin
  2
*D17
 70
     1
 10
0.0
 20
0.0
 30
0.0
  3
*D17
  1

  0
LINE
  5
8C38
330
8BEE
100
AcDbEntity
  8
0Wymiary-PL
 62
     1
370
    -2
100
AcDbLine
 10
-6690.851331806688
 20
-5474.132091488048
 30
0.0
 11
-6690.851331806688
 21
-5729.132091488047
 31
0.0
  0
INSERT
  5
8C39
330
8BEE
100
AcDbEntity
  8
0Wymiary-PL
 62
     1
370
    -2
100
AcDbBlockReference
  2
B-DIM
 10
-6690.851331806688
 20
-5444.132091488047
 30
0.0
 41
30.0
 42
30.0
 43
30.0
 50
90.0
  0
INSERT
  5
8C3A
330
8BEE
100
AcDbEntity
  8
0Wymiary-PL
 62
     1
370
    -2
100
AcDbBlockReference
  2
B-DIM
 10
-6690.851331806688
 20
-5759.132091488047
 30
0.0
 41
30.0
 42
30.0
 43
30.0
 50
270.0
  0
MTEXT
  5
8C3B
330
8BEE
100
AcDbEntity
  8
0Wymiary-PL
 62
    10
100
AcDbMText
 10
-6770.851331806688
 20
-5601.632091488049
 30
0.0
 40
80.0
 41
0.0
 71
     5
 72
     1
  1
\A1;315
  7
RomanS
 11
0.0000000000000001
 21
1.0
 31
0.0
 73
     1
 44
1.0
1001
ACAD
1000
MTEXTBEGIN
1070
    73
1070
     1
1070
    44
1040
1.0
1070
    74
1070
     0
1000
MTEXTEND
  0
POINT
  5
8C3C
330
8BEE
100
AcDbEntity
  8
Defpoints
 62
     0
100
AcDbPoint
 10
-6964.40760013741
 20
-5444.132091488047
 30
0.0
  0
POINT
  5
8C3D
330
8BEE
100
AcDbEntity
  8
Defpoints
 62
     0
100
AcDbPoint
 10
-8179.407600137412
 20
-5759.132091488047
 30
0.0
  0
POINT
  5
8C3E
330
8BEE
100
AcDbEntity
  8
Defpoints
 62
     0
100
AcDbPoint
 10
-6690.851331806688
 20
-5759.132091488047
 30
0.0
  0
ENDBLK
  5
8BF0
330
8BEE
100
AcDbEntity
  8
0
100
AcDbBlockEnd
  0
BLOCK
  5
8C03
330
8C02
100
AcDbEntity
  8
0
100
AcDbBlockBegin
  2
*D18
 70
     1
 10
0.0
 20
0.0
 30
0.0
  3
*D18
  1

  0
LINE
  5
8C3F
330
8C02
100
AcDbEntity
  8
0Wymiary-PL
 62
     1
370
    -2
100
AcDbLine
 10
-6437.247338174351
 20
-5729.132091488047
 30
0.0
 11
-6437.247338174351
 21
-4054.132091488047
 31
0.0
  0
INSERT
  5
8C40
330
8C02
100
AcDbEntity
  8
0Wymiary-PL
 62
     1
370
    -2
100
AcDbBlockReference
  2
B-DIM
 10
-6437.247338174351
 20
-5759.132091488047
 30
0.0
 41
30.0
 42
30.0
 43
30.0
 50
270.0
  0
INSERT
  5
8C41
330
8C02
100
AcDbEntity
  8
0Wymiary-PL
 62
     1
370
    -2
100
AcDbBlockReference
  2
B-DIM
 10
-6437.247338174351
 20
-4024.132091488047
 30
0.0
 41
30.0
 42
30.0
 43
30.0
 50
90.0
  0
MTEXT
  5
8C42
330
8C02
100
AcDbEntity
  8
0Wymiary-PL
 62
    10
100
AcDbMText
 10
-6517.247338174351
 20
-4891.632091488048
 30
0.0
 40
80.0
 41
0.0
 71
     5
 72
     1
  1
\A1;1735
  7
RomanS
 11
0.0000000000000001
 21
1.0
 31
0.0
 73
     1
 44
1.0
1001
ACAD
1000
MTEXTBEGIN
1070
    73
1070
     1
1070
    44
1040
1.0
1070
    74
1070
     0
1000
MTEXTEND
  0
POINT
  5
8C43
330
8C02
100
AcDbEntity
  8
Defpoints
 62
     0
100
AcDbPoint
 10
-8179.407600137412
 20
-5759.132091488047
 30
0.0
  0
POINT
  5
8C44
330
8C02
100
AcDbEntity
  8
Defpoints
 62
     0
100
AcDbPoint
 10
-8179.407600137412
 20
-4024.132091488047
 30
0.0
  0
POINT
  5
8C45
330
8C02
100
AcDbEntity
  8
Defpoints
 62
     0
100
AcDbPoint
 10
-6437.247338174351
 20
-4024.132091488047
 30
0.0
  0
ENDBLK
  5
8C04
330
8C02
100
AcDbEntity
  8
0
100
AcDbBlockEnd
  0
BLOCK
  5
8DC0
330
8DBF
100
AcDbEntity
  8
0
100
AcDbBlockBegin
  2
*D19
 70
     1
 10
0.0
 20
0.0
 30
0.0
  3
*D19
  1

  0
LINE
  5
8DF1
330
8DBF
100
AcDbEntity
  8
0Wymiary-PL
 62
     1
370
    -2
100
AcDbLine
 10
-3671.63865491097
 20
-3219.257263830022
 30
0.0
 11
-1848.638654910967
 21
-3219.257263830022
 31
0.0
  0
INSERT
  5
8DF2
330
8DBF
100
AcDbEntity
  8
0Wymiary-PL
 62
     1
370
    -2
100
AcDbBlockReference
  2
B-DIM
 10
-3701.63865491097
 20
-3219.257263830022
 30
0.0
 41
30.0
 42
30.0
 43
30.0
 50
180.0
  0
INSERT
  5
8DF3
330
8DBF
100
AcDbEntity
  8
0Wymiary-PL
 62
     1
370
    -2
100
AcDbBlockReference
  2
B-DIM
 10
-1818.638654910967
 20
-3219.257263830022
 30
0.0
 41
30.0
 42
30.0
 43
30.0
  0
MTEXT
  5
8DF4
330
8DBF
100
AcDbEntity
  8
0Wymiary-PL
 62
    10
100
AcDbMText
 10
-2760.138654910968
 20
-3139.257263830022
 30
0.0
 40
80.0
 41
0.0
 71
     5
 72
     1
  1
\A1;1883
  7
RomanS
 73
     1
 44
1.0
1001
ACAD
1000
MTEXTBEGIN
1070
    73
1070
     1
1070
    44
1040
1.0
1070
    74
1070
     0
1000
MTEXTEND
  0
POINT
  5
8DF5
330
8DBF
100
AcDbEntity
  8
Defpoints
 62
     0
100
AcDbPoint
 10
-3701.63865491097
 20
-4074.132091488047
 30
0.0
  0
POINT
  5
8DF6
330
8DBF
100
AcDbEntity
  8
Defpoints
 62
     0
100
AcDbPoint
 10
-1818.638654910967
 20
-4024.132091488047
 30
0.0
  0
POINT
  5
8DF7
330
8DBF
100
AcDbEntity
  8
Defpoints
 62
     0
100
AcDbPoint
 10
-1818.638654910967
 20
-3219.257263830022
 30
0.0
  0
ENDBLK
  5
8DC1
330
8DBF
100
AcDbEntity
  8
0
100
AcDbBlockEnd
  0
BLOCK
  5
8DCA
330
8DC9
100
AcDbEntity
  8
0
100
AcDbBlockBegin
  2
*D20
 70
     1
 10
0.0
 20
0.0
 30
0.0
  3
*D20
  1

  0
LINE
  5
8E18
330
8DC9
100
AcDbEntity
  8
0Wymiary-PL
 62
     1
370
    -2
100
AcDbLine
 10
-4228.798916874026
 20
-5729.132091488047
 30
0.0
 11
-4228.798916874026
 21
-4054.132091488046
 31
0.0
  0
INSERT
  5
8E19
330
8DC9
100
AcDbEntity
  8
0Wymiary-PL
 62
     1
370
    -2
100
AcDbBlockReference
  2
B-DIM
 10
-4228.798916874026
 20
-5759.132091488047
 30
0.0
 41
30.0
 42
30.0
 43
30.0
 50
270.0
  0
INSERT
  5
8E1A
330
8DC9
100
AcDbEntity
  8
0Wymiary-PL
 62
     1
370
    -2
100
AcDbBlockReference
  2
B-DIM
 10
-4228.798916874026
 20
-4024.132091488046
 30
0.0
 41
30.0
 42
30.0
 43
30.0
 50
90.0
  0
MTEXT
  5
8E1B
330
8DC9
100
AcDbEntity
  8
0Wymiary-PL
 62
    10
100
AcDbMText
 10
-4308.798916874025
 20
-4891.632091488047
 30
0.0
 40
80.0
 41
0.0
 71
     5
 72
     1
  1
\A1;1735
  7
RomanS
 11
0.0000000000000001
 21
1.0
 31
0.0
 73
     1
 44
1.0
1001
ACAD
1000
MTEXTBEGIN
1070
    73
1070
     1
1070
    44
1040
1.0
1070
    74
1070
     0
1000
MTEXTEND
  0
POINT
  5
8E1C
330
8DC9
100
AcDbEntity
  8
Defpoints
 62
     0
100
AcDbPoint
 10
-2486.638654910967
 20
-5759.132091488047
 30
0.0
  0
POINT
  5
8E1D
330
8DC9
100
AcDbEntity
  8
Defpoints
 62
     0
100
AcDbPoint
 10
-2486.638654910967
 20
-4024.132091488047
 30
0.0
  0
POINT
  5
8E1E
330
8DC9
100
AcDbEntity
  8
Defpoints
 62
     0
100
AcDbPoint
 10
-4228.798916874026
 20
-4024.132091488046
 30
0.0
  0
ENDBLK
  5
8DCB
330
8DC9
100
AcDbEntity
  8
0
100
AcDbBlockEnd
  0
BLOCK
  5
8DD4
330
8DD3
100
AcDbEntity
  8
0
100
AcDbBlockBegin
  2
*D21
 70
     1
 10
0.0
 20
0.0
 30
0.0
  3
*D21
  1

  0
LINE
  5
8DD6
330
8DD3
100
AcDbEntity
  8
0Wymiary-PL
 62
     1
370
    -2
100
AcDbLine
 10
-1848.638654910967
 20
-3502.174664763578
 30
0.0
 11
-2456.638654910967
 21
-3502.174664763578
 31
0.0
  0
INSERT
  5
8DD7
330
8DD3
100
AcDbEntity
  8
0Wymiary-PL
 62
     1
370
    -2
100
AcDbBlockReference
  2
B-DIM
 10
-1818.638654910967
 20
-3502.174664763578
 30
0.0
 41
30.0
 42
30.0
 43
30.0
  0
INSERT
  5
8DD8
330
8DD3
100
AcDbEntity
  8
0Wymiary-PL
 62
     1
370
    -2
100
AcDbBlockReference
  2
B-DIM
 10
-2486.638654910967
 20
-3502.174664763578
 30
0.0
 41
30.0
 42
30.0
 43
30.0
 50
180.0
  0
MTEXT
  5
8DD9
330
8DD3
100
AcDbEntity
  8
0Wymiary-PL
 62
    10
100
AcDbMText
 10
-2152.638654910967
 20
-3422.174664763577
 30
0.0
 40
80.0
 41
0.0
 71
     5
 72
     1
  1
\A1;668
  7
RomanS
 73
     1
 44
1.0
1001
ACAD
1000
MTEXTBEGIN
1070
    73
1070
     1
1070
    44
1040
1.0
1070
    74
1070
     0
1000
MTEXTEND
  0
POINT
  5
8DDA
330
8DD3
100
AcDbEntity
  8
Defpoints
 62
     0
100
AcDbPoint
 10
-1818.638654910967
 20
-4024.132091488047
 30
0.0
  0
POINT
  5
8DDB
330
8DD3
100
AcDbEntity
  8
Defpoints
 62
     0
100
AcDbPoint
 10
-2486.638654910967
 20
-4024.132091488047
 30
0.0
  0
POINT
  5
8DDC
330
8DD3
100
AcDbEntity
  8
Defpoints
 62
     0
100
AcDbPoint
 10
-2486.638654910967
 20
-3502.174664763578
 30
0.0
  0
ENDBLK
  5
8DD5
330
8DD3
100
AcDbEntity
  8
0
100
AcDbBlockEnd
  0
BLOCK
  5
8DDE
330
8DDD
100
AcDbEntity
  8
0
100
AcDbBlockBegin
  2
*D22
 70
     1
 10
0.0
 20
0.0
 30
0.0
  3
*D22
  1

  0
LINE
  5
8DE0
330
8DDD
100
AcDbEntity
  8
0Wymiary-PL
 62
     1
370
    -2
100
AcDbLine
 10
-2516.638654910967
 20
-3502.174664763578
 30
0.0
 11
-3003.638654910969
 21
-3502.174664763578
 31
0.0
  0
INSERT
  5
8DE1
330
8DDD
100
AcDbEntity
  8
0Wymiary-PL
 62
     1
370
    -2
100
AcDbBlockReference
  2
B-DIM
 10
-2486.638654910967
 20
-3502.174664763578
 30
0.0
 41
30.0
 42
30.0
 43
30.0
  0
INSERT
  5
8DE2
330
8DDD
100
AcDbEntity
  8
0Wymiary-PL
 62
     1
370
    -2
100
AcDbBlockReference
  2
B-DIM
 10
-3033.63865491097
 20
-3502.174664763578
 30
0.0
 41
30.0
 42
30.0
 43
30.0
 50
180.0
  0
MTEXT
  5
8DE3
330
8DDD
100
AcDbEntity
  8
0Wymiary-PL
 62
    10
100
AcDbMText
 10
-2760.138654910968
 20
-3422.174664763577
 30
0.0
 40
80.0
 41
0.0
 71
     5
 72
     1
  1
\A1;547
  7
RomanS
 73
     1
 44
1.0
1001
ACAD
1000
MTEXTBEGIN
1070
    73
1070
     1
1070
    44
1040
1.0
1070
    74
1070
     0
1000
MTEXTEND
  0
POINT
  5
8DE4
330
8DDD
100
AcDbEntity
  8
Defpoints
 62
     0
100
AcDbPoint
 10
-2486.638654910967
 20
-4024.132091488047
 30
0.0
  0
POINT
  5
8DE5
330
8DDD
100
AcDbEntity
  8
Defpoints
 62
     0
100
AcDbPoint
 10
-3033.63865491097
 20
-4074.132091488047
 30
0.0
  0
POINT
  5
8DE6
330
8DDD
100
AcDbEntity
  8
Defpoints
 62
     0
100
AcDbPoint
 10
-3033.63865491097
 20
-3502.174664763578
 30
0.0
  0
ENDBLK
  5
8DDF
330
8DDD
100
AcDbEntity
  8
0
100
AcDbBlockEnd
  0
BLOCK
  5
8DE8
330
8DE7
100
AcDbEntity
  8
0
100
AcDbBlockBegin
  2
*D23
 70
     1
 10
0.0
 20
0.0
 30
0.0
  3
*D23
  1

  0
LINE
  5
8DEA
330
8DE7
100
AcDbEntity
  8
0Wymiary-PL
 62
     1
370
    -2
100
AcDbLine
 10
-3063.638654910969
 20
-3502.174664763578
 30
0.0
 11
-3671.638654910969
 21
-3502.174664763578
 31
0.0
  0
INSERT
  5
8DEB
330
8DE7
100
AcDbEntity
  8
0Wymiary-PL
 62
     1
370
    -2
100
AcDbBlockReference
  2
B-DIM
 10
-3033.638654910968
 20
-3502.174664763578
 30
0.0
 41
30.0
 42
30.0
 43
30.0
  0
INSERT
  5
8DEC
330
8DE7
100
AcDbEntity
  8
0Wymiary-PL
 62
     1
370
    -2
100
AcDbBlockReference
  2
B-DIM
 10
-3701.638654910968
 20
-3502.174664763578
 30
0.0
 41
30.0
 42
30.0
 43
30.0
 50
180.0
  0
MTEXT
  5
8DED
330
8DE7
100
AcDbEntity
  8
0Wymiary-PL
 62
    10
100
AcDbMText
 10
-3367.638654910969
 20
-3422.174664763577
 30
0.0
 40
80.0
 41
0.0
 71
     5
 72
     1
  1
\A1;668
  7
RomanS
 73
     1
 44
1.0
1001
ACAD
1000
MTEXTBEGIN
1070
    73
1070
     1
1070
    44
1040
1.0
1070
    74
1070
     0
1000
MTEXTEND
  0
POINT
  5
8DEE
330
8DE7
100
AcDbEntity
  8
Defpoints
 62
     0
100
AcDbPoint
 10
-3033.638654910968
 20
-4074.132091488047
 30
0.0
  0
POINT
  5
8DEF
330
8DE7
100
AcDbEntity
  8
Defpoints
 62
     0
100
AcDbPoint
 10
-3701.638654910968
 20
-4074.132091488047
 30
0.0
  0
POINT
  5
8DF0
330
8DE7
100
AcDbEntity
  8
Defpoints
 62
     0
100
AcDbPoint
 10
-3701.638654910968
 20
-3502.174664763578
 30
0.0
  0
ENDBLK
  5
8DE9
330
8DE7
100
AcDbEntity
  8
0
100
AcDbBlockEnd
  0
BLOCK
  5
8DF9
330
8DF8
100
AcDbEntity
  8
0
100
AcDbBlockBegin
  2
*D24
 70
     1
 10
0.0
 20
0.0
 30
0.0
  3
*D24
  1

  0
LINE
  5
8DFB
330
8DF8
100
AcDbEntity
  8
0Wymiary-PL
 62
     1
370
    -2
100
AcDbLine
 10
-3975.194923241691
 20
-3994.132091488046
 30
0.0
 11
-3975.194923241691
 21
-3964.132091488046
 31
0.0
  0
LINE
  5
8DFC
330
8DF8
100
AcDbEntity
  8
0Wymiary-PL
 62
     1
370
    -2
100
AcDbLine
 10
-3975.194923241691
 20
-4104.132091488046
 30
0.0
 11
-3975.194923241691
 21
-4134.132091488046
 31
0.0
  0
LINE
  5
8DFD
330
8DF8
100
AcDbEntity
  8
0Wymiary-PL
 62
     1
370
    -2
100
AcDbLine
 10
-3975.194923241691
 20
-4024.132091488046
 30
0.0
 11
-3975.194923241691
 21
-4074.132091488047
 31
0.0
  0
INSERT
  5
8DFE
330
8DF8
100
AcDbEntity
  8
0Wymiary-PL
 62
     1
370
    -2
100
AcDbBlockReference
  2
B-DIM
 10
-3975.194923241691
 20
-4024.132091488046
 30
0.0
 41
30.0
 42
30.0
 43
30.0
 50
270.0
  0
INSERT
  5
8DFF
330
8DF8
100
AcDbEntity
  8
0Wymiary-PL
 62
     1
370
    -2
100
AcDbBlockReference
  2
B-DIM
 10
-3975.194923241691
 20
-4074.132091488047
 30
0.0
 41
30.0
 42
30.0
 43
30.0
 50
90.0
  0
MTEXT
  5
8E00
330
8DF8
100
AcDbEntity
  8
0Wymiary-PL
 62
    10
100
AcDbMText
 10
-4055.194923241691
 20
-4049.132091488046
 30
0.0
 40
80.0
 41
0.0
 71
     5
 72
     1
  1
\A1;50
  7
RomanS
 11
0.0000000000000001
 21
1.0
 31
0.0
 73
     1
 44
1.0
1001
ACAD
1000
MTEXTBEGIN
1070
    73
1070
     1
1070
    44
1040
1.0
1070
    74
1070
     0
1000
MTEXTEND
  0
POINT
  5
8E01
330
8DF8
100
AcDbEntity
  8
Defpoints
 62
     0
100
AcDbPoint
 10
-2486.638654910967
 20
-4024.132091488047
 30
0.0
  0
POINT
  5
8E02
330
8DF8
100
AcDbEntity
  8
Defpoints
 62
     0
100
AcDbPoint
 10
-3367.638654910969
 20
-4074.132091488047
 30
0.0
  0
POINT
  5
8E03
330
8DF8
100
AcDbEntity
  8
Defpoints
 62
     0
100
AcDbPoint
 10
-3975.194923241691
 20
-4074.132091488047
 30
0.0
  0
ENDBLK
  5
8DFA
330
8DF8
100
AcDbEntity
  8
0
100
AcDbBlockEnd
  0
BLOCK
  5
8E05
330
8E04
100
AcDbEntity
  8
0
100
AcDbBlockBegin
  2
*D25
 70
     1
 10
0.0
 20
0.0
 30
0.0
  3
*D25
  1

  0
LINE
  5
8E07
330
8E04
100
AcDbEntity
  8
0Wymiary-PL
 62
     1
370
    -2
100
AcDbLine
 10
-3975.194923241691
 20
-4104.132091488046
 30
0.0
 11
-3975.194923241691
 21
-5414.132091488047
 31
0.0
  0
INSERT
  5
8E08
330
8E04
100
AcDbEntity
  8
0Wymiary-PL
 62
     1
370
    -2
100
AcDbBlockReference
  2
B-DIM
 10
-3975.194923241691
 20
-4074.132091488047
 30
0.0
 41
30.0
 42
30.0
 43
30.0
 50
90.0
  0
INSERT
  5
8E09
330
8E04
100
AcDbEntity
  8
0Wymiary-PL
 62
     1
370
    -2
100
AcDbBlockReference
  2
B-DIM
 10
-3975.194923241691
 20
-5444.132091488047
 30
0.0
 41
30.0
 42
30.0
 43
30.0
 50
270.0
  0
MTEXT
  5
8E0A
330
8E04
100
AcDbEntity
  8
0Wymiary-PL
 62
    10
100
AcDbMText
 10
-4055.19492324169
 20
-4759.132091488047
 30
0.0
 40
80.0
 41
0.0
 71
     5
 72
     1
  1
\A1;1370
  7
RomanS
 11
0.0000000000000001
 21
1.0
 31
0.0
 73
     1
 44
1.0
1001
ACAD
1000
MTEXTBEGIN
1070
    73
1070
     1
1070
    44
1040
1.0
1070
    74
1070
     0
1000
MTEXTEND
  0
POINT
  5
8E0B
330
8E04
100
AcDbEntity
  8
Defpoints
 62
     0
100
AcDbPoint
 10
-3367.638654910969
 20
-4074.132091488047
 30
0.0
  0
POINT
  5
8E0C
330
8E04
100
AcDbEntity
  8
Defpoints
 62
     0
100
AcDbPoint
 10
-3701.638654910968
 20
-5444.132091488047
 30
0.0
  0
POINT
  5
8E0D
330
8E04
100
AcDbEntity
  8
Defpoints
 62
     0
100
AcDbPoint
 10
-3975.194923241691
 20
-5444.132091488047
 30
0.0
  0
ENDBLK
  5
8E06
330
8E04
100
AcDbEntity
  8
0
100
AcDbBlockEnd
  0
BLOCK
  5
8E0F
330
8E0E
100
AcDbEntity
  8
0
100
AcDbBlockBegin
  2
*D26
 70
     1
 10
0.0
 20
0.0
 30
0.0
  3
*D26
  1

  0
LINE
  5
8E11
330
8E0E
100
AcDbEntity
  8
0Wymiary-PL
 62
     1
370
    -2
100
AcDbLine
 10
-3975.194923241691
 20
-5474.132091488048
 30
0.0
 11
-3975.194923241691
 21
-5729.132091488047
 31
0.0
  0
INSERT
  5
8E12
330
8E0E
100
AcDbEntity
  8
0Wymiary-PL
 62
     1
370
    -2
100
AcDbBlockReference
  2
B-DIM
 10
-3975.194923241691
 20
-5444.132091488047
 30
0.0
 41
30.0
 42
30.0
 43
30.0
 50
90.0
  0
INSERT
  5
8E13
330
8E0E
100
AcDbEntity
  8
0Wymiary-PL
 62
     1
370
    -2
100
AcDbBlockReference
  2
B-DIM
 10
-3975.194923241691
 20
-5759.132091488047
 30
0.0
 41
30.0
 42
30.0
 43
30.0
 50
270.0
  0
MTEXT
  5
8E14
330
8E0E
100
AcDbEntity
  8
0Wymiary-PL
 62
    10
100
AcDbMText
 10
-4055.19492324169
 20
-5601.632091488048
 30
0.0
 40
80.0
 41
0.0
 71
     5
 72
     1
  1
\A1;315
  7
RomanS
 11
0.0000000000000001
 21
1.0
 31
0.0
 73
     1
 44
1.0
1001
ACAD
1000
MTEXTBEGIN
1070
    73
1070
     1
1070
    44
1040
1.0
1070
    74
1070
     0
1000
MTEXTEND
  0
POINT
  5
8E15
330
8E0E
100
AcDbEntity
  8
Defpoints
 62
     0
100
AcDbPoint
 10
-3701.638654910968
 20
-5444.132091488047
 30
0.0
  0
POINT
  5
8E16
330
8E0E
100
AcDbEntity
  8
Defpoints
 62
     0
100
AcDbPoint
 10
-2486.638654910967
 20
-5759.132091488047
 30
0.0
  0
POINT
  5
8E17
330
8E0E
100
AcDbEntity
  8
Defpoints
 62
     0
100
AcDbPoint
 10
-3975.194923241691
 20
-5759.132091488047
 30
0.0
  0
ENDBLK
  5
8E10
330
8E0E
100
AcDbEntity
  8
0
100
AcDbBlockEnd
  0
BLOCK
  5
8EEF
330
8EEE
100
AcDbEntity
  8
0
100
AcDbBlockBegin
  2
*D27
 70
     1
 10
0.0
 20
0.0
 30
0.0
  3
*D27
  1

  0
LINE
  5
8F20
330
8EEE
100
AcDbEntity
  8
0Wymiary-PL
 62
     1
370
    -2
100
AcDbLine
 10
-3671.63865491097
 20
-3219.257263830022
 30
0.0
 11
-1848.638654910967
 21
-3219.257263830022
 31
0.0
  0
INSERT
  5
8F21
330
8EEE
100
AcDbEntity
  8
0Wymiary-PL
 62
     1
370
    -2
100
AcDbBlockReference
  2
B-DIM
 10
-3701.63865491097
 20
-3219.257263830022
 30
0.0
 41
30.0
 42
30.0
 43
30.0
 50
180.0
  0
INSERT
  5
8F22
330
8EEE
100
AcDbEntity
  8
0Wymiary-PL
 62
     1
370
    -2
100
AcDbBlockReference
  2
B-DIM
 10
-1818.638654910967
 20
-3219.257263830022
 30
0.0
 41
30.0
 42
30.0
 43
30.0
  0
MTEXT
  5
8F23
330
8EEE
100
AcDbEntity
  8
0Wymiary-PL
 62
    10
100
AcDbMText
 10
-2760.138654910968
 20
-3139.257263830022
 30
0.0
 40
80.0
 41
0.0
 71
     5
 72
     1
  1
\A1;1883
  7
RomanS
 73
     1
 44
1.0
1001
ACAD
1000
MTEXTBEGIN
1070
    73
1070
     1
1070
    44
1040
1.0
1070
    74
1070
     0
1000
MTEXTEND
  0
POINT
  5
8F24
330
8EEE
100
AcDbEntity
  8
Defpoints
 62
     0
100
AcDbPoint
 10
-3701.63865491097
 20
-4074.132091488047
 30
0.0
  0
POINT
  5
8F25
330
8EEE
100
AcDbEntity
  8
Defpoints
 62
     0
100
AcDbPoint
 10
-1818.638654910967
 20
-4024.132091488047
 30
0.0
  0
POINT
  5
8F26
330
8EEE
100
AcDbEntity
  8
Defpoints
 62
     0
100
AcDbPoint
 10
-1818.638654910967
 20
-3219.257263830022
 30
0.0
  0
ENDBLK
  5
8EF0
330
8EEE
100
AcDbEntity
  8
0
100
AcDbBlockEnd
  0
BLOCK
  5
8EF9
330
8EF8
100
AcDbEntity
  8
0
100
AcDbBlockBegin
  2
*D28
 70
     1
 10
0.0
 20
0.0
 30
0.0
  3
*D28
  1

  0
LINE
  5
8F47
330
8EF8
100
AcDbEntity
  8
0Wymiary-PL
 62
     1
370
    -2
100
AcDbLine
 10
-4228.798916874026
 20
-5729.132091488047
 30
0.0
 11
-4228.798916874026
 21
-4054.132091488046
 31
0.0
  0
INSERT
  5
8F48
330
8EF8
100
AcDbEntity
  8
0Wymiary-PL
 62
     1
370
    -2
100
AcDbBlockReference
  2
B-DIM
 10
-4228.798916874026
 20
-5759.132091488047
 30
0.0
 41
30.0
 42
30.0
 43
30.0
 50
270.0
  0
INSERT
  5
8F49
330
8EF8
100
AcDbEntity
  8
0Wymiary-PL
 62
     1
370
    -2
100
AcDbBlockReference
  2
B-DIM
 10
-4228.798916874026
 20
-4024.132091488046
 30
0.0
 41
30.0
 42
30.0
 43
30.0
 50
90.0
  0
MTEXT
  5
8F4A
330
8EF8
100
AcDbEntity
  8
0Wymiary-PL
 62
    10
100
AcDbMText
 10
-4308.798916874025
 20
-4891.632091488047
 30
0.0
 40
80.0
 41
0.0
 71
     5
 72
     1
  1
\A1;1735
  7
RomanS
 11
0.0000000000000001
 21
1.0
 31
0.0
 73
     1
 44
1.0
1001
ACAD
1000
MTEXTBEGIN
1070
    73
1070
     1
1070
    44
1040
1.0
1070
    74
1070
     0
1000
MTEXTEND
  0
POINT
  5
8F4B
330
8EF8
100
AcDbEntity
  8
Defpoints
 62
     0
100
AcDbPoint
 10
-2486.638654910967
 20
-5759.132091488047
 30
0.0
  0
POINT
  5
8F4C
330
8EF8
100
AcDbEntity
  8
Defpoints
 62
     0
100
AcDbPoint
 10
-2486.638654910967
 20
-4024.132091488047
 30
0.0
  0
POINT
  5
8F4D
330
8EF8
100
AcDbEntity
  8
Defpoints
 62
     0
100
AcDbPoint
 10
-4228.798916874026
 20
-4024.132091488046
 30
0.0
  0
ENDBLK
  5
8EFA
330
8EF8
100
AcDbEntity
  8
0
100
AcDbBlockEnd
  0
BLOCK
  5
8F03
330
8F02
100
AcDbEntity
  8
0
100
AcDbBlockBegin
  2
*D29
 70
     1
 10
0.0
 20
0.0
 30
0.0
  3
*D29
  1

  0
LINE
  5
8F05
330
8F02
100
AcDbEntity
  8
0Wymiary-PL
 62
     1
370
    -2
100
AcDbLine
 10
-1848.638654910967
 20
-3502.174664763578
 30
0.0
 11
-2456.638654910967
 21
-3502.174664763578
 31
0.0
  0
INSERT
  5
8F06
330
8F02
100
AcDbEntity
  8
0Wymiary-PL
 62
     1
370
    -2
100
AcDbBlockReference
  2
B-DIM
 10
-1818.638654910967
 20
-3502.174664763578
 30
0.0
 41
30.0
 42
30.0
 43
30.0
  0
INSERT
  5
8F07
330
8F02
100
AcDbEntity
  8
0Wymiary-PL
 62
     1
370
    -2
100
AcDbBlockReference
  2
B-DIM
 10
-2486.638654910967
 20
-3502.174664763578
 30
0.0
 41
30.0
 42
30.0
 43
30.0
 50
180.0
  0
MTEXT
  5
8F08
330
8F02
100
AcDbEntity
  8
0Wymiary-PL
 62
    10
100
AcDbMText
 10
-2152.638654910967
 20
-3422.174664763577
 30
0.0
 40
80.0
 41
0.0
 71
     5
 72
     1
  1
\A1;668
  7
RomanS
 73
     1
 44
1.0
1001
ACAD
1000
MTEXTBEGIN
1070
    73
1070
     1
1070
    44
1040
1.0
1070
    74
1070
     0
1000
MTEXTEND
  0
POINT
  5
8F09
330
8F02
100
AcDbEntity
  8
Defpoints
 62
     0
100
AcDbPoint
 10
-1818.638654910967
 20
-4024.132091488047
 30
0.0
  0
POINT
  5
8F0A
330
8F02
100
AcDbEntity
  8
Defpoints
 62
     0
100
AcDbPoint
 10
-2486.638654910967
 20
-4024.132091488047
 30
0.0
  0
POINT
  5
8F0B
330
8F02
100
AcDbEntity
  8
Defpoints
 62
     0
100
AcDbPoint
 10
-2486.638654910967
 20
-3502.174664763578
 30
0.0
  0
ENDBLK
  5
8F04
330
8F02
100
AcDbEntity
  8
0
100
AcDbBlockEnd
  0
BLOCK
  5
8F0D
330
8F0C
100
AcDbEntity
  8
0
100
AcDbBlockBegin
  2
*D30
 70
     1
 10
0.0
 20
0.0
 30
0.0
  3
*D30
  1

  0
LINE
  5
8F0F
330
8F0C
100
AcDbEntity
  8
0Wymiary-PL
 62
     1
370
    -2
100
AcDbLine
 10
-2516.638654910967
 20
-3502.174664763578
 30
0.0
 11
-3003.638654910969
 21
-3502.174664763578
 31
0.0
  0
INSERT
  5
8F10
330
8F0C
100
AcDbEntity
  8
0Wymiary-PL
 62
     1
370
    -2
100
AcDbBlockReference
  2
B-DIM
 10
-2486.638654910967
 20
-3502.174664763578
 30
0.0
 41
30.0
 42
30.0
 43
30.0
  0
INSERT
  5
8F11
330
8F0C
100
AcDbEntity
  8
0Wymiary-PL
 62
     1
370
    -2
100
AcDbBlockReference
  2
B-DIM
 10
-3033.63865491097
 20
-3502.174664763578
 30
0.0
 41
30.0
 42
30.0
 43
30.0
 50
180.0
  0
MTEXT
  5
8F12
330
8F0C
100
AcDbEntity
  8
0Wymiary-PL
 62
    10
100
AcDbMText
 10
-2760.138654910968
 20
-3422.174664763577
 30
0.0
 40
80.0
 41
0.0
 71
     5
 72
     1
  1
\A1;547
  7
RomanS
 73
     1
 44
1.0
1001
ACAD
1000
MTEXTBEGIN
1070
    73
1070
     1
1070
    44
1040
1.0
1070
    74
1070
     0
1000
MTEXTEND
  0
POINT
  5
8F13
330
8F0C
100
AcDbEntity
  8
Defpoints
 62
     0
100
AcDbPoint
 10
-2486.638654910967
 20
-4024.132091488047
 30
0.0
  0
POINT
  5
8F14
330
8F0C
100
AcDbEntity
  8
Defpoints
 62
     0
100
AcDbPoint
 10
-3033.63865491097
 20
-4074.132091488047
 30
0.0
  0
POINT
  5
8F15
330
8F0C
100
AcDbEntity
  8
Defpoints
 62
     0
100
AcDbPoint
 10
-3033.63865491097
 20
-3502.174664763578
 30
0.0
  0
ENDBLK
  5
8F0E
330
8F0C
100
AcDbEntity
  8
0
100
AcDbBlockEnd
  0
BLOCK
  5
8F17
330
8F16
100
AcDbEntity
  8
0
100
AcDbBlockBegin
  2
*D31
 70
     1
 10
0.0
 20
0.0
 30
0.0
  3
*D31
  1

  0
LINE
  5
8F19
330
8F16
100
AcDbEntity
  8
0Wymiary-PL
 62
     1
370
    -2
100
AcDbLine
 10
-3063.638654910969
 20
-3502.174664763578
 30
0.0
 11
-3671.638654910969
 21
-3502.174664763578
 31
0.0
  0
INSERT
  5
8F1A
330
8F16
100
AcDbEntity
  8
0Wymiary-PL
 62
     1
370
    -2
100
AcDbBlockReference
  2
B-DIM
 10
-3033.638654910968
 20
-3502.174664763578
 30
0.0
 41
30.0
 42
30.0
 43
30.0
  0
INSERT
  5
8F1B
330
8F16
100
AcDbEntity
  8
0Wymiary-PL
 62
     1
370
    -2
100
AcDbBlockReference
  2
B-DIM
 10
-3701.638654910968
 20
-3502.174664763578
 30
0.0
 41
30.0
 42
30.0
 43
30.0
 50
180.0
  0
MTEXT
  5
8F1C
330
8F16
100
AcDbEntity
  8
0Wymiary-PL
 62
    10
100
AcDbMText
 10
-3367.638654910969
 20
-3422.174664763577
 30
0.0
 40
80.0
 41
0.0
 71
     5
 72
     1
  1
\A1;668
  7
RomanS
 73
     1
 44
1.0
1001
ACAD
1000
MTEXTBEGIN
1070
    73
1070
     1
1070
    44
1040
1.0
1070
    74
1070
     0
1000
MTEXTEND
  0
POINT
  5
8F1D
330
8F16
100
AcDbEntity
  8
Defpoints
 62
     0
100
AcDbPoint
 10
-3033.638654910968
 20
-4074.132091488047
 30
0.0
  0
POINT
  5
8F1E
330
8F16
100
AcDbEntity
  8
Defpoints
 62
     0
100
AcDbPoint
 10
-3701.638654910968
 20
-4074.132091488047
 30
0.0
  0
POINT
  5
8F1F
330
8F16
100
AcDbEntity
  8
Defpoints
 62
     0
100
AcDbPoint
 10
-3701.638654910968
 20
-3502.174664763578
 30
0.0
  0
ENDBLK
  5
8F18
330
8F16
100
AcDbEntity
  8
0
100
AcDbBlockEnd
  0
BLOCK
  5
8F28
330
8F27
100
AcDbEntity
  8
0
100
AcDbBlockBegin
  2
*D32
 70
     1
 10
0.0
 20
0.0
 30
0.0
  3
*D32
  1

  0
LINE
  5
8F2A
330
8F27
100
AcDbEntity
  8
0Wymiary-PL
 62
     1
370
    -2
100
AcDbLine
 10
-3975.194923241691
 20
-3994.132091488046
 30
0.0
 11
-3975.194923241691
 21
-3964.132091488046
 31
0.0
  0
LINE
  5
8F2B
330
8F27
100
AcDbEntity
  8
0Wymiary-PL
 62
     1
370
    -2
100
AcDbLine
 10
-3975.194923241691
 20
-4104.132091488046
 30
0.0
 11
-3975.194923241691
 21
-4134.132091488046
 31
0.0
  0
LINE
  5
8F2C
330
8F27
100
AcDbEntity
  8
0Wymiary-PL
 62
     1
370
    -2
100
AcDbLine
 10
-3975.194923241691
 20
-4024.132091488046
 30
0.0
 11
-3975.194923241691
 21
-4074.132091488047
 31
0.0
  0
INSERT
  5
8F2D
330
8F27
100
AcDbEntity
  8
0Wymiary-PL
 62
     1
370
    -2
100
AcDbBlockReference
  2
B-DIM
 10
-3975.194923241691
 20
-4024.132091488046
 30
0.0
 41
30.0
 42
30.0
 43
30.0
 50
270.0
  0
INSERT
  5
8F2E
330
8F27
100
AcDbEntity
  8
0Wymiary-PL
 62
     1
370
    -2
100
AcDbBlockReference
  2
B-DIM
 10
-3975.194923241691
 20
-4074.132091488047
 30
0.0
 41
30.0
 42
30.0
 43
30.0
 50
90.0
  0
MTEXT
  5
8F2F
330
8F27
100
AcDbEntity
  8
0Wymiary-PL
 62
    10
100
AcDbMText
 10
-4055.194923241691
 20
-4049.132091488046
 30
0.0
 40
80.0
 41
0.0
 71
     5
 72
     1
  1
\A1;50
  7
RomanS
 11
0.0000000000000001
 21
1.0
 31
0.0
 73
     1
 44
1.0
1001
ACAD
1000
MTEXTBEGIN
1070
    73
1070
     1
1070
    44
1040
1.0
1070
    74
1070
     0
1000
MTEXTEND
  0
POINT
  5
8F30
330
8F27
100
AcDbEntity
  8
Defpoints
 62
     0
100
AcDbPoint
 10
-2486.638654910967
 20
-4024.132091488047
 30
0.0
  0
POINT
  5
8F31
330
8F27
100
AcDbEntity
  8
Defpoints
 62
     0
100
AcDbPoint
 10
-3367.638654910969
 20
-4074.132091488047
 30
0.0
  0
POINT
  5
8F32
330
8F27
100
AcDbEntity
  8
Defpoints
 62
     0
100
AcDbPoint
 10
-3975.194923241691
 20
-4074.132091488047
 30
0.0
  0
ENDBLK
  5
8F29
330
8F27
100
AcDbEntity
  8
0
100
AcDbBlockEnd
  0
BLOCK
  5
8F34
330
8F33
100
AcDbEntity
  8
0
100
AcDbBlockBegin
  2
*D33
 70
     1
 10
0.0
 20
0.0
 30
0.0
  3
*D33
  1

  0
LINE
  5
8F36
330
8F33
100
AcDbEntity
  8
0Wymiary-PL
 62
     1
370
    -2
100
AcDbLine
 10
-3975.194923241691
 20
-4104.132091488046
 30
0.0
 11
-3975.194923241691
 21
-5414.132091488047
 31
0.0
  0
INSERT
  5
8F37
330
8F33
100
AcDbEntity
  8
0Wymiary-PL
 62
     1
370
    -2
100
AcDbBlockReference
  2
B-DIM
 10
-3975.194923241691
 20
-4074.132091488047
 30
0.0
 41
30.0
 42
30.0
 43
30.0
 50
90.0
  0
INSERT
  5
8F38
330
8F33
100
AcDbEntity
  8
0Wymiary-PL
 62
     1
370
    -2
100
AcDbBlockReference
  2
B-DIM
 10
-3975.194923241691
 20
-5444.132091488047
 30
0.0
 41
30.0
 42
30.0
 43
30.0
 50
270.0
  0
MTEXT
  5
8F39
330
8F33
100
AcDbEntity
  8
0Wymiary-PL
 62
    10
100
AcDbMText
 10
-4055.19492324169
 20
-4759.132091488047
 30
0.0
 40
80.0
 41
0.0
 71
     5
 72
     1
  1
\A1;1370
  7
RomanS
 11
0.0000000000000001
 21
1.0
 31
0.0
 73
     1
 44
1.0
1001
ACAD
1000
MTEXTBEGIN
1070
    73
1070
     1
1070
    44
1040
1.0
1070
    74
1070
     0
1000
MTEXTEND
  0
POINT
  5
8F3A
330
8F33
100
AcDbEntity
  8
Defpoints
 62
     0
100
AcDbPoint
 10
-3367.638654910969
 20
-4074.132091488047
 30
0.0
  0
POINT
  5
8F3B
330
8F33
100
AcDbEntity
  8
Defpoints
 62
     0
100
AcDbPoint
 10
-3701.638654910968
 20
-5444.132091488047
 30
0.0
  0
POINT
  5
8F3C
330
8F33
100
AcDbEntity
  8
Defpoints
 62
     0
100
AcDbPoint
 10
-3975.194923241691
 20
-5444.132091488047
 30
0.0
  0
ENDBLK
  5
8F35
330
8F33
100
AcDbEntity
  8
0
100
AcDbBlockEnd
  0
BLOCK
  5
8F3E
330
8F3D
100
AcDbEntity
  8
0
100
AcDbBlockBegin
  2
*D34
 70
     1
 10
0.0
 20
0.0
 30
0.0
  3
*D34
  1

  0
LINE
  5
8F40
330
8F3D
100
AcDbEntity
  8
0Wymiary-PL
 62
     1
370
    -2
100
AcDbLine
 10
-3975.194923241691
 20
-5474.132091488048
 30
0.0
 11
-3975.194923241691
 21
-5729.132091488047
 31
0.0
  0
INSERT
  5
8F41
330
8F3D
100
AcDbEntity
  8
0Wymiary-PL
 62
     1
370
    -2
100
AcDbBlockReference
  2
B-DIM
 10
-3975.194923241691
 20
-5444.132091488047
 30
0.0
 41
30.0
 42
30.0
 43
30.0
 50
90.0
  0
INSERT
  5
8F42
330
8F3D
100
AcDbEntity
  8
0Wymiary-PL
 62
     1
370
    -2
100
AcDbBlockReference
  2
B-DIM
 10
-3975.194923241691
 20
-5759.132091488047
 30
0.0
 41
30.0
 42
30.0
 43
30.0
 50
270.0
  0
MTEXT
  5
8F43
330
8F3D
100
AcDbEntity
  8
0Wymiary-PL
 62
    10
100
AcDbMText
 10
-4055.19492324169
 20
-5601.632091488048
 30
0.0
 40
80.0
 41
0.0
 71
     5
 72
     1
  1
\A1;315
  7
RomanS
 11
0.0000000000000001
 21
1.0
 31
0.0
 73
     1
 44
1.0
1001
ACAD
1000
MTEXTBEGIN
1070
    73
1070
     1
1070
    44
1040
1.0
1070
    74
1070
     0
1000
MTEXTEND
  0
POINT
  5
8F44
330
8F3D
100
AcDbEntity
  8
Defpoints
 62
     0
100
AcDbPoint
 10
-3701.638654910968
 20
-5444.132091488047
 30
0.0
  0
POINT
  5
8F45
330
8F3D
100
AcDbEntity
  8
Defpoints
 62
     0
100
AcDbPoint
 10
-2486.638654910967
 20
-5759.132091488047
 30
0.0
  0
POINT
  5
8F46
330
8F3D
100
AcDbEntity
  8
Defpoints
 62
     0
100
AcDbPoint
 10
-3975.194923241691
 20
-5759.132091488047
 30
0.0
  0
ENDBLK
  5
8F3F
330
8F3D
100
AcDbEntity
  8
0
100
AcDbBlockEnd
  0
ENDSEC
  0
SECTION
  2
ENTITIES
  0
MTEXT
  5
3D74
330
1F
100
AcDbEntity
  8
A-SchedObject-G
  6
Continuous
 62
   191
370
    18
100
AcDbMText
 10
843.0914126846644
 20
-1939.057213941545
 30
0.0
 40
15.0
 41
64.5
 71
     4
 72
     5
  1

  7
RomanS
 73
     2
 44
1.0
1001
ACAD
1000
MTEXTBEGIN
1070
    73
1070
     2
1070
    44
1040
1.0
1070
    74
1070
     0
1000
MTEXTEND
  0
INSERT
  5
4046
330
1F
100
AcDbEntity
  8
0
100
AcDbBlockReference
  2
*U5
 10
0.0
 20
0.0
 30
0.0
1001
AEC_XDATA_BOUND_SPACE
1070
   100
1070
     1
  0
INSERT
  5
4047
330
1F
100
AcDbEntity
  8
0
100
AcDbBlockReference
  2
teren$0$teren
 10
-4715.438380794525
 20
-998.6124439928847
 30
0.0
1001
AEC_XDATA_BOUND_SPACE
1070
   100
1070
     1
  0
TEXT
  5
700C
330
1F
100
AcDbEntity
  8
NAPISY
100
AcDbText
 10
-9086.360371126918
 20
-13359.31081019025
 30
0.0
 40
150.0
  1
   O B R Y S   B U D Y N K U           S K A L A   1 : 5 0 0 
  7
ARIAL
100
AcDbText
  0
TEXT
  5
700E
330
1F
100
AcDbEntity
  8
NAPISY
100
AcDbText
 10
-8990.14732000902
 20
-895.9455493083877
 30
0.0
 40
150.0
  1
MOŻNA WKLEIĆ DO PROJEKTU ZAGOSPODAROWANIA TERENU
  7
ARIAL
100
AcDbText
  0
TEXT
  5
700F
330
1F
100
AcDbEntity
  8
NAPISY
100
AcDbText
 10
-9066.482590644161
 20
-566.0770719456268
 30
0.0
 40
150.0
  1
"DOM   W   NERTERACH"
  7
ARIAL
100
AcDbText
  0
LINE
  5
706E
330
1F
100
AcDbEntity
  8
NAPISY
  6
DASHED
 48
5.0
100
AcDbLine
 10
-5333.023127524189
 20
-8656.934977467718
 30
0.0
 11
-5333.023127524189
 21
-1834.720639818482
 31
0.0
  0
TEXT
  5
706F
330
1F
100
AcDbEntity
  8
NAPISY
100
AcDbText
 10
-5392.544304517513
 20
-7575.287814647184
 30
0.0
 40
100.0
  1
OŚ ODBICIA LUSTRZANEGO
 50
90.0
  7
AVA
100
AcDbText
  0
LINE
  5
7DB8
330
1F
100
AcDbEntity
  8
0Hatch
 48
4.0
100
AcDbLine
 10
-10545.7123178019
 20
-14024.86689309279
 30
0.0
 11
-10545.7123178019
 21
-4.866893092788814
 31
0.0
  0
LINE
  5
7DBA
330
1F
100
AcDbEntity
  8
0Hatch
 48
4.0
100
AcDbLine
 10
-345.7123178018737
 20
-4.866893092788814
 30
0.0
 11
-345.7123178018737
 21
-14024.86689309279
 31
0.0
  0
LINE
  5
8B0F
330
1F
100
AcDbEntity
  8
0
  6
Continuous
370
     5
100
AcDbLine
 10
-8847.407600137414
 20
-6159.132091488046
 30
0.0
 11
-8179.407600137412
 21
-6159.132091488046
 31
0.0
  0
LINE
  5
8B10
330
1F
100
AcDbEntity
  8
0
  6
Continuous
370
     5
100
AcDbLine
 10
-8798.407600137412
 20
-6159.132091488046
 30
0.0
 11
-8798.407600137412
 21
-5879.132091488047
 31
0.0
  0
LINE
  5
8B11
330
1F
100
AcDbEntity
  8
0
  6
Continuous
370
     5
100
AcDbLine
 10
-8952.407600137412
 20
-4940.132091488049
 30
0.0
 11
-8952.407600137412
 21
-5879.132091488047
 31
0.0
  0
LINE
  5
8B12
330
1F
100
AcDbEntity
  8
0
  6
Continuous
370
     5
100
AcDbLine
 10
-8952.407600137412
 20
-5879.132091488047
 30
0.0
 11
-7923.40760013741
 21
-5879.132091488047
 31
0.0
  0
LINE
  5
8B13
330
1F
100
AcDbEntity
  8
0
  6
Continuous
370
     5
100
AcDbLine
 10
-8847.407600137414
 20
-4940.132091488049
 30
0.0
 11
-8952.407600137412
 21
-4940.132091488049
 31
0.0
  0
LINE
  5
8B14
330
1F
100
AcDbEntity
  8
0
  6
Continuous
370
     5
100
AcDbLine
 10
-8082.407600137411
 20
-5879.132091488047
 30
0.0
 11
-8082.407600137411
 21
-6159.132091488046
 31
0.0
  0
LINE
  5
8B15
330
1F
100
AcDbEntity
  8
0
  6
Continuous
370
     5
100
AcDbLine
 10
-8082.407600137411
 20
-6159.132091488046
 30
0.0
 11
-7753.407600137411
 21
-6159.132091488046
 31
0.0
  0
LINE
  5
8B16
330
1F
100
AcDbEntity
  8
0
  6
Continuous
370
     5
100
AcDbLine
 10
-7963.407600137411
 20
-6159.132091488046
 30
0.0
 11
-7963.407600137411
 21
-5879.132091488047
 31
0.0
  0
LINE
  5
8B17
330
1F
100
AcDbEntity
  8
0
  6
Continuous
370
     5
100
AcDbLine
 10
-8082.407600137411
 20
-5759.132091488047
 30
0.0
 11
-8082.407600137409
 21
-5307.132091488047
 31
0.0
  0
LINE
  5
8B18
330
1F
100
AcDbEntity
  8
0
  6
Continuous
370
     5
100
AcDbLine
 10
-7963.407600137411
 20
-5759.132091488047
 30
0.0
 11
-7963.407600137411
 21
-5247.132091488047
 31
0.0
  0
LINE
  5
8B19
330
1F
100
AcDbEntity
  8
0
  6
Continuous
370
     5
100
AcDbLine
 10
-8263.407600137412
 20
-6159.132091488046
 30
0.0
 11
-8263.407600137412
 21
-5879.132091488047
 31
0.0
  0
LINE
  5
8B1A
330
1F
100
AcDbEntity
  8
0
  6
Continuous
370
     5
100
AcDbLine
 10
-8179.407600137412
 20
-5879.132091488047
 30
0.0
 11
-8179.407600137412
 21
-6159.132091488046
 31
0.0
  0
LINE
  5
8B1B
330
1F
100
AcDbEntity
  8
0
  6
Continuous
370
     5
100
AcDbLine
 10
-7773.407600137412
 20
-5444.132091488047
 30
0.0
 11
-7714.407600137413
 21
-5444.132091488047
 31
0.0
  0
LINE
  5
8B1C
330
1F
100
AcDbEntity
  8
0
  6
Continuous
370
     5
100
AcDbLine
 10
-7714.407600137413
 20
-5444.132091488047
 30
0.0
 11
-7714.407600137413
 21
-5385.132091488047
 31
0.0
  0
LINE
  5
8B1D
330
1F
100
AcDbEntity
  8
0
  6
Continuous
370
     5
100
AcDbLine
 10
-7714.407600137413
 20
-5385.132091488047
 30
0.0
 11
-7773.407600137412
 21
-5385.132091488047
 31
0.0
  0
LINE
  5
8B1E
330
1F
100
AcDbEntity
  8
0
  6
Continuous
370
     5
100
AcDbLine
 10
-7773.40760013741
 20
-5624.132091488047
 30
0.0
 11
-7714.40760013741
 21
-5624.132091488047
 31
0.0
  0
LINE
  5
8B1F
330
1F
100
AcDbEntity
  8
0
  6
Continuous
370
     5
100
AcDbLine
 10
-7714.40760013741
 20
-5624.132091488047
 30
0.0
 11
-7714.40760013741
 21
-5565.132091488047
 31
0.0
  0
LINE
  5
8B20
330
1F
100
AcDbEntity
  8
0
  6
Continuous
370
     5
100
AcDbLine
 10
-7714.40760013741
 20
-5565.132091488047
 30
0.0
 11
-7773.407600137412
 21
-5565.132091488047
 31
0.0
  0
LINE
  5
8B21
330
1F
100
AcDbEntity
  8
0
  6
Continuous
370
     5
100
AcDbLine
 10
-7773.407600137409
 20
-5804.132091488047
 30
0.0
 11
-7714.407600137409
 21
-5804.132091488047
 31
0.0
  0
LINE
  5
8B22
330
1F
100
AcDbEntity
  8
0
  6
Continuous
370
     5
100
AcDbLine
 10
-7714.407600137409
 20
-5804.132091488047
 30
0.0
 11
-7714.407600137409
 21
-5745.132091488047
 31
0.0
  0
LINE
  5
8B23
330
1F
100
AcDbEntity
  8
0
  6
Continuous
370
     5
100
AcDbLine
 10
-7773.407600137402
 20
-4056.132091488047
 30
0.0
 11
-7723.407600137402
 21
-4056.132091488044
 31
0.0
  0
LINE
  5
8B24
330
1F
100
AcDbEntity
  8
0
  6
Continuous
370
     5
100
AcDbLine
 10
-7723.407600137402
 20
-4056.132091488044
 30
0.0
 11
-7723.407600137402
 21
-4106.132091488045
 31
0.0
  0
LINE
  5
8B25
330
1F
100
AcDbEntity
  8
0
  6
Continuous
370
     5
100
AcDbLine
 10
-7723.407600137402
 20
-4106.132091488045
 30
0.0
 11
-7773.407600137403
 21
-4106.132091488047
 31
0.0
  0
LINE
  5
8B26
330
1F
100
AcDbEntity
  8
0
  6
Continuous
370
     5
100
AcDbLine
 10
-7723.407600137409
 20
-3906.132091488045
 30
0.0
 11
-7723.407600137408
 21
-3956.132091488046
 31
0.0
  0
LINE
  5
8B27
330
1F
100
AcDbEntity
  8
0
  6
Continuous
370
     5
100
AcDbLine
 10
-7723.407600137408
 20
-3956.132091488046
 30
0.0
 11
-7773.407600137409
 21
-3956.132091488047
 31
0.0
  0
LINE
  5
8B28
330
1F
100
AcDbEntity
  8
0
  6
Continuous
370
     5
100
AcDbLine
 10
-7773.407600137407
 20
-3956.132091488047
 30
0.0
 11
-7773.40760013741
 21
-3756.132091488048
 31
0.0
  0
LINE
  5
8B29
330
1F
100
AcDbEntity
  8
0
  6
Continuous
370
     5
100
AcDbLine
 10
-7773.40760013741
 20
-3756.132091488048
 30
0.0
 11
-7723.40760013741
 21
-3756.132091488046
 31
0.0
  0
LINE
  5
8B2A
330
1F
100
AcDbEntity
  8
0
  6
Continuous
370
     5
100
AcDbLine
 10
-7723.40760013741
 20
-3756.132091488046
 30
0.0
 11
-7723.407600137409
 21
-3806.132091488047
 31
0.0
  0
LINE
  5
8B2B
330
1F
100
AcDbEntity
  8
0
  6
Continuous
370
     5
100
AcDbLine
 10
-7773.407600137412
 20
-5984.132091488047
 30
0.0
 11
-7714.407600137409
 21
-5984.132091488047
 31
0.0
  0
LINE
  5
8B2C
330
1F
100
AcDbEntity
  8
0
  6
Continuous
370
     5
100
AcDbLine
 10
-7773.40760013741
 20
-5925.132091488047
 30
0.0
 11
-7714.407600137409
 21
-5925.132091488047
 31
0.0
  0
LINE
  5
8B2D
330
1F
100
AcDbEntity
  8
0
  6
Continuous
370
     5
100
AcDbLine
 10
-7753.407600137411
 20
-5925.132091488047
 30
0.0
 11
-7753.407600137411
 21
-5804.132091488047
 31
0.0
  0
LINE
  5
8B2E
330
1F
100
AcDbEntity
  8
0
  6
Continuous
370
     5
100
AcDbLine
 10
-7773.407600137409
 20
-5804.132091488047
 30
0.0
 11
-7773.40760013741
 21
-5745.132091488047
 31
0.0
  0
LINE
  5
8B2F
330
1F
100
AcDbEntity
  8
0
  6
Continuous
370
     5
100
AcDbLine
 10
-7773.40760013741
 20
-5745.132091488047
 30
0.0
 11
-7714.407600137409
 21
-5745.132091488047
 31
0.0
  0
LINE
  5
8B30
330
1F
100
AcDbEntity
  8
0
  6
Continuous
370
     5
100
AcDbLine
 10
-7753.407600137411
 20
-5745.132091488047
 30
0.0
 11
-7753.407600137411
 21
-5624.132091488047
 31
0.0
  0
LINE
  5
8B31
330
1F
100
AcDbEntity
  8
0
  6
Continuous
370
     5
100
AcDbLine
 10
-7773.40760013741
 20
-5624.132091488047
 30
0.0
 11
-7773.40760013741
 21
-5565.132091488047
 31
0.0
  0
LINE
  5
8B32
330
1F
100
AcDbEntity
  8
0
  6
Continuous
370
     5
100
AcDbLine
 10
-7753.407600137411
 20
-5565.132091488047
 30
0.0
 11
-7753.407600137411
 21
-5444.132091488047
 31
0.0
  0
LINE
  5
8B33
330
1F
100
AcDbEntity
  8
0
  6
Continuous
370
     5
100
AcDbLine
 10
-7773.407600137412
 20
-5444.132091488047
 30
0.0
 11
-7773.407600137412
 21
-5385.132091488047
 31
0.0
  0
LINE
  5
8B34
330
1F
100
AcDbEntity
  8
0
  6
Continuous
370
     5
100
AcDbLine
 10
-7753.407600137411
 20
-5385.132091488047
 30
0.0
 11
-7753.407600137411
 21
-5307.132091488047
 31
0.0
  0
LINE
  5
8B35
330
1F
100
AcDbEntity
  8
0
  6
Continuous
370
     5
100
AcDbLine
 10
-7058.40760013741
 20
-4074.132091488047
 30
0.0
 11
-7058.40760013741
 21
-3674.132091488047
 31
0.0
  0
LINE
  5
8B36
330
1F
100
AcDbEntity
  8
0
  6
Continuous
370
     5
100
AcDbLine
 10
-7058.40760013741
 20
-3674.132091488047
 30
0.0
 11
-7538.407600137411
 21
-3674.132091488051
 31
0.0
  0
LINE
  5
8B37
330
1F
100
AcDbEntity
  8
0
  6
Continuous
370
     5
100
AcDbLine
 10
-7538.407600137411
 20
-3674.132091488051
 30
0.0
 11
-7538.407600137411
 21
-3806.132091488047
 31
0.0
  0
LINE
  5
8B38
330
1F
100
AcDbEntity
  8
0
  6
Continuous
370
     5
100
AcDbLine
 10
-7538.407600137411
 20
-3906.132091488047
 30
0.0
 11
-7538.407600137411
 21
-4074.132091488047
 31
0.0
  0
LINE
  5
8B39
102
{ACAD_REACTORS
330
8BA1
330
8BB5
330
8BD8
330
8BEC
102
}
330
1F
100
AcDbEntity
  8
0
  6
Continuous
370
     5
100
AcDbLine
 10
-7632.407600137411
 20
-4074.132091488047
 30
0.0
 11
-6964.40760013741
 21
-4074.132091488047
 31
0.0
  0
LINE
  5
8B3A
102
{ACAD_REACTORS
330
8B8D
330
8BA1
102
}
330
1F
100
AcDbEntity
  8
0
  6
Continuous
370
     5
100
AcDbLine
 10
-8847.407600137414
 20
-4024.132091488047
 30
0.0
 11
-8179.407600137412
 21
-4024.132091488047
 31
0.0
  0
LINE
  5
8B3B
330
1F
100
AcDbEntity
  8
0
  6
Continuous
370
     5
100
AcDbLine
 10
-7923.407600137412
 20
-5759.132091488047
 30
0.0
 11
-7923.40760013741
 21
-5879.132091488047
 31
0.0
  0
LINE
  5
8B3C
330
1F
100
AcDbEntity
  8
0
  6
Continuous
370
     5
100
AcDbLine
 10
-7714.407600137409
 20
-5984.132091488047
 30
0.0
 11
-7714.407600137409
 21
-5925.132091488047
 31
0.0
  0
LINE
  5
8B3D
330
1F
100
AcDbEntity
  8
0
  6
Continuous
370
     5
100
AcDbLine
 10
-7773.407600137409
 20
-5925.132091488047
 30
0.0
 11
-7773.407600137409
 21
-5984.132091488047
 31
0.0
  0
LINE
  5
8B3E
330
1F
100
AcDbEntity
  8
0
  6
Continuous
370
     5
100
AcDbLine
 10
-7963.407600137408
 20
-3781.132091488051
 30
0.0
 11
-7773.407600137403
 21
-3781.132091488049
 31
0.0
  0
LINE
  5
8B3F
330
1F
100
AcDbEntity
  8
0
  6
Continuous
370
     5
100
AcDbLine
 10
-7963.407600137408
 20
-4491.132091488046
 30
0.0
 11
-7963.407600137408
 21
-3781.132091488051
 31
0.0
  0
LINE
  5
8B40
330
1F
100
AcDbEntity
  8
0
  6
Continuous
370
     5
100
AcDbLine
 10
-7963.407600137408
 20
-4156.132091488046
 30
0.0
 11
-8179.407600137412
 21
-4156.132091488046
 31
0.0
  0
LINE
  5
8B41
330
1F
100
AcDbEntity
  8
0
  6
Continuous
370
     5
100
AcDbLine
 10
-7773.407600137412
 20
-3906.132091488047
 30
0.0
 11
-7478.40760013741
 21
-3906.132091488047
 31
0.0
  0
LINE
  5
8B42
330
1F
100
AcDbEntity
  8
0
  6
Continuous
370
     5
100
AcDbLine
 10
-7478.40760013741
 20
-3906.132091488047
 30
0.0
 11
-7478.40760013741
 21
-3806.132091488047
 31
0.0
  0
LINE
  5
8B43
330
1F
100
AcDbEntity
  8
0
  6
Continuous
370
     5
100
AcDbLine
 10
-7478.40760013741
 20
-3806.132091488047
 30
0.0
 11
-7773.407600137412
 21
-3806.132091488047
 31
0.0
  0
LINE
  5
8B44
330
1F
100
AcDbEntity
  8
0
  6
Continuous
370
     5
100
AcDbLine
 10
-7753.407600137411
 20
-6159.132091488046
 30
0.0
 11
-7753.407600137411
 21
-5984.132091488047
 31
0.0
  0
LINE
  5
8B45
330
1F
100
AcDbEntity
  8
0
  6
Continuous
370
     5
100
AcDbLine
 10
-7753.407600137411
 20
-6124.132091488047
 30
0.0
 11
-7963.407600137411
 21
-6124.132091488047
 31
0.0
  0
LINE
  5
8B46
330
1F
100
AcDbEntity
  8
0
  6
Continuous
370
     5
100
AcDbLine
 10
-7773.407600137399
 20
-4206.132091488046
 30
0.0
 11
-7723.407600137399
 21
-4206.132091488045
 31
0.0
  0
LINE
  5
8B47
330
1F
100
AcDbEntity
  8
0
  6
Continuous
370
     5
100
AcDbLine
 10
-7723.407600137399
 20
-4206.132091488045
 30
0.0
 11
-7723.407600137398
 21
-4256.132091488047
 31
0.0
  0
LINE
  5
8B48
330
1F
100
AcDbEntity
  8
0
  6
Continuous
370
     5
100
AcDbLine
 10
-7723.407600137398
 20
-4256.132091488047
 30
0.0
 11
-7773.407600137399
 21
-4256.132091488047
 31
0.0
  0
LINE
  5
8B49
330
1F
100
AcDbEntity
  8
0
  6
Continuous
370
     5
100
AcDbLine
 10
-7773.407600137399
 20
-4256.132091488047
 30
0.0
 11
-7773.407600137399
 21
-4206.132091488046
 31
0.0
  0
LINE
  5
8B4A
330
1F
100
AcDbEntity
  8
0
  6
Continuous
370
     5
100
AcDbLine
 10
-9032.407600137412
 20
-4370.132091488047
 30
0.0
 11
-9032.407600137412
 21
-4510.132091488047
 31
0.0
  0
LINE
  5
8B4B
330
1F
100
AcDbEntity
  8
0
  6
Continuous
370
     5
100
AcDbLine
 10
-9032.407600137412
 20
-4510.132091488047
 30
0.0
 11
-8844.407600137413
 21
-4510.132091488047
 31
0.0
  0
LINE
  5
8B4C
330
1F
100
AcDbEntity
  8
0
  6
Continuous
370
     5
100
AcDbLine
 10
-8847.407600137414
 20
-4370.132091488047
 30
0.0
 11
-9032.407600137412
 21
-4370.132091488047
 31
0.0
  0
HATCH
  5
8B4D
330
1F
100
AcDbEntity
  8
0
  6
Continuous
370
     5
100
AcDbHatch
 10
0.0
 20
0.0
 30
0.0
210
0.0
220
0.0
230
1.0
  2
SOLID
 70
     1
 71
     0
 91
        1
 92
        7
 72
     0
 73
     1
 93
        5
 10
-8787.407600137411
 20
-4490.132091488047
 10
-8847.407600137414
 20
-4490.132091488047
 10
-8847.407600137414
 20
-4980.132091488047
 10
-8808.407600137412
 20
-4980.132091488047
 10
-8787.407600137411
 20
-4980.132091488048
 97
        0
 75
     0
 76
     1
 47
4.458612059279953
 98
        1
 10
-8810.515691403862
 20
-4809.518325105211
1001
ACAD
1010
0.0
1020
0.0
1030
0.0
  0
HATCH
  5
8B4E
330
1F
100
AcDbEntity
  8
0
  6
Continuous
370
     5
100
AcDbHatch
 10
0.0
 20
0.0
 30
0.0
210
0.0
220
0.0
230
1.0
  2
SOLID
 70
     1
 71
     1
 91
        1
 92
        7
 72
     0
 73
     1
 93
        6
 10
-8787.407600137411
 20
-5699.132091488047
 10
-8787.407600137411
 20
-5080.132091488047
 10
-8847.40760013741
 20
-5080.132091488047
 10
-8847.407600137414
 20
-5759.132091488047
 10
-8763.407600137412
 20
-5759.132091488047
 10
-8763.407600137414
 20
-5699.132091488046
 97
        6
330
8B69
330
8B6A
330
8B6B
330
8B4F
330
8B5D
330
8B71
 75
     0
 76
     1
 47
4.458612059279953
 98
        1
 10
-8806.054096800735
 20
-5705.699350472936
1001
ACAD
1010
0.0
1020
0.0
1030
0.0
  0
LINE
  5
8B4F
102
{ACAD_REACTORS
330
8B4E
330
8B8D
330
8E67
102
}
330
1F
100
AcDbEntity
  8
0
  6
Continuous
370
     5
100
AcDbLine
 10
-8847.407600137414
 20
-6159.132091488046
 30
0.0
 11
-8847.407600137414
 21
-4024.132091488047
 31
0.0
  0
LINE
  5
8B50
330
1F
100
AcDbEntity
  8
0
  6
Continuous
370
     5
100
AcDbLine
 10
-8263.407600137412
 20
-6159.132091488046
 30
0.0
 11
-8513.407600137412
 21
-5879.132091488047
 31
0.0
  0
LINE
  5
8B51
330
1F
100
AcDbEntity
  8
0
  6
Continuous
370
     5
100
AcDbLine
 10
-8513.407600137412
 20
-5879.132091488047
 30
0.0
 11
-8798.407600137412
 21
-6159.132091488046
 31
0.0
  0
LINE
  5
8B52
330
1F
100
AcDbEntity
  8
0
  6
Continuous
370
     5
100
AcDbLine
 10
-7753.407600137406
 20
-4156.132091488045
 30
0.0
 11
-7615.407600137411
 21
-4156.132091488046
 31
0.0
  0
HATCH
  5
8B53
330
1F
100
AcDbEntity
  8
0
  6
Continuous
370
     5
100
AcDbHatch
 10
0.0
 20
0.0
 30
0.0
210
0.0
220
0.0
230
1.0
  2
SOLID
 70
     1
 71
     0
 91
        1
 92
        7
 72
     0
 73
     1
 93
       22
 10
-6964.40760013741
 20
-4074.132091488047
 10
-7632.407600137409
 20
-4074.132091488047
 10
-7632.407600137411
 20
-4491.132091488046
 10
-8179.407600137414
 20
-4491.132091488048
 10
-8179.407600137411
 20
-4024.132091488047
 10
-8847.40760013741
 20
-4024.132091488047
 10
-8847.40760013741
 20
-4390.132091488047
 10
-8787.407600137411
 20
-4390.132091488047
 10
-8787.407600137411
 20
-4084.132091488046
 10
-8239.407600137413
 20
-4084.132091488046
 10
-8239.407600137413
 20
-4551.132091488047
 10
-7572.40760013741
 20
-4551.132091488047
 10
-7572.40760013741
 20
-4134.132091488046
 10
-7024.40760013741
 20
-4134.132091488046
 10
-7024.40760013741
 20
-5384.132091488047
 10
-7572.407600137409
 20
-5384.132091488047
 10
-7572.40760013741
 20
-5247.132091488047
 10
-7773.407600137412
 20
-5247.132091488047
 10
-7773.40760013741
 20
-5307.132091488047
 10
-7632.407600137411
 20
-5307.132091488047
 10
-7632.407600137411
 20
-5444.132091488047
 10
-6964.407600137412
 20
-5444.132091488047
 97
        0
 75
     0
 76
     1
 47
2.254942482602806
 98
        1
 10
-7200.464643229928
 20
-4097.943662480783
1001
ACAD
1010
0.0
1020
0.0
1030
0.0
  0
LINE
  5
8B54
330
1F
100
AcDbEntity
  8
0
  6
Continuous
370
     5
100
AcDbLine
 10
-8179.407600137412
 20
-4024.132091488047
 30
0.0
 11
-8179.407600137412
 21
-4491.132091488046
 31
0.0
  0
LINE
  5
8B55
330
1F
100
AcDbEntity
  8
0
  6
Continuous
370
     5
100
AcDbLine
 10
-8179.407600137412
 20
-4491.132091488046
 30
0.0
 11
-7632.407600137411
 21
-4491.132091488046
 31
0.0
  0
LINE
  5
8B56
330
1F
100
AcDbEntity
  8
0
  6
Continuous
370
     5
100
AcDbLine
 10
-7632.407600137411
 20
-4491.132091488046
 30
0.0
 11
-7632.407600137411
 21
-4074.132091488047
 31
0.0
  0
LINE
  5
8B57
330
1F
100
AcDbEntity
  8
0
  6
Continuous
370
     5
100
AcDbLine
 10
-6964.40760013741
 20
-4074.132091488047
 30
0.0
 11
-6964.40760013741
 21
-5444.132091488047
 31
0.0
  0
LINE
  5
8B58
102
{ACAD_REACTORS
330
8BEC
330
8C00
102
}
330
1F
100
AcDbEntity
  8
0
  6
Continuous
370
     5
100
AcDbLine
 10
-6964.40760013741
 20
-5444.132091488047
 30
0.0
 11
-7632.407600137411
 21
-5444.132091488047
 31
0.0
  0
LINE
  5
8B59
330
1F
100
AcDbEntity
  8
0
  6
Continuous
370
     5
100
AcDbLine
 10
-7632.407600137411
 20
-5444.132091488047
 30
0.0
 11
-7632.407600137411
 21
-5307.132091488047
 31
0.0
  0
HATCH
  5
8B5A
330
1F
100
AcDbEntity
  8
0
  6
Continuous
370
     5
100
AcDbHatch
 10
0.0
 20
0.0
 30
0.0
210
0.0
220
0.0
230
1.0
  2
SOLID
 70
     1
 71
     0
 91
        1
 92
        7
 72
     0
 73
     1
 93
        8
 10
-8179.407600137412
 20
-5307.132091488047
 10
-7963.407600137412
 20
-5307.132091488047
 10
-7963.407600137411
 20
-5247.132091488047
 10
-8239.407600137413
 20
-5247.132091488047
 10
-8239.407600137413
 20
-5699.132091488047
 10
-8263.407600137412
 20
-5699.132091488047
 10
-8263.407600137412
 20
-5759.132091488047
 10
-8179.407600137412
 20
-5759.132091488047
 97
        0
 75
     0
 76
     1
 47
4.526617526325563
 98
        1
 10
-8207.653217040769
 20
-5652.259023486997
1001
ACAD
1010
0.0
1020
0.0
1030
0.0
  0
LINE
  5
8B5B
330
1F
100
AcDbEntity
  8
0
  6
Continuous
370
     5
100
AcDbLine
 10
-7632.407600137411
 20
-5307.132091488047
 30
0.0
 11
-8179.407600137412
 21
-5307.132091488047
 31
0.0
  0
LINE
  5
8B5C
102
{ACAD_REACTORS
330
8C00
102
}
330
1F
100
AcDbEntity
  8
0
  6
Continuous
370
     5
100
AcDbLine
 10
-8179.407600137412
 20
-5307.132091488047
 30
0.0
 11
-8179.407600137412
 21
-5759.132091488047
 31
0.0
  0
LINE
  5
8B5D
102
{ACAD_REACTORS
330
8B4E
102
}
330
1F
100
AcDbEntity
  8
0
  6
Continuous
370
     5
100
AcDbLine
 10
-8847.407600137414
 20
-5759.132091488047
 30
0.0
 11
-7923.407600137412
 21
-5759.132091488047
 31
0.0
  0
LINE
  5
8B5E
330
1F
100
AcDbEntity
  8
0
  6
Continuous
370
     5
100
AcDbLine
 10
-8847.407600137414
 20
-4024.132091488047
 30
0.0
 11
-8847.407600137414
 21
-4024.132091488047
 31
0.0
  0
LINE
  5
8B5F
330
1F
100
AcDbEntity
  8
0
  6
Continuous
370
     5
100
AcDbLine
 10
-8787.407600137411
 20
-4084.132091488046
 30
0.0
 11
-8239.407600137413
 21
-4084.132091488046
 31
0.0
  0
LINE
  5
8B60
330
1F
100
AcDbEntity
  8
0
  6
Continuous
370
     5
100
AcDbLine
 10
-8239.407600137413
 20
-4084.132091488046
 30
0.0
 11
-8239.407600137413
 21
-4551.132091488047
 31
0.0
  0
LINE
  5
8B61
330
1F
100
AcDbEntity
  8
0
  6
Continuous
370
     5
100
AcDbLine
 10
-8239.407600137413
 20
-4551.132091488047
 30
0.0
 11
-7572.40760013741
 21
-4551.132091488047
 31
0.0
  0
LINE
  5
8B62
330
1F
100
AcDbEntity
  8
0
  6
Continuous
370
     5
100
AcDbLine
 10
-7572.40760013741
 20
-4551.132091488047
 30
0.0
 11
-7572.40760013741
 21
-4134.132091488047
 31
0.0
  0
LINE
  5
8B63
330
1F
100
AcDbEntity
  8
0
  6
Continuous
370
     5
100
AcDbLine
 10
-7572.40760013741
 20
-4134.132091488047
 30
0.0
 11
-7024.407600137411
 21
-4134.132091488047
 31
0.0
  0
LINE
  5
8B64
330
1F
100
AcDbEntity
  8
0
  6
Continuous
370
     5
100
AcDbLine
 10
-7024.407600137411
 20
-4134.132091488047
 30
0.0
 11
-7024.407600137411
 21
-5384.132091488047
 31
0.0
  0
LINE
  5
8B65
330
1F
100
AcDbEntity
  8
0
  6
Continuous
370
     5
100
AcDbLine
 10
-7024.407600137411
 20
-5384.132091488047
 30
0.0
 11
-7572.40760013741
 21
-5384.132091488047
 31
0.0
  0
LINE
  5
8B66
330
1F
100
AcDbEntity
  8
0
  6
Continuous
370
     5
100
AcDbLine
 10
-7572.40760013741
 20
-5384.132091488047
 30
0.0
 11
-7572.40760013741
 21
-5247.132091488047
 31
0.0
  0
LINE
  5
8B67
330
1F
100
AcDbEntity
  8
0
  6
Continuous
370
     5
100
AcDbLine
 10
-7572.40760013741
 20
-5247.132091488047
 30
0.0
 11
-8239.407600137413
 21
-5247.132091488047
 31
0.0
  0
LINE
  5
8B68
330
1F
100
AcDbEntity
  8
0
  6
Continuous
370
     5
100
AcDbLine
 10
-8239.407600137413
 20
-5247.132091488047
 30
0.0
 11
-8239.407600137413
 21
-5699.132091488047
 31
0.0
  0
LINE
  5
8B69
102
{ACAD_REACTORS
330
8B4E
102
}
330
1F
100
AcDbEntity
  8
0
  6
Continuous
370
     5
100
AcDbLine
 10
-8239.407600137413
 20
-5699.132091488047
 30
0.0
 11
-8787.407600137411
 21
-5699.132091488047
 31
0.0
  0
LINE
  5
8B6A
102
{ACAD_REACTORS
330
8B4E
330
8E67
102
}
330
1F
100
AcDbEntity
  8
0
  6
Continuous
370
     5
100
AcDbLine
 10
-8787.407600137411
 20
-5699.132091488047
 30
0.0
 11
-8787.407600137411
 21
-4084.132091488046
 31
0.0
  0
LINE
  5
8B6B
102
{ACAD_REACTORS
330
8B4E
102
}
330
1F
100
AcDbEntity
  8
0
  6
Continuous
370
     5
100
AcDbLine
 10
-8787.407600137411
 20
-5080.132091488047
 30
0.0
 11
-8847.407600137414
 21
-5080.132091488047
 31
0.0
  0
LINE
  5
8B6C
102
{ACAD_REACTORS
330
8E67
102
}
330
1F
100
AcDbEntity
  8
0
  6
Continuous
370
     5
100
AcDbLine
 10
-8787.407600137411
 20
-4490.132091488047
 30
0.0
 11
-8847.407600137414
 21
-4490.132091488047
 31
0.0
  0
LINE
  5
8B6E
102
{ACAD_REACTORS
330
8E67
102
}
330
1F
100
AcDbEntity
  8
0
  6
Continuous
370
     5
100
AcDbLine
 10
-8847.407600137414
 20
-4390.132091488047
 30
0.0
 11
-8787.407600137411
 21
-4390.132091488047
 31
0.0
  0
LINE
  5
8B6F
330
1F
100
AcDbEntity
  8
0
  6
Continuous
370
     5
100
AcDbLine
 10
-7773.40760013741
 20
-5307.132091488047
 30
0.0
 11
-7773.40760013741
 21
-5247.132091488047
 31
0.0
  0
LINE
  5
8B70
330
1F
100
AcDbEntity
  8
0
  6
Continuous
370
     5
100
AcDbLine
 10
-8263.407600137412
 20
-5699.132091488047
 30
0.0
 11
-8263.407600137412
 21
-5759.132091488047
 31
0.0
  0
LINE
  5
8B71
102
{ACAD_REACTORS
330
8B4E
102
}
330
1F
100
AcDbEntity
  8
0
  6
Continuous
370
     5
100
AcDbLine
 10
-8763.407600137412
 20
-5759.132091488047
 30
0.0
 11
-8763.407600137412
 21
-5699.132091488047
 31
0.0
  0
HATCH
  5
8B72
330
1F
100
AcDbEntity
  8
0
  6
Continuous
370
     5
100
AcDbHatch
 10
0.0
 20
0.0
 30
0.0
210
0.0
220
0.0
230
1.0
  2
SOLID
 70
     1
 71
     0
 91
        1
 92
        7
 72
     1
 73
     1
 93
        7
 10
-7963.407600137412
 20
-5405.132091488045
 42
0.0
 10
-8076.592286125068
 20
-5405.132091488047
 42
-0.0378674042017742
 10
-8082.407600137413
 20
-5410.017492391133
 42
0.0
 10
-8082.407600137413
 20
-5444.132091488047
 42
0.0
 10
-7966.939724356954
 20
-5444.132091488047
 42
-0.010916809744984
 10
-7965.202838383631
 20
-5442.794137365776
 42
-0.0195525319918788
 10
-7963.407600137412
 20
-5438.523397931307
 42
0.0
 97
        0
 75
     0
 76
     1
 47
0.4444408470050192
 98
        1
 10
-8027.04773966699
 20
-5417.141033092377
1001
ACAD
1010
0.0
1020
0.0
1030
0.0
  0
HATCH
  5
8B73
330
1F
100
AcDbEntity
  8
0
  6
Continuous
370
     5
100
AcDbHatch
 10
0.0
 20
0.0
 30
0.0
210
0.0
220
0.0
230
1.0
  2
SOLID
 70
     1
 71
     0
 91
        1
 92
        7
 72
     1
 73
     1
 93
        3
 10
-8076.592286125068
 20
-5405.132091488047
 42
0.0
 10
-8082.407600137413
 20
-5405.132091488047
 42
0.0
 10
-8082.407600137413
 20
-5410.017492391131
 42
0.0378674042017713
 97
        0
 75
     0
 76
     1
 47
0.054830460333425
 98
        1
 10
-8080.64920926324
 20
-5407.146883400668
1001
ACAD
1010
0.0
1020
0.0
1030
0.0
  0
HATCH
  5
8B74
330
1F
100
AcDbEntity
  8
0
  6
Continuous
370
     5
100
AcDbHatch
 10
0.0
 20
0.0
 30
0.0
210
0.0
220
0.0
230
1.0
  2
SOLID
 70
     1
 71
     0
 91
        1
 92
        7
 72
     0
 73
     1
 93
        4
 10
-7963.407600137412
 20
-5430.132091488046
 10
-8082.407600137411
 20
-5430.132091488046
 10
-8082.407600137413
 20
-5444.132091488047
 10
-7963.407600137411
 20
-5444.132091488047
 97
        0
 75
     0
 76
     1
 47
0.1302003748608583
 98
        1
 10
-7964.490180766336
 20
-5442.527154593157
1001
ACAD
1010
0.0
1020
0.0
1030
0.0
  0
LINE
  5
8B75
330
1F
100
AcDbEntity
  8
0
  6
Continuous
370
     5
100
AcDbLine
 10
-7963.407600137412
 20
-5430.132091488047
 30
0.0
 11
-8082.407600137413
 21
-5430.132091488047
 31
0.0
  0
LINE
  5
8B76
330
1F
100
AcDbEntity
  8
0
  6
Continuous
370
     5
100
AcDbLine
 10
-7963.407600137412
 20
-5405.132091488047
 30
0.0
 11
-8082.407600137413
 21
-5405.132091488047
 31
0.0
  0
LINE
  5
8B77
330
1F
100
AcDbEntity
  8
0
  6
Continuous
370
     5
100
AcDbLine
 10
-8082.407600137413
 20
-5444.132091488047
 30
0.0
 11
-7963.407600137412
 21
-5444.132091488047
 31
0.0
  0
LINE
  5
8B79
330
1F
100
AcDbEntity
  8
0
  6
Continuous
370
     5
100
AcDbLine
 10
-8847.407600137414
 20
-4980.132091488047
 30
0.0
 11
-8787.407600137411
 21
-4980.132091488047
 31
0.0
  0
DIMENSION
  5
8B7A
102
{ACAD_XDICTIONARY
360
8B85
102
}
102
{ACAD_REACTORS
330
8B8D
102
}
330
1F
100
AcDbEntity
  8
0Wymiary-PL
100
AcDbDimension
  2
*D11
 10
-8179.407600137412
 20
-3502.174664763578
 30
0.0
 11
-8513.407600137412
 21
-3422.174664763577
 31
0.0
 70
    32
 71
     5
 42
668.0
  3
500
100
AcDbAlignedDimension
 13
-8847.407600137414
 23
-4024.132091488047
 33
0.0
 14
-8179.407600137412
 24
-4024.132091488047
 34
0.0
100
AcDbRotatedDimension
  0
DIMENSION
  5
8B8E
102
{ACAD_XDICTIONARY
360
8B99
102
}
102
{ACAD_REACTORS
330
8BA1
102
}
330
1F
100
AcDbEntity
  8
0Wymiary-PL
100
AcDbDimension
  2
*D12
 10
-7632.407600137409
 20
-3502.174664763578
 30
0.0
 11
-7905.90760013741
 21
-3422.174664763577
 31
0.0
 70
    32
 71
     5
 42
547.0000000000027
  3
500
100
AcDbAlignedDimension
 13
-8179.407600137412
 23
-4024.132091488047
 33
0.0
 14
-7632.407600137409
 24
-4074.132091488047
 34
0.0
100
AcDbRotatedDimension
  0
DIMENSION
  5
8BA2
102
{ACAD_XDICTIONARY
360
8BAD
102
}
102
{ACAD_REACTORS
330
8BB5
102
}
330
1F
100
AcDbEntity
  8
0Wymiary-PL
100
AcDbDimension
  2
*D13
 10
-6964.40760013741
 20
-3502.174664763578
 30
0.0
 11
-7298.40760013741
 21
-3422.174664763577
 31
0.0
 70
    32
 71
     5
 42
668.0
  3
500
100
AcDbAlignedDimension
 13
-7632.407600137411
 23
-4074.132091488047
 33
0.0
 14
-6964.40760013741
 24
-4074.132091488047
 34
0.0
100
AcDbRotatedDimension
  0
DIMENSION
  5
8BB6
330
1F
100
AcDbEntity
  8
0Wymiary-PL
100
AcDbDimension
  2
*D14
 10
-8847.407600137414
 20
-3219.257263830022
 30
0.0
 11
-7905.90760013741
 21
-3139.257263830022
 31
0.0
 70
    32
 71
     5
 42
1883.000000000002
  3
500
100
AcDbAlignedDimension
 13
-6964.40760013741
 23
-4074.132091488047
 33
0.0
 14
-8847.407600137414
 24
-4024.132091488047
 34
0.0
100
AcDbRotatedDimension
  0
DIMENSION
  5
8BC1
102
{ACAD_XDICTIONARY
360
8BCE
102
}
102
{ACAD_REACTORS
330
8BD8
102
}
330
1F
100
AcDbEntity
  8
0Wymiary-PL
100
AcDbDimension
  2
*D15
 10
-6690.851331806688
 20
-4074.132091488047
 30
0.0
 11
-6770.851331806688
 21
-4049.132091488048
 31
0.0
 70
    32
 71
     5
 42
50.0
  3
500
100
AcDbAlignedDimension
 13
-8179.407600137412
 23
-4024.132091488047
 33
0.0
 14
-7298.40760013741
 24
-4074.132091488047
 34
0.0
 50
90.0
100
AcDbRotatedDimension
  0
DIMENSION
  5
8BD9
102
{ACAD_XDICTIONARY
360
8BE4
102
}
102
{ACAD_REACTORS
330
8BEC
102
}
330
1F
100
AcDbEntity
  8
0Wymiary-PL
100
AcDbDimension
  2
*D16
 10
-6690.851331806688
 20
-5444.132091488047
 30
0.0
 11
-6770.851331806688
 21
-4759.132091488049
 31
0.0
 70
    32
 71
     5
 42
1370.0
  3
500
100
AcDbAlignedDimension
 13
-7298.40760013741
 23
-4074.132091488047
 33
0.0
 14
-6964.40760013741
 24
-5444.132091488047
 34
0.0
 50
90.0
100
AcDbRotatedDimension
  0
DIMENSION
  5
8BED
102
{ACAD_XDICTIONARY
360
8BF8
102
}
102
{ACAD_REACTORS
330
8C00
102
}
330
1F
100
AcDbEntity
  8
0Wymiary-PL
100
AcDbDimension
  2
*D17
 10
-6690.851331806688
 20
-5759.132091488047
 30
0.0
 11
-6770.851331806688
 21
-5601.632091488049
 31
0.0
 70
    32
 71
     5
 42
315.0
  3
500
100
AcDbAlignedDimension
 13
-6964.40760013741
 23
-5444.132091488047
 33
0.0
 14
-8179.407600137412
 24
-5759.132091488047
 34
0.0
 50
90.0
100
AcDbRotatedDimension
  0
DIMENSION
  5
8C01
330
1F
100
AcDbEntity
  8
0Wymiary-PL
100
AcDbDimension
  2
*D18
 10
-6437.247338174351
 20
-4024.132091488047
 30
0.0
 11
-6517.247338174351
 21
-4891.632091488048
 31
0.0
 70
    32
 71
     5
 42
1735.0
  3
500
100
AcDbAlignedDimension
 13
-8179.407600137412
 23
-5759.132091488047
 33
0.0
 14
-8179.407600137412
 24
-4024.132091488047
 34
0.0
 50
90.0
100
AcDbRotatedDimension
  0
HATCH
  5
8E67
330
1F
100
AcDbEntity
  8
0
  6
Continuous
370
     5
100
AcDbHatch
 10
0.0
 20
0.0
 30
0.0
210
0.0
220
0.0
230
1.0
  2
SOLID
 70
     1
 71
     1
 91
        1
 92
        7
 72
     0
 73
     1
 93
        4
 10
-8787.407600137411
 20
-4390.132091488047
 10
-8847.40760013741
 20
-4390.132091488047
 10
-8847.40760013741
 20
-4490.132091488047
 10
-8787.407600137411
 20
-4490.132091488047
 97
        4
330
8B6E
330
8B4F
330
8B6C
330
8B6A
 75
     0
 76
     1
 47
3.50897847525783
 98
        1
 10
-8797.336673512914
 20
-4440.576518308331
1001
ACAD
1010
0.0
1020
0.0
1030
0.0
  0
LINE
  5
8E68
330
1F
100
AcDbEntity
  8
0
  6
Continuous
370
     5
100
AcDbLine
 10
-7753.407600137399
 20
-4491.132091488046
 30
0.0
 11
-7753.407600137403
 21
-4256.132091488047
 31
0.0
  0
LINE
  5
8E69
330
1F
100
AcDbEntity
  8
0
  6
Continuous
370
     5
100
AcDbLine
 10
-7753.407600137403
 20
-4206.132091488046
 30
0.0
 11
-7753.407600137406
 21
-4106.132091488045
 31
0.0
  0
LINE
  5
8E6A
330
1F
100
AcDbEntity
  8
0
  6
Continuous
370
     5
100
AcDbLine
 10
-7753.407600137407
 20
-4056.132091488045
 30
0.0
 11
-7753.407600137409
 21
-3956.132091488046
 31
0.0
  0
LINE
  5
8E6B
330
1F
100
AcDbEntity
  8
0
  6
Continuous
370
     5
100
AcDbLine
 10
-7773.407600137402
 20
-4056.132091488047
 30
0.0
 11
-7773.407600137402
 21
-4106.132091488047
 31
0.0
  0
LINE
  5
8E6C
330
1F
100
AcDbEntity
  8
0
  6
Continuous
370
     5
100
AcDbLine
 10
-1818.638654910967
 20
-6159.132091488046
 30
0.0
 11
-2486.638654910967
 21
-6159.132091488046
 31
0.0
  0
LINE
  5
8E6D
330
1F
100
AcDbEntity
  8
0
  6
Continuous
370
     5
100
AcDbLine
 10
-1867.638654910966
 20
-6159.132091488046
 30
0.0
 11
-1867.638654910966
 21
-5879.132091488047
 31
0.0
  0
LINE
  5
8E6E
330
1F
100
AcDbEntity
  8
0
  6
Continuous
370
     5
100
AcDbLine
 10
-1713.638654910966
 20
-4940.132091488049
 30
0.0
 11
-1713.638654910966
 21
-5879.132091488047
 31
0.0
  0
LINE
  5
8E6F
330
1F
100
AcDbEntity
  8
0
  6
Continuous
370
     5
100
AcDbLine
 10
-1713.638654910966
 20
-5879.132091488047
 30
0.0
 11
-2742.638654910968
 21
-5879.132091488047
 31
0.0
  0
LINE
  5
8E70
330
1F
100
AcDbEntity
  8
0
  6
Continuous
370
     5
100
AcDbLine
 10
-1818.638654910967
 20
-4940.132091488049
 30
0.0
 11
-1713.638654910966
 21
-4940.132091488049
 31
0.0
  0
LINE
  5
8E71
330
1F
100
AcDbEntity
  8
0
  6
Continuous
370
     5
100
AcDbLine
 10
-2583.638654910969
 20
-5879.132091488047
 30
0.0
 11
-2583.638654910969
 21
-6159.132091488046
 31
0.0
  0
LINE
  5
8E72
330
1F
100
AcDbEntity
  8
0
  6
Continuous
370
     5
100
AcDbLine
 10
-2583.638654910969
 20
-6159.132091488046
 30
0.0
 11
-2912.638654910969
 21
-6159.132091488046
 31
0.0
  0
LINE
  5
8E73
330
1F
100
AcDbEntity
  8
0
  6
Continuous
370
     5
100
AcDbLine
 10
-2702.638654910968
 20
-6159.132091488046
 30
0.0
 11
-2702.638654910968
 21
-5879.132091488047
 31
0.0
  0
LINE
  5
8E74
330
1F
100
AcDbEntity
  8
0
  6
Continuous
370
     5
100
AcDbLine
 10
-2583.638654910969
 20
-5759.132091488047
 30
0.0
 11
-2583.638654910968
 21
-5307.132091488047
 31
0.0
  0
LINE
  5
8E75
330
1F
100
AcDbEntity
  8
0
  6
Continuous
370
     5
100
AcDbLine
 10
-2702.638654910968
 20
-5759.132091488047
 30
0.0
 11
-2702.638654910968
 21
-5247.132091488047
 31
0.0
  0
LINE
  5
8E76
330
1F
100
AcDbEntity
  8
0
  6
Continuous
370
     5
100
AcDbLine
 10
-2402.638654910967
 20
-6159.132091488046
 30
0.0
 11
-2402.638654910967
 21
-5879.132091488047
 31
0.0
  0
LINE
  5
8E77
330
1F
100
AcDbEntity
  8
0
  6
Continuous
370
     5
100
AcDbLine
 10
-2486.638654910967
 20
-5879.132091488047
 30
0.0
 11
-2486.638654910967
 21
-6159.132091488046
 31
0.0
  0
LINE
  5
8E78
330
1F
100
AcDbEntity
  8
0
  6
Continuous
370
     5
100
AcDbLine
 10
-2892.638654910967
 20
-5444.132091488047
 30
0.0
 11
-2951.638654910967
 21
-5444.132091488047
 31
0.0
  0
LINE
  5
8E79
330
1F
100
AcDbEntity
  8
0
  6
Continuous
370
     5
100
AcDbLine
 10
-2951.638654910967
 20
-5444.132091488047
 30
0.0
 11
-2951.638654910967
 21
-5385.132091488047
 31
0.0
  0
LINE
  5
8E7A
330
1F
100
AcDbEntity
  8
0
  6
Continuous
370
     5
100
AcDbLine
 10
-2951.638654910967
 20
-5385.132091488047
 30
0.0
 11
-2892.638654910967
 21
-5385.132091488047
 31
0.0
  0
LINE
  5
8E7B
330
1F
100
AcDbEntity
  8
0
  6
Continuous
370
     5
100
AcDbLine
 10
-2892.638654910968
 20
-5624.132091488047
 30
0.0
 11
-2951.638654910968
 21
-5624.132091488047
 31
0.0
  0
LINE
  5
8E7C
330
1F
100
AcDbEntity
  8
0
  6
Continuous
370
     5
100
AcDbLine
 10
-2951.638654910968
 20
-5624.132091488047
 30
0.0
 11
-2951.638654910968
 21
-5565.132091488047
 31
0.0
  0
LINE
  5
8E7D
330
1F
100
AcDbEntity
  8
0
  6
Continuous
370
     5
100
AcDbLine
 10
-2951.638654910968
 20
-5565.132091488047
 30
0.0
 11
-2892.638654910967
 21
-5565.132091488047
 31
0.0
  0
LINE
  5
8E7E
330
1F
100
AcDbEntity
  8
0
  6
Continuous
370
     5
100
AcDbLine
 10
-2892.638654910971
 20
-5804.132091488047
 30
0.0
 11
-2951.638654910971
 21
-5804.132091488047
 31
0.0
  0
LINE
  5
8E7F
330
1F
100
AcDbEntity
  8
0
  6
Continuous
370
     5
100
AcDbLine
 10
-2951.638654910971
 20
-5804.132091488047
 30
0.0
 11
-2951.638654910971
 21
-5745.132091488047
 31
0.0
  0
LINE
  5
8E80
330
1F
100
AcDbEntity
  8
0
  6
Continuous
370
     5
100
AcDbLine
 10
-2892.638654910978
 20
-4056.132091488047
 30
0.0
 11
-2942.638654910977
 21
-4056.132091488044
 31
0.0
  0
LINE
  5
8E81
330
1F
100
AcDbEntity
  8
0
  6
Continuous
370
     5
100
AcDbLine
 10
-2942.638654910977
 20
-4056.132091488044
 30
0.0
 11
-2942.638654910977
 21
-4106.132091488045
 31
0.0
  0
LINE
  5
8E82
330
1F
100
AcDbEntity
  8
0
  6
Continuous
370
     5
100
AcDbLine
 10
-2942.638654910977
 20
-4106.132091488045
 30
0.0
 11
-2892.638654910976
 21
-4106.132091488047
 31
0.0
  0
LINE
  5
8E83
330
1F
100
AcDbEntity
  8
0
  6
Continuous
370
     5
100
AcDbLine
 10
-2942.63865491097
 20
-3906.132091488045
 30
0.0
 11
-2942.638654910972
 21
-3956.132091488046
 31
0.0
  0
LINE
  5
8E84
330
1F
100
AcDbEntity
  8
0
  6
Continuous
370
     5
100
AcDbLine
 10
-2942.638654910972
 20
-3956.132091488046
 30
0.0
 11
-2892.638654910971
 21
-3956.132091488047
 31
0.0
  0
LINE
  5
8E85
330
1F
100
AcDbEntity
  8
0
  6
Continuous
370
     5
100
AcDbLine
 10
-2892.638654910971
 20
-3956.132091488047
 30
0.0
 11
-2892.638654910968
 21
-3756.132091488048
 31
0.0
  0
LINE
  5
8E86
330
1F
100
AcDbEntity
  8
0
  6
Continuous
370
     5
100
AcDbLine
 10
-2912.63865491098
 20
-4491.132091488046
 30
0.0
 11
-2912.638654910976
 21
-4256.132091488047
 31
0.0
  0
LINE
  5
8E87
330
1F
100
AcDbEntity
  8
0
  6
Continuous
370
     5
100
AcDbLine
 10
-2912.638654910976
 20
-4206.132091488046
 30
0.0
 11
-2912.638654910973
 21
-4106.132091488045
 31
0.0
  0
LINE
  5
8E88
330
1F
100
AcDbEntity
  8
0
  6
Continuous
370
     5
100
AcDbLine
 10
-2912.638654910971
 20
-4056.132091488045
 30
0.0
 11
-2912.638654910971
 21
-3956.132091488046
 31
0.0
  0
LINE
  5
8E89
330
1F
100
AcDbEntity
  8
0
  6
Continuous
370
     5
100
AcDbLine
 10
-2892.638654910968
 20
-3756.132091488048
 30
0.0
 11
-2942.638654910969
 21
-3756.132091488046
 31
0.0
  0
LINE
  5
8E8A
330
1F
100
AcDbEntity
  8
0
  6
Continuous
370
     5
100
AcDbLine
 10
-2942.638654910969
 20
-3756.132091488046
 30
0.0
 11
-2942.63865491097
 21
-3806.132091488047
 31
0.0
  0
LINE
  5
8E8B
330
1F
100
AcDbEntity
  8
0
  6
Continuous
370
     5
100
AcDbLine
 10
-2892.638654910967
 20
-5984.132091488047
 30
0.0
 11
-2951.638654910971
 21
-5984.132091488047
 31
0.0
  0
LINE
  5
8E8C
330
1F
100
AcDbEntity
  8
0
  6
Continuous
370
     5
100
AcDbLine
 10
-2892.638654910968
 20
-5925.132091488047
 30
0.0
 11
-2951.638654910971
 21
-5925.132091488047
 31
0.0
  0
LINE
  5
8E8D
330
1F
100
AcDbEntity
  8
0
  6
Continuous
370
     5
100
AcDbLine
 10
-2912.638654910969
 20
-5925.132091488047
 30
0.0
 11
-2912.638654910969
 21
-5804.132091488047
 31
0.0
  0
LINE
  5
8E8E
330
1F
100
AcDbEntity
  8
0
  6
Continuous
370
     5
100
AcDbLine
 10
-2892.638654910971
 20
-5804.132091488047
 30
0.0
 11
-2892.638654910968
 21
-5745.132091488047
 31
0.0
  0
LINE
  5
8E8F
330
1F
100
AcDbEntity
  8
0
  6
Continuous
370
     5
100
AcDbLine
 10
-2892.638654910968
 20
-5745.132091488047
 30
0.0
 11
-2951.638654910971
 21
-5745.132091488047
 31
0.0
  0
LINE
  5
8E90
330
1F
100
AcDbEntity
  8
0
  6
Continuous
370
     5
100
AcDbLine
 10
-2912.638654910969
 20
-5745.132091488047
 30
0.0
 11
-2912.638654910969
 21
-5624.132091488047
 31
0.0
  0
LINE
  5
8E91
330
1F
100
AcDbEntity
  8
0
  6
Continuous
370
     5
100
AcDbLine
 10
-2892.638654910968
 20
-5624.132091488047
 30
0.0
 11
-2892.638654910968
 21
-5565.132091488047
 31
0.0
  0
LINE
  5
8E92
330
1F
100
AcDbEntity
  8
0
  6
Continuous
370
     5
100
AcDbLine
 10
-2912.638654910969
 20
-5565.132091488047
 30
0.0
 11
-2912.638654910969
 21
-5444.132091488047
 31
0.0
  0
LINE
  5
8E93
330
1F
100
AcDbEntity
  8
0
  6
Continuous
370
     5
100
AcDbLine
 10
-2892.638654910967
 20
-5444.132091488047
 30
0.0
 11
-2892.638654910967
 21
-5385.132091488047
 31
0.0
  0
LINE
  5
8E94
330
1F
100
AcDbEntity
  8
0
  6
Continuous
370
     5
100
AcDbLine
 10
-2912.638654910969
 20
-5385.132091488047
 30
0.0
 11
-2912.638654910969
 21
-5307.132091488047
 31
0.0
  0
LINE
  5
8E95
330
1F
100
AcDbEntity
  8
0
  6
Continuous
370
     5
100
AcDbLine
 10
-3607.63865491097
 20
-4074.132091488047
 30
0.0
 11
-3607.63865491097
 21
-3674.132091488047
 31
0.0
  0
LINE
  5
8E96
330
1F
100
AcDbEntity
  8
0
  6
Continuous
370
     5
100
AcDbLine
 10
-3607.63865491097
 20
-3674.132091488047
 30
0.0
 11
-3127.638654910969
 21
-3674.132091488051
 31
0.0
  0
LINE
  5
8E97
330
1F
100
AcDbEntity
  8
0
  6
Continuous
370
     5
100
AcDbLine
 10
-3127.638654910969
 20
-3674.132091488051
 30
0.0
 11
-3127.638654910969
 21
-3806.132091488047
 31
0.0
  0
LINE
  5
8E98
330
1F
100
AcDbEntity
  8
0
  6
Continuous
370
     5
100
AcDbLine
 10
-3127.638654910969
 20
-3906.132091488047
 30
0.0
 11
-3127.638654910969
 21
-4074.132091488047
 31
0.0
  0
LINE
  5
8E99
102
{ACAD_REACTORS
330
8EDE
330
8EE1
330
8EE5
330
8EE8
102
}
330
1F
100
AcDbEntity
  8
0
  6
Continuous
370
     5
100
AcDbLine
 10
-3033.638654910968
 20
-4074.132091488047
 30
0.0
 11
-3701.638654910968
 21
-4074.132091488047
 31
0.0
  0
LINE
  5
8E9A
102
{ACAD_REACTORS
330
8EDB
330
8EDE
102
}
330
1F
100
AcDbEntity
  8
0
  6
Continuous
370
     5
100
AcDbLine
 10
-1818.638654910967
 20
-4024.132091488047
 30
0.0
 11
-2486.638654910967
 21
-4024.132091488047
 31
0.0
  0
LINE
  5
8E9B
330
1F
100
AcDbEntity
  8
0
  6
Continuous
370
     5
100
AcDbLine
 10
-2742.638654910967
 20
-5759.132091488047
 30
0.0
 11
-2742.638654910968
 21
-5879.132091488047
 31
0.0
  0
LINE
  5
8E9C
330
1F
100
AcDbEntity
  8
0
  6
Continuous
370
     5
100
AcDbLine
 10
-2951.638654910971
 20
-5984.132091488047
 30
0.0
 11
-2951.638654910971
 21
-5925.132091488047
 31
0.0
  0
LINE
  5
8E9D
330
1F
100
AcDbEntity
  8
0
  6
Continuous
370
     5
100
AcDbLine
 10
-2892.638654910971
 20
-5925.132091488047
 30
0.0
 11
-2892.638654910971
 21
-5984.132091488047
 31
0.0
  0
LINE
  5
8E9E
330
1F
100
AcDbEntity
  8
0
  6
Continuous
370
     5
100
AcDbLine
 10
-2702.63865491097
 20
-3781.132091488051
 30
0.0
 11
-2892.638654910976
 21
-3781.132091488049
 31
0.0
  0
LINE
  5
8E9F
330
1F
100
AcDbEntity
  8
0
  6
Continuous
370
     5
100
AcDbLine
 10
-2702.63865491097
 20
-4491.132091488046
 30
0.0
 11
-2702.63865491097
 21
-3781.132091488051
 31
0.0
  0
LINE
  5
8EA0
330
1F
100
AcDbEntity
  8
0
  6
Continuous
370
     5
100
AcDbLine
 10
-2702.63865491097
 20
-4156.132091488046
 30
0.0
 11
-2486.638654910967
 21
-4156.132091488046
 31
0.0
  0
LINE
  5
8EA1
330
1F
100
AcDbEntity
  8
0
  6
Continuous
370
     5
100
AcDbLine
 10
-2892.638654910967
 20
-3906.132091488047
 30
0.0
 11
-3187.638654910969
 21
-3906.132091488047
 31
0.0
  0
LINE
  5
8EA2
330
1F
100
AcDbEntity
  8
0
  6
Continuous
370
     5
100
AcDbLine
 10
-3187.638654910969
 20
-3906.132091488047
 30
0.0
 11
-3187.638654910969
 21
-3806.132091488047
 31
0.0
  0
LINE
  5
8EA3
330
1F
100
AcDbEntity
  8
0
  6
Continuous
370
     5
100
AcDbLine
 10
-3187.638654910969
 20
-3806.132091488047
 30
0.0
 11
-2892.638654910967
 21
-3806.132091488047
 31
0.0
  0
LINE
  5
8EA4
330
1F
100
AcDbEntity
  8
0
  6
Continuous
370
     5
100
AcDbLine
 10
-2912.638654910968
 20
-6159.132091488046
 30
0.0
 11
-2912.638654910969
 21
-5984.132091488047
 31
0.0
  0
LINE
  5
8EA5
330
1F
100
AcDbEntity
  8
0
  6
Continuous
370
     5
100
AcDbLine
 10
-2912.638654910969
 20
-6124.132091488047
 30
0.0
 11
-2702.638654910968
 21
-6124.132091488047
 31
0.0
  0
LINE
  5
8EA6
330
1F
100
AcDbEntity
  8
0
  6
Continuous
370
     5
100
AcDbLine
 10
-2892.63865491098
 20
-4206.132091488046
 30
0.0
 11
-2942.638654910979
 21
-4206.132091488045
 31
0.0
  0
LINE
  5
8EA7
330
1F
100
AcDbEntity
  8
0
  6
Continuous
370
     5
100
AcDbLine
 10
-2942.638654910979
 20
-4206.132091488045
 30
0.0
 11
-2942.638654910981
 21
-4256.132091488047
 31
0.0
  0
LINE
  5
8EA8
330
1F
100
AcDbEntity
  8
0
  6
Continuous
370
     5
100
AcDbLine
 10
-2942.638654910981
 20
-4256.132091488047
 30
0.0
 11
-2892.63865491098
 21
-4256.132091488047
 31
0.0
  0
LINE
  5
8EA9
330
1F
100
AcDbEntity
  8
0
  6
Continuous
370
     5
100
AcDbLine
 10
-2892.63865491098
 20
-4256.132091488047
 30
0.0
 11
-2892.63865491098
 21
-4206.132091488046
 31
0.0
  0
LINE
  5
8EAA
330
1F
100
AcDbEntity
  8
0
  6
Continuous
370
     5
100
AcDbLine
 10
-1633.638654910966
 20
-4370.132091488047
 30
0.0
 11
-1633.638654910966
 21
-4510.132091488047
 31
0.0
  0
LINE
  5
8EAB
330
1F
100
AcDbEntity
  8
0
  6
Continuous
370
     5
100
AcDbLine
 10
-1633.638654910966
 20
-4510.132091488047
 30
0.0
 11
-1821.638654910967
 21
-4510.132091488047
 31
0.0
  0
LINE
  5
8EAC
330
1F
100
AcDbEntity
  8
0
  6
Continuous
370
     5
100
AcDbLine
 10
-1818.638654910967
 20
-4370.132091488047
 30
0.0
 11
-1633.638654910966
 21
-4370.132091488047
 31
0.0
  0
HATCH
  5
8EAD
330
1F
100
AcDbEntity
  8
0
  6
Continuous
370
     5
100
AcDbHatch
 10
0.0
 20
0.0
 30
0.0
210
0.0
220
0.0
230
1.0
  2
SOLID
 70
     1
 71
     0
 91
        1
 92
        7
 72
     0
 73
     1
 93
        5
 10
-1878.638654910968
 20
-4490.132091488047
 10
-1818.638654910967
 20
-4490.132091488047
 10
-1818.638654910967
 20
-4980.132091488047
 10
-1857.638654910967
 20
-4980.132091488047
 10
-1878.638654910966
 20
-4980.132091488048
 97
        0
 75
     0
 76
     1
 47
4.458612059279953
 98
        1
 10
-1855.530563644517
 20
-4809.518325105211
1001
ACAD
1010
0.0
1020
0.0
1030
0.0
  0
HATCH
  5
8EAE
330
1F
100
AcDbEntity
  8
0
  6
Continuous
370
     5
100
AcDbHatch
 10
0.0
 20
0.0
 30
0.0
210
0.0
220
0.0
230
1.0
  2
SOLID
 70
     1
 71
     1
 91
        1
 92
        7
 72
     0
 73
     1
 93
        6
 10
-1878.638654910967
 20
-5699.132091488047
 10
-1902.638654910967
 20
-5699.132091488048
 10
-1902.638654910967
 20
-5759.132091488048
 10
-1818.638654910966
 20
-5759.132091488047
 10
-1818.638654910967
 20
-5080.132091488047
 10
-1878.638654910966
 20
-5080.132091488047
 97
        6
330
8ECA
330
8ECB
330
8ECC
330
8EB0
330
8EBE
330
8ED1
 75
     0
 76
     1
 47
4.458612059279953
 98
        1
 10
-1859.992158247644
 20
-5705.699350472936
1001
ACAD
1010
0.0
1020
0.0
1030
0.0
  0
HATCH
  5
8EAF
330
1F
100
AcDbEntity
  8
0
  6
Continuous
370
     5
100
AcDbHatch
 10
0.0
 20
0.0
 30
0.0
210
0.0
220
0.0
230
1.0
  2
SOLID
 70
     1
 71
     1
 91
        1
 92
        7
 72
     0
 73
     1
 93
        4
 10
-1878.638654910966
 20
-4490.132091488047
 10
-1818.638654910967
 20
-4490.132091488047
 10
-1818.638654910967
 20
-4390.132091488047
 10
-1878.638654910966
 20
-4390.132091488047
 97
        4
330
8ECE
330
8EB0
330
8ECD
330
8ECB
 75
     0
 76
     1
 47
3.50897847525783
 98
        1
 10
-1868.709581535464
 20
-4440.576518308331
1001
ACAD
1010
0.0
1020
0.0
1030
0.0
  0
LINE
  5
8EB0
102
{ACAD_REACTORS
330
8EAE
330
8EDB
330
8EAF
102
}
330
1F
100
AcDbEntity
  8
0
  6
Continuous
370
     5
100
AcDbLine
 10
-1818.638654910967
 20
-6159.132091488046
 30
0.0
 11
-1818.638654910967
 21
-4024.132091488047
 31
0.0
  0
LINE
  5
8EB1
330
1F
100
AcDbEntity
  8
0
  6
Continuous
370
     5
100
AcDbLine
 10
-2402.638654910967
 20
-6159.132091488046
 30
0.0
 11
-2152.638654910967
 21
-5879.132091488047
 31
0.0
  0
LINE
  5
8EB2
330
1F
100
AcDbEntity
  8
0
  6
Continuous
370
     5
100
AcDbLine
 10
-2152.638654910967
 20
-5879.132091488047
 30
0.0
 11
-1867.638654910966
 21
-6159.132091488046
 31
0.0
  0
LINE
  5
8EB3
330
1F
100
AcDbEntity
  8
0
  6
Continuous
370
     5
100
AcDbLine
 10
-2912.638654910973
 20
-4156.132091488045
 30
0.0
 11
-3050.638654910969
 21
-4156.132091488046
 31
0.0
  0
HATCH
  5
8EB4
330
1F
100
AcDbEntity
  8
0
  6
Continuous
370
     5
100
AcDbHatch
 10
0.0
 20
0.0
 30
0.0
210
0.0
220
0.0
230
1.0
  2
SOLID
 70
     1
 71
     0
 91
        1
 92
        7
 72
     0
 73
     1
 93
       22
 10
-3701.638654910968
 20
-4074.132091488047
 10
-3033.638654910971
 20
-4074.132091488047
 10
-3033.638654910968
 20
-4491.132091488046
 10
-2486.638654910965
 20
-4491.132091488048
 10
-2486.638654910969
 20
-4024.132091488047
 10
-1818.638654910968
 20
-4024.132091488047
 10
-1818.638654910968
 20
-4390.132091488047
 10
-1878.638654910966
 20
-4390.132091488047
 10
-1878.638654910968
 20
-4084.132091488046
 10
-2426.638654910967
 20
-4084.132091488046
 10
-2426.638654910967
 20
-4551.132091488047
 10
-3093.638654910968
 20
-4551.132091488047
 10
-3093.638654910968
 20
-4134.132091488046
 10
-3641.63865491097
 20
-4134.132091488046
 10
-3641.63865491097
 20
-5384.132091488047
 10
-3093.63865491097
 20
-5384.132091488047
 10
-3093.638654910968
 20
-5247.132091488047
 10
-2892.638654910967
 20
-5247.132091488047
 10
-2892.638654910968
 20
-5307.132091488047
 10
-3033.638654910968
 20
-5307.132091488047
 10
-3033.638654910968
 20
-5444.132091488047
 10
-3701.638654910968
 20
-5444.132091488047
 97
        0
 75
     0
 76
     1
 47
2.254942482602806
 98
        1
 10
-3465.58161181845
 20
-4097.943662480783
1001
ACAD
1010
0.0
1020
0.0
1030
0.0
  0
LINE
  5
8EB5
330
1F
100
AcDbEntity
  8
0
  6
Continuous
370
     5
100
AcDbLine
 10
-2486.638654910967
 20
-4024.132091488047
 30
0.0
 11
-2486.638654910967
 21
-4491.132091488046
 31
0.0
  0
LINE
  5
8EB6
330
1F
100
AcDbEntity
  8
0
  6
Continuous
370
     5
100
AcDbLine
 10
-2486.638654910967
 20
-4491.132091488046
 30
0.0
 11
-3033.638654910968
 21
-4491.132091488046
 31
0.0
  0
LINE
  5
8EB7
330
1F
100
AcDbEntity
  8
0
  6
Continuous
370
     5
100
AcDbLine
 10
-3033.638654910968
 20
-4491.132091488046
 30
0.0
 11
-3033.638654910968
 21
-4074.132091488047
 31
0.0
  0
LINE
  5
8EB8
330
1F
100
AcDbEntity
  8
0
  6
Continuous
370
     5
100
AcDbLine
 10
-3701.638654910968
 20
-4074.132091488047
 30
0.0
 11
-3701.638654910968
 21
-5444.132091488047
 31
0.0
  0
LINE
  5
8EB9
102
{ACAD_REACTORS
330
8EE8
330
8EEB
102
}
330
1F
100
AcDbEntity
  8
0
  6
Continuous
370
     5
100
AcDbLine
 10
-3701.638654910968
 20
-5444.132091488047
 30
0.0
 11
-3033.638654910968
 21
-5444.132091488047
 31
0.0
  0
LINE
  5
8EBA
330
1F
100
AcDbEntity
  8
0
  6
Continuous
370
     5
100
AcDbLine
 10
-3033.638654910968
 20
-5444.132091488047
 30
0.0
 11
-3033.638654910968
 21
-5307.132091488047
 31
0.0
  0
HATCH
  5
8EBB
330
1F
100
AcDbEntity
  8
0
  6
Continuous
370
     5
100
AcDbHatch
 10
0.0
 20
0.0
 30
0.0
210
0.0
220
0.0
230
1.0
  2
SOLID
 70
     1
 71
     0
 91
        1
 92
        7
 72
     0
 73
     1
 93
        8
 10
-2486.638654910967
 20
-5307.132091488047
 10
-2702.638654910967
 20
-5307.132091488047
 10
-2702.638654910968
 20
-5247.132091488047
 10
-2426.638654910967
 20
-5247.132091488047
 10
-2426.638654910967
 20
-5699.132091488047
 10
-2402.638654910967
 20
-5699.132091488047
 10
-2402.638654910967
 20
-5759.132091488047
 10
-2486.638654910967
 20
-5759.132091488047
 97
        0
 75
     0
 76
     1
 47
4.526617526325563
 98
        1
 10
-2458.393038007611
 20
-5652.259023486997
1001
ACAD
1010
0.0
1020
0.0
1030
0.0
  0
LINE
  5
8EBC
330
1F
100
AcDbEntity
  8
0
  6
Continuous
370
     5
100
AcDbLine
 10
-3033.638654910968
 20
-5307.132091488047
 30
0.0
 11
-2486.638654910967
 21
-5307.132091488047
 31
0.0
  0
LINE
  5
8EBD
102
{ACAD_REACTORS
330
8EEB
102
}
330
1F
100
AcDbEntity
  8
0
  6
Continuous
370
     5
100
AcDbLine
 10
-2486.638654910967
 20
-5307.132091488047
 30
0.0
 11
-2486.638654910967
 21
-5759.132091488047
 31
0.0
  0
LINE
  5
8EBE
102
{ACAD_REACTORS
330
8EAE
102
}
330
1F
100
AcDbEntity
  8
0
  6
Continuous
370
     5
100
AcDbLine
 10
-1818.638654910967
 20
-5759.132091488047
 30
0.0
 11
-2742.638654910967
 21
-5759.132091488047
 31
0.0
  0
LINE
  5
8EBF
330
1F
100
AcDbEntity
  8
0
  6
Continuous
370
     5
100
AcDbLine
 10
-1818.638654910967
 20
-4024.132091488047
 30
0.0
 11
-1818.638654910967
 21
-4024.132091488047
 31
0.0
  0
LINE
  5
8EC0
330
1F
100
AcDbEntity
  8
0
  6
Continuous
370
     5
100
AcDbLine
 10
-1878.638654910966
 20
-4084.132091488046
 30
0.0
 11
-2426.638654910967
 21
-4084.132091488046
 31
0.0
  0
LINE
  5
8EC1
330
1F
100
AcDbEntity
  8
0
  6
Continuous
370
     5
100
AcDbLine
 10
-2426.638654910967
 20
-4084.132091488046
 30
0.0
 11
-2426.638654910967
 21
-4551.132091488047
 31
0.0
  0
LINE
  5
8EC2
330
1F
100
AcDbEntity
  8
0
  6
Continuous
370
     5
100
AcDbLine
 10
-2426.638654910967
 20
-4551.132091488047
 30
0.0
 11
-3093.638654910968
 21
-4551.132091488047
 31
0.0
  0
LINE
  5
8EC3
330
1F
100
AcDbEntity
  8
0
  6
Continuous
370
     5
100
AcDbLine
 10
-3093.638654910968
 20
-4551.132091488047
 30
0.0
 11
-3093.638654910968
 21
-4134.132091488047
 31
0.0
  0
LINE
  5
8EC4
330
1F
100
AcDbEntity
  8
0
  6
Continuous
370
     5
100
AcDbLine
 10
-3093.638654910968
 20
-4134.132091488047
 30
0.0
 11
-3641.638654910968
 21
-4134.132091488047
 31
0.0
  0
LINE
  5
8EC5
330
1F
100
AcDbEntity
  8
0
  6
Continuous
370
     5
100
AcDbLine
 10
-3641.638654910968
 20
-4134.132091488047
 30
0.0
 11
-3641.638654910968
 21
-5384.132091488047
 31
0.0
  0
LINE
  5
8EC6
330
1F
100
AcDbEntity
  8
0
  6
Continuous
370
     5
100
AcDbLine
 10
-3641.638654910968
 20
-5384.132091488047
 30
0.0
 11
-3093.638654910968
 21
-5384.132091488047
 31
0.0
  0
LINE
  5
8EC7
330
1F
100
AcDbEntity
  8
0
  6
Continuous
370
     5
100
AcDbLine
 10
-3093.638654910968
 20
-5384.132091488047
 30
0.0
 11
-3093.638654910968
 21
-5247.132091488047
 31
0.0
  0
LINE
  5
8EC8
330
1F
100
AcDbEntity
  8
0
  6
Continuous
370
     5
100
AcDbLine
 10
-3093.638654910968
 20
-5247.132091488047
 30
0.0
 11
-2426.638654910967
 21
-5247.132091488047
 31
0.0
  0
LINE
  5
8EC9
330
1F
100
AcDbEntity
  8
0
  6
Continuous
370
     5
100
AcDbLine
 10
-2426.638654910967
 20
-5247.132091488047
 30
0.0
 11
-2426.638654910967
 21
-5699.132091488047
 31
0.0
  0
LINE
  5
8ECA
102
{ACAD_REACTORS
330
8EAE
102
}
330
1F
100
AcDbEntity
  8
0
  6
Continuous
370
     5
100
AcDbLine
 10
-2426.638654910967
 20
-5699.132091488047
 30
0.0
 11
-1878.638654910966
 21
-5699.132091488047
 31
0.0
  0
LINE
  5
8ECB
102
{ACAD_REACTORS
330
8EAE
330
8EAF
102
}
330
1F
100
AcDbEntity
  8
0
  6
Continuous
370
     5
100
AcDbLine
 10
-1878.638654910966
 20
-5699.132091488047
 30
0.0
 11
-1878.638654910966
 21
-4084.132091488046
 31
0.0
  0
LINE
  5
8ECC
102
{ACAD_REACTORS
330
8EAE
102
}
330
1F
100
AcDbEntity
  8
0
  6
Continuous
370
     5
100
AcDbLine
 10
-1878.638654910966
 20
-5080.132091488047
 30
0.0
 11
-1818.638654910967
 21
-5080.132091488047
 31
0.0
  0
LINE
  5
8ECD
102
{ACAD_REACTORS
330
8EAF
102
}
330
1F
100
AcDbEntity
  8
0
  6
Continuous
370
     5
100
AcDbLine
 10
-1878.638654910966
 20
-4490.132091488047
 30
0.0
 11
-1818.638654910967
 21
-4490.132091488047
 31
0.0
  0
LINE
  5
8ECE
102
{ACAD_REACTORS
330
8EAF
102
}
330
1F
100
AcDbEntity
  8
0
  6
Continuous
370
     5
100
AcDbLine
 10
-1818.638654910967
 20
-4390.132091488047
 30
0.0
 11
-1878.638654910966
 21
-4390.132091488047
 31
0.0
  0
LINE
  5
8ECF
330
1F
100
AcDbEntity
  8
0
  6
Continuous
370
     5
100
AcDbLine
 10
-2892.638654910968
 20
-5307.132091488047
 30
0.0
 11
-2892.638654910968
 21
-5247.132091488047
 31
0.0
  0
LINE
  5
8ED0
330
1F
100
AcDbEntity
  8
0
  6
Continuous
370
     5
100
AcDbLine
 10
-2402.638654910967
 20
-5699.132091488047
 30
0.0
 11
-2402.638654910967
 21
-5759.132091488047
 31
0.0
  0
LINE
  5
8ED1
102
{ACAD_REACTORS
330
8EAE
102
}
330
1F
100
AcDbEntity
  8
0
  6
Continuous
370
     5
100
AcDbLine
 10
-1902.638654910967
 20
-5759.132091488047
 30
0.0
 11
-1902.638654910967
 21
-5699.132091488047
 31
0.0
  0
HATCH
  5
8ED2
330
1F
100
AcDbEntity
  8
0
  6
Continuous
370
     5
100
AcDbHatch
 10
0.0
 20
0.0
 30
0.0
210
0.0
220
0.0
230
1.0
  2
SOLID
 70
     1
 71
     0
 91
        1
 92
        7
 72
     1
 73
     1
 93
        7
 10
-2702.638654910967
 20
-5405.132091488045
 42
0.0
 10
-2589.453968923312
 20
-5405.132091488047
 42
0.0378674042017742
 10
-2583.638654910967
 20
-5410.017492391133
 42
0.0
 10
-2583.638654910967
 20
-5444.132091488047
 42
0.0
 10
-2699.106530691425
 20
-5444.132091488047
 42
0.010916809744984
 10
-2700.843416664748
 20
-5442.794137365776
 42
0.0195525319918788
 10
-2702.638654910967
 20
-5438.523397931307
 42
0.0
 97
        0
 75
     0
 76
     1
 47
0.4444408470050192
 98
        1
 10
-2638.998515381389
 20
-5417.141033092377
1001
ACAD
1010
0.0
1020
0.0
1030
0.0
  0
HATCH
  5
8ED3
330
1F
100
AcDbEntity
  8
0
  6
Continuous
370
     5
100
AcDbHatch
 10
0.0
 20
0.0
 30
0.0
210
0.0
220
0.0
230
1.0
  2
SOLID
 70
     1
 71
     0
 91
        1
 92
        7
 72
     1
 73
     1
 93
        3
 10
-2589.453968923312
 20
-5405.132091488047
 42
0.0
 10
-2583.638654910967
 20
-5405.132091488047
 42
0.0
 10
-2583.638654910967
 20
-5410.017492391131
 42
-0.0378674042017713
 97
        0
 75
     0
 76
     1
 47
0.054830460333425
 98
        1
 10
-2585.397045785138
 20
-5407.146883400668
1001
ACAD
1010
0.0
1020
0.0
1030
0.0
  0
HATCH
  5
8ED4
330
1F
100
AcDbEntity
  8
0
  6
Continuous
370
     5
100
AcDbHatch
 10
0.0
 20
0.0
 30
0.0
210
0.0
220
0.0
230
1.0
  2
SOLID
 70
     1
 71
     0
 91
        1
 92
        7
 72
     0
 73
     1
 93
        4
 10
-2702.638654910967
 20
-5430.132091488046
 10
-2583.638654910969
 20
-5430.132091488046
 10
-2583.638654910967
 20
-5444.132091488047
 10
-2702.638654910968
 20
-5444.132091488047
 97
        0
 75
     0
 76
     1
 47
0.1302003748608583
 98
        1
 10
-2701.556074282044
 20
-5442.527154593157
1001
ACAD
1010
0.0
1020
0.0
1030
0.0
  0
LINE
  5
8ED5
330
1F
100
AcDbEntity
  8
0
  6
Continuous
370
     5
100
AcDbLine
 10
-2702.638654910967
 20
-5430.132091488047
 30
0.0
 11
-2583.638654910967
 21
-5430.132091488047
 31
0.0
  0
LINE
  5
8ED6
330
1F
100
AcDbEntity
  8
0
  6
Continuous
370
     5
100
AcDbLine
 10
-2702.638654910967
 20
-5405.132091488047
 30
0.0
 11
-2583.638654910967
 21
-5405.132091488047
 31
0.0
  0
LINE
  5
8ED7
330
1F
100
AcDbEntity
  8
0
  6
Continuous
370
     5
100
AcDbLine
 10
-2583.638654910967
 20
-5444.132091488047
 30
0.0
 11
-2702.638654910967
 21
-5444.132091488047
 31
0.0
  0
LINE
  5
8ED8
330
1F
100
AcDbEntity
  8
0
  6
Continuous
370
     5
100
AcDbLine
 10
-1818.638654910965
 20
-4980.132091488047
 30
0.0
 11
-1878.638654910966
 21
-4980.132091488047
 31
0.0
  0
DIMENSION
  5
8ED9
102
{ACAD_XDICTIONARY
360
8EDA
102
}
102
{ACAD_REACTORS
330
8EDB
102
}
330
1F
100
AcDbEntity
  8
0Wymiary-PL
100
AcDbDimension
  2
*D29
 10
-2486.638654910967
 20
-3502.174664763578
 30
0.0
 11
-2152.638654910967
 21
-3422.174664763577
 31
0.0
 70
    32
 71
     5
 42
668.0
  3
500
100
AcDbAlignedDimension
 13
-1818.638654910967
 23
-4024.132091488047
 33
0.0
 14
-2486.638654910967
 24
-4024.132091488047
 34
0.0
 50
180.0
100
AcDbRotatedDimension
  0
DIMENSION
  5
8EDC
102
{ACAD_XDICTIONARY
360
8EDD
102
}
102
{ACAD_REACTORS
330
8EDE
102
}
330
1F
100
AcDbEntity
  8
0Wymiary-PL
100
AcDbDimension
  2
*D30
 10
-3033.63865491097
 20
-3502.174664763578
 30
0.0
 11
-2760.138654910968
 21
-3422.174664763577
 31
0.0
 70
    32
 71
     5
 42
547.0000000000027
  3
500
100
AcDbAlignedDimension
 13
-2486.638654910967
 23
-4024.132091488047
 33
0.0
 14
-3033.63865491097
 24
-4074.132091488047
 34
0.0
 50
180.0
100
AcDbRotatedDimension
  0
DIMENSION
  5
8EDF
102
{ACAD_XDICTIONARY
360
8EE0
102
}
102
{ACAD_REACTORS
330
8EE1
102
}
330
1F
100
AcDbEntity
  8
0Wymiary-PL
100
AcDbDimension
  2
*D31
 10
-3701.638654910968
 20
-3502.174664763578
 30
0.0
 11
-3367.638654910969
 21
-3422.174664763577
 31
0.0
 70
    32
 71
     5
 42
668.0
  3
500
100
AcDbAlignedDimension
 13
-3033.638654910968
 23
-4074.132091488047
 33
0.0
 14
-3701.638654910968
 24
-4074.132091488047
 34
0.0
 50
180.0
100
AcDbRotatedDimension
  0
DIMENSION
  5
8EE2
330
1F
100
AcDbEntity
  8
0Wymiary-PL
100
AcDbDimension
  2
*D27
 10
-1818.638654910967
 20
-3219.257263830022
 30
0.0
 11
-2760.138654910968
 21
-3139.257263830022
 31
0.0
 70
    32
 71
     5
 42
1883.000000000002
  3
500
100
AcDbAlignedDimension
 13
-3701.63865491097
 23
-4074.132091488047
 33
0.0
 14
-1818.638654910967
 24
-4024.132091488047
 34
0.0
 50
180.0
100
AcDbRotatedDimension
  0
DIMENSION
  5
8EE3
102
{ACAD_XDICTIONARY
360
8EE4
102
}
102
{ACAD_REACTORS
330
8EE5
102
}
330
1F
100
AcDbEntity
  8
0Wymiary-PL
100
AcDbDimension
  2
*D32
 10
-3975.194923241691
 20
-4074.132091488047
 30
0.0
 11
-4055.194923241691
 21
-4049.132091488046
 31
0.0
 70
    32
 71
     5
 42
50.00000000000046
  3
500
100
AcDbAlignedDimension
 13
-2486.638654910967
 23
-4024.132091488047
 33
0.0
 14
-3367.638654910969
 24
-4074.132091488047
 34
0.0
 50
90.0
100
AcDbRotatedDimension
  0
DIMENSION
  5
8EE6
102
{ACAD_XDICTIONARY
360
8EE7
102
}
102
{ACAD_REACTORS
330
8EE8
102
}
330
1F
100
AcDbEntity
  8
0Wymiary-PL
100
AcDbDimension
  2
*D33
 10
-3975.194923241691
 20
-5444.132091488047
 30
0.0
 11
-4055.19492324169
 21
-4759.132091488047
 31
0.0
 70
    32
 71
     5
 42
1370.0
  3
500
100
AcDbAlignedDimension
 13
-3367.638654910969
 23
-4074.132091488047
 33
0.0
 14
-3701.638654910968
 24
-5444.132091488047
 34
0.0
 50
90.0
100
AcDbRotatedDimension
  0
DIMENSION
  5
8EE9
102
{ACAD_XDICTIONARY
360
8EEA
102
}
102
{ACAD_REACTORS
330
8EEB
102
}
330
1F
100
AcDbEntity
  8
0Wymiary-PL
100
AcDbDimension
  2
*D34
 10
-3975.194923241691
 20
-5759.132091488047
 30
0.0
 11
-4055.19492324169
 21
-5601.632091488048
 31
0.0
 70
    32
 71
     5
 42
315.0
  3
500
100
AcDbAlignedDimension
 13
-3701.638654910968
 23
-5444.132091488047
 33
0.0
 14
-2486.638654910967
 24
-5759.132091488047
 34
0.0
 50
90.0
100
AcDbRotatedDimension
  0
DIMENSION
  5
8EEC
330
1F
100
AcDbEntity
  8
0Wymiary-PL
100
AcDbDimension
  2
*D28
 10
-4228.798916874026
 20
-4024.132091488046
 30
0.0
 11
-4308.798916874025
 21
-4891.632091488047
 31
0.0
 70
    32
 71
     5
 42
1735.000000000001
  3
500
100
AcDbAlignedDimension
 13
-2486.638654910967
 23
-5759.132091488047
 33
0.0
 14
-2486.638654910967
 24
-4024.132091488047
 34
0.0
 50
90.0
100
AcDbRotatedDimension
  0
LINE
  5
8EED
330
1F
100
AcDbEntity
  8
0
  6
Continuous
370
     5
100
AcDbLine
 10
-2892.638654910978
 20
-4056.132091488047
 30
0.0
 11
-2892.638654910978
 21
-4106.132091488047
 31
0.0
  0
LINE
  5
8F58
330
1F
100
AcDbEntity
  8
0Hatch
 48
4.0
100
AcDbLine
 10
-10545.7123178019
 20
-4.866893092788814
 30
0.0
 11
-345.7123178018737
 21
-4.866893092788814
 31
0.0
  0
LINE
  5
8F59
330
1F
100
AcDbEntity
  8
0Hatch
 48
4.0
100
AcDbLine
 10
-345.7123178018737
 20
-14024.86689309279
 30
0.0
 11
-10545.7123178019
 21
-14024.86689309279
 31
0.0
  0
VIEWPORT
  5
2287
102
{ACAD_XDICTIONARY
360
8F65
102
}
330
2286
100
AcDbEntity
 67
     1
  8
0
100
AcDbViewport
 10
9.995958042144778
 20
14.44015336361602
 30
0.0
 40
50.32605766066355
 41
31.61660563622863
 68
     1
 69
     1
 12
9.995958042144778
 22
14.44015336361602
 13
0.0
 23
0.0
 14
10.0
 24
10.0
 15
10.0
 25
10.0
 16
0.0
 26
0.0
 36
1.0
 17
0.0
 27
0.0
 37
0.0
 42
50.0
 43
0.0
 44
0.0
 45
31.61660563622863
 50
0.0
 51
0.0
 72
 20000
 90
    32800
  1

281
     0
 71
     1
 74
     0
110
0.0
120
0.0
130
0.0
111
1.0
121
0.0
131
0.0
112
0.0
122
1.0
132
0.0
 79
     0
146
0.0
  0
VIEWPORT
  5
2288
102
{ACAD_XDICTIONARY
360
8F67
102
}
330
2286
100
AcDbEntity
 67
     1
  8
A-Vports
100
AcDbViewport
 10
9.747079199648887
 20
18.55533224320765
 30
0.0
 40
20.25130890879852
 41
19.85248457057948
 68
     2
 69
     2
 12
-7887.401374393208
 22
-6443.132610949787
 13
0.0
 23
0.0
 14
1.0
 24
1.0
 15
3000.0
 25
3000.0
 16
0.0
 26
0.0
 36
1.0
 17
8810.869164676194
 27
5671.949479677537
 37
116.1759987568176
 42
50.0
 43
0.0
 44
0.0
 45
1985.248457057948
 50
0.0
 51
0.0
 72
 20000
 90
    49184
  1

281
     0
 71
     1
 74
     0
110
0.0
120
0.0
130
0.0
111
1.0
121
0.0
131
0.0
112
0.0
122
1.0
132
0.0
 79
     1
146
0.0
  0
INSERT
  5
2289
330
2286
100
AcDbEntity
 67
     1
  8
A-Annotation-T
100
AcDbBlockReference
  2
koncepcja-opis-A4
 10
19.91061835521796
 20
0.3294016425986257
 30
0.0
  0
LINE
  5
2DC4
330
2286
100
AcDbEntity
 67
     1
  8
A-Annotation-T
 62
   142
370
     9
100
AcDbLine
 10
8.560028953245151
 20
0.1807636100571841
 30
0.0
 11
18.91251385662981
 21
0.1807636100571841
 31
0.0
  0
TEXT
  5
2DD0
330
2286
100
AcDbEntity
 67
     1
  8
A-Annotation-T
100
AcDbText
 10
8.696551175671743
 20
0.2497827361088625
 30
0.0
 40
0.2
  1
Dyr. Generalny
  7
ARIAL-CE
100
AcDbText
  0
LINE
  5
2DDE
330
2286
100
AcDbEntity
 67
     1
  8
A-Annotation-T
 62
   142
370
     9
100
AcDbLine
 10
8.560028953245153
 20
2.630763610057183
 30
0.0
 11
8.560028953245151
 21
0.1807636100571841
 31
0.0
  0
LINE
  5
2DDF
330
2286
100
AcDbEntity
 67
     1
  8
A-Annotation-T
 62
   142
370
     9
100
AcDbLine
 10
10.91251385662981
 20
2.980763610057184
 30
0.0
 11
10.91251385662981
 21
0.1807636100571841
 31
0.0
  0
LINE
  5
2DE8
330
2286
100
AcDbEntity
 67
     1
  8
A-Annotation-T
 62
   142
370
     9
100
AcDbLine
 10
8.560028953245151
 20
0.5307636100571842
 30
0.0
 11
18.91251385662981
 21
0.5307636100571842
 31
0.0
  0
LINE
  5
2DE9
330
2286
100
AcDbEntity
 67
     1
  8
A-Annotation-T
 62
   142
370
     9
100
AcDbLine
 10
8.560028953245151
 20
0.8807636100571837
 30
0.0
 11
18.91251385662981
 21
0.8807636100571837
 31
0.0
  0
LINE
  5
2DEA
330
2286
100
AcDbEntity
 67
     1
  8
A-Annotation-T
 62
   142
370
     9
100
AcDbLine
 10
8.560028953245151
 20
1.230763610057183
 30
0.0
 11
18.91251385662981
 21
1.230763610057183
 31
0.0
  0
LINE
  5
2DEB
330
2286
100
AcDbEntity
 67
     1
  8
A-Annotation-T
 62
   142
370
     9
100
AcDbLine
 10
8.560028953245151
 20
1.580763610057183
 30
0.0
 11
18.91251385662981
 21
1.580763610057183
 31
0.0
  0
LINE
  5
2DEC
330
2286
100
AcDbEntity
 67
     1
  8
A-Annotation-T
 62
   142
370
     9
100
AcDbLine
 10
8.560028953245151
 20
1.930763610057183
 30
0.0
 11
18.91251385662981
 21
1.930763610057183
 31
0.0
  0
LINE
  5
2DED
330
2286
100
AcDbEntity
 67
     1
  8
A-Annotation-T
 62
   142
370
     9
100
AcDbLine
 10
8.560028953245151
 20
2.280763610057183
 30
0.0
 11
18.91251385662981
 21
2.280763610057183
 31
0.0
  0
LINE
  5
2DEE
330
2286
100
AcDbEntity
 67
     1
  8
A-Annotation-T
 62
   142
370
     9
100
AcDbLine
 10
8.560028953245153
 20
2.630763610057183
 30
0.0
 11
18.91251385662981
 21
2.630763610057183
 31
0.0
  0
LINE
  5
2DEF
330
2286
100
AcDbEntity
 67
     1
  8
A-Annotation-T
 62
   142
370
     9
100
AcDbLine
 10
10.91251385662981
 20
2.980763610057184
 30
0.0
 11
18.91251385662981
 21
2.980763610057183
 31
0.0
  0
TEXT
  5
2DF0
330
2286
100
AcDbEntity
 67
     1
  8
A-Annotation-T
100
AcDbText
 10
8.696551175671743
 20
0.5997827361088622
 30
0.0
 40
0.2
  1
Dyr. Prac. Proj.
  7
ARIAL-CE
100
AcDbText
  0
TEXT
  5
2DF1
330
2286
100
AcDbEntity
 67
     1
  8
A-Annotation-T
100
AcDbText
 10
8.696551175671743
 20
0.9497827361088621
 30
0.0
 40
0.2
  1
Gł. Instalator
  7
ARIAL-CE
100
AcDbText
  0
TEXT
  5
2DF2
330
2286
100
AcDbEntity
 67
     1
  8
A-Annotation-T
100
AcDbText
 10
8.696551175671743
 20
1.299782736108862
 30
0.0
 40
0.2
  1
Gł. Konstruktor
  7
ARIAL-CE
100
AcDbText
  0
TEXT
  5
2DF3
330
2286
100
AcDbEntity
 67
     1
  8
A-Annotation-T
100
AcDbText
 10
8.696551175671743
 20
1.649782736108861
 30
0.0
 40
0.2
  1
Kierownik DT
  7
ARIAL-CE
100
AcDbText
  0
TEXT
  5
2DF4
330
2286
100
AcDbEntity
 67
     1
  8
A-Annotation-T
100
AcDbText
 10
8.696551175671743
 20
1.999782736108862
 30
0.0
 40
0.2
  1
Kier. Prac. Arch.
  7
ARIAL-CE
100
AcDbText
  0
TEXT
  5
2DF5
330
2286
100
AcDbEntity
 67
     1
  8
A-Annotation-T
100
AcDbText
 10
8.696551175671743
 20
2.349782736108862
 30
0.0
 40
0.2
  1
Autor
  7
ARIAL-CE
100
AcDbText
  0
TEXT
  5
2DF8
330
2286
100
AcDbEntity
 67
     1
  8
A-Annotation-T
100
AcDbText
 10
11.39127411448935
 20
2.715646386646181
 30
0.0
 40
0.18
  1
Przegląd
  7
ARIAL-CE
 72
     1
 11
11.88750194532154
 21
2.715646386646181
 31
0.0
100
AcDbText
  0
LINE
  5
2DF9
330
2286
100
AcDbEntity
 67
     1
  8
A-Annotation-T
 62
   142
370
     9
100
AcDbLine
 10
12.91251385662981
 20
2.980763610057183
 30
0.0
 11
12.91251385662981
 21
0.1807636100571841
 31
0.0
  0
LINE
  5
2DFA
330
2286
100
AcDbEntity
 67
     1
  8
A-Annotation-T
 62
   142
370
     9
100
AcDbLine
 10
14.91251385662981
 20
2.980763610057183
 30
0.0
 11
14.91251385662981
 21
0.1807636100571841
 31
0.0
  0
TEXT
  5
2DFB
330
2286
100
AcDbEntity
 67
     1
  8
A-Annotation-T
100
AcDbText
 10
13.23779526046479
 20
2.715646386646181
 30
0.0
 40
0.18
  1
Weryfikacja
  7
ARIAL-CE
 72
     1
 11
13.88750194532154
 21
2.715646386646181
 31
0.0
100
AcDbText
  0
TEXT
  5
2DFC
330
2286
100
AcDbEntity
 67
     1
  8
A-Annotation-T
100
AcDbText
 10
15.10482118133792
 20
2.715646386646181
 30
0.0
 40
0.18
  1
Zatwierdzenie
  7
ARIAL-CE
 72
     1
 11
15.88750194532154
 21
2.715646386646181
 31
0.0
100
AcDbText
  0
LINE
  5
2DFD
330
2286
100
AcDbEntity
 67
     1
  8
A-Annotation-T
 62
   142
370
     9
100
AcDbLine
 10
16.91251385662981
 20
2.980763610057183
 30
0.0
 11
16.91251385662981
 21
0.1807636100571841
 31
0.0
  0
LINE
  5
2DFE
330
2286
100
AcDbEntity
 67
     1
  8
A-Annotation-T
 62
   142
370
     9
100
AcDbLine
 10
18.91251385662981
 20
2.980763610057183
 30
0.0
 11
18.91251385662981
 21
0.1807636100571841
 31
0.0
  0
TEXT
  5
2DFF
330
2286
100
AcDbEntity
 67
     1
  8
A-Annotation-T
100
AcDbText
 10
17.62192213631745
 20
2.715646386646181
 30
0.0
 40
0.18
  1
Data
  7
ARIAL-CE
 72
     1
 11
17.88750194532154
 21
2.715646386646181
 31
0.0
100
AcDbText
  0
TEXT
  5
2E15
330
2286
100
AcDbEntity
 67
     1
  8
A-Annotation-T
100
AcDbText
 10
13.09199034914146
 20
2.365646386646181
 30
0.0
 40
0.18
  1
-------------------
  7
ARIAL-CE
 72
     1
 11
13.88750194532154
 21
2.365646386646181
 31
0.0
100
AcDbText
  0
TEXT
  5
2E16
330
2286
100
AcDbEntity
 67
     1
  8
A-Annotation-T
100
AcDbText
 10
13.09199034914146
 20
0.265646386646182
 30
0.0
 40
0.18
  1
-------------------
  7
ARIAL-CE
 72
     1
 11
13.88750194532154
 21
0.265646386646182
 31
0.0
100
AcDbText
  0
TEXT
  5
2E17
330
2286
100
AcDbEntity
 67
     1
  8
A-Annotation-T
100
AcDbText
 10
15.09199034914146
 20
2.365646386646181
 30
0.0
 40
0.18
  1
-------------------
  7
ARIAL-CE
 72
     1
 11
15.88750194532155
 21
2.365646386646181
 31
0.0
100
AcDbText
  0
TEXT
  5
2E18
330
2286
100
AcDbEntity
 67
     1
  8
A-Annotation-T
100
AcDbText
 10
15.09199034914146
 20
2.015646386646181
 30
0.0
 40
0.18
  1
-------------------
  7
ARIAL-CE
 72
     1
 11
15.88750194532155
 21
2.015646386646181
 31
0.0
100
AcDbText
  0
TEXT
  5
2E19
330
2286
100
AcDbEntity
 67
     1
  8
A-Annotation-T
100
AcDbText
 10
15.09199034914146
 20
1.665646386646181
 30
0.0
 40
0.18
  1
-------------------
  7
ARIAL-CE
 72
     1
 11
15.88750194532155
 21
1.665646386646181
 31
0.0
100
AcDbText
  0
TEXT
  5
2E1A
330
2286
100
AcDbEntity
 67
     1
  8
A-Annotation-T
100
AcDbText
 10
15.09199034914146
 20
1.315646386646181
 30
0.0
 40
0.18
  1
-------------------
  7
ARIAL-CE
 72
     1
 11
15.88750194532155
 21
1.315646386646181
 31
0.0
100
AcDbText
  0
TEXT
  5
2E1B
330
2286
100
AcDbEntity
 67
     1
  8
A-Annotation-T
100
AcDbText
 10
15.09199034914146
 20
0.9656463866461816
 30
0.0
 40
0.18
  1
-------------------
  7
ARIAL-CE
 72
     1
 11
15.88750194532155
 21
0.9656463866461816
 31
0.0
100
AcDbText
  0
TEXT
  5
2E1C
330
2286
100
AcDbEntity
 67
     1
  8
A-Annotation-T
100
AcDbText
 10
15.09199034914146
 20
0.6156463866461821
 30
0.0
 40
0.18
  1
-------------------
  7
ARIAL-CE
 72
     1
 11
15.88750194532155
 21
0.6156463866461821
 31
0.0
100
AcDbText
  0
VIEWPORT
  5
3846
102
{ACAD_XDICTIONARY
360
8F73
102
}
330
2286
100
AcDbEntity
 67
     1
  8
A-Vports
100
AcDbViewport
 10
4.938181187205142
 20
5.349243298700779
 30
0.0
 40
6.579551456878178
 41
5.609696135299935
 68
     3
 69
     3
 12
-7687.35738379071
 22
-7804.361343137699
 13
0.0
 23
0.0
 14
1.0
 24
1.0
 15
3000.0
 25
3000.0
 16
0.0
 26
0.0
 36
1.0
 17
8810.869164676194
 27
5671.949479677537
 37
116.1759987568176
 42
50.0
 43
0.0
 44
0.0
 45
560.9696135299936
 50
0.0
 51
0.0
 72
 20000
 90
    49184
  1

281
     0
 71
     1
 74
     0
110
0.0
120
0.0
130
0.0
111
1.0
121
0.0
131
0.0
112
0.0
122
1.0
132
0.0
 79
     1
146
0.0
  0
ENDSEC
  0
SECTION
  2
OBJECTS
  0
DICTIONARY
  5
C
330
0
100
AcDbDictionary
281
     1
  3
ACAD_COLOR
350
DC2
  3
ACAD_GROUP
350
D
  3
ACAD_LAYOUT
350
1A
  3
ACAD_MATERIAL
350
DC1
  3
ACAD_MLEADERSTYLE
350
78BB
  3
ACAD_MLINESTYLE
350
17
  3
ACAD_PLOTSETTINGS
350
19
  3
ACAD_PLOTSTYLENAME
350
E
  3
ACAD_SCALELIST
350
78A5
  3
ACAD_TABLESTYLE
350
78A3
  3
ACAD_VISUALSTYLE
350
7892
  3
AcadDim
350
A4E
  3
ACDB_RECOMPOSE_DATA
350
7BA7
  3
AcDbVariableDictionary
350
2C
  3
AEC_2D_SECTION_STYLES
350
85EA
  3
AEC_CLASSIFICATION_SYSTEM_DEFS
350
45E1
  3
AEC_CLEANUP_GROUP_DEFS
350
85F9
  3
AEC_CURTAIN_WALL_LAYOUT_STYLES
350
85FA
  3
AEC_CURTAIN_WALL_UNIT_STYLES
350
85FB
  3
AEC_DIM_STYLES
350
8607
  3
AEC_DISP_REP_CONFIGURATIONS
350
4AE3
  3
AEC_DISP_REP_SETS
350
4AE5
  3
AEC_DISP_REPS
350
30
  3
AEC_DISPLAY_PROPS_DEFAULTS
350
32
  3
AEC_DISPLAYTHEME_STYLES
350
8606
  3
AEC_DOOR_STYLES
350
85F1
  3
AEC_ENDCAP_STYLES
350
85F2
  3
AEC_LAYERKEY_STYLES
350
85E6
  3
AEC_LIST_DEFINITIONS
350
85ED
  3
AEC_MASKBLOCK_DEFS
350
85E7
  3
AEC_MASS_ELEM_STYLES
350
85EC
  3
AEC_MATERIAL_DEFS
350
85EB
  3
AEC_MVBLOCK_DEFS
350
4B94
  3
AEC_OPENING_ENDCAP_STYLES
350
8602
  3
AEC_POLYGON_STYLES
350
85E9
  3
AEC_PROFILE_DEFS
350
85E8
  3
AEC_PROPERTY_FORMAT_DEFS
350
85EE
  3
AEC_PROPERTY_SET_DEFS
350
45E2
  3
AEC_RAILING_STYLES
350
85FD
  3
AEC_ROOFSLAB_STYLES
350
85FE
  3
AEC_ROOFSLABEDGE_STYLES
350
85FF
  3
AEC_SCHEDULE_TABLE_STYLES
350
85E5
  3
AEC_SLAB_STYLES
350
8600
  3
AEC_SLABEDGE_STYLES
350
8601
  3
AEC_SPACE_MODIFIERS
350
8603
  3
AEC_SPACE_STYLES
350
85F3
  3
AEC_STAIR_STYLES
350
85F4
  3
AEC_STAIR_WINDER_STYLES
350
85F5
  3
AEC_STRUCTURALMEMBER_STYLES
350
85EF
  3
AEC_VARS
350
4B96
  3
AEC_WALL_STYLES
350
85F7
  3
AEC_WALLMOD_STYLES
350
85F6
  3
AEC_WINDOW_ASSEMBLY_STYLES
350
85FC
  3
AEC_WINDOW_STYLES
350
85F8
  3
AEC_ZONE_DEFS
350
8605
  3
AEC_ZONE_STYLES
350
8604
  3
AECS_MEMBER_NODE_SHAPE
350
85F0
  3
ASE_INDEX_DICTIONARY
350
7BCE
  3
BNS_VARIABLES
350
42E9
  3
DRCSCALE
350
4E78
  3
DWGPROPS
350
8F60
  3
SALT_DICT
350
4E76
  3
SMARTARCHITECT
350
4E7A
  0
DICTIONARY
  5
91F
330
2
100
AcDbDictionary
280
     1
281
     1
  3
ACAD_LAYERFILTERS
360
920
  3
ACAD_LAYERSTATES
360
923
  0
DICTIONARY
  5
78DC
330
10
100
AcDbDictionary
280
     1
281
     1
  3
ADSK_XREC_LAYER_RECONCILED
360
78DD
  0
DICTIONARY
  5
78EC
330
2269
100
AcDbDictionary
280
     1
281
     1
  3
ADSK_XREC_LAYER_RECONCILED
360
78ED
  0
DICTIONARY
  5
78EE
330
226A
100
AcDbDictionary
280
     1
281
     1
  3
ADSK_XREC_LAYER_RECONCILED
360
78EF
  0
DICTIONARY
  5
790A
330
35AC
100
AcDbDictionary
280
     1
281
     1
  3
ADSK_XREC_LAYER_RECONCILED
360
790B
  0
DICTIONARY
  5
7928
330
48EA
100
AcDbDictionary
280
     1
281
     1
  3
ADSK_XREC_LAYER_RECONCILED
360
7929
  0
DICTIONARY
  5
7930
330
640B
100
AcDbDictionary
280
     1
281
     1
  3
ADSK_XREC_LAYER_RECONCILED
360
7931
  0
DICTIONARY
  5
DE5
330
1F
100
AcDbDictionary
280
     1
281
     1
  3
ACAD_INDEX
360
39DC
  3
ACAD_SORTENTS
360
7CA9
  0
DICTIONARY
  5
239E
330
2286
100
AcDbDictionary
280
     1
281
     1
  0
DICTIONARY
  5
1A8B
330
1A8A
100
AcDbDictionary
280
     1
281
     1
  3
ACAD_SORTENTS
360
7635
  0
DICTIONARY
  5
23AB
330
224D
100
AcDbDictionary
280
     1
281
     1
  3
ACAD_SORTENTS
360
2E14
  0
DICTIONARY
  5
23C4
330
225A
100
AcDbDictionary
280
     1
281
     1
  3
ACAD_SORTENTS
360
2445
  0
DICTIONARY
  5
23B8
330
232B
100
AcDbDictionary
280
     1
281
     1
  0
DICTIONARY
  5
48D5
330
48D4
100
AcDbDictionary
280
     1
281
     1
  3
ACAD_SORTENTS
360
48D6
  0
DICTIONARY
  5
8F6B
330
232C
100
AcDbDictionary
280
     1
281
     1
  3
ACAD_XREC_ROUNDTRIP
360
8F6C
  0
DICTIONARY
  5
8F6D
330
232D
100
AcDbDictionary
280
     1
281
     1
  3
ACAD_XREC_ROUNDTRIP
360
8F6E
  0
DICTIONARY
  5
8B85
330
8B7A
100
AcDbDictionary
280
     1
281
     1
  3
ACAD_DIMASSOC
360
8B8D
  0
DICTIONARY
  5
8B99
330
8B8E
100
AcDbDictionary
280
     1
281
     1
  3
ACAD_DIMASSOC
360
8BA1
  0
DICTIONARY
  5
8BAD
330
8BA2
100
AcDbDictionary
280
     1
281
     1
  3
ACAD_DIMASSOC
360
8BB5
  0
DICTIONARY
  5
8BCE
330
8BC1
100
AcDbDictionary
280
     1
281
     1
  3
ACAD_DIMASSOC
360
8BD8
  0
DICTIONARY
  5
8BE4
330
8BD9
100
AcDbDictionary
280
     1
281
     1
  3
ACAD_DIMASSOC
360
8BEC
  0
DICTIONARY
  5
8BF8
330
8BED
100
AcDbDictionary
280
     1
281
     1
  3
ACAD_DIMASSOC
360
8C00
  0
DICTIONARY
  5
8EDA
330
8ED9
100
AcDbDictionary
280
     1
281
     1
  3
ACAD_DIMASSOC
360
8EDB
  0
DICTIONARY
  5
8EDD
330
8EDC
100
AcDbDictionary
280
     1
281
     1
  3
ACAD_DIMASSOC
360
8EDE
  0
DICTIONARY
  5
8EE0
330
8EDF
100
AcDbDictionary
280
     1
281
     1
  3
ACAD_DIMASSOC
360
8EE1
  0
DICTIONARY
  5
8EE4
330
8EE3
100
AcDbDictionary
280
     1
281
     1
  3
ACAD_DIMASSOC
360
8EE5
  0
DICTIONARY
  5
8EE7
330
8EE6
100
AcDbDictionary
280
     1
281
     1
  3
ACAD_DIMASSOC
360
8EE8
  0
DICTIONARY
  5
8EEA
330
8EE9
100
AcDbDictionary
280
     1
281
     1
  3
ACAD_DIMASSOC
360
8EEB
  0
DICTIONARY
  5
8F65
330
2287
100
AcDbDictionary
280
     1
281
     1
  3
ACAD_XREC_ROUNDTRIP
360
8F66
  0
DICTIONARY
  5
8F67
330
2288
100
AcDbDictionary
280
     1
281
     1
  3
ACAD_XREC_ROUNDTRIP
360
8F68
  0
DICTIONARY
  5
8F73
330
3846
100
AcDbDictionary
280
     1
281
     1
  3
ACAD_XREC_ROUNDTRIP
360
8F74
  0
DICTIONARY
  5
DC2
102
{ACAD_REACTORS
330
C
102
}
330
C
100
AcDbDictionary
281
     1
  0
DICTIONARY
  5
D
102
{ACAD_REACTORS
330
C
102
}
330
C
100
AcDbDictionary
281
     1
  0
DICTIONARY
  5
1A
102
{ACAD_REACTORS
330
C
102
}
330
C
100
AcDbDictionary
281
     1
  3
koncepcja (A3)
350
232A
  3
koncepcja (A4)
350
2285
  3
Model
350
22
  0
DICTIONARY
  5
DC1
102
{ACAD_REACTORS
330
C
102
}
330
C
100
AcDbDictionary
281
     1
  3
ByBlock
350
7882
  3
ByLayer
350
787A
  3
Global
350
788A
  0
DICTIONARY
  5
78BB
102
{ACAD_REACTORS
330
C
102
}
330
C
100
AcDbDictionary
281
     1
  3
Standard
350
78BC
  0
DICTIONARY
  5
17
102
{ACAD_REACTORS
330
C
102
}
330
C
100
AcDbDictionary
281
     1
  3
Standard
350
18
  0
DICTIONARY
  5
19
102
{ACAD_REACTORS
330
C
102
}
330
C
100
AcDbDictionary
281
     1
  3
A3 poziom-DWF-FULL-layout
350
2889
  3
A4 pion-DWF-FULL-layout
350
288A
  0
ACDBDICTIONARYWDFLT
  5
E
102
{ACAD_REACTORS
330
C
102
}
330
C
100
AcDbDictionary
281
     1
  3
Extra Wide
350
2AC
  3
Fine
350
1E1
  3
Medium
350
26D
  3
Normal
350
F
  3
Standard
350
48F2
  3
Thin
350
48F3
  3
Wide
350
48F4
100
AcDbDictionaryWithDefault
340
F
  0
DICTIONARY
  5
78A5
102
{ACAD_REACTORS
330
C
102
}
330
C
100
AcDbDictionary
281
     1
  3
A0
350
78A6
  3
A1
350
78A7
  3
A2
350
78A8
  3
A3
350
78A9
  3
A4
350
78AA
  3
A5
350
78AB
  3
A6
350
78AC
  3
A7
350
78AD
  3
A8
350
78AE
  3
A9
350
78AF
  3
B0
350
78B0
  3
B1
350
78B1
  3
B2
350
78B2
  3
B3
350
78B3
  3
B4
350
78B4
  3
B5
350
78B5
  3
B6
350
78B6
  3
B7
350
78B7
  3
B8
350
78B8
  3
B9
350
78B9
  3
C0
350
78BA
  0
DICTIONARY
  5
78A3
102
{ACAD_REACTORS
330
C
102
}
330
C
100
AcDbDictionary
281
     1
  3
Standard
350
78A4
  0
DICTIONARY
  5
7892
102
{ACAD_REACTORS
330
C
102
}
330
C
100
AcDbDictionary
281
     1
  3
2dWireframe
350
7898
  3
3D Hidden
350
789A
  3
3dWireframe
350
7899
  3
Basic
350
7897
  3
Brighten
350
789E
  3
ColorChange
350
78A2
  3
Conceptual
350
789B
  3
Dim
350
789D
  3
Facepattern
350
78A1
  3
Flat
350
7893
  3
FlatWithEdges
350
7894
  3
Gouraud
350
7895
  3
GouraudWithEdges
350
7896
  3
Linepattern
350
78A0
  3
Realistic
350
789C
  3
Thicken
350
789F
  0
XRECORD
  5
A4E
102
{ACAD_REACTORS
330
C
102
}
330
C
100
AcDbXrecord
280
     1
 90
   990106
  3

 60
     0
 61
     0
 62
     1
 63
     3
 64
     0
 65
     0
 66
     0
 67
     3
 68
     1
 69
     0
 70
     0
 71
     0
 72
     0
 40
0.0
170
     0
  0
XRECORD
  5
7BA7
102
{ACAD_REACTORS
330
C
102
}
330
C
100
AcDbXrecord
280
     1
 90
        1
330
78A4
  0
DICTIONARY
  5
2C
102
{ACAD_REACTORS
330
C
102
}
330
C
100
AcDbDictionary
281
     1
  3
CANNOSCALE
350
7BAB
  3
CMLEADERSTYLE
350
7BA9
  3
CTABLESTYLE
350
7BA8
  3
DIMASSOC
350
2E
  3
HIDETEXT
350
2D
  3
INDEXCTL
350
8F5D
  3
LAYEREVAL
350
7BAD
  3
LAYERNOTIFY
350
7BAE
  3
LIGHTINGUNITS
350
7BAC
  3
MSLTSCALE
350
7BAA
  3
OBSCOLOR
350
8F5E
  3
SORTENTS
350
8F5C
  0
DICTIONARY
  5
85EA
102
{ACAD_REACTORS
330
C
102
}
330
C
100
AcDbDictionary
281
     1
  0
DICTIONARY
  5
45E1
102
{ACAD_REACTORS
330
C
102
}
330
C
100
AcDbDictionary
281
     1
  3
komin
350
4ADE
  0
DICTIONARY
  5
85F9
102
{ACAD_REACTORS
330
C
102
}
330
C
100
AcDbDictionary
281
     1
  0
DICTIONARY
  5
85FA
102
{ACAD_REACTORS
330
C
102
}
330
C
100
AcDbDictionary
281
     1
  0
DICTIONARY
  5
85FB
102
{ACAD_REACTORS
330
C
102
}
330
C
100
AcDbDictionary
281
     1
  0
DICTIONARY
  5
8607
102
{ACAD_REACTORS
330
C
102
}
330
C
100
AcDbDictionary
281
     1
  0
DICTIONARY
  5
4AE3
102
{ACAD_REACTORS
330
C
102
}
330
C
100
AcDbDictionary
281
     1
  3
Medium Detail
350
4AE4
  3
Standard
350
4C2D
1001
AECBASE
1070
 10000
1005
4AE4
  0
DICTIONARY
  5
4AE5
102
{ACAD_REACTORS
330
C
102
}
330
C
100
AcDbDictionary
281
     1
  3
Model
350
4AE6
  3
Model High Detail
350
4C2B
  3
Model Low Detail
350
4C2A
  3
Plan
350
4AE7
  3
Plan Diagnostic
350
4AE8
  3
Plan High Detail
350
4C29
  3
Plan Low Detail
350
4C28
  3
Reflected
350
4C27
  3
Section_Elev
350
4AE9
  0
DICTIONARY
  5
30
102
{ACAD_REACTORS
330
C
102
}
330
C
100
AcDbDictionary
281
     1
  3
AbAdDbDispRepRoofHatch
350
27B7
  3
AbAdDbDispRepRoofSlabHatch
350
27B9
  3
AbAdDbWinRoofDispRep
350
2796
  3
AbAdDbWinRoofDispRepDrawingRoof
350
2798
  3
AbAdDbWinRoofDispRepPlan
350
279A
  3
AbAdDispRepWinPanels
350
27BD
  3
AbAdDispRepWinPanelsElev
350
27BB
  3
AbAdDoorDispRep
350
27BF
  3
AbAdIsolationDispRep
350
27C4
  3
AbAdOpeningPlateRepDesc
350
279D
  3
AbAdOpeningPlateRepModel
350
279F
  3
AbAdOpeningPlateRepPlan
350
27A1
  3
AbAdOpeningPlateRepSimple
350
27A3
  3
AbAdPlateDispRepCeiling
350
27A7
  3
AbAdPlateDispRepModel
350
27A9
  3
AbAdPlateDispRepPlan
350
27A5
  3
AbAdRoofOutlineDispRep
350
27AB
  3
AbAdRoofPlanLoftDispRep
350
27AD
  3
AbAdStairDesDispRep
350
27AF
  3
AbAdStairDispRep
350
27B1
  3
AbAdThresholdDispRep
350
27C1
  3
AbAdWallDispRep
350
27B3
  3
AbAdWindowDispRep
350
27B5
  3
AecDbDispRep2dSection
350
4AEA
  3
AecDbDispRepAnchor
350
4AEB
  3
AecDbDispRepAnchorBubToGrid
350
4AEC
  3
AecDbDispRepAnchorBubToGridMdl
350
4AED
  3
AecDbDispRepAnchorBubToGridRcp
350
4BBB
  3
AecDbDispRepAnchorEntToNode
350
4AEE
  3
AecDbDispRepAnchorExtendedTagToEnt
350
78D0
  3
AecDbDispRepAnchorTagToEnt
350
4AEF
  3
AecDbDispRepBdgElevLineModel
350
4AF3
  3
AecDbDispRepBdgElevLinePlan
350
4AF4
  3
AecDbDispRepBdgElevLinePlan100
350
4BCB
  3
AecDbDispRepBdgElevLinePlan50
350
4BE8
  3
AecDbDispRepBdgElevLineRcp
350
4B9D
  3
AecDbDispRepBdgSectionLineModel
350
4AF5
  3
AecDbDispRepBdgSectionLinePlan
350
4AF6
  3
AecDbDispRepBdgSectionLinePlan100
350
4BCD
  3
AecDbDispRepBdgSectionLinePlan50
350
4BEA
  3
AecDbDispRepBdgSectionLineRcp
350
4B9F
  3
AecDbDispRepBdgSectionModel
350
4BA1
  3
AecDbDispRepBdgSectionSubDiv
350
4AF7
  3
AecDbDispRepCeilingGrid
350
4AF9
  3
AecDbDispRepCeilingGridModel
350
4AFA
  3
AecDbDispRepCeilingGridPlan100
350
4BCF
  3
AecDbDispRepCeilingGridPlan50
350
4BEC
  3
AecDbDispRepCeilingGridRcp
350
4BA2
  3
AecDbDispRepClipVolModel
350
4AFB
  3
AecDbDispRepClipVolPlan
350
4AFC
  3
AecDbDispRepClipVolResSubDiv
350
4AFD
  3
AecDbDispRepClipVolResult
350
4AFE
  3
AecDbDispRepColumnGrid
350
4AFF
  3
AecDbDispRepColumnGridModel
350
4B00
  3
AecDbDispRepColumnGridPlan100
350
4BD1
  3
AecDbDispRepColumnGridPlan50
350
4BEE
  3
AecDbDispRepColumnGridRcp
350
4BBD
  3
AecDbDispRepCurtainWallLayoutModel
350
4B01
  3
AecDbDispRepCurtainWallLayoutPlan
350
4B02
  3
AecDbDispRepCurtainWallLayoutPlan100
350
4BD3
  3
AecDbDispRepCurtainWallLayoutPlan50
350
4BF0
  3
AecDbDispRepCurtainWallUnitModel
350
4B03
  3
AecDbDispRepCurtainWallUnitPlan
350
4B04
  3
AecDbDispRepCurtainWallUnitPlan100
350
4BD5
  3
AecDbDispRepCurtainWallUnitPlan50
350
4BF2
  3
AecDbDispRepDimGroupPlan
350
4B05
  3
AecDbDispRepDimGroupPlan100
350
4C03
  3
AecDbDispRepDimGroupPlan50
350
4C05
  3
AecDbDispRepDisplayTheme
350
78CE
  3
AecDbDispRepDoorElev
350
4B06
  3
AecDbDispRepDoorModel
350
4B07
  3
AecDbDispRepDoorNominal
350
4B08
  3
AecDbDispRepDoorPlan
350
4B09
  3
AecDbDispRepDoorPlan50
350
4C07
  3
AecDbDispRepDoorPlanHekto
350
4C09
  3
AecDbDispRepDoorRcp
350
4BA4
  3
AecDbDispRepDoorThresholdPlan
350
4B0A
  3
AecDbDispRepDoorThresholdSymbolPlan
350
4C0B
  3
AecDbDispRepEditInPlaceProfile
350
4B0B
  3
AecDbDispRepEntRef
350
4B0C
  3
AecDbDispRepLayoutCurve
350
4B0D
  3
AecDbDispRepLayoutGrid2d
350
4B0E
  3
AecDbDispRepLayoutGrid3d
350
4B0F
  3
AecDbDispRepMaskBlockRef
350
4B10
  3
AecDbDispRepMaskBlockRefRcp
350
4B11
  3
AecDbDispRepMassElemModel
350
4B12
  3
AecDbDispRepMassElemPlan100
350
4C0D
  3
AecDbDispRepMassElemPlan50
350
4C0F
  3
AecDbDispRepMassElemRcp
350
4BA6
  3
AecDbDispRepMassElemSchem
350
4B13
  3
AecDbDispRepMassGroupModel
350
4B14
  3
AecDbDispRepMassGroupPlan
350
4B15
  3
AecDbDispRepMassGroupPlan100
350
4C11
  3
AecDbDispRepMassGroupPlan50
350
4C13
  3
AecDbDispRepMassGroupRcp
350
4BA8
  3
AecDbDispRepMaterial
350
4B16
  3
AecDbDispRepMaterial$General Medium Detail
350
4B17
  3
AecDbDispRepMvBlockRef
350
4B18
  3
AecDbDispRepMvBlockRef$Plan
350
4B19
  3
AecDbDispRepMvBlockRef$Plan (lustro)
350
4B1A
  3
AecDbDispRepMvBlockRefModel
350
4B1B
  3
AecDbDispRepMvBlockRefPlan100
350
4BD7
  3
AecDbDispRepMvBlockRefPlan50
350
4BF4
  3
AecDbDispRepMvBlockRefRcp
350
4BAA
  3
AecDbDispRepOpening
350
4B1C
  3
AecDbDispRepOpeningModel
350
4B1D
  3
AecDbDispRepOpeningPlan100
350
4C15
  3
AecDbDispRepOpeningPlan50
350
4C17
  3
AecDbDispRepOpeningPlanReflected
350
4C19
  3
AecDbDispRepOpeningSillPlan
350
4B1E
  3
AecDbDispRepPolygonModel
350
4B1F
  3
AecDbDispRepPolygonTrueColour
350
4B9B
  3
AecDbDispRepRailingModel
350
4B20
  3
AecDbDispRepRailingPlan
350
4B21
  3
AecDbDispRepRailingPlan100
350
4C1B
  3
AecDbDispRepRailingPlan50
350
4C1D
  3
AecDbDispRepRoofModel
350
4B22
  3
AecDbDispRepRoofPlan
350
4B23
  3
AecDbDispRepRoofPlan100
350
4BD8
  3
AecDbDispRepRoofPlan50
350
4BF5
  3
AecDbDispRepRoofRcp
350
4BAB
  3
AecDbDispRepRoofSlabModel
350
4B24
  3
AecDbDispRepRoofSlabPlan
350
4B25
  3
AecDbDispRepRoofSlabPlan100
350
4BDA
  3
AecDbDispRepRoofSlabPlan50
350
4BF7
  3
AecDbDispRepScheduleTable
350
4B26
  3
AecDbDispRepSlabModel
350
4B27
  3
AecDbDispRepSlabPlan
350
4B28
  3
AecDbDispRepSlabPlan100
350
4BDC
  3
AecDbDispRepSlabPlan50
350
4BF9
  3
AecDbDispRepSlice
350
4B29
  3
AecDbDispRepSpaceDecomposed
350
78D2
  3
AecDbDispRepSpaceModel
350
4B2D
  3
AecDbDispRepSpacePlan
350
4B2E
  3
AecDbDispRepSpacePlan100
350
4BE0
  3
AecDbDispRepSpacePlan50
350
4BFD
  3
AecDbDispRepSpaceRcp
350
4BAF
  3
AecDbDispRepSpaceVolume
350
4BB1
  3
AecDbDispRepStairModel
350
4B2F
  3
AecDbDispRepStairPlan
350
4B30
  3
AecDbDispRepStairPlan100
350
4C1F
  3
AecDbDispRepStairPlan50
350
4C21
  3
AecDbDispRepStairPlanOverlapping
350
4BB3
  3
AecDbDispRepStairRcp
350
4BB5
  3
AecDbDispRepWallGraph
350
4B31
  3
AecDbDispRepWallModel
350
4B32
  3
AecDbDispRepWallPlan
350
4B33
  3
AecDbDispRepWallPlan100
350
4BE2
  3
AecDbDispRepWallPlan50
350
4BFF
  3
AecDbDispRepWallRcp
350
4BB7
  3
AecDbDispRepWallSchem
350
4B34
  3
AecDbDispRepWindowAssemblyModel
350
4B35
  3
AecDbDispRepWindowAssemblyPlan
350
4B36
  3
AecDbDispRepWindowAssemblyPlan100
350
4B37
  3
AecDbDispRepWindowAssemblyPlan50
350
4C01
  3
AecDbDispRepWindowAssemblySillPlan
350
4B38
  3
AecDbDispRepWindowElev
350
4B39
  3
AecDbDispRepWindowModel
350
4B3A
  3
AecDbDispRepWindowNominal
350
4B3B
  3
AecDbDispRepWindowPlan
350
4B3C
  3
AecDbDispRepWindowPlan100
350
4C23
  3
AecDbDispRepWindowPlan50
350
4C25
  3
AecDbDispRepWindowRcp
350
4BB9
  3
AecDbDispRepWindowSillPlan
350
4B3D
  3
AecDbDispRepZone
350
78D4
  3
AecDbDispRepZonePlan100
350
78D6
  3
AecDbDispRepZonePlan50
350
78D8
  3
AecsDbDispRepMemberElevationDesign
350
4B3E
  3
AecsDbDispRepMemberElevationDetail
350
4BBF
  3
AecsDbDispRepMemberLogical
350
4B3F
  3
AecsDbDispRepMemberModelDesign
350
4B40
  3
AecsDbDispRepMemberModelDetail
350
4BC1
  3
AecsDbDispRepMemberPlanDesign
350
4B41
  3
AecsDbDispRepMemberPlanDetail
350
4BC3
  3
AecsDbDispRepMemberPlanSketch
350
4BC5
  0
DICTIONARY
  5
32
102
{ACAD_REACTORS
330
C
102
}
330
C
100
AcDbDictionary
281
     1
  3
*A1
350
27A8
  3
*A10
350
4B55
  3
*A100
350
4BCC
  3
*A101
350
4B46
  3
*A102
350
4B43
  3
*A103
350
4B54
  3
*A104
350
4BBC
  3
*A105
350
4B61
  3
*A106
350
4BA9
  3
*A107
350
4C16
  3
*A108
350
4C0E
  3
*A109
350
4BB2
  3
*A11
350
4B93
  3
*A110
350
4B70
  3
*A111
350
4BD9
  3
*A112
350
4C12
  3
*A113
350
4B64
  3
*A114
350
4B8F
  3
*A115
350
4B77
  3
*A116
350
4B5D
  3
*A117
350
4B48
  3
*A118
350
4C20
  3
*A119
350
27C0
  3
*A12
350
4BEF
  3
*A120
350
4C1C
  3
*A121
350
4B74
  3
*A122
350
4B47
  3
*A123
350
4B65
  3
*A124
350
4B5A
  3
*A125
350
4BB6
  3
*A126
350
4B66
  3
*A127
350
4B67
  3
*A128
350
4C18
  3
*A129
350
4C22
  3
*A13
350
27BE
  3
*A130
350
4BED
  3
*A131
350
78D7
  3
*A132
350
4C26
  3
*A133
350
4B68
  3
*A134
350
4BAC
  3
*A135
350
4B69
  3
*A136
350
27AC
  3
*A137
350
4B7A
  3
*A138
350
4BD4
  3
*A139
350
4B56
  3
*A14
350
4B49
  3
*A140
350
4BB0
  3
*A141
350
4B4A
  3
*A142
350
4B7B
  3
*A143
350
279E
  3
*A144
350
4BE3
  3
*A145
350
4BEB
  3
*A146
350
4B42
  3
*A147
350
4C14
  3
*A148
350
4B50
  3
*A149
350
27C2
  3
*A15
350
2797
  3
*A150
350
4B7C
  3
*A151
350
4BB4
  3
*A152
350
4C10
  3
*A153
350
4B7D
  3
*A154
350
4C0A
  3
*A155
350
4B7E
  3
*A156
350
4B7F
  3
*A157
350
4B80
  3
*A158
350
4B4C
  3
*A159
350
4B76
  3
*A16
350
4BA3
  3
*A160
350
4B90
  3
*A161
350
4B58
  3
*A162
350
4B51
  3
*A163
350
4B81
  3
*A164
350
4B6A
  3
*A17
350
4BBE
  3
*A18
350
279C
  3
*A19
350
4B59
  3
*A2
350
78D1
  3
*A20
350
4B6C
  3
*A21
350
4B5B
  3
*A22
350
78CF
  3
*A23
350
4B6F
  3
*A24
350
27A6
  3
*A25
350
4B4B
  3
*A26
350
78D9
  3
*A27
350
4B82
  3
*A28
350
4B9C
  3
*A29
350
4B5F
  3
*A3
350
4B75
  3
*A30
350
4B9E
  3
*A31
350
4BA0
  3
*A32
350
4BC0
  3
*A33
350
4C1A
  3
*A34
350
78D3
  3
*A35
350
4BA5
  3
*A36
350
4B44
  3
*A37
350
4BF3
  3
*A38
350
4BB8
  3
*A39
350
4BC2
  3
*A4
350
4BBA
  3
*A40
350
4B6D
  3
*A41
350
2799
  3
*A42
350
27B2
  3
*A43
350
4BF6
  3
*A44
350
4B4D
  3
*A45
350
27A0
  3
*A46
350
4B83
  3
*A47
350
4B88
  3
*A48
350
4B85
  3
*A49
350
4BF8
  3
*A5
350
4B78
  3
*A50
350
27AA
  3
*A51
350
27B0
  3
*A52
350
4BFA
  3
*A53
350
4B52
  3
*A54
350
4BA7
  3
*A55
350
4B8C
  3
*A56
350
4BF1
  3
*A57
350
27BC
  3
*A58
350
4B72
  3
*A59
350
4B8B
  3
*A6
350
4B91
  3
*A60
350
4BC4
  3
*A61
350
4BFE
  3
*A62
350
4B6B
  3
*A63
350
4C00
  3
*A64
350
4C02
  3
*A65
350
4C04
  3
*A66
350
4B8A
  3
*A67
350
4B8E
  3
*A68
350
4B4E
  3
*A69
350
4C24
  3
*A7
350
4B73
  3
*A70
350
4C1E
  3
*A71
350
27C5
  3
*A72
350
4C06
  3
*A73
350
4BC6
  3
*A74
350
27AE
  3
*A75
350
78D5
  3
*A76
350
27B6
  3
*A77
350
4BD0
  3
*A78
350
27A4
  3
*A79
350
4C0C
  3
*A8
350
4B92
  3
*A80
350
4BCE
  3
*A81
350
4B5E
  3
*A82
350
4B79
  3
*A83
350
4B87
  3
*A84
350
4B71
  3
*A85
350
4C08
  3
*A86
350
4B45
  3
*A87
350
4B84
  3
*A88
350
4B86
  3
*A89
350
4BE1
  3
*A9
350
4B57
  3
*A90
350
4BE9
  3
*A91
350
27B8
  3
*A92
350
27A2
  3
*A93
350
4BD2
  3
*A94
350
4BDB
  3
*A95
350
4B53
  3
*A96
350
4B4F
  3
*A97
350
4BD6
  3
*A98
350
27BA
  3
*A99
350
4BDD
  0
DICTIONARY
  5
8606
102
{ACAD_REACTORS
330
C
102
}
330
C
100
AcDbDictionary
281
     1
  0
DICTIONARY
  5
85F1
102
{ACAD_REACTORS
330
C
102
}
330
C
100
AcDbDictionary
281
     1
  0
DICTIONARY
  5
85F2
102
{ACAD_REACTORS
330
C
102
}
330
C
100
AcDbDictionary
281
     1
  0
DICTIONARY
  5
85E6
102
{ACAD_REACTORS
330
C
102
}
330
C
100
AcDbDictionary
281
     1
  0
DICTIONARY
  5
85ED
102
{ACAD_REACTORS
330
C
102
}
330
C
100
AcDbDictionary
281
     1
  0
DICTIONARY
  5
85E7
102
{ACAD_REACTORS
330
C
102
}
330
C
100
AcDbDictionary
281
     1
  0
DICTIONARY
  5
85EC
102
{ACAD_REACTORS
330
C
102
}
330
C
100
AcDbDictionary
281
     1
  0
DICTIONARY
  5
85EB
102
{ACAD_REACTORS
330
C
102
}
330
C
100
AcDbDictionary
281
     1
  0
DICTIONARY
  5
4B94
102
{ACAD_REACTORS
330
C
102
}
330
C
100
AcDbDictionary
281
     1
  3
Aec_Elevation_Label_4_1m1
350
4B95
  0
DICTIONARY
  5
8602
102
{ACAD_REACTORS
330
C
102
}
330
C
100
AcDbDictionary
281
     1
  0
DICTIONARY
  5
85E9
102
{ACAD_REACTORS
330
C
102
}
330
C
100
AcDbDictionary
281
     1
  0
DICTIONARY
  5
85E8
102
{ACAD_REACTORS
330
C
102
}
330
C
100
AcDbDictionary
281
     1
  0
DICTIONARY
  5
85EE
102
{ACAD_REACTORS
330
C
102
}
330
C
100
AcDbDictionary
281
     1
  0
DICTIONARY
  5
45E2
102
{ACAD_REACTORS
330
C
102
}
330
C
100
AcDbDictionary
281
     1
  0
DICTIONARY
  5
85FD
102
{ACAD_REACTORS
330
C
102
}
330
C
100
AcDbDictionary
281
     1
  0
DICTIONARY
  5
85FE
102
{ACAD_REACTORS
330
C
102
}
330
C
100
AcDbDictionary
281
     1
  0
DICTIONARY
  5
85FF
102
{ACAD_REACTORS
330
C
102
}
330
C
100
AcDbDictionary
281
     1
  0
DICTIONARY
  5
85E5
102
{ACAD_REACTORS
330
C
102
}
330
C
100
AcDbDictionary
281
     1
  0
DICTIONARY
  5
8600
102
{ACAD_REACTORS
330
C
102
}
330
C
100
AcDbDictionary
281
     1
  0
DICTIONARY
  5
8601
102
{ACAD_REACTORS
330
C
102
}
330
C
100
AcDbDictionary
281
     1
  0
DICTIONARY
  5
8603
102
{ACAD_REACTORS
330
C
102
}
330
C
100
AcDbDictionary
281
     1
  0
DICTIONARY
  5
85F3
102
{ACAD_REACTORS
330
C
102
}
330
C
100
AcDbDictionary
281
     1
  0
DICTIONARY
  5
85F4
102
{ACAD_REACTORS
330
C
102
}
330
C
100
AcDbDictionary
281
     1
  0
DICTIONARY
  5
85F5
102
{ACAD_REACTORS
330
C
102
}
330
C
100
AcDbDictionary
281
     1
  0
DICTIONARY
  5
85EF
102
{ACAD_REACTORS
330
C
102
}
330
C
100
AcDbDictionary
281
     1
  0
DICTIONARY
  5
4B96
102
{ACAD_REACTORS
330
C
102
}
330
C
100
AcDbDictionary
281
     1
  3
AEC_VARS_ARCHBASE
350
4B97
  3
AEC_VARS_DWG_SETUP
350
4B98
  3
AEC_VARS_STRUCTUREBASE
350
4B99
  3
AECMX_VARS_MUNICH
350
4B9A
  0
DICTIONARY
  5
85F7
102
{ACAD_REACTORS
330
C
102
}
330
C
100
AcDbDictionary
281
     1
  0
DICTIONARY
  5
85F6
102
{ACAD_REACTORS
330
C
102
}
330
C
100
AcDbDictionary
281
     1
  0
DICTIONARY
  5
85FC
102
{ACAD_REACTORS
330
C
102
}
330
C
100
AcDbDictionary
281
     1
  0
DICTIONARY
  5
85F8
102
{ACAD_REACTORS
330
C
102
}
330
C
100
AcDbDictionary
281
     1
  0
DICTIONARY
  5
8605
102
{ACAD_REACTORS
330
C
102
}
330
C
100
AcDbDictionary
281
     1
  0
DICTIONARY
  5
8604
102
{ACAD_REACTORS
330
C
102
}
330
C
100
AcDbDictionary
281
     1
  0
DICTIONARY
  5
85F0
102
{ACAD_REACTORS
330
C
102
}
330
C
100
AcDbDictionary
281
     1
  0
DICTIONARY
  5
7BCE
102
{ACAD_REACTORS
330
C
102
}
330
C
100
AcDbDictionary
281
     1
  3
ASEBlockHierarchyIndexRecord
350
7BCF
1001
DCO15
1040
1674376496.156
  0
DICTIONARY
  5
42E9
102
{ACAD_REACTORS
330
C
102
}
330
C
100
AcDbDictionary
281
     1
  3
ACET-OVERKILL-FUZZ
350
8D2D
  3
ACET-OVERKILL-NO-ENDTOEND
350
8D30
  3
ACET-OVERKILL-NO-PARTIAL
350
8D2F
  3
ACET-OVERKILL-NO-PLINES
350
8D2E
  0
DICTIONARY
  5
4E78
102
{ACAD_REACTORS
330
C
102
}
330
C
100
AcDbDictionary
281
     1
  3
DRCSET
350
7542
  0
XRECORD
  5
8F60
102
{ACAD_REACTORS
330
C
102
}
330
C
100
AcDbXrecord
280
     1
  1
DWGPROPS COOKIE
  2

  3

  4

  6

  7

  8
anna.bogusz
  9

300
=
301
=
302
=
303
=
304
=
305
=
306
=
307
=
308
=
309
=
 40
1.055639675925925
 41
2453924.424852963
 42
2455182.56944625
  1

 90
        0
  0
DICTIONARY
  5
4E76
102
{ACAD_REACTORS
330
C
102
}
330
C
100
AcDbDictionary
281
     1
  3
SOLIDRES
350
7541
  0
DICTIONARY
  5
4E7A
102
{ACAD_REACTORS
330
C
102
}
330
C
100
AcDbDictionary
281
     1
  3
DRCSCALE
350
7543
  0
DICTIONARY
  5
920
102
{ACAD_REACTORS
330
91F
102
}
330
91F
100
AcDbDictionary
280
     1
281
     1
  3
Title Layers
360
921
  3
XREF Insert Layers
360
922
  0
DICTIONARY
  5
923
102
{ACAD_REACTORS
330
91F
102
}
330
91F
100
AcDbDictionary
281
     1
  0
XRECORD
  5
78DD
102
{ACAD_REACTORS
330
78DC
102
}
330
78DC
100
AcDbXrecord
280
     1
290
     1
  0
XRECORD
  5
78ED
102
{ACAD_REACTORS
330
78EC
102
}
330
78EC
100
AcDbXrecord
280
     1
290
     1
  0
XRECORD
  5
78EF
102
{ACAD_REACTORS
330
78EE
102
}
330
78EE
100
AcDbXrecord
280
     1
290
     1
  0
XRECORD
  5
790B
102
{ACAD_REACTORS
330
790A
102
}
330
790A
100
AcDbXrecord
280
     1
290
     1
  0
XRECORD
  5
7929
102
{ACAD_REACTORS
330
7928
102
}
330
7928
100
AcDbXrecord
280
     1
290
     1
  0
XRECORD
  5
7931
102
{ACAD_REACTORS
330
7930
102
}
330
7930
100
AcDbXrecord
280
     1
290
     1
  0
DICTIONARY
  5
39DC
102
{ACAD_REACTORS
330
DE5
102
}
330
DE5
100
AcDbDictionary
281
     1
  3
*A1
350
39DD
  0
SORTENTSTABLE
  5
7CA9
102
{ACAD_REACTORS
330
DE5
102
}
330
DE5
100
AcDbSortentsTable
330
1F
331
8B2A
  5
8B2D
331
8B5C
  5
8B61
331
8B40
  5
8B43
331
8B13
  5
8B13
331
8B24
  5
8B24
331
4046
  5
4046
331
8B72
  5
8B77
331
8B56
  5
8B5B
331
8B67
  5
8B6C
331
8B3A
  5
8B3D
331
8B4B
  5
8B4E
331
8B1E
  5
8B1E
331
8B2F
  5
8B32
331
7DBA
  5
700F
331
8BA2
  5
8C01
331
8B50
  5
8B55
331
8B61
  5
8B66
331
8B34
  5
8B37
331
8B45
  5
8B48
331
8B18
  5
8B18
331
8B29
  5
8B2C
331
8E6A
  5
8B2B
331
8BED
  5
8E69
331
8B77
  5
8BB6
331
8B5B
  5
8B60
331
8B6C
  5
8B72
331
8B3F
  5
8B42
331
8B12
  5
8B12
331
8B23
  5
8B23
331
8B0F
  5
8B0F
331
8B71
  5
8B76
331
8B55
  5
8B5A
331
8B66
  5
8B6B
331
8B39
  5
8B3C
331
700F
  5
7A79
331
8B4A
  5
8B4D
331
8B1D
  5
8B1D
331
8B2E
  5
8B31
331
8B60
  5
8B65
331
8B33
  5
8B36
331
8B44
  5
8B47
331
8B17
  5
8B17
331
8B28
  5
8B28
331
8E69
  5
8B2A
331
8B76
  5
8BA2
331
8B5A
  5
8B5F
331
8B6B
  5
8B71
331
8B3E
  5
8B41
331
8B11
  5
8B11
331
8B4F
  5
8B54
331
8B22
  5
8B22
331
8B70
  5
8B75
331
8B54
  5
8B59
331
8B65
  5
8B6A
331
8B38
  5
8B3B
331
700E
  5
7A78
331
8B49
  5
8B4C
331
8B1C
  5
8B1C
331
8B2D
  5
8B30
331
7DB8
  5
700C
331
8B5F
  5
8B64
331
8B32
  5
8B35
331
8B43
  5
8B46
331
8B16
  5
8B16
331
8B27
  5
8B27
331
8E68
  5
8B29
331
8BB6
  5
8D40
331
8B75
  5
8B8E
331
8B59
  5
8B5E
331
8B6A
  5
8B70
331
8B3D
  5
8B40
331
8B10
  5
8B10
331
8B4E
  5
8B52
331
8B21
  5
8B21
331
8C01
  5
8E6A
331
8BC1
  5
8D41
331
8B53
  5
8B58
331
8B64
  5
8B69
331
8B37
  5
8B3A
331
8B48
  5
8B4B
331
8B1B
  5
8B1B
331
8B2C
  5
8B2F
331
8B8E
  5
8BED
331
8B7A
  5
8BD9
331
8B5E
  5
8B63
331
8B31
  5
8B34
331
8B6F
  5
8B74
331
8B42
  5
8B45
331
8B15
  5
8B15
331
8B26
  5
8B26
331
8BD9
  5
8E68
331
8E67
  5
8B53
331
8B74
  5
8B7A
331
8B58
  5
8B5D
331
8B69
  5
8B6F
331
8B3C
  5
8B3F
331
8B4D
  5
8B51
331
8B20
  5
8B20
331
706F
  5
7A7B
331
8B52
  5
8B57
331
8B63
  5
8B68
331
8B36
  5
8B39
331
700C
  5
706F
331
8B47
  5
8B4A
331
8B1A
  5
8B1A
331
8B2B
  5
8B2E
331
8B79
  5
8BC1
331
8B5D
  5
8B62
331
8B30
  5
8B33
331
8B6E
  5
8B73
331
8B41
  5
8B44
331
8B14
  5
8B14
331
8B25
  5
8B25
331
4047
  5
4047
331
8B73
  5
8B79
331
3D74
  5
3D74
331
8B57
  5
8B5C
331
8B68
  5
8B6E
331
8B3B
  5
8B3E
331
8B4C
  5
8B50
331
8B1F
  5
8B1F
331
706E
  5
7A7A
331
8B51
  5
8B56
331
8B62
  5
8B67
331
8B35
  5
8B38
331
8B46
  5
8B49
331
8B19
  5
8B19
  0
SORTENTSTABLE
  5
7635
102
{ACAD_REACTORS
330
1A8B
102
}
330
1A8B
100
AcDbSortentsTable
330
1A8A
  0
SORTENTSTABLE
  5
2E14
102
{ACAD_REACTORS
330
23AB
102
}
330
23AB
100
AcDbSortentsTable
330
224D
  0
SORTENTSTABLE
  5
2445
102
{ACAD_REACTORS
330
23C4
102
}
330
23C4
100
AcDbSortentsTable
330
225A
  0
SORTENTSTABLE
  5
48D6
102
{ACAD_REACTORS
330
48D5
102
}
330
48D5
100
AcDbSortentsTable
330
48D4
  0
XRECORD
  5
8F6C
102
{ACAD_REACTORS
330
8F6B
102
}
330
8F6B
100
AcDbXrecord
280
     1
102
SHADEPLOT
 70
     0
  0
XRECORD
  5
8F6E
102
{ACAD_REACTORS
330
8F6D
102
}
330
8F6D
100
AcDbXrecord
280
     1
102
SHADEPLOT
 70
     0
  0
DIMASSOC
  5
8B8D
102
{ACAD_REACTORS
330
8B85
102
}
330
8B85
100
AcDbDimAssoc
330
8B7A
 90
        3
 70
     0
 71
     0
  1
AcDbOsnapPointRef
 72
     1
331
8B4F
 73
     2
 91
        0
 40
1.0
 10
0.0
 20
0.0
 30
2.000000000000000E+50
 75
     0
  1
AcDbOsnapPointRef
 72
     1
331
8B3A
 73
     2
 91
        0
 40
1.0
 10
0.0
 20
0.0
 30
2.000000000000000E+50
 75
     0
  0
DIMASSOC
  5
8BA1
102
{ACAD_REACTORS
330
8B99
102
}
330
8B99
100
AcDbDimAssoc
330
8B8E
 90
        3
 70
     0
 71
     0
  1
AcDbOsnapPointRef
 72
     1
331
8B3A
 73
     2
 91
        0
 40
1.0
 10
0.0
 20
0.0
 30
2.000000000000000E+50
 75
     0
  1
AcDbOsnapPointRef
 72
    13
331
8B39
 73
     2
 91
        0
 40
0.0000000000000014
 10
0.0
 20
0.0
 30
2.000000000000000E+50
 75
     0
  0
DIMASSOC
  5
8BB5
102
{ACAD_REACTORS
330
8BAD
102
}
330
8BAD
100
AcDbDimAssoc
330
8BA2
 90
        3
 70
     0
 71
     0
  1
AcDbOsnapPointRef
 72
    13
331
8B39
 73
     2
 91
        0
 40
0.0000000000000014
 10
0.0
 20
0.0
 30
2.000000000000000E+50
 75
     0
  1
AcDbOsnapPointRef
 72
     1
331
8B39
 73
     2
 91
        0
 40
1.0
 10
0.0
 20
0.0
 30
2.000000000000000E+50
 75
     0
  0
DIMASSOC
  5
8BD8
102
{ACAD_REACTORS
330
8BCE
102
}
330
8BCE
100
AcDbDimAssoc
330
8BC1
 90
        2
 70
     0
 71
     0
  1
AcDbOsnapPointRef
 72
     2
331
8B39
 73
     2
 91
        0
 40
0.5
 10
0.0
 20
0.0
 30
0.0
 75
     0
  0
DIMASSOC
  5
8BEC
102
{ACAD_REACTORS
330
8BE4
102
}
330
8BE4
100
AcDbDimAssoc
330
8BD9
 90
        3
 70
     0
 71
     0
  1
AcDbOsnapPointRef
 72
     2
331
8B39
 73
     2
 91
        0
 40
0.5
 10
0.0
 20
0.0
 30
0.0
 75
     0
  1
AcDbOsnapPointRef
 72
    13
331
8B58
 73
     2
 91
        0
 40
0.0
 10
0.0
 20
0.0
 30
2.000000000000000E+50
 75
     0
  0
DIMASSOC
  5
8C00
102
{ACAD_REACTORS
330
8BF8
102
}
330
8BF8
100
AcDbDimAssoc
330
8BED
 90
        3
 70
     0
 71
     0
  1
AcDbOsnapPointRef
 72
    13
331
8B58
 73
     2
 91
        0
 40
0.0
 10
0.0
 20
0.0
 30
2.000000000000000E+50
 75
     0
  1
AcDbOsnapPointRef
 72
     1
331
8B5C
 73
     2
 91
        0
 40
1.0
 10
0.0
 20
0.0
 30
2.000000000000000E+50
 75
     0
  0
DIMASSOC
  5
8EDB
102
{ACAD_REACTORS
330
8EDA
102
}
330
8EDA
100
AcDbDimAssoc
330
8ED9
 90
        3
 70
     0
 71
     0
  1
AcDbOsnapPointRef
 72
     1
331
8EB0
 73
     2
 91
        0
 40
1.0
 10
0.0
 20
0.0
 30
2.000000000000000E+50
 75
     0
  1
AcDbOsnapPointRef
 72
     1
331
8E9A
 73
     2
 91
        0
 40
1.0
 10
0.0
 20
0.0
 30
2.000000000000000E+50
 75
     0
  0
DIMASSOC
  5
8EDE
102
{ACAD_REACTORS
330
8EDD
102
}
330
8EDD
100
AcDbDimAssoc
330
8EDC
 90
        3
 70
     0
 71
     0
  1
AcDbOsnapPointRef
 72
     1
331
8E9A
 73
     2
 91
        0
 40
1.0
 10
0.0
 20
0.0
 30
2.000000000000000E+50
 75
     0
  1
AcDbOsnapPointRef
 72
    13
331
8E99
 73
     2
 91
        0
 40
0.0000000000000014
 10
0.0
 20
0.0
 30
2.000000000000000E+50
 75
     0
  0
DIMASSOC
  5
8EE1
102
{ACAD_REACTORS
330
8EE0
102
}
330
8EE0
100
AcDbDimAssoc
330
8EDF
 90
        3
 70
     0
 71
     0
  1
AcDbOsnapPointRef
 72
    13
331
8E99
 73
     2
 91
        0
 40
0.0000000000000014
 10
0.0
 20
0.0
 30
2.000000000000000E+50
 75
     0
  1
AcDbOsnapPointRef
 72
     1
331
8E99
 73
     2
 91
        0
 40
1.0
 10
0.0
 20
0.0
 30
2.000000000000000E+50
 75
     0
  0
DIMASSOC
  5
8EE5
102
{ACAD_REACTORS
330
8EE4
102
}
330
8EE4
100
AcDbDimAssoc
330
8EE3
 90
        2
 70
     0
 71
     0
  1
AcDbOsnapPointRef
 72
     2
331
8E99
 73
     2
 91
        0
 40
0.5
 10
0.0
 20
0.0
 30
0.0
 75
     0
  0
DIMASSOC
  5
8EE8
102
{ACAD_REACTORS
330
8EE7
102
}
330
8EE7
100
AcDbDimAssoc
330
8EE6
 90
        3
 70
     0
 71
     0
  1
AcDbOsnapPointRef
 72
     2
331
8E99
 73
     2
 91
        0
 40
0.5
 10
0.0
 20
0.0
 30
0.0
 75
     0
  1
AcDbOsnapPointRef
 72
    13
331
8EB9
 73
     2
 91
        0
 40
0.0
 10
0.0
 20
0.0
 30
2.000000000000000E+50
 75
     0
  0
DIMASSOC
  5
8EEB
102
{ACAD_REACTORS
330
8EEA
102
}
330
8EEA
100
AcDbDimAssoc
330
8EE9
 90
        3
 70
     0
 71
     0
  1
AcDbOsnapPointRef
 72
    13
331
8EB9
 73
     2
 91
        0
 40
0.0
 10
0.0
 20
0.0
 30
2.000000000000000E+50
 75
     0
  1
AcDbOsnapPointRef
 72
     1
331
8EBD
 73
     2
 91
        0
 40
1.0
 10
0.0
 20
0.0
 30
2.000000000000000E+50
 75
     0
  0
XRECORD
  5
8F66
102
{ACAD_REACTORS
330
8F65
102
}
330
8F65
100
AcDbXrecord
280
     1
102
SHADEPLOT
 70
     0
  0
XRECORD
  5
8F68
102
{ACAD_REACTORS
330
8F67
102
}
330
8F67
100
AcDbXrecord
280
     1
102
SHADEPLOT
 70
     0
  0
XRECORD
  5
8F74
102
{ACAD_REACTORS
330
8F73
102
}
330
8F73
100
AcDbXrecord
280
     1
102
SHADEPLOT
 70
     0
  0
LAYOUT
  5
232A
102
{ACAD_XDICTIONARY
360
8F69
102
}
102
{ACAD_REACTORS
330
1A
102
}
330
1A
100
AcDbPlotSettings
  1

  2
\\GRZEGORZ\HP DeskJet 1220C
  4
A3
  6

 40
5.873749732971191
 41
12.68940830230713
 42
5.8314208984375
 43
3.84173583984375
 44
296.9683227539062
 45
419.9889831542968
 46
0.0
 47
0.0
 48
0.0
 49
0.0
140
0.0
141
0.0
142
10.0
143
1.0
 70
   672
 72
     1
 73
     1
 74
     5
  7
monochrome_140.ctb
 75
     0
147
10.0
148
0.0
149
0.0
100
AcDbLayout
  1
koncepcja (A3)
 70
     0
 71
     2
 10
-0.384173583984375
 20
-0.5873749732971192
 11
41.61472473144531
 21
29.10945730209351
 12
0.0
 22
0.0
 32
0.0
 14
0.5393610270898606
 24
0.6981119987064256
 34
0.0
 15
40.09064480980077
 25
28.29039228608914
 35
0.0
146
0.0
 13
0.0
 23
0.0
 33
0.0
 16
1.0
 26
0.0
 36
0.0
 17
0.0
 27
1.0
 37
0.0
 76
     0
330
232B
331
232C
  0
LAYOUT
  5
2285
102
{ACAD_XDICTIONARY
360
8F63
102
}
102
{ACAD_REACTORS
330
1A
102
}
330
1A
100
AcDbPlotSettings
  1

  2
\\Komp-nr-7\hp LaserJet 1300 PCL 6
  4
A4
  6

 40
5.027083396911621
 41
5.069413185119628
 42
5.027084350585937
 43
5.027069091796875
 44
209.9733276367187
 45
296.9683227539062
 46
0.0
 47
0.0
 48
0.0
 49
0.0
140
0.0
141
0.0
142
10.0
143
1.0
 70
   672
 72
     1
 73
     0
 74
     5
  7
monochrome_140.ctb
 75
     0
147
1.0
148
0.0
149
0.0
100
AcDbLayout
  1
koncepcja (A4)
 70
     0
 71
     1
 10
-0.5027083396911621
 20
-0.5069413185119629
 11
20.49462442398072
 21
29.18989095687866
 12
0.0
 22
0.0
 32
0.0
 14
-0.3785752547503733
 24
0.1807636100571841
 34
0.0
 15
19.87273365404815
 25
28.48157452849739
 35
0.0
146
0.0
 13
0.0
 23
0.0
 33
0.0
 16
1.0
 26
0.0
 36
0.0
 17
0.0
 27
1.0
 37
0.0
 76
     0
330
2286
331
2287
  0
LAYOUT
  5
22
102
{ACAD_XDICTIONARY
360
8F61
102
}
102
{ACAD_REACTORS
330
1A
102
}
330
1A
100
AcDbPlotSettings
  1

  2
PDFCreator
  4
A4
  6

 40
3.174999952316284
 41
3.174999952316284
 42
3.175003051757812
 43
3.17498779296875
 44
209.8886566162109
 45
297.0530090332031
 46
-0.230673193931878
 47
5.151510643959028
 48
-12154.01611226617
 49
-15190.02991668208
140
-1954.01611226614
141
-1170.029916682081
142
1.0
143
50.0
 70
 11956
 72
     1
 73
     0
 74
     4
  7
monochrome_140.ctb
 75
    25
147
0.02
148
12154.01611226617
149
15190.02991668208
100
AcDbLayout
  1
Model
 70
     1
 71
     0
 10
0.0
 20
0.0
 11
12.0
 21
9.0
 12
0.0
 22
0.0
 32
0.0
 14
0.0
 24
0.0
 34
0.0
 15
0.0
 25
0.0
 35
0.0
146
0.0
 13
0.0
 23
0.0
 33
0.0
 16
1.0
 26
0.0
 36
0.0
 17
0.0
 27
1.0
 37
0.0
 76
     0
330
1F
331
7878
1001
ACAD_PSEXT
1000
PDFCreator
1000
PDFCreator
1000
PDFCreator:
1000
eDoc Printer
1070
     0
  0
MATERIAL
  5
7882
102
{ACAD_XDICTIONARY
360
7883
102
}
102
{ACAD_REACTORS
330
DC1
102
}
330
DC1
100
AcDbMaterial
  1
ByBlock
 72
     0
 43
0.0082020997375328
 43
0.0
 43
0.0
 43
0.0
 43
0.0
 43
0.0082020997375328
 43
0.0
 43
0.0
 43
0.0
 43
0.0
 43
1.0
 43
0.0
 43
0.0
 43
0.0
 43
0.0
 43
1.0
 77
     0
 47
0.0082020997375328
 47
0.0
 47
0.0
 47
0.0
 47
0.0
 47
0.0082020997375328
 47
0.0
 47
0.0
 47
0.0
 47
0.0
 47
1.0
 47
0.0
 47
0.0
 47
0.0
 47
0.0
 47
1.0
171
     0
 49
0.0082020997375328
 49
0.0
 49
0.0
 49
0.0
 49
0.0
 49
0.0082020997375328
 49
0.0
 49
0.0
 49
0.0
 49
0.0
 49
1.0
 49
0.0
 49
0.0
 49
0.0
 49
0.0
 49
1.0
175
     0
142
0.0082020997375328
142
0.0
142
0.0
142
0.0
142
0.0
142
0.0082020997375328
142
0.0
142
0.0
142
0.0
142
0.0
142
1.0
142
0.0
142
0.0
142
0.0
142
0.0
142
1.0
179
     0
144
0.0082020997375328
144
0.0
144
0.0
144
0.0
144
0.0
144
0.0082020997375328
144
0.0
144
0.0
144
0.0
144
0.0
144
1.0
144
0.0
144
0.0
144
0.0
144
0.0
144
1.0
147
0.0082020997375328
147
0.0
147
0.0
147
0.0
147
0.0
147
0.0082020997375328
147
0.0
147
0.0
147
0.0
147
0.0
147
1.0
147
0.0
147
0.0
147
0.0
147
0.0
147
1.0
  0
MATERIAL
  5
787A
102
{ACAD_XDICTIONARY
360
787B
102
}
102
{ACAD_REACTORS
330
DC1
102
}
330
DC1
100
AcDbMaterial
  1
ByLayer
 72
     0
 43
0.0082020997375328
 43
0.0
 43
0.0
 43
0.0
 43
0.0
 43
0.0082020997375328
 43
0.0
 43
0.0
 43
0.0
 43
0.0
 43
1.0
 43
0.0
 43
0.0
 43
0.0
 43
0.0
 43
1.0
 77
     0
 47
0.0082020997375328
 47
0.0
 47
0.0
 47
0.0
 47
0.0
 47
0.0082020997375328
 47
0.0
 47
0.0
 47
0.0
 47
0.0
 47
1.0
 47
0.0
 47
0.0
 47
0.0
 47
0.0
 47
1.0
171
     0
 49
0.0082020997375328
 49
0.0
 49
0.0
 49
0.0
 49
0.0
 49
0.0082020997375328
 49
0.0
 49
0.0
 49
0.0
 49
0.0
 49
1.0
 49
0.0
 49
0.0
 49
0.0
 49
0.0
 49
1.0
175
     0
142
0.0082020997375328
142
0.0
142
0.0
142
0.0
142
0.0
142
0.0082020997375328
142
0.0
142
0.0
142
0.0
142
0.0
142
1.0
142
0.0
142
0.0
142
0.0
142
0.0
142
1.0
179
     0
144
0.0082020997375328
144
0.0
144
0.0
144
0.0
144
0.0
144
0.0082020997375328
144
0.0
144
0.0
144
0.0
144
0.0
144
1.0
144
0.0
144
0.0
144
0.0
144
0.0
144
1.0
147
0.0082020997375328
147
0.0
147
0.0
147
0.0
147
0.0
147
0.0082020997375328
147
0.0
147
0.0
147
0.0
147
0.0
147
1.0
147
0.0
147
0.0
147
0.0
147
0.0
147
1.0
  0
MATERIAL
  5
788A
102
{ACAD_XDICTIONARY
360
788B
102
}
102
{ACAD_REACTORS
330
DC1
102
}
330
DC1
100
AcDbMaterial
  1
Global
 72
     0
 43
0.0082020997375328
 43
0.0
 43
0.0
 43
0.0
 43
0.0
 43
0.0082020997375328
 43
0.0
 43
0.0
 43
0.0
 43
0.0
 43
1.0
 43
0.0
 43
0.0
 43
0.0
 43
0.0
 43
1.0
 77
     0
 47
0.0082020997375328
 47
0.0
 47
0.0
 47
0.0
 47
0.0
 47
0.0082020997375328
 47
0.0
 47
0.0
 47
0.0
 47
0.0
 47
1.0
 47
0.0
 47
0.0
 47
0.0
 47
0.0
 47
1.0
171
     0
 49
0.0082020997375328
 49
0.0
 49
0.0
 49
0.0
 49
0.0
 49
0.0082020997375328
 49
0.0
 49
0.0
 49
0.0
 49
0.0
 49
1.0
 49
0.0
 49
0.0
 49
0.0
 49
0.0
 49
1.0
175
     0
142
0.0082020997375328
142
0.0
142
0.0
142
0.0
142
0.0
142
0.0082020997375328
142
0.0
142
0.0
142
0.0
142
0.0
142
1.0
142
0.0
142
0.0
142
0.0
142
0.0
142
1.0
179
     0
144
0.0082020997375328
144
0.0
144
0.0
144
0.0
144
0.0
144
0.0082020997375328
144
0.0
144
0.0
144
0.0
144
0.0
144
1.0
144
0.0
144
0.0
144
0.0
144
0.0
144
1.0
147
0.0082020997375328
147
0.0
147
0.0
147
0.0
147
0.0
147
0.0082020997375328
147
0.0
147
0.0
147
0.0
147
0.0
147
1.0
147
0.0
147
0.0
147
0.0
147
0.0
147
1.0
  0
MLEADERSTYLE
  5
78BC
102
{ACAD_REACTORS
330
78BB
102
}
330
78BB
100
AcDbMLeaderStyle
170
     2
171
     1
172
     0
 90
        2
 40
0.0
 41
0.0
173
     1
 91
-1056964608
340
14
 92
       -2
290
     1
 42
2.0
291
     1
 43
0.36
  3
Standard
 44
4.0
300

342
11
174
     1
178
     6
175
     1
176
     0
 93
-1056964608
 45
4.0
292
     0
297
     0
 46
4.0
 94
-1056964608
 47
1.0
 49
1.0
140
1.0
293
     1
141
0.0
294
     1
177
     0
142
1.0
295
     0
296
     0
143
0.125
1001
ACAD_MLEADERVER
1070
     2
  0
MLINESTYLE
  5
18
102
{ACAD_REACTORS
330
17
102
}
330
17
100
AcDbMlineStyle
  2
STANDARD
 70
     0
  3

 62
   256
 51
90.0
 52
90.0
 71
     2
 49
0.5
 62
   256
  6
BYLAYER
 49
-0.5
 62
   256
  6
BYLAYER
  0
PLOTSETTINGS
  5
2889
102
{ACAD_XDICTIONARY
360
8F6F
102
}
102
{ACAD_REACTORS
330
19
102
}
330
19
100
AcDbPlotSettings
  1
A3 poziom-DWF-FULL-layout
  2
DWF6 ePlot.pc3
  4
ISO_full_bleed_A3_(420.00_x_297.00_MM)
  6

 40
0.7937499880790711
 41
0.7937499880790711
 42
0.79376220703125
 43
0.79376220703125
 44
420.0
 45
297.0
 46
0.0
 47
0.0
 48
0.0
 49
0.0
140
0.0
141
0.0
142
1.0
143
1.0
 70
   688
 72
     1
 73
     0
 74
     5
  7
monochrome_140.ctb
 75
    16
147
1.0
148
0.0
149
0.0
  0
PLOTSETTINGS
  5
288A
102
{ACAD_XDICTIONARY
360
8F71
102
}
102
{ACAD_REACTORS
330
19
102
}
330
19
100
AcDbPlotSettings
  1
A4 pion-DWF-FULL-layout
  2
DWF6 ePlot.pc3
  4
ISO_full_bleed_A4_(210.00_x_297.00_MM)
  6

 40
0.7937499880790711
 41
0.7937499880790711
 42
0.7937469482421875
 43
0.79376220703125
 44
210.0
 45
297.0
 46
0.0
 47
0.0
 48
0.0
 49
0.0
140
0.0
141
0.0
142
1.0
143
1.0
 70
   672
 72
     1
 73
     0
 74
     5
  7
monochrome_140.ctb
 75
     0
147
1.0
148
0.0
149
0.0
  0
ACDBPLACEHOLDER
  5
2AC
102
{ACAD_REACTORS
330
E
102
}
330
E
  0
ACDBPLACEHOLDER
  5
1E1
102
{ACAD_REACTORS
330
E
102
}
330
E
  0
ACDBPLACEHOLDER
  5
26D
102
{ACAD_REACTORS
330
E
102
}
330
E
  0
ACDBPLACEHOLDER
  5
F
102
{ACAD_REACTORS
330
E
102
}
330
E
  0
ACDBPLACEHOLDER
  5
48F2
102
{ACAD_REACTORS
330
E
102
}
330
E
  0
ACDBPLACEHOLDER
  5
48F3
102
{ACAD_REACTORS
330
E
102
}
330
E
  0
ACDBPLACEHOLDER
  5
48F4
102
{ACAD_REACTORS
330
E
102
}
330
E
  0
SCALE
  5
78A6
102
{ACAD_REACTORS
330
78A5
102
}
330
78A5
100
AcDbScale
 70
     0
300
1:1
140
1.0
141
0.1
290
     0
  0
SCALE
  5
78A7
102
{ACAD_REACTORS
330
78A5
102
}
330
78A5
100
AcDbScale
 70
     0
300
1:2
140
1.0
141
0.2
290
     0
  0
SCALE
  5
78A8
102
{ACAD_REACTORS
330
78A5
102
}
330
78A5
100
AcDbScale
 70
     0
300
1:2.5
140
1.0
141
0.25
290
     0
  0
SCALE
  5
78A9
102
{ACAD_REACTORS
330
78A5
102
}
330
78A5
100
AcDbScale
 70
     0
300
1:5
140
1.0
141
0.5
290
     0
  0
SCALE
  5
78AA
102
{ACAD_REACTORS
330
78A5
102
}
330
78A5
100
AcDbScale
 70
     0
300
1:7.5
140
1.0
141
0.75
290
     0
  0
SCALE
  5
78AB
102
{ACAD_REACTORS
330
78A5
102
}
330
78A5
100
AcDbScale
 70
     0
300
1:10
140
1.0
141
1.0
290
     1
  0
SCALE
  5
78AC
102
{ACAD_REACTORS
330
78A5
102
}
330
78A5
100
AcDbScale
 70
     0
300
1:20
140
1.0
141
2.0
290
     0
  0
SCALE
  5
78AD
102
{ACAD_REACTORS
330
78A5
102
}
330
78A5
100
AcDbScale
 70
     0
300
1:25
140
1.0
141
2.5
290
     0
  0
SCALE
  5
78AE
102
{ACAD_REACTORS
330
78A5
102
}
330
78A5
100
AcDbScale
 70
     0
300
1:50
140
1.0
141
5.0
290
     0
  0
SCALE
  5
78AF
102
{ACAD_REACTORS
330
78A5
102
}
330
78A5
100
AcDbScale
 70
     0
300
1:75
140
1.0
141
7.5
290
     0
  0
SCALE
  5
78B0
102
{ACAD_REACTORS
330
78A5
102
}
330
78A5
100
AcDbScale
 70
     0
300
1:100
140
1.0
141
10.0
290
     0
  0
SCALE
  5
78B1
102
{ACAD_REACTORS
330
78A5
102
}
330
78A5
100
AcDbScale
 70
     0
300
1:150
140
1.0
141
15.0
290
     0
  0
SCALE
  5
78B2
102
{ACAD_REACTORS
330
78A5
102
}
330
78A5
100
AcDbScale
 70
     0
300
1:200
140
1.0
141
20.0
290
     0
  0
SCALE
  5
78B3
102
{ACAD_REACTORS
330
78A5
102
}
330
78A5
100
AcDbScale
 70
     0
300
1:250
140
1.0
141
25.0
290
     0
  0
SCALE
  5
78B4
102
{ACAD_REACTORS
330
78A5
102
}
330
78A5
100
AcDbScale
 70
     0
300
1:500
140
1.0
141
50.0
290
     0
  0
SCALE
  5
78B5
102
{ACAD_REACTORS
330
78A5
102
}
330
78A5
100
AcDbScale
 70
     0
300
1:750
140
1.0
141
75.0
290
     0
  0
SCALE
  5
78B6
102
{ACAD_REACTORS
330
78A5
102
}
330
78A5
100
AcDbScale
 70
     0
300
1:1000
140
1.0
141
100.0
290
     0
  0
SCALE
  5
78B7
102
{ACAD_REACTORS
330
78A5
102
}
330
78A5
100
AcDbScale
 70
     0
300
1:1250
140
1.0
141
125.0
290
     0
  0
SCALE
  5
78B8
102
{ACAD_REACTORS
330
78A5
102
}
330
78A5
100
AcDbScale
 70
     0
300
1:2000
140
1.0
141
200.0
290
     0
  0
SCALE
  5
78B9
102
{ACAD_REACTORS
330
78A5
102
}
330
78A5
100
AcDbScale
 70
     0
300
1:2500
140
1.0
141
250.0
290
     0
  0
SCALE
  5
78BA
102
{ACAD_REACTORS
330
78A5
102
}
330
78A5
100
AcDbScale
 70
     0
300
1:5000
140
1.0
141
500.0
290
     0
  0
TABLESTYLE
  5
78A4
102
{ACAD_XDICTIONARY
360
7BA5
102
}
102
{ACAD_REACTORS
330
78A3
102
}
330
78A3
100
AcDbTableStyle
  3
Standard
 70
     0
 71
     0
 40
1.5
 41
1.5
280
     0
281
     0
  7
Standard
140
4.5
170
     2
 62
     0
 63
     7
283
     0
274
    -2
284
     1
 64
     0
275
    -2
285
     1
 65
     0
276
    -2
286
     1
 66
     0
277
    -2
287
     1
 67
     0
278
    -2
288
     1
 68
     0
279
    -2
289
     1
 69
     0
  7
Standard
140
6.0
170
     5
 62
     0
 63
     7
283
     0
274
    -2
284
     1
 64
     0
275
    -2
285
     1
 65
     0
276
    -2
286
     1
 66
     0
277
    -2
287
     1
 67
     0
278
    -2
288
     1
 68
     0
279
    -2
289
     1
 69
     0
  7
Standard
140
4.5
170
     5
 62
     0
 63
     7
283
     0
274
    -2
284
     1
 64
     0
275
    -2
285
     1
 65
     0
276
    -2
286
     1
 66
     0
277
    -2
287
     1
 67
     0
278
    -2
288
     1
 68
     0
279
    -2
289
     1
 69
     0
  0
VISUALSTYLE
  5
7898
102
{ACAD_REACTORS
330
7892
102
}
330
7892
100
AcDbVisualStyle
  2
2dWireframe
 70
     4
 71
     0
 72
     2
 73
     0
 90
        0
 40
-0.6
 41
-30.0
 62
     5
 63
     7
 74
     1
 91
        4
 64
     7
 65
   257
 75
     1
175
     1
 42
1.0
 92
        0
 66
   257
 43
1.0
 76
     1
 77
     6
 78
     2
 67
     7
 79
     5
170
     0
171
     0
290
     0
174
     0
 93
        1
 44
0.0
173
     0
291
     0
 45
0.0
1001
ACAD
1000
AcDbSavedByObjectVersion
1070
     0
  0
VISUALSTYLE
  5
789A
102
{ACAD_REACTORS
330
7892
102
}
330
7892
100
AcDbVisualStyle
  2
3D Hidden
 70
     6
 71
     1
 72
     2
 73
     2
 90
        0
 40
-0.6
 41
-30.0
 62
     5
 63
     7
 74
     2
 91
        2
 64
     7
 65
   257
 75
     2
175
     1
 42
40.0
 92
        0
 66
   257
 43
1.0
 76
     1
 77
     6
 78
     2
 67
     7
 79
     3
170
     0
171
     0
290
     0
174
     0
 93
        1
 44
0.0
173
     0
291
     0
 45
0.0
1001
ACAD
1000
AcDbSavedByObjectVersion
1070
     0
  0
VISUALSTYLE
  5
7899
102
{ACAD_REACTORS
330
7892
102
}
330
7892
100
AcDbVisualStyle
  2
3dWireframe
 70
     5
 71
     0
 72
     2
 73
     0
 90
        0
 40
-0.6
 41
-30.0
 62
     5
 63
     7
 74
     1
 91
        4
 64
     7
 65
   257
 75
     1
175
     1
 42
1.0
 92
        0
 66
   257
 43
1.0
 76
     1
 77
     6
 78
     2
 67
     7
 79
     5
170
     0
171
     0
290
     0
174
     0
 93
        1
 44
0.0
173
     0
291
     0
 45
0.0
1001
ACAD
1000
AcDbSavedByObjectVersion
1070
     0
  0
VISUALSTYLE
  5
7897
102
{ACAD_REACTORS
330
7892
102
}
330
7892
100
AcDbVisualStyle
  2
Basic
 70
     7
 71
     1
 72
     0
 73
     1
 90
        0
 40
-0.6
 41
-30.0
 62
     5
 63
     7
 74
     0
 91
        4
 64
     7
 65
   257
 75
     1
175
     1
 42
1.0
 92
        8
 66
     7
 43
1.0
 76
     1
 77
     6
 78
     2
 67
     7
 79
     5
170
     0
171
     0
290
     0
174
     0
 93
        1
 44
0.0
173
     0
291
     1
 45
0.0
1001
ACAD
1000
AcDbSavedByObjectVersion
1070
     0
  0
VISUALSTYLE
  5
789E
102
{ACAD_REACTORS
330
7892
102
}
330
7892
100
AcDbVisualStyle
  2
Brighten
 70
    12
 71
     2
 72
     2
 73
     0
 90
        0
 40
-0.6
 41
-30.0
 62
     5
 63
     7
 74
     1
 91
        4
 64
     7
 65
   257
 75
     1
175
     1
 42
1.0
 92
        8
 66
     7
 43
1.0
 76
     1
 77
     6
 78
     2
 67
     7
 79
     5
170
     0
171
     0
290
     0
174
     0
 93
        1
 44
50.0
173
     0
291
     1
 45
0.0
1001
ACAD
1000
AcDbSavedByObjectVersion
1070
     0
  0
VISUALSTYLE
  5
78A2
102
{ACAD_REACTORS
330
7892
102
}
330
7892
100
AcDbVisualStyle
  2
ColorChange
 70
    16
 71
     2
 72
     2
 73
     3
 90
        0
 40
-0.6
 41
-30.0
 62
     5
 63
     8
 74
     1
 91
        4
 64
     7
 65
   257
 75
     1
175
     1
 42
1.0
 92
        8
 66
     8
 43
1.0
 76
     1
 77
     6
 78
     2
 67
     7
 79
     5
170
     0
171
     0
290
     0
174
     0
 93
        1
 44
0.0
173
     0
291
     1
 45
0.0
1001
ACAD
1000
AcDbSavedByObjectVersion
1070
     0
  0
VISUALSTYLE
  5
789B
102
{ACAD_REACTORS
330
7892
102
}
330
7892
100
AcDbVisualStyle
  2
Conceptual
 70
     9
 71
     3
 72
     2
 73
     0
 90
        0
 40
-0.6
 41
-30.0
 62
     5
 63
     7
 74
     2
 91
        2
 64
     7
 65
   257
 75
     1
175
     1
 42
40.0
 92
        8
 66
     7
 43
1.0
 76
     1
 77
     6
 78
     2
 67
     7
 79
     3
170
     0
171
     0
290
     0
174
     0
 93
        1
 44
0.0
173
     0
291
     0
 45
0.0
1001
ACAD
1000
AcDbSavedByObjectVersion
1070
     0
  0
VISUALSTYLE
  5
789D
102
{ACAD_REACTORS
330
7892
102
}
330
7892
100
AcDbVisualStyle
  2
Dim
 70
    11
 71
     2
 72
     2
 73
     0
 90
        0
 40
-0.6
 41
-30.0
 62
     5
 63
     7
 74
     1
 91
        4
 64
     7
 65
   257
 75
     1
175
     1
 42
1.0
 92
        8
 66
     7
 43
1.0
 76
     1
 77
     6
 78
     2
 67
     7
 79
     5
170
     0
171
     0
290
     0
174
     0
 93
        1
 44
-50.0
173
     0
291
     1
 45
0.0
1001
ACAD
1000
AcDbSavedByObjectVersion
1070
     0
  0
VISUALSTYLE
  5
78A1
102
{ACAD_REACTORS
330
7892
102
}
330
7892
100
AcDbVisualStyle
  2
Facepattern
 70
    15
 71
     2
 72
     2
 73
     0
 90
        0
 40
-0.6
 41
-30.0
 62
     5
 63
     7
 74
     1
 91
        4
 64
     7
 65
   257
 75
     1
175
     1
 42
1.0
 92
        8
 66
     7
 43
1.0
 76
     1
 77
     6
 78
     2
 67
     7
 79
     5
170
     0
171
     0
290
     0
174
     0
 93
        1
 44
0.0
173
     0
291
     1
 45
0.0
1001
ACAD
1000
AcDbSavedByObjectVersion
1070
     0
  0
VISUALSTYLE
  5
7893
102
{ACAD_REACTORS
330
7892
102
}
330
7892
100
AcDbVisualStyle
  2
Flat
 70
     0
 71
     2
 72
     1
 73
     1
 90
        2
 40
-0.6
 41
30.0
 62
     5
 63
     7
 74
     0
 91
        4
 64
     7
 65
   257
 75
     1
175
     1
 42
1.0
 92
        8
 66
     7
 43
1.0
 76
     1
 77
     6
 78
     2
 67
     7
 79
     5
170
     0
171
     0
290
     0
174
     0
 93
       13
 44
0.0
173
     0
291
     1
 45
0.0
1001
ACAD
1000
AcDbSavedByObjectVersion
1070
     0
  0
VISUALSTYLE
  5
7894
102
{ACAD_REACTORS
330
7892
102
}
330
7892
100
AcDbVisualStyle
  2
FlatWithEdges
 70
     1
 71
     2
 72
     1
 73
     1
 90
        2
 40
-0.6
 41
30.0
 62
     5
 63
     7
 74
     1
 91
        4
 64
     7
 65
   257
 75
     1
175
     1
 42
1.0
 92
        0
 66
   257
 43
1.0
 76
     1
 77
     6
 78
     2
 67
     7
 79
     5
170
     0
171
     0
290
     0
174
     0
 93
       13
 44
0.0
173
     0
291
     1
 45
0.0
1001
ACAD
1000
AcDbSavedByObjectVersion
1070
     0
  0
VISUALSTYLE
  5
7895
102
{ACAD_REACTORS
330
7892
102
}
330
7892
100
AcDbVisualStyle
  2
Gouraud
 70
     2
 71
     2
 72
     2
 73
     1
 90
        2
 40
-0.6
 41
30.0
 62
     5
 63
     7
 74
     0
 91
        4
 64
     7
 65
   257
 75
     1
175
     1
 42
1.0
 92
        0
 66
     7
 43
1.0
 76
     1
 77
     6
 78
     2
 67
     7
 79
     5
170
     0
171
     0
290
     0
174
     0
 93
       13
 44
0.0
173
     0
291
     1
 45
0.0
1001
ACAD
1000
AcDbSavedByObjectVersion
1070
     0
  0
VISUALSTYLE
  5
7896
102
{ACAD_REACTORS
330
7892
102
}
330
7892
100
AcDbVisualStyle
  2
GouraudWithEdges
 70
     3
 71
     2
 72
     2
 73
     1
 90
        2
 40
-0.6
 41
30.0
 62
     5
 63
     7
 74
     1
 91
        4
 64
     7
 65
   257
 75
     1
175
     1
 42
1.0
 92
        0
 66
   257
 43
1.0
 76
     1
 77
     6
 78
     2
 67
     7
 79
     5
170
     0
171
     0
290
     0
174
     0
 93
       13
 44
0.0
173
     0
291
     1
 45
0.0
1001
ACAD
1000
AcDbSavedByObjectVersion
1070
     0
  0
VISUALSTYLE
  5
78A0
102
{ACAD_REACTORS
330
7892
102
}
330
7892
100
AcDbVisualStyle
  2
Linepattern
 70
    14
 71
     2
 72
     2
 73
     0
 90
        0
 40
-0.6
 41
-30.0
 62
     5
 63
     7
 74
     1
 91
        4
 64
     7
 65
   257
 75
     7
175
     7
 42
1.0
 92
        8
 66
     7
 43
1.0
 76
     1
 77
     6
 78
     2
 67
     7
 79
     5
170
     0
171
     0
290
     0
174
     0
 93
        1
 44
0.0
173
     0
291
     1
 45
0.0
1001
ACAD
1000
AcDbSavedByObjectVersion
1070
     0
  0
VISUALSTYLE
  5
789C
102
{ACAD_REACTORS
330
7892
102
}
330
7892
100
AcDbVisualStyle
  2
Realistic
 70
     8
 71
     2
 72
     2
 73
     0
 90
        0
 40
-0.6
 41
-30.0
 62
     5
 63
     7
 74
     1
 91
        0
 64
     7
 65
   257
 75
     1
175
     1
 42
1.0
 92
        8
 66
     8
 43
1.0
 76
     1
 77
     6
 78
     2
 67
     7
 79
     5
170
     0
171
     0
290
     0
174
     0
 93
       13
 44
0.0
173
     0
291
     0
 45
0.0
1001
ACAD
1000
AcDbSavedByObjectVersion
1070
     0
  0
VISUALSTYLE
  5
789F
102
{ACAD_REACTORS
330
7892
102
}
330
7892
100
AcDbVisualStyle
  2
Thicken
 70
    13
 71
     2
 72
     2
 73
     0
 90
        0
 40
-0.6
 41
-30.0
 62
     5
 63
     7
 74
     1
 91
        4
 64
     7
 65
   257
 75
     1
175
     1
 42
1.0
 92
       12
 66
     7
 43
1.0
 76
     1
 77
     6
 78
     2
 67
     7
 79
     5
170
     0
171
     0
290
     0
174
     0
 93
        1
 44
0.0
173
     0
291
     1
 45
0.0
1001
ACAD
1000
AcDbSavedByObjectVersion
1070
     0
  0
DICTIONARYVAR
  5
7BAB
102
{ACAD_REACTORS
330
2C
102
}
330
2C
100
DictionaryVariables
280
     0
  1
1:100
  0
DICTIONARYVAR
  5
7BA9
102
{ACAD_REACTORS
330
2C
102
}
330
2C
100
DictionaryVariables
280
     0
  1
STANDARD
  0
DICTIONARYVAR
  5
7BA8
102
{ACAD_REACTORS
330
2C
102
}
330
2C
100
DictionaryVariables
280
     0
  1
STANDARD
  0
DICTIONARYVAR
  5
2E
102
{ACAD_REACTORS
330
2C
102
}
330
2C
100
DictionaryVariables
280
     0
  1
2
  0
DICTIONARYVAR
  5
2D
102
{ACAD_REACTORS
330
2C
102
}
330
2C
100
DictionaryVariables
280
     0
  1
1
  0
DICTIONARYVAR
  5
8F5D
102
{ACAD_REACTORS
330
2C
102
}
330
2C
100
DictionaryVariables
280
     0
  1
2
  0
DICTIONARYVAR
  5
7BAD
102
{ACAD_REACTORS
330
2C
102
}
330
2C
100
DictionaryVariables
280
     0
  1
1
  0
DICTIONARYVAR
  5
7BAE
102
{ACAD_REACTORS
330
2C
102
}
330
2C
100
DictionaryVariables
280
     0
  1
15
  0
DICTIONARYVAR
  5
7BAC
102
{ACAD_REACTORS
330
2C
102
}
330
2C
100
DictionaryVariables
280
     0
  1
0
  0
DICTIONARYVAR
  5
7BAA
102
{ACAD_REACTORS
330
2C
102
}
330
2C
100
DictionaryVariables
280
     0
  1
0
  0
DICTIONARYVAR
  5
8F5E
102
{ACAD_REACTORS
330
2C
102
}
330
2C
100
DictionaryVariables
280
     0
  1
0
  0
DICTIONARYVAR
  5
8F5C
102
{ACAD_REACTORS
330
2C
102
}
330
2C
100
DictionaryVariables
280
     0
  1
97
  0
ACAD_PROXY_OBJECT
  5
27B7
102
{ACAD_REACTORS
330
30
102
}
330
30
100
AcDbProxyObject
 90
      499
 91
      856
 95
       25
 70
     0
 93
       95
310
4A34D128929A8942518942C9
340
27B8
 94
        0
1001
ACAD
1000
AcRTDxfName
1000
ABAD_DB_DISPREP_ROOF_HATCH
  0
ACAD_PROXY_OBJECT
  5
27B9
102
{ACAD_REACTORS
330
30
102
}
330
30
100
AcDbProxyObject
 90
      499
 91
      858
 95
       25
 70
     0
 93
      105
310
4A34D128929A894251894250B27F
340
27BA
 94
        0
1001
ACAD
1000
AcRTDxfName
1000
ABAD_DB_DISPREP_ROOFSLAB_HATCH
  0
ACAD_PROXY_OBJECT
  5
2796
102
{ACAD_REACTORS
330
30
102
}
330
30
100
AcDbProxyObject
 90
      499
 91
      826
 95
       25
 70
     0
 93
       85
310
4A34D128929A8942518B27
340
2797
 94
        0
1001
ACAD
1000
AcRTDxfName
1000
ABAD_DB_WINROOF_DISPREP
  0
ACAD_PROXY_OBJECT
  5
2798
102
{ACAD_REACTORS
330
30
102
}
330
30
100
AcDbProxyObject
 90
      499
 91
      828
 95
       25
 70
     0
 93
       85
310
4A34D128929A8942518B27
340
2799
 94
        0
1001
ACAD
1000
AcRTDxfName
1000
ABAD_DB_WINROOF_DISPREP_DRAWINGROOF
  0
ACAD_PROXY_OBJECT
  5
279A
102
{ACAD_REACTORS
330
30
102
}
330
30
100
AcDbProxyObject
 90
      499
 91
      830
 95
       25
 70
     0
 93
       85
310
4A34D128929A8942518B27
340
279C
 94
        0
1001
ACAD
1000
AcRTDxfName
1000
ABAD_DB_WINROOF_DISPREP_PLAN
  0
ACAD_PROXY_OBJECT
  5
27BD
102
{ACAD_REACTORS
330
30
102
}
330
30
100
AcDbProxyObject
 90
      499
 91
      861
 95
       25
 70
     0
 93
      115
310
4A34D128929A894251894250942C9F
340
27BE
 94
        0
1001
ACAD
1000
AcRTDxfName
1000
ABAD_WIN_PANELS_DISPREP
  0
ACAD_PROXY_OBJECT
  5
27BB
102
{ACAD_REACTORS
330
30
102
}
330
30
100
AcDbProxyObject
 90
      499
 91
      859
 95
       25
 70
     0
 93
      125
310
4A34D128929A89425189425094250B27
340
27BC
 94
        0
1001
ACAD
1000
AcRTDxfName
1000
ABAD_WIN_PANELS_ELEVATION_DISPREP
  0
ACAD_PROXY_OBJECT
  5
27BF
102
{ACAD_REACTORS
330
30
102
}
330
30
100
AcDbProxyObject
 90
      499
 91
      862
 95
       25
 70
     0
 93
      115
310
4A34D128929A894251894250942C9F
340
27C0
 94
        0
1001
ACAD
1000
AcRTDxfName
1000
ABAD_DOOR_DISP_REP
  0
ACAD_PROXY_OBJECT
  5
27C4
102
{ACAD_REACTORS
330
30
102
}
330
30
100
AcDbProxyObject
 90
      499
 91
      866
 95
       25
 70
     0
 93
       85
310
4A34D128929A8942518B27
340
27C5
 94
        0
1001
ACAD
1000
AcRTDxfName
1000
ABAD_ISOLATION_DISPREP
  0
ACAD_PROXY_OBJECT
  5
279D
102
{ACAD_REACTORS
330
30
102
}
330
30
100
AcDbProxyObject
 90
      499
 91
      832
 95
       25
 70
     0
 93
       85
310
4A34D128929A8942518B27
340
279E
 94
        0
1001
ACAD
1000
AcRTDxfName
1000
ABAD_PLATEOPENING_DISPREP_DESC
  0
ACAD_PROXY_OBJECT
  5
279F
102
{ACAD_REACTORS
330
30
102
}
330
30
100
AcDbProxyObject
 90
      499
 91
      834
 95
       25
 70
     0
 93
       85
310
4A34D128929A8942518B27
340
27A0
 94
        0
1001
ACAD
1000
AcRTDxfName
1000
ABAD_PLATEOPENING_DISPREP_MODEL
  0
ACAD_PROXY_OBJECT
  5
27A1
102
{ACAD_REACTORS
330
30
102
}
330
30
100
AcDbProxyObject
 90
      499
 91
      836
 95
       25
 70
     0
 93
       85
310
4A34D128929A8942518B27
340
27A2
 94
        0
1001
ACAD
1000
AcRTDxfName
1000
ABAD_PLATEOPENING_DISPREP_PLAN
  0
ACAD_PROXY_OBJECT
  5
27A3
102
{ACAD_REACTORS
330
30
102
}
330
30
100
AcDbProxyObject
 90
      499
 91
      838
 95
       25
 70
     0
 93
       95
310
4A34D128929A8942518B22C9
340
27A4
 94
        0
1001
ACAD
1000
AcRTDxfName
1000
ABAD_PLATEOPENING_DISPREP_SIMPLE
  0
ACAD_PROXY_OBJECT
  5
27A7
102
{ACAD_REACTORS
330
30
102
}
330
30
100
AcDbProxyObject
 90
      499
 91
      842
 95
       25
 70
     0
 93
       95
310
4A34D128929A8942518B22C9
340
27A8
 94
        0
1001
ACAD
1000
AcRTDxfName
1000
ABAD_PLATE_DISPREPCEILING
  0
ACAD_PROXY_OBJECT
  5
27A9
102
{ACAD_REACTORS
330
30
102
}
330
30
100
AcDbProxyObject
 90
      499
 91
      843
 95
       25
 70
     0
 93
       85
310
4A34D128929A8942518B27
340
27AA
 94
        0
1001
ACAD
1000
AcRTDxfName
1000
ABAD_PLATE_DISPREPMODEL
  0
ACAD_PROXY_OBJECT
  5
27A5
102
{ACAD_REACTORS
330
30
102
}
330
30
100
AcDbProxyObject
 90
      499
 91
      840
 95
       25
 70
     0
 93
       85
310
4A34D128929A8942518B27
340
27A6
 94
        0
1001
ACAD
1000
AcRTDxfName
1000
ABAD_PLATE_DISPREPPLAN
  0
ACAD_PROXY_OBJECT
  5
27AB
102
{ACAD_REACTORS
330
30
102
}
330
30
100
AcDbProxyObject
 90
      499
 91
      845
 95
       25
 70
     0
 93
      105
310
4A34D128929A894251894250B27F
340
27AC
 94
        0
1001
ACAD
1000
AcRTDxfName
1000
ABAD_ROOF_OUTLINE_DISPREP
  0
ACAD_PROXY_OBJECT
  5
27AD
102
{ACAD_REACTORS
330
30
102
}
330
30
100
AcDbProxyObject
 90
      499
 91
      847
 95
       25
 70
     0
 93
      105
310
4A34D128929A894251894250B27F
340
27AE
 94
        0
1001
ACAD
1000
AcRTDxfName
1000
ABAD_ROOF_PLANLOFT_DISPREP
  0
ACAD_PROXY_OBJECT
  5
27AF
102
{ACAD_REACTORS
330
30
102
}
330
30
100
AcDbProxyObject
 90
      499
 91
      849
 95
       25
 70
     0
 93
      105
310
4A34D128929A894251894250B27F
340
27B0
 94
        0
1001
ACAD
1000
AcRTDxfName
1000
ABAD_STAIR_DESC_DISPREP
  0
ACAD_PROXY_OBJECT
  5
27B1
102
{ACAD_REACTORS
330
30
102
}
330
30
100
AcDbProxyObject
 90
      499
 91
      851
 95
       25
 70
     0
 93
      105
310
4A34D128929A894251894250B27F
340
27B2
 94
        0
1001
ACAD
1000
AcRTDxfName
1000
ABAD_STAIR_DISP_REP
  0
ACAD_PROXY_OBJECT
  5
27C1
102
{ACAD_REACTORS
330
30
102
}
330
30
100
AcDbProxyObject
 90
      499
 91
      864
 95
       25
 70
     0
 93
      115
310
4A34D128929A894251894250942C9F
340
27C2
 94
        0
1001
ACAD
1000
AcRTDxfName
1000
ABAD_DOOR_THRESHOLD_DISP_REP
  0
ACAD_PROXY_OBJECT
  5
27B3
102
{ACAD_REACTORS
330
30
102
}
330
30
100
AcDbProxyObject
 90
      499
 91
      853
 95
       25
 70
     0
 93
      105
310
4A34D128929A894251894250B27F
340
0
 94
        0
1001
ACAD
1000
AcRTDxfName
1000
ABAD_WALL_DISP_REP
  0
ACAD_PROXY_OBJECT
  5
27B5
102
{ACAD_REACTORS
330
30
102
}
330
30
100
AcDbProxyObject
 90
      499
 91
      854
 95
       25
 70
     0
 93
      115
310
4A34D128929A894251894250942C9F
340
27B6
 94
        0
1001
ACAD
1000
AcRTDxfName
1000
ABAD_WINDOW_DISP_REP
  0
ACAD_PROXY_OBJECT
  5
27A8
102
{ACAD_REACTORS
330
32
102
}
330
32
100
AcDbProxyObject
 90
      499
 91
      841
 95
       25
 70
     0
 93
      480
310
4A34D128929A894250B20000000000000B28094494494600000030400FEFF501928928928C00000060801FDFEA032512512518000000C1003FBFD40600
340
10
340
14
340
0
340
10
340
279B
340
0
340
10
340
14
340
0
 94
        0
1001
ACAD
1000
AcRTDxfName
1000
ABAD_PLATE_DISPPROPS_PLAN
  0
ACAD_PROXY_OBJECT
  5
27C0
102
{ACAD_REACTORS
330
32
102
}
330
32
100
AcDbProxyObject
 90
      499
 91
      863
 95
       25
 70
     0
 93
      303
310
4A34D128929A894250B22512512518000000C1003FBFD4064A24A24A3000000182007F7FA80D
340
10
340
14
340
0
340
10
340
14
340
0
 94
        0
1001
ACAD
1000
AcRTDxfName
1000
ABAD_DOOR_DISP_PROP
  0
ACAD_PROXY_OBJECT
  5
27BE
102
{ACAD_REACTORS
330
32
102
}
330
32
100
AcDbProxyObject
 90
      499
 91
      860
 95
       25
 70
     0
 93
      192
310
4A34D128929A894250B22512512518000000C1003FBFD406D1
340
10
340
14
340
0
 94
        0
1001
ACAD
1000
AcRTDxfName
1000
ABAD_WIN_PANELS_DISPPROP
  0
ACAD_PROXY_OBJECT
  5
27AC
102
{ACAD_REACTORS
330
32
102
}
330
32
100
AcDbProxyObject
 90
      499
 91
      846
 95
       25
 70
     0
 93
      303
310
4A34D128929A894250B22512512518000000C1003FBFD4064A24A24A3000000182007F7FA80D
340
10
340
14
340
0
340
10
340
14
340
0
 94
        0
1001
ACAD
1000
AcRTDxfName
1000
ABAD_ROOF_OUTLINE_DISP_PROP
  0
ACAD_PROXY_OBJECT
  5
279E
102
{ACAD_REACTORS
330
32
102
}
330
32
100
AcDbProxyObject
 90
      499
 91
      833
 95
       25
 70
     0
 93
      264
310
4A34D128929A894250B22512512518000000C1003FBFD40680000000000000440A00
340
10
340
14
340
0
340
338
 94
        0
1001
ACAD
1000
AcRTDxfName
1000
ABAD_PLATEOPENING_DISPPROPS_DESC
  0
ACAD_PROXY_OBJECT
  5
27C2
102
{ACAD_REACTORS
330
32
102
}
330
32
100
AcDbProxyObject
 90
      499
 91
      865
 95
       25
 70
     0
 93
      303
310
4A34D128929A894250B22512512518000000C1003FBFD4064A24A24A3000000182007F7FA80D
340
10
340
27C3
340
0
340
10
340
14
340
0
 94
        0
1001
ACAD
1000
AcRTDxfName
1000
ABAD_DOOR_THRESHOLD_DISP_PROP
  0
ACAD_PROXY_OBJECT
  5
2797
102
{ACAD_REACTORS
330
32
102
}
330
32
100
AcDbProxyObject
 90
      499
 91
      827
 95
       25
 70
     0
 93
      605
310
4A34D128929A894250B225125082684A512512518000000C1003FBFD406D094A24A24A3000000182007F7FA80DA1294494494600000030400FEFF501B42528928928C00800061801FDFEA037
340
10
340
14
340
0
340
10
340
14
340
0
340
10
340
14
340
0
340
10
340
14
340
0
 94
        0
1001
ACAD
1000
AcRTDxfName
1000
AB_AD_DISP_PROPS_WINROOF
  0
ACAD_PROXY_OBJECT
  5
279C
102
{ACAD_REACTORS
330
32
102
}
330
32
100
AcDbProxyObject
 90
      499
 91
      831
 95
       25
 70
     0
 93
      482
310
4A34D128929A894250B225125081E84A512512518000000C1003FBFD406D094A24A24A3000000182007F7FA80DA1294494494600400030C00FEFF501BF
340
10
340
279B
340
0
340
10
340
279B
340
0
340
10
340
14
340
0
 94
        0
1001
ACAD
1000
AcRTDxfName
1000
AB_AD_DISP_PROPS_WINROOF_PLAN
  0
ACAD_PROXY_OBJECT
  5
27A6
102
{ACAD_REACTORS
330
32
102
}
330
32
100
AcDbProxyObject
 90
      499
 91
      841
 95
       25
 70
     0
 93
      480
310
4A34D128929A894250B20000000000000B28094494494600000030400FEFF501928928928C00000060801FDFEA032512512518000000C1003FBFD406ED
340
10
340
14
340
0
340
10
340
279B
340
0
340
10
340
14
340
0
 94
        0
1001
ACAD
1000
AcRTDxfName
1000
ABAD_PLATE_DISPPROPS_PLAN
  0
ACAD_PROXY_OBJECT
  5
2799
102
{ACAD_REACTORS
330
32
102
}
330
32
100
AcDbProxyObject
 90
      499
 91
      829
 95
       25
 70
     0
 93
      605
310
4A34D128929A894250B225125082684A512512518000000C1003FBFD406D094A24A24A3000000182007F7FA80DA1294494494600000030400FEFF501B42528928928C00800061801FDFEA037
340
10
340
14
340
0
340
10
340
26E
340
0
340
10
340
14
340
0
340
10
340
14
340
0
 94
        0
1001
ACAD
1000
AcRTDxfName
1000
AB_AD_DISP_PROPS_WINROOF_DRAWINGROOF
  0
ACAD_PROXY_OBJECT
  5
27B2
102
{ACAD_REACTORS
330
32
102
}
330
32
100
AcDbProxyObject
 90
      499
 91
      852
 95
       25
 70
     0
 93
      192
310
4A34D128929A894250B22512512518000000C1003FBFD40608
340
10
340
14
340
0
 94
        0
1001
ACAD
1000
AcRTDxfName
1000
ABAD_STAIR_DISP_PROP
  0
ACAD_PROXY_OBJECT
  5
27A0
102
{ACAD_REACTORS
330
32
102
}
330
32
100
AcDbProxyObject
 90
      499
 91
      835
 95
       25
 70
     0
 93
      192
310
4A34D128929A894250B22512512518000000C1003FBFD40669
340
10
340
14
340
0
 94
        0
1001
ACAD
1000
AcRTDxfName
1000
ABAD_PLATEOPENING_DISPPROPS_MODEL
  0
ACAD_PROXY_OBJECT
  5
27AA
102
{ACAD_REACTORS
330
32
102
}
330
32
100
AcDbProxyObject
 90
      499
 91
      844
 95
       25
 70
     0
 93
      303
310
4A34D128929A894250B22512512518000000C1003FBFD4064A24A24A3000000182007F7FA80D
340
10
340
14
340
0
340
10
340
14
340
0
 94
        0
1001
ACAD
1000
AcRTDxfName
1000
ABAD_PLATE_DISPPROPS_BASE
  0
ACAD_PROXY_OBJECT
  5
27B0
102
{ACAD_REACTORS
330
32
102
}
330
32
100
AcDbProxyObject
 90
      499
 91
      850
 95
       25
 70
     0
 93
      303
310
4A34D128929A894250B22512512518000000C1003FBFD4064A24A24A3000000182007F7FA80D
340
10
340
14
340
0
340
10
340
14
340
0
 94
        0
1001
ACAD
1000
AcRTDxfName
1000
ADCG_STAIR_DESC_DISPROP
  0
ACAD_PROXY_OBJECT
  5
27BC
102
{ACAD_REACTORS
330
32
102
}
330
32
100
AcDbProxyObject
 90
      499
 91
      860
 95
       25
 70
     0
 93
      192
310
4A34D128929A894250B22512512518000000C1003FBFD406EA
340
10
340
14
340
0
 94
        0
1001
ACAD
1000
AcRTDxfName
1000
ABAD_WIN_PANELS_DISPPROP
  0
ACAD_PROXY_OBJECT
  5
27C5
102
{ACAD_REACTORS
330
32
102
}
330
32
100
AcDbProxyObject
 90
      499
 91
      867
 95
       25
 70
     0
 93
      424
310
4A34D128929A894250B220294494494600000030400FEFF501928928928C00000060801FDFEA032512512518000000C1003FBFD40600
340
10
340
14
340
0
340
10
340
14
340
0
340
10
340
14
340
0
 94
        0
1001
ACAD
1000
AcRTDxfName
1000
ABAD_ISOLATION_DISPPROPS
  0
ACAD_PROXY_OBJECT
  5
27AE
102
{ACAD_REACTORS
330
32
102
}
330
32
100
AcDbProxyObject
 90
      499
 91
      848
 95
       25
 70
     0
 93
      525
310
4A34D128929A894250B22512512518000000C1003FBFD4064A24A24A3000000182007F7FA80C94494494600000030400FEFF501928928928C00000060801FDFEA037
340
10
340
14
340
0
340
10
340
14
340
0
340
10
340
14
340
0
340
10
340
14
340
0
 94
        0
1001
ACAD
1000
AcRTDxfName
1000
ABAD_ROOF_PLANLOFT_DISPROP
  0
ACAD_PROXY_OBJECT
  5
27B6
102
{ACAD_REACTORS
330
32
102
}
330
32
100
AcDbProxyObject
 90
      499
 91
      855
 95
       25
 70
     0
 93
      192
310
4A34D128929A894250B22512512518000000C1003FBFD40600
340
10
340
14
340
0
 94
        0
1001
ACAD
1000
AcRTDxfName
1000
ABAD_WINDOW_DISP_PROP
  0
ACAD_PROXY_OBJECT
  5
27A4
102
{ACAD_REACTORS
330
32
102
}
330
32
100
AcDbProxyObject
 90
      499
 91
      839
 95
       25
 70
     0
 93
      646
310
4A34D128929A894250B22512512518000000C1003FBFD4064A24A24A3000000182007F7FA80C94494494600000030400FEFF501928928928C00000060801FDFEA032512512518000000C1003FBFD406593
340
10
340
14
340
0
340
10
340
279B
340
0
340
10
340
14
340
0
340
10
340
14
340
0
340
10
340
279B
340
0
 94
        0
1001
ACAD
1000
AcRTDxfName
1000
ABAD_PLATEOPENING_DISPPROPS_SIMPLE
  0
ACAD_PROXY_OBJECT
  5
27B8
102
{ACAD_REACTORS
330
32
102
}
330
32
100
AcDbProxyObject
 90
      499
 91
      857
 95
       25
 70
     0
 93
      473
310
4A34D128929A8942508F2512512518000000C1003FBFD4064A24A24A3000000182007F7FA80C942028420A916A929A425A2B0000000000000394057F
340
10
340
14
340
0
340
10
340
14
340
0
 94
        0
1001
ACAD
1000
AcRTDxfName
1000
ABAD_DB_DISPPROP_ROOF_HATCH
  0
ACAD_PROXY_OBJECT
  5
27A2
102
{ACAD_REACTORS
330
32
102
}
330
32
100
AcDbProxyObject
 90
      499
 91
      837
 95
       25
 70
     0
 93
      636
310
4A34D128929A894250B22512512518000000C1003FBFD4064A24A24A3000000182007F7FA80C94494494600000030400FEFF501928928928C00000060801FDFEA032512512518000000C1003FBFD406F
340
10
340
14
340
0
340
10
340
279B
340
0
340
10
340
14
340
0
340
10
340
14
340
0
340
10
340
279B
340
0
 94
        0
1001
ACAD
1000
AcRTDxfName
1000
ABAD_PLATEOPENING_DISPPROPS_PLAN
  0
ACAD_PROXY_OBJECT
  5
27BA
102
{ACAD_REACTORS
330
32
102
}
330
32
100
AcDbProxyObject
 90
      499
 91
      857
 95
       25
 70
     0
 93
      473
310
4A34D128929A8942508F2512512518000000C1003FBFD4064A24A24A3000000182007F7FA80C942028420A916A929A425A2B0000000000000394057F
340
10
340
14
340
0
340
10
340
14
340
0
 94
        0
1001
ACAD
1000
AcRTDxfName
1000
ABAD_DB_DISPPROP_ROOF_HATCH
  0
XRECORD
  5
7BCF
102
{ACAD_REACTORS
330
7BCE
102
}
330
7BCE
100
AcDbXrecord
280
     1
330
4046
330
4047
330
2289
330
232E
330
8C0D
330
8C0E
330
8C14
330
8C15
330
8C47
330
8C48
330
8C22
330
8C23
330
8C2B
330
8C2C
330
8C32
330
8C33
330
8C39
330
8C3A
330
8C40
330
8C41
330
8DF2
330
8DF3
330
8E19
330
8E1A
330
8DD7
330
8DD8
330
8DE1
330
8DE2
330
8DEB
330
8DEC
330
8DFE
330
8DFF
330
8E08
330
8E09
330
8E12
330
8E13
330
8F21
330
8F22
330
8F48
330
8F49
330
8F06
330
8F07
330
8F10
330
8F11
330
8F1A
330
8F1B
330
8F2D
330
8F2E
330
8F37
330
8F38
330
8F41
330
8F42
  0
XRECORD
  5
8D2D
102
{ACAD_REACTORS
330
42E9
102
}
330
42E9
100
AcDbXrecord
280
     1
 40
0.000001
  0
XRECORD
  5
8D30
102
{ACAD_REACTORS
330
42E9
102
}
330
42E9
100
AcDbXrecord
280
     1
 70
     0
  0
XRECORD
  5
8D2F
102
{ACAD_REACTORS
330
42E9
102
}
330
42E9
100
AcDbXrecord
280
     1
 70
     0
  0
XRECORD
  5
8D2E
102
{ACAD_REACTORS
330
42E9
102
}
330
42E9
100
AcDbXrecord
280
     1
 70
     0
  0
XRECORD
  5
7542
102
{ACAD_REACTORS
330
4E78
102
}
330
4E78
100
AcDbXrecord
280
     1
  1
1:100
  0
XRECORD
  5
7541
102
{ACAD_REACTORS
330
4E76
102
}
330
4E76
100
AcDbXrecord
280
     1
 70
    32
  0
XRECORD
  5
7543
102
{ACAD_REACTORS
330
4E7A
102
}
330
4E7A
100
AcDbXrecord
280
     1
  1
1:100
  0
XRECORD
  5
921
102
{ACAD_REACTORS
330
920
102
}
330
920
100
AcDbXrecord
280
     1
  1
Title Layers
  1
*Anno*
  1
*
  1
*
 70
     0
  1
*
  1
*
  0
XRECORD
  5
922
102
{ACAD_REACTORS
330
920
102
}
330
920
100
AcDbXrecord
280
     1
  1
XREF Insert Layers
  1
*XREF*
  1
*
  1
*
 70
     0
  1
*
  1
*
  0
SPATIAL_INDEX
  5
39DD
102
{ACAD_REACTORS
330
39DC
102
}
330
39DC
100
AcDbIndex
 40
2455182.56944625
100
AcDbSpatialIndex
 40
288242.9262654145
 40
-12268.91716645772
 40
235539.1209589533
 40
-16132.24468690378
 40
2.838047203114313E+16
 40
-0.0000000523799609
 90
        0
 90
      907
310
01FF0000FFFF0000FFFF0000FFFF0000010A0000010C210000478F9602000100010001000100060001002000100001000100010001000100010001000300080001000100010001000800010001000100010002000200010008000100ED05000079000002010D540000AEEFE00100A535000100010001000100030001000100
310
01000100010001000100010001000100010001000100010001000100010001000100010001000100010001000100010001000100010001000200010001000100010001000100010001000100010001000100010001000900030001000100010001000100010006000100010001000100010001000800030001000100010001
310
000100170014001F00180014001400E704000100010001001AC0000002011C02000008D396020063005200000002011E010000068FE00100630000000202010B0000010C01000006EC9D02006300000001090000010E2B00005AF19C0200010001000100010001000100010001000100010001000100010001000C00010001
310
0001000100010001000100010001000700010001000700010015000100010001000900030007000200010001000100010001000001000002010F06000010EC9C0200010001004000030001005F0002000008CA9D020007003D6D000002011E02000008EF9C02004F00010000000202010A0000010D0300000AB89D02000D00
310
21004000000002010F01000006959D02000D0000000202010B0000010C16000030809D02000100010004000100190006000100010001000A000200010001000A000100010001000300010007001E000000000002010D0D00001EF09C02002A0010000100010001000200100001000C00010001000A000100000002010E0E00
310
0020839D0200010001000300010001000C0001000100060003000100010039000A00000002010F01000006D99D02000D00000002012C010000069F9D02000D000000020201180000011E02000008B99D02003000210000000202011A0000011C02000008999D02001B002100000002011E0300000ADF9D0200030001004000
310
0000020201290000012D02000008B09D02001B0001000000020202010F01000005F47A00001B0000020201180000011C020000098CE00100CD3E00004000000202011A0000011E020000098EE00100CA3E0000400000020201280000012C01000006B8FB0100CA3E000002012D01000006EEE00100CA3E0000020201290000
310
012D01000006BAFB0100CA3E000002020200
  1
END ACDBSPATIALINDEX BINARY DATA
  0
DICTIONARY
  5
8F69
330
232A
100
AcDbDictionary
280
     1
281
     1
  3
ACAD_XREC_ROUNDTRIP
360
8F6A
  0
DICTIONARY
  5
8F63
330
2285
100
AcDbDictionary
280
     1
281
     1
  3
ACAD_XREC_ROUNDTRIP
360
8F64
  0
DICTIONARY
  5
8F61
330
22
100
AcDbDictionary
280
     1
281
     1
  3
ACAD_XREC_ROUNDTRIP
360
8F62
  0
DICTIONARY
  5
7883
330
7882
100
AcDbDictionary
280
     1
281
     1
  3
ACAD_XREC_ROUNDTRIP
360
8F76
  3
BUMPTILE
360
7885
  3
DIFFUSETILE
360
7884
  3
OPACITYTILE
360
7888
  3
REFLECTIONTILE
360
7887
  3
REFRACTIONTILE
360
7889
  3
SPECULARTILE
360
7886
  0
DICTIONARY
  5
787B
330
787A
100
AcDbDictionary
280
     1
281
     1
  3
ACAD_XREC_ROUNDTRIP
360
8F75
  3
BUMPTILE
360
787D
  3
DIFFUSETILE
360
787C
  3
OPACITYTILE
360
7880
  3
REFLECTIONTILE
360
787F
  3
REFRACTIONTILE
360
7881
  3
SPECULARTILE
360
787E
  0
DICTIONARY
  5
788B
330
788A
100
AcDbDictionary
280
     1
281
     1
  3
ACAD_XREC_ROUNDTRIP
360
8F77
  3
BUMPTILE
360
788D
  3
DIFFUSETILE
360
788C
  3
OPACITYTILE
360
7890
  3
REFLECTIONTILE
360
788F
  3
REFRACTIONTILE
360
7891
  3
SPECULARTILE
360
788E
  0
DICTIONARY
  5
8F6F
330
2889
100
AcDbDictionary
280
     1
281
     1
  3
ACAD_XREC_ROUNDTRIP
360
8F70
  0
DICTIONARY
  5
8F71
330
288A
100
AcDbDictionary
280
     1
281
     1
  3
ACAD_XREC_ROUNDTRIP
360
8F72
  0
DICTIONARY
  5
7BA5
330
78A4
100
AcDbDictionary
280
     1
281
     1
  3
ACAD_ROUNDTRIP_2008_TABLESTYLE_CELLSTYLEMAP
360
8F5F
  3
ACAD_XREC_ROUNDTRIP
360
8F78
  0
XRECORD
  5
8F6A
102
{ACAD_REACTORS
330
8F69
102
}
330
8F69
100
AcDbXrecord
280
     1
102
SHADEPLOT
 70
     1
102
SHADEPLOTRESLEVEL
 70
     4
102
SHADEPLOTCUSTOMDPI
 70
   600
  0
XRECORD
  5
8F64
102
{ACAD_REACTORS
330
8F63
102
}
330
8F63
100
AcDbXrecord
280
     1
102
SHADEPLOT
 70
     1
102
SHADEPLOTRESLEVEL
 70
     4
102
SHADEPLOTCUSTOMDPI
 70
   600
  0
XRECORD
  5
8F62
102
{ACAD_REACTORS
330
8F61
102
}
330
8F61
100
AcDbXrecord
280
     1
102
SHADEPLOT
 70
     1
102
SHADEPLOTRESLEVEL
 70
     2
102
SHADEPLOTCUSTOMDPI
 70
   300
  0
XRECORD
  5
8F76
102
{ACAD_REACTORS
330
7883
102
}
330
7883
100
AcDbXrecord
280
     1
102
MATERIAL
148
0.0
149
0.0
149
0.0
 93
        0
 94
      127
282
     0
 72
     0
 77
     0
171
     0
175
     0
179
     0
273
     0
  0
XRECORD
  5
7885
102
{ACAD_REACTORS
330
7883
102
}
330
7883
100
AcDbXrecord
280
     1
270
     1
271
     1
  0
XRECORD
  5
7884
102
{ACAD_REACTORS
330
7883
102
}
330
7883
100
AcDbXrecord
280
     1
270
     1
271
     1
  0
XRECORD
  5
7888
102
{ACAD_REACTORS
330
7883
102
}
330
7883
100
AcDbXrecord
280
     1
270
     1
271
     1
  0
XRECORD
  5
7887
102
{ACAD_REACTORS
330
7883
102
}
330
7883
100
AcDbXrecord
280
     1
270
     1
271
     1
  0
XRECORD
  5
7889
102
{ACAD_REACTORS
330
7883
102
}
330
7883
100
AcDbXrecord
280
     1
270
     1
271
     1
  0
XRECORD
  5
7886
102
{ACAD_REACTORS
330
7883
102
}
330
7883
100
AcDbXrecord
280
     1
270
     1
271
     1
  0
XRECORD
  5
8F75
102
{ACAD_REACTORS
330
787B
102
}
330
787B
100
AcDbXrecord
280
     1
102
MATERIAL
148
0.0
149
0.0
149
0.0
 93
        0
 94
      127
282
     0
 72
     0
 77
     0
171
     0
175
     0
179
     0
273
     0
  0
XRECORD
  5
787D
102
{ACAD_REACTORS
330
787B
102
}
330
787B
100
AcDbXrecord
280
     1
270
     1
271
     1
  0
XRECORD
  5
787C
102
{ACAD_REACTORS
330
787B
102
}
330
787B
100
AcDbXrecord
280
     1
270
     1
271
     1
  0
XRECORD
  5
7880
102
{ACAD_REACTORS
330
787B
102
}
330
787B
100
AcDbXrecord
280
     1
270
     1
271
     1
  0
XRECORD
  5
787F
102
{ACAD_REACTORS
330
787B
102
}
330
787B
100
AcDbXrecord
280
     1
270
     1
271
     1
  0
XRECORD
  5
7881
102
{ACAD_REACTORS
330
787B
102
}
330
787B
100
AcDbXrecord
280
     1
270
     1
271
     1
  0
XRECORD
  5
787E
102
{ACAD_REACTORS
330
787B
102
}
330
787B
100
AcDbXrecord
280
     1
270
     1
271
     1
  0
XRECORD
  5
8F77
102
{ACAD_REACTORS
330
788B
102
}
330
788B
100
AcDbXrecord
280
     1
102
MATERIAL
148
0.0
149
0.0
149
0.0
 93
        0
 94
      127
282
     0
 72
     0
 77
     0
171
     0
175
     0
179
     0
273
     0
  0
XRECORD
  5
788D
102
{ACAD_REACTORS
330
788B
102
}
330
788B
100
AcDbXrecord
280
     1
270
     1
271
     1
  0
XRECORD
  5
788C
102
{ACAD_REACTORS
330
788B
102
}
330
788B
100
AcDbXrecord
280
     1
270
     1
271
     1
  0
XRECORD
  5
7890
102
{ACAD_REACTORS
330
788B
102
}
330
788B
100
AcDbXrecord
280
     1
270
     1
271
     1
  0
XRECORD
  5
788F
102
{ACAD_REACTORS
330
788B
102
}
330
788B
100
AcDbXrecord
280
     1
270
     1
271
     1
  0
XRECORD
  5
7891
102
{ACAD_REACTORS
330
788B
102
}
330
788B
100
AcDbXrecord
280
     1
270
     1
271
     1
  0
XRECORD
  5
788E
102
{ACAD_REACTORS
330
788B
102
}
330
788B
100
AcDbXrecord
280
     1
270
     1
271
     1
  0
XRECORD
  5
8F70
102
{ACAD_REACTORS
330
8F6F
102
}
330
8F6F
100
AcDbXrecord
280
     1
102
SHADEPLOT
 70
     1
102
SHADEPLOTRESLEVEL
 70
     4
102
SHADEPLOTCUSTOMDPI
 70
   600
  0
XRECORD
  5
8F72
102
{ACAD_REACTORS
330
8F71
102
}
330
8F71
100
AcDbXrecord
280
     1
102
SHADEPLOT
 70
     1
102
SHADEPLOTRESLEVEL
 70
     4
102
SHADEPLOTCUSTOMDPI
 70
   600
  0
CELLSTYLEMAP
  5
8F5F
102
{ACAD_REACTORS
330
7BA5
102
}
330
7BA5
100
AcDbCellStyleMap
 90
        3
300
CELLSTYLE
  1
TABLEFORMAT_BEGIN
 90
        5
170
     1
 91
        0
 92
    32768
 62
   257
 93
        1
300
CONTENTFORMAT
  1
CONTENTFORMAT_BEGIN
 90
        0
 91
        0
 92
      512
 93
        0
300

 40
0.0
140
1.0
 94
        5
 62
     0
340
11
144
6.0
309
CONTENTFORMAT_END
171
     1
301
MARGIN
  1
CELLMARGIN_BEGIN
 40
1.5
 40
1.5
 40
1.5
 40
1.5
 40
4.5
 40
4.5
309
CELLMARGIN_END
 94
        6
 95
        1
302
GRIDFORMAT
  1
GRIDFORMAT_BEGIN
 90
        0
 91
        1
 62
     0
 92
       -2
340
0
 93
        0
 40
1.125
309
GRIDFORMAT_END
 95
        2
302
GRIDFORMAT
  1
GRIDFORMAT_BEGIN
 90
        0
 91
        1
 62
     0
 92
       -2
340
0
 93
        0
 40
1.125
309
GRIDFORMAT_END
 95
        4
302
GRIDFORMAT
  1
GRIDFORMAT_BEGIN
 90
        0
 91
        1
 62
     0
 92
       -2
340
0
 93
        0
 40
1.125
309
GRIDFORMAT_END
 95
        8
302
GRIDFORMAT
  1
GRIDFORMAT_BEGIN
 90
        0
 91
        1
 62
     0
 92
       -2
340
0
 93
        0
 40
1.125
309
GRIDFORMAT_END
 95
       16
302
GRIDFORMAT
  1
GRIDFORMAT_BEGIN
 90
        0
 91
        1
 62
     0
 92
       -2
340
0
 93
        0
 40
1.125
309
GRIDFORMAT_END
 95
       32
302
GRIDFORMAT
  1
GRIDFORMAT_BEGIN
 90
        0
 91
        1
 62
     0
 92
       -2
340
0
 93
        0
 40
1.125
309
GRIDFORMAT_END
309
TABLEFORMAT_END
  1
CELLSTYLE_BEGIN
 90
        1
 91
        1
300
_TITLE
309
CELLSTYLE_END
300
CELLSTYLE
  1
TABLEFORMAT_BEGIN
 90
        5
170
     1
 91
        0
 92
        0
 62
   257
 93
        1
300
CONTENTFORMAT
  1
CONTENTFORMAT_BEGIN
 90
        0
 91
        0
 92
      512
 93
        0
300

 40
0.0
140
1.0
 94
        5
 62
     0
340
11
144
4.5
309
CONTENTFORMAT_END
171
     1
301
MARGIN
  1
CELLMARGIN_BEGIN
 40
1.5
 40
1.5
 40
1.5
 40
1.5
 40
4.5
 40
4.5
309
CELLMARGIN_END
 94
        6
 95
        1
302
GRIDFORMAT
  1
GRIDFORMAT_BEGIN
 90
        0
 91
        1
 62
     0
 92
       -2
340
0
 93
        0
 40
1.125
309
GRIDFORMAT_END
 95
        2
302
GRIDFORMAT
  1
GRIDFORMAT_BEGIN
 90
        0
 91
        1
 62
     0
 92
       -2
340
0
 93
        0
 40
1.125
309
GRIDFORMAT_END
 95
        4
302
GRIDFORMAT
  1
GRIDFORMAT_BEGIN
 90
        0
 91
        1
 62
     0
 92
       -2
340
0
 93
        0
 40
1.125
309
GRIDFORMAT_END
 95
        8
302
GRIDFORMAT
  1
GRIDFORMAT_BEGIN
 90
        0
 91
        1
 62
     0
 92
       -2
340
0
 93
        0
 40
1.125
309
GRIDFORMAT_END
 95
       16
302
GRIDFORMAT
  1
GRIDFORMAT_BEGIN
 90
        0
 91
        1
 62
     0
 92
       -2
340
0
 93
        0
 40
1.125
309
GRIDFORMAT_END
 95
       32
302
GRIDFORMAT
  1
GRIDFORMAT_BEGIN
 90
        0
 91
        1
 62
     0
 92
       -2
340
0
 93
        0
 40
1.125
309
GRIDFORMAT_END
309
TABLEFORMAT_END
  1
CELLSTYLE_BEGIN
 90
        2
 91
        1
300
_HEADER
309
CELLSTYLE_END
300
CELLSTYLE
  1
TABLEFORMAT_BEGIN
 90
        5
170
     1
 91
        0
 92
        0
 62
   257
 93
        1
300
CONTENTFORMAT
  1
CONTENTFORMAT_BEGIN
 90
        0
 91
        0
 92
      512
 93
        0
300

 40
0.0
140
1.0
 94
        2
 62
     0
340
11
144
4.5
309
CONTENTFORMAT_END
171
     1
301
MARGIN
  1
CELLMARGIN_BEGIN
 40
1.5
 40
1.5
 40
1.5
 40
1.5
 40
4.5
 40
4.5
309
CELLMARGIN_END
 94
        6
 95
        1
302
GRIDFORMAT
  1
GRIDFORMAT_BEGIN
 90
        0
 91
        1
 62
     0
 92
       -2
340
0
 93
        0
 40
1.125
309
GRIDFORMAT_END
 95
        2
302
GRIDFORMAT
  1
GRIDFORMAT_BEGIN
 90
        0
 91
        1
 62
     0
 92
       -2
340
0
 93
        0
 40
1.125
309
GRIDFORMAT_END
 95
        4
302
GRIDFORMAT
  1
GRIDFORMAT_BEGIN
 90
        0
 91
        1
 62
     0
 92
       -2
340
0
 93
        0
 40
1.125
309
GRIDFORMAT_END
 95
        8
302
GRIDFORMAT
  1
GRIDFORMAT_BEGIN
 90
        0
 91
        1
 62
     0
 92
       -2
340
0
 93
        0
 40
1.125
309
GRIDFORMAT_END
 95
       16
302
GRIDFORMAT
  1
GRIDFORMAT_BEGIN
 90
        0
 91
        1
 62
     0
 92
       -2
340
0
 93
        0
 40
1.125
309
GRIDFORMAT_END
 95
       32
302
GRIDFORMAT
  1
GRIDFORMAT_BEGIN
 90
        0
 91
        1
 62
     0
 92
       -2
340
0
 93
        0
 40
1.125
309
GRIDFORMAT_END
309
TABLEFORMAT_END
  1
CELLSTYLE_BEGIN
 90
        3
 91
        2
300
_DATA
309
CELLSTYLE_END
  0
XRECORD
  5
8F78
102
{ACAD_REACTORS
330
7BA5
102
}
330
7BA5
100
AcDbXrecord
280
     1
102
ACAD_ROUNDTRIP_PRE2007_TABLESTYLE
 90
      512
 91
        0
  1

 92
      512
 93
        0
  2

 94
      512
 95
        0
  3

  0
ENDSEC
  0
EOF
