  0
SECTION
  2
HEADER
  9
$ACADVER
  1
AC1015
  9
$ACADMAINTVER
 70
    18
  9
$DWGCODEPAGE
  3
ANSI_1250
  9
$INSBASE
 10
215187.233673673
 20
127657.5168525552
 30
0.0
  9
$EXTMIN
 10
1.000000000000000E+20
 20
1.000000000000000E+20
 30
1.000000000000000E+20
  9
$EXTMAX
 10
0.0
 20
0.0
 30
0.0
  9
$LIMMIN
 10
0.0
 20
0.0
  9
$LIMMAX
 10
420.0
 20
297.0
  9
$ORTHOMODE
 70
     0
  9
$REGENMODE
 70
     1
  9
$FILLMODE
 70
     1
  9
$QTEXTMODE
 70
     0
  9
$MIRRTEXT
 70
     0
  9
$LTSCALE
 40
75.0
  9
$ATTMODE
 70
     1
  9
$TEXTSIZE
 40
20.0
  9
$TRACEWID
 40
1.0
  9
$TEXTSTYLE
  7
ROMANS
  9
$CLAYER
  8
0Wymiary-PL
  9
$CELTYPE
  6
ByLayer
  9
$CECOLOR
 62
   256
  9
$CELTSCALE
 40
1.0
  9
$DISPSILH
 70
     0
  9
$DIMSCALE
 40
10.0
  9
$DIMASZ
 40
30.0
  9
$DIMEXO
 40
43.0
  9
$DIMDLI
 40
0.0
  9
$DIMRND
 40
0.5
  9
$DIMDLE
 40
12.0
  9
$DIMEXE
 40
13.0
  9
$DIMTP
 40
0.0
  9
$DIMTM
 40
0.0
  9
$DIMTXT
 40
80.0
  9
$DIMCEN
 40
0.0
  9
$DIMTSZ
 40
0.0
  9
$DIMTOL
 70
     0
  9
$DIMLIM
 70
     0
  9
$DIMTIH
 70
     0
  9
$DIMTOH
 70
     0
  9
$DIMSE1
 70
     1
  9
$DIMSE2
 70
     1
  9
$DIMTAD
 70
     0
  9
$DIMZIN
 70
    12
  9
$DIMBLK
  1
B-DIM
  9
$DIMASO
 70
     1
  9
$DIMSHO
 70
     1
  9
$DIMPOST
  1

  9
$DIMAPOST
  1

  9
$DIMALT
 70
     0
  9
$DIMALTD
 70
     2
  9
$DIMALTF
 40
25.4
  9
$DIMLFAC
 40
10.0
  9
$DIMTOFL
 70
     1
  9
$DIMTVP
 40
1.0
  9
$DIMTIX
 70
     1
  9
$DIMSOXD
 70
     0
  9
$DIMSAH
 70
     0
  9
$DIMBLK1
  1

  9
$DIMBLK2
  1

  9
$DIMSTYLE
  2
500-RU
  9
$DIMCLRD
 70
     1
  9
$DIMCLRE
 70
     1
  9
$DIMCLRT
 70
   140
  9
$DIMTFAC
 40
1.0
  9
$DIMGAP
 40
0.0
  9
$DIMJUST
 70
     0
  9
$DIMSD1
 70
     0
  9
$DIMSD2
 70
     0
  9
$DIMTOLJ
 70
     1
  9
$DIMTZIN
 70
     0
  9
$DIMALTZ
 70
     0
  9
$DIMALTTZ
 70
     0
  9
$DIMUPT
 70
     0
  9
$DIMDEC
 70
     1
  9
$DIMTDEC
 70
     1
  9
$DIMALTU
 70
     2
  9
$DIMALTTD
 70
     2
  9
$DIMTXSTY
  7
ROMANS
  9
$DIMAUNIT
 70
     0
  9
$DIMADEC
 70
     0
  9
$DIMALTRND
 40
0.0
  9
$DIMAZIN
 70
     0
  9
$DIMDSEP
 70
    46
  9
$DIMATFIT
 70
     3
  9
$DIMFRAC
 70
     0
  9
$DIMLDRBLK
  1
B-DIM
  9
$DIMLUNIT
 70
     2
  9
$DIMLWD
 70
    -2
  9
$DIMLWE
 70
    -2
  9
$DIMTMOVE
 70
     2
  9
$LUNITS
 70
     2
  9
$LUPREC
 70
     1
  9
$SKETCHINC
 40
1.0
  9
$FILLETRAD
 40
0.0
  9
$AUNITS
 70
     0
  9
$AUPREC
 70
     0
  9
$MENU
  1
.
  9
$ELEVATION
 40
0.0
  9
$PELEVATION
 40
0.0
  9
$THICKNESS
 40
0.0
  9
$LIMCHECK
 70
     0
  9
$CHAMFERA
 40
0.0
  9
$CHAMFERB
 40
0.0
  9
$CHAMFERC
 40
20.0
  9
$CHAMFERD
 40
0.0
  9
$SKPOLY
 70
     0
  9
$TDCREATE
 40
2452027.670547454
  9
$TDUCREATE
 40
2452027.587214120
  9
$TDUPDATE
 40
2455315.625479236
  9
$TDUUPDATE
 40
2455315.542145903
  9
$TDINDWG
 40
8.9419182755
  9
$TDUSRTIMER
 40
8.9419182755
  9
$USRTIMER
 70
     1
  9
$ANGBASE
 50
0.0
  9
$ANGDIR
 70
     0
  9
$PDMODE
 70
     0
  9
$PDSIZE
 40
0.0
  9
$PLINEWID
 40
0.0
  9
$SPLFRAME
 70
     0
  9
$SPLINETYPE
 70
     6
  9
$SPLINESEGS
 70
     8
  9
$HANDSEED
  5
23A
  9
$SURFTAB1
 70
     6
  9
$SURFTAB2
 70
     6
  9
$SURFTYPE
 70
     6
  9
$SURFU
 70
     6
  9
$SURFV
 70
     6
  9
$UCSBASE
  2

  9
$UCSNAME
  2

  9
$UCSORG
 10
0.0
 20
0.0
 30
0.0
  9
$UCSXDIR
 10
1.0
 20
0.0
 30
0.0
  9
$UCSYDIR
 10
0.0
 20
1.0
 30
0.0
  9
$UCSORTHOREF
  2

  9
$UCSORTHOVIEW
 70
     0
  9
$UCSORGTOP
 10
0.0
 20
0.0
 30
0.0
  9
$UCSORGBOTTOM
 10
0.0
 20
0.0
 30
0.0
  9
$UCSORGLEFT
 10
0.0
 20
0.0
 30
0.0
  9
$UCSORGRIGHT
 10
0.0
 20
0.0
 30
0.0
  9
$UCSORGFRONT
 10
0.0
 20
0.0
 30
0.0
  9
$UCSORGBACK
 10
0.0
 20
0.0
 30
0.0
  9
$PUCSBASE
  2

  9
$PUCSNAME
  2

  9
$PUCSORG
 10
0.0
 20
0.0
 30
0.0
  9
$PUCSXDIR
 10
1.0
 20
0.0
 30
0.0
  9
$PUCSYDIR
 10
0.0
 20
1.0
 30
0.0
  9
$PUCSORTHOREF
  2

  9
$PUCSORTHOVIEW
 70
     0
  9
$PUCSORGTOP
 10
0.0
 20
0.0
 30
0.0
  9
$PUCSORGBOTTOM
 10
0.0
 20
0.0
 30
0.0
  9
$PUCSORGLEFT
 10
0.0
 20
0.0
 30
0.0
  9
$PUCSORGRIGHT
 10
0.0
 20
0.0
 30
0.0
  9
$PUCSORGFRONT
 10
0.0
 20
0.0
 30
0.0
  9
$PUCSORGBACK
 10
0.0
 20
0.0
 30
0.0
  9
$USERI1
 70
     0
  9
$USERI2
 70
     0
  9
$USERI3
 70
     0
  9
$USERI4
 70
     0
  9
$USERI5
 70
     0
  9
$USERR1
 40
0.0
  9
$USERR2
 40
0.0
  9
$USERR3
 40
0.0
  9
$USERR4
 40
0.0
  9
$USERR5
 40
0.0
  9
$WORLDVIEW
 70
     1
  9
$SHADEDGE
 70
     3
  9
$SHADEDIF
 70
    70
  9
$TILEMODE
 70
     1
  9
$MAXACTVP
 70
    64
  9
$PINSBASE
 10
0.0
 20
0.0
 30
0.0
  9
$PLIMCHECK
 70
     0
  9
$PEXTMIN
 10
1.049999952316284
 20
0.7999999523162842
 30
0.0
  9
$PEXTMAX
 10
9.449999570846559
 20
7.199999570846558
 30
0.0
  9
$PLIMMIN
 10
-0.2500002402958907
 20
-0.2499999962453767
  9
$PLIMMAX
 10
10.74999951940822
 20
8.249999763458733
  9
$UNITMODE
 70
     0
  9
$VISRETAIN
 70
     1
  9
$PLINEGEN
 70
     0
  9
$PSLTSCALE
 70
     1
  9
$TREEDEPTH
 70
  3020
  9
$CMLSTYLE
  2
Standard
  9
$CMLJUST
 70
     0
  9
$CMLSCALE
 40
20.0
  9
$PROXYGRAPHICS
 70
     1
  9
$MEASUREMENT
 70
     0
  9
$CELWEIGHT
370
    -1
  9
$ENDCAPS
280
     0
  9
$JOINSTYLE
280
     0
  9
$LWDISPLAY
290
     0
  9
$INSUNITS
 70
     5
  9
$HYPERLINKBASE
  1

  9
$STYLESHEET
  1

  9
$XEDIT
290
     1
  9
$CEPSNTYPE
380
     0
  9
$PSTYLEMODE
290
     1
  9
$FINGERPRINTGUID
  2
{FEBADF84-C59B-4B06-AE59-4146488D517F}
  9
$VERSIONGUID
  2
{C2B206DC-A044-4AE6-BAF1-386BE7153302}
  9
$EXTNAMES
290
     1
  9
$PSVPSCALE
 40
0.0
  9
$OLESTARTUP
290
     0
  0
ENDSEC
  0
SECTION
  2
CLASSES
  0
CLASS
  1
ACDBDICTIONARYWDFLT
  2
AcDbDictionaryWithDefault
  3
ObjectDBX Classes
 90
        0
280
     0
281
     0
  0
CLASS
  1
ACDBPLACEHOLDER
  2
AcDbPlaceHolder
  3
ObjectDBX Classes
 90
        0
280
     0
281
     0
  0
CLASS
  1
LAYOUT
  2
AcDbLayout
  3
ObjectDBX Classes
 90
        0
280
     0
281
     0
  0
CLASS
  1
DICTIONARYVAR
  2
AcDbDictionaryVar
  3
ObjectDBX Classes
 90
        0
280
     0
281
     0
  0
CLASS
  1
SORTENTSTABLE
  2
AcDbSortentsTable
  3
ObjectDBX Classes
 90
        0
280
     0
281
     0
  0
CLASS
  1
AEC_VARS_DWG_SETUP
  2
AecDbVarsDwgSetup
  3
AecBase50|Product Desc: Autodesk Architectural Desktop 2007 |Company: Autodesk,Inc. |WEB Address: www.autodesk.com
 90
    32897
280
     0
281
     0
  0
CLASS
  1
AEC_DISP_REP_CONFIG
  2
AecDbDispRepConfig
  3
AecBase50|Product Desc: Autodesk Architectural Desktop 2007 |Company: Autodesk,Inc. |WEB Address: www.autodesk.com
 90
    32897
280
     0
281
     0
  0
CLASS
  1
AEC_DISP_REP_SET
  2
AecDbDispRepSet
  3
AecBase50|Product Desc: Autodesk Architectural Desktop 2007 |Company: Autodesk,Inc. |WEB Address: www.autodesk.com
 90
    32897
280
     0
281
     0
  0
CLASS
  1
AEC_DISP_REP_2D_SECTION
  2
AecDbDispRep2dSection
  3
AecBase50|Product Desc: Autodesk Architectural Desktop 2007 |Company: Autodesk,Inc. |WEB Address: www.autodesk.com
 90
    32897
280
     0
281
     0
  0
CLASS
  1
AEC_DISP_REP_ANCHOR_BUB_TO_GRID
  2
AecDbDispRepAnchorBubToGrid
  3
AecStructureBase50|Product Desc: Autodesk Architectural Desktop 2007 |Company: Autodesk,Inc. |WEB Address: www.autodesk.com
 90
    32897
280
     0
281
     0
  0
CLASS
  1
AEC_DISP_REP_ANCHOR_BUB_TO_GRID_MODEL
  2
AecDbDispRepAnchorBubToGridMdl
  3
AecStructureBase50|Product Desc: Autodesk Architectural Desktop 2007 |Company: Autodesk,Inc. |WEB Address: www.autodesk.com
 90
    32897
280
     0
281
     0
  0
CLASS
  1
AEC_DISP_REP_ANCHOR_ENT_TO_NODE
  2
AecDbDispRepAnchorEntToNode
  3
AecBaseEx50|Product Desc: Autodesk Architectural Desktop 2007 |Company: Autodesk,Inc. |WEB Address: www.autodesk.com
 90
    32897
280
     0
281
     0
  0
CLASS
  1
AEC_DISP_REP_ANCHOR_TAG_TO_ENT
  2
AecDbDispRepAnchorTagToEnt
  3
AecScheduleData50|Product Desc: Autodesk Architectural Desktop 2007 |Company: Autodesk,Inc. |WEB Address: www.autodesk.com
 90
    32897
280
     0
281
     0
  0
CLASS
  1
AEC_DISP_REP_AREA
  2
AecDbDispRepArea
  3
AecAreaCalculationBase50|Product Desc: Autodesk Architectural Desktop 2007 |Company: Autodesk,Inc. |WEB Address: www.autodesk.com
 90
    32897
280
     0
281
     0
  0
CLASS
  1
AEC_DISP_REP_AREA_DECOMPOSED
  2
AecDbDispRepAreaDecomposed
  3
AecAreaCalculationBase50|Product Desc: Autodesk Architectural Desktop 2007 |Company: Autodesk,Inc. |WEB Address: www.autodesk.com
 90
    32897
280
     0
281
     0
  0
CLASS
  1
AEC_DISP_REP_AREAGROUP
  2
AecDbDispRepAreaGroup
  3
AecAreaCalculationBase50|Product Desc: Autodesk Architectural Desktop 2007 |Company: Autodesk,Inc. |WEB Address: www.autodesk.com
 90
    32897
280
     0
281
     0
  0
CLASS
  1
AEC_DISP_REP_BDG_ELEVLINE_MODEL
  2
AecDbDispRepBdgElevLineModel
  3
AecArchBase50|Product Desc: Autodesk Architectural Desktop 2007 |Company: Autodesk,Inc. |WEB Address: www.autodesk.com
 90
    32897
280
     0
281
     0
  0
CLASS
  1
AEC_DISP_REP_BDG_SECTIONLINE_PLAN
  2
AecDbDispRepBdgElevLinePlan
  3
AecArchBase50|Product Desc: Autodesk Architectural Desktop 2007 |Company: Autodesk,Inc. |WEB Address: www.autodesk.com
 90
    32897
280
     0
281
     0
  0
CLASS
  1
AEC_DISP_REP_BDG_SECTIONLINE_MODEL
  2
AecDbDispRepBdgSectionLineModel
  3
AecArchBase50|Product Desc: Autodesk Architectural Desktop 2007 |Company: Autodesk,Inc. |WEB Address: www.autodesk.com
 90
    32897
280
     0
281
     0
  0
CLASS
  1
AEC_DISP_REP_BDG_SECTIONLINE_PLAN
  2
AecDbDispRepBdgSectionLinePlan
  3
AecArchBase50|Product Desc: Autodesk Architectural Desktop 2007 |Company: Autodesk,Inc. |WEB Address: www.autodesk.com
 90
    32897
280
     0
281
     0
  0
CLASS
  1
AEC_DISP_REP_BDG_SECTION_SUBDIV
  2
AecDbDispRepBdgSectionSubDiv
  3
AecArchBase50|Product Desc: Autodesk Architectural Desktop 2007 |Company: Autodesk,Inc. |WEB Address: www.autodesk.com
 90
    32897
280
     0
281
     0
  0
CLASS
  1
AEC_DISP_REP_CAMERA
  2
AecDbDispRepCamera
  3
AecBase50|Product Desc: Autodesk Architectural Desktop 2007 |Company: Autodesk,Inc. |WEB Address: www.autodesk.com
 90
    32897
280
     0
281
     0
  0
CLASS
  1
AEC_DISP_REP_CEILING_GRID
  2
AecDbDispRepCeilingGrid
  3
AecArchBase50|Product Desc: Autodesk Architectural Desktop 2007 |Company: Autodesk,Inc. |WEB Address: www.autodesk.com
 90
    33661
280
     0
281
     0
  0
CLASS
  1
AEC_DISP_REP_CEILING_GRID_MODEL
  2
AecDbDispRepCeilingGridModel
  3
AecArchBase50|Product Desc: Autodesk Architectural Desktop 2007 |Company: Autodesk,Inc. |WEB Address: www.autodesk.com
 90
    32897
280
     0
281
     0
  0
CLASS
  1
AEC_DISP_REP_CEILING_GRID_RCP
  2
AecDbDispRepCeilingGridRcp
  3
AecArchBase50|Product Desc: Autodesk Architectural Desktop 2007 |Company: Autodesk,Inc. |WEB Address: www.autodesk.com
 90
    32897
280
     0
281
     0
  0
CLASS
  1
AEC_DISP_REP_CLIP_VOLUME_MODEL
  2
AecDbDispRepClipVolModel
  3
AecBase50|Product Desc: Autodesk Architectural Desktop 2007 |Company: Autodesk,Inc. |WEB Address: www.autodesk.com
 90
    32897
280
     0
281
     0
  0
CLASS
  1
AEC_DISP_REP_CLIP_VOLUME_PLAN
  2
AecDbDispRepClipVolPlan
  3
AecBase50|Product Desc: Autodesk Architectural Desktop 2007 |Company: Autodesk,Inc. |WEB Address: www.autodesk.com
 90
    32897
280
     0
281
     0
  0
CLASS
  1
AEC_DISP_REP_CLIP_VOLUME_RESULT_SUBDIV
  2
AecDbDispRepClipVolResSubDiv
  3
AecBase50|Product Desc: Autodesk Architectural Desktop 2007 |Company: Autodesk,Inc. |WEB Address: www.autodesk.com
 90
    32897
280
     0
281
     0
  0
CLASS
  1
AEC_DISP_REP_CLIP_VOLUME_RESULT
  2
AecDbDispRepClipVolResult
  3
AecBase50|Product Desc: Autodesk Architectural Desktop 2007 |Company: Autodesk,Inc. |WEB Address: www.autodesk.com
 90
    32897
280
     0
281
     0
  0
CLASS
  1
AEC_DISP_REP_COLUMN_GRID
  2
AecDbDispRepColumnGrid
  3
AecStructureBase50|Product Desc: Autodesk Architectural Desktop 2007 |Company: Autodesk,Inc. |WEB Address: www.autodesk.com
 90
    32897
280
     0
281
     0
  0
CLASS
  1
AEC_DISP_REP_COLUMN_GRID_MODEL
  2
AecDbDispRepColumnGridModel
  3
AecStructureBase50|Product Desc: Autodesk Architectural Desktop 2007 |Company: Autodesk,Inc. |WEB Address: www.autodesk.com
 90
    32897
280
     0
281
     0
  0
CLASS
  1
AEC_DISP_REP_CURTAIN_WALL_LAYOUT_MODEL
  2
AecDbDispRepCurtainWallLayoutModel
  3
AecArchBase50|Product Desc: Autodesk Architectural Desktop 2007 |Company: Autodesk,Inc. |WEB Address: www.autodesk.com
 90
    32897
280
     0
281
     0
  0
CLASS
  1
AEC_DISP_REP_CURTAIN_WALL_LAYOUT_PLAN
  2
AecDbDispRepCurtainWallLayoutPlan
  3
AecArchBase50|Product Desc: Autodesk Architectural Desktop 2007 |Company: Autodesk,Inc. |WEB Address: www.autodesk.com
 90
    32897
280
     0
281
     0
  0
CLASS
  1
AEC_DISP_REP_CURTAIN_WALL_UNIT_MODEL
  2
AecDbDispRepCurtainWallUnitModel
  3
AecArchBase50|Product Desc: Autodesk Architectural Desktop 2007 |Company: Autodesk,Inc. |WEB Address: www.autodesk.com
 90
    32897
280
     0
281
     0
  0
CLASS
  1
AEC_DISP_REP_CURTAIN_WALL_UNIT_PLAN
  2
AecDbDispRepCurtainWallUnitPlan
  3
AecArchBase50|Product Desc: Autodesk Architectural Desktop 2007 |Company: Autodesk,Inc. |WEB Address: www.autodesk.com
 90
    32897
280
     0
281
     0
  0
CLASS
  1
AEC_DB_DISP_REP_DIM_GROUP_PLAN
  2
AecDbDispRepDimGroupPlan
  3
AecArchDACHBase50|Product Desc: Autodesk Architectural Desktop 2007 |Company: Autodesk,Inc. |WEB Address: www.autodesk.com
 90
    32897
280
     0
281
     0
  0
CLASS
  1
AEC_DISP_REP_DOOR_MODEL
  2
AecDbDispRepDoorModel
  3
AecArchBase50|Product Desc: Autodesk Architectural Desktop 2007 |Company: Autodesk,Inc. |WEB Address: www.autodesk.com
 90
    32897
280
     0
281
     0
  0
CLASS
  1
AEC_DISP_REP_DOOR_NOMINAL
  2
AecDbDispRepDoorNominal
  3
AecArchBase50|Product Desc: Autodesk Architectural Desktop 2007 |Company: Autodesk,Inc. |WEB Address: www.autodesk.com
 90
    32897
280
     0
281
     0
  0
CLASS
  1
AEC_DISP_REP_DOOR_PLAN
  2
AecDbDispRepDoorPlan
  3
AecArchBase50|Product Desc: Autodesk Architectural Desktop 2007 |Company: Autodesk,Inc. |WEB Address: www.autodesk.com
 90
    32897
280
     0
281
     0
  0
CLASS
  1
AEC_DISP_REP_EDITINPLACEPROFILE
  2
AecDbDispRepEditInPlaceProfile
  3
AecBase50|Product Desc: Autodesk Architectural Desktop 2007 |Company: Autodesk,Inc. |WEB Address: www.autodesk.com
 90
    32897
280
     0
281
     0
  0
CLASS
  1
AEC_DISP_REP_ENT_REF
  2
AecDbDispRepEntRef
  3
AecBase50|Product Desc: Autodesk Architectural Desktop 2007 |Company: Autodesk,Inc. |WEB Address: www.autodesk.com
 90
    32897
280
     0
281
     0
  0
CLASS
  1
AEC_DISP_REP_LAYOUT_CURVE
  2
AecDbDispRepLayoutCurve
  3
AecBase50|Product Desc: Autodesk Architectural Desktop 2007 |Company: Autodesk,Inc. |WEB Address: www.autodesk.com
 90
    32897
280
     0
281
     0
  0
CLASS
  1
AEC_DISP_REP_LAYOUT_GRID2D
  2
AecDbDispRepLayoutGrid2d
  3
AecBase50|Product Desc: Autodesk Architectural Desktop 2007 |Company: Autodesk,Inc. |WEB Address: www.autodesk.com
 90
    32897
280
     0
281
     0
  0
CLASS
  1
AEC_DISP_REP_LAYOUT_GRID3D
  2
AecDbDispRepLayoutGrid3d
  3
AecBase50|Product Desc: Autodesk Architectural Desktop 2007 |Company: Autodesk,Inc. |WEB Address: www.autodesk.com
 90
    32897
280
     0
281
     0
  0
CLASS
  1
AEC_DISP_REP_MASKBLOCK_REF
  2
AecDbDispRepMaskBlockRef
  3
AecBase50|Product Desc: Autodesk Architectural Desktop 2007 |Company: Autodesk,Inc. |WEB Address: www.autodesk.com
 90
    32897
280
     0
281
     0
  0
CLASS
  1
AEC_DISP_REP_MASKBLOCK_REF_RCP
  2
AecDbDispRepMaskBlockRefRcp
  3
AecArchBase50|Product Desc: Autodesk Architectural Desktop 2007 |Company: Autodesk,Inc. |WEB Address: www.autodesk.com
 90
    32897
280
     0
281
     0
  0
CLASS
  1
AEC_DISP_REP_MASS_ELEM_MODEL
  2
AecDbDispRepMassElemModel
  3
AecBaseEx50|Product Desc: Autodesk Architectural Desktop 2007 |Company: Autodesk,Inc. |WEB Address: www.autodesk.com
 90
    32897
280
     0
281
     0
  0
CLASS
  1
AEC_DISP_REP_MASS_ELEM_SCHEM
  2
AecDbDispRepMassElemSchem
  3
AecBaseEx50|Product Desc: Autodesk Architectural Desktop 2007 |Company: Autodesk,Inc. |WEB Address: www.autodesk.com
 90
    32897
280
     0
281
     0
  0
CLASS
  1
AEC_DISP_REP_MASS_GROUP_MODEL
  2
AecDbDispRepMassGroupModel
  3
AecBaseEx50|Product Desc: Autodesk Architectural Desktop 2007 |Company: Autodesk,Inc. |WEB Address: www.autodesk.com
 90
    32897
280
     0
281
     0
  0
CLASS
  1
AEC_DISP_REP_MASS_GROUP_PLAN
  2
AecDbDispRepMassGroupPlan
  3
AecBaseEx50|Product Desc: Autodesk Architectural Desktop 2007 |Company: Autodesk,Inc. |WEB Address: www.autodesk.com
 90
    32897
280
     0
281
     0
  0
CLASS
  1
AEC_DISP_REP_MATERIAL
  2
AecDbDispRepMaterial
  3
AecBase50|Product Desc: Autodesk Architectural Desktop 2007 |Company: Autodesk,Inc. |WEB Address: www.autodesk.com
 90
    32897
280
     0
281
     0
  0
CLASS
  1
AEC_DISP_REP_MVBLOCK_REF
  2
AecDbDispRepMvBlockRef
  3
AecBase50|Product Desc: Autodesk Architectural Desktop 2007 |Company: Autodesk,Inc. |WEB Address: www.autodesk.com
 90
    32897
280
     0
281
     0
  0
CLASS
  1
AEC_DISP_REP_MVBLOCK_REF_MODEL
  2
AecDbDispRepMvBlockRefModel
  3
AecBase50|Product Desc: Autodesk Architectural Desktop 2007 |Company: Autodesk,Inc. |WEB Address: www.autodesk.com
 90
    32897
280
     0
281
     0
  0
CLASS
  1
AEC_DISP_REP_OPENING
  2
AecDbDispRepOpening
  3
AecArchBase50|Product Desc: Autodesk Architectural Desktop 2007 |Company: Autodesk,Inc. |WEB Address: www.autodesk.com
 90
    32897
280
     0
281
     0
  0
CLASS
  1
AEC_DISP_REP_OPENING_MODEL
  2
AecDbDispRepOpeningModel
  3
AecArchBase50|Product Desc: Autodesk Architectural Desktop 2007 |Company: Autodesk,Inc. |WEB Address: www.autodesk.com
 90
    32897
280
     0
281
     0
  0
CLASS
  1
AEC_DISP_REP_POLYGON_MODEL
  2
AecDbDispRepPolygonModel
  3
AecBaseEx50|Product Desc: Autodesk Architectural Desktop 2007 |Company: Autodesk,Inc. |WEB Address: www.autodesk.com
 90
    32897
280
     0
281
     0
  0
CLASS
  1
AEC_DISP_REP_RAILING_MODEL
  2
AecDbDispRepRailingModel
  3
AecArchBase50|Product Desc: Autodesk Architectural Desktop 2007 |Company: Autodesk,Inc. |WEB Address: www.autodesk.com
 90
    32897
280
     0
281
     0
  0
CLASS
  1
AEC_DISP_REP_RAILING_PLAN
  2
AecDbDispRepRailingPlan
  3
AecArchBase50|Product Desc: Autodesk Architectural Desktop 2007 |Company: Autodesk,Inc. |WEB Address: www.autodesk.com
 90
    32897
280
     0
281
     0
  0
CLASS
  1
AEC_DISP_REP_ROOF_MODEL
  2
AecDbDispRepRoofModel
  3
AecArchBase50|Product Desc: Autodesk Architectural Desktop 2007 |Company: Autodesk,Inc. |WEB Address: www.autodesk.com
 90
    32897
280
     0
281
     0
  0
CLASS
  1
AEC_DISP_REP_ROOF_PLAN
  2
AecDbDispRepRoofPlan
  3
AecArchBase50|Product Desc: Autodesk Architectural Desktop 2007 |Company: Autodesk,Inc. |WEB Address: www.autodesk.com
 90
    32897
280
     0
281
     0
  0
CLASS
  1
AEC_DISP_REP_ROOFSLAB_MODEL
  2
AecDbDispRepRoofSlabModel
  3
AecArchBase50|Product Desc: Autodesk Architectural Desktop 2007 |Company: Autodesk,Inc. |WEB Address: www.autodesk.com
 90
    32897
280
     0
281
     0
  0
CLASS
  1
AEC_DISP_REP_ROOFSLAB_PLAN
  2
AecDbDispRepRoofSlabPlan
  3
AecArchBase50|Product Desc: Autodesk Architectural Desktop 2007 |Company: Autodesk,Inc. |WEB Address: www.autodesk.com
 90
    32897
280
     0
281
     0
  0
CLASS
  1
AEC_DISP_REP_SCHEDULE_TABLE
  2
AecDbDispRepScheduleTable
  3
AecSchedule50|Product Desc: Autodesk Architectural Desktop 2007 |Company: Autodesk,Inc. |WEB Address: www.autodesk.com
 90
    32897
280
     0
281
     0
  0
CLASS
  1
AEC_DISP_REP_SLAB_MODEL
  2
AecDbDispRepSlabModel
  3
AecArchBase50|Product Desc: Autodesk Architectural Desktop 2007 |Company: Autodesk,Inc. |WEB Address: www.autodesk.com
 90
    32897
280
     0
281
     0
  0
CLASS
  1
AEC_DISP_REP_SLAB_PLAN
  2
AecDbDispRepSlabPlan
  3
AecArchBase50|Product Desc: Autodesk Architectural Desktop 2007 |Company: Autodesk,Inc. |WEB Address: www.autodesk.com
 90
    32897
280
     0
281
     0
  0
CLASS
  1
AEC_DISP_REP_SLICE
  2
AecDbDispRepSlice
  3
AecBase50|Product Desc: Autodesk Architectural Desktop 2007 |Company: Autodesk,Inc. |WEB Address: www.autodesk.com
 90
    32897
280
     0
281
     0
  0
CLASS
  1
AEC_DISP_REP_SPACE_BOUNDARY_MODEL
  2
AecDbDispRepSpaceBoundaryModel
  3
AecArchBase50|Product Desc: Autodesk Architectural Desktop 2007 |Company: Autodesk,Inc. |WEB Address: www.autodesk.com
 90
    32897
280
     0
281
     0
  0
CLASS
  1
AEC_DISP_REP_SPACE_BOUNDARY_PLAN
  2
AecDbDispRepSpaceBoundaryPlan
  3
AecArchBase50|Product Desc: Autodesk Architectural Desktop 2007 |Company: Autodesk,Inc. |WEB Address: www.autodesk.com
 90
    32897
280
     0
281
     0
  0
CLASS
  1
AEC_DISP_REP_SPACE_BOUNDARY_SCHEM
  2
AecDbDispRepSpaceBoundarySketch
  3
AecArchBase50|Product Desc: Autodesk Architectural Desktop 2007 |Company: Autodesk,Inc. |WEB Address: www.autodesk.com
 90
    32897
280
     0
281
     0
  0
CLASS
  1
AEC_DISP_REP_SPACE_MODEL
  2
AecDbDispRepSpaceModel
  3
AecArchBase50|Product Desc: Autodesk Architectural Desktop 2007 |Company: Autodesk,Inc. |WEB Address: www.autodesk.com
 90
    32897
280
     0
281
     0
  0
CLASS
  1
AEC_DISP_REP_SPACE_PLAN
  2
AecDbDispRepSpacePlan
  3
AecArchBase50|Product Desc: Autodesk Architectural Desktop 2007 |Company: Autodesk,Inc. |WEB Address: www.autodesk.com
 90
    32897
280
     0
281
     0
  0
CLASS
  1
AEC_DISP_REP_STAIR_MODEL
  2
AecDbDispRepStairModel
  3
AecArchBase50|Product Desc: Autodesk Architectural Desktop 2007 |Company: Autodesk,Inc. |WEB Address: www.autodesk.com
 90
    32897
280
     0
281
     0
  0
CLASS
  1
AEC_DISP_REP_STAIR_PLAN
  2
AecDbDispRepStairPlan
  3
AecArchBase50|Product Desc: Autodesk Architectural Desktop 2007 |Company: Autodesk,Inc. |WEB Address: www.autodesk.com
 90
    32897
280
     0
281
     0
  0
CLASS
  1
AEC_DISP_REP_WALL_GRAPH
  2
AecDbDispRepWallGraph
  3
AecArchBase50|Product Desc: Autodesk Architectural Desktop 2007 |Company: Autodesk,Inc. |WEB Address: www.autodesk.com
 90
    32897
280
     0
281
     0
  0
CLASS
  1
AEC_DISP_REP_WALL_MODEL
  2
AecDbDispRepWallModel
  3
AecArchBase50|Product Desc: Autodesk Architectural Desktop 2007 |Company: Autodesk,Inc. |WEB Address: www.autodesk.com
 90
    32897
280
     0
281
     0
  0
CLASS
  1
AEC_DISP_REP_WALL_PLAN
  2
AecDbDispRepWallPlan
  3
AecArchBase50|Product Desc: Autodesk Architectural Desktop 2007 |Company: Autodesk,Inc. |WEB Address: www.autodesk.com
 90
    32897
280
     0
281
     0
  0
CLASS
  1
AEC_DISP_REP_WALL_SCHEM
  2
AecDbDispRepWallSchem
  3
AecArchBase50|Product Desc: Autodesk Architectural Desktop 2007 |Company: Autodesk,Inc. |WEB Address: www.autodesk.com
 90
    32897
280
     0
281
     0
  0
CLASS
  1
AEC_DISP_REP_WINDOW_ASSEMBLY_MODEL
  2
AecDbDispRepWindowAssemblyModel
  3
AecArchBase50|Product Desc: Autodesk Architectural Desktop 2007 |Company: Autodesk,Inc. |WEB Address: www.autodesk.com
 90
    32897
280
     0
281
     0
  0
CLASS
  1
AEC_DISP_REP_WINDOW_ASSEMBLY_PLAN
  2
AecDbDispRepWindowAssemblyPlan
  3
AecArchBase50|Product Desc: Autodesk Architectural Desktop 2007 |Company: Autodesk,Inc. |WEB Address: www.autodesk.com
 90
    32897
280
     0
281
     0
  0
CLASS
  1
AEC_AECDBDISPREPWINDOWASSEMBLYPLAN100
  2
AecDbDispRepWindowAssemblyPlan100
  3
AecArchDACHBase50|Product Desc: Autodesk Architectural Desktop 2007 |Company: Autodesk,Inc. |WEB Address: www.autodesk.com
 90
    32897
280
     0
281
     0
  0
CLASS
  1
AEC_DISP_REP_WINDOW_MODEL
  2
AecDbDispRepWindowModel
  3
AecArchBase50|Product Desc: Autodesk Architectural Desktop 2007 |Company: Autodesk,Inc. |WEB Address: www.autodesk.com
 90
    32897
280
     0
281
     0
  0
CLASS
  1
AEC_DISP_REP_WINDOW_NOMINAL
  2
AecDbDispRepWindowNominal
  3
AecArchBase50|Product Desc: Autodesk Architectural Desktop 2007 |Company: Autodesk,Inc. |WEB Address: www.autodesk.com
 90
    32897
280
     0
281
     0
  0
CLASS
  1
AEC_DISP_REP_WINDOW_PLAN
  2
AecDbDispRepWindowPlan
  3
AecArchBase50|Product Desc: Autodesk Architectural Desktop 2007 |Company: Autodesk,Inc. |WEB Address: www.autodesk.com
 90
    32897
280
     0
281
     0
  0
CLASS
  1
AECS_DISP_REP_MEMBER_LOGICAL
  2
AecsDbDispRepMemberLogical
  3
AecStructureBase50|Product Desc: Autodesk Architectural Desktop 2007 |Company: Autodesk,Inc. |WEB Address: www.autodesk.com
 90
    32897
280
     0
281
     0
  0
CLASS
  1
AECS_DISP_REP_MEMBER_MODEL_DESIGN
  2
AecsDbDispRepMemberModelDesign
  3
AecStructureBase50|Product Desc: Autodesk Architectural Desktop 2007 |Company: Autodesk,Inc. |WEB Address: www.autodesk.com
 90
    32897
280
     0
281
     0
  0
CLASS
  1
AECS_DISP_REP_MEMBER_PLAN_DESIGN
  2
AecsDbDispRepMemberPlanDesign
  3
AecStructureBase50|Product Desc: Autodesk Architectural Desktop 2007 |Company: Autodesk,Inc. |WEB Address: www.autodesk.com
 90
    32897
280
     0
281
     0
  0
CLASS
  1
AEC_DISP_PROPS_ENT
  2
AecDbDispPropsEnt
  3
AecBase50|Product Desc: Autodesk Architectural Desktop 2007 |Company: Autodesk,Inc. |WEB Address: www.autodesk.com
 90
    32897
280
     0
281
     0
  0
CLASS
  1
AEC_DISP_PROPS_CLIP_VOLUME
  2
AecDbDispPropsClipVol
  3
AecBase50|Product Desc: Autodesk Architectural Desktop 2007 |Company: Autodesk,Inc. |WEB Address: www.autodesk.com
 90
    32897
280
     0
281
     0
  0
CLASS
  1
AEC_DISP_PROPS_SLICE
  2
AecDbDispPropsSlice
  3
AecBase50|Product Desc: Autodesk Architectural Desktop 2007 |Company: Autodesk,Inc. |WEB Address: www.autodesk.com
 90
    32897
280
     0
281
     0
  0
CLASS
  1
AEC_DISP_PROPS_ROOFSLAB_PLAN
  2
AecDbDispPropsRoofSlabPlan
  3
AecArchBase50|Product Desc: Autodesk Architectural Desktop 2007 |Company: Autodesk,Inc. |WEB Address: www.autodesk.com
 90
    32897
280
     0
281
     0
  0
CLASS
  1
AEC_DISP_PROPS_GRID_ASSEMBLY_MODEL
  2
AecDbDispPropsGridAssemblyModel
  3
AecArchBase50|Product Desc: Autodesk Architectural Desktop 2007 |Company: Autodesk,Inc. |WEB Address: www.autodesk.com
 90
    32897
280
     0
281
     0
  0
CLASS
  1
AEC_DISP_PROPS_ROOF
  2
AecDbDispPropsRoof
  3
AecArchBase50|Product Desc: Autodesk Architectural Desktop 2007 |Company: Autodesk,Inc. |WEB Address: www.autodesk.com
 90
    32897
280
     0
281
     0
  0
CLASS
  1
AEC_DISP_PROPS_SPACE_MODEL
  2
AecDbDispPropsSpaceModel
  3
AecArchBase50|Product Desc: Autodesk Architectural Desktop 2007 |Company: Autodesk,Inc. |WEB Address: www.autodesk.com
 90
    32897
280
     0
281
     0
  0
CLASS
  1
AEC_DISP_PROPS_EDITINPLACEPROFILE_MODEL
  2
AecDbDispPropsEditInPlaceProfile
  3
AecBase50|Product Desc: Autodesk Architectural Desktop 2007 |Company: Autodesk,Inc. |WEB Address: www.autodesk.com
 90
    32897
280
     0
281
     0
  0
CLASS
  1
AEC_DISP_PROPS_DOOR
  2
AecDbDispPropsDoor
  3
AecArchBase50|Product Desc: Autodesk Architectural Desktop 2007 |Company: Autodesk,Inc. |WEB Address: www.autodesk.com
 90
    32897
280
     0
281
     0
  0
CLASS
  1
AEC_DISP_PROPS_MASKBLOCK
  2
AecDbDispPropsMaskBlock
  3
AecBase50|Product Desc: Autodesk Architectural Desktop 2007 |Company: Autodesk,Inc. |WEB Address: www.autodesk.com
 90
    32897
280
     0
281
     0
  0
CLASS
  1
AEC_DISP_PROPS_SPACE_PLAN
  2
AecDbDispPropsSpacePlan
  3
AecArchBase50|Product Desc: Autodesk Architectural Desktop 2007 |Company: Autodesk,Inc. |WEB Address: www.autodesk.com
 90
    32897
280
     0
281
     0
  0
CLASS
  1
AEC_DISP_PROPS_RAILING_PLAN
  2
AecDbDispPropsRailingPlan
  3
AecArchBase50|Product Desc: Autodesk Architectural Desktop 2007 |Company: Autodesk,Inc. |WEB Address: www.autodesk.com
 90
    32897
280
     0
281
     0
  0
CLASS
  1
AEC_DISP_PROPS_LAYOUT_GRID2D
  2
AecDbDispPropsLayoutGrid2d
  3
AecBase50|Product Desc: Autodesk Architectural Desktop 2007 |Company: Autodesk,Inc. |WEB Address: www.autodesk.com
 90
    32897
280
     0
281
     0
  0
CLASS
  1
AEC_DISP_PROPS_CLIP_VOLUME_RESULT
  2
AecDbDispPropsClipVolResSubDiv
  3
AecBase50|Product Desc: Autodesk Architectural Desktop 2007 |Company: Autodesk,Inc. |WEB Address: www.autodesk.com
 90
    32897
280
     0
281
     0
  0
CLASS
  1
AEC_DISP_PROPS_STAIR_MODEL
  2
AecDbDispPropsStairModel
  3
AecArchBase50|Product Desc: Autodesk Architectural Desktop 2007 |Company: Autodesk,Inc. |WEB Address: www.autodesk.com
 90
    32897
280
     0
281
     0
  0
CLASS
  1
AEC_DISP_PROPS_LAYOUT_CURVE
  2
AecDbDispPropsLayoutCurve
  3
AecBase50|Product Desc: Autodesk Architectural Desktop 2007 |Company: Autodesk,Inc. |WEB Address: www.autodesk.com
 90
    32897
280
     0
281
     0
  0
CLASS
  1
AEC_DISP_PROPS_POLYGON_MODEL
  2
AecDbDispPropsPolygonModel
  3
AecBaseEx50|Product Desc: Autodesk Architectural Desktop 2007 |Company: Autodesk,Inc. |WEB Address: www.autodesk.com
 90
    32897
280
     0
281
     0
  0
CLASS
  1
AEC_DISP_PROPS_MASS_GROUP
  2
AecDbDispPropsMassGroup
  3
AecBaseEx50|Product Desc: Autodesk Architectural Desktop 2007 |Company: Autodesk,Inc. |WEB Address: www.autodesk.com
 90
    32897
280
     0
281
     0
  0
CLASS
  1
AEC_DISP_PROPS_STAIR_PLAN
  2
AecDbDispPropsStairPlan
  3
AecArchBase50|Product Desc: Autodesk Architectural Desktop 2007 |Company: Autodesk,Inc. |WEB Address: www.autodesk.com
 90
    32897
280
     0
281
     0
  0
CLASS
  1
AEC_DISP_PROPS_OPENING
  2
AecDbDispPropsOpening
  3
AecArchBase50|Product Desc: Autodesk Architectural Desktop 2007 |Company: Autodesk,Inc. |WEB Address: www.autodesk.com
 90
    32897
280
     0
281
     0
  0
CLASS
  1
AEC_DISP_PROPS_WALL_GRAPH
  2
AecDbDispPropsWallGraph
  3
AecArchBase50|Product Desc: Autodesk Architectural Desktop 2007 |Company: Autodesk,Inc. |WEB Address: www.autodesk.com
 90
    32897
280
     0
281
     0
  0
CLASS
  1
AEC_DISP_PROPS_DOOR_NOMINAL
  2
AecDbDispPropsDoorNominal
  3
AecArchBase50|Product Desc: Autodesk Architectural Desktop 2007 |Company: Autodesk,Inc. |WEB Address: www.autodesk.com
 90
    32897
280
     0
281
     0
  0
CLASS
  1
AEC_DISP_PROPS_SLAB
  2
AecDbDispPropsSlab
  3
AecArchBase50|Product Desc: Autodesk Architectural Desktop 2007 |Company: Autodesk,Inc. |WEB Address: www.autodesk.com
 90
    32897
280
     0
281
     0
  0
CLASS
  1
AEC_DISP_PROPS_WALL_MODEL
  2
AecDbDispPropsWallModel
  3
AecArchBase50|Product Desc: Autodesk Architectural Desktop 2007 |Company: Autodesk,Inc. |WEB Address: www.autodesk.com
 90
    32897
280
     0
281
     0
  0
CLASS
  1
AEC_DISP_PROPS_MATERIAL
  2
AecDbDispPropsMaterial
  3
AecBase50|Product Desc: Autodesk Architectural Desktop 2007 |Company: Autodesk,Inc. |WEB Address: www.autodesk.com
 90
    32897
280
     0
281
     0
  0
CLASS
  1
AEC_DISP_PROPS_WINDOW
  2
AecDbDispPropsWindow
  3
AecArchBase50|Product Desc: Autodesk Architectural Desktop 2007 |Company: Autodesk,Inc. |WEB Address: www.autodesk.com
 90
    32897
280
     0
281
     0
  0
CLASS
  1
AEC_DISP_PROPS_LAYOUT_GRID3D
  2
AecDbDispPropsLayoutGrid3d
  3
AecBase50|Product Desc: Autodesk Architectural Desktop 2007 |Company: Autodesk,Inc. |WEB Address: www.autodesk.com
 90
    32897
280
     0
281
     0
  0
CLASS
  1
AEC_DISP_PROPS_GRID_ASSEMBLY_PLAN
  2
AecDbDispPropsGridAssemblyPlan
  3
AecArchBase50|Product Desc: Autodesk Architectural Desktop 2007 |Company: Autodesk,Inc. |WEB Address: www.autodesk.com
 90
    32897
280
     0
281
     0
  0
CLASS
  1
AEC_DISP_PROPS_WALL_SCHEM
  2
AecDbDispPropsWallSchem
  3
AecArchBase50|Product Desc: Autodesk Architectural Desktop 2007 |Company: Autodesk,Inc. |WEB Address: www.autodesk.com
 90
    32897
280
     0
281
     0
  0
CLASS
  1
AEC_DISP_PROPS_WALL_PLAN
  2
AecDbDispPropsWallPlan
  3
AecArchBase50|Product Desc: Autodesk Architectural Desktop 2007 |Company: Autodesk,Inc. |WEB Address: www.autodesk.com
 90
    32897
280
     0
281
     0
  0
CLASS
  1
AEC_DISP_PROPS_SPACE_BOUNDARY
  2
AecDbDispPropsSpaceBoundary
  3
AecArchBase50|Product Desc: Autodesk Architectural Desktop 2007 |Company: Autodesk,Inc. |WEB Address: www.autodesk.com
 90
    32897
280
     0
281
     0
  0
CLASS
  1
AEC_DISP_PROPS_SLAB_PLAN
  2
AecDbDispPropsSlabPlan
  3
AecArchBase50|Product Desc: Autodesk Architectural Desktop 2007 |Company: Autodesk,Inc. |WEB Address: www.autodesk.com
 90
    32897
280
     0
281
     0
  0
CLASS
  1
AEC_DISP_PROPS_RAILING_MODEL
  2
AecDbDispPropsRailingModel
  3
AecArchBase50|Product Desc: Autodesk Architectural Desktop 2007 |Company: Autodesk,Inc. |WEB Address: www.autodesk.com
 90
    32897
280
     0
281
     0
  0
CLASS
  1
AEC_DISP_PROPS_MASS_ELEM_MODEL
  2
AecDbDispPropsMassElem
  3
AecBaseEx50|Product Desc: Autodesk Architectural Desktop 2007 |Company: Autodesk,Inc. |WEB Address: www.autodesk.com
 90
    32897
280
     0
281
     0
  0
CLASS
  1
AEC_DISP_PROPS_DIM
  2
AecDbDispPropsDimGroup
  3
AecArchDACHBase50|Product Desc: Autodesk Architectural Desktop 2007 |Company: Autodesk,Inc. |WEB Address: www.autodesk.com
 90
    32897
280
     0
281
     0
  0
CLASS
  1
AEC_DISP_PROPS_ROOFSLAB
  2
AecDbDispPropsRoofSlab
  3
AecArchBase50|Product Desc: Autodesk Architectural Desktop 2007 |Company: Autodesk,Inc. |WEB Address: www.autodesk.com
 90
    32897
280
     0
281
     0
  0
CLASS
  1
AEC_DISP_PROPS_ENT_REF
  2
AecDbDispPropsEntRef
  3
AecBase50|Product Desc: Autodesk Architectural Desktop 2007 |Company: Autodesk,Inc. |WEB Address: www.autodesk.com
 90
    32897
280
     0
281
     0
  0
CLASS
  1
AEC_DISP_PROPS_2D_SECTION
  2
AecDbDispProps2dSection
  3
AecBase50|Product Desc: Autodesk Architectural Desktop 2007 |Company: Autodesk,Inc. |WEB Address: www.autodesk.com
 90
    32897
280
     0
281
     0
  0
CLASS
  1
AECS_DISP_PROPS_MEMBER_LOGICAL
  2
AecsDbDispPropsMemberLogical
  3
AecStructureBase50|Product Desc: Autodesk Architectural Desktop 2007 |Company: Autodesk,Inc. |WEB Address: www.autodesk.com
 90
    32897
280
     0
281
     0
  0
CLASS
  1
AEC_DISP_PROPS_AREA_DECOMPOSED
  2
AecDbDispPropsAreaDecomposed
  3
AecAreaCalculationBase50|Product Desc: Autodesk Architectural Desktop 2007 |Company: Autodesk,Inc. |WEB Address: www.autodesk.com
 90
    32897
280
     0
281
     0
  0
CLASS
  1
AEC_DISP_PROPS_CAMERA
  2
AecDbDispPropsCamera
  3
AecBase50|Product Desc: Autodesk Architectural Desktop 2007 |Company: Autodesk,Inc. |WEB Address: www.autodesk.com
 90
    32897
280
     0
281
     0
  0
CLASS
  1
AECS_DISP_PROPS_MEMBER
  2
AecsDbDispPropsMember
  3
AecStructureBase50|Product Desc: Autodesk Architectural Desktop 2007 |Company: Autodesk,Inc. |WEB Address: www.autodesk.com
 90
    32897
280
     0
281
     0
  0
CLASS
  1
AECS_DISP_PROPS_MEMBER_PLAN
  2
AecsDbDispPropsMemberPlan
  3
AecStructureBase50|Product Desc: Autodesk Architectural Desktop 2007 |Company: Autodesk,Inc. |WEB Address: www.autodesk.com
 90
    32897
280
     0
281
     0
  0
CLASS
  1
AEC_DISP_PROPS_AREAGROUP
  2
AecDbDispPropsAreaGroup
  3
AecAreaCalculationBase50|Product Desc: Autodesk Architectural Desktop 2007 |Company: Autodesk,Inc. |WEB Address: www.autodesk.com
 90
    32897
280
     0
281
     0
  0
CLASS
  1
AEC_DISP_PROPS_WINDOW_NOMINAL
  2
AecDbDispPropsWindowNominal
  3
AecArchBase50|Product Desc: Autodesk Architectural Desktop 2007 |Company: Autodesk,Inc. |WEB Address: www.autodesk.com
 90
    32897
280
     0
281
     0
  0
CLASS
  1
AEC_DISP_PROPS_AREA
  2
AecDbDispPropsArea
  3
AecAreaCalculationBase50|Product Desc: Autodesk Architectural Desktop 2007 |Company: Autodesk,Inc. |WEB Address: www.autodesk.com
 90
    32897
280
     0
281
     0
  0
CLASS
  1
AEC_DISP_PROPS_SCHEDULE_TABLE
  2
AecDbDispPropsScheduleTable
  3
AecSchedule50|Product Desc: Autodesk Architectural Desktop 2007 |Company: Autodesk,Inc. |WEB Address: www.autodesk.com
 90
    32897
280
     0
281
     0
  0
CLASS
  1
AEC_LAYERKEY_STYLE
  2
AecDbLayerKeyStyle
  3
AecBase50|Product Desc: Autodesk Architectural Desktop 2007 |Company: Autodesk,Inc. |WEB Address: www.autodesk.com
 90
    32897
280
     0
281
     0
  0
CLASS
  1
AEC_VARS_ARCHBASE
  2
AecDbVarsArchBase
  3
AecArchBase50|Product Desc: Autodesk Architectural Desktop 2007 |Company: Autodesk,Inc. |WEB Address: www.autodesk.com
 90
    32897
280
     0
281
     0
  0
CLASS
  1
AEC_VARS_MUNICH
  2
AecDbVarsMunich
  3
AecArchDACHBase50|Product Desc: Autodesk Architectural Desktop 2007 |Company: Autodesk,Inc. |WEB Address: www.autodesk.com
 90
    32897
280
     0
281
     0
  0
CLASS
  1
AEC_NOTIFICATION_TRACKER
  2
AecDbNotificationTracker
  3
AecBase50|Product Desc: Autodesk Architectural Desktop 2007 |Company: Autodesk,Inc. |WEB Address: www.autodesk.com
 90
    32897
280
     0
281
     0
  0
CLASS
  1
AEC_DISP_REP_ANCHOR
  2
AecDbDispRepAnchor
  3
AecBase50|Product Desc: Autodesk Architectural Desktop 2007 |Company: Autodesk,Inc. |WEB Address: www.autodesk.com
 90
    32897
280
     0
281
     0
  0
CLASS
  1
AEC_DISP_REP_POLYGON_TRUECOLOUR
  2
AecDbDispRepPolygonTrueColour
  3
AecBaseEx50|Product Desc: Autodesk Architectural Desktop 2007 |Company: Autodesk,Inc. |WEB Address: www.autodesk.com
 90
    32897
280
     0
281
     0
  0
CLASS
  1
AEC_DISP_PROPS_POLYGON_TRUECOLOUR
  2
AecDbDispPropsPolygonTrueColour
  3
AecBaseEx50|Product Desc: Autodesk Architectural Desktop 2007 |Company: Autodesk,Inc. |WEB Address: www.autodesk.com
 90
    32897
280
     0
281
     0
  0
CLASS
  1
AEC_DISP_REP_BDG_ELEVLINE_RCP
  2
AecDbDispRepBdgElevLineRcp
  3
AecArchBase50|Product Desc: Autodesk Architectural Desktop 2007 |Company: Autodesk,Inc. |WEB Address: www.autodesk.com
 90
    32897
280
     0
281
     0
  0
CLASS
  1
AEC_DISP_REP_BDG_SECTIONLINE_RCP
  2
AecDbDispRepBdgSectionLineRcp
  3
AecArchBase50|Product Desc: Autodesk Architectural Desktop 2007 |Company: Autodesk,Inc. |WEB Address: www.autodesk.com
 90
    32897
280
     0
281
     0
  0
CLASS
  1
AEC_DISP_REP_BDG_SECTION_MODEL
  2
AecDbDispRepBdgSectionModel
  3
AecArchBase50|Product Desc: Autodesk Architectural Desktop 2007 |Company: Autodesk,Inc. |WEB Address: www.autodesk.com
 90
    32897
280
     0
281
     0
  0
CLASS
  1
AEC_DISP_REP_DOOR_ELEV
  2
AecDbDispRepDoorElev
  3
AecArchBase50|Product Desc: Autodesk Architectural Desktop 2007 |Company: Autodesk,Inc. |WEB Address: www.autodesk.com
 90
    32897
280
     0
281
     0
  0
CLASS
  1
AEC_DISP_REP_DOOR_RCP
  2
AecDbDispRepDoorRcp
  3
AecArchBase50|Product Desc: Autodesk Architectural Desktop 2007 |Company: Autodesk,Inc. |WEB Address: www.autodesk.com
 90
    32897
280
     0
281
     0
  0
CLASS
  1
AEC_DISP_REP_DOOR_THRESHOLD_PLAN
  2
AecDbDispRepDoorThresholdPlan
  3
AecArchBase50|Product Desc: Autodesk Architectural Desktop 2007 |Company: Autodesk,Inc. |WEB Address: www.autodesk.com
 90
    32897
280
     0
281
     0
  0
CLASS
  1
AEC_DISP_PROPS_DOOR_THRESHOLD_PLAN
  2
AecDbDispPropsDoorThresholdPlan
  3
AecArchBase50|Product Desc: Autodesk Architectural Desktop 2007 |Company: Autodesk,Inc. |WEB Address: www.autodesk.com
 90
    32897
280
     0
281
     0
  0
CLASS
  1
AEC_DISP_REP_MASS_ELEM_RCP
  2
AecDbDispRepMassElemRcp
  3
AecArchBase50|Product Desc: Autodesk Architectural Desktop 2007 |Company: Autodesk,Inc. |WEB Address: www.autodesk.com
 90
    32897
280
     0
281
     0
  0
CLASS
  1
AEC_DISP_REP_MASS_GROUP_RCP
  2
AecDbDispRepMassGroupRcp
  3
AecArchBase50|Product Desc: Autodesk Architectural Desktop 2007 |Company: Autodesk,Inc. |WEB Address: www.autodesk.com
 90
    32897
280
     0
281
     0
  0
CLASS
  1
AEC_DISP_REP_MVBLOCK_REF_RCP
  2
AecDbDispRepMvBlockRefRcp
  3
AecArchBase50|Product Desc: Autodesk Architectural Desktop 2007 |Company: Autodesk,Inc. |WEB Address: www.autodesk.com
 90
    32897
280
     0
281
     0
  0
CLASS
  1
AEC_DISP_REP_ROOF_RCP
  2
AecDbDispRepRoofRcp
  3
AecArchBase50|Product Desc: Autodesk Architectural Desktop 2007 |Company: Autodesk,Inc. |WEB Address: www.autodesk.com
 90
    32897
280
     0
281
     0
  0
CLASS
  1
AEC_DISP_REP_SPACE_BOUNDARY_DIAGRAM
  2
AecDbDispRepSpaceBoundaryDgrm
  3
AecArchBase50|Product Desc: Autodesk Architectural Desktop 2007 |Company: Autodesk,Inc. |WEB Address: www.autodesk.com
 90
    32897
280
     0
281
     0
  0
CLASS
  1
AEC_DISP_REP_SPACE_RCP
  2
AecDbDispRepSpaceRcp
  3
AecArchBase50|Product Desc: Autodesk Architectural Desktop 2007 |Company: Autodesk,Inc. |WEB Address: www.autodesk.com
 90
    32897
280
     0
281
     0
  0
CLASS
  1
AEC_DISP_REP_SPACE_VOLUME
  2
AecDbDispRepSpaceVolume
  3
AecArchBase50|Product Desc: Autodesk Architectural Desktop 2007 |Company: Autodesk,Inc. |WEB Address: www.autodesk.com
 90
    32897
280
     0
281
     0
  0
CLASS
  1
AEC_DISP_REP_STAIR_PLAN_OVERLAPPING
  2
AecDbDispRepStairPlanOverlapping
  3
AecArchBase50|Product Desc: Autodesk Architectural Desktop 2007 |Company: Autodesk,Inc. |WEB Address: www.autodesk.com
 90
    32897
280
     0
281
     0
  0
CLASS
  1
AEC_DISP_PROPS_STAIR_PLAN_OVERLAPPING
  2
AecDbDispPropsStairPlanOverlapping
  3
AecArchBase50|Product Desc: Autodesk Architectural Desktop 2007 |Company: Autodesk,Inc. |WEB Address: www.autodesk.com
 90
    32897
280
     0
281
     0
  0
CLASS
  1
AEC_DISP_REP_STAIR_RCP
  2
AecDbDispRepStairRcp
  3
AecArchBase50|Product Desc: Autodesk Architectural Desktop 2007 |Company: Autodesk,Inc. |WEB Address: www.autodesk.com
 90
    32897
280
     0
281
     0
  0
CLASS
  1
AEC_DISP_REP_WALL_RCP
  2
AecDbDispRepWallRcp
  3
AecArchBase50|Product Desc: Autodesk Architectural Desktop 2007 |Company: Autodesk,Inc. |WEB Address: www.autodesk.com
 90
    32897
280
     0
281
     0
  0
CLASS
  1
AEC_DISP_REP_WINDOWASSEMBLY_SILL_PLAN
  2
AecDbDispRepWindowAssemblySillPlan
  3
AecArchBase50|Product Desc: Autodesk Architectural Desktop 2007 |Company: Autodesk,Inc. |WEB Address: www.autodesk.com
 90
    32897
280
     0
281
     0
  0
CLASS
  1
AEC_DISP_PROPS_WINDOW_ASSEMBLY_SILL_PLAN
  2
AecDbDispPropsWindowAssemblySillPlan
  3
AecArchBase50|Product Desc: Autodesk Architectural Desktop 2007 |Company: Autodesk,Inc. |WEB Address: www.autodesk.com
 90
    32897
280
     0
281
     0
  0
CLASS
  1
AEC_DISP_REP_WINDOW_ELEV
  2
AecDbDispRepWindowElev
  3
AecArchBase50|Product Desc: Autodesk Architectural Desktop 2007 |Company: Autodesk,Inc. |WEB Address: www.autodesk.com
 90
    32897
280
     0
281
     0
  0
CLASS
  1
AEC_DISP_REP_WINDOW_RCP
  2
AecDbDispRepWindowRcp
  3
AecArchBase50|Product Desc: Autodesk Architectural Desktop 2007 |Company: Autodesk,Inc. |WEB Address: www.autodesk.com
 90
    32897
280
     0
281
     0
  0
CLASS
  1
AEC_DISP_REP_WINDOW_SILL_PLAN
  2
AecDbDispRepWindowSillPlan
  3
AecArchBase50|Product Desc: Autodesk Architectural Desktop 2007 |Company: Autodesk,Inc. |WEB Address: www.autodesk.com
 90
    32897
280
     0
281
     0
  0
CLASS
  1
AEC_DISP_PROPS_WINDOW_SILL_PLAN
  2
AecDbDispPropsWindowSillPlan
  3
AecArchBase50|Product Desc: Autodesk Architectural Desktop 2007 |Company: Autodesk,Inc. |WEB Address: www.autodesk.com
 90
    32897
280
     0
281
     0
  0
CLASS
  1
AEC_DISP_REP_ANCHOR_BUB_TO_GRID_RCP
  2
AecDbDispRepAnchorBubToGridRcp
  3
AecStructureBase50|Product Desc: Autodesk Architectural Desktop 2007 |Company: Autodesk,Inc. |WEB Address: www.autodesk.com
 90
    32897
280
     0
281
     0
  0
CLASS
  1
AEC_DISP_REP_COLUMN_GRID_RCP
  2
AecDbDispRepColumnGridRcp
  3
AecStructureBase50|Product Desc: Autodesk Architectural Desktop 2007 |Company: Autodesk,Inc. |WEB Address: www.autodesk.com
 90
    32897
280
     0
281
     0
  0
CLASS
  1
AECS_DISP_REP_MEMBER_ELEVATION_DESIGN
  2
AecsDbDispRepMemberElevationDesign
  3
AecStructureBase50|Product Desc: Autodesk Architectural Desktop 2007 |Company: Autodesk,Inc. |WEB Address: www.autodesk.com
 90
    32897
280
     0
281
     0
  0
CLASS
  1
AECS_DISP_PROPS_MEMBER_PROJECTED
  2
AecsDbDispPropsMemberProjected
  3
AecStructureBase50|Product Desc: Autodesk Architectural Desktop 2007 |Company: Autodesk,Inc. |WEB Address: www.autodesk.com
 90
    32897
280
     0
281
     0
  0
CLASS
  1
AECS_DISP_REP_MEMBER_ELEVATION_DETAIL
  2
AecsDbDispRepMemberElevationDetail
  3
AecStructureBase50|Product Desc: Autodesk Architectural Desktop 2007 |Company: Autodesk,Inc. |WEB Address: www.autodesk.com
 90
    32897
280
     0
281
     0
  0
CLASS
  1
AECS_DISP_REP_MEMBER_MODEL_DETAIL
  2
AecsDbDispRepMemberModelDetail
  3
AecStructureBase50|Product Desc: Autodesk Architectural Desktop 2007 |Company: Autodesk,Inc. |WEB Address: www.autodesk.com
 90
    32897
280
     0
281
     0
  0
CLASS
  1
AECS_DISP_REP_MEMBER_PLAN_DETAIL
  2
AecsDbDispRepMemberPlanDetail
  3
AecStructureBase50|Product Desc: Autodesk Architectural Desktop 2007 |Company: Autodesk,Inc. |WEB Address: www.autodesk.com
 90
    32897
280
     0
281
     0
  0
CLASS
  1
AECS_DISP_REP_MEMBER_PLAN_SKETCH
  2
AecsDbDispRepMemberPlanSketch
  3
AecStructureBase50|Product Desc: Autodesk Architectural Desktop 2007 |Company: Autodesk,Inc. |WEB Address: www.autodesk.com
 90
    32897
280
     0
281
     0
  0
CLASS
  1
AECS_DISP_PROPS_MEMBER_PLAN_SKETCH
  2
AecsDbDispPropsMemberPlanSketch
  3
AecStructureBase50|Product Desc: Autodesk Architectural Desktop 2007 |Company: Autodesk,Inc. |WEB Address: www.autodesk.com
 90
    32897
280
     0
281
     0
  0
CLASS
  1
AEC_AECDBDISPREPAREA100
  2
AecDbDispRepArea100
  3
AecArchDACHBase50|Product Desc: Autodesk Architectural Desktop 2007 |Company: Autodesk,Inc. |WEB Address: www.autodesk.com
 90
    32897
280
     0
281
     0
  0
CLASS
  1
AEC_AECDBDISPREPAREAGROUP100
  2
AecDbDispRepAreaGroup100
  3
AecArchDACHBase50|Product Desc: Autodesk Architectural Desktop 2007 |Company: Autodesk,Inc. |WEB Address: www.autodesk.com
 90
    32897
280
     0
281
     0
  0
CLASS
  1
AEC_AECDBDISPREPBDGELEVLINEPLAN100
  2
AecDbDispRepBdgElevLinePlan100
  3
AecArchDACHBase50|Product Desc: Autodesk Architectural Desktop 2007 |Company: Autodesk,Inc. |WEB Address: www.autodesk.com
 90
    32897
280
     0
281
     0
  0
CLASS
  1
AEC_AECDBDISPREPBDGSECTIONLINEPLAN100
  2
AecDbDispRepBdgSectionLinePlan100
  3
AecArchDACHBase50|Product Desc: Autodesk Architectural Desktop 2007 |Company: Autodesk,Inc. |WEB Address: www.autodesk.com
 90
    32897
280
     0
281
     0
  0
CLASS
  1
AEC_AECDBDISPREPCEILINGGRIDPLAN100
  2
AecDbDispRepCeilingGridPlan100
  3
AecArchDACHBase50|Product Desc: Autodesk Architectural Desktop 2007 |Company: Autodesk,Inc. |WEB Address: www.autodesk.com
 90
    32897
280
     0
281
     0
  0
CLASS
  1
AEC_AECDBDISPREPCOLUMNGRIDPLAN100
  2
AecDbDispRepColumnGridPlan100
  3
AecArchDACHBase50|Product Desc: Autodesk Architectural Desktop 2007 |Company: Autodesk,Inc. |WEB Address: www.autodesk.com
 90
    32897
280
     0
281
     0
  0
CLASS
  1
AEC_AECDBDISPREPCURTAINWALLLAYOUTPLAN100
  2
AecDbDispRepCurtainWallLayoutPlan100
  3
AecArchDACHBase50|Product Desc: Autodesk Architectural Desktop 2007 |Company: Autodesk,Inc. |WEB Address: www.autodesk.com
 90
    32897
280
     0
281
     0
  0
CLASS
  1
AEC_AECDBDISPREPCURTAINWALLUNITPLAN100
  2
AecDbDispRepCurtainWallUnitPlan100
  3
AecArchDACHBase50|Product Desc: Autodesk Architectural Desktop 2007 |Company: Autodesk,Inc. |WEB Address: www.autodesk.com
 90
    32897
280
     0
281
     0
  0
CLASS
  1
AEC_AECDBDISPREPMVBLOCKREFPLAN100
  2
AecDbDispRepMvBlockRefPlan100
  3
AecArchDACHBase50|Product Desc: Autodesk Architectural Desktop 2007 |Company: Autodesk,Inc. |WEB Address: www.autodesk.com
 90
    32897
280
     0
281
     0
  0
CLASS
  1
AEC_AECDBDISPREPROOFPLAN100
  2
AecDbDispRepRoofPlan100
  3
AecArchDACHBase50|Product Desc: Autodesk Architectural Desktop 2007 |Company: Autodesk,Inc. |WEB Address: www.autodesk.com
 90
    32897
280
     0
281
     0
  0
CLASS
  1
AEC_AECDBDISPREPROOFSLABPLAN100
  2
AecDbDispRepRoofSlabPlan100
  3
AecArchDACHBase50|Product Desc: Autodesk Architectural Desktop 2007 |Company: Autodesk,Inc. |WEB Address: www.autodesk.com
 90
    32897
280
     0
281
     0
  0
CLASS
  1
AEC_AECDBDISPREPSLABPLAN100
  2
AecDbDispRepSlabPlan100
  3
AecArchDACHBase50|Product Desc: Autodesk Architectural Desktop 2007 |Company: Autodesk,Inc. |WEB Address: www.autodesk.com
 90
    32897
280
     0
281
     0
  0
CLASS
  1
AEC_AECDBDISPREPSPACEBOUNDARYPLAN100
  2
AecDbDispRepSpaceBoundaryPlan100
  3
AecArchDACHBase50|Product Desc: Autodesk Architectural Desktop 2007 |Company: Autodesk,Inc. |WEB Address: www.autodesk.com
 90
    32897
280
     0
281
     0
  0
CLASS
  1
AEC_AECDBDISPREPSPACEPLAN100
  2
AecDbDispRepSpacePlan100
  3
AecArchDACHBase50|Product Desc: Autodesk Architectural Desktop 2007 |Company: Autodesk,Inc. |WEB Address: www.autodesk.com
 90
    32897
280
     0
281
     0
  0
CLASS
  1
AEC_AECDBDISPREPWALLPLAN100
  2
AecDbDispRepWallPlan100
  3
AecArchDACHBase50|Product Desc: Autodesk Architectural Desktop 2007 |Company: Autodesk,Inc. |WEB Address: www.autodesk.com
 90
    32897
280
     0
281
     0
  0
CLASS
  1
AEC_AECDBDISPREPAREA50
  2
AecDbDispRepArea50
  3
AecArchDACHBase50|Product Desc: Autodesk Architectural Desktop 2007 |Company: Autodesk,Inc. |WEB Address: www.autodesk.com
 90
    32897
280
     0
281
     0
  0
CLASS
  1
AEC_AECDBDISPREPAREAGROUP50
  2
AecDbDispRepAreaGroup50
  3
AecArchDACHBase50|Product Desc: Autodesk Architectural Desktop 2007 |Company: Autodesk,Inc. |WEB Address: www.autodesk.com
 90
    32897
280
     0
281
     0
  0
CLASS
  1
AEC_AECDBDISPREPBDGELEVLINEPLAN50
  2
AecDbDispRepBdgElevLinePlan50
  3
AecArchDACHBase50|Product Desc: Autodesk Architectural Desktop 2007 |Company: Autodesk,Inc. |WEB Address: www.autodesk.com
 90
    32897
280
     0
281
     0
  0
CLASS
  1
AEC_AECDBDISPREPBDGSECTIONLINEPLAN50
  2
AecDbDispRepBdgSectionLinePlan50
  3
AecArchDACHBase50|Product Desc: Autodesk Architectural Desktop 2007 |Company: Autodesk,Inc. |WEB Address: www.autodesk.com
 90
    32897
280
     0
281
     0
  0
CLASS
  1
AEC_AECDBDISPREPCEILINGGRIDPLAN50
  2
AecDbDispRepCeilingGridPlan50
  3
AecArchDACHBase50|Product Desc: Autodesk Architectural Desktop 2007 |Company: Autodesk,Inc. |WEB Address: www.autodesk.com
 90
    32897
280
     0
281
     0
  0
CLASS
  1
AEC_AECDBDISPREPCOLUMNGRIDPLAN50
  2
AecDbDispRepColumnGridPlan50
  3
AecArchDACHBase50|Product Desc: Autodesk Architectural Desktop 2007 |Company: Autodesk,Inc. |WEB Address: www.autodesk.com
 90
    32897
280
     0
281
     0
  0
CLASS
  1
AEC_AECDBDISPREPCURTAINWALLLAYOUTPLAN50
  2
AecDbDispRepCurtainWallLayoutPlan50
  3
AecArchDACHBase50|Product Desc: Autodesk Architectural Desktop 2007 |Company: Autodesk,Inc. |WEB Address: www.autodesk.com
 90
    32897
280
     0
281
     0
  0
CLASS
  1
AEC_AECDBDISPREPCURTAINWALLUNITPLAN50
  2
AecDbDispRepCurtainWallUnitPlan50
  3
AecArchDACHBase50|Product Desc: Autodesk Architectural Desktop 2007 |Company: Autodesk,Inc. |WEB Address: www.autodesk.com
 90
    32897
280
     0
281
     0
  0
CLASS
  1
AEC_AECDBDISPREPMVBLOCKREFPLAN50
  2
AecDbDispRepMvBlockRefPlan50
  3
AecArchDACHBase50|Product Desc: Autodesk Architectural Desktop 2007 |Company: Autodesk,Inc. |WEB Address: www.autodesk.com
 90
    32897
280
     0
281
     0
  0
CLASS
  1
AEC_AECDBDISPREPROOFPLAN50
  2
AecDbDispRepRoofPlan50
  3
AecArchDACHBase50|Product Desc: Autodesk Architectural Desktop 2007 |Company: Autodesk,Inc. |WEB Address: www.autodesk.com
 90
    32897
280
     0
281
     0
  0
CLASS
  1
AEC_AECDBDISPREPROOFSLABPLAN50
  2
AecDbDispRepRoofSlabPlan50
  3
AecArchDACHBase50|Product Desc: Autodesk Architectural Desktop 2007 |Company: Autodesk,Inc. |WEB Address: www.autodesk.com
 90
    32897
280
     0
281
     0
  0
CLASS
  1
AEC_AECDBDISPREPSLABPLAN50
  2
AecDbDispRepSlabPlan50
  3
AecArchDACHBase50|Product Desc: Autodesk Architectural Desktop 2007 |Company: Autodesk,Inc. |WEB Address: www.autodesk.com
 90
    32897
280
     0
281
     0
  0
CLASS
  1
AEC_AECDBDISPREPSPACEBOUNDARYPLAN50
  2
AecDbDispRepSpaceBoundaryPlan50
  3
AecArchDACHBase50|Product Desc: Autodesk Architectural Desktop 2007 |Company: Autodesk,Inc. |WEB Address: www.autodesk.com
 90
    32897
280
     0
281
     0
  0
CLASS
  1
AEC_AECDBDISPREPSPACEPLAN50
  2
AecDbDispRepSpacePlan50
  3
AecArchDACHBase50|Product Desc: Autodesk Architectural Desktop 2007 |Company: Autodesk,Inc. |WEB Address: www.autodesk.com
 90
    32897
280
     0
281
     0
  0
CLASS
  1
AEC_AECDBDISPREPWALLPLAN50
  2
AecDbDispRepWallPlan50
  3
AecArchDACHBase50|Product Desc: Autodesk Architectural Desktop 2007 |Company: Autodesk,Inc. |WEB Address: www.autodesk.com
 90
    32897
280
     0
281
     0
  0
CLASS
  1
AEC_AECDBDISPREPWINDOWASSEMBLYPLAN50
  2
AecDbDispRepWindowAssemblyPlan50
  3
AecArchDACHBase50|Product Desc: Autodesk Architectural Desktop 2007 |Company: Autodesk,Inc. |WEB Address: www.autodesk.com
 90
    32897
280
     0
281
     0
  0
CLASS
  1
AEC_DB_DISP_REP_DIM_GROUP_PLAN100
  2
AecDbDispRepDimGroupPlan100
  3
AecArchDACHBase50|Product Desc: Autodesk Architectural Desktop 2007 |Company: Autodesk,Inc. |WEB Address: www.autodesk.com
 90
    32897
280
     0
281
     0
  0
CLASS
  1
AEC_DB_DISP_REP_DIM_GROUP_PLAN50
  2
AecDbDispRepDimGroupPlan50
  3
AecArchDACHBase50|Product Desc: Autodesk Architectural Desktop 2007 |Company: Autodesk,Inc. |WEB Address: www.autodesk.com
 90
    32897
280
     0
281
     0
  0
CLASS
  1
AEC_DISP_REP_DOOR_PLAN_50
  2
AecDbDispRepDoorPlan50
  3
AecArchDACHBase50|Product Desc: Autodesk Architectural Desktop 2007 |Company: Autodesk,Inc. |WEB Address: www.autodesk.com
 90
    32897
280
     0
281
     0
  0
CLASS
  1
AEC_DISP_PROPS_DOOR_PLAN_50
  2
AecDbDispPropsDoorPlan50
  3
AecArchDACHBase50|Product Desc: Autodesk Architectural Desktop 2007 |Company: Autodesk,Inc. |WEB Address: www.autodesk.com
 90
    32897
280
     0
281
     0
  0
CLASS
  1
AEC_DISP_REP_DOOR_PLAN_HEKTO
  2
AecDbDispRepDoorPlanHekto
  3
AecArchDACHBase50|Product Desc: Autodesk Architectural Desktop 2007 |Company: Autodesk,Inc. |WEB Address: www.autodesk.com
 90
    32897
280
     0
281
     0
  0
CLASS
  1
AEC_DISP_PROPS_DOOR_PLAN_100
  2
AecDbDispPropsDoorPlan100
  3
AecArchDACHBase50|Product Desc: Autodesk Architectural Desktop 2007 |Company: Autodesk,Inc. |WEB Address: www.autodesk.com
 90
    32897
280
     0
281
     0
  0
CLASS
  1
AEC_DISP_REP_DOOR_THRESHOLD_SYMBOL_PLAN
  2
AecDbDispRepDoorThresholdSymbolPlan
  3
AecArchDACHBase50|Product Desc: Autodesk Architectural Desktop 2007 |Company: Autodesk,Inc. |WEB Address: www.autodesk.com
 90
    32897
280
     0
281
     0
  0
CLASS
  1
AEC_DISP_PROPS_DOOR_THRESHOLD_SYMBOL_PLAN
  2
AecDbDispPropsDoorThresholdSymbolPlan
  3
AecArchDACHBase50|Product Desc: Autodesk Architectural Desktop 2007 |Company: Autodesk,Inc. |WEB Address: www.autodesk.com
 90
    32897
280
     0
281
     0
  0
CLASS
  1
AEC_DISPREPAECDBDISPREPMASSELEMPLAN100
  2
AecDbDispRepMassElemPlan100
  3
AecArchDACHBase50|Product Desc: Autodesk Architectural Desktop 2007 |Company: Autodesk,Inc. |WEB Address: www.autodesk.com
 90
    32897
280
     0
281
     0
  0
CLASS
  1
AEC_DISPROPSMASSELEMPLANCOMMON
  2
AecDbDispPropsMassElemPlanCommon
  3
AecArchDACHBase50|Product Desc: Autodesk Architectural Desktop 2007 |Company: Autodesk,Inc. |WEB Address: www.autodesk.com
 90
    32897
280
     0
281
     0
  0
CLASS
  1
AEC_DISPREPAECDBDISPREPMASSELEMPLAN50
  2
AecDbDispRepMassElemPlan50
  3
AecArchDACHBase50|Product Desc: Autodesk Architectural Desktop 2007 |Company: Autodesk,Inc. |WEB Address: www.autodesk.com
 90
    32897
280
     0
281
     0
  0
CLASS
  1
AEC_DISPREPAECDBDISPREPMASSGROUPPLAN100
  2
AecDbDispRepMassGroupPlan100
  3
AecArchDACHBase50|Product Desc: Autodesk Architectural Desktop 2007 |Company: Autodesk,Inc. |WEB Address: www.autodesk.com
 90
    32897
280
     0
281
     0
  0
CLASS
  1
AEC_DISPROPSMASSGROUPPLANCOMMON
  2
AecDbDispPropsMassGroupPlanCommon
  3
AecArchDACHBase50|Product Desc: Autodesk Architectural Desktop 2007 |Company: Autodesk,Inc. |WEB Address: www.autodesk.com
 90
    32897
280
     0
281
     0
  0
CLASS
  1
AEC_DISPREPAECDBDISPREPMASSGROUPPLAN50
  2
AecDbDispRepMassGroupPlan50
  3
AecArchDACHBase50|Product Desc: Autodesk Architectural Desktop 2007 |Company: Autodesk,Inc. |WEB Address: www.autodesk.com
 90
    32897
280
     0
281
     0
  0
CLASS
  1
AEC_DISPREPAECDBDISPREPOPENINGPLAN100
  2
AecDbDispRepOpeningPlan100
  3
AecArchDACHBase50|Product Desc: Autodesk Architectural Desktop 2007 |Company: Autodesk,Inc. |WEB Address: www.autodesk.com
 90
    32897
280
     0
281
     0
  0
CLASS
  1
AEC_DISPROPSOPENINGPLANCOMMONHATCHED
  2
AecDbDispPropsOpeningPlanCommonHatched
  3
AecArchDACHBase50|Product Desc: Autodesk Architectural Desktop 2007 |Company: Autodesk,Inc. |WEB Address: www.autodesk.com
 90
    32897
280
     0
281
     0
  0
CLASS
  1
AEC_DISPREPAECDBDISPREPOPENINGPLAN50
  2
AecDbDispRepOpeningPlan50
  3
AecArchDACHBase50|Product Desc: Autodesk Architectural Desktop 2007 |Company: Autodesk,Inc. |WEB Address: www.autodesk.com
 90
    32897
280
     0
281
     0
  0
CLASS
  1
AEC_DISPREPAECDBDISPREPOPENINGPLANREFLECTED
  2
AecDbDispRepOpeningPlanReflected
  3
AecArchDACHBase50|Product Desc: Autodesk Architectural Desktop 2007 |Company: Autodesk,Inc. |WEB Address: www.autodesk.com
 90
    32897
280
     0
281
     0
  0
CLASS
  1
AEC_DISPROPSOPENINGPLANCOMMON
  2
AecDbDispPropsOpeningPlanCommon
  3
AecArchDACHBase50|Product Desc: Autodesk Architectural Desktop 2007 |Company: Autodesk,Inc. |WEB Address: www.autodesk.com
 90
    32897
280
     0
281
     0
  0
CLASS
  1
AEC_DISPREPAECDBDISPREPOPENINGSILLPLAN
  2
AecDbDispRepOpeningSillPlan
  3
AecArchDACHBase50|Product Desc: Autodesk Architectural Desktop 2007 |Company: Autodesk,Inc. |WEB Address: www.autodesk.com
 90
    32897
280
     0
281
     0
  0
CLASS
  1
AEC_DISPROPSOPENINGSILLPLAN
  2
AecDbDispPropsOpeningSillPlan
  3
AecArchDACHBase50|Product Desc: Autodesk Architectural Desktop 2007 |Company: Autodesk,Inc. |WEB Address: www.autodesk.com
 90
    32897
280
     0
281
     0
  0
CLASS
  1
AEC_DISP_REP_RAILING_PLAN_100
  2
AecDbDispRepRailingPlan100
  3
AecArchDACHBase50|Product Desc: Autodesk Architectural Desktop 2007 |Company: Autodesk,Inc. |WEB Address: www.autodesk.com
 90
    32897
280
     0
281
     0
  0
CLASS
  1
AEC_DISP_ROPS_RAILING_PLAN_100
  2
AecDbDispPropsRailingPlan100
  3
AecArchDACHBase50|Product Desc: Autodesk Architectural Desktop 2007 |Company: Autodesk,Inc. |WEB Address: www.autodesk.com
 90
    32897
280
     0
281
     0
  0
CLASS
  1
AEC_DISP_REP_RAILING_PLAN_50
  2
AecDbDispRepRailingPlan50
  3
AecArchDACHBase50|Product Desc: Autodesk Architectural Desktop 2007 |Company: Autodesk,Inc. |WEB Address: www.autodesk.com
 90
    32897
280
     0
281
     0
  0
CLASS
  1
AEC_DISP_ROPS_RAILING_PLAN_50
  2
AecDbDispPropsRailingPlan50
  3
AecArchDACHBase50|Product Desc: Autodesk Architectural Desktop 2007 |Company: Autodesk,Inc. |WEB Address: www.autodesk.com
 90
    32897
280
     0
281
     0
  0
CLASS
  1
AEC_DISP_REP_STAIR_PLAN_100
  2
AecDbDispRepStairPlan100
  3
AecArchDACHBase50|Product Desc: Autodesk Architectural Desktop 2007 |Company: Autodesk,Inc. |WEB Address: www.autodesk.com
 90
    32897
280
     0
281
     0
  0
CLASS
  1
AEC_DISP_ROPS_STAIR_PLAN_100
  2
AecDbDispPropsStairPlan100
  3
AecArchDACHBase50|Product Desc: Autodesk Architectural Desktop 2007 |Company: Autodesk,Inc. |WEB Address: www.autodesk.com
 90
    32897
280
     0
281
     0
  0
CLASS
  1
AEC_DISP_REP_STAIR_PLAN_50
  2
AecDbDispRepStairPlan50
  3
AecArchDACHBase50|Product Desc: Autodesk Architectural Desktop 2007 |Company: Autodesk,Inc. |WEB Address: www.autodesk.com
 90
    32897
280
     0
281
     0
  0
CLASS
  1
AEC_DISP_ROPS_STAIR_PLAN_50
  2
AecDbDispPropsStairPlan50
  3
AecArchDACHBase50|Product Desc: Autodesk Architectural Desktop 2007 |Company: Autodesk,Inc. |WEB Address: www.autodesk.com
 90
    32897
280
     0
281
     0
  0
CLASS
  1
AEC_DISP_REP_WINDOW_PLAN_100
  2
AecDbDispRepWindowPlan100
  3
AecArchDACHBase50|Product Desc: Autodesk Architectural Desktop 2007 |Company: Autodesk,Inc. |WEB Address: www.autodesk.com
 90
    32897
280
     0
281
     0
  0
CLASS
  1
AEC_DISP_PROPS_WINDOW_PLAN_100
  2
AecDbDispPropsWindowPlan100
  3
AecArchDACHBase50|Product Desc: Autodesk Architectural Desktop 2007 |Company: Autodesk,Inc. |WEB Address: www.autodesk.com
 90
    32897
280
     0
281
     0
  0
CLASS
  1
AEC_DISP_REP_WINDOW_PLAN_50
  2
AecDbDispRepWindowPlan50
  3
AecArchDACHBase50|Product Desc: Autodesk Architectural Desktop 2007 |Company: Autodesk,Inc. |WEB Address: www.autodesk.com
 90
    32897
280
     0
281
     0
  0
CLASS
  1
AEC_DISP_PROPS_WINDOW_PLAN_50
  2
AecDbDispPropsWindowPlan50
  3
AecArchDACHBase50|Product Desc: Autodesk Architectural Desktop 2007 |Company: Autodesk,Inc. |WEB Address: www.autodesk.com
 90
    32897
280
     0
281
     0
  0
CLASS
  1
BINRECORD
  2
AcAecBinRecord
  3
AecBase50|Product Desc: Autodesk Architectural Desktop 2007 |Company: Autodesk,Inc. |WEB Address: www.autodesk.com
 90
    32897
280
     0
281
     0
  0
CLASS
  1
SPATIAL_FILTER
  2
AcDbSpatialFilter
  3
ObjectDBX Classes
 90
    32768
280
     0
281
     0
  0
CLASS
  1
AEC_VARS_STRUCTUREBASE
  2
AecsDbVarsStructureBase
  3
AecStructureBase50|Product Desc: Autodesk Architectural Desktop 2007 |Company: Autodesk,Inc. |WEB Address: www.autodesk.com
 90
    32897
280
     0
281
     0
  0
CLASS
  1
DIMASSOC
  2
AcDbDimAssoc
  3
"AcDbDimAssoc|Product Desc:     AcDim ARX App For Dimension|Company:          Autodesk, Inc.|WEB Address:      www.autodesk.com"
 90
    32768
280
     0
281
     0
  0
CLASS
  1
TABLESTYLE
  2
AcDbTableStyle
  3
ObjectDBX Classes
 90
     4095
280
     0
281
     0
  0
CLASS
  1
MATERIAL
  2
AcDbMaterial
  3
ObjectDBX Classes
 90
     1153
280
     0
281
     0
  0
CLASS
  1
VISUALSTYLE
  2
AcDbVisualStyle
  3
ObjectDBX Classes
 90
     4095
280
     0
281
     0
  0
CLASS
  1
EXACXREFPANELOBJECT
  2
ExAcXREFPanelObject
  3
EXAC_ESW
 90
    33793
280
     0
281
     0
  0
CLASS
  1
NPOCOLLECTION
  2
AcDbImpNonPersistentObjectsCollection
  3
ObjectDBX Classes
 90
    33921
280
     0
281
     0
  0
CLASS
  1
AEC_AECDBDISPREPZONE100
  2
AecDbDispRepZonePlan100
  3
AecArchDACHBase50|Product Desc: Autodesk Architectural Desktop 2007 |Company: Autodesk,Inc. |WEB Address: www.autodesk.com
 90
    32897
280
     0
281
     0
  0
CLASS
  1
AEC_DISP_PROPS_ZONE
  2
AecDbDispPropsZone
  3
AecArchBase50|Product Desc: Autodesk Architectural Desktop 2007 |Company: Autodesk,Inc. |WEB Address: www.autodesk.com
 90
    32897
280
     0
281
     0
  0
CLASS
  1
AEC_AECDBDISPREPZONE50
  2
AecDbDispRepZonePlan50
  3
AecArchDACHBase50|Product Desc: Autodesk Architectural Desktop 2007 |Company: Autodesk,Inc. |WEB Address: www.autodesk.com
 90
    32897
280
     0
281
     0
  0
CLASS
  1
AEC_DISP_REP_DISPLAYTHEME
  2
AecDbDispRepDisplayTheme
  3
AecBase50|Product Desc: Autodesk Architectural Desktop 2007 |Company: Autodesk,Inc. |WEB Address: www.autodesk.com
 90
    32897
280
     0
281
     0
  0
CLASS
  1
AEC_DISP_PROPS_DISPLAYTHEME
  2
AecDbDispPropsDisplayTheme
  3
AecBase50|Product Desc: Autodesk Architectural Desktop 2007 |Company: Autodesk,Inc. |WEB Address: www.autodesk.com
 90
    32897
280
     0
281
     0
  0
CLASS
  1
AEC_DISP_REP_ANCHOR_EXT_TAG_TO_ENT
  2
AecDbDispRepAnchorExtendedTagToEnt
  3
AecScheduleData50|Product Desc: Autodesk Architectural Desktop 2007 |Company: Autodesk,Inc. |WEB Address: www.autodesk.com
 90
    32897
280
     0
281
     0
  0
CLASS
  1
AEC_DISP_REP_SPACE_DECOMPOSED
  2
AecDbDispRepSpaceDecomposed
  3
AecArchBase50|Product Desc: Autodesk Architectural Desktop 2007 |Company: Autodesk,Inc. |WEB Address: www.autodesk.com
 90
    32897
280
     0
281
     0
  0
CLASS
  1
AEC_DISP_PROPS_SPACE_DECOMPOSED
  2
AecDbDispPropsSpaceDecomposed
  3
AecArchBase50|Product Desc: Autodesk Architectural Desktop 2007 |Company: Autodesk,Inc. |WEB Address: www.autodesk.com
 90
    32897
280
     0
281
     0
  0
CLASS
  1
AEC_DISP_REP_ZONE
  2
AecDbDispRepZone
  3
AecArchBase50|Product Desc: Autodesk Architectural Desktop 2007 |Company: Autodesk,Inc. |WEB Address: www.autodesk.com
 90
    32897
280
     0
281
     0
  0
CLASS
  1
ACAD_EVALUATION_GRAPH
  2
AcDbEvalGraph
  3
ObjectDBX Classes
 90
    33921
280
     0
281
     0
  0
CLASS
  1
BLOCKFLIPPARAMETER
  2
AcDbBlockFlipParameter
  3
ObjectDBX Classes
 90
    33921
280
     0
281
     0
  0
CLASS
  1
BLOCKFLIPGRIP
  2
AcDbBlockFlipGrip
  3
ObjectDBX Classes
 90
    33921
280
     0
281
     0
  0
CLASS
  1
BLOCKGRIPLOCATIONCOMPONENT
  2
AcDbBlockGripExpr
  3
ObjectDBX Classes
 90
    33921
280
     0
281
     0
  0
CLASS
  1
BLOCKFLIPACTION
  2
AcDbBlockFlipAction
  3
ObjectDBX Classes
 90
    33921
280
     0
281
     0
  0
CLASS
  1
BLOCKROTATIONPARAMETER
  2
AcDbBlockRotationParameter
  3
ObjectDBX Classes
 90
    33921
280
     0
281
     0
  0
CLASS
  1
BLOCKROTATIONGRIP
  2
AcDbBlockRotationGrip
  3
ObjectDBX Classes
 90
    33921
280
     0
281
     0
  0
CLASS
  1
BLOCKROTATEACTION
  2
AcDbBlockRotateAction
  3
ObjectDBX Classes
 90
    33921
280
     0
281
     0
  0
CLASS
  1
BLOCKBASEPOINTPARAMETER
  2
AcDbBlockBasepointParameter
  3
ObjectDBX Classes
 90
    33921
280
     0
281
     0
  0
CLASS
  1
ACDB_DYNAMICBLOCKPURGEPREVENTER_VERSION
  2
AcDbDynamicBlockPurgePreventer
  3
ObjectDBX Classes
 90
    33921
280
     0
281
     0
  0
CLASS
  1
ACDB_BLOCKREPRESENTATION_DATA
  2
AcDbBlockRepresentationData
  3
ObjectDBX Classes
 90
    33921
280
     0
281
     0
  0
CLASS
  1
BLOCKVISIBILITYPARAMETER
  2
AcDbBlockVisibilityParameter
  3
ObjectDBX Classes
 90
    33921
280
     0
281
     0
  0
CLASS
  1
BLOCKVISIBILITYGRIP
  2
AcDbBlockVisibilityGrip
  3
ObjectDBX Classes
 90
    33921
280
     0
281
     0
  0
CLASS
  1
BLOCKLINEARPARAMETER
  2
AcDbBlockLinearParameter
  3
ObjectDBX Classes
 90
    33921
280
     0
281
     0
  0
CLASS
  1
BLOCKSTRETCHACTION
  2
AcDbBlockStretchAction
  3
ObjectDBX Classes
 90
    33921
280
     0
281
     0
  0
CLASS
  1
BLOCKLOOKUPPARAMETER
  2
AcDbBlockLookupParameter
  3
ObjectDBX Classes
 90
    33921
280
     0
281
     0
  0
CLASS
  1
BLOCKLOOKUPGRIP
  2
AcDbBlockLookupGrip
  3
ObjectDBX Classes
 90
    33921
280
     0
281
     0
  0
CLASS
  1
BLOCKLOOKUPACTION
  2
AcDbBlockLookupAction
  3
ObjectDBX Classes
 90
    33921
280
     0
281
     0
  0
CLASS
  1
BLOCKMOVEACTION
  2
AcDbBlockMoveAction
  3
ObjectDBX Classes
 90
    33921
280
     0
281
     0
  0
CLASS
  1
BLOCKLINEARGRIP
  2
AcDbBlockLinearGrip
  3
ObjectDBX Classes
 90
    33921
280
     0
281
     0
  0
CLASS
  1
OBJECT_PTR
  2
CAseDLPNTableRecord
  3
ASE-LPNTableRecord
 90
        1
280
     0
281
     0
  0
CLASS
  1
SCALE
  2
AcDbScale
  3
ObjectDBX Classes
 90
     1153
280
     0
281
     0
  0
CLASS
  1
MLEADERSTYLE
  2
AcDbMLeaderStyle
  3
ACDB_MLEADERSTYLE_CLASS
 90
    36863
280
     0
281
     0
  0
CLASS
  1
AEC_REFEDIT_STATUS_TRACKER
  2
AecDbRefEditStatusTracker
  3
AecArchBase50|Product Desc: Autodesk Architectural Desktop 2007 |Company: Autodesk,Inc. |WEB Address: www.autodesk.com
 90
    32897
280
     0
281
     0
  0
CLASS
  1
CELLSTYLEMAP
  2
AcDbCellStyleMap
  3
ObjectDBX Classes
 90
     1152
280
     0
281
     0
  0
ENDSEC
  0
SECTION
  2
TABLES
  0
TABLE
  2
VPORT
  5
1B8
330
0
100
AcDbSymbolTable
 70
     1
  0
VPORT
  5
1B9
330
1B8
100
AcDbSymbolTableRecord
100
AcDbViewportTableRecord
  2
*Active
 70
     0
 10
0.0
 20
0.0
 11
1.0
 21
1.0
 12
222161.038385285
 22
135310.7492151931
 13
0.0
 23
0.0
 14
10.0
 24
10.0
 15
10.0
 25
10.0
 16
0.0
 26
0.0
 36
1.0
 17
0.0
 27
0.0
 37
0.0
 40
20901.01119645572
 41
1.466187050359712
 42
50.0
 43
0.0
 44
0.0
 50
0.0
 51
0.0
 71
     0
 72
  1000
 73
     1
 74
     1
 75
     0
 76
     0
 77
     0
 78
     0
281
     0
 65
     1
110
0.0
120
0.0
130
0.0
111
1.0
121
0.0
131
0.0
112
0.0
122
1.0
132
0.0
 79
     0
146
0.0
  0
ENDTAB
  0
TABLE
  2
LTYPE
  5
1B3
330
0
100
AcDbSymbolTable
 70
     2
  0
LTYPE
  5
1B4
330
1B3
100
AcDbSymbolTableRecord
100
AcDbLinetypeTableRecord
  2
ByBlock
 70
     0
  3

 72
    65
 73
     0
 40
0.0
  0
LTYPE
  5
1B5
330
1B3
100
AcDbSymbolTableRecord
100
AcDbLinetypeTableRecord
  2
ByLayer
 70
     0
  3

 72
    65
 73
     0
 40
0.0
  0
LTYPE
  5
E
330
1B3
100
AcDbSymbolTableRecord
100
AcDbLinetypeTableRecord
  2
Continuous
 70
     0
  3
Solid line
 72
    65
 73
     0
 40
0.0
  0
LTYPE
  5
14
330
1B3
100
AcDbSymbolTableRecord
100
AcDbLinetypeTableRecord
  2
HIDDEN
 70
     0
  3
Hidden __ __ __ __ __ __ __ __ __ __ __ __ __ _
 72
    65
 73
     2
 40
0.375
 49
0.25
 74
     0
 49
-0.125
 74
     0
  0
ENDTAB
  0
TABLE
  2
LAYER
  5
1AA
102
{ACAD_XDICTIONARY
360
1AB
102
}
330
0
100
AcDbSymbolTable
 70
     6
  0
LAYER
  5
6
102
{ACAD_XDICTIONARY
360
7
102
}
330
1AA
100
AcDbSymbolTableRecord
100
AcDbLayerTableRecord
  2
0
 70
     0
 62
     7
  6
Continuous
370
    -3
390
9
1001
RAK
1000
{ACET-LAYISO
1070
     0
1070
     7
1000
Continuous
1071
       -3
1071
        1
1005
9
1000
ACET-LAYISO}
  0
LAYER
  5
D2
330
1AA
100
AcDbSymbolTableRecord
100
AcDbLayerTableRecord
  2
DEFPOINTS
 70
     0
 62
     7
  6
Continuous
290
     0
370
    -3
390
9
1001
RAK
1000
{ACET-LAYISO
1070
     0
1070
     7
1000
Continuous
1071
       -3
1071
        0
1005
9
1000
ACET-LAYISO}
  0
LAYER
  5
1C
102
{ACAD_XDICTIONARY
360
1D
102
}
330
1AA
100
AcDbSymbolTableRecord
100
AcDbLayerTableRecord
  2
RAMKI-A4
 70
     0
 62
     2
  6
Continuous
290
     0
370
    -3
390
9
1001
RAK
1000
{ACET-LAYISO
1070
     0
1070
     2
1000
Continuous
1071
       -3
1071
        0
1005
9
1000
ACET-LAYISO}
  0
LAYER
  5
BF
102
{ACAD_XDICTIONARY
360
C0
102
}
330
1AA
100
AcDbSymbolTableRecord
100
AcDbLayerTableRecord
  2
0Wymiary-PL
 70
     0
 62
     1
  6
Continuous
370
     5
390
9
  0
LAYER
  5
16
102
{ACAD_XDICTIONARY
360
17
102
}
330
1AA
100
AcDbSymbolTableRecord
100
AcDbLayerTableRecord
  2
0Napisy-PL
 70
     0
 62
   140
  6
Continuous
370
    15
390
9
1001
RAK
1000
{ACET-LAYISO
1070
     0
1070
   140
1000
Continuous
1071
       15
1071
        1
1005
9
1000
ACET-LAYISO}
  0
LAYER
  5
11
102
{ACAD_XDICTIONARY
360
12
102
}
330
1AA
100
AcDbSymbolTableRecord
100
AcDbLayerTableRecord
  2
0Napisy
 70
     0
 62
   140
  6
Continuous
370
    15
390
9
1001
RAK
1000
{ACET-LAYISO
1070
     0
1070
    33
1000
Continuous
1071
       18
1071
        1
1005
9
1000
ACET-LAYISO}
  0
ENDTAB
  0
TABLE
  2
STYLE
  5
1B0
330
0
100
AcDbSymbolTable
 70
     4
  0
STYLE
  5
1B1
330
1B0
100
AcDbSymbolTableRecord
100
AcDbTextStyleTableRecord
  2
Standard
 70
     0
 40
0.0
 41
1.0
 50
0.0
 71
     0
 42
2.5
  3
txt
  4

  0
STYLE
  5
D0
330
1B0
100
AcDbSymbolTableRecord
100
AcDbTextStyleTableRecord
  2
ROMANS
 70
     0
 40
0.0
 41
0.9
 50
0.0
 71
     0
 42
20.0
  3
romans.shx
  4

  0
STYLE
  5
19
330
1B0
100
AcDbSymbolTableRecord
100
AcDbTextStyleTableRecord
  2
AVA
 70
     0
 40
0.0
 41
1.0
 50
0.0
 71
     0
 42
158.5644099714409
  3
arial.ttf
  4

1001
ACAD
1000
Arial CE
1071
    60962
  0
STYLE
  5
20
330
1B0
100
AcDbSymbolTableRecord
100
AcDbTextStyleTableRecord
  2
ARIAL
 70
     0
 40
0.0
 41
1.0
 50
0.0
 71
     0
 42
20.0
  3
arial.ttf
  4

1001
ACAD
1000
Arial CE
1071
    60962
  0
ENDTAB
  0
TABLE
  2
VIEW
  5
1B6
330
0
100
AcDbSymbolTable
 70
     1
  0
VIEW
  5
19C
330
1B6
100
AcDbSymbolTableRecord
100
AcDbViewTableRecord
  2
RODODENDRON 5
 70
     0
 40
14020.0
 10
220287.1664355166
 20
148687.514558954
 41
10200.00000000003
 11
0.0
 21
0.0
 31
1.0
 12
0.0
 22
0.0
 32
0.0
 42
50.0
 43
0.0
 44
0.0
 50
0.0
 71
     0
281
     0
 72
     1
110
0.0
120
0.0
130
0.0
111
1.0
121
0.0
131
0.0
112
0.0
122
1.0
132
0.0
 79
     0
146
0.0
  0
ENDTAB
  0
TABLE
  2
UCS
  5
1B7
330
0
100
AcDbSymbolTable
 70
     0
  0
ENDTAB
  0
TABLE
  2
APPID
  5
1BA
330
0
100
AcDbSymbolTable
 70
     6
  0
APPID
  5
1A
330
1BA
100
AcDbSymbolTableRecord
100
AcDbRegAppTableRecord
  2
ACAD
 70
     0
  0
APPID
  5
F
330
1BA
100
AcDbSymbolTableRecord
100
AcDbRegAppTableRecord
  2
RAK
 70
     0
  0
APPID
  5
19F
330
1BA
100
AcDbSymbolTableRecord
100
AcDbRegAppTableRecord
  2
ACAD_PSEXT
 70
     0
  0
APPID
  5
22
330
1BA
100
AcDbSymbolTableRecord
100
AcDbRegAppTableRecord
  2
DCO15
 70
     0
  0
APPID
  5
1AE
330
1BA
100
AcDbSymbolTableRecord
100
AcDbRegAppTableRecord
  2
AcLayerTools
 70
     0
  0
APPID
  5
21
330
1BA
100
AcDbSymbolTableRecord
100
AcDbRegAppTableRecord
  2
AcDbBlockRepETag
 70
     0
  0
ENDTAB
  0
TABLE
  2
DIMSTYLE
  5
1BB
330
0
100
AcDbSymbolTable
 70
     3
100
AcDbDimStyleTable
 71
     3
340
1BC
340
D6
340
1BD
  0
DIMSTYLE
105
D6
102
{ACAD_REACTORS
330
BE
330
D7
330
17F
330
18A
102
}
330
1BB
100
AcDbSymbolTableRecord
100
AcDbDimStyleTableRecord
  2
500
 70
     0
 41
30.0
 42
43.0
 43
0.0
 44
13.0
 45
0.5
 46
12.0
 73
     0
 74
     0
 75
     1
 76
     1
 78
    12
140
80.0
141
0.0
145
1.0
147
0.0
172
     1
174
     1
176
     1
177
     1
178
   140
271
     1
272
     1
279
     2
340
D0
341
C6
342
C6
  0
DIMSTYLE
105
1BD
330
1BB
100
AcDbSymbolTableRecord
100
AcDbDimStyleTableRecord
  2
Standard
 70
     0
340
1B1
  0
DIMSTYLE
105
1BC
330
1BB
100
AcDbSymbolTableRecord
100
AcDbDimStyleTableRecord
  2
500-RU
 70
     0
 41
30.0
 42
43.0
 43
0.0
 44
13.0
 45
0.5
 46
12.0
 73
     0
 74
     0
 75
     1
 76
     1
 78
    12
140
80.0
141
0.0
144
10.0
145
1.0
147
0.0
172
     1
174
     1
176
     1
177
     1
178
   140
271
     1
272
     1
279
     2
340
D0
341
C6
342
C6
  0
ENDTAB
  0
TABLE
  2
BLOCK_RECORD
  5
1
330
0
100
AcDbSymbolTable
 70
     5
  0
BLOCK_RECORD
  5
2
102
{ACAD_XDICTIONARY
360
3
102
}
330
1
100
AcDbSymbolTableRecord
100
AcDbBlockTableRecord
  2
*Model_Space
340
19A
  0
BLOCK_RECORD
  5
1A0
330
1
100
AcDbSymbolTableRecord
100
AcDbBlockTableRecord
  2
*Paper_Space
340
1A7
  0
BLOCK_RECORD
  5
C6
102
{ACAD_XDICTIONARY
360
C7
102
}
330
1
100
AcDbSymbolTableRecord
100
AcDbBlockTableRecord
  2
B-DIM
340
0
102
{BLKREFS
331
DB
331
DC
331
C5
331
CE
331
183
331
184
331
18E
331
18F
102
}
  0
BLOCK_RECORD
  5
C2
330
1
100
AcDbSymbolTableRecord
100
AcDbBlockTableRecord
  2
*D1
340
0
  0
BLOCK_RECORD
  5
D8
330
1
100
AcDbSymbolTableRecord
100
AcDbBlockTableRecord
  2
*D2
340
0
  0
BLOCK_RECORD
  5
180
330
1
100
AcDbSymbolTableRecord
100
AcDbBlockTableRecord
  2
*D3
340
0
  0
BLOCK_RECORD
  5
18B
330
1
100
AcDbSymbolTableRecord
100
AcDbBlockTableRecord
  2
*D4
340
0
  0
ENDTAB
  0
ENDSEC
  0
SECTION
  2
BLOCKS
  0
BLOCK
  5
5
330
2
100
AcDbEntity
  8
0
100
AcDbBlockBegin
  2
*Model_Space
 70
     0
 10
0.0
 20
0.0
 30
0.0
  3
*Model_Space
  1

  0
ENDBLK
  5
199
330
2
100
AcDbEntity
  8
0
100
AcDbBlockEnd
  0
BLOCK
  5
1A1
330
1A0
100
AcDbEntity
 67
     1
  8
0
100
AcDbBlockBegin
  2
*Paper_Space
 70
     0
 10
0.0
 20
0.0
 30
0.0
  3
*Paper_Space
  1

  0
ENDBLK
  5
1A6
330
1A0
100
AcDbEntity
 67
     1
  8
0
100
AcDbBlockEnd
  0
BLOCK
  5
C9
330
C6
100
AcDbEntity
  8
0
100
AcDbBlockBegin
  2
B-DIM
 70
     0
 10
0.0
 20
0.0
 30
0.0
  3
B-DIM
  1

  0
LINE
  5
CA
330
C6
100
AcDbEntity
  8
0
 62
     1
100
AcDbLine
 10
0.000000000000091
 20
-1.1
 30
0.0
 11
0.000000000000091
 21
1.1
 31
0.0
  0
LWPOLYLINE
  5
CB
330
C6
100
AcDbEntity
  8
0
 62
     1
100
AcDbPolyline
 90
        2
 70
     0
 43
0.3
 10
-0.7071067811864851
 20
-0.7071067811864851
 10
0.707106781186576
 20
0.707106781186576
  0
LINE
  5
CC
330
C6
100
AcDbEntity
  8
0
 62
     1
100
AcDbLine
 10
1.20000000000009
 20
0.0
 30
0.0
 11
-1.199999999999909
 21
0.0
 31
0.0
  0
ENDBLK
  5
CD
330
C6
100
AcDbEntity
  8
0
100
AcDbBlockEnd
  0
BLOCK
  5
C3
330
C2
100
AcDbEntity
  8
0
100
AcDbBlockBegin
  2
*D1
 70
     1
 10
0.0
 20
0.0
 30
0.0
  3
*D1
  1

  0
LINE
  5
C4
330
C2
100
AcDbEntity
  8
0Wymiary-PL
 62
     1
370
    -2
100
AcDbLine
 10
217648.9966388889
 20
135793.5732616978
 30
0.0
 11
217648.9966388889
 21
136573.5732616979
 31
0.0
  0
INSERT
  5
C5
330
C2
100
AcDbEntity
  8
0Wymiary-PL
 62
     1
370
    -2
100
AcDbBlockReference
  2
B-DIM
 10
217648.9966388889
 20
135763.5732616979
 30
0.0
 41
30.0
 42
30.0
 43
30.0
 50
270.0
  0
INSERT
  5
CE
330
C2
100
AcDbEntity
  8
0Wymiary-PL
 62
     1
370
    -2
100
AcDbBlockReference
  2
B-DIM
 10
217648.9966388889
 20
136603.5732616978
 30
0.0
 41
30.0
 42
30.0
 43
30.0
 50
90.0
  0
MTEXT
  5
CF
330
C2
100
AcDbEntity
  8
0Wymiary-PL
 62
   140
100
AcDbMText
 10
217568.9966388888
 20
136183.5732616979
 30
0.0
 40
80.0
 41
0.0
 71
     5
 72
     1
  1
\A1;840
  7
ROMANS
 11
0.0000000000000001
 21
1.0
 31
0.0
 73
     1
 44
1.0
1001
ACAD
1000
MTEXTBEGIN
1070
    73
1070
     1
1070
    44
1040
1.0
1070
    74
1070
     0
1000
MTEXTEND
  0
POINT
  5
D1
330
C2
100
AcDbEntity
  8
DEFPOINTS
 62
     0
100
AcDbPoint
 10
218058.5982387031
 20
135763.5732616979
 30
-0.0000000000022922
  0
POINT
  5
D3
330
C2
100
AcDbEntity
  8
DEFPOINTS
 62
     0
100
AcDbPoint
 10
218058.5982387031
 20
136603.5732616978
 30
-0.0000000000015461
  0
POINT
  5
D4
330
C2
100
AcDbEntity
  8
DEFPOINTS
 62
     0
100
AcDbPoint
 10
217648.9966388889
 20
136603.5732616978
 30
0.0
  0
ENDBLK
  5
D5
330
C2
100
AcDbEntity
  8
0
100
AcDbBlockEnd
  0
BLOCK
  5
D9
330
D8
100
AcDbEntity
  8
0
100
AcDbBlockBegin
  2
*D2
 70
     1
 10
0.0
 20
0.0
 30
0.0
  3
*D2
  1

  0
LINE
  5
DA
330
D8
100
AcDbEntity
  8
0Wymiary-PL
 62
     1
370
    -2
100
AcDbLine
 10
218088.5982387031
 20
137072.9062242922
 30
0.0
 11
219168.5982387031
 21
137072.9062242922
 31
0.0
  0
INSERT
  5
DB
330
D8
100
AcDbEntity
  8
0Wymiary-PL
 62
     1
370
    -2
100
AcDbBlockReference
  2
B-DIM
 10
218058.5982387031
 20
137072.9062242922
 30
0.0
 41
30.0
 42
30.0
 43
30.0
 50
180.0
  0
INSERT
  5
DC
330
D8
100
AcDbEntity
  8
0Wymiary-PL
 62
     1
370
    -2
100
AcDbBlockReference
  2
B-DIM
 10
219198.5982387031
 20
137072.9062242922
 30
0.0
 41
30.0
 42
30.0
 43
30.0
  0
MTEXT
  5
DD
330
D8
100
AcDbEntity
  8
0Wymiary-PL
 62
   140
100
AcDbMText
 10
218628.5982387031
 20
137152.9062242922
 30
0.0
 40
80.0
 41
0.0
 71
     5
 72
     1
  1
\A1;1140
  7
ROMANS
 73
     1
 44
1.0
1001
ACAD
1000
MTEXTBEGIN
1070
    73
1070
     1
1070
    44
1040
1.0
1070
    74
1070
     0
1000
MTEXTEND
  0
POINT
  5
DE
330
D8
100
AcDbEntity
  8
DEFPOINTS
 62
     0
100
AcDbPoint
 10
218058.5982387031
 20
136603.5732616978
 30
-0.0000000000015461
  0
POINT
  5
DF
330
D8
100
AcDbEntity
  8
DEFPOINTS
 62
     0
100
AcDbPoint
 10
219198.5982387031
 20
136603.5732616978
 30
-0.0000000000015461
  0
POINT
  5
E0
330
D8
100
AcDbEntity
  8
DEFPOINTS
 62
     0
100
AcDbPoint
 10
219198.5982387031
 20
137072.9062242922
 30
0.0
  0
ENDBLK
  5
E1
330
D8
100
AcDbEntity
  8
0
100
AcDbBlockEnd
  0
BLOCK
  5
181
330
180
100
AcDbEntity
  8
0
100
AcDbBlockBegin
  2
*D3
 70
     1
 10
0.0
 20
0.0
 30
0.0
  3
*D3
  1

  0
LINE
  5
182
330
180
100
AcDbEntity
  8
0Wymiary-PL
 62
     1
370
    -2
100
AcDbLine
 10
223150.7818508562
 20
135793.5732616978
 30
0.0
 11
223150.7818508562
 21
136573.5732616979
 31
0.0
  0
INSERT
  5
183
330
180
100
AcDbEntity
  8
0Wymiary-PL
 62
     1
370
    -2
100
AcDbBlockReference
  2
B-DIM
 10
223150.7818508562
 20
135763.5732616979
 30
0.0
 41
30.0
 42
30.0
 43
30.0
 50
270.0
  0
INSERT
  5
184
330
180
100
AcDbEntity
  8
0Wymiary-PL
 62
     1
370
    -2
100
AcDbBlockReference
  2
B-DIM
 10
223150.7818508562
 20
136603.5732616978
 30
0.0
 41
30.0
 42
30.0
 43
30.0
 50
90.0
  0
MTEXT
  5
185
330
180
100
AcDbEntity
  8
0Wymiary-PL
 62
   140
100
AcDbMText
 10
223070.7818508562
 20
136183.5732616979
 30
0.0
 40
80.0
 41
0.0
 71
     5
 72
     1
  1
\A1;840
  7
ROMANS
 11
0.0000000000000001
 21
1.0
 31
0.0
 73
     1
 44
1.0
1001
ACAD
1000
MTEXTBEGIN
1070
    73
1070
     1
1070
    44
1040
1.0
1070
    74
1070
     0
1000
MTEXTEND
  0
POINT
  5
186
330
180
100
AcDbEntity
  8
DEFPOINTS
 62
     0
100
AcDbPoint
 10
222741.180251042
 20
135763.5732616979
 30
-0.0000000000022922
  0
POINT
  5
187
330
180
100
AcDbEntity
  8
DEFPOINTS
 62
     0
100
AcDbPoint
 10
222741.180251042
 20
136603.5732616978
 30
-0.0000000000015461
  0
POINT
  5
188
330
180
100
AcDbEntity
  8
DEFPOINTS
 62
     0
100
AcDbPoint
 10
223150.7818508562
 20
136603.5732616978
 30
0.0
  0
ENDBLK
  5
189
330
180
100
AcDbEntity
  8
0
100
AcDbBlockEnd
  0
BLOCK
  5
18C
330
18B
100
AcDbEntity
  8
0
100
AcDbBlockBegin
  2
*D4
 70
     1
 10
0.0
 20
0.0
 30
0.0
  3
*D4
  1

  0
LINE
  5
18D
330
18B
100
AcDbEntity
  8
0Wymiary-PL
 62
     1
370
    -2
100
AcDbLine
 10
222711.180251042
 20
137072.9062242922
 30
0.0
 11
221631.180251042
 21
137072.9062242922
 31
0.0
  0
INSERT
  5
18E
330
18B
100
AcDbEntity
  8
0Wymiary-PL
 62
     1
370
    -2
100
AcDbBlockReference
  2
B-DIM
 10
222741.180251042
 20
137072.9062242922
 30
0.0
 41
30.0
 42
30.0
 43
30.0
  0
INSERT
  5
18F
330
18B
100
AcDbEntity
  8
0Wymiary-PL
 62
     1
370
    -2
100
AcDbBlockReference
  2
B-DIM
 10
221601.180251042
 20
137072.9062242922
 30
0.0
 41
30.0
 42
30.0
 43
30.0
 50
180.0
  0
MTEXT
  5
190
330
18B
100
AcDbEntity
  8
0Wymiary-PL
 62
   140
100
AcDbMText
 10
222171.180251042
 20
137152.9062242922
 30
0.0
 40
80.0
 41
0.0
 71
     5
 72
     1
  1
\A1;1140
  7
ROMANS
 73
     1
 44
1.0
1001
ACAD
1000
MTEXTBEGIN
1070
    73
1070
     1
1070
    44
1040
1.0
1070
    74
1070
     0
1000
MTEXTEND
  0
POINT
  5
191
330
18B
100
AcDbEntity
  8
DEFPOINTS
 62
     0
100
AcDbPoint
 10
222741.180251042
 20
136603.5732616978
 30
-0.0000000000015461
  0
POINT
  5
192
330
18B
100
AcDbEntity
  8
DEFPOINTS
 62
     0
100
AcDbPoint
 10
221601.180251042
 20
136603.5732616978
 30
-0.0000000000015461
  0
POINT
  5
193
330
18B
100
AcDbEntity
  8
DEFPOINTS
 62
     0
100
AcDbPoint
 10
221601.180251042
 20
137072.9062242922
 30
0.0
  0
ENDBLK
  5
194
330
18B
100
AcDbEntity
  8
0
100
AcDbBlockEnd
  0
ENDSEC
  0
SECTION
  2
ENTITIES
  0
LINE
  5
10
330
2
100
AcDbEntity
  8
0Napisy
  6
HIDDEN
 62
     1
 48
8.0
370
     5
100
AcDbLine
 10
220399.8892448725
 20
132297.6012553763
 30
0.0
 11
220399.8892448725
 21
138473.1198157809
 31
0.0
  0
TEXT
  5
15
330
2
100
AcDbEntity
  8
0Napisy-PL
370
     5
100
AcDbText
 10
216666.4297817526
 20
141116.3055269018
 30
0.0
 40
150.0
  1
"DOM POD PAPAJĄ 2"
  7
AVA
100
AcDbText
  0
LWPOLYLINE
  5
1B
330
2
100
AcDbEntity
  8
RAMKI-A4
370
     5
100
AcDbPolyline
 90
        4
 70
     1
 43
0.0
 10
215187.2000545948
 20
127657.5157057546
 10
215187.2000545948
 20
141677.5157057546
 10
225387.2000545948
 20
141677.5157057546
 10
225387.2000545948
 20
127657.5157057546
  0
MTEXT
  5
1F
102
{ACAD_XDICTIONARY
360
22A
102
}
330
2
100
AcDbEntity
  8
0Napisy
100
AcDbMText
 10
216765.396492656
 20
140932.3689550166
 30
0.0
 40
150.0
 41
0.0
 71
     1
 72
     5
  1
{\fArial|b0|i0|c238|p34;MO\U+017BNA WKLEI\U+0106 DO PROJEKTU ZAGOSPODAROWANIA TERENU}
  7
ARIAL
 73
     1
 44
1.0
1001
AcDbBlockRepETag
1070
     1
1071
      383
1005
1F
1001
DCO15
1071
        1
1071
        1
1000
_tabelka_-_inform_i_etykiety_Link1
1004
19000000
1000
_tabelka_Arial151
1001
ACAD
1000
MTEXTBEGIN
1070
    73
1070
     1
1070
    44
1040
1.0
1070
    74
1070
     0
1000
MTEXTEND
  0
MTEXT
  5
23
102
{ACAD_XDICTIONARY
360
22C
102
}
330
2
100
AcDbEntity
  8
0Napisy
100
AcDbMText
 10
220212.6558968869
 20
132370.0274562156
 30
0.0
 40
100.0
 41
0.0
 71
     1
 72
     5
  1
{\fArial|b0|i0|c238|p34;O\U+015A ODBICIA LUSTRZANEGO}
  7
ARIAL
 11
0.0000000000000001
 21
1.0
 31
0.0
 73
     1
 44
1.0
1001
AcDbBlockRepETag
1070
     1
1071
      383
1005
1F
1001
DCO15
1071
        1
1071
        1
1000
_tabelka_-_inform_i_etykiety_Link1
1004
1B000000
1000
_tabelka_Arial151
1001
ACAD
1000
MTEXTBEGIN
1070
    73
1070
     1
1070
    44
1040
1.0
1070
    74
1070
     0
1000
MTEXTEND
  0
MTEXT
  5
24
330
2
100
AcDbEntity
  8
0Napisy
100
AcDbMText
 10
216789.6764640862
 20
128621.0690977501
 30
0.0
 40
100.0
 41
0.0
 71
     1
 72
     5
  1
{\fArial|b0|i0|c238|p34;OBRYS  BUDYNKU}
  7
ARIAL
 73
     1
 44
1.0
1001
AcDbBlockRepETag
1070
     1
1071
      383
1005
1F
1001
DCO15
1071
        1
1071
        1
1000
_tabelka_-_inform_i_etykiety_Link1
1004
1A000000
1000
_tabelka_Arial151
1001
ACAD
1000
MTEXTBEGIN
1070
    73
1070
     1
1070
    44
1040
1.0
1070
    74
1070
     0
1000
MTEXTEND
  0
MTEXT
  5
25
330
2
100
AcDbEntity
  8
0Napisy
100
AcDbMText
 10
216789.6764640862
 20
128371.06909775
 30
0.0
 40
100.0
 41
0.0
 71
     1
 72
     5
  1
{\fArial|b0|i0|c238|p34;Skala:}
  7
ARIAL
 73
     1
 44
1.0
1001
AcDbBlockRepETag
1070
     1
1071
      383
1005
1F
1001
DCO15
1071
        1
1071
        1
1000
_tabelka_-_inform_i_etykiety_Link1
1004
08000000
1000
_tabelka_Arial151
1001
ACAD
1000
MTEXTBEGIN
1070
    73
1070
     1
1070
    44
1040
1.0
1070
    74
1070
     0
1000
MTEXTEND
  0
TEXT
  5
26
330
2
100
AcDbEntity
  8
0Napisy
100
AcDbText
 10
217457.3675813689
 20
128269.3637771498
 30
0.0
 40
100.0
  1
1:500
  7
ARIAL
100
AcDbText
1001
AcDbBlockRepETag
1070
     1
1071
      383
1005
1F
1001
DCO15
1071
        1
1071
        1
1000
_tabelka_-_inform_i_etykiety_Link1
1004
08000000
1000
_tabelka_Arial151
  0
LWPOLYLINE
  5
27
330
2
100
AcDbEntity
  8
0
370
     9
100
AcDbPolyline
 90
        3
 70
     0
 43
0.0
 38
-47.00000000000175
 10
218470.0357387031
 20
136956.1233529878
 10
217932.5982387031
 20
136956.1233529878
 10
217932.5982387031
 20
136373.897775469
  0
LINE
  5
28
330
2
100
AcDbEntity
  8
0
370
     9
100
AcDbLine
 10
218470.0357387031
 20
137001.1233529878
 30
1691.999999998076
 11
217887.7437892694
 21
137001.1233529878
 31
1691.999999998076
  0
LINE
  5
29
330
2
100
AcDbEntity
  8
0
370
     9
100
AcDbLine
 10
217887.7437892694
 20
137001.1233529878
 30
-47.00000000008192
 11
217887.7437892694
 21
136373.897775469
 31
-47.00000000008304
  0
3DFACE
  5
2A
330
2
100
AcDbEntity
  8
0
370
     9
100
AcDbFace
 10
218470.0357387031
 20
136956.1233529878
 30
-47.00000000000122
 11
218451.3746874111
 21
136956.1233529878
 31
-47.00000000000122
 12
218449.8746874111
 22
137001.1233529878
 32
1590.444155593001
 13
218470.0357387031
 23
137001.1233529878
 33
1691.999999998076
  0
3DFACE
  5
2B
330
2
100
AcDbEntity
  8
0
370
     9
100
AcDbFace
 10
218451.3746874111
 20
136956.1233529878
 30
-47.00000000000122
 11
218432.7136361192
 21
136956.1233529878
 31
-47.00000000000122
 12
218429.7136361192
 22
137001.1233529878
 32
1488.888311187926
 13
218449.8746874111
 23
137001.1233529878
 33
1590.444155593001
  0
3DFACE
  5
2C
330
2
100
AcDbEntity
  8
0
370
     9
100
AcDbFace
 10
218432.7136361192
 20
136956.1233529878
 30
-47.00000000000122
 11
218414.0525848272
 21
136956.1233529878
 31
-47.00000000000122
 12
218409.5525848272
 22
137001.1233529878
 32
1387.332466782783
 13
218429.7136361192
 23
137001.1233529878
 33
1488.888311187926
  0
3DFACE
  5
2D
330
2
100
AcDbEntity
  8
0
370
     9
100
AcDbFace
 10
218414.0525848272
 20
136956.1233529878
 30
-47.00000000000122
 11
218395.3915335352
 21
136956.1233529878
 31
-47.00000000000122
 12
218389.3915335352
 22
137001.1233529878
 32
1285.77662237763
 13
218409.5525848272
 23
137001.1233529878
 33
1387.332466782851
  0
3DFACE
  5
2E
330
2
100
AcDbEntity
  8
0
370
     9
100
AcDbFace
 10
218395.3915335352
 20
136956.1233529878
 30
-47.00000000000122
 11
218376.7304822432
 21
136956.1233529878
 31
-47.00000000000122
 12
218369.2304822432
 22
137001.1233529878
 32
1184.220777972555
 13
218389.3915335352
 23
137001.1233529878
 33
1285.77662237763
  0
3DFACE
  5
2F
330
2
100
AcDbEntity
  8
0
370
     9
100
AcDbFace
 10
218376.7304822432
 20
136956.1233529878
 30
-47.00000000000122
 11
218358.0694309513
 21
136956.1233529878
 31
-47.00000000000122
 12
218349.0694309512
 22
137001.1233529878
 32
1082.66493356748
 13
218369.2304822432
 23
137001.1233529878
 33
1184.220777972555
  0
3DFACE
  5
30
330
2
100
AcDbEntity
  8
0
370
     9
100
AcDbFace
 10
218358.0694309513
 20
136956.1233529878
 30
-47.00000000000122
 11
218339.4083796593
 21
136956.1233529878
 31
-47.00000000000122
 12
218328.9083796593
 22
137001.1233529878
 32
981.1090891624052
 13
218349.0694309512
 23
137001.1233529878
 33
1082.66493356748
  0
3DFACE
  5
31
330
2
100
AcDbEntity
  8
0
370
     9
100
AcDbFace
 10
218339.4083796593
 20
136956.1233529878
 30
-47.00000000000122
 11
218320.7473283673
 21
136956.1233529878
 31
-47.00000000000122
 12
218308.7473283673
 22
137001.1233529878
 32
879.5532447571837
 13
218328.9083796593
 23
137001.1233529878
 33
981.1090891624052
  0
3DFACE
  5
32
330
2
100
AcDbEntity
  8
0
370
     9
100
AcDbFace
 10
218320.7473283673
 20
136956.1233529878
 30
-47.00000000000122
 11
218302.0862770753
 21
136956.1233529878
 31
-47.00000000000122
 12
218288.5862770753
 22
137001.1233529878
 32
777.9974003521088
 13
218308.7473283673
 23
137001.1233529878
 33
879.5532447571837
  0
3DFACE
  5
33
330
2
100
AcDbEntity
  8
0
370
     9
100
AcDbFace
 10
218302.0862770753
 20
136956.1233529878
 30
-47.00000000000122
 11
218283.4252257833
 21
136956.1233529878
 31
-47.00000000000122
 12
218268.4252257833
 22
137001.1233529878
 32
676.4415559470339
 13
218288.5862770753
 23
137001.1233529878
 33
777.9974003521088
  0
3DFACE
  5
34
330
2
100
AcDbEntity
  8
0
370
     9
100
AcDbFace
 10
218283.4252257833
 20
136956.1233529878
 30
-47.00000000000122
 11
218264.7641744913
 21
136956.1233529878
 31
-47.00000000000122
 12
218248.2641744913
 22
137001.1233529878
 32
574.8857115419589
 13
218268.4252257833
 23
137001.1233529878
 33
676.4415559470339
  0
3DFACE
  5
35
330
2
100
AcDbEntity
  8
0
370
     9
100
AcDbFace
 10
218264.7641744913
 20
136956.1233529878
 30
-47.00000000000122
 11
218246.1031231993
 21
136956.1233529878
 31
-47.00000000000122
 12
218228.1031231994
 22
137001.1233529878
 32
473.3298671367375
 13
218248.2641744913
 23
137001.1233529878
 33
574.8857115419589
  0
3DFACE
  5
36
330
2
100
AcDbEntity
  8
0
370
     9
100
AcDbFace
 10
218246.1031231993
 20
136956.1233529878
 30
-47.00000000000122
 11
218227.4420719074
 21
136956.1233529878
 31
-47.00000000000122
 12
218207.9420719074
 22
137001.1233529878
 32
371.7740227316626
 13
218228.1031231994
 23
137001.1233529878
 33
473.3298671367375
  0
3DFACE
  5
37
330
2
100
AcDbEntity
  8
0
370
     9
100
AcDbFace
 10
218227.4420719074
 20
136956.1233529878
 30
-47.00000000000122
 11
218208.7810206154
 21
136956.1233529878
 31
-47.00000000000122
 12
218187.7810206154
 22
137001.1233529878
 32
270.2181783265876
 13
218207.9420719074
 23
137001.1233529878
 33
371.7740227316626
  0
3DFACE
  5
38
330
2
100
AcDbEntity
  8
0
370
     9
100
AcDbFace
 10
218208.7810206154
 20
136956.1233529878
 30
-47.00000000000122
 11
218190.1199693234
 21
136956.1233529878
 31
-47.00000000000122
 12
218167.6199693234
 22
137001.1233529878
 32
168.662333921366
 13
218187.7810206154
 23
137001.1233529878
 33
270.2181783265876
  0
3DFACE
  5
39
330
2
100
AcDbEntity
  8
0
370
     9
100
AcDbFace
 10
218190.1199693234
 20
136956.1233529878
 30
-47.00000000000122
 11
218171.4589180314
 21
136956.1233529878
 31
-47.00000000000122
 12
218147.4589180314
 22
137001.1233529878
 32
67.10648951622326
 13
218167.6199693234
 23
137001.1233529878
 33
168.662333921366
  0
3DFACE
  5
3A
330
2
100
AcDbEntity
  8
0
370
     9
100
AcDbFace
 10
218171.4589180314
 20
136956.1233529878
 30
-47.00000000000122
 11
218152.7978667395
 21
136956.1233529878
 31
-47.00000000000122
 12
218127.2978667395
 22
137001.1233529878
 32
-34.4493548887838
 13
218147.4589180314
 23
137001.1233529878
 33
67.1064895162911
  0
3DFACE
  5
3B
330
2
100
AcDbEntity
  8
0
370
     9
100
AcDbFace
 10
218152.7978667395
 20
136956.1233529878
 30
-47.00000000000122
 11
218134.1368154475
 21
136956.1233529878
 31
-47.00000000000122
 12
218107.1368154475
 22
137001.1233529878
 32
-136.0051992938587
 13
218127.2978667395
 23
137001.1233529878
 33
-34.4493548887838
  0
3DFACE
  5
3C
330
2
100
AcDbEntity
  8
0
370
     9
100
AcDbFace
 10
218134.1368154475
 20
136956.1233529878
 30
-47.00000000000122
 11
218115.4757641555
 21
136956.1233529878
 31
-47.00000000000122
 12
218086.9757641555
 22
137001.1233529878
 32
-237.5610436990801
 13
218107.1368154475
 23
137001.1233529878
 33
-136.0051992938587
  0
3DFACE
  5
3D
330
2
100
AcDbEntity
  8
0
370
     9
100
AcDbFace
 10
218115.4757641555
 20
136956.1233529878
 30
-47.00000000000122
 11
218096.8147128635
 21
136956.1233529878
 31
-47.00000000000122
 12
218066.8147128635
 22
137001.1233529878
 32
-339.1168881041551
 13
218086.9757641555
 23
137001.1233529878
 33
-237.5610436990803
  0
3DFACE
  5
3E
330
2
100
AcDbEntity
  8
0
370
     9
100
AcDbFace
 10
218096.8147128635
 20
136956.1233529878
 30
-47.00000000000122
 11
218078.1536615715
 21
136956.1233529878
 31
-47.00000000000122
 12
218046.6536615715
 22
137001.1233529878
 32
-440.67273250923
 13
218066.8147128635
 23
137001.1233529878
 33
-339.1168881041551
  0
3DFACE
  5
3F
330
2
100
AcDbEntity
  8
0
370
     9
100
AcDbFace
 10
218078.1536615715
 20
136956.1233529878
 30
-47.00000000000122
 11
218059.4926102796
 21
136956.1233529878
 31
-47.00000000000122
 12
218026.4926102796
 22
137001.1233529878
 32
-542.2285769143051
 13
218046.6536615715
 23
137001.1233529878
 33
-440.67273250923
  0
3DFACE
  5
40
330
2
100
AcDbEntity
  8
0
370
     9
100
AcDbFace
 10
218059.4926102796
 20
136956.1233529878
 30
-47.00000000000122
 11
218040.8315589876
 21
136956.1233529878
 31
-47.00000000000122
 12
218006.3315589876
 22
137001.1233529878
 32
-643.7844213195266
 13
218026.4926102796
 23
137001.1233529878
 33
-542.2285769143051
  0
3DFACE
  5
41
330
2
100
AcDbEntity
  8
0
370
     9
100
AcDbFace
 10
218040.8315589876
 20
136956.1233529878
 30
-47.00000000000122
 11
218022.1705076956
 21
136956.1233529878
 31
-47.00000000000122
 12
217986.1705076956
 22
137001.1233529878
 32
-745.3402657246015
 13
218006.3315589876
 23
137001.1233529878
 33
-643.7844213195266
  0
3DFACE
  5
42
330
2
100
AcDbEntity
  8
0
370
     9
100
AcDbFace
 10
218022.1705076956
 20
136956.1233529878
 30
-47.00000000000122
 11
218003.5094564036
 21
136956.1233529878
 31
-47.00000000000122
 12
217966.0094564036
 22
137001.1233529878
 32
-846.8961101296763
 13
217986.1705076956
 23
137001.1233529878
 33
-745.3402657246015
  0
3DFACE
  5
43
330
2
100
AcDbEntity
  8
0
370
     9
100
AcDbFace
 10
218003.5094564036
 20
136956.1233529878
 30
-47.00000000000122
 11
217984.8484051116
 21
136956.1233529878
 31
-47.00000000000122
 12
217945.8484051116
 22
137001.1233529878
 32
-948.4519545348979
 13
217966.0094564036
 23
137001.1233529878
 33
-846.8961101296764
  0
3DFACE
  5
44
330
2
100
AcDbEntity
  8
0
370
     9
100
AcDbFace
 10
217984.8484051116
 20
136956.1233529878
 30
-47.00000000000122
 11
217966.1873538197
 21
136956.1233529878
 31
-47.00000000000122
 12
217925.6873538196
 22
137001.1233529878
 32
-1050.007798939973
 13
217945.8484051116
 23
137001.1233529878
 33
-948.4519545348979
  0
3DFACE
  5
45
330
2
100
AcDbEntity
  8
0
370
     9
100
AcDbFace
 10
217966.1873538197
 20
136956.1233529878
 30
-47.00000000000122
 11
217947.5263025277
 21
136956.1233529878
 31
-47.00000000000122
 12
217905.5263025277
 22
137001.1233529878
 32
-1151.563643345048
 13
217925.6873538196
 23
137001.1233529878
 33
-1050.007798939973
  0
3DFACE
  5
46
330
2
100
AcDbEntity
  8
0
370
     9
100
AcDbFace
 10
217947.5263025277
 20
136956.1233529878
 30
-47.00000000000122
 11
217932.5982387031
 21
136956.1233529878
 31
-47.00000000000071
 12
217887.7437892694
 22
137001.1233529878
 32
-47.00000000008238
 13
217905.5263025277
 23
137001.1233529878
 33
-47.00000000006902
  0
3DFACE
  5
47
330
2
100
AcDbEntity
  8
0
370
     9
100
AcDbFace
 10
217932.6036720177
 20
136956.1181686323
 30
-46.86108730963334
 11
217932.5982387031
 21
136933.7293142284
 31
-47.00000000000125
 12
217887.7437892694
 22
136978.5837636621
 32
-47.00000000008242
 13
217887.7437892694
 23
137001.1233529878
 33
-47.00000000015013
  0
3DFACE
  5
48
330
2
100
AcDbEntity
  8
0
370
     9
100
AcDbFace
 10
217932.5982387031
 20
136933.7293142284
 30
-47.00000000000125
 11
217932.5982387031
 21
136915.0682629364
 31
-47.00000000000126
 12
217887.7437892694
 22
136958.4275640557
 32
-47.00000000008246
 13
217887.7437892694
 23
136978.5837636621
 33
-47.00000000008242
  0
3DFACE
  5
49
330
2
100
AcDbEntity
  8
0
370
     9
100
AcDbFace
 10
217932.5982387031
 20
136915.0682629364
 30
-47.00000000000126
 11
217932.5982387031
 21
136896.4072116444
 31
-47.00000000000128
 12
217887.7437892694
 22
136938.2713644493
 32
-47.00000000008249
 13
217887.7437892694
 23
136958.4275640557
 33
-47.00000000008246
  0
3DFACE
  5
4A
330
2
100
AcDbEntity
  8
0
370
     9
100
AcDbFace
 10
217932.5982387031
 20
136896.4072116444
 30
-47.00000000000128
 11
217932.5982387031
 21
136877.7461603525
 31
-47.00000000000129
 12
217887.7437892694
 22
136918.1151648428
 32
-47.00000000008253
 13
217887.7437892694
 23
136938.2713644493
 33
-902.9841601100677
  0
3DFACE
  5
4B
330
2
100
AcDbEntity
  8
0
370
     9
100
AcDbFace
 10
217932.5982387031
 20
136877.7461603525
 30
-47.00000000000129
 11
217932.5982387031
 21
136859.0851090605
 31
-47.00000000000131
 12
217887.7437892694
 22
136897.9589652364
 32
-47.00000000008245
 13
217887.7437892694
 23
136918.1151648428
 33
-47.00000000008253
  0
3DFACE
  5
4C
330
2
100
AcDbEntity
  8
0
370
     9
100
AcDbFace
 10
217932.5982387031
 20
136859.0851090605
 30
-47.00000000000131
 11
217932.5982387031
 21
136840.4240577685
 31
-47.00000000000133
 12
217887.7437892694
 22
136877.8027656299
 32
-47.00000000008248
 13
217887.7437892694
 23
136897.9589652364
 33
-47.00000000008245
  0
3DFACE
  5
4D
330
2
100
AcDbEntity
  8
0
370
     9
100
AcDbFace
 10
217932.5982387031
 20
136840.4240577685
 30
-47.00000000000133
 11
217932.5982387031
 21
136821.7630064766
 31
-47.00000000000135
 12
217887.7437892694
 22
136857.6465660235
 32
-47.00000000008252
 13
217887.7437892694
 23
136877.8027656299
 33
-47.00000000008248
  0
3DFACE
  5
4E
330
2
100
AcDbEntity
  8
0
370
     9
100
AcDbFace
 10
217932.5982387031
 20
136821.7630064766
 30
-47.00000000000135
 11
217932.5982387031
 21
136803.1019551846
 31
-47.00000000000136
 12
217887.7437892694
 22
136837.4903664171
 32
-47.00000000008255
 13
217887.7437892694
 23
136857.6465660235
 33
-515.2476131500637
  0
3DFACE
  5
4F
330
2
100
AcDbEntity
  8
0
370
     9
100
AcDbFace
 10
217932.5982387031
 20
136803.1019551846
 30
-47.00000000000136
 11
217932.5982387031
 21
136784.4409038926
 31
-47.00000000000137
 12
217887.7437892694
 22
136817.3341668106
 32
-47.00000000008259
 13
217887.7437892694
 23
136837.4903664171
 33
-47.00000000008255
  0
3DFACE
  5
50
330
2
100
AcDbEntity
  8
0
370
     9
100
AcDbFace
 10
217932.5982387031
 20
136784.4409038926
 30
-47.00000000000137
 11
217932.5982387031
 21
136765.7798526006
 31
-47.0000000000014
 12
217887.7437892694
 22
136797.1779672042
 32
-47.00000000008262
 13
217887.7437892694
 23
136817.3341668106
 33
-47.00000000008259
  0
3DFACE
  5
51
330
2
100
AcDbEntity
  8
0
370
     9
100
AcDbFace
 10
217932.5982387031
 20
136765.7798526006
 30
-47.0000000000014
 11
217932.5982387031
 21
136747.1188013086
 31
-47.00000000000141
 12
217887.7437892694
 22
136777.0217675978
 32
-47.00000000008263
 13
217887.7437892694
 23
136797.1779672042
 33
-47.00000000008262
  0
3DFACE
  5
52
330
2
100
AcDbEntity
  8
0
370
     9
100
AcDbFace
 10
217932.5982387031
 20
136747.1188013086
 30
-47.00000000000141
 11
217932.5982387031
 21
136728.4577500166
 31
-47.00000000000143
 12
217887.7437892694
 22
136756.8655679913
 32
-47.00000000008265
 13
217887.7437892694
 23
136777.0217675978
 33
-47.00000000008263
  0
3DFACE
  5
53
330
2
100
AcDbEntity
  8
0
370
     9
100
AcDbFace
 10
217932.5982387031
 20
136728.4577500166
 30
-47.00000000000143
 11
217932.5982387031
 21
136709.7966987247
 31
-47.00000000000144
 12
217887.7437892694
 22
136736.7093683849
 32
-47.00000000008268
 13
217887.7437892694
 23
136756.8655679913
 33
-47.00000000008265
  0
3DFACE
  5
54
330
2
100
AcDbEntity
  8
0
370
     9
100
AcDbFace
 10
217932.5982387031
 20
136709.7966987247
 30
-47.00000000000144
 11
217932.5982387031
 21
136691.1356474327
 31
-47.00000000000146
 12
217887.7437892694
 22
136716.5531687784
 32
-47.00000000008271
 13
217887.7437892694
 23
136736.7093683849
 33
-47.00000000008268
  0
3DFACE
  5
55
330
2
100
AcDbEntity
  8
0
370
     9
100
AcDbFace
 10
217932.5982387031
 20
136691.1356474327
 30
-47.00000000000146
 11
217932.5982387031
 21
136672.4745961407
 31
-47.00000000000147
 12
217887.7437892694
 22
136696.396969172
 32
-47.00000000008269
 13
217887.7437892694
 23
136716.5531687784
 33
-47.00000000008271
  0
3DFACE
  5
56
330
2
100
AcDbEntity
  8
0
370
     9
100
AcDbFace
 10
217932.5982387031
 20
136672.4745961407
 30
-47.00000000000147
 11
217932.5982387031
 21
136653.8135448487
 31
-47.0000000000015
 12
217887.7437892694
 22
136676.2407695656
 32
-47.00000000008272
 13
217887.7437892694
 23
136696.396969172
 33
-47.00000000008269
  0
3DFACE
  5
57
330
2
100
AcDbEntity
  8
0
370
     9
100
AcDbFace
 10
217932.5982387031
 20
136653.8135448487
 30
-47.0000000000015
 11
217932.5982387031
 21
136635.1524935567
 31
-47.00000000000151
 12
217887.7437892694
 22
136656.0845699591
 32
-47.00000000008276
 13
217887.7437892694
 23
136676.2407695656
 33
-47.00000000008272
  0
3DFACE
  5
58
330
2
100
AcDbEntity
  8
0
370
     9
100
AcDbFace
 10
217932.5982387031
 20
136635.1524935567
 30
-47.00000000000151
 11
217932.5982387031
 21
136616.4914422647
 31
-47.00000000000152
 12
217887.7437892694
 22
136635.9283703527
 32
-47.00000000008279
 13
217887.7437892694
 23
136656.0845699591
 33
-47.00000000008276
  0
3DFACE
  5
59
330
2
100
AcDbEntity
  8
0
370
     9
100
AcDbFace
 10
217932.5982387031
 20
136616.4914422647
 30
-47.00000000000152
 11
217932.5982387031
 21
136597.8303909728
 31
-47.00000000000154
 12
217887.7437892694
 22
136615.7721707463
 32
-47.00000000008283
 13
217887.7437892694
 23
136635.9283703527
 33
-47.00000000008279
  0
3DFACE
  5
5A
330
2
100
AcDbEntity
  8
0
370
     9
100
AcDbFace
 10
217932.5982387031
 20
136597.8303909728
 30
-47.00000000000154
 11
217932.5982387031
 21
136579.1693396808
 31
-47.00000000000156
 12
217887.7437892694
 22
136595.6159711398
 32
-47.00000000008286
 13
217887.7437892694
 23
136615.7721707463
 33
-47.00000000008283
  0
3DFACE
  5
5B
330
2
100
AcDbEntity
  8
0
370
     9
100
AcDbFace
 10
217932.5982387031
 20
136579.1693396808
 30
-47.00000000000156
 11
217932.5982387031
 21
136560.5082883888
 31
-47.00000000000158
 12
217887.7437892694
 22
136575.4597715334
 32
-47.0000000000829
 13
217887.7437892694
 23
136595.6159711398
 33
744.8961644696014
  0
3DFACE
  5
5C
330
2
100
AcDbEntity
  8
0
370
     9
100
AcDbFace
 10
217932.5982387031
 20
136560.5082883888
 30
-47.00000000000158
 11
217932.5982387031
 21
136541.8472370969
 31
-47.0000000000016
 12
217887.7437892694
 22
136555.303571927
 32
-47.00000000008294
 13
217887.7437892694
 23
136575.4597715334
 33
-47.00000000008285
  0
3DFACE
  5
5D
330
2
100
AcDbEntity
  8
0
370
     9
100
AcDbFace
 10
217932.5982387031
 20
136541.8472370969
 30
-47.0000000000016
 11
217932.5982387031
 21
136523.1861858049
 31
-47.00000000000161
 12
217887.7437892694
 22
136535.1473723205
 32
-47.00000000008298
 13
217887.7437892694
 23
136555.303571927
 33
-47.00000000008294
  0
3DFACE
  5
5E
330
2
100
AcDbEntity
  8
0
370
     9
100
AcDbFace
 10
217932.5982387031
 20
136523.1861858049
 30
-47.00000000000161
 11
217932.5982387031
 21
136504.5251345129
 31
-47.00000000000162
 12
217887.7437892694
 22
136514.9911727141
 32
-47.00000000008301
 13
217887.7437892694
 23
136535.1473723205
 33
-47.0000000000829
  0
3DFACE
  5
5F
330
2
100
AcDbEntity
  8
0
370
     9
100
AcDbFace
 10
217932.5982387031
 20
136504.5251345129
 30
-47.00000000000162
 11
217932.5982387031
 21
136485.8640832209
 31
-47.00000000000165
 12
217887.7437892694
 22
136494.8349731077
 32
-47.00000000008305
 13
217887.7437892694
 23
136514.9911727141
 33
-47.00000000008301
  0
3DFACE
  5
60
330
2
100
AcDbEntity
  8
0
370
     9
100
AcDbFace
 10
217932.5982387031
 20
136485.8640832209
 30
-47.00000000000165
 11
217932.5982387031
 21
136467.2030319289
 31
-47.00000000000166
 12
217887.7437892694
 22
136475.0631911979
 32
-47.00000000008309
 13
217887.7437892694
 23
136494.8349731077
 33
-47.00000000008294
  0
3DFACE
  5
61
330
2
100
AcDbEntity
  8
0
370
     9
100
AcDbFace
 10
217932.5982387031
 20
136467.2030319289
 30
-47.00000000000166
 11
217932.5982387031
 21
136448.5419806369
 31
-47.00000000000168
 12
217887.7437892694
 22
136455.7006518492
 32
-47.00000000008289
 13
217887.7437892694
 23
136475.0631911979
 33
-47.00000000008309
  0
3DFACE
  5
62
330
2
100
AcDbEntity
  8
0
370
     9
100
AcDbFace
 10
217932.5982387031
 20
136448.5419806369
 30
-47.00000000000168
 11
217932.5982387031
 21
136429.880929345
 31
-47.00000000000169
 12
217887.7437892694
 22
136434.3663742883
 32
-47.00000000008293
 13
217887.7437892694
 23
136455.7006518492
 33
-47.00000000008289
  0
3DFACE
  5
63
330
2
100
AcDbEntity
  8
0
370
     9
100
AcDbFace
 10
217932.5982387031
 20
136429.880929345
 30
-47.00000000000169
 11
217932.5982387031
 21
136411.219878053
 31
-47.00000000000171
 12
217887.7437892694
 22
136414.3639417605
 32
-47.00000000008297
 13
217887.7437892694
 23
136434.3663742883
 33
-47.00000000008293
  0
3DFACE
  5
64
330
2
100
AcDbEntity
  8
0
370
     9
100
AcDbFace
 10
217932.5982387031
 20
136411.219878053
 30
-47.00000000000171
 11
217932.5982387031
 21
136392.558826761
 31
-47.00000000000172
 12
217887.7437892694
 22
136394.1308586148
 32
-47.00000000008301
 13
217887.7437892694
 23
136414.3639417605
 33
-47.00000000008297
  0
3DFACE
  5
65
330
2
100
AcDbEntity
  8
0
370
     9
100
AcDbFace
 10
217932.5982387031
 20
136392.558826761
 30
-47.00000000000172
 11
217932.5982387031
 21
136373.897775469
 31
-47.00000000000175
 12
217887.7437892694
 22
136373.897775469
 32
-47.00000000008304
 13
217887.7437892694
 23
136394.1308586148
 33
-47.00000000008301
  0
LINE
  5
66
330
2
100
AcDbEntity
  8
0
370
     9
100
AcDbLine
 10
218534.8205228186
 20
135583.5732616978
 30
-0.000000000002452
 11
218834.8205228186
 21
135583.5732616978
 31
-0.000000000002452
  0
LINE
  5
67
330
2
100
AcDbEntity
  8
0
370
     9
100
AcDbLine
 10
218834.8205228186
 20
135583.5732616978
 30
-0.000000000002452
 11
218834.8205228186
 21
135763.5732616979
 31
-0.0000000000022922
  0
LINE
  5
68
330
2
100
AcDbEntity
  8
0
370
     9
100
AcDbLine
 10
218834.8205228186
 20
135763.5732616979
 30
-0.0000000000022922
 11
218534.8205228186
 21
135763.5732616979
 31
-0.0000000000022922
  0
LINE
  5
69
330
2
100
AcDbEntity
  8
0
370
     9
100
AcDbLine
 10
218534.8205228186
 20
135763.5732616979
 30
-0.0000000000022922
 11
218534.8205228186
 21
135583.5732616978
 31
-0.000000000002452
  0
LINE
  5
6A
330
2
100
AcDbEntity
  8
0
370
     9
100
AcDbLine
 10
218694.3482387031
 20
136603.5732616978
 30
-0.0000000000015461
 11
218694.3482387031
 21
136816.1665349147
 31
-0.0000000000013573
  0
LINE
  5
6B
330
2
100
AcDbEntity
  8
0
370
     9
100
AcDbLine
 10
218694.3482387031
 20
136816.1665349147
 30
-0.0000000000013573
 11
218410.0357387031
 21
136816.1665349147
 31
-0.0000000000013573
  0
LINE
  5
6C
330
2
100
AcDbEntity
  8
0
370
     9
100
AcDbLine
 10
218410.0357387031
 20
136816.1665349147
 30
-0.0000000000013573
 11
218410.0357387031
 21
136950.1233529878
 31
-0.0000000000012383
  0
LINE
  5
6D
330
2
100
AcDbEntity
  8
0
370
     9
100
AcDbLine
 10
218410.0357387031
 20
136950.1233529878
 30
-0.0000000000012383
 11
217938.5982387031
 21
136950.1233529878
 31
-0.0000000000012383
  0
LINE
  5
6E
330
2
100
AcDbEntity
  8
0
370
     9
100
AcDbLine
 10
217938.5982387031
 20
136950.1233529878
 30
-0.0000000000012383
 11
217938.5982387031
 21
136433.897775469
 31
-0.0000000000016968
  0
LINE
  5
6F
330
2
100
AcDbEntity
  8
0
370
     9
100
AcDbLine
 10
217938.5982387031
 20
136433.897775469
 30
-0.0000000000016968
 11
218058.5982387031
 21
136433.897775469
 31
-0.0000000000016968
  0
LINE
  5
70
330
2
100
AcDbEntity
  8
0
370
     9
100
AcDbLine
 10
218058.5982387031
 20
136433.897775469
 30
-0.0000000000016968
 11
218058.5982387031
 21
136603.5732616978
 31
-0.0000000000015461
  0
LINE
  5
71
330
2
100
AcDbEntity
  8
0
370
     9
100
AcDbLine
 10
218694.3482387031
 20
136603.5732616978
 30
-0.0000000000015461
 11
218694.3482387031
 21
136816.1665349147
 31
-0.0000000000013573
  0
LINE
  5
72
330
2
100
AcDbEntity
  8
0
370
     9
100
AcDbLine
 10
218694.3482387031
 20
136816.1665349147
 30
-0.0000000000013573
 11
218440.0357387031
 21
136816.1665349147
 31
-0.0000000000013573
  0
LINE
  5
73
330
2
100
AcDbEntity
  8
0
370
     9
100
AcDbLine
 10
218440.0357387031
 20
136816.1665349147
 30
-0.0000000000013573
 11
218440.0357387031
 21
136950.1233529878
 31
-0.0000000000012383
  0
LINE
  5
74
330
2
100
AcDbEntity
  8
0
370
     9
100
AcDbLine
 10
218440.0357387031
 20
136950.1233529878
 30
-0.0000000000012383
 11
217938.5982387031
 21
136950.1233529878
 31
-0.0000000000012383
  0
LINE
  5
75
330
2
100
AcDbEntity
  8
0
370
     9
100
AcDbLine
 10
217938.5982387031
 20
136950.1233529878
 30
-0.0000000000012383
 11
217938.5982387031
 21
136403.897775469
 31
-0.0000000000017235
  0
LINE
  5
76
330
2
100
AcDbEntity
  8
0
370
     9
100
AcDbLine
 10
217938.5982387031
 20
136403.897775469
 30
-0.0000000000017235
 11
218058.5982387031
 21
136403.897775469
 31
-0.0000000000017235
  0
LINE
  5
77
330
2
100
AcDbEntity
  8
0
370
     9
100
AcDbLine
 10
218058.5982387031
 20
136403.897775469
 30
-0.0000000000017235
 11
218058.5982387031
 21
136603.5732616978
 31
-0.0000000000015461
  0
LINE
  5
78
330
2
100
AcDbEntity
  8
0
370
     9
100
AcDbLine
 10
218694.3482387031
 20
136603.5732616978
 30
-0.0000000000015461
 11
218694.3482387031
 21
136816.1665349147
 31
-0.0000000000013573
  0
LINE
  5
79
330
2
100
AcDbEntity
  8
0
370
     9
100
AcDbLine
 10
218694.3482387031
 20
136816.1665349147
 30
-0.0000000000013573
 11
218470.0357387031
 21
136816.1665349147
 31
-0.0000000000013573
  0
LINE
  5
7A
330
2
100
AcDbEntity
  8
0
370
     9
100
AcDbLine
 10
218470.0357387031
 20
136816.1665349147
 30
-0.0000000000013573
 11
218470.0357387031
 21
136950.1233529878
 31
-0.0000000000012383
  0
LINE
  5
7B
330
2
100
AcDbEntity
  8
0
370
     9
100
AcDbLine
 10
218470.0357387031
 20
136950.1233529878
 30
-0.0000000000012383
 11
217938.5982387031
 21
136950.1233529878
 31
-0.0000000000012383
  0
LINE
  5
7C
330
2
100
AcDbEntity
  8
0
370
     9
100
AcDbLine
 10
217938.5982387031
 20
136950.1233529878
 30
-0.0000000000012383
 11
217938.5982387031
 21
136373.897775469
 31
-0.0000000000017501
  0
LINE
  5
7D
330
2
100
AcDbEntity
  8
0
370
     9
100
AcDbLine
 10
217938.5982387031
 20
136373.897775469
 30
-0.0000000000017501
 11
218058.5982387031
 21
136373.897775469
 31
-0.0000000000017501
  0
LINE
  5
7E
330
2
100
AcDbEntity
  8
0
370
     9
100
AcDbLine
 10
218058.5982387031
 20
136373.897775469
 30
-0.0000000000017501
 11
218058.5982387031
 21
136603.5732616978
 31
-0.0000000000015461
  0
LINE
  5
7F
330
2
100
AcDbEntity
  8
0
370
     9
100
AcDbLine
 10
218504.8205228186
 20
135553.5732616979
 30
-0.0000000000024787
 11
218864.8205228186
 21
135553.5732616979
 31
-0.0000000000024787
  0
LINE
  5
80
330
2
100
AcDbEntity
  8
0
370
     9
100
AcDbLine
 10
218864.8205228186
 20
135553.5732616979
 30
-0.0000000000024787
 11
218864.8205228186
 21
135763.5732616979
 31
-0.0000000000022922
  0
LINE
  5
81
330
2
100
AcDbEntity
  8
0
370
     9
100
AcDbLine
 10
218864.8205228186
 20
135763.5732616979
 30
-0.0000000000022922
 11
218504.8205228186
 21
135763.5732616979
 31
-0.0000000000022922
  0
LINE
  5
82
330
2
100
AcDbEntity
  8
0
370
     9
100
AcDbLine
 10
218504.8205228186
 20
135763.5732616979
 30
-0.0000000000022922
 11
218504.8205228186
 21
135553.5732616979
 31
-0.0000000000024787
  0
LINE
  5
83
330
2
100
AcDbEntity
  8
0
370
     9
100
AcDbLine
 10
218804.8205228186
 20
135763.5732616979
 30
-0.0000000000022922
 11
218564.8205228186
 21
135763.5732616979
 31
-0.0000000000022922
  0
LINE
  5
84
330
2
100
AcDbEntity
  8
0
370
     9
100
AcDbLine
 10
218564.8205228186
 20
135763.5732616979
 30
-0.0000000000022922
 11
218564.8205228186
 21
135613.5732616978
 31
-0.0000000000024254
  0
LINE
  5
85
330
2
100
AcDbEntity
  8
0
370
     9
100
AcDbLine
 10
218564.8205228186
 20
135613.5732616978
 30
-0.0000000000024254
 11
218804.8205228186
 21
135613.5732616978
 31
-0.0000000000024254
  0
LINE
  5
86
330
2
100
AcDbEntity
  8
0
370
     9
100
AcDbLine
 10
218804.8205228186
 20
135613.5732616978
 30
-0.0000000000024254
 11
218804.8205228186
 21
135763.5732616979
 31
-0.0000000000022922
  0
LINE
  5
87
330
2
100
AcDbEntity
  8
0
370
     9
390
88
100
AcDbLine
 10
218097.5982387031
 20
136564.5732616979
 30
-0.0000000000015807
 11
218195.7232387031
 21
136564.5732616979
 31
-0.0000000000015807
  0
LINE
  5
89
330
2
100
AcDbEntity
  8
0
370
     9
390
88
100
AcDbLine
 10
218694.3482387031
 20
136603.5732616978
 30
-0.0000000000015461
 11
218714.3482387031
 21
136603.5732616978
 31
-0.0000000000015461
  0
LINE
  5
8A
330
2
100
AcDbEntity
  8
0
370
     9
390
88
100
AcDbLine
 10
218714.3482387031
 20
136603.5732616978
 30
-0.0000000000015461
 11
218714.3482387031
 21
136836.1665349147
 31
-0.0000000000013395
  0
LINE
  5
8B
330
2
100
AcDbEntity
  8
0
370
     9
390
88
100
AcDbLine
 10
218714.3482387031
 20
136836.1665349147
 30
-0.0000000000013395
 11
218694.3482387031
 21
136836.1665349147
 31
-0.0000000000013395
  0
LINE
  5
8C
330
2
100
AcDbEntity
  8
0
370
     9
390
88
100
AcDbLine
 10
218694.3482387031
 20
136836.1665349147
 30
-0.0000000000013395
 11
218694.3482387031
 21
136603.5732616978
 31
-0.0000000000015461
  0
LINE
  5
8D
330
2
100
AcDbEntity
  8
0
370
     9
390
88
100
AcDbLine
 10
218714.3482387031
 20
136816.1665349147
 30
-0.0000000000013573
 11
218714.3482387031
 21
136836.1665349147
 31
-0.0000000000013395
  0
LINE
  5
8E
330
2
100
AcDbEntity
  8
0
370
     9
390
88
100
AcDbLine
 10
218714.3482387031
 20
136836.1665349147
 30
-0.0000000000013395
 11
218470.0357387031
 21
136836.1665349147
 31
-0.0000000000013395
  0
LINE
  5
8F
330
2
100
AcDbEntity
  8
0
370
     9
390
88
100
AcDbLine
 10
218410.0357387031
 20
136836.1665349147
 30
-0.0000000000013395
 11
218410.0357387031
 21
136816.1665349147
 31
-0.0000000000013573
  0
LINE
  5
90
330
2
100
AcDbEntity
  8
0
370
     9
390
88
100
AcDbLine
 10
218410.0357387031
 20
136816.1665349147
 30
-0.0000000000013573
 11
218714.3482387031
 21
136816.1665349147
 31
-0.0000000000013573
  0
LINE
  5
91
330
2
100
AcDbEntity
  8
0
370
     9
390
88
100
AcDbLine
 10
218470.0357387031
 20
136950.1233529878
 30
-0.0000000000012383
 11
218470.0357387031
 21
136956.1233529878
 31
-0.000000000001233
  0
LINE
  5
92
330
2
100
AcDbEntity
  8
0
370
     9
390
88
100
AcDbLine
 10
218470.0357387031
 20
136956.1233529878
 30
-0.000000000001233
 11
217932.5982387031
 21
136956.1233529878
 31
-0.000000000001233
  0
LINE
  5
93
330
2
100
AcDbEntity
  8
0
370
     9
390
88
100
AcDbLine
 10
217938.5982387031
 20
136950.1233529878
 30
-0.0000000000012383
 11
218470.0357387031
 21
136950.1233529878
 31
-0.0000000000012383
  0
LINE
  5
94
330
2
100
AcDbEntity
  8
0
370
     9
390
88
100
AcDbLine
 10
217932.5982387031
 20
136956.1233529878
 30
-0.000000000001233
 11
217932.5982387031
 21
136373.897775469
 31
-0.0000000000017501
  0
LINE
  5
95
330
2
100
AcDbEntity
  8
0
370
     9
390
88
100
AcDbLine
 10
217932.5982387031
 20
136373.897775469
 30
-0.0000000000017501
 11
217938.5982387031
 21
136373.897775469
 31
-0.0000000000017501
  0
LINE
  5
96
330
2
100
AcDbEntity
  8
0
370
     9
390
88
100
AcDbLine
 10
217938.5982387031
 20
136373.897775469
 30
-0.0000000000017501
 11
217938.5982387031
 21
136950.1233529878
 31
-0.0000000000012383
  0
LINE
  5
97
330
2
100
AcDbEntity
  8
0
370
     9
100
AcDbLine
 10
218634.8205228186
 20
135779.5732616978
 30
-0.000000000002278
 11
218634.8205228186
 21
135786.5732616978
 31
-0.0000000000022717
  0
LINE
  5
98
330
2
100
AcDbEntity
  8
0
370
     9
100
AcDbLine
 10
218734.8205228186
 20
135779.5732616978
 30
-0.000000000002278
 11
218734.8205228186
 21
135786.5732616978
 31
-0.0000000000022717
  0
LINE
  5
99
330
2
100
AcDbEntity
  8
0
370
     9
390
9A
100
AcDbLine
 10
218634.8205228186
 20
135763.5732616979
 30
-0.0000000000022922
 11
218734.8205228186
 21
135763.5732616979
 31
-0.0000000000022922
  0
HATCH
  5
9B
330
2
100
AcDbEntity
  8
0
370
     9
100
AcDbHatch
 10
0.0
 20
0.0
 30
-0.0000000001213547
210
0.0
220
-0.0000000000000009
230
1.0
  2
SOLID
 70
     1
 71
     0
 91
        1
 92
        7
 72
     0
 73
     1
 93
       34
 10
218375.7232387031
 20
136564.5732616979
 10
218709.3482387031
 20
136564.5732616979
 10
218814.0982387031
 20
136564.5732616979
 10
218887.9732387031
 20
136564.5732616979
 10
219159.5982387031
 20
136564.5732616978
 10
219159.5982387031
 20
136368.4447341316
 10
219159.5982387031
 20
136197.5769194855
 10
219159.5982387031
 20
136007.5631680814
 10
219159.5982387032
 20
135802.5732616978
 10
218961.7105228186
 20
135802.5732616978
 10
218814.0982387031
 20
135802.5732616978
 10
218734.8205228186
 20
135802.5732616978
 10
218734.8205228186
 20
135763.5732616979
 10
218961.7105228186
 20
135763.5732616979
 10
219198.5982387032
 20
135763.5732616979
 10
219198.5982387031
 20
136007.5631680814
 10
219198.5982387031
 20
136368.4447341316
 10
219198.5982387031
 20
136603.5732616978
 10
218887.9732387031
 20
136603.5732616978
 10
218709.3482387031
 20
136603.5732616978
 10
218375.7232387031
 20
136603.5732616978
 10
218058.5982387031
 20
136603.5732616978
 10
218058.5982387031
 20
136398.897775469
 10
218058.5982387031
 20
136108.2487479267
 10
218058.5982387032
 20
135763.5732616979
 10
218332.7150168947
 20
135763.5732616979
 10
218634.8205228187
 20
135763.5732616979
 10
218634.8205228186
 20
135802.5732616978
 10
218356.3512259186
 20
135802.5732616978
 10
218097.5982387031
 20
135802.5732616978
 10
218097.5982387031
 20
136121.2046453337
 10
218097.5982387031
 20
136197.5769194855
 10
218097.5982387031
 20
136398.897775469
 10
218097.5982387031
 20
136564.5732616978
 97
        0
 75
     0
 76
     1
 47
1.343777311364584
 98
        1
 10
218114.3855393095
 20
136571.736574742
1001
ACAD
1010
0.0
1020
0.0
1030
0.0
  0
LINE
  5
9C
330
2
100
AcDbEntity
  8
0
370
     9
100
AcDbLine
 10
218097.5982387031
 20
136564.5732616979
 30
-0.0000000000015807
 11
218375.7232387031
 21
136564.5732616979
 31
-0.0000000000015807
  0
LINE
  5
9D
330
2
100
AcDbEntity
  8
0
370
     9
100
AcDbLine
 10
218375.7232387031
 20
136603.5732616978
 30
-0.0000000000015461
 11
218058.5982387031
 21
136603.5732616978
 31
-0.0000000000015461
  0
LINE
  5
9E
330
2
100
AcDbEntity
  8
0
370
     9
100
AcDbLine
 10
218375.7232387031
 20
136564.5732616979
 30
-0.0000000000015807
 11
218709.3482387031
 21
136564.5732616979
 31
-0.0000000000015807
  0
LINE
  5
9F
330
2
100
AcDbEntity
  8
0
370
     9
100
AcDbLine
 10
218709.3482387031
 20
136603.5732616978
 30
-0.0000000000015461
 11
218375.7232387031
 21
136603.5732616978
 31
-0.0000000000015461
  0
LINE
  5
A0
330
2
100
AcDbEntity
  8
0
370
     9
100
AcDbLine
 10
218709.3482387031
 20
136564.5732616979
 30
-0.0000000000015807
 11
218814.0982387031
 21
136564.5732616979
 31
-0.0000000000015807
  0
LINE
  5
A1
330
2
100
AcDbEntity
  8
0
370
     9
100
AcDbLine
 10
218814.0982387031
 20
136564.5732616979
 30
-0.0000000000015807
 11
218887.9732387031
 21
136564.5732616979
 31
-0.0000000000015807
  0
LINE
  5
A2
330
2
100
AcDbEntity
  8
0
370
     9
100
AcDbLine
 10
218887.9732387031
 20
136603.5732616978
 30
-0.0000000000015461
 11
218709.3482387031
 21
136603.5732616978
 31
-0.0000000000015461
  0
LINE
  5
A3
330
2
100
AcDbEntity
  8
0
370
     9
100
AcDbLine
 10
218887.9732387031
 20
136564.5732616979
 30
-0.0000000000015807
 11
219159.5982387031
 21
136564.5732616979
 31
-0.0000000000015807
  0
LINE
  5
A4
330
2
100
AcDbEntity
  8
0
370
     9
100
AcDbLine
 10
219198.5982387031
 20
136603.5732616978
 30
-0.0000000000015461
 11
218887.9732387031
 21
136603.5732616978
 31
-0.0000000000015461
  0
LINE
  5
A5
330
2
100
AcDbEntity
  8
0
370
     9
100
AcDbLine
 10
218097.5982387031
 20
135802.5732616978
 30
-0.0000000000022575
 11
218097.5982387031
 21
136121.2046453337
 31
-0.0000000000019745
  0
LINE
  5
A6
330
2
100
AcDbEntity
  8
0
370
     9
100
AcDbLine
 10
218058.5982387031
 20
136108.2487479267
 30
-0.000000000001986
 11
218058.5982387031
 21
135763.5732616979
 31
-0.0000000000022922
  0
LINE
  5
A7
330
2
100
AcDbEntity
  8
0
370
     9
100
AcDbLine
 10
218097.5982387031
 20
136108.2487479267
 30
-0.000000000001986
 11
218097.5982387031
 21
136197.5769194855
 31
-0.0000000000019067
  0
LINE
  5
A8
330
2
100
AcDbEntity
  8
0
370
     9
100
AcDbLine
 10
218097.5982387031
 20
136197.5769194855
 30
-0.0000000000019067
 11
218097.5982387031
 21
136398.897775469
 31
-0.0000000000017279
  0
LINE
  5
A9
330
2
100
AcDbEntity
  8
0
370
     9
100
AcDbLine
 10
218058.5982387031
 20
136398.897775469
 30
-0.0000000000017279
 11
218058.5982387031
 21
136108.2487479267
 31
-0.000000000001986
  0
LINE
  5
AA
330
2
100
AcDbEntity
  8
0
370
     9
100
AcDbLine
 10
218097.5982387031
 20
136398.897775469
 30
-0.0000000000017279
 11
218097.5982387031
 21
136564.5732616979
 31
-0.0000000000015807
  0
LINE
  5
AB
330
2
100
AcDbEntity
  8
0
370
     9
100
AcDbLine
 10
218058.5982387031
 20
136603.5732616978
 30
-0.0000000000015461
 11
218058.5982387031
 21
136398.897775469
 31
-0.0000000000017279
  0
LINE
  5
AC
330
2
100
AcDbEntity
  8
0
370
     9
100
AcDbLine
 10
219159.5982387031
 20
135802.5732616978
 30
-0.0000000000022575
 11
218961.7105228186
 21
135802.5732616978
 31
-0.0000000000022575
  0
LINE
  5
AD
330
2
100
AcDbEntity
  8
0
370
     9
100
AcDbLine
 10
218961.7105228186
 20
135763.5732616979
 30
-0.0000000000022922
 11
219198.5982387031
 21
135763.5732616979
 31
-0.0000000000022922
  0
LINE
  5
AE
330
2
100
AcDbEntity
  8
0
370
     9
100
AcDbLine
 10
218961.7105228186
 20
135802.5732616978
 30
-0.0000000000022575
 11
218814.0982387031
 21
135802.5732616978
 31
-0.0000000000022575
  0
LINE
  5
AF
330
2
100
AcDbEntity
  8
0
370
     9
100
AcDbLine
 10
218814.0982387031
 20
135802.5732616978
 30
-0.0000000000022575
 11
218734.8205228186
 21
135802.5732616978
 31
-0.0000000000022575
  0
LINE
  5
B0
330
2
100
AcDbEntity
  8
0
370
     9
100
AcDbLine
 10
218734.8205228186
 20
135802.5732616978
 30
-0.0000000000022575
 11
218734.8205228186
 21
135763.5732616979
 31
-0.0000000000022922
  0
LINE
  5
B1
330
2
100
AcDbEntity
  8
0
370
     9
100
AcDbLine
 10
218734.8205228186
 20
135763.5732616979
 30
-0.0000000000022922
 11
218961.7105228186
 21
135763.5732616979
 31
-0.0000000000022922
  0
LINE
  5
B2
330
2
100
AcDbEntity
  8
0
370
     9
100
AcDbLine
 10
218332.7150168947
 20
135763.5732616979
 30
-0.0000000000022922
 11
218634.8205228186
 21
135763.5732616979
 31
-0.0000000000022922
  0
LINE
  5
B3
330
2
100
AcDbEntity
  8
0
370
     9
100
AcDbLine
 10
218634.8205228186
 20
135763.5732616979
 30
-0.0000000000022922
 11
218634.8205228186
 21
135823.5732616978
 31
-0.0000000000022638
  0
LINE
  5
B4
330
2
100
AcDbEntity
  8
0
370
     9
100
AcDbLine
 10
218634.8205228186
 20
135802.5732616978
 30
-0.0000000000022575
 11
218356.3512259186
 21
135802.5732616978
 31
-0.0000000000022575
  0
LINE
  5
B5
330
2
100
AcDbEntity
  8
0
370
     9
100
AcDbLine
 10
218356.3512259186
 20
135802.5732616978
 30
-0.0000000000022575
 11
218157.598238703
 21
135802.5732616978
 31
-0.0000000000022575
  0
LINE
  5
B6
330
2
100
AcDbEntity
  8
0
370
     9
100
AcDbLine
 10
218058.5982387031
 20
135763.5732616979
 30
-0.0000000000022922
 11
218332.7150168947
 21
135763.5732616979
 31
-0.0000000000022922
  0
LINE
  5
B7
330
2
100
AcDbEntity
  8
0
370
     9
100
AcDbLine
 10
219159.5982387031
 20
136564.5732616979
 30
-0.0000000000015807
 11
219159.5982387031
 21
136368.4447341316
 31
-0.0000000000017549
  0
LINE
  5
B8
330
2
100
AcDbEntity
  8
0
370
     9
100
AcDbLine
 10
219198.5982387031
 20
136368.4447341316
 30
-0.0000000000017549
 11
219198.5982387031
 21
136603.5732616978
 31
-0.0000000000015461
  0
LINE
  5
B9
330
2
100
AcDbEntity
  8
0
370
     9
100
AcDbLine
 10
219159.5982387031
 20
136368.4447341316
 30
-0.0000000000017549
 11
219159.5982387031
 21
136197.5769194855
 31
-0.0000000000019067
  0
LINE
  5
BA
330
2
100
AcDbEntity
  8
0
370
     9
100
AcDbLine
 10
219159.5982387031
 20
136197.5769194855
 30
-0.0000000000019067
 11
219159.5982387031
 21
136007.5631680814
 31
-0.0000000000020755
  0
LINE
  5
BB
330
2
100
AcDbEntity
  8
0
370
     9
100
AcDbLine
 10
219198.5982387031
 20
136007.5631680814
 30
-0.0000000000020755
 11
219198.5982387031
 21
136368.4447341316
 31
-0.0000000000017549
  0
LINE
  5
BC
330
2
100
AcDbEntity
  8
0
370
     9
100
AcDbLine
 10
219159.5982387031
 20
136007.5631680814
 30
-0.0000000000020755
 11
219159.5982387031
 21
135802.5732616978
 31
-0.0000000000022575
  0
LINE
  5
BD
330
2
100
AcDbEntity
  8
0
370
     9
100
AcDbLine
 10
219198.5982387031
 20
135763.5732616979
 30
-0.0000000000022922
 11
219198.5982387031
 21
136007.5631680814
 31
-0.0000000000020755
  0
DIMENSION
  5
BE
330
2
100
AcDbEntity
  8
0Wymiary-PL
100
AcDbDimension
  2
*D1
 10
217648.9966388889
 20
136603.5732616978
 30
0.0
 11
217568.9966388888
 21
136183.5732616979
 31
0.0
 71
     5
 42
840.0
  3
500
100
AcDbAlignedDimension
 13
218058.5982387031
 23
135763.5732616979
 33
-0.0000000000022922
 14
218058.5982387031
 24
136603.5732616978
 34
-0.0000000000015461
 50
90.0
100
AcDbRotatedDimension
  0
DIMENSION
  5
D7
330
2
100
AcDbEntity
  8
0Wymiary-PL
100
AcDbDimension
  2
*D2
 10
219198.5982387031
 20
137072.9062242922
 30
0.0
 11
218628.5982387031
 21
137152.9062242922
 31
0.0
 71
     5
 42
1140.0
  3
500
100
AcDbAlignedDimension
 13
218058.5982387031
 23
136603.5732616978
 33
-0.0000000000015461
 14
219198.5982387031
 24
136603.5732616978
 34
-0.0000000000015461
100
AcDbRotatedDimension
  0
LINE
  5
E2
330
2
100
AcDbEntity
  8
0
370
     9
100
AcDbLine
 10
219138.5982387031
 20
136543.5732616978
 30
-0.0000000000015994
 11
218118.5982387031
 21
136543.5732616979
 31
-0.0000000000015461
  0
LINE
  5
E3
330
2
100
AcDbEntity
  8
0
370
     9
100
AcDbLine
 10
219138.5982387032
 20
135823.5732616978
 30
-0.0000000000022922
 11
219138.5982387031
 21
136543.5732616978
 31
-0.0000000000015994
  0
LINE
  5
E4
330
2
100
AcDbEntity
  8
0
370
     9
100
AcDbLine
 10
218118.5982387031
 20
135823.5732616978
 30
-0.0000000000022348
 11
219138.5982387032
 21
135823.5732616978
 31
-0.0000000000022922
  0
LINE
  5
E5
330
2
100
AcDbEntity
  8
0
370
     9
100
AcDbLine
 10
218118.5982387031
 20
136543.5732616979
 30
-0.0000000000015461
 11
218118.5982387031
 21
135823.5732616978
 31
-0.0000000000022348
  0
LWPOLYLINE
  5
E6
330
2
100
AcDbEntity
  8
0
370
     9
100
AcDbPolyline
 90
        3
 70
     0
 43
0.0
 38
-47.00000000000175
 10
222329.742751042
 20
136956.1233529878
 10
222867.180251042
 20
136956.1233529878
 10
222867.180251042
 20
136373.897775469
  0
LINE
  5
E7
330
2
100
AcDbEntity
  8
0
370
     9
100
AcDbLine
 10
222329.742751042
 20
137001.1233529878
 30
1691.999999998076
 11
222912.0347004757
 21
137001.1233529878
 31
1691.999999998076
  0
LINE
  5
E8
330
2
100
AcDbEntity
  8
0
370
     9
100
AcDbLine
 10
222912.0347004757
 20
137001.1233529878
 30
-47.00000000008192
 11
222912.0347004757
 21
136373.897775469
 31
-47.00000000008304
  0
3DFACE
  5
E9
330
2
100
AcDbEntity
  8
0
370
     9
100
AcDbFace
 10
222329.742751042
 20
137001.1233529878
 30
1691.999999998076
 11
222349.9038023339
 21
137001.1233529878
 31
1590.444155593001
 12
222348.403802334
 22
136956.1233529878
 32
-47.00000000000122
 13
222329.742751042
 23
136956.1233529878
 33
-47.00000000000122
  0
3DFACE
  5
EA
330
2
100
AcDbEntity
  8
0
370
     9
100
AcDbFace
 10
222349.9038023339
 20
137001.1233529878
 30
1590.444155593001
 11
222370.0648536259
 21
137001.1233529878
 31
1488.888311187926
 12
222367.0648536259
 22
136956.1233529878
 32
-47.00000000000122
 13
222348.403802334
 23
136956.1233529878
 33
-47.00000000000122
  0
3DFACE
  5
EB
330
2
100
AcDbEntity
  8
0
370
     9
100
AcDbFace
 10
222370.0648536259
 20
137001.1233529878
 30
1488.888311187926
 11
222390.2259049179
 21
137001.1233529878
 31
1387.332466782783
 12
222385.7259049179
 22
136956.1233529878
 32
-47.00000000000122
 13
222367.0648536259
 23
136956.1233529878
 33
-47.00000000000122
  0
3DFACE
  5
EC
330
2
100
AcDbEntity
  8
0
370
     9
100
AcDbFace
 10
222390.2259049179
 20
137001.1233529878
 30
1387.332466782851
 11
222410.3869562099
 21
137001.1233529878
 31
1285.77662237763
 12
222404.3869562099
 22
136956.1233529878
 32
-47.00000000000122
 13
222385.7259049179
 23
136956.1233529878
 33
-47.00000000000122
  0
3DFACE
  5
ED
330
2
100
AcDbEntity
  8
0
370
     9
100
AcDbFace
 10
222410.3869562099
 20
137001.1233529878
 30
1285.77662237763
 11
222430.5480075019
 21
137001.1233529878
 31
1184.220777972555
 12
222423.0480075019
 22
136956.1233529878
 32
-47.00000000000122
 13
222404.3869562099
 23
136956.1233529878
 33
-47.00000000000122
  0
3DFACE
  5
EE
330
2
100
AcDbEntity
  8
0
370
     9
100
AcDbFace
 10
222430.5480075019
 20
137001.1233529878
 30
1184.220777972555
 11
222450.7090587938
 21
137001.1233529878
 31
1082.66493356748
 12
222441.7090587938
 22
136956.1233529878
 32
-47.00000000000122
 13
222423.0480075019
 23
136956.1233529878
 33
-47.00000000000122
  0
3DFACE
  5
EF
330
2
100
AcDbEntity
  8
0
370
     9
100
AcDbFace
 10
222450.7090587938
 20
137001.1233529878
 30
1082.66493356748
 11
222470.8701100858
 21
137001.1233529878
 31
981.1090891624052
 12
222460.3701100858
 22
136956.1233529878
 32
-47.00000000000122
 13
222441.7090587938
 23
136956.1233529878
 33
-47.00000000000122
  0
3DFACE
  5
F0
330
2
100
AcDbEntity
  8
0
370
     9
100
AcDbFace
 10
222470.8701100858
 20
137001.1233529878
 30
981.1090891624052
 11
222491.0311613778
 21
137001.1233529878
 31
879.5532447571837
 12
222479.0311613778
 22
136956.1233529878
 32
-47.00000000000122
 13
222460.3701100858
 23
136956.1233529878
 33
-47.00000000000122
  0
3DFACE
  5
F1
330
2
100
AcDbEntity
  8
0
370
     9
100
AcDbFace
 10
222491.0311613778
 20
137001.1233529878
 30
879.5532447571837
 11
222511.1922126698
 21
137001.1233529878
 31
777.9974003521088
 12
222497.6922126698
 22
136956.1233529878
 32
-47.00000000000122
 13
222479.0311613778
 23
136956.1233529878
 33
-47.00000000000122
  0
3DFACE
  5
F2
330
2
100
AcDbEntity
  8
0
370
     9
100
AcDbFace
 10
222511.1922126698
 20
137001.1233529878
 30
777.9974003521088
 11
222531.3532639618
 21
137001.1233529878
 31
676.4415559470339
 12
222516.3532639617
 22
136956.1233529878
 32
-47.00000000000122
 13
222497.6922126698
 23
136956.1233529878
 33
-47.00000000000122
  0
3DFACE
  5
F3
330
2
100
AcDbEntity
  8
0
370
     9
100
AcDbFace
 10
222531.3532639618
 20
137001.1233529878
 30
676.4415559470339
 11
222551.5143152537
 21
137001.1233529878
 31
574.8857115419589
 12
222535.0143152537
 22
136956.1233529878
 32
-47.00000000000122
 13
222516.3532639617
 23
136956.1233529878
 33
-47.00000000000122
  0
3DFACE
  5
F4
330
2
100
AcDbEntity
  8
0
370
     9
100
AcDbFace
 10
222551.5143152537
 20
137001.1233529878
 30
574.8857115419589
 11
222571.6753665457
 21
137001.1233529878
 31
473.3298671367375
 12
222553.6753665457
 22
136956.1233529878
 32
-47.00000000000122
 13
222535.0143152537
 23
136956.1233529878
 33
-47.00000000000122
  0
3DFACE
  5
F5
330
2
100
AcDbEntity
  8
0
370
     9
100
AcDbFace
 10
222571.6753665457
 20
137001.1233529878
 30
473.3298671367375
 11
222591.8364178377
 21
137001.1233529878
 31
371.7740227316626
 12
222572.3364178377
 22
136956.1233529878
 32
-47.00000000000122
 13
222553.6753665457
 23
136956.1233529878
 33
-47.00000000000122
  0
3DFACE
  5
F6
330
2
100
AcDbEntity
  8
0
370
     9
100
AcDbFace
 10
222591.8364178377
 20
137001.1233529878
 30
371.7740227316626
 11
222611.9974691297
 21
137001.1233529878
 31
270.2181783265876
 12
222590.9974691297
 22
136956.1233529878
 32
-47.00000000000122
 13
222572.3364178377
 23
136956.1233529878
 33
-47.00000000000122
  0
3DFACE
  5
F7
330
2
100
AcDbEntity
  8
0
370
     9
100
AcDbFace
 10
222611.9974691297
 20
137001.1233529878
 30
270.2181783265876
 11
222632.1585204217
 21
137001.1233529878
 31
168.662333921366
 12
222609.6585204217
 22
136956.1233529878
 32
-47.00000000000122
 13
222590.9974691297
 23
136956.1233529878
 33
-47.00000000000122
  0
3DFACE
  5
F8
330
2
100
AcDbEntity
  8
0
370
     9
100
AcDbFace
 10
222632.1585204217
 20
137001.1233529878
 30
168.662333921366
 11
222652.3195717136
 21
137001.1233529878
 31
67.10648951622326
 12
222628.3195717136
 22
136956.1233529878
 32
-47.00000000000122
 13
222609.6585204217
 23
136956.1233529878
 33
-47.00000000000122
  0
3DFACE
  5
F9
330
2
100
AcDbEntity
  8
0
370
     9
100
AcDbFace
 10
222652.3195717136
 20
137001.1233529878
 30
67.1064895162911
 11
222672.4806230056
 21
137001.1233529878
 31
-34.4493548887838
 12
222646.9806230056
 22
136956.1233529878
 32
-47.00000000000122
 13
222628.3195717136
 23
136956.1233529878
 33
-47.00000000000122
  0
3DFACE
  5
FA
330
2
100
AcDbEntity
  8
0
370
     9
100
AcDbFace
 10
222672.4806230056
 20
137001.1233529878
 30
-34.4493548887838
 11
222692.6416742976
 21
137001.1233529878
 31
-136.0051992938587
 12
222665.6416742976
 22
136956.1233529878
 32
-47.00000000000122
 13
222646.9806230056
 23
136956.1233529878
 33
-47.00000000000122
  0
3DFACE
  5
FB
330
2
100
AcDbEntity
  8
0
370
     9
100
AcDbFace
 10
222692.6416742976
 20
137001.1233529878
 30
-136.0051992938587
 11
222712.8027255896
 21
137001.1233529878
 31
-237.5610436990801
 12
222684.3027255896
 22
136956.1233529878
 32
-47.00000000000122
 13
222665.6416742976
 23
136956.1233529878
 33
-47.00000000000122
  0
3DFACE
  5
FC
330
2
100
AcDbEntity
  8
0
370
     9
100
AcDbFace
 10
222712.8027255896
 20
137001.1233529878
 30
-237.5610436990803
 11
222732.9637768816
 21
137001.1233529878
 31
-339.1168881041551
 12
222702.9637768815
 22
136956.1233529878
 32
-47.00000000000122
 13
222684.3027255896
 23
136956.1233529878
 33
-47.00000000000122
  0
3DFACE
  5
FD
330
2
100
AcDbEntity
  8
0
370
     9
100
AcDbFace
 10
222732.9637768816
 20
137001.1233529878
 30
-339.1168881041551
 11
222753.1248281735
 21
137001.1233529878
 31
-440.67273250923
 12
222721.6248281735
 22
136956.1233529878
 32
-47.00000000000122
 13
222702.9637768815
 23
136956.1233529878
 33
-47.00000000000122
  0
3DFACE
  5
FE
330
2
100
AcDbEntity
  8
0
370
     9
100
AcDbFace
 10
222753.1248281735
 20
137001.1233529878
 30
-440.67273250923
 11
222773.2858794655
 21
137001.1233529878
 31
-542.2285769143051
 12
222740.2858794655
 22
136956.1233529878
 32
-47.00000000000122
 13
222721.6248281735
 23
136956.1233529878
 33
-47.00000000000122
  0
3DFACE
  5
FF
330
2
100
AcDbEntity
  8
0
370
     9
100
AcDbFace
 10
222773.2858794655
 20
137001.1233529878
 30
-542.2285769143051
 11
222793.4469307575
 21
137001.1233529878
 31
-643.7844213195266
 12
222758.9469307575
 22
136956.1233529878
 32
-47.00000000000122
 13
222740.2858794655
 23
136956.1233529878
 33
-47.00000000000122
  0
3DFACE
  5
100
330
2
100
AcDbEntity
  8
0
370
     9
100
AcDbFace
 10
222793.4469307575
 20
137001.1233529878
 30
-643.7844213195266
 11
222813.6079820495
 21
137001.1233529878
 31
-745.3402657246015
 12
222777.6079820495
 22
136956.1233529878
 32
-47.00000000000122
 13
222758.9469307575
 23
136956.1233529878
 33
-47.00000000000122
  0
3DFACE
  5
101
330
2
100
AcDbEntity
  8
0
370
     9
100
AcDbFace
 10
222813.6079820495
 20
137001.1233529878
 30
-745.3402657246015
 11
222833.7690333415
 21
137001.1233529878
 31
-846.8961101296763
 12
222796.2690333415
 22
136956.1233529878
 32
-47.00000000000122
 13
222777.6079820495
 23
136956.1233529878
 33
-47.00000000000122
  0
3DFACE
  5
102
330
2
100
AcDbEntity
  8
0
370
     9
100
AcDbFace
 10
222833.7690333415
 20
137001.1233529878
 30
-846.8961101296764
 11
222853.9300846335
 21
137001.1233529878
 31
-948.4519545348979
 12
222814.9300846335
 22
136956.1233529878
 32
-47.00000000000122
 13
222796.2690333415
 23
136956.1233529878
 33
-47.00000000000122
  0
3DFACE
  5
103
330
2
100
AcDbEntity
  8
0
370
     9
100
AcDbFace
 10
222853.9300846335
 20
137001.1233529878
 30
-948.4519545348979
 11
222874.0911359254
 21
137001.1233529878
 31
-1050.007798939973
 12
222833.5911359254
 22
136956.1233529878
 32
-47.00000000000122
 13
222814.9300846335
 23
136956.1233529878
 33
-47.00000000000122
  0
3DFACE
  5
104
330
2
100
AcDbEntity
  8
0
370
     9
100
AcDbFace
 10
222874.0911359254
 20
137001.1233529878
 30
-1050.007798939973
 11
222894.2521872174
 21
137001.1233529878
 31
-1151.563643345048
 12
222852.2521872174
 22
136956.1233529878
 32
-47.00000000000122
 13
222833.5911359254
 23
136956.1233529878
 33
-47.00000000000122
  0
3DFACE
  5
105
330
2
100
AcDbEntity
  8
0
370
     9
100
AcDbFace
 10
222894.2521872174
 20
137001.1233529878
 30
-47.00000000006902
 11
222912.0347004757
 21
137001.1233529878
 31
-47.00000000008238
 12
222867.180251042
 22
136956.1233529878
 32
-47.00000000000071
 13
222852.2521872174
 23
136956.1233529878
 33
-47.00000000000122
  0
3DFACE
  5
106
330
2
100
AcDbEntity
  8
0
370
     9
100
AcDbFace
 10
222912.0347004757
 20
137001.1233529878
 30
-47.00000000015013
 11
222912.0347004757
 21
136978.5837636621
 31
-47.00000000008242
 12
222867.180251042
 22
136933.7293142284
 32
-47.00000000000125
 13
222867.1748177274
 23
136956.1181686323
 33
-46.86108730963334
  0
3DFACE
  5
107
330
2
100
AcDbEntity
  8
0
370
     9
100
AcDbFace
 10
222912.0347004757
 20
136978.5837636621
 30
-47.00000000008242
 11
222912.0347004757
 21
136958.4275640557
 31
-47.00000000008246
 12
222867.180251042
 22
136915.0682629364
 32
-47.00000000000126
 13
222867.180251042
 23
136933.7293142284
 33
-47.00000000000125
  0
3DFACE
  5
108
330
2
100
AcDbEntity
  8
0
370
     9
100
AcDbFace
 10
222912.0347004757
 20
136958.4275640557
 30
-47.00000000008246
 11
222912.0347004757
 21
136938.2713644493
 31
-47.00000000008249
 12
222867.180251042
 22
136896.4072116444
 32
-47.00000000000128
 13
222867.180251042
 23
136915.0682629364
 33
-47.00000000000126
  0
3DFACE
  5
109
330
2
100
AcDbEntity
  8
0
370
     9
100
AcDbFace
 10
222912.0347004757
 20
136938.2713644493
 30
-902.9841601100677
 11
222912.0347004757
 21
136918.1151648428
 31
-47.00000000008253
 12
222867.180251042
 22
136877.7461603525
 32
-47.00000000000129
 13
222867.180251042
 23
136896.4072116444
 33
-47.00000000000128
  0
3DFACE
  5
10A
330
2
100
AcDbEntity
  8
0
370
     9
100
AcDbFace
 10
222912.0347004757
 20
136918.1151648428
 30
-47.00000000008253
 11
222912.0347004757
 21
136897.9589652364
 31
-47.00000000008245
 12
222867.180251042
 22
136859.0851090605
 32
-47.00000000000131
 13
222867.180251042
 23
136877.7461603525
 33
-47.00000000000129
  0
3DFACE
  5
10B
330
2
100
AcDbEntity
  8
0
370
     9
100
AcDbFace
 10
222912.0347004757
 20
136897.9589652364
 30
-47.00000000008245
 11
222912.0347004757
 21
136877.8027656299
 31
-47.00000000008248
 12
222867.180251042
 22
136840.4240577685
 32
-47.00000000000133
 13
222867.180251042
 23
136859.0851090605
 33
-47.00000000000131
  0
3DFACE
  5
10C
330
2
100
AcDbEntity
  8
0
370
     9
100
AcDbFace
 10
222912.0347004757
 20
136877.8027656299
 30
-47.00000000008248
 11
222912.0347004757
 21
136857.6465660235
 31
-47.00000000008252
 12
222867.180251042
 22
136821.7630064766
 32
-47.00000000000135
 13
222867.180251042
 23
136840.4240577685
 33
-47.00000000000133
  0
3DFACE
  5
10D
330
2
100
AcDbEntity
  8
0
370
     9
100
AcDbFace
 10
222912.0347004757
 20
136857.6465660235
 30
-515.2476131500637
 11
222912.0347004757
 21
136837.4903664171
 31
-47.00000000008255
 12
222867.180251042
 22
136803.1019551846
 32
-47.00000000000136
 13
222867.180251042
 23
136821.7630064766
 33
-47.00000000000135
  0
3DFACE
  5
10E
330
2
100
AcDbEntity
  8
0
370
     9
100
AcDbFace
 10
222912.0347004757
 20
136837.4903664171
 30
-47.00000000008255
 11
222912.0347004757
 21
136817.3341668106
 31
-47.00000000008259
 12
222867.180251042
 22
136784.4409038926
 32
-47.00000000000137
 13
222867.180251042
 23
136803.1019551846
 33
-47.00000000000136
  0
3DFACE
  5
10F
330
2
100
AcDbEntity
  8
0
370
     9
100
AcDbFace
 10
222912.0347004757
 20
136817.3341668106
 30
-47.00000000008259
 11
222912.0347004757
 21
136797.1779672042
 31
-47.00000000008262
 12
222867.180251042
 22
136765.7798526006
 32
-47.0000000000014
 13
222867.180251042
 23
136784.4409038926
 33
-47.00000000000137
  0
3DFACE
  5
110
330
2
100
AcDbEntity
  8
0
370
     9
100
AcDbFace
 10
222912.0347004757
 20
136797.1779672042
 30
-47.00000000008262
 11
222912.0347004757
 21
136777.0217675978
 31
-47.00000000008263
 12
222867.180251042
 22
136747.1188013086
 32
-47.00000000000141
 13
222867.180251042
 23
136765.7798526006
 33
-47.0000000000014
  0
3DFACE
  5
111
330
2
100
AcDbEntity
  8
0
370
     9
100
AcDbFace
 10
222912.0347004757
 20
136777.0217675978
 30
-47.00000000008263
 11
222912.0347004757
 21
136756.8655679913
 31
-47.00000000008265
 12
222867.180251042
 22
136728.4577500166
 32
-47.00000000000143
 13
222867.180251042
 23
136747.1188013086
 33
-47.00000000000141
  0
3DFACE
  5
112
330
2
100
AcDbEntity
  8
0
370
     9
100
AcDbFace
 10
222912.0347004757
 20
136756.8655679913
 30
-47.00000000008265
 11
222912.0347004757
 21
136736.7093683849
 31
-47.00000000008268
 12
222867.180251042
 22
136709.7966987247
 32
-47.00000000000144
 13
222867.180251042
 23
136728.4577500166
 33
-47.00000000000143
  0
3DFACE
  5
113
330
2
100
AcDbEntity
  8
0
370
     9
100
AcDbFace
 10
222912.0347004757
 20
136736.7093683849
 30
-47.00000000008268
 11
222912.0347004757
 21
136716.5531687784
 31
-47.00000000008271
 12
222867.180251042
 22
136691.1356474327
 32
-47.00000000000146
 13
222867.180251042
 23
136709.7966987247
 33
-47.00000000000144
  0
3DFACE
  5
114
330
2
100
AcDbEntity
  8
0
370
     9
100
AcDbFace
 10
222912.0347004757
 20
136716.5531687784
 30
-47.00000000008271
 11
222912.0347004757
 21
136696.396969172
 31
-47.00000000008269
 12
222867.180251042
 22
136672.4745961407
 32
-47.00000000000147
 13
222867.180251042
 23
136691.1356474327
 33
-47.00000000000146
  0
3DFACE
  5
115
330
2
100
AcDbEntity
  8
0
370
     9
100
AcDbFace
 10
222912.0347004757
 20
136696.396969172
 30
-47.00000000008269
 11
222912.0347004757
 21
136676.2407695656
 31
-47.00000000008272
 12
222867.180251042
 22
136653.8135448487
 32
-47.0000000000015
 13
222867.180251042
 23
136672.4745961407
 33
-47.00000000000147
  0
3DFACE
  5
116
330
2
100
AcDbEntity
  8
0
370
     9
100
AcDbFace
 10
222912.0347004757
 20
136676.2407695656
 30
-47.00000000008272
 11
222912.0347004757
 21
136656.0845699591
 31
-47.00000000008276
 12
222867.180251042
 22
136635.1524935567
 32
-47.00000000000151
 13
222867.180251042
 23
136653.8135448487
 33
-47.0000000000015
  0
3DFACE
  5
117
330
2
100
AcDbEntity
  8
0
370
     9
100
AcDbFace
 10
222912.0347004757
 20
136656.0845699591
 30
-47.00000000008276
 11
222912.0347004757
 21
136635.9283703527
 31
-47.00000000008279
 12
222867.180251042
 22
136616.4914422647
 32
-47.00000000000152
 13
222867.180251042
 23
136635.1524935567
 33
-47.00000000000151
  0
3DFACE
  5
118
330
2
100
AcDbEntity
  8
0
370
     9
100
AcDbFace
 10
222912.0347004757
 20
136635.9283703527
 30
-47.00000000008279
 11
222912.0347004757
 21
136615.7721707463
 31
-47.00000000008283
 12
222867.180251042
 22
136597.8303909728
 32
-47.00000000000154
 13
222867.180251042
 23
136616.4914422647
 33
-47.00000000000152
  0
3DFACE
  5
119
330
2
100
AcDbEntity
  8
0
370
     9
100
AcDbFace
 10
222912.0347004757
 20
136615.7721707463
 30
-47.00000000008283
 11
222912.0347004757
 21
136595.6159711398
 31
-47.00000000008286
 12
222867.180251042
 22
136579.1693396808
 32
-47.00000000000156
 13
222867.180251042
 23
136597.8303909728
 33
-47.00000000000154
  0
3DFACE
  5
11A
330
2
100
AcDbEntity
  8
0
370
     9
100
AcDbFace
 10
222912.0347004757
 20
136595.6159711398
 30
744.8961644696014
 11
222912.0347004757
 21
136575.4597715334
 31
-47.0000000000829
 12
222867.180251042
 22
136560.5082883888
 32
-47.00000000000158
 13
222867.180251042
 23
136579.1693396808
 33
-47.00000000000156
  0
3DFACE
  5
11B
330
2
100
AcDbEntity
  8
0
370
     9
100
AcDbFace
 10
222912.0347004757
 20
136575.4597715334
 30
-47.00000000008285
 11
222912.0347004757
 21
136555.303571927
 31
-47.00000000008294
 12
222867.180251042
 22
136541.8472370969
 32
-47.0000000000016
 13
222867.180251042
 23
136560.5082883888
 33
-47.00000000000158
  0
3DFACE
  5
11C
330
2
100
AcDbEntity
  8
0
370
     9
100
AcDbFace
 10
222912.0347004757
 20
136555.303571927
 30
-47.00000000008294
 11
222912.0347004757
 21
136535.1473723205
 31
-47.00000000008298
 12
222867.180251042
 22
136523.1861858049
 32
-47.00000000000161
 13
222867.180251042
 23
136541.8472370969
 33
-47.0000000000016
  0
3DFACE
  5
11D
330
2
100
AcDbEntity
  8
0
370
     9
100
AcDbFace
 10
222912.0347004757
 20
136535.1473723205
 30
-47.0000000000829
 11
222912.0347004757
 21
136514.9911727141
 31
-47.00000000008301
 12
222867.180251042
 22
136504.5251345129
 32
-47.00000000000162
 13
222867.180251042
 23
136523.1861858049
 33
-47.00000000000161
  0
3DFACE
  5
11E
330
2
100
AcDbEntity
  8
0
370
     9
100
AcDbFace
 10
222912.0347004757
 20
136514.9911727141
 30
-47.00000000008301
 11
222912.0347004757
 21
136494.8349731077
 31
-47.00000000008305
 12
222867.180251042
 22
136485.8640832209
 32
-47.00000000000165
 13
222867.180251042
 23
136504.5251345129
 33
-47.00000000000162
  0
3DFACE
  5
11F
330
2
100
AcDbEntity
  8
0
370
     9
100
AcDbFace
 10
222912.0347004757
 20
136494.8349731077
 30
-47.00000000008294
 11
222912.0347004757
 21
136475.0631911979
 31
-47.00000000008309
 12
222867.180251042
 22
136467.2030319289
 32
-47.00000000000166
 13
222867.180251042
 23
136485.8640832209
 33
-47.00000000000165
  0
3DFACE
  5
120
330
2
100
AcDbEntity
  8
0
370
     9
100
AcDbFace
 10
222912.0347004757
 20
136475.0631911979
 30
-47.00000000008309
 11
222912.0347004757
 21
136455.7006518492
 31
-47.00000000008289
 12
222867.180251042
 22
136448.5419806369
 32
-47.00000000000168
 13
222867.180251042
 23
136467.2030319289
 33
-47.00000000000166
  0
3DFACE
  5
121
330
2
100
AcDbEntity
  8
0
370
     9
100
AcDbFace
 10
222912.0347004757
 20
136455.7006518492
 30
-47.00000000008289
 11
222912.0347004757
 21
136434.3663742883
 31
-47.00000000008293
 12
222867.180251042
 22
136429.880929345
 32
-47.00000000000169
 13
222867.180251042
 23
136448.5419806369
 33
-47.00000000000168
  0
3DFACE
  5
122
330
2
100
AcDbEntity
  8
0
370
     9
100
AcDbFace
 10
222912.0347004757
 20
136434.3663742883
 30
-47.00000000008293
 11
222912.0347004757
 21
136414.3639417605
 31
-47.00000000008297
 12
222867.180251042
 22
136411.219878053
 32
-47.00000000000171
 13
222867.180251042
 23
136429.880929345
 33
-47.00000000000169
  0
3DFACE
  5
123
330
2
100
AcDbEntity
  8
0
370
     9
100
AcDbFace
 10
222912.0347004757
 20
136414.3639417605
 30
-47.00000000008297
 11
222912.0347004757
 21
136394.1308586148
 31
-47.00000000008301
 12
222867.180251042
 22
136392.558826761
 32
-47.00000000000172
 13
222867.180251042
 23
136411.219878053
 33
-47.00000000000171
  0
3DFACE
  5
124
330
2
100
AcDbEntity
  8
0
370
     9
100
AcDbFace
 10
222912.0347004757
 20
136394.1308586148
 30
-47.00000000008301
 11
222912.0347004757
 21
136373.897775469
 31
-47.00000000008304
 12
222867.180251042
 22
136373.897775469
 32
-47.00000000000175
 13
222867.180251042
 23
136392.558826761
 33
-47.00000000000172
  0
LINE
  5
125
330
2
100
AcDbEntity
  8
0
370
     9
100
AcDbLine
 10
222264.9579669265
 20
135583.5732616978
 30
-0.000000000002452
 11
221964.9579669265
 21
135583.5732616978
 31
-0.000000000002452
  0
LINE
  5
126
330
2
100
AcDbEntity
  8
0
370
     9
100
AcDbLine
 10
221964.9579669265
 20
135583.5732616978
 30
-0.000000000002452
 11
221964.9579669265
 21
135763.5732616979
 31
-0.0000000000022922
  0
LINE
  5
127
330
2
100
AcDbEntity
  8
0
370
     9
100
AcDbLine
 10
221964.9579669265
 20
135763.5732616979
 30
-0.0000000000022922
 11
222264.9579669265
 21
135763.5732616979
 31
-0.0000000000022922
  0
LINE
  5
128
330
2
100
AcDbEntity
  8
0
370
     9
100
AcDbLine
 10
222264.9579669265
 20
135763.5732616979
 30
-0.0000000000022922
 11
222264.9579669265
 21
135583.5732616978
 31
-0.000000000002452
  0
LINE
  5
129
330
2
100
AcDbEntity
  8
0
370
     9
100
AcDbLine
 10
222105.430251042
 20
136603.5732616978
 30
-0.0000000000015461
 11
222105.430251042
 21
136816.1665349147
 31
-0.0000000000013573
  0
LINE
  5
12A
330
2
100
AcDbEntity
  8
0
370
     9
100
AcDbLine
 10
222105.430251042
 20
136816.1665349147
 30
-0.0000000000013573
 11
222389.7427510419
 21
136816.1665349147
 31
-0.0000000000013573
  0
LINE
  5
12B
330
2
100
AcDbEntity
  8
0
370
     9
100
AcDbLine
 10
222389.7427510419
 20
136816.1665349147
 30
-0.0000000000013573
 11
222389.7427510419
 21
136950.1233529878
 31
-0.0000000000012383
  0
LINE
  5
12C
330
2
100
AcDbEntity
  8
0
370
     9
100
AcDbLine
 10
222389.7427510419
 20
136950.1233529878
 30
-0.0000000000012383
 11
222861.180251042
 21
136950.1233529878
 31
-0.0000000000012383
  0
LINE
  5
12D
330
2
100
AcDbEntity
  8
0
370
     9
100
AcDbLine
 10
222861.180251042
 20
136950.1233529878
 30
-0.0000000000012383
 11
222861.180251042
 21
136433.897775469
 31
-0.0000000000016968
  0
LINE
  5
12E
330
2
100
AcDbEntity
  8
0
370
     9
100
AcDbLine
 10
222861.180251042
 20
136433.897775469
 30
-0.0000000000016968
 11
222741.180251042
 21
136433.897775469
 31
-0.0000000000016968
  0
LINE
  5
12F
330
2
100
AcDbEntity
  8
0
370
     9
100
AcDbLine
 10
222741.180251042
 20
136433.897775469
 30
-0.0000000000016968
 11
222741.180251042
 21
136603.5732616978
 31
-0.0000000000015461
  0
LINE
  5
130
330
2
100
AcDbEntity
  8
0
370
     9
100
AcDbLine
 10
222105.430251042
 20
136603.5732616978
 30
-0.0000000000015461
 11
222105.430251042
 21
136816.1665349147
 31
-0.0000000000013573
  0
LINE
  5
131
330
2
100
AcDbEntity
  8
0
370
     9
100
AcDbLine
 10
222105.430251042
 20
136816.1665349147
 30
-0.0000000000013573
 11
222359.742751042
 21
136816.1665349147
 31
-0.0000000000013573
  0
LINE
  5
132
330
2
100
AcDbEntity
  8
0
370
     9
100
AcDbLine
 10
222359.742751042
 20
136816.1665349147
 30
-0.0000000000013573
 11
222359.742751042
 21
136950.1233529878
 31
-0.0000000000012383
  0
LINE
  5
133
330
2
100
AcDbEntity
  8
0
370
     9
100
AcDbLine
 10
222359.742751042
 20
136950.1233529878
 30
-0.0000000000012383
 11
222861.180251042
 21
136950.1233529878
 31
-0.0000000000012383
  0
LINE
  5
134
330
2
100
AcDbEntity
  8
0
370
     9
100
AcDbLine
 10
222861.180251042
 20
136950.1233529878
 30
-0.0000000000012383
 11
222861.180251042
 21
136403.897775469
 31
-0.0000000000017235
  0
LINE
  5
135
330
2
100
AcDbEntity
  8
0
370
     9
100
AcDbLine
 10
222861.180251042
 20
136403.897775469
 30
-0.0000000000017235
 11
222741.180251042
 21
136403.897775469
 31
-0.0000000000017235
  0
LINE
  5
136
330
2
100
AcDbEntity
  8
0
370
     9
100
AcDbLine
 10
222741.180251042
 20
136403.897775469
 30
-0.0000000000017235
 11
222741.180251042
 21
136603.5732616978
 31
-0.0000000000015461
  0
LINE
  5
137
330
2
100
AcDbEntity
  8
0
370
     9
100
AcDbLine
 10
222105.430251042
 20
136603.5732616978
 30
-0.0000000000015461
 11
222105.430251042
 21
136816.1665349147
 31
-0.0000000000013573
  0
LINE
  5
138
330
2
100
AcDbEntity
  8
0
370
     9
100
AcDbLine
 10
222105.430251042
 20
136816.1665349147
 30
-0.0000000000013573
 11
222329.742751042
 21
136816.1665349147
 31
-0.0000000000013573
  0
LINE
  5
139
330
2
100
AcDbEntity
  8
0
370
     9
100
AcDbLine
 10
222329.742751042
 20
136816.1665349147
 30
-0.0000000000013573
 11
222329.742751042
 21
136950.1233529878
 31
-0.0000000000012383
  0
LINE
  5
13A
330
2
100
AcDbEntity
  8
0
370
     9
100
AcDbLine
 10
222329.742751042
 20
136950.1233529878
 30
-0.0000000000012383
 11
222861.180251042
 21
136950.1233529878
 31
-0.0000000000012383
  0
LINE
  5
13B
330
2
100
AcDbEntity
  8
0
370
     9
100
AcDbLine
 10
222861.180251042
 20
136950.1233529878
 30
-0.0000000000012383
 11
222861.180251042
 21
136373.897775469
 31
-0.0000000000017501
  0
LINE
  5
13C
330
2
100
AcDbEntity
  8
0
370
     9
100
AcDbLine
 10
222861.180251042
 20
136373.897775469
 30
-0.0000000000017501
 11
222741.180251042
 21
136373.897775469
 31
-0.0000000000017501
  0
LINE
  5
13D
330
2
100
AcDbEntity
  8
0
370
     9
100
AcDbLine
 10
222741.180251042
 20
136373.897775469
 30
-0.0000000000017501
 11
222741.180251042
 21
136603.5732616978
 31
-0.0000000000015461
  0
LINE
  5
13E
330
2
100
AcDbEntity
  8
0
370
     9
100
AcDbLine
 10
222294.9579669265
 20
135553.5732616979
 30
-0.0000000000024787
 11
221934.9579669265
 21
135553.5732616979
 31
-0.0000000000024787
  0
LINE
  5
13F
330
2
100
AcDbEntity
  8
0
370
     9
100
AcDbLine
 10
221934.9579669265
 20
135553.5732616979
 30
-0.0000000000024787
 11
221934.9579669265
 21
135763.5732616979
 31
-0.0000000000022922
  0
LINE
  5
140
330
2
100
AcDbEntity
  8
0
370
     9
100
AcDbLine
 10
221934.9579669265
 20
135763.5732616979
 30
-0.0000000000022922
 11
222294.9579669265
 21
135763.5732616979
 31
-0.0000000000022922
  0
LINE
  5
141
330
2
100
AcDbEntity
  8
0
370
     9
100
AcDbLine
 10
222294.9579669265
 20
135763.5732616979
 30
-0.0000000000022922
 11
222294.9579669265
 21
135553.5732616979
 31
-0.0000000000024787
  0
LINE
  5
142
330
2
100
AcDbEntity
  8
0
370
     9
100
AcDbLine
 10
221994.9579669265
 20
135763.5732616979
 30
-0.0000000000022922
 11
222234.9579669265
 21
135763.5732616979
 31
-0.0000000000022922
  0
LINE
  5
143
330
2
100
AcDbEntity
  8
0
370
     9
100
AcDbLine
 10
222234.9579669265
 20
135763.5732616979
 30
-0.0000000000022922
 11
222234.9579669265
 21
135613.5732616978
 31
-0.0000000000024254
  0
LINE
  5
144
330
2
100
AcDbEntity
  8
0
370
     9
100
AcDbLine
 10
222234.9579669265
 20
135613.5732616978
 30
-0.0000000000024254
 11
221994.9579669265
 21
135613.5732616978
 31
-0.0000000000024254
  0
LINE
  5
145
330
2
100
AcDbEntity
  8
0
370
     9
100
AcDbLine
 10
221994.9579669265
 20
135613.5732616978
 30
-0.0000000000024254
 11
221994.9579669265
 21
135763.5732616979
 31
-0.0000000000022922
  0
LINE
  5
146
330
2
100
AcDbEntity
  8
0
370
     9
390
88
100
AcDbLine
 10
222702.180251042
 20
136564.5732616979
 30
-0.0000000000015807
 11
222604.055251042
 21
136564.5732616979
 31
-0.0000000000015807
  0
LINE
  5
147
330
2
100
AcDbEntity
  8
0
370
     9
390
88
100
AcDbLine
 10
222105.430251042
 20
136603.5732616978
 30
-0.0000000000015461
 11
222085.430251042
 21
136603.5732616978
 31
-0.0000000000015461
  0
LINE
  5
148
330
2
100
AcDbEntity
  8
0
370
     9
390
88
100
AcDbLine
 10
222085.430251042
 20
136603.5732616978
 30
-0.0000000000015461
 11
222085.430251042
 21
136836.1665349147
 31
-0.0000000000013395
  0
LINE
  5
149
330
2
100
AcDbEntity
  8
0
370
     9
390
88
100
AcDbLine
 10
222085.430251042
 20
136836.1665349147
 30
-0.0000000000013395
 11
222105.430251042
 21
136836.1665349147
 31
-0.0000000000013395
  0
LINE
  5
14A
330
2
100
AcDbEntity
  8
0
370
     9
390
88
100
AcDbLine
 10
222105.430251042
 20
136836.1665349147
 30
-0.0000000000013395
 11
222105.430251042
 21
136603.5732616978
 31
-0.0000000000015461
  0
LINE
  5
14B
330
2
100
AcDbEntity
  8
0
370
     9
390
88
100
AcDbLine
 10
222085.430251042
 20
136816.1665349147
 30
-0.0000000000013573
 11
222085.430251042
 21
136836.1665349147
 31
-0.0000000000013395
  0
LINE
  5
14C
330
2
100
AcDbEntity
  8
0
370
     9
390
88
100
AcDbLine
 10
222085.430251042
 20
136836.1665349147
 30
-0.0000000000013395
 11
222329.742751042
 21
136836.1665349147
 31
-0.0000000000013395
  0
LINE
  5
14D
330
2
100
AcDbEntity
  8
0
370
     9
390
88
100
AcDbLine
 10
222389.7427510419
 20
136836.1665349147
 30
-0.0000000000013395
 11
222389.7427510419
 21
136816.1665349147
 31
-0.0000000000013573
  0
LINE
  5
14E
330
2
100
AcDbEntity
  8
0
370
     9
390
88
100
AcDbLine
 10
222389.7427510419
 20
136816.1665349147
 30
-0.0000000000013573
 11
222085.430251042
 21
136816.1665349147
 31
-0.0000000000013573
  0
LINE
  5
14F
330
2
100
AcDbEntity
  8
0
370
     9
390
88
100
AcDbLine
 10
222329.742751042
 20
136950.1233529878
 30
-0.0000000000012383
 11
222329.742751042
 21
136956.1233529878
 31
-0.000000000001233
  0
LINE
  5
150
330
2
100
AcDbEntity
  8
0
370
     9
390
88
100
AcDbLine
 10
222329.742751042
 20
136956.1233529878
 30
-0.000000000001233
 11
222867.180251042
 21
136956.1233529878
 31
-0.000000000001233
  0
LINE
  5
151
330
2
100
AcDbEntity
  8
0
370
     9
390
88
100
AcDbLine
 10
222861.180251042
 20
136950.1233529878
 30
-0.0000000000012383
 11
222329.742751042
 21
136950.1233529878
 31
-0.0000000000012383
  0
LINE
  5
152
330
2
100
AcDbEntity
  8
0
370
     9
390
88
100
AcDbLine
 10
222867.180251042
 20
136956.1233529878
 30
-0.000000000001233
 11
222867.180251042
 21
136373.897775469
 31
-0.0000000000017501
  0
LINE
  5
153
330
2
100
AcDbEntity
  8
0
370
     9
390
88
100
AcDbLine
 10
222867.180251042
 20
136373.897775469
 30
-0.0000000000017501
 11
222861.180251042
 21
136373.897775469
 31
-0.0000000000017501
  0
LINE
  5
154
330
2
100
AcDbEntity
  8
0
370
     9
390
88
100
AcDbLine
 10
222861.180251042
 20
136373.897775469
 30
-0.0000000000017501
 11
222861.180251042
 21
136950.1233529878
 31
-0.0000000000012383
  0
LINE
  5
155
330
2
100
AcDbEntity
  8
0
370
     9
100
AcDbLine
 10
222164.9579669265
 20
135779.5732616978
 30
-0.000000000002278
 11
222164.9579669265
 21
135786.5732616978
 31
-0.0000000000022717
  0
LINE
  5
156
330
2
100
AcDbEntity
  8
0
370
     9
100
AcDbLine
 10
222064.9579669265
 20
135779.5732616978
 30
-0.000000000002278
 11
222064.9579669265
 21
135786.5732616978
 31
-0.0000000000022717
  0
LINE
  5
157
330
2
100
AcDbEntity
  8
0
370
     9
390
9A
100
AcDbLine
 10
222164.9579669265
 20
135763.5732616979
 30
-0.0000000000022922
 11
222064.9579669265
 21
135763.5732616979
 31
-0.0000000000022922
  0
HATCH
  5
158
330
2
100
AcDbEntity
  8
0
370
     9
100
AcDbHatch
 10
0.0
 20
0.0
 30
-0.0000000001213547
210
0.0
220
-0.0000000000000009
230
1.0
  2
SOLID
 70
     1
 71
     0
 91
        1
 92
        7
 72
     0
 73
     1
 93
       34
 10
222424.055251042
 20
136564.5732616979
 10
222090.430251042
 20
136564.5732616979
 10
221985.680251042
 20
136564.5732616979
 10
221911.805251042
 20
136564.5732616979
 10
221640.180251042
 20
136564.5732616978
 10
221640.180251042
 20
136368.4447341316
 10
221640.180251042
 20
136197.5769194855
 10
221640.180251042
 20
136007.5631680814
 10
221640.1802510419
 20
135802.5732616978
 10
221838.0679669265
 20
135802.5732616978
 10
221985.680251042
 20
135802.5732616978
 10
222064.9579669264
 20
135802.5732616978
 10
222064.9579669265
 20
135763.5732616979
 10
221838.0679669265
 20
135763.5732616979
 10
221601.1802510419
 20
135763.5732616979
 10
221601.180251042
 20
136007.5631680814
 10
221601.180251042
 20
136368.4447341316
 10
221601.180251042
 20
136603.5732616978
 10
221911.805251042
 20
136603.5732616978
 10
222090.430251042
 20
136603.5732616978
 10
222424.055251042
 20
136603.5732616978
 10
222741.180251042
 20
136603.5732616978
 10
222741.180251042
 20
136398.897775469
 10
222741.180251042
 20
136108.2487479267
 10
222741.1802510419
 20
135763.5732616979
 10
222467.0634728504
 20
135763.5732616979
 10
222164.9579669264
 20
135763.5732616979
 10
222164.9579669265
 20
135802.5732616978
 10
222443.4272638265
 20
135802.5732616978
 10
222702.180251042
 20
135802.5732616978
 10
222702.180251042
 20
136121.2046453337
 10
222702.180251042
 20
136197.5769194855
 10
222702.180251042
 20
136398.897775469
 10
222702.180251042
 20
136564.5732616978
 97
        0
 75
     0
 76
     1
 47
1.343777311364584
 98
        1
 10
222685.3929504355
 20
136571.736574742
1001
ACAD
1010
0.0
1020
0.0
1030
0.0
  0
LINE
  5
159
330
2
100
AcDbEntity
  8
0
370
     9
100
AcDbLine
 10
222702.180251042
 20
136564.5732616979
 30
-0.0000000000015807
 11
222424.055251042
 21
136564.5732616979
 31
-0.0000000000015807
  0
LINE
  5
15A
102
{ACAD_REACTORS
330
198
102
}
330
2
100
AcDbEntity
  8
0
370
     9
100
AcDbLine
 10
222424.055251042
 20
136603.5732616978
 30
-0.0000000000015461
 11
222741.180251042
 21
136603.5732616978
 31
-0.0000000000015461
  0
LINE
  5
15B
102
{ACAD_REACTORS
330
198
102
}
330
2
100
AcDbEntity
  8
0
370
     9
100
AcDbLine
 10
221661.180251042
 20
136543.5732616978
 30
-0.0000000000015994
 11
222681.1802510419
 21
136543.5732616979
 31
-0.0000000000015461
  0
LINE
  5
15C
330
2
100
AcDbEntity
  8
0
370
     9
100
AcDbLine
 10
222424.055251042
 20
136564.5732616979
 30
-0.0000000000015807
 11
222090.430251042
 21
136564.5732616979
 31
-0.0000000000015807
  0
LINE
  5
15D
102
{ACAD_REACTORS
330
198
102
}
330
2
100
AcDbEntity
  8
0
370
     9
100
AcDbLine
 10
222090.430251042
 20
136603.5732616978
 30
-0.0000000000015461
 11
222424.055251042
 21
136603.5732616978
 31
-0.0000000000015461
  0
LINE
  5
15E
330
2
100
AcDbEntity
  8
0
370
     9
100
AcDbLine
 10
222090.430251042
 20
136564.5732616979
 30
-0.0000000000015807
 11
221985.680251042
 21
136564.5732616979
 31
-0.0000000000015807
  0
LINE
  5
15F
330
2
100
AcDbEntity
  8
0
370
     9
100
AcDbLine
 10
221985.680251042
 20
136564.5732616979
 30
-0.0000000000015807
 11
221911.805251042
 21
136564.5732616979
 31
-0.0000000000015807
  0
LINE
  5
160
102
{ACAD_REACTORS
330
198
102
}
330
2
100
AcDbEntity
  8
0
370
     9
100
AcDbLine
 10
221911.805251042
 20
136603.5732616978
 30
-0.0000000000015461
 11
222090.430251042
 21
136603.5732616978
 31
-0.0000000000015461
  0
LINE
  5
161
330
2
100
AcDbEntity
  8
0
370
     9
100
AcDbLine
 10
221911.805251042
 20
136564.5732616979
 30
-0.0000000000015807
 11
221640.180251042
 21
136564.5732616979
 31
-0.0000000000015807
  0
LINE
  5
162
102
{ACAD_REACTORS
330
198
102
}
330
2
100
AcDbEntity
  8
0
370
     9
100
AcDbLine
 10
221601.180251042
 20
136603.5732616978
 30
-0.0000000000015461
 11
221911.805251042
 21
136603.5732616978
 31
-0.0000000000015461
  0
LINE
  5
163
330
2
100
AcDbEntity
  8
0
370
     9
100
AcDbLine
 10
222702.180251042
 20
135802.5732616978
 30
-0.0000000000022575
 11
222702.180251042
 21
136121.2046453337
 31
-0.0000000000019745
  0
LINE
  5
164
102
{ACAD_REACTORS
330
198
102
}
330
2
100
AcDbEntity
  8
0
370
     9
100
AcDbLine
 10
222741.180251042
 20
136108.2487479267
 30
-0.000000000001986
 11
222741.180251042
 21
135763.5732616979
 31
-0.0000000000022922
  0
LINE
  5
165
102
{ACAD_REACTORS
330
198
102
}
330
2
100
AcDbEntity
  8
0
370
     9
100
AcDbLine
 10
222681.1802510419
 20
136543.5732616979
 30
-0.0000000000015461
 11
222681.1802510419
 21
135823.5732616978
 31
-0.0000000000022348
  0
LINE
  5
166
330
2
100
AcDbEntity
  8
0
370
     9
100
AcDbLine
 10
222702.180251042
 20
136108.2487479267
 30
-0.000000000001986
 11
222702.180251042
 21
136197.5769194855
 31
-0.0000000000019067
  0
LINE
  5
167
330
2
100
AcDbEntity
  8
0
370
     9
100
AcDbLine
 10
222702.180251042
 20
136197.5769194855
 30
-0.0000000000019067
 11
222702.180251042
 21
136398.897775469
 31
-0.0000000000017279
  0
LINE
  5
168
102
{ACAD_REACTORS
330
198
102
}
330
2
100
AcDbEntity
  8
0
370
     9
100
AcDbLine
 10
222741.180251042
 20
136398.897775469
 30
-0.0000000000017279
 11
222741.180251042
 21
136108.2487479267
 31
-0.000000000001986
  0
LINE
  5
169
330
2
100
AcDbEntity
  8
0
370
     9
100
AcDbLine
 10
222702.180251042
 20
136398.897775469
 30
-0.0000000000017279
 11
222702.180251042
 21
136564.5732616979
 31
-0.0000000000015807
  0
LINE
  5
16A
102
{ACAD_REACTORS
330
198
102
}
330
2
100
AcDbEntity
  8
0
370
     9
100
AcDbLine
 10
222741.180251042
 20
136603.5732616978
 30
-0.0000000000015461
 11
222741.180251042
 21
136398.897775469
 31
-0.0000000000017279
  0
LINE
  5
16B
330
2
100
AcDbEntity
  8
0
370
     9
100
AcDbLine
 10
221640.180251042
 20
135802.5732616978
 30
-0.0000000000022575
 11
221838.0679669265
 21
135802.5732616978
 31
-0.0000000000022575
  0
LINE
  5
16C
102
{ACAD_REACTORS
330
198
102
}
330
2
100
AcDbEntity
  8
0
370
     9
100
AcDbLine
 10
221838.0679669265
 20
135763.5732616979
 30
-0.0000000000022922
 11
221601.180251042
 21
135763.5732616979
 31
-0.0000000000022922
  0
LINE
  5
16D
102
{ACAD_REACTORS
330
198
102
}
330
2
100
AcDbEntity
  8
0
370
     9
100
AcDbLine
 10
222681.1802510419
 20
135823.5732616978
 30
-0.0000000000022348
 11
221661.1802510419
 21
135823.5732616978
 31
-0.0000000000022922
  0
LINE
  5
16E
330
2
100
AcDbEntity
  8
0
370
     9
100
AcDbLine
 10
221838.0679669265
 20
135802.5732616978
 30
-0.0000000000022575
 11
221985.680251042
 21
135802.5732616978
 31
-0.0000000000022575
  0
LINE
  5
16F
330
2
100
AcDbEntity
  8
0
370
     9
100
AcDbLine
 10
221985.680251042
 20
135802.5732616978
 30
-0.0000000000022575
 11
222064.9579669265
 21
135802.5732616978
 31
-0.0000000000022575
  0
LINE
  5
170
102
{ACAD_REACTORS
330
198
102
}
330
2
100
AcDbEntity
  8
0
370
     9
100
AcDbLine
 10
222064.9579669265
 20
135823.5732616978
 30
-0.0000000000022695
 11
222064.9579669265
 21
135763.5732616979
 31
-0.0000000000022922
  0
LINE
  5
171
102
{ACAD_REACTORS
330
198
102
}
330
2
100
AcDbEntity
  8
0
370
     9
100
AcDbLine
 10
222064.9579669265
 20
135763.5732616979
 30
-0.0000000000022922
 11
221838.0679669265
 21
135763.5732616979
 31
-0.0000000000022922
  0
LINE
  5
172
102
{ACAD_REACTORS
330
198
102
}
330
2
100
AcDbEntity
  8
0
370
     9
100
AcDbLine
 10
222467.0634728504
 20
135763.5732616979
 30
-0.0000000000022922
 11
222164.9579669265
 21
135763.5732616979
 31
-0.0000000000022922
  0
LINE
  5
173
102
{ACAD_REACTORS
330
198
102
}
330
2
100
AcDbEntity
  8
0
370
     9
100
AcDbLine
 10
222164.9579669265
 20
135763.5732616979
 30
-0.0000000000022922
 11
222164.9579669265
 21
135823.5732616978
 31
-0.0000000000022638
  0
LINE
  5
174
330
2
100
AcDbEntity
  8
0
370
     9
100
AcDbLine
 10
222164.9579669265
 20
135802.5732616978
 30
-0.0000000000022575
 11
222443.4272638265
 21
135802.5732616978
 31
-0.0000000000022575
  0
LINE
  5
175
330
2
100
AcDbEntity
  8
0
370
     9
100
AcDbLine
 10
222443.4272638265
 20
135802.5732616978
 30
-0.0000000000022575
 11
222642.1802510421
 21
135802.5732616978
 31
-0.0000000000022575
  0
LINE
  5
176
102
{ACAD_REACTORS
330
198
102
}
330
2
100
AcDbEntity
  8
0
370
     9
100
AcDbLine
 10
222741.180251042
 20
135763.5732616979
 30
-0.0000000000022922
 11
222467.0634728504
 21
135763.5732616979
 31
-0.0000000000022922
  0
LINE
  5
177
330
2
100
AcDbEntity
  8
0
370
     9
100
AcDbLine
 10
221640.180251042
 20
136564.5732616979
 30
-0.0000000000015807
 11
221640.180251042
 21
136368.4447341316
 31
-0.0000000000017549
  0
LINE
  5
178
102
{ACAD_REACTORS
330
198
102
}
330
2
100
AcDbEntity
  8
0
370
     9
100
AcDbLine
 10
221601.180251042
 20
136368.4447341316
 30
-0.0000000000017549
 11
221601.180251042
 21
136603.5732616978
 31
-0.0000000000015461
  0
LINE
  5
179
330
2
100
AcDbEntity
  8
0
370
     9
100
AcDbLine
 10
221640.180251042
 20
136368.4447341316
 30
-0.0000000000017549
 11
221640.180251042
 21
136197.5769194855
 31
-0.0000000000019067
  0
LINE
  5
17A
330
2
100
AcDbEntity
  8
0
370
     9
100
AcDbLine
 10
221640.180251042
 20
136197.5769194855
 30
-0.0000000000019067
 11
221640.180251042
 21
136007.5631680814
 31
-0.0000000000020755
  0
LINE
  5
17B
102
{ACAD_REACTORS
330
198
102
}
330
2
100
AcDbEntity
  8
0
370
     9
100
AcDbLine
 10
221601.180251042
 20
136007.5631680814
 30
-0.0000000000020755
 11
221601.180251042
 21
136368.4447341316
 31
-0.0000000000017549
  0
LINE
  5
17C
102
{ACAD_REACTORS
330
198
102
}
330
2
100
AcDbEntity
  8
0
370
     9
100
AcDbLine
 10
221661.1802510419
 20
135823.5732616978
 30
-0.0000000000022922
 11
221661.180251042
 21
136543.5732616978
 31
-0.0000000000015994
  0
LINE
  5
17D
330
2
100
AcDbEntity
  8
0
370
     9
100
AcDbLine
 10
221640.180251042
 20
136007.5631680814
 30
-0.0000000000020755
 11
221640.180251042
 21
135802.5732616978
 31
-0.0000000000022575
  0
LINE
  5
17E
102
{ACAD_REACTORS
330
198
102
}
330
2
100
AcDbEntity
  8
0
370
     9
100
AcDbLine
 10
221601.180251042
 20
135763.5732616979
 30
-0.0000000000022922
 11
221601.180251042
 21
136007.5631680814
 31
-0.0000000000020755
  0
DIMENSION
  5
17F
330
2
100
AcDbEntity
  8
0Wymiary-PL
100
AcDbDimension
  2
*D3
 10
223150.7818508562
 20
136603.5732616978
 30
0.0
 11
223070.7818508562
 21
136183.5732616979
 31
0.0
 71
     5
 42
840.0
  3
500
100
AcDbAlignedDimension
 13
222741.180251042
 23
135763.5732616979
 33
-0.0000000000022922
 14
222741.180251042
 24
136603.5732616978
 34
-0.0000000000015461
 50
90.0
100
AcDbRotatedDimension
  0
DIMENSION
  5
18A
330
2
100
AcDbEntity
  8
0Wymiary-PL
100
AcDbDimension
  2
*D4
 10
221601.180251042
 20
137072.9062242922
 30
0.0
 11
222171.180251042
 21
137152.9062242922
 31
0.0
 71
     5
 42
1140.0
  3
500
100
AcDbAlignedDimension
 13
222741.180251042
 23
136603.5732616978
 33
-0.0000000000015461
 14
221601.180251042
 24
136603.5732616978
 34
-0.0000000000015461
 50
180.0
100
AcDbRotatedDimension
  0
HATCH
  5
195
330
2
100
AcDbEntity
  8
0
370
     9
100
AcDbHatch
 10
0.0
 20
0.0
 30
0.0
210
0.0
220
0.0
230
1.0
  2
SOLID
 70
     1
 71
     0
 91
        1
 92
        7
 72
     0
 73
     1
 93
       15
 10
219159.5982387031
 20
136007.5631680814
 10
219159.5982387031
 20
136197.5769194855
 10
219159.5982387031
 20
136368.4447341316
 10
219159.5982387031
 20
136564.5732616978
 10
218887.9732387031
 20
136564.5732616979
 10
218814.0982387031
 20
136564.5732616979
 10
218734.8205228186
 20
136564.5732616979
 10
218734.8205228186
 20
136543.5732616978
 10
219138.5982387031
 20
136543.5732616978
 10
219138.5982387032
 20
135823.5732616978
 10
218734.8205228186
 20
135823.5732616979
 10
218734.8205228186
 20
135802.5732616978
 10
218814.0982387031
 20
135802.5732616978
 10
218961.7105228186
 20
135802.5732616978
 10
219159.5982387032
 20
135802.5732616978
 97
        0
 75
     0
 76
     1
 47
1.41471697085367
 98
        1
 10
218900.7398825708
 20
135806.1939482305
1001
ACAD
1010
0.0
1020
0.0
1030
0.0
  0
HATCH
  5
196
330
2
100
AcDbEntity
  8
0
370
     9
100
AcDbHatch
 10
0.0
 20
0.0
 30
0.0
210
0.0
220
0.0
230
1.0
  2
SOLID
 70
     1
 71
     0
 91
        1
 92
        7
 72
     0
 73
     1
 93
       12
 10
218634.8205228186
 20
135823.5732616978
 10
218118.5982387031
 20
135823.5732616978
 10
218118.5982387031
 20
136543.5732616979
 10
218634.8205228186
 20
136543.5732616979
 10
218634.8205228187
 20
136603.5732616979
 10
218375.7232387031
 20
136603.5732616978
 10
218058.5982387031
 20
136603.5732616978
 10
218058.5982387031
 20
136398.897775469
 10
218058.5982387031
 20
136108.2487479267
 10
218058.5982387032
 20
135763.5732616979
 10
218332.7150168947
 20
135763.5732616979
 10
218634.8205228186
 20
135763.5732616978
 97
        0
 75
     0
 76
     1
 47
1.41471697085367
 98
        1
 10
218607.7376098352
 20
135814.6822650691
1001
ACAD
1010
0.0
1020
0.0
1030
0.0
  0
HATCH
  5
197
330
2
100
AcDbEntity
  8
0
370
     9
100
AcDbHatch
 10
0.0
 20
0.0
 30
0.0
210
0.0
220
0.0
230
1.0
  2
SOLID
 70
     1
 71
     0
 91
        1
 92
        7
 72
     0
 73
     1
 93
        5
 10
218734.8205228185
 20
136564.5732616979
 10
218709.3482387031
 20
136564.5732616979
 10
218634.8205228186
 20
136564.5732616979
 10
218634.8205228186
 20
136543.5732616978
 10
218734.8205228186
 20
136543.5732616978
 97
        0
 75
     0
 76
     1
 47
1.41471697085367
 98
        1
 10
218682.7574988533
 20
136554.5792971261
1001
ACAD
1010
0.0
1020
0.0
1030
0.0
  0
HATCH
  5
198
330
2
100
AcDbEntity
  8
0
370
     9
100
AcDbHatch
 10
0.0
 20
0.0
 30
0.0
210
0.0
220
0.0
230
1.0
  2
SOLID
 70
     1
 71
     1
 91
        1
 92
        7
 72
     0
 73
     1
 93
       21
 10
222064.9579669265
 20
135823.5732616978
 10
221661.1802510419
 20
135823.5732616978
 10
221661.180251042
 20
136543.5732616978
 10
222681.180251042
 20
136543.5732616979
 10
222681.1802510419
 20
135823.5732616978
 10
222164.9579669265
 20
135823.5732616978
 10
222164.9579669265
 20
135763.5732616979
 10
222467.0634728504
 20
135763.5732616979
 10
222741.180251042
 20
135763.5732616979
 10
222741.180251042
 20
136108.2487479267
 10
222741.180251042
 20
136398.897775469
 10
222741.180251042
 20
136603.5732616978
 10
222424.055251042
 20
136603.5732616978
 10
222090.430251042
 20
136603.5732616978
 10
221911.805251042
 20
136603.5732616978
 10
221601.180251042
 20
136603.5732616978
 10
221601.180251042
 20
136368.4447341316
 10
221601.180251042
 20
136007.5631680814
 10
221601.180251042
 20
135763.5732616979
 10
221838.0679669265
 20
135763.5732616979
 10
222064.9579669265
 20
135763.5732616979
 97
       20
330
16D
330
17C
330
15B
330
165
330
173
330
172
330
176
330
164
330
168
330
16A
330
15A
330
15D
330
160
330
162
330
178
330
17B
330
17E
330
16C
330
171
330
170
 75
     0
 76
     1
 47
0.8457287439739451
 98
        1
 10
221982.3415775397
 20
135816.7659716869
1001
ACAD
1010
0.0
1020
0.0
1030
0.0
  0
VIEWPORT
  5
1A2
102
{ACAD_XDICTIONARY
360
230
102
}
330
1A0
100
AcDbEntity
 67
     1
  8
0
100
AcDbViewport
 10
5.249999639556165
 20
3.999999883606678
 30
0.0
 40
14.53241403783632
 41
8.992999745766949
 68
     1
 69
     1
 12
5.249999639556165
 22
3.999999883606678
 13
0.0
 23
0.0
 14
10.0
 24
10.0
 15
10.0
 25
10.0
 16
0.0
 26
0.0
 36
1.0
 17
0.0
 27
0.0
 37
0.0
 42
50.0
 43
0.0
 44
0.0
 45
8.992999745766949
 50
0.0
 51
0.0
 72
  1000
 90
   819232
  1

281
     0
 71
     1
 74
     0
110
0.0
120
0.0
130
0.0
111
1.0
121
0.0
131
0.0
112
0.0
122
1.0
132
0.0
 79
     0
146
0.0
  0
VIEWPORT
  5
1A5
102
{ACAD_XDICTIONARY
360
232
102
}
330
1A0
100
AcDbEntity
 67
     1
  8
0
100
AcDbViewport
 10
5.249999761581421
 20
3.999999761581421
 30
0.0
 40
8.399999618530275
 41
6.399999618530274
 68
     2
 69
     2
 12
220287.2000545949
 22
134667.5157057546
 13
0.0
 23
0.0
 14
10.0
 24
10.0
 15
10.0
 25
10.0
 16
0.0
 26
0.0
 36
1.0
 17
0.0
 27
0.0
 37
0.0
 42
50.0
 43
0.0
 44
0.0
 45
14170.21428571428
 50
0.0
 51
0.0
 72
  1000
 90
   819232
  1

281
     0
 71
     1
 74
     0
110
0.0
120
0.0
130
0.0
111
1.0
121
0.0
131
0.0
112
0.0
122
1.0
132
0.0
 79
     0
146
0.0
  0
ENDSEC
  0
SECTION
  2
OBJECTS
  0
DICTIONARY
  5
B
330
0
100
AcDbDictionary
281
     1
  3
ACAD_COLOR
350
1C4
  3
ACAD_GROUP
350
1BF
  3
ACAD_LAYOUT
350
19B
  3
ACAD_MATERIAL
350
D
  3
ACAD_MLINESTYLE
350
1C0
  3
ACAD_PLOTSETTINGS
350
1C1
  3
ACAD_PLOTSTYLENAME
350
A
  3
ACAD_SCALELIST
350
1C5
  3
ACAD_TABLESTYLE
350
1C6
  3
ACAD_VISUALSTYLE
350
19E
  3
ACDB_RECOMPOSE_DATA
350
226
  3
AcDbVariableDictionary
350
21A
  3
CONLABELDictionary
350
1F5
  3
CONLDEFDictionary
350
1E4
  3
DWGPROPS
350
227
  0
DICTIONARY
  5
1AB
330
1AA
100
AcDbDictionary
280
     1
281
     1
  3
ACAD_LAYERFILTERS
360
1AC
  3
ACAD_LAYERSTATES
360
1AD
  3
ACLYDICTIONARY
360
1AF
  0
DICTIONARY
  5
7
330
6
100
AcDbDictionary
280
     1
281
     1
  3
ADSK_XREC_LAYER_RECONCILED
360
8
  0
DICTIONARY
  5
1D
330
1C
100
AcDbDictionary
280
     1
281
     1
  3
ADSK_XREC_LAYER_RECONCILED
360
1E
  0
DICTIONARY
  5
C0
330
BF
100
AcDbDictionary
280
     1
281
     1
  3
ADSK_XREC_LAYER_RECONCILED
360
C1
  0
DICTIONARY
  5
17
330
16
100
AcDbDictionary
280
     1
281
     1
  3
ADSK_XREC_LAYER_RECONCILED
360
18
  0
DICTIONARY
  5
12
330
11
100
AcDbDictionary
280
     1
281
     1
  3
ADSK_XREC_LAYER_RECONCILED
360
13
  0
DICTIONARY
  5
3
330
2
100
AcDbDictionary
280
     1
281
     1
  3
ACAD_SORTENTS
360
1E3
  0
DICTIONARY
  5
C7
330
C6
100
AcDbDictionary
280
     1
281
     1
  3
ACAD_SORTENTS
360
1E2
  0
DICTIONARY
  5
22A
330
1F
100
AcDbDictionary
280
     1
281
     1
  3
ACAD_MTEXT_RT
360
22B
  0
DICTIONARY
  5
22C
330
23
100
AcDbDictionary
280
     1
281
     1
  3
ACAD_MTEXT_RT
360
22D
  0
DICTIONARY
  5
230
330
1A2
100
AcDbDictionary
280
     1
281
     1
  3
ACAD_XREC_ROUNDTRIP
360
231
  0
DICTIONARY
  5
232
330
1A5
100
AcDbDictionary
280
     1
281
     1
  3
ACAD_XREC_ROUNDTRIP
360
233
  0
DICTIONARY
  5
1C4
102
{ACAD_REACTORS
330
B
102
}
330
B
100
AcDbDictionary
281
     1
  0
DICTIONARY
  5
1BF
102
{ACAD_REACTORS
330
B
102
}
330
B
100
AcDbDictionary
281
     1
  0
DICTIONARY
  5
19B
102
{ACAD_REACTORS
330
B
102
}
330
B
100
AcDbDictionary
281
     1
  3
Layout1
350
1A7
  3
Model
350
19A
  0
DICTIONARY
  5
D
102
{ACAD_REACTORS
330
B
102
}
330
B
100
AcDbDictionary
281
     1
  3
ByBlock
350
1C3
  3
ByLayer
350
1C2
  3
Global
350
C
  0
DICTIONARY
  5
1C0
102
{ACAD_REACTORS
330
B
102
}
330
B
100
AcDbDictionary
281
     1
  3
Standard
350
1C7
  0
DICTIONARY
  5
1C1
102
{ACAD_REACTORS
330
B
102
}
330
B
100
AcDbDictionary
281
     1
  0
ACDBDICTIONARYWDFLT
  5
A
102
{ACAD_REACTORS
330
B
102
}
330
B
100
AcDbDictionary
281
     1
  3
Fine
350
9A
  3
Medium
350
88
  3
Normal
350
9
100
AcDbDictionaryWithDefault
340
9
  0
DICTIONARY
  5
1C5
102
{ACAD_REACTORS
330
B
102
}
330
B
100
AcDbDictionary
281
     1
  3
A0
350
1CC
  3
A1
350
1CD
  3
A2
350
1CE
  3
A3
350
1CF
  3
A4
350
1D0
  3
A5
350
1D1
  3
A6
350
1D2
  3
A7
350
1D3
  3
A8
350
1D4
  3
A9
350
1D5
  3
B0
350
1D6
  3
B1
350
1D7
  3
B2
350
1D8
  3
B3
350
1D9
  3
B4
350
1DA
  3
B5
350
1DB
  3
B6
350
1DC
  3
B7
350
1DD
  3
B8
350
1DE
  3
B9
350
1DF
  3
C0
350
1E0
  0
DICTIONARY
  5
1C6
102
{ACAD_REACTORS
330
B
102
}
330
B
100
AcDbDictionary
281
     1
  3
Standard
350
1C8
  0
DICTIONARY
  5
19E
102
{ACAD_REACTORS
330
B
102
}
330
B
100
AcDbDictionary
281
     1
  3
2dWireframe
350
19D
  3
3dWireframe
350
1CB
  3
Realistic
350
1CA
  0
XRECORD
  5
226
102
{ACAD_REACTORS
330
B
102
}
330
B
100
AcDbXrecord
280
     1
 90
        1
330
1C8
  0
DICTIONARY
  5
21A
102
{ACAD_REACTORS
330
B
102
}
330
B
100
AcDbDictionary
281
     1
  3
CANNOSCALE
350
21E
  3
CMLEADERSTYLE
350
21C
  3
CTABLESTYLE
350
21B
  3
DIMASSOC
350
222
  3
HIDETEXT
350
221
  3
INDEXCTL
350
220
  3
MSLTSCALE
350
21D
  3
SORTENTS
350
21F
  0
DICTIONARY
  5
1F5
102
{ACAD_REACTORS
330
B
102
}
330
B
100
AcDbDictionary
281
     1
  3
_el_wzb_Left_nazw_romans16
350
219
  3
_elementy_wiezby_SKROT_Romans16
350
218
  3
_materialy_przegrod_pl_Label1
350
217
  3
_nazwy_przegrod_romans18
350
216
  3
_nazwy_rysunkow_Arial37
350
215
  3
_nazwy_rysunkow_Romans18
350
214
  3
_opisy_rozne_II_Label1
350
213
  3
_opisy_rozne_II_Link1Label1
350
212
  3
_posadzki_do_zestawienia_pomieszczen_Romans17
350
211
  3
_rozne_opisy_rys_R16_right
350
210
  3
_rozne_opisy_rys_Romans12
350
20F
  3
_rozne_opisy_rys_Romans16
350
20E
  3
_tabelka_-_inform_i_etykiety_Romans13
350
20D
  3
_tabelka_Arial15-center
350
20C
  3
_tabelka_Arial151
350
20B
  3
_tabelka_Romans 10
350
20A
  3
_tabelka_Romans13
350
209
  3
_tabelka_Romans19
350
208
  3
ALFABET-Arial20
350
207
  3
ALFABET-Arial26
350
206
  3
ALFABET-Arial37
350
205
  3
Arial_27
350
204
  3
jednostki-Arial18
350
203
  3
jednostki-Arial30
350
202
  3
jednostki-Romans16
350
201
  3
miesiace-Romans17
350
200
  3
pomieszczenia-Arial 15
350
1FF
  3
pomieszczenia-Romans17
350
1FE
  3
romans16
350
1FD
  3
Romans_17
350
1FC
  3
stolarka-Arial14
350
1FB
  3
stolarka-Romans1607
350
1FA
  3
stolarka-Romans1608
350
1F9
  3
stolarkaLabel1
350
1F8
  3
tbl_PRZEGRODY
350
1F7
  3
uwag_og_na_ark_Arial18
350
1F6
  0
DICTIONARY
  5
1E4
102
{ACAD_REACTORS
330
B
102
}
330
B
100
AcDbDictionary
281
     1
  3
_elementy_wiezby_Link1
350
1F4
  3
_materialy_przegrod_pl_Link1
350
1F3
  3
_nazwy_przegrod_pl_Link1
350
1F2
  3
_nazwy_rysunkow_Arial37
350
1F1
  3
_opisy_rozne_II_Link1
350
1F0
  3
_opisy_rozne_II_Link2
350
1EF
  3
_posadzki_do_zestawienia_pomieszczen_Link1
350
1EE
  3
_rozne_opisy_rys_Link1
350
1ED
  3
_tabelka_-_inform_i_etykiety_Link1
350
1EC
  3
_uwagi_ogolne_na_arkuszu_Link1
350
1EB
  3
ALFABETLink1
350
1EA
  3
jednostkiLink1
350
1E9
  3
miesiaceLink1
350
1E8
  3
pomieszczeniaLink1
350
1E7
  3
stolarkaLink1
350
1E6
  3
tbl_PRZEGRODYLink1
350
1E5
  0
XRECORD
  5
227
102
{ACAD_REACTORS
330
B
102
}
330
B
100
AcDbXrecord
280
     1
  1
DWGPROPS COOKIE
  2

  3

  4

  6

  7

  8
monika.mleczek
  9

300
=
301
=
302
=
303
=
304
=
305
=
306
=
307
=
308
=
309
=
 40
8.941918275462963
 41
2452027.670547454
 42
2455315.625479236
  1

 90
        0
  0
DICTIONARY
  5
1AC
102
{ACAD_REACTORS
330
1AB
102
}
330
1AB
100
AcDbDictionary
281
     1
  0
DICTIONARY
  5
1AD
102
{ACAD_REACTORS
330
1AB
102
}
330
1AB
100
AcDbDictionary
281
     1
1001
AcLayerTools
1000
A
1000
0
  0
DICTIONARY
  5
1AF
102
{ACAD_REACTORS
330
1AB
102
}
330
1AB
100
AcDbDictionary
281
     1
1001
ACAD
1000
<All
  0
XRECORD
  5
8
102
{ACAD_REACTORS
330
7
102
}
330
7
100
AcDbXrecord
280
     1
290
     1
  0
XRECORD
  5
1E
102
{ACAD_REACTORS
330
1D
102
}
330
1D
100
AcDbXrecord
280
     1
290
     1
  0
XRECORD
  5
C1
102
{ACAD_REACTORS
330
C0
102
}
330
C0
100
AcDbXrecord
280
     1
290
     1
  0
XRECORD
  5
18
102
{ACAD_REACTORS
330
17
102
}
330
17
100
AcDbXrecord
280
     1
290
     1
  0
XRECORD
  5
13
102
{ACAD_REACTORS
330
12
102
}
330
12
100
AcDbXrecord
280
     1
290
     1
  0
SORTENTSTABLE
  5
1E3
102
{ACAD_REACTORS
330
3
102
}
330
3
100
AcDbSortentsTable
330
2
331
155
  5
158
331
A0
  5
A4
331
116
  5
119
331
15D
  5
161
331
A8
  5
AD
331
E7
  5
EA
331
11E
  5
121
331
126
  5
129
331
165
  5
169
331
B0
  5
B6
331
EF
  5
F2
331
12E
  5
131
331
B8
  5
BE
331
16D
  5
171
331
F7
  5
FA
331
136
  5
139
331
175
  5
179
331
FF
  5
102
331
13E
  5
141
331
146
  5
149
331
17D
  5
195
331
107
  5
10A
331
10F
  5
112
331
14E
  5
151
331
117
  5
11A
331
A1
  5
A5
331
156
  5
159
331
195
  5
9F
331
E8
  5
EB
331
11F
  5
122
331
A9
  5
AE
331
15E
  5
162
331
166
  5
16A
331
B1
  5
B7
331
127
  5
12A
331
12F
  5
132
331
B9
  5
D7
331
F0
  5
F3
331
137
  5
13A
331
16E
  5
172
331
F8
  5
FB
331
100
  5
103
331
13F
  5
142
331
176
  5
17A
331
17E
  5
196
331
108
  5
10B
331
147
  5
14A
331
14F
  5
152
331
110
  5
113
331
157
  5
15A
331
A2
  5
A6
331
118
  5
11B
331
120
  5
123
331
15F
  5
163
331
AA
  5
AF
331
E9
  5
EC
331
196
  5
9D
331
128
  5
12B
331
B2
  5
B8
331
167
  5
16B
331
F1
  5
F4
331
130
  5
133
331
BA
  5
E2
331
16F
  5
173
331
F9
  5
FC
331
138
  5
13B
331
177
  5
17B
331
101
  5
104
331
140
  5
143
331
148
  5
14B
331
17F
  5
197
331
109
  5
10C
331
111
  5
114
331
150
  5
153
331
119
  5
11C
331
158
  5
15B
331
A3
  5
A7
331
E2
  5
A1
331
197
  5
A0
331
EA
  5
ED
331
121
  5
124
331
AB
  5
B0
331
160
  5
164
331
B3
  5
B9
331
129
  5
12C
331
131
  5
134
331
168
  5
16C
331
BB
  5
E3
331
F2
  5
F5
331
139
  5
13C
331
170
  5
174
331
FA
  5
FD
331
102
  5
105
331
141
  5
144
331
178
  5
17C
331
10A
  5
10D
331
149
  5
14C
331
112
  5
115
331
151
  5
154
331
159
  5
15C
331
A4
  5
A8
331
E3
  5
E4
331
11A
  5
11D
331
122
  5
125
331
161
  5
165
331
AC
  5
B1
331
EB
  5
EE
331
198
  5
15D
331
12A
  5
12D
331
B4
  5
BA
331
F3
  5
F6
331
132
  5
135
331
BC
  5
E5
331
169
  5
16D
331
171
  5
175
331
FB
  5
FE
331
13A
  5
13D
331
142
  5
145
331
179
  5
17D
331
103
  5
106
331
14A
  5
14D
331
10B
  5
10E
331
113
  5
116
331
9D
  5
9E
331
152
  5
155
331
E4
  5
B3
331
11B
  5
11E
331
A5
  5
A9
331
15A
  5
15E
331
EC
  5
EF
331
123
  5
126
331
AD
  5
B2
331
162
  5
166
331
B5
  5
BB
331
12B
  5
12E
331
133
  5
136
331
16A
  5
16E
331
BD
  5
E6
331
F4
  5
F7
331
13B
  5
13E
331
172
  5
176
331
FC
  5
FF
331
104
  5
107
331
143
  5
146
331
17A
  5
17E
331
10C
  5
10F
331
14B
  5
14E
331
153
  5
156
331
18A
  5
198
331
114
  5
117
331
9E
  5
A2
331
15B
  5
15F
331
A6
  5
AA
331
E5
  5
AB
331
11C
  5
11F
331
124
  5
127
331
163
  5
167
331
AE
  5
B4
331
ED
  5
F0
331
12C
  5
12F
331
B6
  5
BC
331
F5
  5
F8
331
134
  5
137
331
BE
  5
E7
331
16B
  5
16F
331
173
  5
177
331
FD
  5
100
331
13C
  5
13F
331
144
  5
147
331
17B
  5
17F
331
105
  5
108
331
14C
  5
14F
331
10D
  5
110
331
115
  5
118
331
9F
  5
A3
331
154
  5
157
331
E6
  5
E9
331
11D
  5
120
331
A7
  5
AC
331
15C
  5
160
331
164
  5
168
331
EE
  5
F1
331
125
  5
128
331
AF
  5
B5
331
B7
  5
BD
331
12D
  5
130
331
135
  5
138
331
16C
  5
170
331
F6
  5
F9
331
FE
  5
101
331
13D
  5
140
331
174
  5
178
331
106
  5
109
331
145
  5
148
331
17C
  5
18A
331
D7
  5
E8
331
10E
  5
111
331
14D
  5
150
  0
SORTENTSTABLE
  5
1E2
102
{ACAD_REACTORS
330
C7
102
}
330
C7
100
AcDbSortentsTable
330
C6
  0
XRECORD
  5
22B
102
{ACAD_REACTORS
330
22A
102
}
330
22A
100
AcDbXrecord
280
     1
 40
264312.0
  1
{\fArial|b0|i0|c238|p34;MOŻNA WKLEIĆ DO PROJEKTU ZAGOSPODAROWANIA TERENU}
  0
XRECORD
  5
22D
102
{ACAD_REACTORS
330
22C
102
}
330
22C
100
AcDbXrecord
280
     1
 40
106589.0
  1
{\fArial|b0|i0|c238|p34;OŚ ODBICIA LUSTRZANEGO}
  0
XRECORD
  5
231
102
{ACAD_REACTORS
330
230
102
}
330
230
100
AcDbXrecord
280
     1
102
SHADEPLOT
 70
     0
  0
XRECORD
  5
233
102
{ACAD_REACTORS
330
232
102
}
330
232
100
AcDbXrecord
280
     1
102
SHADEPLOT
 70
     0
  0
LAYOUT
  5
1A7
102
{ACAD_XDICTIONARY
360
1A8
102
}
102
{ACAD_REACTORS
330
19B
102
}
330
19B
100
AcDbPlotSettings
  1

  2
none_device
  4
Letter_(8.50_x_11.00_Inches)
  6

 40
6.349999904632568
 41
6.349999904632568
 42
6.350006103515625
 43
6.350006103515625
 44
215.8999938964844
 45
279.3999938964844
 46
0.0
 47
0.0
 48
0.0
 49
0.0
140
0.0
141
0.0
142
1.0
143
1.0
 70
   688
 72
     0
 73
     1
 74
     5
  7
monochrome_140.ctb
 75
    16
147
1.0
148
0.0
149
0.0
100
AcDbLayout
  1
Layout1
 70
     1
 71
     1
 10
-0.2500002402958907
 20
-0.2499999962453767
 11
10.74999951940822
 21
8.249999763458733
 12
0.0
 22
0.0
 32
0.0
 14
1.049999952316284
 24
0.7999999523162842
 34
0.0
 15
9.449999570846559
 25
7.199999570846558
 35
0.0
146
0.0
 13
0.0
 23
0.0
 33
0.0
 16
1.0
 26
0.0
 36
0.0
 17
0.0
 27
1.0
 37
0.0
 76
     0
330
1A0
331
1A2
1001
ACAD_PSEXT
1000
None
1000
None
1000
Not applicable
1000
The layout will not be plotted unless a new plotter configuration name is selected.
1070
     0
  0
LAYOUT
  5
19A
102
{ACAD_XDICTIONARY
360
22E
102
}
102
{ACAD_REACTORS
330
19B
102
}
330
19B
100
AcDbPlotSettings
  1

  2
CutePDF Writer
  4
A4
  6
RODODENDRON 5
 40
3.174999952316284
 41
3.174999952316284
 42
3.175003051757812
 43
3.17498779296875
 44
209.8886566162109
 45
297.0530090332031
 46
-0.230673193931878
 47
5.151510643959028
 48
215187.2000545948
 49
127657.5157057546
140
225387.2000545948
141
141677.5157057546
142
1.0
143
50.0
 70
 11956
 72
     1
 73
     0
 74
     4
  7
monochrome_140.ctb
 75
    25
147
0.02
148
-215187.2000545948
149
-127657.5157057546
100
AcDbLayout
  1
Model
 70
     1
 71
     0
 10
0.0
 20
0.0
 11
12.0
 21
9.0
 12
0.0
 22
0.0
 32
0.0
 14
0.0
 24
0.0
 34
0.0
 15
0.0
 25
0.0
 35
0.0
146
0.0
 13
0.0
 23
0.0
 33
0.0
 16
1.0
 26
0.0
 36
0.0
 17
0.0
 27
1.0
 37
0.0
 76
     0
330
2
331
1B9
1001
ACAD_PSEXT
1000
CutePDF Writer
1000
CutePDF Writer
1000
CPW2:
1000

1070
     0
  0
MATERIAL
  5
1C3
102
{ACAD_XDICTIONARY
360
237
102
}
102
{ACAD_REACTORS
330
D
102
}
330
D
100
AcDbMaterial
  1
ByBlock
 73
     1
 78
     1
172
     1
176
     1
270
     1
274
     1
  0
MATERIAL
  5
1C2
102
{ACAD_XDICTIONARY
360
235
102
}
102
{ACAD_REACTORS
330
D
102
}
330
D
100
AcDbMaterial
  1
ByLayer
 73
     1
 78
     1
172
     1
176
     1
270
     1
274
     1
  0
MATERIAL
  5
C
102
{ACAD_XDICTIONARY
360
228
102
}
102
{ACAD_REACTORS
330
D
102
}
330
D
100
AcDbMaterial
  1
Global
 73
     1
 78
     1
172
     1
176
     1
270
     1
274
     1
  0
MLINESTYLE
  5
1C7
102
{ACAD_REACTORS
330
1C0
102
}
330
1C0
100
AcDbMlineStyle
  2
STANDARD
 70
     0
  3

 62
   256
 51
90.0
 52
90.0
 71
     2
 49
0.5
 62
   256
  6
BYLAYER
 49
-0.5
 62
   256
  6
BYLAYER
  0
ACDBPLACEHOLDER
  5
9A
102
{ACAD_REACTORS
330
A
102
}
330
A
  0
ACDBPLACEHOLDER
  5
88
102
{ACAD_REACTORS
330
A
102
}
330
A
  0
ACDBPLACEHOLDER
  5
9
102
{ACAD_REACTORS
330
A
102
}
330
A
  0
SCALE
  5
1CC
102
{ACAD_REACTORS
330
1C5
102
}
330
1C5
100
AcDbScale
 70
     0
300
1:1
140
1.0
141
0.1
290
     0
  0
SCALE
  5
1CD
102
{ACAD_REACTORS
330
1C5
102
}
330
1C5
100
AcDbScale
 70
     0
300
1:2
140
1.0
141
0.2
290
     0
  0
SCALE
  5
1CE
102
{ACAD_REACTORS
330
1C5
102
}
330
1C5
100
AcDbScale
 70
     0
300
1:2.5
140
1.0
141
0.25
290
     0
  0
SCALE
  5
1CF
102
{ACAD_REACTORS
330
1C5
102
}
330
1C5
100
AcDbScale
 70
     0
300
1:5
140
1.0
141
0.5
290
     0
  0
SCALE
  5
1D0
102
{ACAD_REACTORS
330
1C5
102
}
330
1C5
100
AcDbScale
 70
     0
300
1:7.5
140
1.0
141
0.75
290
     0
  0
SCALE
  5
1D1
102
{ACAD_REACTORS
330
1C5
102
}
330
1C5
100
AcDbScale
 70
     0
300
1:10
140
1.0
141
1.0
290
     1
  0
SCALE
  5
1D2
102
{ACAD_REACTORS
330
1C5
102
}
330
1C5
100
AcDbScale
 70
     0
300
1:20
140
1.0
141
2.0
290
     0
  0
SCALE
  5
1D3
102
{ACAD_REACTORS
330
1C5
102
}
330
1C5
100
AcDbScale
 70
     0
300
1:25
140
1.0
141
2.5
290
     0
  0
SCALE
  5
1D4
102
{ACAD_REACTORS
330
1C5
102
}
330
1C5
100
AcDbScale
 70
     0
300
1:50
140
1.0
141
5.0
290
     0
  0
SCALE
  5
1D5
102
{ACAD_REACTORS
330
1C5
102
}
330
1C5
100
AcDbScale
 70
     0
300
1:75
140
1.0
141
7.5
290
     0
  0
SCALE
  5
1D6
102
{ACAD_REACTORS
330
1C5
102
}
330
1C5
100
AcDbScale
 70
     0
300
1:100
140
1.0
141
10.0
290
     0
  0
SCALE
  5
1D7
102
{ACAD_REACTORS
330
1C5
102
}
330
1C5
100
AcDbScale
 70
     0
300
1:150
140
1.0
141
15.0
290
     0
  0
SCALE
  5
1D8
102
{ACAD_REACTORS
330
1C5
102
}
330
1C5
100
AcDbScale
 70
     0
300
1:200
140
1.0
141
20.0
290
     0
  0
SCALE
  5
1D9
102
{ACAD_REACTORS
330
1C5
102
}
330
1C5
100
AcDbScale
 70
     0
300
1:250
140
1.0
141
25.0
290
     0
  0
SCALE
  5
1DA
102
{ACAD_REACTORS
330
1C5
102
}
330
1C5
100
AcDbScale
 70
     0
300
1:500
140
1.0
141
50.0
290
     0
  0
SCALE
  5
1DB
102
{ACAD_REACTORS
330
1C5
102
}
330
1C5
100
AcDbScale
 70
     0
300
1:750
140
1.0
141
75.0
290
     0
  0
SCALE
  5
1DC
102
{ACAD_REACTORS
330
1C5
102
}
330
1C5
100
AcDbScale
 70
     0
300
1:1000
140
1.0
141
100.0
290
     0
  0
SCALE
  5
1DD
102
{ACAD_REACTORS
330
1C5
102
}
330
1C5
100
AcDbScale
 70
     0
300
1:1250
140
1.0
141
125.0
290
     0
  0
SCALE
  5
1DE
102
{ACAD_REACTORS
330
1C5
102
}
330
1C5
100
AcDbScale
 70
     0
300
1:2000
140
1.0
141
200.0
290
     0
  0
SCALE
  5
1DF
102
{ACAD_REACTORS
330
1C5
102
}
330
1C5
100
AcDbScale
 70
     0
300
1:2500
140
1.0
141
250.0
290
     0
  0
SCALE
  5
1E0
102
{ACAD_REACTORS
330
1C5
102
}
330
1C5
100
AcDbScale
 70
     0
300
1:5000
140
1.0
141
500.0
290
     0
  0
TABLESTYLE
  5
1C8
102
{ACAD_XDICTIONARY
360
1C9
102
}
102
{ACAD_REACTORS
330
1C6
102
}
330
1C6
100
AcDbTableStyle
  3
Standard
 70
     0
 71
     0
 40
0.06
 41
0.06
280
     0
281
     0
  7
Standard
140
0.18
170
     2
 62
     0
 63
     7
283
     0
274
    -2
284
     1
 64
     0
275
    -2
285
     1
 65
     0
276
    -2
286
     1
 66
     0
277
    -2
287
     1
 67
     0
278
    -2
288
     1
 68
     0
279
    -2
289
     1
 69
     0
  7
Standard
140
0.25
170
     5
 62
     0
 63
     7
283
     0
274
    -2
284
     1
 64
     0
275
    -2
285
     1
 65
     0
276
    -2
286
     1
 66
     0
277
    -2
287
     1
 67
     0
278
    -2
288
     1
 68
     0
279
    -2
289
     1
 69
     0
  7
Standard
140
0.18
170
     5
 62
     0
 63
     7
283
     0
274
    -2
284
     1
 64
     0
275
    -2
285
     1
 65
     0
276
    -2
286
     1
 66
     0
277
    -2
287
     1
 67
     0
278
    -2
288
     1
 68
     0
279
    -2
289
     1
 69
     0
  0
VISUALSTYLE
  5
19D
102
{ACAD_REACTORS
330
19E
102
}
330
19E
100
AcDbVisualStyle
  2
2dWireframe
 70
     4
 71
     0
 72
     2
 73
     0
 90
        0
 40
-0.6
 41
-30.0
 62
     5
 63
     7
 74
     1
 91
        4
 64
     7
 65
   257
 75
     1
175
     1
 42
1.0
 92
        0
 66
   257
 43
1.0
 76
     1
 77
     6
 78
     2
 67
     7
 79
     5
170
     0
171
     0
290
     0
174
     0
 93
        1
 44
0.0
173
     0
291
     0
 45
0.0
1001
ACAD
1000
AcDbSavedByObjectVersion
1070
     0
  0
VISUALSTYLE
  5
1CB
102
{ACAD_REACTORS
330
19E
102
}
330
19E
100
AcDbVisualStyle
  2
3dWireframe
 70
     5
 71
     0
 72
     2
 73
     0
 90
        0
 40
-0.6
 41
-30.0
 62
     5
 63
     7
 74
     1
 91
        4
 64
     7
 65
   257
 75
     1
175
     1
 42
1.0
 92
        0
 66
   257
 43
1.0
 76
     1
 77
     6
 78
     2
 67
     7
 79
     5
170
     0
171
     0
290
     0
174
     0
 93
        1
 44
0.0
173
     0
291
     0
 45
0.0
1001
ACAD
1000
AcDbSavedByObjectVersion
1070
     0
  0
VISUALSTYLE
  5
1CA
102
{ACAD_REACTORS
330
19E
102
}
330
19E
100
AcDbVisualStyle
  2
Realistic
 70
     8
 71
     2
 72
     2
 73
     0
 90
        0
 40
-0.6
 41
-30.0
 62
     5
 63
     7
 74
     1
 91
        0
 64
     7
 65
   257
 75
     1
175
     1
 42
1.0
 92
        8
 66
     8
 43
1.0
 76
     1
 77
     6
 78
     2
 67
     7
 79
     5
170
     0
171
     0
290
     0
174
     0
 93
       13
 44
0.0
173
     0
291
     0
 45
0.0
1001
ACAD
1000
AcDbSavedByObjectVersion
1070
     0
  0
DICTIONARYVAR
  5
21E
102
{ACAD_REACTORS
330
21A
102
}
330
21A
100
DictionaryVariables
280
     0
  1
1:100
  0
DICTIONARYVAR
  5
21C
102
{ACAD_REACTORS
330
21A
102
}
330
21A
100
DictionaryVariables
280
     0
  1
STANDARD
  0
DICTIONARYVAR
  5
21B
102
{ACAD_REACTORS
330
21A
102
}
330
21A
100
DictionaryVariables
280
     0
  1
STANDARD
  0
DICTIONARYVAR
  5
222
102
{ACAD_REACTORS
330
21A
102
}
330
21A
100
DictionaryVariables
280
     0
  1
1
  0
DICTIONARYVAR
  5
221
102
{ACAD_REACTORS
330
21A
102
}
330
21A
100
DictionaryVariables
280
     0
  1
1
  0
DICTIONARYVAR
  5
220
102
{ACAD_REACTORS
330
21A
102
}
330
21A
100
DictionaryVariables
280
     0
  1
0
  0
DICTIONARYVAR
  5
21D
102
{ACAD_REACTORS
330
21A
102
}
330
21A
100
DictionaryVariables
280
     0
  1
1
  0
DICTIONARYVAR
  5
21F
102
{ACAD_REACTORS
330
21A
102
}
330
21A
100
DictionaryVariables
280
     0
  1
127
  0
OBJECT_PTR
  5
219
102
{ACAD_REACTORS
330
1F5
102
}
330
1F5
1001
DCO15
1000
jet_dbsamples..."elementy wiezby"(_el_wzb_Left_nazw_romans16)
1000
nazw_el_wiezb
1040
1.0
1040
1.0
1040
0.0
1040
0.0
1040
0.0
1040
0.0
1040
0.0
1040
15.0
1071
        0
1071
      256
1071
        7
1071
        5
1071
        1
1000
ROMANS
1000
ByLayer
1000
#(nazw_el_wiezb)
  0
OBJECT_PTR
  5
218
102
{ACAD_REACTORS
330
1F5
102
}
330
1F5
1001
DCO15
1000
jet_dbsamples..."elementy wiezby"(_elementy_wiezby_SKROT_Romans16)
1000
skrot_el_wiezb
1040
1.0
1040
1.0
1040
0.0
1040
0.0
1040
0.0
1040
0.0
1040
0.0
1040
16.0
1071
        0
1071
      256
1071
        9
1071
        5
1071
        1
1000
ROMANS
1000
ByLayer
1000
#(skrot_el_wiezb)
  0
OBJECT_PTR
  5
217
102
{ACAD_REACTORS
330
1F5
102
}
330
1F5
1001
DCO15
1000
jet_dbsamples..."materialy przegrod pl"(_materialy_przegrod_pl_Label1)
1000
nazw_mat
1040
1.0
1040
1.0
1040
0.0
1040
0.0
1040
0.0
1040
0.0
1040
0.0
1040
17.0
1071
        0
1071
      256
1071
        7
1071
        5
1071
        1
1000
ROMANS
1000
ByLayer
1000
#(nazw_mat)
  0
OBJECT_PTR
  5
216
102
{ACAD_REACTORS
330
1F5
102
}
330
1F5
1001
DCO15
1000
jet_dbsamples..."nazwy przegrod pl"(_nazwy_przegrod_romans18)
1000
nzw_przegrody
1040
1.0
1040
1.0
1040
0.0
1040
0.0
1040
0.0
1040
0.0
1040
0.0
1040
17.0
1071
        0
1071
      256
1071
        7
1071
        5
1071
        1
1000
ROMANS
1000
ByLayer
1000
{\L\C2;#(nzw_przegrody)}
  0
OBJECT_PTR
  5
215
102
{ACAD_REACTORS
330
1F5
102
}
330
1F5
1001
DCO15
1000
jet_dbsamples..."nazwy rysunkow"(_nazwy_rysunkow_Arial37)
1000
1linia
1000
2linia
1000
3linia
1040
1.0
1040
1.0
1040
0.0
1040
0.0
1040
0.0
1040
0.0
1040
0.0
1040
37.0
1071
        0
1071
      256
1071
        1
1071
        5
1071
        1
1000
ROMANS
1000
ByLayer
1000
{\fArial|b0|i0|c238|p34;#(1linia)\P#(2linia)\P#(3linia)}
  0
OBJECT_PTR
  5
214
102
{ACAD_REACTORS
330
1F5
102
}
330
1F5
1001
DCO15
1000
jet_dbsamples..."nazwy rysunkow"(_nazwy_rysunkow_Romans18)
1000
1linia
1000
2linia
1000
3linia
1040
1.0
1040
1.0
1040
0.0
1040
0.0
1040
0.0
1040
0.0
1040
0.0
1040
18.0
1071
        0
1071
      256
1071
        2
1071
        5
1071
        1
1000
ROMANS
1000
ByLayer
1000
{\Fromans.shx|c238;#(1linia)\P#(2linia)\P#(3linia)}
  0
OBJECT_PTR
  5
213
102
{ACAD_REACTORS
330
1F5
102
}
330
1F5
1001
DCO15
1000
jet_dbsamples..."opisy rozne II"(_opisy_rozne_II_Label1)
1000
opis różny
1040
1.0
1040
1.0
1040
0.0
1040
0.0
1040
0.0
1040
0.0
1040
0.0
1040
10.0
1071
        0
1071
      256
1071
        1
1071
        5
1071
        1
1000
ROMANS
1000
ByLayer
1000
#(opis różny)
  0
OBJECT_PTR
  5
212
102
{ACAD_REACTORS
330
1F5
102
}
330
1F5
1001
DCO15
1000
jet_dbsamples..."opisy rozne II"(_opisy_rozne_II_Link1Label1)
1000
opis różny
1040
1.0
1040
1.0
1040
0.0
1040
0.0
1040
0.0
1040
0.0
1040
0.0
1040
10.0
1071
        0
1071
      256
1071
        1
1071
        5
1071
        1
1000
ROMANS
1000
ByLayer
1000
#(opis różny)
  0
OBJECT_PTR
  5
211
102
{ACAD_REACTORS
330
1F5
102
}
330
1F5
1001
DCO15
1000
jet_dbsamples..."posadzki do zestawienia pomieszczen"(_posadzki_do_zestawienia_pomieszczen_Romans17)
1000
nazwa_pos
1040
1.0
1040
1.0
1040
0.0
1040
0.0
1040
0.0
1040
0.0
1040
0.0
1040
17.0
1071
        0
1071
      256
1071
        7
1071
        5
1071
        1
1000
ROMANS
1000
ByLayer
1000
#(nazwa_pos)
  0
OBJECT_PTR
  5
210
102
{ACAD_REACTORS
330
1F5
102
}
330
1F5
1001
DCO15
1000
jet_dbsamples..."rozne opisy rys"(_rozne_opisy_rys_R16_right)
1000
1L
1000
2L
1000
3L
1000
4L
1000
5L
1040
1.0
1040
1.0
1040
0.0
1040
0.0
1040
0.0
1040
0.0
1040
0.0
1040
16.0
1071
        0
1071
      256
1071
        3
1071
        5
1071
        1
1000
ROMANS
1000
ByLayer
1000
#(1L)\P#(2L)\P#(3L)\P#(4L)\P#(5L)
  0
OBJECT_PTR
  5
20F
102
{ACAD_REACTORS
330
1F5
102
}
330
1F5
1001
DCO15
1000
jet_dbsamples..."rozne opisy rys"(_rozne_opisy_rys_Romans12)
1000
1L
1000
2L
1000
3L
1000
4L
1000
5L
1040
1.0
1040
1.0
1040
0.0
1040
0.0
1040
0.0
1040
0.0
1040
0.0
1040
13.0
1071
        0
1071
      256
1071
        1
1071
        5
1071
        1
1000
ROMANS
1000
ByLayer
1000
#(1L)\P#(2L)\P#(3L)\P#(4L)\P#(5L)
  0
OBJECT_PTR
  5
20E
102
{ACAD_REACTORS
330
1F5
102
}
330
1F5
1001
DCO15
1000
jet_dbsamples..."rozne opisy rys"(_rozne_opisy_rys_Romans16)
1000
1L
1000
2L
1000
3L
1000
4L
1000
5L
1040
1.0
1040
1.0
1040
0.0
1040
0.0
1040
0.0
1040
0.0
1040
0.0
1040
16.0
1071
        0
1071
      256
1071
        1
1071
        5
1071
        1
1000
ROMANS
1000
ByLayer
1000
#(1L)\P#(2L)\P#(3L)\P#(4L)\P#(5L)
  0
OBJECT_PTR
  5
20D
102
{ACAD_REACTORS
330
1F5
102
}
330
1F5
1001
DCO15
1000
jet_dbsamples..."tabelka - inform i etykiety"(_tabelka_-_inform_i_etykiety_Romans13)
1000
1linia
1000
2linia_ewentualna
1000
3linia_ewentualna
1040
1.0
1040
1.0
1040
0.0
1040
0.0
1040
0.0
1040
0.0
1040
0.0
1040
13.0
1071
        0
1071
      256
1071
        1
1071
        5
1071
        1
1000
ROMANS
1000
ByLayer
1000
#(1linia)\P#(2linia_ewentualna)\P#(3linia_ewentualna)
  0
OBJECT_PTR
  5
20C
102
{ACAD_REACTORS
330
1F5
102
}
330
1F5
1001
DCO15
1000
jet_dbsamples..."tabelka - inform i etykiety"(_tabelka_Arial15-center)
1000
1linia
1000
2linia_ewentualna
1000
3linia_ewentualna
1040
1.0
1040
1.0
1040
0.0
1040
0.0
1040
0.0
1040
0.0
1040
0.0
1040
15.0
1071
        0
1071
      256
1071
        2
1071
        5
1071
        1
1000
ROMANS
1000
ByLayer
1000
{\fArial|b0|i0|c238|p34;#(1linia)\P#(2linia_ewentualna)\P#(3linia_ewentualna)}
  0
OBJECT_PTR
  5
20B
102
{ACAD_REACTORS
330
1F5
102
}
330
1F5
1001
DCO15
1000
jet_dbsamples..."tabelka - inform i etykiety"(_tabelka_Arial151)
1000
1linia
1040
1.0
1040
1.0
1040
0.0
1040
0.0
1040
0.0
1040
0.0
1040
0.0
1040
15.0
1071
        0
1071
      256
1071
        1
1071
        5
1071
        1
1000
ARIAL
1000
ByLayer
1000
{\fArial|b0|i0|c238|p34;#(1linia)}
  0
OBJECT_PTR
  5
20A
102
{ACAD_REACTORS
330
1F5
102
}
330
1F5
1001
DCO15
1000
jet_dbsamples..."tabelka - inform i etykiety"(_tabelka_Romans 10)
1000
1linia
1000
2linia_ewentualna
1000
3linia_ewentualna
1040
1.0
1040
1.0
1040
0.0
1040
0.0
1040
0.0
1040
0.0
1040
0.0
1040
10.0
1071
        0
1071
      256
1071
        1
1071
        5
1071
        1
1000
ARIAL
1000
ByLayer
1000
#(1linia)\P#(2linia_ewentualna)\P#(3linia_ewentualna)
  0
OBJECT_PTR
  5
209
102
{ACAD_REACTORS
330
1F5
102
}
330
1F5
1001
DCO15
1000
jet_dbsamples..."tabelka - inform i etykiety"(_tabelka_Romans13)
1000
1linia
1000
2linia_ewentualna
1000
3linia_ewentualna
1040
1.0
1040
1.0
1040
0.0
1040
0.0
1040
0.0
1040
0.0
1040
0.0
1040
13.0
1071
        0
1071
      256
1071
        1
1071
        5
1071
        1
1000
ARIAL
1000
ByLayer
1000
#(1linia)\P#(2linia_ewentualna)\P#(3linia_ewentualna)
  0
OBJECT_PTR
  5
208
102
{ACAD_REACTORS
330
1F5
102
}
330
1F5
1001
DCO15
1000
jet_dbsamples..."tabelka - inform i etykiety"(_tabelka_Romans19)
1000
1linia
1000
2linia_ewentualna
1000
3linia_ewentualna
1040
1.0
1040
1.0
1040
0.0
1040
0.0
1040
0.0
1040
0.0
1040
0.0
1040
19.0
1071
        0
1071
      256
1071
        2
1071
        5
1071
        1
1000
ARIAL
1000
ByLayer
1000
#(1linia)\P#(2linia_ewentualna)\P#(3linia_ewentualna)
  0
OBJECT_PTR
  5
207
102
{ACAD_REACTORS
330
1F5
102
}
330
1F5
1001
DCO15
1000
jet_dbsamples...ALFABET(ALFABET-Arial20)
1000
liter_alf
1040
1.0
1040
1.0
1040
0.0
1040
0.0
1040
0.0
1040
0.0
1040
0.0
1040
20.0
1071
        0
1071
      256
1071
        7
1071
        5
1071
        1
1000
ARIAL
1000
ByLayer
1000
{\fArial|b0|i0|c238|p34;#(liter_alf)}
  0
OBJECT_PTR
  5
206
102
{ACAD_REACTORS
330
1F5
102
}
330
1F5
1001
DCO15
1000
jet_dbsamples...ALFABET(ALFABET-Arial26)
1000
liter_alf
1040
1.0
1040
1.0
1040
0.0
1040
0.0
1040
0.0
1040
0.0
1040
0.0
1040
26.0
1071
        0
1071
      256
1071
        7
1071
        5
1071
        1
1000
ARIAL
1000
ByLayer
1000
{\fArial|b0|i0|c238|p34;\C140;#(liter_alf)}
  0
OBJECT_PTR
  5
205
102
{ACAD_REACTORS
330
1F5
102
}
330
1F5
1001
DCO15
1000
jet_dbsamples...ALFABET(ALFABET-Arial37)
1000
liter_alf
1040
1.0
1040
1.0
1040
0.0
1040
0.0
1040
0.0
1040
0.0
1040
0.0
1040
37.0
1071
        0
1071
      256
1071
        7
1071
        5
1071
        1
1000
ARIAL
1000
ByLayer
1000
{\fArial|b0|i0|c238|p34;#(liter_alf)}
  0
OBJECT_PTR
  5
204
102
{ACAD_REACTORS
330
1F5
102
}
330
1F5
1001
DCO15
1000
jet_dbsamples..."uwagi ogolne na arkuszu"(Arial_27)
1000
1naglowek
1000
1linia
1000
2linia
1000
3linia
1000
4linia
1000
5linia
1000
6linia
1000
7linia
1000
8linia
1000
9linia
1000
10linia
1000
11linia
1000
12linia
1040
1.0
1040
1.0
1040
0.0
1040
0.0
1040
0.0
1040
0.0
1040
0.0
1040
26.0
1071
        0
1071
      256
1071
        1
1071
        5
1071
        1
1000
ARIAL
1000
ByLayer
1000
{\fArial|b0|i0|c238|p34;#(1naglowek)\P#(1linia)\P#(2linia)\P#(3linia)\P#(4linia)\P#(5linia)\P#(6linia)\P#(7linia)\P#(8linia)\P#(9linia)\P#(10linia)\P#(11linia)\P#(12linia)}
  0
OBJECT_PTR
  5
203
102
{ACAD_REACTORS
330
1F5
102
}
330
1F5
1001
DCO15
1000
jet_dbsamples...jednostki(jednostki-Arial18)
1000
jedn
1040
1.0
1040
1.0
1040
0.0
1040
0.0
1040
0.0
1040
0.0
1040
0.0
1040
18.0
1071
        0
1071
      256
1071
        7
1071
        5
1071
        1
1000
ARIAL
1000
ByLayer
1000
{\fArial|b0|i0|c238|p34;#(jedn)}
  0
OBJECT_PTR
  5
202
102
{ACAD_REACTORS
330
1F5
102
}
330
1F5
1001
DCO15
1000
jet_dbsamples...jednostki(jednostki-Arial30)
1000
jedn
1040
1.0
1040
1.0
1040
0.0
1040
0.0
1040
0.0
1040
0.0
1040
0.0
1040
30.0
1071
        0
1071
      256
1071
        7
1071
        5
1071
        1
1000
ARIAL
1000
ByLayer
1000
{\fArial|b0|i0|c238|p34;#(jedn)}
  0
OBJECT_PTR
  5
201
102
{ACAD_REACTORS
330
1F5
102
}
330
1F5
1001
DCO15
1000
jet_dbsamples...jednostki(jednostki-Romans16)
1000
jedn
1040
1.0
1040
1.0
1040
0.0
1040
0.0
1040
0.0
1040
0.0
1040
0.0
1040
16.0
1071
        0
1071
      256
1071
        7
1071
        5
1071
        1
1000
ARIAL
1000
ByLayer
1000
#(jedn)
  0
OBJECT_PTR
  5
200
102
{ACAD_REACTORS
330
1F5
102
}
330
1F5
1001
DCO15
1000
jet_dbsamples...miesiace(miesiace-Romans17)
1000
nzw_mies
1040
1.0
1040
1.0
1040
0.0
1040
0.0
1040
0.0
1040
0.0
1040
0.0
1040
17.0
1071
        0
1071
      256
1071
        1
1071
        5
1071
        1
1000
ARIAL
1000
ByLayer
1000
#(nzw_mies)
  0
OBJECT_PTR
  5
1FF
102
{ACAD_REACTORS
330
1F5
102
}
330
1F5
1001
DCO15
1000
jet_dbsamples...pomieszczenia(pomieszczenia-Arial 15)
1000
nazwa
1040
1.0
1040
1.0
1040
0.0
1040
0.0
1040
0.0
1040
0.0
1040
0.0
1040
15.0
1071
        0
1071
      256
1071
        8
1071
        5
1071
        1
1000
ARIAL
1000
ByLayer
1000
{\fArial|b0|i0|c238|p34;#(nazwa)}
  0
OBJECT_PTR
  5
1FE
102
{ACAD_REACTORS
330
1F5
102
}
330
1F5
1001
DCO15
1000
jet_dbsamples...pomieszczenia(pomieszczenia-Romans17)
1000
nazwa
1040
1.0
1040
1.0
1040
0.0
1040
0.0
1040
0.0
1040
0.0
1040
0.0
1040
17.0
1071
        0
1071
      256
1071
        7
1071
        5
1071
        1
1000
ARIAL
1000
ByLayer
1000
#(nazwa)
  0
OBJECT_PTR
  5
1FD
102
{ACAD_REACTORS
330
1F5
102
}
330
1F5
1001
DCO15
1000
jet_dbsamples..."elementy wiezby"(romans16)
1000
nazw_el_wiezb
1040
1.0
1040
1.0
1040
0.0
1040
0.0
1040
0.0
1040
0.0
1040
0.0
1040
16.0
1071
        0
1071
      256
1071
        1
1071
        5
1071
        1
1000
ARIAL
1000
ByLayer
1000
#(nazw_el_wiezb)
  0
OBJECT_PTR
  5
1FC
102
{ACAD_REACTORS
330
1F5
102
}
330
1F5
1001
DCO15
1000
jet_dbsamples..."uwagi ogolne na arkuszu"(Romans_17)
1000
1naglowek
1000
1linia
1000
2linia
1000
3linia
1000
4linia
1000
5linia
1000
6linia
1000
7linia
1000
8linia
1000
9linia
1000
10linia
1000
11linia
1000
12linia
1040
1.0
1040
1.0
1040
0.0
1040
0.0
1040
0.0
1040
0.0
1040
0.0
1040
17.0
1071
        0
1071
      256
1071
        1
1071
        5
1071
        1
1000
ARIAL
1000
ByLayer
1000
#(1naglowek)\P#(1linia)\P#(2linia)\P#(3linia)\P#(4linia)\P#(5linia)\P#(6linia)\P#(7linia)\P#(8linia)\P#(9linia)\P#(10linia)\P#(11linia)\P#(12linia)
  0
OBJECT_PTR
  5
1FB
102
{ACAD_REACTORS
330
1F5
102
}
330
1F5
1001
DCO15
1000
jet_dbsamples...stolarka(stolarka-Arial14)
1000
STOL_TKST
1000
STOL_TKST_2linia
1040
1.0
1040
1.0
1040
0.0
1040
0.0
1040
0.0
1040
0.0
1040
0.0
1040
14.0
1071
        0
1071
      256
1071
        1
1071
        5
1071
        1
1000
ARIAL
1000
ByLayer
1000
{\fArial|b0|i0|c238|p34;#(STOL_TKST)\P#(STOL_TKST_2linia)}
  0
OBJECT_PTR
  5
1FA
102
{ACAD_REACTORS
330
1F5
102
}
330
1F5
1001
DCO15
1000
jet_dbsamples...stolarka(stolarka-Romans1607)
1000
STOL_TKST
1000
STOL_TKST_2linia
1040
1.0
1040
1.0
1040
0.0
1040
0.0
1040
0.0
1040
0.0
1040
0.0
1040
16.0
1071
        0
1071
      256
1071
        5
1071
        5
1071
        1
1000
ARIAL
1000
ByLayer
1000
#(STOL_TKST)\P#(STOL_TKST_2linia)
  0
OBJECT_PTR
  5
1F9
102
{ACAD_REACTORS
330
1F5
102
}
330
1F5
1001
DCO15
1000
jet_dbsamples...stolarka(stolarka-Romans1608)
1000
STOL_TKST
1000
STOL_TKST_2linia
1040
1.0
1040
1.0
1040
0.0
1040
0.0
1040
0.0
1040
0.0
1040
0.0
1040
16.0
1071
        0
1071
      256
1071
        5
1071
        5
1071
        1
1000
ROMANS
1000
ByLayer
1000
#(STOL_TKST)\P#(STOL_TKST_2linia)
  0
OBJECT_PTR
  5
1F8
102
{ACAD_REACTORS
330
1F5
102
}
330
1F5
1001
DCO15
1000
jet_dbsamples...stolarka(stolarkaLabel1)
1000
STOL_TKST
1000
STOL_TKST_2linia
1040
1.0
1040
1.0
1040
0.0
1040
0.0
1040
0.0
1040
0.0
1040
0.0
1040
25.0
1071
        0
1071
      256
1071
        1
1071
        5
1071
        1
1000
ROMANS
1000
ByLayer
1000
{\fArial|b0|i0|c238|p34;#(STOL_TKST)\P#(STOL_TKST_2linia)}
  0
OBJECT_PTR
  5
1F7
102
{ACAD_REACTORS
330
1F5
102
}
330
1F5
1001
DCO15
1000
jet_dbsamples...tbl_PRZEGRODY(tbl_PRZEGRODY)
1000
nazwa przegrody
1000
1w
1000
2w
1000
3w
1000
4w
1000
5w
1000
6w
1000
7w
1000
8w
1000
9w
1000
10w
1000
11w
1000
12w
1000
13w
1000
14w
1000
15w
1000
16w
1040
1.0
1040
1.0
1040
0.0
1040
0.0
1040
0.0
1040
0.0
1040
0.0
1040
17.0
1071
        0
1071
      256
1071
        1
1071
        5
1071
        1
1000
ROMANS
1000
ByLayer
1000
{\Fromans.shx|c238;\L\C2;#(nazwa przegrody)\C4;\P}#(1w)\P#(2w)\P#(3w)\P#(4w)\P#(5w)\P#(6w)\P#(7w)\P#(8w)\P#(9w)\P#(10w)\P#(11w)\P#(12w)\P#(13w)\P#(14w)\P#(15w)\P#(16w)
  0
OBJECT_PTR
  5
1F6
102
{ACAD_REACTORS
330
1F5
102
}
330
1F5
1001
DCO15
1000
jet_dbsamples..."uwagi ogolne na arkuszu"(uwag_og_na_ark_Arial18)
1000
1naglowek
1000
1linia
1000
2linia
1000
3linia
1000
4linia
1000
5linia
1000
6linia
1000
7linia
1000
8linia
1000
9linia
1000
10linia
1000
11linia
1000
12linia
1040
1.0
1040
1.0
1040
0.0
1040
0.0
1040
0.0
1040
0.0
1040
0.0
1040
18.0
1071
        0
1071
      256
1071
        1
1071
        5
1071
        1
1000
ROMANS
1000
ByLayer
1000
{\fArial|b0|i0|c238|p34;#(1naglowek)\P#(1linia)\P#(2linia)\P#(3linia)\P#(4linia)\P#(5linia)\P#(6linia)\P#(7linia)\P#(8linia)\P#(9linia)\P#(10linia)\P#(11linia)\P#(12linia)}
  0
OBJECT_PTR
  5
1F4
102
{ACAD_REACTORS
330
1E4
102
}
330
1E4
1001
DCO15
1000
jet_dbsamples..."elementy wiezby"(_elementy_wiezby_Link1)
1000
IDENTYFIKATOR
1000

1000

1070
     4
1070
     0
1070
     0
1070
     0
1070
  1024
  0
OBJECT_PTR
  5
1F3
102
{ACAD_REACTORS
330
1E4
102
}
330
1E4
1001
DCO15
1000
jet_dbsamples..."materialy przegrod pl"(_materialy_przegrod_pl_Link1)
1000
IDENTYFIKATOR
1000

1000

1070
     4
1070
     0
1070
     0
1070
     0
1070
  1024
  0
OBJECT_PTR
  5
1F2
102
{ACAD_REACTORS
330
1E4
102
}
330
1E4
1001
DCO15
1000
jet_dbsamples..."nazwy przegrod pl"(_nazwy_przegrod_pl_Link1)
1000
IDENTYFIKATOR
1000

1000

1070
     4
1070
     0
1070
     0
1070
     0
1070
  1024
  0
OBJECT_PTR
  5
1F1
102
{ACAD_REACTORS
330
1E4
102
}
330
1E4
1001
DCO15
1000
jet_dbsamples..."nazwy rysunkow"(_nazwy_rysunkow_Arial37)
1000
IDENTYFIKATOR
1000

1000

1070
     4
1070
     0
1070
     0
1070
     0
1070
  1024
  0
OBJECT_PTR
  5
1F0
102
{ACAD_REACTORS
330
1E4
102
}
330
1E4
1001
DCO15
1000
jet_dbsamples..."opisy rozne II"(_opisy_rozne_II_Link1)
1000
"opis różny"
1000
1250
1000
ASCII
1070
    12
1070
   200
1070
     0
1070
     0
1070
  1024
  0
OBJECT_PTR
  5
1EF
102
{ACAD_REACTORS
330
1E4
102
}
330
1E4
1001
DCO15
1000
jet_dbsamples..."opisy rozne II"(_opisy_rozne_II_Link2)
1000
IDENTYFIKATOR
1000

1000

1070
     4
1070
     0
1070
     0
1070
     0
1070
  1024
  0
OBJECT_PTR
  5
1EE
102
{ACAD_REACTORS
330
1E4
102
}
330
1E4
1001
DCO15
1000
jet_dbsamples..."posadzki do zestawienia pomieszczen"(_posadzki_do_zestawienia_pomieszczen_Link1)
1000
IDENTYFIKATOR
1000

1000

1070
     4
1070
     0
1070
     0
1070
     0
1070
  1024
  0
OBJECT_PTR
  5
1ED
102
{ACAD_REACTORS
330
1E4
102
}
330
1E4
1001
DCO15
1000
jet_dbsamples..."rozne opisy rys"(_rozne_opisy_rys_Link1)
1000
IDENTYFIKATOR
1000

1000

1070
     4
1070
     0
1070
     0
1070
     0
1070
  1024
  0
OBJECT_PTR
  5
1EC
102
{ACAD_REACTORS
330
1E4
102
}
330
1E4
1001
DCO15
1000
jet_dbsamples..."tabelka - inform i etykiety"(_tabelka_-_inform_i_etykiety_Link1)
1000
IDENTYFIKATOR
1000

1000

1070
     4
1070
     0
1070
     0
1070
     0
1070
  1024
  0
OBJECT_PTR
  5
1EB
102
{ACAD_REACTORS
330
1E4
102
}
330
1E4
1001
DCO15
1000
jet_dbsamples..."uwagi ogolne na arkuszu"(_uwagi_ogolne_na_arkuszu_Link1)
1000
IDENTYFIKATOR
1000

1000

1070
     4
1070
     0
1070
     0
1070
     0
1070
  1024
  0
OBJECT_PTR
  5
1EA
102
{ACAD_REACTORS
330
1E4
102
}
330
1E4
1001
DCO15
1000
jet_dbsamples...ALFABET(ALFABETLink1)
1000
IDENTYFIKATOR
1000

1000

1070
     4
1070
     0
1070
     0
1070
     0
1070
  1024
  0
OBJECT_PTR
  5
1E9
102
{ACAD_REACTORS
330
1E4
102
}
330
1E4
1001
DCO15
1000
jet_dbsamples...jednostki(jednostkiLink1)
1000
IDENTYFIKATOR
1000

1000

1070
     4
1070
     0
1070
     0
1070
     0
1070
  1024
  0
OBJECT_PTR
  5
1E8
102
{ACAD_REACTORS
330
1E4
102
}
330
1E4
1001
DCO15
1000
jet_dbsamples...miesiace(miesiaceLink1)
1000
IDENTYFIKATOR
1000

1000

1070
     4
1070
     0
1070
     0
1070
     0
1070
  1024
  0
OBJECT_PTR
  5
1E7
102
{ACAD_REACTORS
330
1E4
102
}
330
1E4
1001
DCO15
1000
jet_dbsamples...pomieszczenia(pomieszczeniaLink1)
1000
IDENTYFIKATOR
1000

1000

1070
     4
1070
     0
1070
     0
1070
     0
1070
  1024
  0
OBJECT_PTR
  5
1E6
102
{ACAD_REACTORS
330
1E4
102
}
330
1E4
1001
DCO15
1000
jet_dbsamples...stolarka(stolarkaLink1)
1000
IDENTYFIKATOR
1000

1000

1070
     4
1070
     0
1070
     0
1070
     0
1070
  1024
  0
OBJECT_PTR
  5
1E5
102
{ACAD_REACTORS
330
1E4
102
}
330
1E4
1001
DCO15
1000
jet_dbsamples...tbl_PRZEGRODY(tbl_PRZEGRODYLink1)
1000
IDENTYFIKATOR
1000

1000

1070
     4
1070
     0
1070
     0
1070
     0
1070
  1024
  0
DICTIONARY
  5
1A8
330
1A7
100
AcDbDictionary
280
     1
281
     1
  3
ACAD_XREC_ROUNDTRIP
360
234
  3
ADSK_XREC_LAYOUTTHUMBNAIL
360
1A9
  0
DICTIONARY
  5
22E
330
19A
100
AcDbDictionary
280
     1
281
     1
  3
ACAD_XREC_ROUNDTRIP
360
22F
  0
DICTIONARY
  5
237
330
1C3
100
AcDbDictionary
280
     1
281
     1
  3
ACAD_XREC_ROUNDTRIP
360
238
  0
DICTIONARY
  5
235
330
1C2
100
AcDbDictionary
280
     1
281
     1
  3
ACAD_XREC_ROUNDTRIP
360
236
  0
DICTIONARY
  5
228
330
C
100
AcDbDictionary
280
     1
281
     1
  3
ACAD_XREC_ROUNDTRIP
360
229
  0
DICTIONARY
  5
1C9
330
1C8
100
AcDbDictionary
280
     1
281
     1
  3
ACAD_ROUNDTRIP_2008_TABLESTYLE_CELLSTYLEMAP
360
225
  3
ACAD_XREC_ROUNDTRIP
360
239
  0
XRECORD
  5
234
102
{ACAD_REACTORS
330
1A8
102
}
330
1A8
100
AcDbXrecord
280
     1
102
SHADEPLOT
 70
     0
102
SHADEPLOTRESLEVEL
 70
     2
102
SHADEPLOTCUSTOMDPI
 70
   300
  0
XRECORD
  5
1A9
102
{ACAD_REACTORS
330
1A8
102
}
330
1A8
100
AcDbXrecord
280
     1
310
28000000B40000008A000000010008000000000008610000000000000000000000010000000000000000000000000000FFFFFF000000000000000000000000000000000000000000000000000000000000000000330000006600000099000000CC000000FF00000000330000333300006633000099330000CC330000FF3300
310
0000660000336600006666000099660000CC660000FF66000000990000339900006699000099990000CC990000FF99000000CC000033CC000066CC000099CC0000CCCC0000FFCC000000FF000033FF000066FF000099FF0000CCFF0000FFFF000000003300330033006600330099003300CC003300FF003300003333003333
310
33006633330099333300CC333300FF33330000663300336633006666330099663300CC663300FF66330000993300339933006699330099993300CC993300FF99330000CC330033CC330066CC330099CC3300CCCC3300FFCC330000FF330033FF330066FF330099FF3300CCFF3300FFFF330000006600330066006600660099
310
006600CC006600FF00660000336600333366006633660099336600CC336600FF33660000666600336666006666660099666600CC666600FF66660000996600339966006699660099996600CC996600FF99660000CC660033CC660066CC660099CC6600CCCC6600FFCC660000FF660033FF660066FF660099FF6600CCFF6600
310
FFFF660000009900330099006600990099009900CC009900FF00990000339900333399006633990099339900CC339900FF33990000669900336699006666990099669900CC669900FF66990000999900339999006699990099999900CC999900FF99990000CC990033CC990066CC990099CC9900CCCC9900FFCC990000FF99
310
0033FF990066FF990099FF9900CCFF9900FFFF99000000CC003300CC006600CC009900CC00CC00CC00FF00CC000033CC003333CC006633CC009933CC00CC33CC00FF33CC000066CC003366CC006666CC009966CC00CC66CC00FF66CC000099CC003399CC006699CC009999CC00CC99CC00FF99CC0000CCCC0033CCCC0066CC
310
CC0099CCCC00CCCCCC00FFCCCC0000FFCC0033FFCC0066FFCC0099FFCC00CCFFCC00FFFFCC000000FF003300FF006600FF009900FF00CC00FF00FF00FF000033FF003333FF006633FF009933FF00CC33FF00FF33FF000066FF003366FF006666FF009966FF00CC66FF00FF66FF000099FF003399FF006699FF009999FF00CC
310
99FF00FF99FF0000CCFF0033CCFF0066CCFF0099CCFF00CCCCFF00FFCCFF0000FFFF0033FFFF0066FFFF0099FFFF00CCFFFF00FFFFFF00000000000D0D0D001A1A1A00282828003535350043434300505050005D5D5D006B6B6B00787878008686860093939300A1A1A100AEAEAE00BBBBBB00C9C9C900D6D6D600E4E4E400
310
F1F1F100FFFFFF0000000000000000000000000000000000000000000000000000000000000000000000000000000000F5F5F5F5F5F5F5F5F5F5F5F5F5F5F5F5F5F5F5F5F5F5F5F5F5F5F5F5F5F5F5F5F5F5F5F5F5F5F5F5F5F5F5F5F5F5F5F5F5F5F5F5F5F5F5F5F5F5F5F5F5F5F5F5F5F5F5F5F5F5F5F5F5F5F5F5F5F5F5
310
F5F5F5F5F5F5F5F5F5F5F5F5F5F5F5F5F5F5F5F5F5F5F5F5F5F5F5F5F5F5F5F5F5F5F5F5F5F5F5F5F5F5F5F5F5F5F5F5F5F5F5F5F5F5F5F5F5F5F5F5F5F5F5F5F5F5F5F5F5F5F5F5F5F5F5F5F5F5F5F5F5F5F5F5F5F5F5F5F5F5F5F5F5F5F5F5F5F5F5F5EFF5E2E2E2E2E2E2E2E2E2E2E2E2E2E2E2E2E2E2E2E2E2E2E2E2E2
310
E2E2E2E2E2E2E2E2E2E2E2E2E2E2E2E2E2E2E2E2E2E2E2E2E2E2E2E2E2E2E2E2E2E2E2E2E2E2E2E2E2E2E2E2E2E2E2E2E2E2E2E2E2E2E2E2E2E2E2E2E2E2E2E2E2E2E2E2E2E2E2E2E2E2E2E2E2E2E2E2E2E2E2E2E2E2E2E2E2E2E2E2E2E2E2E2E2E2E2E2E2E2E2E2E2E2E2E2E2E2E2E2E2E2E2E2E2E2E2E2E2E2E2E2E2E2E2
310
E2E2E2E2E2E2E2E2E2E2E2E2E2E2E2E2E2E2E2E2E2E2E2E2F5F5EFF5E2E2E2E2E2E2E2E2E2E2E2E2E2E2E2E2E2E2E2E2E2E2E2E2E2E2E2E2E2E2E2E2E2E2E2E2E2E2E2E2E2E2E2E2E2E2E2E2E2E2E2E2E2E2E2E2E2E2E2E2E2E2E2E2E2E2E2E2E2E2E2E2E2E2E2E2E2E2E2E2E2E2E2E2E2E2E2E2E2E2E2E2E2E2E2E2E2E2E2
310
E2E2E2E2E2E2E2E2E2E2E2E2E2E2E2E2E2E2E2E2E2E2E2E2E2E2E2E2E2E2E2E2E2E2E2E2E2E2E2E2E2E2E2E2E2E2E2E2E2E2E2E2E2E2E2E2E2E2E2E2E2E2E2E2E2E2E2E2E2E2E2E2E2E2E2E2E2F5F5EFF5E2E2E2E2E2E2E2E2E2E2E2E2E2E2E2E2E2E2E2E2E2E2E2E2E2E2E2E2E2E2E2E2E2E2E2E2E2E2E2E2E2E2E2E2E2E2
310
E2E2E2E2E2E2E2E2E2E2E2E2E2E2E2E2E2E2E2E2E2E2E2E2E2E2E2E2E2E2E2E2E2E2E2E2E2E2E2E2E2E2E2E2E2E2E2E2E2E2E2E2E2E2E2E2E2E2E2E2E2E2E2E2E2E2E2E2E2E2E2E2E2E2E2E2E2E2E2E2E2E2E2E2E2E2E2E2E2E2E2E2E2E2E2E2E2E2E2E2E2E2E2E2E2E2E2E2E2E2E2E2E2E2E2E2E2E2E2E2E2E2E2E2E2E2E2
310
E2E2E2F5F5EFF5E2E2E2F5F5F5F5F5F5F5F5E2E2E2E2E2E2E2E2E2F5F5F5F5F5F5F5F5F5F5F5F5F5F5F5E2E2E2E2E2E2E2E2E2F5F5F5F5F5F5F5F5F5F5F5F5F5F5F5F5E2E2E2E2E2E2E2E2F5F5F5F5F5F5F5F5F5F5F5F5F5F5F5F5E2E2E2E2E2E2E2E2F5F5F5F5F5F5F5F5F5F5F5F5F5F5F5F5E2E2E2E2E2E2E2E2F5F5F5F5
310
F5F5F5F5F5F5F5F5F5F5F5F5E2E2E2E2E2E2E2E2E2F5F5F5F5F5F5F5F5F5F5F5F5F5F5F5E2E2E2E2E2E2E2E2E2F5F5F5F5F5F5F5F5E2E2E2F5F5EFF5E2E2E2F5E2E2E2E2E2E2E2E2E2E2E2E2E2E2E2E2E2E2E2E2E2E2E2E2E2E2E2E2E2E2E2E2E2E2E2E2E2E2E2E2E2E2E2E2E2E2E2E2E2E2E2E2E2E2E2E2E2E2E2E2E2E2E2
310
E2E2E2E2E2E2E2E2E2E2E2E2E2E2E2E2E2E2E2E2E2E2E2E2E2E2E2E2E2E2E2E2E2E2E2E2E2E2E2E2E2E2E2E2E2E2E2E2E2E2E2E2E2E2E2E2E2E2E2E2E2E2E2E2E2E2E2E2E2E2E2E2E2E2E2E2E2E2E2E2E2E2E2E2E2E2E2E2E2E2E2E2E2E2E2E2E2E2E2E2E2E2E2E2E2F5E2E2E2F5F5EFF5E2E2E2F5E2E2E2E2E2E2E2E2E2E2
310
E2E2E2E2E2E2E2E2E2E2E2E2E2E2E2E2E2E2E2E2E2E2E2E2E2E2E2E2E2E2E2E2E2E2E2E2E2E2E2E2E2E2E2E2E2E2E2E2E2E2E2E2E2E2E2E2E2E2E2E2E2E2E2E2E2E2E2E2E2E2E2E2E2E2E2E2E2E2E2E2E2E2E2E2E2E2E2E2E2E2E2E2E2E2E2E2E2E2E2E2E2E2E2E2E2E2E2E2E2E2E2E2E2E2E2E2E2E2E2E2E2E2E2E2E2E2E2
310
E2E2E2E2E2E2E2E2E2E2E2E2E2E2E2E2E2E2E2E2E2E2E2E2E2E2E2E2E2E2E2F5E2E2E2F5F5EFF5E2E2E2F5E2E2E2E2E2E2E2E2E2E2E2E2E2E2E2E2E2E2E2E2E2E2E2E2E2E2E2E2E2E2E2E2E2E2E2E2E2E2E2E2E2E2E2E2E2E2E2E2E2E2E2E2E2E2E2E2E2E2E2E2E2E2E2E2E2E2E2E2E2E2E2E2E2E2E2E2E2E2E2E2E2E2E2E2
310
E2E2E2E2E2E2E2E2E2E2E2E2E2E2E2E2E2E2E2E2E2E2E2E2E2E2E2E2E2E2E2E2E2E2E2E2E2E2E2E2E2E2E2E2E2E2E2E2E2E2E2E2E2E2E2E2E2E2E2E2E2E2E2E2E2E2E2E2E2E2E2E2E2E2E2E2E2E2E2E2E2E2E2E2F5E2E2E2F5F5EFF5E2E2E2F5E2E2E2E2E2E2E2E2E2E2E2E2E2E2E2E2E2E2E2E2E2E2E2E2E2E2E2E2E2E2E2
310
E2E2E2E2E2E2E2E2E2E2E2E2E2E2E2E2E2E2E2E2E2E2E2E2E2E2E2E2E2E2E2E2E2E2E2E2E2E2E2E2E2E2E2E2E2E2E2E2E2E2E2E2E2E2E2E2E2E2E2E2E2E2E2E2E2E2E2E2E2E2E2E2E2E2E2E2E2E2E2E2E2E2E2E2E2E2E2E2E2E2E2E2E2E2E2E2E2E2E2E2E2E2E2E2E2E2E2E2E2E2E2E2E2E2E2E2E2E2E2E2E2E2E2E2E2E2E2
310
E2E2E2E2E2E2E2E2E2E2F5E2E2E2F5F5EFF5E2E2E2F5E2E2E2E2E2E2E2E2E2E2E2E2E2E2E2E2E2E2E2E2E2E2E2E2E2E2E2E2E2E2E2E2E2E2E2E2E2E2E2E2E2E2E2E2E2E2E2E2E2E2E2E2E2E2E2E2E2E2E2E2E2E2E2E2E2E2E2E2E2E2E2E2E2E2E2E2E2E2E2E2E2E2E2E2E2E2E2E2E2E2E2E2E2E2E2E2E2E2E2E2E2E2E2E2E2
310
E2E2E2E2E2E2E2E2E2E2E2E2E2E2E2E2E2E2E2E2E2E2E2E2E2E2E2E2E2E2E2E2E2E2E2E2E2E2E2E2E2E2E2E2E2E2E2E2E2E2E2E2E2E2E2E2E2E2E2E2E2E2E2F5E2E2E2F5F5EFF5E2E2E2F5E2E2E2E2E2E2E2E2E2E2E2E2E2E2E2E2E2E2E2E2E2E2E2E2E2E2E2E2E2E2E2E2E2E2E2E2E2E2E2E2E2E2E2E2E2E2E2E2E2E2E2E2
310
E2E2E2E2E2E2E2E2E2E2E2E2E2E2E2E2E2E2E2E2E2E2E2E2E2E2E2E2E2E2E2E2E2E2E2E2E2E2E2E2E2E2E2E2E2E2E2E2E2E2E2E2E2E2E2E2E2E2E2E2E2E2E2E2E2E2E2E2E2E2E2E2E2E2E2E2E2E2E2E2E2E2E2E2E2E2E2E2E2E2E2E2E2E2E2E2E2E2E2E2E2E2E2E2E2E2E2E2E2E2E2E2E2E2E2E2F5E2E2E2F5F5EFF5E2E2E2
310
F5E2E2E2E2E2E2E2E2E2E2E2E2E2E2E2E2E2E2E2E2E2E2E2E2E2E2E2E2E2E2E2E2E2E2E2E2E2E2E2E2E2E2E2E2E2E2E2E2E2E2E2E2E2E2E2E2E2E2E2E2E2E2E2E2E2E2E2E2E2E2E2E2E2E2E2E2E2E2E2E2E2E2E2E2E2E2E2E2E2E2E2E2E2E2E2E2E2E2E2E2E2E2E2E2E2E2E2E2E2E2E2E2E2E2E2E2E2E2E2E2E2E2E2E2E2E2
310
E2E2E2E2E2E2E2E2E2E2E2E2E2E2E2E2E2E2E2E2E2E2E2E2E2E2E2E2E2E2E2E2E2E2E2E2E2E2E2E2E2E2F5E2E2E2F5F5EFF5E2E2E2F5E2E2E2E2E2E2E2E2E2E2E2E2E2E2E2E2E2E2E2E2E2E2E2E2E2E2E2E2E2E2E2E2E2E2E2E2E2E2E2E2E2E2E2E2E2E2E2E2E2E2E2E2E2E2E2E2E2E2E2E2E2E2E2E2E2E2E2E2E2E2E2E2E2
310
E2E2E2E2E2E2E2E2E2E2E2E2E2E2E2E2E2E2E2E2E2E2E2E2E2E2E2E2E2E2E2E2E2E2E2E2E2E2E2E2E2E2E2E2E2E2E2E2E2E2E2E2E2E2E2E2E2E2E2E2E2E2E2E2E2E2E2E2E2E2E2E2E2E2E2E2E2E2E2E2E2E2E2E2E2E2E2E2E2E2E2E2E2E2E2F5E2E2E2F5F5EFF5E2E2E2E2E2E2E2E2E2E2E2E2E2E2E2E2E2E2E2E2E2E2E2E2
310
E2E2E2E2E2E2E2E2E2E2E2E2E2E2E2E2E2E2E2E2E2E2E2E2E2E2E2E2E2E2E2E2E2E2E2E2E2E2E2E2E2E2E2E2E2E2E2E2E2E2E2E2E2E2E2E2E2E2E2E2E2E2E2E2E2E2E2E2E2E2E2E2E2E2E2E2E2E2E2E2E2E2E2E2E2E2E2E2E2E2E2E2E2E2E2E2E2E2E2E2E2E2E2E2E2E2E2E2E2E2E2E2E2E2E2E2E2E2E2E2E2E2E2E2E2E2E2
310
E2E2E2E2E2E2E2E2E2E2E2E2E2E2E2E2E2E2E2E2E2E2E2E2E2F5F5EFF5E2E2E2E2E2E2E2E2E2E2E2E2E2E2E2E2E2E2E2E2E2E2E2E2E2E2E2E2E2E2E2E2E2E2E2E2E2E2E2E2E2E2E2E2E2E2E2E2E2E2E2E2E2E2E2E2E2E2E2E2E2E2E2E2E2E2E2E2E2E2E2E2E2E2E2E2E2E2E2E2E2E2E2E2E2E2E2E2E2E2E2E2E2E2E2E2E2E2
310
E2E2E2E2E2E2E2E2E2E2E2E2E2E2E2E2E2E2E2E2E2E2E2E2E2E2E2E2E2E2E2E2E2E2E2E2E2E2E2E2E2E2E2E2E2E2E2E2E2E2E2E2E2E2E2E2E2E2E2E2E2E2E2E2E2E2E2E2E2E2E2E2E2E2E2E2E2E2F5F5EFF5E2E2E2E2E2E2E2E2E2E2E2E2E2E2E2E2E2E2E2E2E2E2E2E2E2E2E2E2E2E2E2E2E2E2E2E2E2E2E2E2E2E2E2E2E2
310
E2E2E2E2E2E2E2E2E2E2E2E2E2E2E2E2E2E2E2E2E2E2E2E2E2E2E2E2E2E2E2E2E2E2E2E2E2E2E2E2E2E2E2E2E2E2E2E2E2E2E2E2E2E2E2E2E2E2E2E2E2E2E2E2E2E2E2E2E2E2E2E2E2E2E2E2E2E2E2E2E2E2E2E2E2E2E2E2E2E2E2E2E2E2E2E2E2E2E2E2E2E2E2E2E2E2E2E2E2E2E2E2E2E2E2E2E2E2E2E2E2E2E2E2E2E2E2
310
E2E2E2E2F5F5EFF5E2E2E2E2E2E2E2E2E2E2E2E2E2E2E2E2E2E2E2E2E2E2E2E2E2E2E2E2E2E2E2E2E2E2E2E2E2E2E2E2E2E2E2E2E2E2E2E2E2E2E2E2E2E2E2E2E2E2E2E2E2E2E2E2E2E2E2E2E2E2E2E2E2E2E2E2E2E2E2E2E2E2E2E2E2E2E2E2E2E2E2E2E2E2E2E2E2E2E2E2E2E2E2E2E2E2E2E2E2E2E2E2E2E2E2E2E2E2E2
310
E2E2E2E2E2E2E2E2E2E2E2E2E2E2E2E2E2E2E2E2E2E2E2E2E2E2E2E2E2E2E2E2E2E2E2E2E2E2E2E2E2E2E2E2E2E2E2E2E2E2E2E2E2E2E2E2E2F5F5EFF5E2E2E2E2E2E2E2E2E2E2E2E2E2E2E2E2E2E2E2E2F5F5F5F5F5F5F5F5F5F5F5F5F5F5F5F5F5F5F5F5F5F5F5F5F5F5F5F5F5F5F5F5F5F5F5F5F5F5F5F5F5F5F5F5F5F5
310
F5F5F5F5F5F5F5F5F5F5F5F5F5F5F5F5F5F5F5F5F5F5F5F5F5F5F5F5F5F5F5F5F5F5F5F5F5F5F5F5F5F5F5F5F5F5F5F5F5F5F5F5F5F5F5F5F5F5F5F5F5F5F5F5F5F5F5F5F5F5F5F5F5F5F5F5F5F5F5F5F5F5F5F5F5F5F5F5F5F5E2E2E2E2E2E2E2E2E2E2E2E2E2E2E2E2E2E2E2E2F5F5EFF5E2E2E2E2E2E2E2E2E2E2E2E2E2
310
E2E2E2E2E2E2E2F5E2E2E2E2E2E2E2E2E2E2E2E2E2E2E2E2E2E2E2E2E2E2E2E2E2E2E2E2E2DCE2E2E2E2E2E2E2E2E2E2E2E2E2E2E2E2E2E2E2E2E2E2E2E2E2E2E2E2E2E2E2E2E2E2E2E2E2E2E2E2E2E2E2E2E2E2E2E2E2E2E2E2E2E2E2E2E2E2E2E2E2E2E2E2E2E2E2E2E2E2E2E2E2E2DCE2E2E2E2E2E2E2E2E2E2E2E2E2E2
310
E2E2E2E2E2E2E2E2E2E2E2E2E2E2E2F5E2E2E2E2E2E2E2E2E2E2E2E2E2E2E2E2E2E2E2E2F5F5EFF5E2E2E2E2E2E2E2E2E2E2E2E2E2E2E2E2E2E2E2E2F5E2E2E2E2E2E2E2E2E2E2E2E2E2E2E2E2E2E2E2E2E2E2E2E2E2E2E2E2E2DCE2E2E2E2E2E2E2E2E2E2E2E2E2E2E2E2E2E2E2E2E2E2E2E2E2E2E2E2E2E2E2E2E2E2E2E2
310
E2E2E2E2E2E2E2E2E2E2E2E2E2E2E2E2E2E2E2E2E2E2E2E2E2E2E2E2E2E2E2E2E2E2E2E2E2E2DCE2E2E2E2E2E2E2E2E2E2E2E2E2E2E2E2E2E2E2E2E2E2E2E2E2E2E2E2E2F5E2E2E2E2E2E2E2E2E2E2E2E2E2E2E2E2E2E2E2E2F5F5EFF5E2E2E2E2E2E2E2E2E2E2E2E2E2E2E2E2E2E2E2E2F5E2E2E2E2E2E2E2E2E2E2E2E2E2
310
E2E2E2E2E2E2E2E2E2E2E2E2E2E2E2E2DCE2E2E2E2E2E2E2E2E2E2E2E2E2E2E2E2E2E2E2E2E2E2E2E2E2E2E2E2E2E2E2E2E2E2E2E2E2E2E2E2E2E2E2E2E2E2E2E2E2E2E2E2E2E2E2E2E2E2E2E2E2E2E2E2E2E2E2E2E2E2E2E2E2E2DCE2E2E2E2E2E2E2E2E2E2E2E2E2E2E2E2E2E2E2E2E2E2E2E2E2E2E2E2E2F5E2E2E2E2E2
310
E2E2E2E2E2E2E2E2E2E2E2E2E2E2E2F5F5EFF5E2E2E2E2E2E2E2E2E2E2E2E2E2E2E2E2E2E2E2E2F5E2E2E2E2E2E2E2E2E2E2E2E2E2E2E2E2E2E2E2E2E2E2E2E2E2E2E2E2E2DCE2E2E2E2E2E2E2E2E2E2E2E2E2E2E2E2E2E2E2E2E2E2E2E2E2E2E2E2E2E2E2E2E2E2E2E2E2E2E2E2E2E2E2E2E2E2E2E2E2E2E2E2E2E2E2E2E2
310
E2E2E2E2E2E2E2E2E2E2E2E2E2E2E2E2E2DCE2E2E2E2E2E2E2E2E2E2E2E2E2E2E2E2E2E2E2E2E2E2E2E2E2E2E2E2E2F5E2E2E2E2E2E2E2E2E2E2E2E2E2E2E2E2E2E2E2E2F5F5EFF5E2E2E2F5E2E2E2E2E2E2E2E2E2E2E2E2E2E2E2E2F5E2E2E2E2E2E2E2E2E2E2E2E2E2E2E2E2E2E2E2E2E2E2E2E2E2E2E2E2E2DCE2E2E2E2
310
E2E2E2E2E2E2E2272727E2E22727E2E2E2E2E2E2E2E2E2E2E2E2E2E2E2E2E2E2E2E2E2E2E2E2E2E2E2E2E2E2E2E2E2E2E2E2E2E2E2E2E2E2E2E2E2E2E2E2E2E2E2E2E2E2E2E2DCE2E2E2E2E2E2E2E2E2E2E2E2E2E2E2E2E2E2E2E2E2E2E2E2E2E2E2E2E2F5E2E2E2E2E2E2E2E2E2E2E2E2E2E2E2E2F5E2E2E2F5F5EFF5E2E2
310
E2F5E2E2E2E2E2E2E2E2E2E2E2E2E2E2E2E2F5E2E2E2E2E2E2E2E2E2E2E2E2E2E2E2E2E2E2E2E2E2E2E2E2E2E2E2E2E2DCE2E2E2E2E2E2E2E2E2E2E2272727272727272727E2E2E2E2E2E2E2E2E2E2E2E2E2E2E2E2E2E2E2E2E2E2E2E2E2E2E2E2E2E2E2E2E2E2E2E2E2E2E2E2E2E2E2E2E2E2E2E2E2E2E2E2E2E2DCE2E2E2
310
E2E2E2E2E2E2E2E2E2E2E2E2E2E2E2E2E2E2E2E2E2E2E2E2E2E2F5E2E2E2E2E2E2E2E2E2E2E2E2E2E2E2E2F5E2E2E2F5F5EFF5E2E2E2F5E2E2E2E2E2E2E2E2E2E2E2E2E2E2E2E2F5E2E2E2E2E2E2E2E2E2E2E2E2E2E2E2E2E2E2E2E2E2E2E2E2E2E2E2E2E2DCE2E2E2E2E2E2E2E2E2E2E2272727272727272727E2E2E2E2E2
310
E2E2E2E2E2E2E2E2E2E2E2E2E2E2E2E2E2E2E2E2E2E2E2E2E2E2E2E2E2E2E2E2E2E2E2E2E2E2E2E2E2E2E2E2E2E2E2E2E2DCE2E2E2E2E2E2E2E2E2E2E2E2E2E2E2E2E2E2E2E2E2E2E2E2E2E2E2E2E2F5E2E2E2E2E2E2E2E2E2E2E2E2E2E2E2E2F5E2E2E2F5F5EFF5E2E2E2F5E2E2E2E2E2E2E2E2E2E2E2E2E2E2E2E2F5E2E2
310
E2E2E2E2E2E2E2E2E2E2E2E2E2E2E2E2E2E2E2E2E2E2E2E2E2E2E2DCE2E2E2E2E2E2E2E2E2E2E2E2E2E2E2E2E2E2E2E2E2E2E2E2E2E2E2E2E2E2E2E2E2E2E2E2E2E2E2E2E2E2E2E2E2E2E2E2E2E2E2E2E2E2E2E2E2E2E2E2E2E2E2E2E2E2E2E2E2E2E2E2E2E2DCE2E2E2E2E2E2E2E2E2E2E2E2E2E2E2E2E2E2E2E2E2E2E2E2
310
E2E2E2E2E2F5E2E2E2E2E2E2E2E2E2E2E2E2E2E2E2E2F5E2E2E2F5F5EFF5E2E2E2F5E2E2E2E2E2E2E2E2E2E2E2E2E2E2E2E2F5E2E2E2E2E2E2E2E2E2E2E2E2E2E2E2E2E2E2E2E2E2E2E2E2E2E2E2E2E2DCE2E2E2E2E2E2E2E2E2E2E2E2E2E2E2E2E2E2E2E2E2E2E2E2E2E2E2E2E2E2E2E2E2E2E2E2E2E2E2E2E2E2E2E2E2E2
310
E2E2E2E2E2E2E2E2E2E2E2E2E2E2E2E2E2E2E2E2E2E2E2E2E2E2E2E2DCE2E2E2E2E2E2E2E2E2E2E2E2E2E2E2E2E2E2E2E2E2E2E2E2E2E2E2E2E2F5E2E2E2E2E2E2E2E2E2E2E2E2E2E2E2E2F5E2E2E2F5F5EFF5E2E2E2F5E2E2E2E2E2E2E2E2E2E2E2E2E2E2E2E2F5E2E2E2E2E2E2E2E2E2E2E2E2E2E2E2E2E2E2E2E2E2E2E2
310
E2E2E2E2E2E2DCE2E2E2E2E2E2E2E2E2E2E2E2E2E2E2E2E2E2E2E2E2E2E2E2E2E2E2E2E2E2E2E2E2E2E2E2E2E2E2E2E2E2E2E2E2E2E2E2E2E2E2E2E2E2E2E2E2E2E2E2E2E2E2E2E2E2E2E2E2E2E2E2E2E2DCE2E2E2E2E2E2E2E2E2E2E2E2E2E2E2E2E2E2E2E2E2E2E2E2E2E2E2E2E2F5E2E2E2E2E2E2E2E2E2E2E2E2E2E2E2
310
E2F5E2E2E2F5F5EFF5E2E2E2F5E2E2E2E2E2E2E2E2E2E2E2E2E2E2E2E2F5E2E2E2E2E2E2E2E2E2E2E2E2E2E2E2E2E2E2E2E2E2E2E2E2E2E2E2E2E2DCE2E2E2E2E2E2E2E2E2E2E2E2E2E2E2E2E2E2E2E2E2E2E2E2E2E2E2E2E2E2E2E2E2E2E2E2E2E2E2E2E2E2E2E2E2E2E2E2E2E2E2E2E2E2E2E2E2E2E2E2E2E2E2E2E2E2E2
310
E2E2E2E2E2E2E2DCE2E2E2E2E2E2E2E2E2E2E2E2E2E2E2E2E2E2E2E2E2E2E2E2E2E2E2E2E2F5E2E2E2E2E2E2E2E2E2E2E2E2E2E2E2E2F5E2E2E2F5F5EFF5E2E2E2F5E2E2E2E2E2E2E2E2E2E2E2E2E2E2E2E2F5E2E2E2E2E2E2E2E2E2E2E2E2E2E2E2E2E2E2E2E2E2E2E2E2E2E2E2E2E2DCE2E2E2E2E2E2E2E2E2E2E2E2E2E2
310
E2E2E2E2E2E2E2E2E2E2E2E2E2E2E2E2E2E2E2E2E2E2E2E2E2E2E2E2E2E2E2E2E2E2E2E2E2E2E2E2E2E2E2E2E2E2E2E2E2E2E2E2E2E2E2E2E2E2E2E2DCE2E2E2E2E2E2E2E2E2E2E2E2E2E2E2E2E2E2E2E2E2E2E2E2E2E2E2E2E2F5E2E2E2E2E2E2E2E2E2E2E2E2E2E2E2E2F5E2E2E2F5F5EFF5E2E2E2F5E2E2E2E2E2E2E2E2
310
E2E2E2E2E2E2E2E2F5E2E2E2E2E2E2E2E2E2E2E2E2E2E2E2E2E2E2E2E2E2E2E2E2E2E2E2E2E2DCE2E2E2E2E2E2E2E2E2E2E2E2E2E2E2E2E2E2E2E2E2E2E2E2E2E2E2E2E2E2E2E2E2E2E2E2E2E2E2E2E2E2E2E2E2E2E2E2E2E2E2E2E2E2E2E2E2E2E2E2E2E2E2E2E2E2E2E2E2E2E2E2E2E2DCE2E2E2E2E2E2E2E2E2E2E2E2E2
310
E2E2E2E2E2E2E2E2E2E2E2E2E2E2E2E2F5E2E2E2E2E2E2E2E2E2E2E2E2E2E2E2E2F5E2E2E2F5F5EFF5E2E2E2F5E2E2E2E2E2E2E2E2E2E2E2E2E2E2E2E2F5E2E2E2E2E2E2E2E2E2E2E2E2E2E2E2E2E2E2E2E2E2E2E2E2E2E2E2E2E2DCE2E2E2E2E2E2E2E2E2E2E2E2E2E2E2E2E2E2E2E2E2E2E2E2E2E2E2E2E2E2E2E2E2E2E2
310
E2E2E2E2E2E2E2E2E2E2E2E2E2E2E2E2E2E2E2E2E2E2E2E2E2E2E2E2E2E2E2E2E2E2E2E2E2E2E2DCE2E2E2E2E2E2E2E2E2E2E2E2E2E2E2E2E2E2E2E2E2E2E2E2E2E2E2E2E2F5E2E2E2E2E2E2E2E2E2E2E2E2E2E2E2E2F5E2E2E2F5F5EFF5E2E2E2F5E2E2E2E2E2E2E2E2E2E2E2E2E2E2E2E2F5E2E2E2E2E2E2E2E2E2E2E2E2
310
E2E2E2E2E2E2E2E2E2E2E2E2E2E2E2E2E2DCE2E2E2E2E2E2E2E2E2E2E2E2E2E2E2E2E2E2E2E2E2E2E2E2E2E2E2E2E2E2E2E2E2E2E2E2E2E2E2E2E2E2E2E2E2E2E2E2E2E2E2E2E2E2E2E2E2E2E2E2E2E2E2E2E2E2E2E2E2E2E2E2E2E2DCE2E2E2E2E2E2E2E2E2E2E2E2E2E2E2E2E2E2E2E2E2E2E2E2E2E2E2E2E2F5E2E2E2E2
310
E2E2E2E2E2E2E2E2E2E2E2E2F5E2E2E2F5F5EFF5E2E2E2F5E2E2E2E2E2E2E2E2E2E2E2E2E2E2E2E2F5E2E2E2E2E2E2E2E2E2E2E2E2E2E2E2E2E2E2E2E2E2E2E2E2E2E2E2E2E2DCE2E2E2E2E2E2E2E2E2E2E2E2E2E2E2E2E2E2E2E2E2E2E2E2E2E2E2E2E2E2E2E2E2E2E2E2E2E2E2E2E2E2E2E2E2E2E2E2E2E2E2E2E2E2E2E2
310
E2E2E2E2E2E2E2E2E2E2E2E2E2E2E2E2E2E2DCE2E2E2E2E2E2E2E2E2E2E2E2E2E2E2E2E2E2E2E2E2E2E2E2E2E2E2E2E2F5E2E2E2E2E2E2E2E2E2E2E2E2E2E2E2E2F5E2E2E2F5F5EFF5E2E2E2F5E2E2E2E2E2E2E2E2E2E2E2E2E2E2E2E2F5E2E2E2E2E2E2E2E2E2E2E2E2E2E2E2E2E2E2E2E2E2E2E2E2E2E2E2E2E2DCE2E2E2
310
E2E2E2E2E2E2E2E2E2E2E2E2E2E2E2E2E2E2E2E2E2E2E2E2E2E2E2E2E2E2E2E2E2E2E2E2E2E2E2E2E2E2E2E2E2E2E2E2E2E2E2E2E2E2E2E2E2E2E2E2E2E2E2E2E2E2E2E2E2E2E2DCE2E2E2E2E2E2E2E2E2E2E2E2E2E2E2E2E2E2E2E2E2E2E2E2E2E2E2E2E2F5E2E2E2E2E2E2E2E2E2E2E2E2E2E2E2E2F5E2E2E2F5F5EFF5E2
310
E2E2F5E2E2E2E2E2E2E2E2E2E2E2E2E2E2E2E2F5E2E2E2E2E2E2E2E2E2E2E2E2E2E2E2E2E2E2E2E2E2E2E2E2E2E2E2E2E2DCE2E2E2E2E2E2E2E2E2E2E2E2E2E2E2E2E2E2E2E2E2E2E2E2E2E2E2E2E2E2E2E2E2E2E2E2E2E2E2E2E2E2E2E2E2E2E2E2E2E2E2E2E2E2E2E2E2E2E2E2E2E2E2E2E2E2E2E2E2E2E2E2E2E2DCE2E2
310
E2E2E2E2E2E2E2E2E2E2E2E2E2E2E2E2E2E2E2E2E2E2E2E2E2E2E2F5E2E2E2E2E2E2E2E2E2E2E2E2E2E2E2E2F5E2E2E2F5F5EFF5E2E2E2F5E2E2E2E2E2E2E2E2E2E2E2E2E2E2E2E2F5E2E2E2E2E2E2E2E2E2E2E2E2E2E2E2E2E2E2E2E2E2E2E2E2E2E2E2E2E2DCE2E2E2E2E2E2E2E2E2E2E2E2E2E2E2E2E2E2E2E2E2E2E2E2
310
E2E2E2E2E2E2E2E2E2E2E2E2E2E2E2E2E2E2E2E2E2E2E2E2E2E2E2E2E2E2E2E2E2E2E2E2E2E2E2E2E2E2E2E2E2E2E2E2E2E2DCE2E2E2E2E2E2E2E2E2E2E2E2E2E2E2E2E2E2E2E2E2E2E2E2E2E2E2E2E2F5E2E2E2E2E2E2E2E2E2E2E2E2E2E2E2E2F5E2E2E2F5F5EFF5E2E2E2F5E2E2E2E2E2E2E2E2E2E2E2E2E2E2E2E2F5E2
310
E2E2E2E2E2E2E2E2E2E2E2E2E2E2E2E2E2E2E2E2E2E2E2E2E2E2E2E2DCE2E2E2E2E2E2E2E2E2E2E2E2E2E2E2E2E2E2E2E2E2E2E2E2E2E2E2E2E2E2E2E2E2E2E2E2E2E2E2E2E2E2E2E2E2E2E2E2E2E2E2E2E2E2E2E2E2E2E2E2E2E2E2E2E2E2E2E2E2E2E2E2E2E2DCE2E2E2E2E2E2E2E2E2E2E2E2E2E2E2E2E2E2E2E2E2E2E2
310
E2E2E2E2E2E2F5E2E2E2E2E2E2E2E2E2E2E2E2E2E2E2E2F5E2E2E2F5F5EFF5E2E2E2F5E2E2E2E2E2E2E2E2E2E2E2E2E2E2E2E2F5E2E2E2E2E2E2E2E2E2E2E2E2E2E2E2E2E2E2E2E2E2E2E2E2E2E2E2E2E2DCE2E2E2E2E2E2E2E2E2E2E2E2E2E2E2E2E2E2E2E2E2E2E2E2E2E2E2E2E2E2E2E2E2E2E2E2E2E2E2E2E2E2E2E2E2
310
E2E2E2E2E2E2E2E2E2E2E2E2E2E2E2E2E2E2E2E2E2E2E2E2E2E2E2E2E2DCE2E2E2E2E2E2E2E2E2E2E2E2E2E2E2E2E2E2E2E2E2E2E2E2E2E2E2E2E2F5E2E2E2E2E2E2E2E2E2E2E2E2E2E2E2E2F5E2E2E2F5F5EFF5E2E2E2E2E2E2E2E2E2E2E2E2E2E2E2E2E2E2E2E2F5E2E2E2E2E2E2E2E2E2E2E2E2E2E2E2E2E2E2E2E2E2E2
310
E2E2E2E2E2E2E2DCE2E2E2E2E2E2E2E2E2E2E2E2E2E2E2E2E2E2E2E2E2E2E2E2E2E2E2E2E2E2E2E2E2E2E2E2E2E2E2E2E2E2E2E2E2E2E2E2E2E2E2E2E2E2E2E2E2E2E2E2E2E2E2E2E2E2E2E2E2E2E2E2E2E2DCE2E2E2E2E2E2E2E2E2E2E2E2E2E2E2E2E2E2E2E2E2E2E2E2E2E2E2E2E2F5E2E2E2E2E2E2E2E2E2E2E2E2E2E2
310
E2E2E2E2E2E2F5F5EFF5E2E2E2E2E2E2E2E2E2E2E2E2E2E2E2E2E2E2E2E2F5E2E2E2E2E2E2E2E2E2E2E2E2E2E2E2E2E2E2E2E2E2E2E2E2E2E2E2E2E2DCE2E2E2E2E2E2E2E2E2E2E2E2E2E2E2E2E2E2E2E2E2E2E2E2E2E2E2E2E2E2E2E2E2E2E2E2E2E2E2E2E2E2E2E2E2E2E2E2E2E2E2E2E2E2E2E2E2E2E2E2E2E2E2E2E2E2
310
E2E2E2E2E2E2E2E2DCE2E2E2E2E2E2E2E2E2E2E2E2E2E2E2E2E2E2E2E2E2E2E2E2E2E2E2E2E2F5E2E2E2E2E2E2E2E2E2E2E2E2E2E2E2E2E2E2E2E2F5F5EFF5E2E2E2E2E2E2E2E2E2E2E2E2E2E2E2E2E2E2E2E2F5E2E2E2E2E2E2E2E2E2E2E2E2E2E2E2E2E2E2E2E2E2E2E2E2E2E2E2E2E2DCE2E2E2E2E2E2E2E2E2E2E2E2E2
310
E2E2E2E2E2E2E2E2E2E2E2E2E2E2E2E2E2E2E2E2E2E2E2E2E2E2E2E2E2E2E2E2E2E2E2E2E2E2E2E2E2E2E2E2E2E2E2E2E2E2E2E2E2E2E2E2E2E2E2E2E2DCE2E2E2E2E2E2E2E2E2E2E2E2E2E2E2E2E2E2E2E2E2E2E2E2E2E2E2E2E2F5E2E2E2E2E2E2E2E2E2E2E2E2E2E2E2E2E2E2E2E2F5F5EFF5E2E2E2E2E2E2E2E2E2E2E2
310
E2E2E2E2E2E2E2E2E2F5E2E2E2E2E2E2E2E2E2E2E2E2E2E2E2E2E2E2E2E2E2E2E2E2E2E2E2E2E2DCE2E2E2E2E2E2E2E2E2E2E2E2E2E2E2E2E2E2E2E2E2E2E2E2E2E2E2E2E2E2E2E2E2E2E2E2E2E2E2E2E2E2E2E2E2E2E2E2E2E2E2E2E2E2E2E2E2E2E2E2E2E2E2E2E2E2E2E2E2E2E2E2E2E2DCE2E2E2E2E2E2E2E2E2E2E2E2
310
E2E2E2E2E2E2E2E2E2E2E2E2E2E2E2E2E2F5E2E2E2E2E2E2E2E2E2E2E2E2E2E2E2E2E2E2E2E2F5F5EFF5E2E2E2E2E2E2E2E2E2E2E2E2E2E2E2E2E2E2E2E2F5E2E2E2E2E2E2E2E2E2E2E2E2E2E2E2E2E2E2E2E2E2E2E2E2E2E2E2E2E2DCE2E2E2E2E2E2E2E2E2E2E2E2E2E2E2E2E2E2E2E2E2E2E2E2E2E2E2E2E2E2E2E2E2E2
310
E2E2E2E2E2E2E2E2E2E2E2E2E2E2E2E2E2E2E2E2E2E2E2E2E2E2E2E2E2E2E2E2E2E2E2E2E2E2E2E2DCE2E2E2E2E2E2E2E2E2E2E2E2E2E2E2E2E2E2E2E2E2E2E2E2E2E2E2E2E2F5E2E2E2E2E2E2E2E2E2E2E2E2E2E2E2E2E2E2E2E2F5F5EFF5E2E2E2E2E2E2E2E2E2E2E2E2E2E2E2E2E2E2E2E2F5E2E2E2E2E2E2E2E2E2E2E2
310
E2E2E2E2E2E2E2E2E2E2E2E2E2E2E2E2E2E2DCE2E2E2E2E2E2E2E2E2E2E2E2E2E2E2E2E2E2E2E2E2E2E2E2E2E2E2E2E2E2E2E2E2E2E2E2E2E2E2E2E2E2E2E2E2E2E2E2E2E2E2E2E2E2E2E2E2E2E2E2E2E2E2E2E2E2E2E2E2E2E2E2E2E2DCE2E2E2E2E2E2E2E2E2E2E2E2E2E2E2E2E2E2E2E2E2E2E2E2E2E2E2E2E2F5E2E2E2
310
E2E2E2E2E2E2E2E2E2E2E2E2E2E2E2E2E2F5F5EFF5E2E2E2E2E2E2E2E2E2E2E2E2E2E2E2E2E2E2E2E2F5E2E2E2E2E2E2E2E2E2E2E2E2E2E2E2E2E2E2E2E2E2E2E2E2E2E2E2E2E2DCE2E2E2E2E2E2E2E2E2E2E2E2E2E2E2E2E2E2E2E2E2E2E2E2E2E2E2E2E2E2E2E2E2E2E2E2E2E2E2E2E2E2E2E2E2E2E2E2E2E2E2E2E2E2E2
310
E2E2E2E2E2E2E2E2E2E2E2E2E2E2E2E2E2E2E2DCE2E2E2E2E2E2E2E2E2E2E2E2E2E2E2E2E2E2E2E2E2E2E2E2E2E2E2E2E2F5E2E2E2E2E2E2E2E2E2E2E2E2E2E2E2E2E2E2E2E2F5F5EFF5E2E2E2E2E2E2E2E2E2E2E2E2E2E2E2E2E2E2E2E2F5E2E2E2E2E2E2E2E2E2E2E2E2E2E2E2E2E2E2E2E2E2E2E2E2E2E2E2E2E2DCE2E2
310
E2E2E2E2E2E2E2E2E2E2E2E2E2E2E2E2E2E2E2E2E2E2E2E2E2E2E2E2E2E2E2E2E2E2E2E2E2E2E2E2E2E2E2E2E2E2E2E2E2E2E2E2E2E2E2E2E2E2E2E2E2E2E2E2E2E2E2E2E2E2E2E2DCE2E2E2E2E2E2E2E2E2E2E2E2E2E2E2E2E2E2E2E2E2E2E2E2E2E2E2E2E2F5E2E2E2E2E2E2E2E2E2E2E2E2E2E2E2E2E2E2E2E2F5F5EFF5
310
E2E2E2E2E2E2E2E2E2E2E2E2E2E2E2E2E2E2E2E2F5E2E2E2E2E2E2E2E2E2E2E2E2E2E2E2E2E2E2E2E2E2E2E2E2E2E2E2E2E2DCE2E2E2E2E2E2E2E2E2E2E2E2E2E2E2E2E2E2E2E2E2E2E2E2E2E2E2E2E2E2E2E2E2E2E2E2E2E2E2E2E2E2E2E2E2E2E2E2E2E2E2E2E2E2E2E2E2E2E2E2E2E2E2E2E2E2E2E2E2E2E2E2E2E2DCE2
310
E2E2E2E2E2E2E2E2E2E2E2E2E2E2E2E2E2E2E2E2E2E2E2E2E2E2E2E2F5E2E2E2E2E2E2E2E2E2E2E2E2E2E2E2E2E2E2E2E2F5F5EFF5E2E2E2F5E2E2E2E2E2E2E2E2E2E2E2E2E2E2E2E2F5E2E2E2E2E2E2E2E2E2E2E2E2E2E2E2E2E2E2E2E2E2E2E2E2E2E2E2E2E2DCE2E2E2E2E2E2E2E2E2E2E2E2E2E2E2E2E2E2E2E2E2E2E2
310
E2E2E2E2E2E2E2E2E2E2E2E2E2E2E2E2E2E2E2E2E2E2E2E2E2E2E2E2E2E2E2E2E2E2E2E2E2E2E2E2E2E2E2E2E2E2E2E2E2E2E2DCE2E2E2E2E2E2E2E2E2E2E2E2E2E2E2E2E2E2E2E2E2E2E2E2E2E2E2E2E2F5E2E2E2E2E2E2E2E2E2E2E2E2E2E2E2E2F5E2E2E2F5F5EFF5E2E2E2F5E2E2E2E2E2E2E2E2E2E2E2E2E2E2E2E2F5
310
E2E2E2E2E2E2E2E2E2E2E2E2E2E2E2E2E2E2E2E2E2E2E2E2E2E2E2E2E2DCE2E2E2E2E2E2E2E2E2E2E2E2E2E2E2E2E2E2E2E2E2E2E2E2E2E2E2E2E2E2E2E2E2E2E2E2E2E2E2E2E2E2E2E2E2E2E2E2E2E2E2E2E2E2E2E2E2E2E2E2E2E2E2E2E2E2E2E2E2E2E2E2E2E2DCE2E2E2E2E2E2E2E2E2E2E2E2E2E2E2E2E2E2E2E2E2E2
310
E2E2E2E2E2E2E2F5E2E2E2E2E2E2E2E2E2E2E2E2E2E2E2E2F5E2E2E2F5F5EFF5E2E2E2F5E2E2E2E2E2E2E2E2E2E2E2E2E2E2E2E2F5E2E2E2E2E2E2E2E2E2E2E2E2E2E2E2E2E2E2E2E2E2E2E2E2E2E2E2E2E2DCE2E2E2E2E2E2E2E2E2E2E2E2E2E2E2E2E2E2E2E2E2E2E2E2E2E2E2E2E2E2E2E2E2E2E2E2E2E2E2E2E2E2E2E2
310
E2E2E2E2E2E2E2E2E2E2E2E2E2E2E2E2E2E2E2E2E2E2E2E2E2E2E2E2E2E2DCE2E2E2E2E2E2E2E2E2E2E2E2E2E2E2E2E2E2E2E2E2E2E2E2E2E2E2E2E2F5E2E2E2E2E2E2E2E2E2E2E2E2E2E2E2E2F5E2E2E2F5F5EFF5E2E2E2F5E2E2E2E2E2E2E2E2E2E2E2E2E2E2E2E2F5E2E2E2E2E2E2E2E2E2E2E2E2E2E2E2E2E2E2E2E2E2
310
E2E2E2E2E2E2E2E2DCE2E2E2E2E2E2E2E2E2E2E2E2E2E2E2E2E2E2E2E2E2E2E2E2E2E2E2E2E2E2E2E2E2E2E2E2E2BEE2E2E2E2E2E2E2E2E2E2E2E2E2E2E2E2E2E2E2E2E2E2E2E2E2E2E2E2E2E2E2E2E2E2E2E2DCE2E2E2E2E2E2E2E2E2E2E2E2E2E2E2E2E2E2E2E2E2E2E2E2E2E2E2E2E2F5E2E2E2E2E2E2E2E2E2E2E2E2E2
310
E2E2E2F5E2E2E2F5F5EFF5E2E2E2F5E2E2E2E2E2E2E2E2E2E2E2E2E2E2E2E2F5E2E2E2E2E2E2E2E2E2E2E2E2E2E2E2E2E2E2E2E2E2E2E2E2E2E2E2E2E2DCE2E2E2E2E2E2E2E2E2E2E2E2E2E2E2E2E2E2E2E2E2E2E2E2E2E2E2E2E2E2E2E2E2E2E2E227BEE2E2E2E2E2E2E2E2E2E2E2E2E2E2E2E2E2E2E2E2E2E2E2E2E2E2E2
310
E2E2E2E2E2E2E2E2E2DCE2E2E2E2E2E2E2E2E2E2E2E2E2E2E2E2E2E2E2E2E2E2E2E2E2E2E2E2E2F5E2E2E2E2E2E2E2E2E2E2E2E2E2E2E2E2F5E2E2E2F5F5EFF5E2E2E2F5E2E2E2E2E2E2E2E2E2E2E2E2E2E2E2E2F5E2E2E2E2E2E2E2E2E2E2E2E2E2E2E2E2E2E2E2E2E2E2E2E2E2E2E2E2E2DCE2E2E2E2E2E2E2E2E2E2E2E2
310
E2E2E2E2E2E2E2E2E2E2E2E2E2E2E2E2E2E2E2E2E2E2E2E227BEE2E2E2E2E2E2E2E2E2E2E2E2E2E2E2E2E2E2E2E2E2E2E2E2E2E2E2E2E2E2E2E2E2E2E2E2DCE2E2E2E2E2E2E2E2E2E2E2E2E2E2E2E2E2E2E2E2E2E2E2E2E2E2E2E2E2F5E2E2E2E2E2E2E2E2E2E2E2E2E2E2E2E2F5E2E2E2F5F5EFF5E2E2E2F5E2E2E2E2E2E2
310
E2E2E2E2E2E2E2E2E2E2F5E2E2E2E2E2E2E2E2E2E2E2E2E2E2E2E2E2E2E2E2E2E2E2E2E2E2E2E2E2DCE2E2E2E2E2E2E2E2E2E2E2E2E2E2E2E2E2E2E2E2E2E2E2E2E2E2E2E2E2E2E2E2E2E2E2E227BEE2E2E2E2E2E2E2E2E2E2E2E2E2E2E2E2E2E2E2E2E2E2E2E2E2E2E2E2E2E2E2E2E2E2E2E2DCE2E2E2E2E2E2E2E2E2E2E2
310
E2E2E2E2E2E2E2E2E2E2E2E2E2E2E2E2E2E2F5E2E2E2E2E2E2E2E2E2E2E2E2E2E2E2E2F5E2E2E2F5F5EFF5E2E2E2F5E2E2E2E2E2E2E2E2E2E2E2E2E2E2E2E2F5E2E2E2E2E2E2E2E2E2E2E2E2E2E2E2E2E2E2E2E2E2E2E2E2E2E2E2E2E2DCE2E2E2E2E2E2E2E2E2E2E2E2E2E2E2E2E2E2E2E2E2E2E2E2E2E2E2E2E2E2E2E2E2
310
E2E2E227BEE2E2E2E2E2E2E2E2E2E2E2E2E2E2E2E2E2E2E2E2E2E2E2E2E2E2E2E2E2E2E2E2E2E2E2E2DCE2E2E2E2E2E2E2E2E2E2E2E2E2E2E2E2E2E2E2E2E2E2E2E2E2E2E2E2E2F5E2E2E2E2E2E2E2E2E2E2E2E2E2E2E2E2F5E2E2E2F5F5EFF5E2E2E2F5E2E2E2E2E2E2E2E2E2E2E2E2E2E2E2E2F5E2E2E2E2E2E2E2E2E2E2
310
E2E2E2E2E2E2E2E2E2E2E2E2E2E2E2E2E2E2E2DCE2E2E2E2E2E2E2E2E2E2E2E2E2E2E2E2E2E2E2E2E2E2E2E2E2E2E2E2E2E2E2E2E2E2E2E227BEE2E2E2E2E2E2E2E2E2E2E2E2E2E2E2E2E2E2E2E2E2E2E2E2E2E2E2E2E2E2E2E2E2E2E2E2DCE2E2E2E2E2E2E2E2E2E2E2E2E2E2E2E2E2E2E2E2E2E2E2E2E2E2E2E2E2F5E2E2
310
E2E2E2E2E2E2E2E2E2E2E2E2E2E2F5E2E2E2F5F5EFF5E2E2E2F5E2E2E2E2E2E2E2E2E2E2E2E2E2E2E2E2F5E2E2E2E2E2E2E2E2E2E2E2E2E2E2E2E2E2E2E2E2E2E2E2E2E2E2E2E2E2DCE2E2E2E2E2E2E2E2E2E2E2E2E2E2E2E2E2E2E2E2E2E2E2E2E2E2E2E2E2E2E2E2E2E2E2E227BEE2E2E2E2E2E2E2E2E2E2E2E2E2E2E2E2
310
E2E2E2E2E2E2E2E2E2E2E2E2E2E2E2E2E2E2E2E2DCE2E2E2E2E2E2E2E2E2E2E2E2E2E2E2E2E2E2E2E2E2E2E2E2E2E2E2E2E2F5E2E2E2E2E2E2E2E2E2E2E2E2E2E2E2E2F5E2E2E2F5F5EFF5E2E2E2F5E2E2E2E2E2E2E2E2E2E2E2E2E2E2E2E2F5E2E2E2E2E2E2E2E2E2E2E2E2E2E2E2E2E2E2E2E2E2E2E2E2E2E2E2E2E2DCE2
310
E2E2E2E2E2E2E2E2E2E2E2E2E2E2E2E2E2E2E2E2E2E2E2E2E2E2E2E2E2E2E2E2E2E2E227BEE2E2E2E2E2E2E2E2E2E2E2E2E2E2E2E2E2E2E2E2E2E2E2E2E2E2E2E2E2E2E2E2E2E2E2E2DCE2E2E2E2E2E2E2E2E2E2E2E2E2E2E2E2E2E2E2E2E2E2E2E2E2E2E2E2E2F5E2E2E2E2E2E2E2E2E2E2E2E2E2E2E2E2F5E2E2E2F5F5EF
310
F5E2E2E2F5E2E2E2E2E2E2E2E2E2E2E2E2E2E2E2E2F5E2E2E2E2E2E2E2E2E2E2E2E2E2E2E2E2E2E2E2E2E2E2E2E2E2E2E2E2E2DCE2E2E2E2E2E2E2E2E2E2E2E2E2E2E2E2E2E2E2E2E2E2E2E2E2E2E2E2E2E2E2E2E2E2E2E227BEE2E2E2E2E2E2E2E2E2E2E2E2E2E2E2E2E2E2E2E2E2E2E2E2E2E2E2E2E2E2E2E2E2E2E2E2DC
310
E2E2E2E2E2E2E2E2E2E2E2E2E2E2E2E2E2E2E2E2E2E2E2E2E2E2E2E2E2F5E2E2E2E2E2E2E2E2E2E2E2E2E2E2E2E2F5E2E2E2F5F5EFF5E2E2E2F5E2E2E2E2E2E2E2E2E2E2E2E2E2E2E2E2F5E2E2E2E2E2E2E2E2E2E2E2E2E2E2E2E2E2E2E2E2E2E2E2E2E2E2E2E2E2DCE2E2E2E2E2E2E2E2E2E2E2E2E2E2E2E2E2E2E2E2E2E2
310
E2E2E2E2E2E2E2E2E2E2E2E2E2E227BEE2E2E2E2E2E2E2E2E2E2E2E2E2E2E2E2E2E2E2E2E2E2E2E2E2E2E2E2E2E2E2E2E2E2E2E2DCE2E2E2E2E2E2E2E2E2E2E2E2E2E2E2E2E2E2E2E2E2E2E2E2E2E2E2E2E2F5E2E2E2E2E2E2E2E2E2E2E2E2E2E2E2E2F5E2E2E2F5F5EFF5E2E2E2F5E2E2E2E2E2E2E2E2E2E2E2E2E2E2E2E2
310
F5E2E2E2E2E2E2E2E2E2E2E2E2E2E2E2E2E2E2E2E2E2E2E2E2E2E2E2E2E2DCE2E2E2E2E2E2E2E2E2E2E2E2E2E2E2E2E2E2E2E2E2E2E2E2E2E2E2E2E2E2E2E2E2E2E2E227BEE2E2E2E2E2E2E2E2E2E2E2E2E2E2E2E2E2E2E2E2E2E2E2E2E2E2E2E2E2E2E2E2E2E2E2E2DCE2E2E2E2E2E2E2E2E2E2E2E2E2E2E2E2E2E2E2E2E2
310
E2E2E2E2E2E2E2E2F5E2E2E2E2E2E2E2E2E2E2E2E2E2E2E2E2F5E2E2E2F5F5EFF5E2E2E2F5E2E2E2E2E2E2E2E2E2E2E2E2E2E2E2E2F5E2E2E2E2E2E2E2E2E2E2E2E2E2E2E2E2E2E2E2E2E2E2E2E2E2E2E2E2E2DCE2E2E2E2E2E2E2E2E2E2E2E2E2E2E2E2E2E2E2E2E2E2E2E2E2E2E2E2E2E2E2E2E2E2E2E227BEE2E2E2E2E2
310
E2E2E2E2E2E2E2E2E2E2E2E2E2E2E2E2E2E2E2E2E2E2E2E2E2E2E2E2E2E2E2DCE2E2E2E2E2E2E2E2E2E2E2E2E2E2E2E2E2E2E2E2E2E2E2E2E2E2E2E2E2F5E2E2E2E2E2E2E2E2E2E2E2E2E2E2E2E2F5E2E2E2F5F5EFF5E2E2E2F5E2E2E2E2E2E2E2E2E2E2E2E2E2E2E2E2F5E2E2E2E2E2E2E2E2E2E2E2E2E2E2E2E2E2E2E2E2
310
E2E2E2E2E2E2E2E2E2DCE2E2E2E2E2E2E2E2E2E2E2E2E2E2E2E2E2E2E2E2E2E2E2E2E2E2E2E2E2E2E2E2E2E2E2E227BEE2E2E2E2E2E2E2E2E2E2E2E2E2E2E2E2E2E2E2E2E2E2E2E2E2E2E2E2E2E2E2E2E2E2E2E2DCE2E2E2E2E2E2E2E2E2E2E2E2E2E2E2E2E2E2E2E2E2E2E2E2E2E2E2E2E2F5E2E2E2E2E2E2E2E2E2E2E2E2
310
E2E2E2E2F5E2E2E2F5F5EFF5E2E2E2E2E2E2E2E2E2E2E2E2E2E2E2E2E2E2E2E2F5E2E2E2E2E2E2E2E2E2E2E2E2E2E2E2E2E2E2E2E2E2E2E2E2E2E2E2E2E2DCE2E2E2E2E2E2E2E2E2E2E2E2E2E2E2E2E2E2E2E2E2E2E2E2E2E2E2E2E2E2E2E2E2E2E2E227BEE2E2E2E2E2E2E2E2E2E2E2E2E2E2E2E2E2E2E2E2E2E2E2E2E2E2
310
E2E2E2E2E2E2E2E2E2E2DCE2E2E2E2E2E2E2E2E2E2E2E2E2E2E2E2E2E2E2E2E2E2E2E2E2E2E2E2E2F5E2E2E2E2E2E2E2E2E2E2E2E2E2E2E2E2E2E2E2E2F5F5EFF5E2E2E2E2E2E2E2E2E2E2E2E2E2E2E2E2E2E2E2E2F5E2E2E2E2E2E2E2E2E2E2E2E2E2E2E2E2E2E2E2E2E2E2E2E2E2E2E2E2E2DCE2E2E2E2E2E2E2E2E2E2E2
310
E2E2E2E2E2E2E2E2E2E2E2E2E2E2E2E2E2E2E2E2E2E2E2E2E227BEE2E2E2E2E2E2E2E2E2E2E2E2E2E2E2E2E2E2E2E2E2E2E2E2E2E2E2E2E2E2E2E2E2E2E2E2DCE2E2E2E2E2E2E2E2E2E2E2E2E2E2E2E2E2E2E2E2E2E2E2E2E2E2E2E2E2F5E2E2E2E2E2E2E2E2E2E2E2E2E2E2E2E2E2E2E2E2F5F5EFF5E2E2E2E2E2E2E2E2E2
310
E2E2E2E2E2E2E2E2E2E2E2F5E2E2E2E2E2E2E2E2E2E2E2E2E2E2E2E2E2E2E2E2E2E2E2E2E2E2E2E2E2DCE2E2E2E2E2E2E2E2E2E2E2E2E2E2E2E2E2E2E2E2E2E2E2E2E2E2E2E2E2E2E2E2E2E2E2E2E2BEE2E2E2E2E2E2E2E2E2E2E2E2E2E2E2E2E2E2E2E2E2E2E2E2E2E2E2E2E2E2E2E2E2E2E2E2DCE2E2E2E2E2E2E2E2E2E2
310
E2E2E2E2E2E2E2E2E2E2E2E2E2E2E2E2E2E2E2F5E2E2E2E2E2E2E2E2E2E2E2E2E2E2E2E2E2E2E2E2F5F5EFF5E2E2E2E2E2E2E2E2E2E2E2E2E2E2E2E2E2E2E2E2F5E2E2E2E2E2E2E2E2E2E2E2E2E2E2E2E2E2E2E2E2E2E2E2E2E2E2E2E2E2DCE2E2E2E2E2E2E2E2E2E2E2E2E2E2E2E2E2E2E2E2E2E2E2E2E2E2E2E2E2E2E2E2
310
E2E2E2E2E2BEE2E2E2E2E2E2E2E2E2E2E2E2E2E2E2E2E2E2E2E2E2E2E2E2E2E2E2E2E2E2E2E2E2E2E2E2DCE2E2E2E2E2E2E2E2E2E2E2E2E2E2E2E2E2E2E2E2E2E2E2E2E2E2E2E2E2F5E2E2E2E2E2E2E2E2E2E2E2E2E2E2E2E2E2E2E2E2F5F5EFF5E2E2E2E2E2E2E2E2E2E2E2E2E2E2E2E2E2E2E2E2F5E2E2E2E2E2E2E2E2E2
310
E2E2E2E2E2E2E2E2E2E2E2E2E2E2E2E2E2E2E2E2DCE2E2E2E2E2E2E2E2E2E2E2E2E2E2E2E2E2E2E2E2E2E2E2E2E2E2E2E2E2E2E2E2E2E2E2E2E2BEE2E2E2E2E2E2E2E2E2E2E2E2E2E2E2E2E2E2E2E2E2E2E2E2E2E2E2E2E2E2E2E2E2E2E2E2DCE2E2E2E2E2E2E2E2E2E2E2E2E2E2E2E2E2E2E2E2E2E2E2E2E2E2E2E2E2F5E2
310
E2E2E2E2E2E2E2E2E2E2E2E2E2E2E2E2E2E2E2F5F5EFF5E2E2E2E2E2E2E2E2E2E2E2E2E2E2E2E2E2E2E2E2F5E2E2E2E2E2E2E2E2E2E2E2E2E2E2E2E2E2E2E2E2E2E2E2E2E2E2E2E2E2DCE2E2E2E2E2E2E2E2E2E2E2E2E2E2E2E2E2E2E2E2E2E2E2E2E2E2E2E2E2E2E2E2E2E2E2E2E2BEE2E2E2E2E2E2E2E2E2E2E2E2E2E2E2
310
E2E2E2E2E2E2E2E2E2E2E2E2E2E2E2E2E2E2E2E2E2DCE2E2E2E2E2E2E2E2E2E2E2E2E2E2E2E2E2E2E2E2E2E2E2E2E2E2E2E2E2F5E2E2E2E2E2E2E2E2E2E2E2E2E2E2E2E2E2E2E2E2F5F5EFF5E2E2E2E2E2E2E2E2E2E2E2E2E2E2E2E2E2E2E2E2F5E2E2E2E2E2E2E2E2E2E2E2E2E2E2E2E2E2E2E2E2E2E2E2E2E2E2E2E2E2DC
310
E2E2E2E2E2E2E2E2E2E2E2E2E2E2E2E2E2E2E2E2E2E2E2E2E2E2E2E2E2E2E2E2E2E2E2E2E2BEE2E2E2E2E2E2E2E2E2E2E2E2E2E2E2E2E2E2E2E2E2E2E2E2E2E2E2E2E2E2E2E2E2E2E2E2DCE2E2E2E2E2E2E2E2E2E2E2E2E2E2E2E2E2E2E2E2E2E2E2E2E2E2E2E2E2F5E2E2E2E2E2E2E2E2E2E2E2E2E2E2E2E2E2E2E2E2F5F5
310
EFF5E2E2E2E2E2E2E2E2E2E2E2E2E2E2E2E2E2E2E2E2F5E2E2E2E2E2E2E2E2E2E2E2E2E2E2E2E2E2E2E2E2E2E2E2E2E2E2E2E2E2DCE2E2E2E2E2E2E2E2E2E2E2E2E2E2E2E2E2E2E2E2E2E2E2E2E2E2E2E2E2E2E2E2E2E2E2E2E2BEE2E2E2E2E2E2E2E2E2E2E2E2E2E2E2E2E2E2E2E2E2E2E2E2E2E2E2E2E2E2E2E2E2E2E2E2
310
DCE2E2E2E2E2E2E2E2E2E2E2E2E2E2E2E2E2E2E2E2E2E2E2E2E2E2E2E2E2F5E2E2E2E2E2E2E2E2E2E2E2E2E2E2E2E2E2E2E2E2F5F5EFF5E2E2E2E2E2E2E2E2E2E2E2E2E2E2E2E2E2E2E2E2F5E2E2E2E2E2E2E2E2E2E2E2E2E2E2E2E2E2E2E2E2E2E2E2E2E2E2E2E2E2DCE2E2E2E2E2E2E2E2E2E2E2E2E2E2E2E2E2E2E2E2E2
310
E2E2E2E2E2E2E2E2E2E2E2E2E2E2E2E2BEE2E2E2E2E2E2E2E2E2E2E2E2E2E2E2E2E2E2E2E2E2E2E2E2E2E2E2E2E2E2E2E2E2E2E2E2DCE2E2E2E2E2E2E2E2E2E2E2E2E2E2E2E2E2E2E2E2E2E2E2E2E2E2E2E2E2F5E2E2E2E2E2E2E2E2E2E2E2E2E2E2E2E2E2E2E2E2F5F5EFF5E2E2E2E2E2E2E2E2E2E2E2E2E2E2E2E2E2E2E2
310
E2F5E2E2E2E2E2E2E2E2E2E2E2E2E2E2E2E2E2E2E2E2E2E2E2E2E2E2E2E2E2DCE2E2E2E2E2E2E2E2E2E2E2E2E2E2E2E2E2E2E2E2E2C3C3C3C3C3C3E2E2E2E2E2E2E2E2E2E2BEE2E2E2E2E2E2E2E2E2E2E2C3C3C3C3C3C3E2E2E2E2E2E2E2E2E2E2E2E2E2E2E2E2E2E2E2DCE2E2E2E2E2E2E2E2E2E2E2E2E2E2E2E2E2E2E2E2
310
E2E2E2E2E2E2E2E2E2F5E2E2E2E2E2E2E2E2E2E2E2E2E2E2E2E2E2E2E2E2F5F5EFF5E2E2E2F5E2E2E2E2E2E2E2E2E2E2E2E2E2E2E2E2F5E2E2E2E2E2E2E2E2E2E2E2E2E2E2E2E2E2E2E2E2E2E2E2E2E2E2E2E2E2DCE2E2E2E2E2E2E2E2E2E2E2BEE2BEE2E2E2E2E2E2E2C3C3C3C3C3C3E2E2E2E2E2E2E2E2E2E2BEE2E2E2E2
310
E2E2E2E2E2E2E2C3C3C3C3C3C3E2E2E2E2E2E2E2E2BEE2BEE2E2E2E2E2E2E2E2DCE2E2E2E2E2E2E2E2E2E2E2E2E2E2E2E2E2E2E2E2E2E2E2E2E2E2E2E2E2F5E2E2E2E2E2E2E2E2E2E2E2E2E2E2E2E2F5E2E2E2F5F5EFF5E2E2E2F5E2E2E2E2E2E2E2E2E2E2E2E2E2E2E2E2F5E2E2E2E2E2E2E2E2E2E2E2E2E2E2E2E2E2E2E2
310
E2E2E2E2E2E2E2E2E2E2DCE2E2E2E2E2E2E2E2E2E2E2BEBEBEE2E2E2E2E2E2E2F5BEF5F5F5BEE2E2E2E2E2E2E2E2E2E2BEE2E2E2E2E2E2E2E2E2E2E2F5F5F5F5F5F5E2E2E2E2E2E2E227BEBEBEE2E2E2E2E2E2E2E2DCE2E2E2E2E2E2E2E2E2E2E2E2E2E2E2E2E2E2E2E2E2E2E2E2E2E2E2E2E2F5E2E2E2E2E2E2E2E2E2E2E2
310
E2E2E2E2E2F5E2E2E2F5F5EFF5E2E2E2F5E2E2E2E2E2E2E2E2E2E2E2E2E2E2E2E2F5E2E2E2E2E2E2E2E2E2E2E2E2E2E2E2E2E2E2E2E2E2E2E2E2E2E2E2E2E2DCE2E2E2E2E2E2E2E2E2E2E2BE2727E2E2E2E2E2E2E2F5E2E2E2F5F5E2E2E2E2E2E2E2E2E2E2BEE2E2E2E2E2E2E2E2E2E2E2F5E2E2E2F5F5E2E2E2E2E2E2E227
310
27E2BEE2E2E2E2E2E2E2E2DCE2E2E2E2E2E2E2E2E2E2E2E2E2E2E2E2E2E2E2E2E2E2E2E2E2E2E2E2E2F5E2E2E2E2E2E2E2E2E2E2E2E2E2E2E2E2F5E2E2E2F5F5EFF5E2E2E2F5E2E2E2E2E2E2E2E2E2E2E2E2E2E2E2E2F5E2E2E2E2E2E2E2E2E2E2E2E2E2E2E2E2E2E2E2E2E2E2E2E2E2E2E2E2E2DCE2E2E2E2E2E2E2E2E2E2
310
E2BE2727E2E2E2E2E2C3C3F5E2E2E2F5F5E2E2E2E2E2E2E2E2E2E2BEE2E2E2E2E2E2E2E2E2E2E2F5E2E2E2F5F5C3E2E2E2E2E2E22727E2BEE2E2E2E2E2E2E2E2DCE2E2E2E2E2E2E2E2E2E2E2E2E2E2E2E2E2E2E2E2E2E2E2E2E2E2E2E2E2F5E2E2E2E2E2E2E2E2E2E2E2E2E2E2E2E2F5E2E2E2F5F5EFF5E2E2E2F5E2E2E2E2
310
E2E2E2E2E2E2E2E2E2E2E2E2F5E2E2E2E2E2E2E2E2E2E2E2E2E2E2E2E2E2E2E2E2E2E2E2E2E2E2E2E2E2DCE2E2E2E2E2E2E2E2E2E2E2BE27BEC3C3C3F5BEF5F5F5E2E2E2F5F5E2E2E2E2E2E2E2E2E2E2BEE2E2E2E2E2E2E2E2E2E2E2F5E2E2E2F5F5F5F5F5F5C3C3E227BEE2BEE2E2E2E2E2E2E2E2DCE2E2E2E2E2E2E2E2E2
310
E2E2E2E2E2E2E2E2E2E2E2E2E2E2E2E2E2E2E2E2F5E2E2E2E2E2E2E2E2E2E2E2E2E2E2E2E2F5E2E2E2F5F5EFF5E2E2E2F5E2E2E2E2E2E2E2E2E2E2E2E2E2E2E2E2F5E2E2E2E2E2E2E2E2E2E2E2E2E2E2E2E2E2E2E2E2E2E2E2E2E2E2E2E2E2DCE2E2E2E2E2E2E2E2E2E227272727C3E2E2F5E2E2E2E2E2E2F5F5BEE2E2E2E2
310
E2E2E2E2E2E2BEE2E2E2E2E2E2E2E2E2E2E2F5F5F5E2E2E2E2E2E2F5E2C3E2272727BEE2E2E2E2E2E2E2E2DCE2E2E2E2E2E2E2E2E2E2E2E2E2E2E2E2E2E2E2E2E2E2E2E2E2E2E2E2E2F5E2E2E2E2E2E2E2E2E2E2E2E2E2E2E2E2F5E2E2E2F5F5EFF5E2E2E2F5E2E2E2E2E2E2E2E2E2E2E2E2E2E2E2E2F5E2E2E2E2E2E2E2E2
310
E2E2E2E2E2E2E2E2E2E2E2E2E2E2E2E2E2E2E2E2E2DCE2E2E2E2E2E2E2E2E2E227272727C3F5F5BEE2E2E2E2E2E2F5E2E2E2E2E2E2E2E2E2E2E2E2BEE2E2E2E2E2E2E2E2E2E2E2E2E2F5E2E2E2E2E2E2F5F5C3E2272727BEE2E2E2E2E2E2E2E2DCE2E2E2E2E2E2E2E2E2E2E2E2E2E2E2E2E2E2E2E2E2E2E2E2E2E2E2E2E2F5
310
E2E2E2E2E2E2E2E2E2E2E2E2E2E2E2E2F5E2E2E2F5F5EFF5E2E2E2F5E2E2E2E2E2E2E2E2E2E2E2E2E2E2E2E2F5E2E2E2E2E2E2E2E2E2E2E2E2E2E2E2E2E2E2E2E2E2E2E2E2E2E2E2E2E2DCE2E2E2E2E2E2E2E2E2E22727E2BEE2C3F5E2E2E2E2E2E2E2F5E2E2E2E2E2E2E2E2E2E2E2E2BEE2E2E2E2E2E2E2E2E2E2E2E2E2F5
310
E2E2E2E2E2E2E2C3C3E2E2BE27BEE2E2E2E2E2E2E2E2DCE2E2E2E2E2E2E2E2E2E2E2E2E2E2E2E2E2E2E2E2E2E2E2E2E2E2E2E2E2F5E2E2E2E2E2E2E2E2E2E2E2E2E2E2E2E2F5E2E2E2F5F5EFF5E2E2E2F5E2E2E2E2E2E2E2E2E2E2E2E2E2E2E2E2F5E2E2E2E2E2E2E2E2E2E2E2E2E2E2E2E2E2E2E2E2E2E2E2E2E2E2E2E2E2
310
DCE2E2E2E2E2E2E2E2E2E2E2272727E2F5F5E2E2E2E2E2E2E2F5E2E2E2E2E2E2E2E2E2E2E2E2BEE2E2E2E2E2E2E2E2E2E2E2E2E2F5E2E2E2E2E2E2E2F5E2E2272727BEE2E2E2E2E2E2E2E2DCE2E2E2E2E2E2E2E2E2E2E2E2E2E2E2E2E2E2E2E2E2E2E2E2E2E2E2E2E2F5E2E2E2E2E2E2E2E2E2E2E2E2E2E2E2E2F5E2E2E2F5
310
F5EFF5E2E2E2F5E2E2E2E2E2E2E2E2E2E2E2E2E2E2E2E2F5E2E2E2E2E2E2E2E2E2E2E2E2E2E2E2E2E2E2E2E2E2E2E2E2E2E2E2E2E2DCE2E2E2E2E2E2E2E2E2E2E2BE2727E2F5F5E2E2E2E2E2E2E2F5E2E2E2E2E2E2E2E2E2E2E2E2BEE2E2E2E2E2E2E2E2E2E2E2E2E2F5E2E2E2E2E2E2E2F5E2E22727E2BEE2E2E2E2E2E2E2
310
E2DCE2E2E2E2E2E2E2E2E2E2E2E2E2E2E2E2E2E2E2E2E2E2E2E2E2E2E2E2E2F5E2E2E2E2E2E2E2E2E2E2E2E2E2E2E2E2F5E2E2E2F5F5EFF5E2E2E2F5E2E2E2E2E2E2E2E2E2E2E2E2E2E2E2E2F5E2E2E2E2E2E2E2E2E2E2E2E2E2E2E2E2E2E2E2E2E2E2E2E2E2E2E2E2E2DCE2E2E2E2E2E2E2E2E2E2E2BE2727E2F5F5E2E2E2
310
E2E2E2E2F5E2E2E2E2E2E2E2E2E2E2E2E2BEE2E2E2E2E2E2E2E2E2E2E2E2E2F5E2E2E2E2E2E2E2F5E2E22727E2BEE2E2E2E2E2E2E2E2DCE2E2E2E2E2E2E2E2E2E2E2E2E2E2E2E2E2E2E2E2E2E2E2E2E2E2E2E2E2F5E2E2E2E2E2E2E2E2E2E2E2E2E2E2E2E2F5E2E2E2F5F5EFF5E2E2E2F5E2E2E2E2E2E2E2E2E2E2E2E2E2E2
310
E2E2F5E2E2E2E2E2E2E2E2E2E2E2E2E2E2E2E2E2E2E2E2E2E2E2E2E2E2E2E2E2DCE2E2E2E2E2E2E2E2E2E2E2BEE2BEE2F5F5E2E2F5F5F5F5F5BEE2E2E2E2E2E2E2E2E2E2E2E2BEE2E2E2E2E2E2E2E2E2E2E2E2E2F5F5F5F5F5F5E2E2F5E2E2E2BEE2BEE2E2E2E2E2E2E2E2DCE2E2E2E2E2E2E2E2E2E2E2E2E2E2E2E2E2E2E2
310
E2E2E2E2E2E2E2E2E2E2F5E2E2E2E2E2E2E2E2E2E2E2E2E2E2E2E2F5E2E2E2F5F5EFF5E2E2E2F5E2E2E2E2E2E2E2E2E2E2E2E2E2E2E2E2F5E2E2E2E2E2E2E2E2E2E2E2E2E2E2E2E2E2E2E2E2E2E2E2E2E2E2E2E2E2DCE2E2E2E2E2E2E2E2E2E2E2BEBEBEE2BEF5BEF5BEE2E2E2E2C3E2E2E2E2E2E2E2E2E2E2E2E2BEE2E2E2
310
E2E2E2E2E2E2E2E2E2E2C3E2E2E2F5F5F5F5F5BEE2E2BEBEBEE2E2E2E2E2E2E2E2DCE2E2E2E2E2E2E2E2E2E2E2E2E2E2E2E2E2E2E2E2E2E2E2E2E2E2E2E2E2F5E2E2E2E2E2E2E2E2E2E2E2E2E2E2E2E2F5E2E2E2F5F5EFF5E2E2E2F5E2E2E2E2E2E2E2E2E2E2E2E2E2E2E2E2F5E2E2E2E2E2E2E2E2E2E2E2E2E2E2E2E2E2E2
310
E2E2E2E2E2E2E2E2E2E2E2DCE2E2E2E2E2E2E2E2E2E2E2E2E2E2E2E2C3C3E2E2E2E2E2E2C3E2E2E2E2E2E2E2E2E2E2E2E2BEE2E2E2E2E2E2E2E2E2E2E2E2E2C3E2E2E2E2E2E2C3C3E2E2E2E2E2E2E2E2E2E2E2E2E2E2DCE2E2E2E2E2E2E2E2E2E2E2E2E2E2E2E2E2E2E2E2E2E2E2E2E2E2E2E2E2F5E2E2E2E2E2E2E2E2E2E2
310
E2E2E2E2E2E2F5E2E2E2F5F5EFF5E2E2E2F5E2E2E2E2E2E2E2E2E2E2E2E2E2E2E2E2F5E2E2E2E2E2E2E2E2E2E2E2E2E2E2E2E2E2E2E2E2E2E2E2E2E2E2E2E2E2DCE2E2E2E2E2E2E2E2E2E2E2E2E2E2E2E2C3C3C3C3C3C3C3C3C3E2E2E2E2E2E2E2E2E2E2E2E2BEE2E2E2E2E2E2E2E2E2E2E2E2E2C3C3C3C3C3C3C3C3C3E2E2
310
E2E2E2E2E2E2E2E2E2E2E2E2DCE2E2E2E2E2E2E2E2E2E2E2E2E2E2E2E2E2E2E2E2E2E2E2E2E2E2E2E2E2F5E2E2E2E2E2E2E2E2E2E2E2E2E2E2E2E2F5E2E2E2F5F5EFF5E2E2E2F5E2E2E2E2E2E2E2E2E2E2E2E2E2E2E2E2F5E2E2E2E2E2E2E2E2E2E2E2E2E2E2E2E2E2E2E2E2E2E2E2E2E2E2E2E2E2DCE2E2E2E2E2E2E2E2E2
310
E2E2E2E2E2E2E2E2E2E2E2E2E2E2E2E2E2E2E2E2E2E2E2E2E2E2E2E2BEE2E2E2E2E2E2E2E2E2E2E2E2E2E2E2E2E2E2E2E2E2E2E2E2E2E2E2E2E2E2E2E2E2E2E2E2DCE2E2E2E2E2E2E2E2E2E2E2E2E2E2E2E2E2E2E2E2E2E2E2E2E2E2E2E2E2F5E2E2E2E2E2E2E2E2E2E2E2E2E2E2E2E2F5E2E2E2F5F5EFF5E2E2E2E2E2E2E2
310
E2E2E2E2E2E2E2E2E2E2E2E2E2F5E2E2E2E2E2E2E2E2E2E2E2E2E2E2E2E2E2E2E2E2E2E2E2E2E2E2E2E2E2DCE2E2E2E2E2E2E2E2E2E2E2E2E2E2E2BE272727BEBE2727272727BEE2E2E2E2E2E2E2E2E2E2BEE2E2E2E2E2E2E2E2E2E2BEBE2727272727BEBE2727BEE2E2E2E2E2E2E2E2E2E2E2E2E2E2DCE2E2E2E2E2E2E2E2
310
E2E2E2E2E2E2E2E2E2E2E2E2E2E2E2E2E2E2E2E2E2F5E2E2E2E2E2E2E2E2E2E2E2E2E2E2E2E2E2E2E2E2F5F5EFF5E2E2E2E2E2E2E2E2E2E2E2E2E2E2E2E2E2E2E2E2F5E2E2E2E2E2E2E2E2E2E2E2E2E2E2E2E2E2E2E2E2E2E2E2E2E2E2E2E2E2DCE2E2E2E2E2E2E2E2E2E2E2E2E2E2E2BEBEBEBEBEBEBEBEBEBEBEBEE2E2E2
310
E2E2E2E2E2E2E2BEE2E2E2E2E2E2E2E2E2E2E2BEBEBEBEBEBEBEBEBEBEBEE2E2E2E2E2E2E2E2E2E2E2E2E2E2DCE2E2E2E2E2E2E2E2E2E2E2E2E2E2E2E2E2E2E2E2E2E2E2E2E2E2E2E2E2F5E2E2E2E2E2E2E2E2E2E2E2E2E2E2E2E2E2E2E2E2F5F5EFF5E2E2E2E2E2E2E2E2E2E2E2E2E2E2E2E2E2E2E2E2F5E2E2E2E2E2E2E2
310
E2E2E2E2E2E2E2E2E2E2E2E2E2E2E2E2E2E2E2E2E2E2DCE2E2E2E2E2E2E2E2E2E2E2E2E2E2E2BEBEE2E227272727E2E2E2BEE2E2E2E2E2E2E2E2E2E2BEE2E2E2E2E2E2E2E2E2E2E2BEE2E2E2272727E2E2E2BEE2E2E2E2E2E2E2E2E2E2E2E2E2E2DCE2E2E2E2E2E2E2E2E2E2E2E2E2E2E2E2E2E2E2E2E2E2E2E2E2E2E2E2E2
310
F5E2E2E2E2E2E2E2E2E2E2E2E2E2E2E2E2E2E2E2E2F5F5EFF5E2E2E2E2E2E2E2E2E2E2E2E2E2E2E2E2E2E2E2E2F5E2E2E2E2E2E2E2E2E2E2E2E2E2E2E2E2E2E2E2E2E2E2E2E2E2E2E2E2E2DCE2E2E2E2E2E2E2E2E2E2E2E2E2E2E2E2E2E2E2E2E2E2E2E2E2E2E2E2E2E2E2E2E2E2E2E2E2BEE2E2E2E2E2E2E2E2E2E2E2E2E2
310
E2E2E2E2E2E2E2E2E2E2E2E2E2E2E2E2E2E2E2E2E2E2E2DCE2E2E2E2E2E2E2E2E2E2E2E2E2E2E2E2E2E2E2E2E2E2E2E2E2E2E2E2E2F5E2E2E2E2E2E2E2E2E2E2E2E2E2E2E2E2E2E2E2E2F5F5EFF5E2E2E2E2E2E2E2E2E2E2E2E2E2E2E2E2E2E2E2E2F5E2E2E2E2E2E2E2E2E2E2E2E2E2E2E2E2E2E2E2E2E2E2E2E2E2E2E2E2
310
E2DCE2E2E2E2E2E2E2E2E2E2E2E2E2E2E2E2E2E2E2E2E2E2E2E2E2E2E2E2E2E2E2E2E2E2E2E2E2BEE2E2E2E2E2E2E2E2E2E2E2E2E2E2E2E2E2E2E2E2E2E2E2E2E2E2E2E2E2E2E2E2E2E2E2E2DCE2E2E2E2E2E2E2E2E2E2E2E2E2E2E2E2E2E2E2E2E2E2E2E2E2E2E2E2E2F5E2E2E2E2E2E2E2E2E2E2E2E2E2E2E2E2E2E2E2E2
310
F5F5EFF5E2E2E2E2E2E2E2E2E2E2E2E2E2E2E2E2E2E2E2E2F5E2E2E2E2E2E2E2E2E2E2E2E2E2E2E2E2E2E2E2E2E2E2E2E2E2E2E2E2E2DCE2E2E2E2E2E2E2E2E2E2E2E2E2E2E2E2E2E2E2E2E2E2E2E2E2E2E2E2E2E2E2E2E2E2E2E2E2BEE2E2E2E2E2E2E2E2E2E2E2E2E2E2E2E2E2E2E2E2E2E2E2E2E2E2E2E2E2E2E2E2E2E2
310
E2E2DCE2E2E2E2E2E2E2E2E2E2E2E2E2E2E2E2E2E2E2E2E2E2E2E2E2E2E2E2E2F5E2E2E2E2E2E2E2E2E2E2E2E2E2E2E2E2E2E2E2E2F5F5EFF5E2E2E2E2E2E2E2E2E2E2E2E2E2E2E2E2E2E2E2E2F5E2E2E2E2E2E2E2E2E2E2E2E2E2E2E2E2E2E2E2E2E2E2E2E2E2E2E2E2E2DCE2E2E2E2E2E2E2E2E2E2E2E2E2E2E2E2E2E2E2
310
E2E2E2E2E2E2E2E2E2E2E2E2E2E2E2E2E2E2BEE2E2E2E2E2E2E2E2E2E2E2E2E2E2E2E2E2E2E2E2E2E2E2E2E2E2E2E2E2E2E2E2E2E2E2E2DCE2E2E2E2E2E2E2E2E2E2E2E2E2E2E2E2E2E2E2E2E2E2E2E2E2E2E2E2E2F5E2E2E2E2E2E2E2E2E2E2E2E2E2E2E2E2E2E2E2E2F5F5EFF5E2E2E2E2E2E2E2E2E2E2E2E2E2E2E2E2E2
310
E2E2E2F5E2E2E2E2E2E2E2E2E2E2E2E2E2E2E2E2E2E2E2E2E2E2E2E2E2E2E2E2E2DCE2E2E2E2E2E2E2E2E2E2E2E2E2E2E2E2E2E2E2E2E2E2E2E2E2E2E2E2E2E2E2E2E2E2E2E2E2E2E2E2E2E2E2E2E2E2E2E2E2E2E2E2E2E2E2E2E2E2E2E2E2E2E2E2E2E2E2E2E2E2E2E2E2E2DCE2E2E2E2E2E2E2E2E2E2E2E2E2E2E2E2E2E2
310
E2E2E2E2E2E2E2E2E2E2E2F5E2E2E2E2E2E2E2E2E2E2E2E2E2E2E2E2E2E2E2E2F5F5EFF5E2E2E2E2E2E2E2E2E2E2E2E2E2E2E2E2E2E2E2E2F5E2E2E2E2E2E2E2E2E2E2E2E2E2E2E2E2E2E2E2E2E2E2E2E2E2E2E2E2E2DCE2E2E2E2E2E2E2E2E2E2E2E2E2E2E2E2E2E2E2E2E2E2E2E2E2E2E2E2E2E2E2E2E2E2E2E2E2E2E2E2
310
E2E2E2E2E2E2E2E2E2E2E2E2E2E2E2E2E2E2E2E2E2E2E2E2E2E2E2E2E2E2E2E2E2E2DCE2E2E2E2E2E2E2E2E2E2E2E2E2E2E2E2E2E2E2E2E2E2E2E2E2E2E2E2E2F5E2E2E2E2E2E2E2E2E2E2E2E2E2E2E2E2E2E2E2E2F5F5EFF5E2E2E2F5E2E2E2E2E2E2E2E2E2E2E2E2E2E2E2E2F5E2E2E2E2E2E2E2E2E2E2E2E2E2E2E2E2E2
310
E2E2E2E2E2E2E2E2E2E2E2E2DCE2E2E2E2E2E2E2E2E2E2E2E2E2E2E2E2E2E2E2E2E2E2E2E2E2E2E2E2E2E2E2E2E2E2E2E2E2E2E2E2E2E2E2E2E2E2E2E2E2E2E2E2E2E2E2E2E2E2E2E2E2E2E2E2E2E2E2E2E2E2E2E2E2E2DCE2E2E2E2E2E2E2E2E2E2E2E2E2E2E2E2E2E2E2E2E2E2E2E2E2E2E2E2E2F5E2E2E2E2E2E2E2E2E2
310
E2E2E2E2E2E2E2F5E2E2E2F5F5EFF5E2E2E2F5E2E2E2E2E2E2E2E2E2E2E2E2E2E2E2E2F5E2E2E2E2E2E2E2E2E2E2E2E2E2E2E2E2E2E2E2E2E2E2E2E2E2E2E2E2E2DCE2E2E2E2E2E2E2E2E2E2E2E2E2E2E2E2E2E2E2E2E2E2E2E2E2E2E2E2E2E2E2E2E2E2E2E2E2E2E2E2E2E2E2E2E2E2E2E2E2E2E2E2E2E2E2E2E2E2E2E2E2
310
E2E2E2E2E2E2E2E2E2E2E2E2E2DCE2E2E2E2E2E2E2E2E2E2E2E2E2E2E2E2E2E2E2E2E2E2E2E2E2E2E2E2E2F5E2E2E2E2E2E2E2E2E2E2E2E2E2E2E2E2F5E2E2E2F5F5EFF5E2E2E2F5E2E2E2E2E2E2E2E2E2E2E2E2E2E2E2E2F5E2E2E2E2E2E2E2E2E2E2E2E2E2E2E2E2E2E2E2E2E2E2E2E2E2E2E2E2E2DCE2E2E2E2E2E2E2E2
310
E2E2E2E2E2E2E2E2E2E2E2E2E2E2E2E2E2E2E2E2E2E2E2E2E2E2E2E2E2E2E2E2E2E2E2E2E2E2E2E2E2E2E2E2E2E2E2E2E2E2E2E2E2E2E2E2E2E2E2E2E2E2E2E2E2E2DCE2E2E2E2E2E2E2E2E2E2E2E2E2E2E2E2E2E2E2E2E2E2E2E2E2E2E2E2E2F5E2E2E2E2E2E2E2E2E2E2E2E2E2E2E2E2F5E2E2E2F5F5EFF5E2E2E2F5E2E2
310
E2E2E2E2E2E2E2E2E2E2E2E2E2E2F5E2E2E2E2E2E2E2E2E2E2E2E2E2E2E2E2E2E2E2E2E2E2E2E2E2E2E2E2E2DCE2E2E2E2E2E2E2E2E2E2E2E2E2E2E2E2E2E2E2E2E2E2E2E2E2E2E2E2E2E2E2E2E2E2E2E2E2E2E2E2E2E2E2E2E2E2E2E2E2E2E2E2E2E2E2E2E2E2E2E2E2E2E2E2E2E2E2E2E2E2E2E2E2E2DCE2E2E2E2E2E2E2
310
E2E2E2E2E2E2E2E2E2E2E2E2E2E2E2E2E2E2E2E2E2E2F5E2E2E2E2E2E2E2E2E2E2E2E2E2E2E2E2F5E2E2E2F5F5EFF5E2E2E2F5E2E2E2E2E2E2E2E2E2E2E2E2E2E2E2E2F5E2E2E2E2E2E2E2E2E2E2E2E2E2E2E2E2E2E2E2E2E2E2E2E2E2E2E2E2E2DCE2E2E2E2E2E2E2E2E2E2E2E2E2E2E2E2E2E2E2E2E2E2E2E2E2E2E2E2E2
310
E2E2E2E2E2E2E2E2E2E2E2E2E2E2E2E2E2E2E2E2E2E2E2E2E2E2E2E2E2E2E2E2E2E2E2E2E2E2E2E2E2E2E2E2E2DCE2E2E2E2E2E2E2E2E2E2E2E2E2E2E2E2E2E2E2E2E2E2E2E2E2E2E2E2E2F5E2E2E2E2E2E2E2E2E2E2E2E2E2E2E2E2F5E2E2E2F5F5EFF5E2E2E2F5E2E2E2E2E2E2E2E2E2E2E2E2E2E2E2E2F5E2E2E2E2E2E2
310
E2E2E2E2E2E2E2E2E2E2E2E2E2E2E2E2E2E2E2E2E2E2E2DCE2E2E2E2E2E2E2E2E2E2E2E2E2E2E2E2E2E2E2E2E2E2E2E2E2E2E2E2E2E2E2E2E2E2E2E2E2E2E2E2E2E2E2E2E2E2E2E2E2E2E2E2E2E2E2E2E2E2E2E2E2E2E2E2E2E2E2E2E2E2E2E2E2E2DCE2E2E2E2E2E2E2E2E2E2E2E2E2E2E2E2E2E2E2E2E2E2E2E2E2E2E2E2
310
E2F5E2E2E2E2E2E2E2E2E2E2E2E2E2E2E2E2F5E2E2E2F5F5EFF5E2E2E2F5E2E2E2E2E2E2E2E2E2E2E2E2E2E2E2E2F5E2E2E2E2E2E2E2E2E2E2E2E2E2E2E2E2E2E2E2E2E2E2E2E2E2E2E2E2E2DCE2E2E2E2E2E2E2E2E2E2E2E2E2E2E2E2E2E2E2E2E2E2E2E2E2E2E2E2E2E2E2E2E2E2E2E2E2E2E2E2E2E2E2E2E2E2E2E2E2E2
310
E2E2E2E2E2E2E2E2E2E2E2E2E2E2E2E2E2E2E2E2E2E2E2E2DCE2E2E2E2E2E2E2E2E2E2E2E2E2E2E2E2E2E2E2E2E2E2E2E2E2E2E2E2E2F5E2E2E2E2E2E2E2E2E2E2E2E2E2E2E2E2F5E2E2E2F5F5EFF5E2E2E2F5E2E2E2E2E2E2E2E2E2E2E2E2E2E2E2E2F5E2E2E2E2E2E2E2E2E2E2E2E2E2E2E2E2E2E2E2E2E2E2E2E2E2E2E2
310
E2E2DCE2E2E2E2E2E2E2E2E2E2E2E2E2E2E2E2E2E2E2E2E2E2E2E2E2E2E2E2E2E2E2E2E2E2E2E2E2E2E2E2E2E2E2E2E2E2E2E2E2E2E2E2E2E2E2E2E2E2E2E2E2E2E2E2E2E2E2E2E2E2E2E2E2E2DCE2E2E2E2E2E2E2E2E2E2E2E2E2E2E2E2E2E2E2E2E2E2E2E2E2E2E2E2E2F5E2E2E2E2E2E2E2E2E2E2E2E2E2E2E2E2F5E2E2
310
E2F5F5EFF5E2E2E2F5E2E2E2E2E2E2E2E2E2E2E2E2E2E2E2E2F5E2E2E2E2E2E2E2E2E2E2E2E2E2E2E2E2E2E2E2E2E2E2E2E2E2E2E2E2E2DCE2E2E2E2E2E2E2E2E2E2E2E2E2E2E2E2E2E2E2E2E2E2E2E2E2E2E2E2E2E2E2E2E2E2E2E2E2E2E2E2E2E2E2E2E2E2E2E2E2E2E2E2E2E2E2E2E2E2E2E2E2E2E2E2E2E2E2E2E2E2E2
310
E2E2E2DCE2E2E2E2E2E2E2E2E2E2E2E2E2E2E2E2E2E2E2E2E2E2E2E2E2E2E2E2E2F5E2E2E2E2E2E2E2E2E2E2E2E2E2E2E2E2F5E2E2E2F5F5EFF5E2E2E2F5E2E2E2E2E2E2E2E2E2E2E2E2E2E2E2E2F5E2E2E2E2E2E2E2E2E2E2E2E2E2E2E2E2E2E2E2E2E2E2E2E2E2E2E2E2E2DCE2E2E2E2E2E2E2E2E2E2E2E2E2E2E2E2E2E2
310
E2E2E2E2E2E2E2E2E2E2E2E2E2E2E2E2E2E2E2E2E2E2E2E2E2E2E2E2E2E2E2E2E2E2E2E2E2E2E2E2E2E2E2E2E2E2E2E2E2E2E2E2E2E2E2E2DCE2E2E2E2E2E2E2E2E2E2E2E2E2E2E2E2E2E2E2E2E2E2E2E2E2E2E2E2E2F5E2E2E2E2E2E2E2E2E2E2E2E2E2E2E2E2F5E2E2E2F5F5EFF5E2E2E2F5E2E2E2E2E2E2E2E2E2E2E2E2
310
E2E2E2E2F5E2E2E2E2E2E2E2E2E2E2E2E2E2E2E2E2E2E2E2E2E2E2E2E2E2E2E2E2E2DCE2E2E2E2E2E2E2E2E2E2E2E2E2E2E2E2E2E2E2E2E2E2E2E2E2E2E2E2E2E2E2E2E2E2E2E2E2E2E2E2E2E2E2E2E2E2E2E2E2E2E2E2E2E2E2E2E2E2E2E2E2E2E2E2E2E2E2E2E2E2E2E2E2E2DCE2E2E2E2E2E2E2E2E2E2E2E2E2E2E2E2E2
310
E2E2E2E2E2E2E2E2E2E2E2E2F5E2E2E2E2E2E2E2E2E2E2E2E2E2E2E2E2F5E2E2E2F5F5EFF5E2E2E2F5E2E2E2E2E2E2E2E2E2E2E2E2E2E2E2E2F5E2E2E2E2E2E2E2E2E2E2E2E2E2E2E2E2E2E2E2E2E2E2E2E2E2E2E2E2E2DCE2E2E2E2E2E2E2E2E2E2E2E2E2E2E2E2E2E2E2E2E2E2E2E2E2E2E2E2E2E2E2E2E2E2E2E2E2E2E2
310
E2E2E2E2E2E2E2E2E2E2E2E2E2E2E2E2E2E2E2E2E2E2E2E2E2E2E2E2E2E2E2E2E2E2E2DCE2E2E2E2E2E2E2E2E2E2E2E2E2E2E2E2E2E2E2E2E2E2E2E2E2E2E2E2E2F5E2E2E2E2E2E2E2E2E2E2E2E2E2E2E2E2F5E2E2E2F5F5EFF5E2E2E2F5E2E2E2E2E2E2E2E2E2E2E2E2E2E2E2E2F5E2E2E2E2E2E2E2E2E2E2E2E2E2E2E2E2
310
E2E2E2E2E2E2E2E2E2E2E2E2E2DCE2E2E2E2E2E2E2E2E2E2E2E2E2E2E2E2E2E2E2E2E2E2E2E2E2E2E2E2E2E2E2E2E2E2E2E2E2E2E2E2E2E2E2E2E2E2E2E2E2E2E2E2E2E2E2E2E2E2E2E2E2E2E2E2E2E2E2E2E2E2E2E2E2E2DCE2E2E2E2E2E2E2E2E2E2E2E2E2E2E2E2E2E2E2E2E2E2E2E2E2E2E2E2E2F5E2E2E2E2E2E2E2E2
310
E2E2E2E2E2E2E2E2F5E2E2E2F5F5EFF5E2E2E2F5E2E2E2E2E2E2E2E2E2E2E2E2E2E2E2E2F5E2E2E2E2E2E2E2E2E2E2E2E2E2E2E2E2E2E2E2E2E2E2E2E2E2E2E2E2E2DCE2E2E2E2E2E2E2E2E2E2E2E2E2E2E2E2E2E2E2E2E2E2E2E2E2E2E2E2E2E2E2E2E2E2E2E2E2E2E2E2E2E2E2E2E2E2E2E2E2E2E2E2E2E2E2E2E2E2E2E2
310
E2E2E2E2E2E2E2E2E2E2E2E2E2E2DCE2E2E2E2E2E2E2E2E2E2E2E2E2E2E2E2E2E2E2E2E2E2E2E2E2E2E2E2E2F5E2E2E2E2E2E2E2E2E2E2E2E2E2E2E2E2F5E2E2E2F5F5EFF5E2E2E2F5E2E2E2E2E2E2E2E2E2E2E2E2E2E2E2E2F5E2E2E2E2E2E2E2E2E2E2E2E2E2E2E2E2E2E2E2E2E2E2E2E2E2E2E2E2E2DCE2E2E2E2E2E2E2
310
E2E2E2E22727272727272727272727272727272727272727272727272727272727272727272727272727272727272727272727E2E2E2E2E2E2E2E2E2E2E2E2E2E2E2E2DCE2E2E2E2E2E2E2E2E2E2E2E2E2E2E2E2E2E2E2E2E2E2E2E2E2E2E2E2E2F5E2E2E2E2E2E2E2E2E2E2E2E2E2E2E2E2F5E2E2E2F5F5EFF5E2E2E2F5E2
310
E2E2E2E2E2E2E2E2E2E2E2E2E2E2E2F5E2E2E2E2E2E2E2E2E2E2E2E2E2E2E2E2E2E2E2E2E2E2E2E2E2E2E2E2E2DCE2E2E2E2E2E2E2E2E2E2E2E2E2E2E2E2E2E2E2E2E2E2E2E2E2E2E2E2E2E2E2E2E2E2E2E2E2E2E2E2E2E2E2E2E2E2E2E2E2E2E2E2E2E2E2E2E2E2E2E2E2E2E2E2E2E2E2E2E2E2E2E2E2E2DCE2E2E2E2E2E2
310
E2E2E2E2E2E2E2E2E2E2E2E2E2E2E2E2E2E2E2E2E2E2E2F5E2E2E2E2E2E2E2E2E2E2E2E2E2E2E2E2F5E2E2E2F5F5EFF5E2E2E2F5E2E2E2E2E2E2E2E2E2E2E2E2E2E2E2E2F5E2E2E2E2E2E2E2E2E2E2E2E2E2E2E2E2E2E2E2E2E2E2E2E2E2E2E2E2E2DCE2E2E2E2E2E2E2E2E2E2272727272727272727272727272727E2E2E2
310
E2E2E2E2E2E2E2E2E2E2E2E2E2E2E2E2E2E2E2E2E2E2E2E2E2E2E2E2E2E2E2E2E2E2E2E2E2E2E2E2E2E2E2E2E2E2DCE2E2E2E2E2E2E2E2E2E2E2E2E2E2E2E2E2E2E2E2E2E2E2E2E2E2E2E2E2F5E2E2E2E2E2E2E2E2E2E2E2E2E2E2E2E2F5E2E2E2F5F5EFF5E2E2E2E2E2E2E2E2E2E2E2E2E2E2E2E2E2E2E2E2F5E2E2E2E2E2
310
E2E2E2E2E2E2E2E2E2E2E2E2E2E2E2E2E2E2E2E2E2E2E2E2DCE2E2E2E2E2E2E2E2E2E2272727272727272727272727272727E2E2E2E2E2E2E2E2E2E2E2E2E2E2E2E2E2E2E2E2E2E2E2E2E2E2E2E2E2E2E2E2E2E2E2E2E2E2E2E2E2E2E2E2E2E2E2E2E2DCE2E2E2E2E2E2E2E2E2E2E2E2E2E2E2E2E2E2E2E2E2E2E2E2E2E2E2
310
E2E2F5E2E2E2E2E2E2E2E2E2E2E2E2E2E2E2E2E2E2E2E2F5F5EFF5E2E2E2E2E2E2E2E2E2E2E2E2E2E2E2E2E2E2E2E2F5E2E2E2E2E2E2E2E2E2E2E2E2E2E2E2E2E2E2E2E2E2E2E2E2E2E2E2E2E2DCE2E2E2E2E2E2E2E2E2E2E2E2E2E2E2E2E2E2E2E2E2E2E2E2E2E2E2E2E2E2E2E2E2E2E2E2E2E2E2E2E2E2E2E2E2E2E2E2E2
310
E2E2E2E2E2E2E2E2E2E2E2E2E2E2E2E2E2E2E2E2E2E2E2E2E2DCE2E2E2E2E2E2E2E2E2E2E2E2E2E2E2E2E2E2E2E2E2E2E2E2E2E2E2E2E2F5E2E2E2E2E2E2E2E2E2E2E2E2E2E2E2E2E2E2E2E2F5F5EFF5E2E2E2E2E2E2E2E2E2E2E2E2E2E2E2E2E2E2E2E2F5E2E2E2E2E2E2E2E2E2E2E2E2E2E2E2E2E2E2E2E2E2E2E2E2E2E2
310
E2E2E2DCE2E2E2E2E2E2E2E2E2E2E2E2E2E2E2E2E2E2E2E2E2E2E2E2E2E2E2E2E2E2E2E2E2E2E2E2E2E2E2E2E2E2E2E2E2E2E2E2E2E2E2E2E2E2E2E2E2E2E2E2E2E2E2E2E2E2E2E2E2E2E2E2E2E2DCE2E2E2E2E2E2E2E2E2E2E2E2E2E2E2E2E2E2E2E2E2E2E2E2E2E2E2E2E2F5E2E2E2E2E2E2E2E2E2E2E2E2E2E2E2E2E2E2
310
E2E2F5F5EFF5E2E2E2E2E2E2E2E2E2E2E2E2E2E2E2E2E2E2E2E2F5E2E2E2E2E2E2E2E2E2E2E2E2E2E2E2E2E2E2E2E2E2E2E2E2E2E2E2E2E2DCE2E2E2E2E2E2E2E2E2E2E2E2E2E2E2E2E2E2E2E2E2E2E2E2E2E2E2E2E2E2E2E2E2E2E2E2E2E2E2E2E2E2E2E2E2E2E2E2E2E2E2E2E2E2E2E2E2E2E2E2E2E2E2E2E2E2E2E2E2E2
310
E2E2E2E2DCE2E2E2E2E2E2E2E2E2E2E2E2E2E2E2E2E2E2E2E2E2E2E2E2E2E2E2E2E2F5E2E2E2E2E2E2E2E2E2E2E2E2E2E2E2E2E2E2E2E2F5F5EFF5E2E2E2E2E2E2E2E2E2E2E2E2E2E2E2E2E2E2E2E2F5F5F5F5F5F5F5F5F5F5F5F5F5F5F5F5F5F5F5F5F5F5F5F5F5F5F5F5F5F5F5F5F5F5F5F5F5F5F5F5F5F5F5F5F5F5F5F5
310
F5F5F5F5F5F5F5F5F5F5F5F5F5F5F5F5F5F5F5F5F5F5F5F5F5F5F5F5F5F5F5F5F5F5F5F5F5F5F5F5F5F5F5F5F5F5F5F5F5F5F5F5F5F5F5F5F5F5F5F5F5F5F5F5F5F5F5F5F5F5F5F5F5F5F5F5F5F5F5F5F5F5F5F5F5F5F5F5E2E2E2E2E2E2E2E2E2E2E2E2E2E2E2E2E2E2E2E2F5F5EFF5E2E2E2E2E2E2E2E2E2E2E2E2E2E2E2
310
E2E2E2E2E2E2E2E2E2E2E2E2E2E2E2E2E2E2E2E2E2E2E2E2E2E2E2E2E2E2E2E2E2E2E2E2E2E2E2E2E2E2E2E2E2E2E2E2E2E2E2E2E2E2E2E2E2E2E2E2E2E2E2E2E2E2E2E2E2E2E2E2E2E2E2E2E2E2E2E2E2E2E2E2E2E2E2E2E2E2E2E2E2E2E2E2E2E2E2E2E2E2E2E2E2E2E2E2E2E2E2E2E2E2E2E2E2E2E2E2E2E2E2E2E2E2E2
310
E2E2E2E2E2E2E2E2E2E2E2E2E2E2E2E2E2E2E2E2E2E2E2E2E2E2E2E2E2E2E2E2E2E2F5F5EFF5E2E2E2E2E2E2E2E2E2E2E2E2E2E2E2E2E2E2E2E2E2E2E2E2E2E2E2E2E2E2E2E2E2E2E2E2E2E2E2E2E2E2E2E2E2E2E2E2E2E2E2E2E2E2E2E2E2E2E2E2E2E2E2E2E2E2E2E2E2E2E2E2E2E2E2E2E2E2E2E2E2E2E2E2E2E2E2E2E2
310
E2E2E2E2E2E2E2E2E2E2E2E2E2E2E2E2E2E2E2E2E2E2E2E2E2E2E2E2E2E2E2E2E2E2E2E2E2E2E2E2E2E2E2E2E2E2E2E2E2E2E2E2E2E2E2E2E2E2E2E2E2E2E2E2E2E2E2E2E2E2E2E2E2E2E2E2E2E2E2E2E2E2E2E2E2E2E2F5F5EFF5E2E2E2E2E2E2E2E2E2E2E2E2E2E2E2E2E2E2E2E2E2E2E2E2E2E2E2E2E2E2E2E2E2E2E2E2
310
E2E2E2E2E2E2E2E2E2E2E2E2E2E2E2E2E2E2E2E2E2E2E2E2E2E2E2E2E2E2E2E2E2E2E2E2E2E2E2E2E2E2E2E2E2E2E2E2E2E2E2E2E2E2E2E2E2E2E2E2E2E2E2E2E2E2E2E2E2E2E2E2E2E2E2E2E2E2E2E2E2E2E2E2E2E2E2E2E2E2E2E2E2E2E2E2E2E2E2E2E2E2E2E2E2E2E2E2E2E2E2E2E2E2E2E2E2E2E2E2E2E2E2E2E2E2E2
310
E2E2E2E2E2E2E2E2E2E2E2E2E2F5F5EFF5E2E2E2E2E2E2E2E2E2E2E2E2E2E2E2E2E2E2E2E2E2E2E2E2E2E2E2E2E2E2E2E2E2E2E2E2E2E2E2E2E2E2E2E2E2E2E2E2E2E2E2E2E2E2E2E2E2E2E2E2E2E2E2E2E2E2E2E2E2E2E2E2E2E2E2E2E2E2E2E2E2E2E2E2E2E2E2E2E2E2E2E2E2E2E2E2E2E2E2E2E2E2E2E2E2E2E2E2E2E2
310
E2E2E2E2E2E2E2E2E2E2E2E2E2E2E2E2E2E2E2E2E2E2E2E2E2E2E2E2E2E2E2E2E2E2E2E2E2E2E2E2E2E2E2E2E2E2E2E2E2E2E2E2E2E2E2E2E2E2E2E2E2E2E2E2E2E2F5F5EFF5E2E2E2F5E2E2E2E2E2E2E2E2E2E2E2E2E2E2E2E2E2E2E2E2E2E2E2E2E2E2E2E2E2E2E2E2E2E2E2E2E2E2E2E2E2E2E2E2E2E2E2E2E2E2E2E2E2
310
E2E2E2E2E2E2E2E2E2E2E2E2E2E2E2E2E2E2E2E2E2E2E2E2E2E2E2E2E2E2E2E2E2E2E2E2E2E2E2E2E2E2E2E2E2E2E2E2E2E2E2E2E2E2E2E2E2E2E2E2E2E2E2E2E2E2E2E2E2E2E2E2E2E2E2E2E2E2E2E2E2E2E2E2E2E2E2E2E2E2E2E2E2E2E2E2E2E2E2E2E2E2E2E2E2E2E2E2E2E2E2E2E2E2E2F5E2E2E2F5F5EFF5E2E2E2F5
310
E2E2E2E2E2E2E2E2E2E2E2E2E2E2E2E2E2E2E2E2E2E2E2E2E2E2E2E2E2E2E2E2E2E2E2E2E2E2E2E2E2E2E2E2E2E2E2E2E2E2E2E2E2E2E2E2E2E2E2E2E2E2E2E2E2E2E2E2E2E2E2E2E2E2E2E2E2E2E2E2E2E2E2E2E2E2E2E2E2E2E2E2E2E2E2E2E2E2E2E2E2E2E2E2E2E2E2E2E2E2E2E2E2E2E2E2E2E2E2E2E2E2E2E2E2E2E2
310
E2E2E2E2E2E2E2E2E2E2E2E2E2E2E2E2E2E2E2E2E2E2E2E2E2E2E2E2E2E2E2E2E2E2E2E2E2E2E2E2E2F5E2E2E2F5F5EFF5E2E2E2F5E2E2E2E2E2E2E2E2E2E2E2E2E2E2E2E2E2E2E2E2E2E2E2E2E2E2E2E2E2E2E2E2E2E2E2E2E2E2E2E2E2E2E2E2E2E2E2E2E2E2E2E2E2E2E2E2E2E2E2E2E2E2E2E2E2E2E2E2E2E2E2E2E2E2
310
E2E2E2E2E2E2E2E2E2E2E2E2E2E2E2E2E2E2E2E2E2E2E2E2E2E2E2E2E2E2E2E2E2E2E2E2E2E2E2E2E2E2E2E2E2E2E2E2E2E2E2E2E2E2E2E2E2E2E2E2E2E2E2E2E2E2E2E2E2E2E2E2E2E2E2E2E2E2E2E2E2E2E2E2E2E2E2E2E2E2E2E2E2E2F5E2E2E2F5F5EFF5E2E2E2F5E2E2E2E2E2E2E2E2E2E2E2E2E2E2E2E2E2E2E2E2E2
310
E2E2E2E2E2E2E2E2E2E2E2E2E2E2E2E2E2E2E2E2E2E2E2E2E2E2E2E2E2E2E2E2E2E2E2E2E2E2E2E2E2E2E2E2E2E2E2E2E2E2E2E2E2E2E2E2E2E2E2E2E2E2E2E2E2E2E2E2E2E2E2E2E2E2E2E2E2E2E2E2E2E2E2E2E2E2E2E2E2E2E2E2E2E2E2E2E2E2E2E2E2E2E2E2E2E2E2E2E2E2E2E2E2E2E2E2E2E2E2E2E2E2E2E2E2E2E2
310
E2E2E2E2E2E2E2E2E2E2E2E2E2E2E2E2E2E2E2E2F5E2E2E2F5F5EFF5E2E2E2F5E2E2E2E2E2E2E2E2E2E2E2E2E2E2E2E2E2E2E2E2E2E2E2E2E2E2E2E2E2E2E2E2E2E2E2E2E2E2E2E2E2E2E2E2E2E2E2E2E2E2E2E2E2E2E2E2E2E2E2E2E2E2E2E2E2E2E2E2E2E2E2E2E2E2E2E2E2E2E2E2E2E2E2E2E2E2E2E2E2E2E2E2E2E2E2
310
E2E2E2E2E2E2E2E2E2E2E2E2E2E2E2E2E2E2E2E2E2E2E2E2E2E2E2E2E2E2E2E2E2E2E2E2E2E2E2E2E2E2E2E2E2E2E2E2E2E2E2E2E2E2E2E2E2E2E2E2E2E2E2E2E2E2E2E2E2E2E2E2E2F5E2E2E2F5F5EFF5E2E2E2F5E2E2E2E2E2E2E2E2E2E2E2E2E2E2E2E2E2E2E2E2E2E2E2E2E2E2E2E2E2E2E2E2E2E2E2E2E2E2E2E2E2E2
310
E2E2E2E2E2E2E2E2E2E2E2E2E2E2E2E2E2E2E2E2E2E2E2E2E2E2E2E2E2E2E2E2E2E2E2E2E2E2E2E2E2E2E2E2E2E2E2E2E2E2E2E2E2E2E2E2E2E2E2E2E2E2E2E2E2E2E2E2E2E2E2E2E2E2E2E2E2E2E2E2E2E2E2E2E2E2E2E2E2E2E2E2E2E2E2E2E2E2E2E2E2E2E2E2E2E2E2E2E2E2E2E2E2E2E2E2E2E2E2E2E2E2E2E2E2E2F5
310
E2E2E2F5F5EFF5E2E2E2F5E2E2E2E2E2E2E2E2E2E2E2E2E2E2E2E2E2E2E2E2E2E2E2E2E2E2E2E2E2E2E2E2E2E2E2E2E2E2E2E2E2E2E2E2E2E2E2E2E2E2E2E2E2E2E2E2E2E2E2E2E2E2E2E2E2E2E2E2E2E2E2E2E2E2E2E2E2E2E2E2E2E2E2E2E2E2E2E2E2E2E2E2E2E2E2E2E2E2E2E2E2E2E2E2E2E2E2E2E2E2E2E2E2E2E2E2
310
E2E2E2E2E2E2E2E2E2E2E2E2E2E2E2E2E2E2E2E2E2E2E2E2E2E2E2E2E2E2E2E2E2E2E2E2E2E2E2E2E2E2E2E2E2E2E2E2E2E2E2E2F5E2E2E2F5F5EFF5E2E2E2F5E2E2E2E2E2E2E2E2E2E2E2E2E2E2E2E2E2E2E2E2E2E2E2E2E2E2E2E2E2E2E2E2E2E2E2E2E2E2E2E2E2E2E2E2E2E2E2E2E2E2E2E2E2E2E2E2E2E2E2E2E2E2E2
310
E2E2E2E2E2E2E2E2E2E2E2E2E2E2E2E2E2E2E2E2E2E2E2E2E2E2E2E2E2E2E2E2E2E2E2E2E2E2E2E2E2E2E2E2E2E2E2E2E2E2E2E2E2E2E2E2E2E2E2E2E2E2E2E2E2E2E2E2E2E2E2E2E2E2E2E2E2E2E2E2E2E2E2E2E2E2E2E2E2E2E2E2E2E2E2E2E2E2E2E2E2E2E2E2E2F5E2E2E2F5F5EFF5E2E2E2F5F5F5F5F5F5F5F5E2E2E2
310
E2E2E2E2E2E2F5F5F5F5F5F5F5F5F5F5F5F5F5F5F5E2E2E2E2E2E2E2E2E2F5F5F5F5F5F5F5F5F5F5F5F5F5F5F5F5E2E2E2E2E2E2E2E2F5F5F5F5F5F5F5F5F5F5F5F5F5F5F5F5E2E2E2E2E2E2E2E2F5F5F5F5F5F5F5F5F5F5F5F5F5F5F5F5E2E2E2E2E2E2E2E2F5F5F5F5F5F5F5F5F5F5F5F5F5F5F5F5E2E2E2E2E2E2E2E2E2
310
F5F5F5F5F5F5F5F5F5F5F5F5F5F5F5E2E2E2E2E2E2E2E2E2F5F5F5F5F5F5F5F5E2E2E2F5F5EFF5E2E2E2E2E2E2E2E2E2E2E2E2E2E2E2E2E2E2E2E2E2E2E2E2E2E2E2E2E2E2E2E2E2E2E2E2E2E2E2E2E2E2E2E2E2E2E2E2E2E2E2E2E2E2E2E2E2E2E2E2E2E2E2E2E2E2E2E2E2E2E2E2E2E2E2E2E2E2E2E2E2E2E2E2E2E2E2E2
310
E2E2E2E2E2E2E2E2E2E2E2E2E2E2E2E2E2E2E2E2E2E2E2E2E2E2E2E2E2E2E2E2E2E2E2E2E2E2E2E2E2E2E2E2E2E2E2E2E2E2E2E2E2E2E2E2E2E2E2E2E2E2E2E2E2E2E2E2E2E2E2E2E2E2E2E2E2E2E2E2E2E2E2E2E2E2E2E2F5F5EFF5E2E2E2E2E2E2E2E2E2E2E2E2E2E2E2E2E2E2E2E2E2E2E2E2E2E2E2E2E2E2E2E2E2E2E2
310
E2E2E2E2E2E2E2E2E2E2E2E2E2E2E2E2E2E2E2E2E2E2E2E2E2E2E2E2E2E2E2E2E2E2E2E2E2E2E2E2E2E2E2E2E2E2E2E2E2E2E2E2E2E2E2E2E2E2E2E2E2E2E2E2E2E2E2E2E2E2E2E2E2E2E2E2E2E2E2E2E2E2E2E2E2E2E2E2E2E2E2E2E2E2E2E2E2E2E2E2E2E2E2E2E2E2E2E2E2E2E2E2E2E2E2E2E2E2E2E2E2E2E2E2E2E2E2
310
E2E2E2E2E2E2E2E2E2E2E2E2E2E2F5EFEFF5E2E2E2E2E2E2E2E2E2E2E2E2E2E2E2E2E2E2E2E2E2E2E2E2E2E2E2E2E2E2E2E2E2E2E2E2E2E2E2E2E2E2E2E2E2E2E2E2E2E2E2E2E2E2E2E2E2E2E2E2E2E2E2E2E2E2E2E2E2E2E2E2E2E2E2E2E2E2E2E2E2E2E2E2E2E2E2E2E2E2E2E2E2E2E2E2E2E2E2E2E2E2E2E2E2E2E2E2E2
310
E2E2E2E2E2E2E2E2E2E2E2E2E2E2E2E2E2E2E2E2E2E2E2E2E2E2E2E2E2E2E2E2E2E2E2E2E2E2E2E2E2E2E2E2E2E2E2E2E2E2E2E2E2E2E2E2E2E2E2E2E2E2E2E2E2E2E2F5EFEFF5F5F5F5F5F5F5F5F5F5F5F5F5F5F5F5F5F5F5F5F5F5F5F5F5F5F5F5F5F5F5F5F5F5F5F5F5F5F5F5F5F5F5F5F5F5F5F5F5F5F5F5F5F5F5F5F5
310
F5F5F5F5F5F5F5F5F5F5F5F5F5F5F5F5F5F5F5F5F5F5F5F5F5F5F5F5F5F5F5F5F5F5F5F5F5F5F5F5F5F5F5F5F5F5F5F5F5F5F5F5F5F5F5F5F5F5F5F5F5F5F5F5F5F5F5F5F5F5F5F5F5F5F5F5F5F5F5F5F5F5F5F5F5F5F5F5F5F5F5F5F5F5F5F5F5F5F5F5F5F5F5F5F5F5F5F5F5F5F5F5F5F5F5F5F5F5F5F5F5EFEF
  0
XRECORD
  5
22F
102
{ACAD_REACTORS
330
22E
102
}
330
22E
100
AcDbXrecord
280
     1
102
SHADEPLOT
 70
     1
102
SHADEPLOTRESLEVEL
 70
     2
102
SHADEPLOTCUSTOMDPI
 70
   300
  0
XRECORD
  5
238
102
{ACAD_REACTORS
330
237
102
}
330
237
100
AcDbXrecord
280
     1
102
MATERIAL
148
0.0
149
0.0
149
0.0
 93
        0
 94
       63
282
     0
 72
     1
 77
     1
171
     1
175
     1
179
     1
273
     0
  0
XRECORD
  5
236
102
{ACAD_REACTORS
330
235
102
}
330
235
100
AcDbXrecord
280
     1
102
MATERIAL
148
0.0
149
0.0
149
0.0
 93
        0
 94
       63
282
     0
 72
     1
 77
     1
171
     1
175
     1
179
     1
273
     0
  0
XRECORD
  5
229
102
{ACAD_REACTORS
330
228
102
}
330
228
100
AcDbXrecord
280
     1
102
MATERIAL
148
0.0
149
0.0
149
0.0
 93
        0
 94
       63
282
     0
 72
     1
 77
     1
171
     1
175
     1
179
     1
273
     0
  0
CELLSTYLEMAP
  5
225
102
{ACAD_REACTORS
330
1C9
102
}
330
1C9
100
AcDbCellStyleMap
 90
        3
300
CELLSTYLE
  1
TABLEFORMAT_BEGIN
 90
        5
170
     1
 91
        0
 92
    32768
 62
   257
 93
        1
300
CONTENTFORMAT
  1
CONTENTFORMAT_BEGIN
 90
        0
 91
        0
 92
        4
 93
        0
300

 40
0.0
140
1.0
 94
        5
 62
     0
340
1B1
144
0.25
309
CONTENTFORMAT_END
171
     0
 94
        6
 95
        1
302
GRIDFORMAT
  1
GRIDFORMAT_BEGIN
 90
        0
 91
        1
 62
     0
 92
       -2
340
0
 93
        0
 40
0.045
309
GRIDFORMAT_END
 95
        2
302
GRIDFORMAT
  1
GRIDFORMAT_BEGIN
 90
        0
 91
        1
 62
     0
 92
       -2
340
0
 93
        0
 40
0.045
309
GRIDFORMAT_END
 95
        4
302
GRIDFORMAT
  1
GRIDFORMAT_BEGIN
 90
        0
 91
        1
 62
     0
 92
       -2
340
0
 93
        0
 40
0.045
309
GRIDFORMAT_END
 95
        8
302
GRIDFORMAT
  1
GRIDFORMAT_BEGIN
 90
        0
 91
        1
 62
     0
 92
       -2
340
0
 93
        0
 40
0.045
309
GRIDFORMAT_END
 95
       16
302
GRIDFORMAT
  1
GRIDFORMAT_BEGIN
 90
        0
 91
        1
 62
     0
 92
       -2
340
0
 93
        0
 40
0.045
309
GRIDFORMAT_END
 95
       32
302
GRIDFORMAT
  1
GRIDFORMAT_BEGIN
 90
        0
 91
        1
 62
     0
 92
       -2
340
0
 93
        0
 40
0.045
309
GRIDFORMAT_END
309
TABLEFORMAT_END
  1
CELLSTYLE_BEGIN
 90
        1
 91
        1
300
_TITLE
309
CELLSTYLE_END
300
CELLSTYLE
  1
TABLEFORMAT_BEGIN
 90
        5
170
     1
 91
        0
 92
        0
 62
   257
 93
        1
300
CONTENTFORMAT
  1
CONTENTFORMAT_BEGIN
 90
        0
 91
        0
 92
        4
 93
        0
300

 40
0.0
140
1.0
 94
        5
 62
     0
340
1B1
144
0.18
309
CONTENTFORMAT_END
171
     0
 94
        6
 95
        1
302
GRIDFORMAT
  1
GRIDFORMAT_BEGIN
 90
        0
 91
        1
 62
     0
 92
       -2
340
0
 93
        0
 40
0.045
309
GRIDFORMAT_END
 95
        2
302
GRIDFORMAT
  1
GRIDFORMAT_BEGIN
 90
        0
 91
        1
 62
     0
 92
       -2
340
0
 93
        0
 40
0.045
309
GRIDFORMAT_END
 95
        4
302
GRIDFORMAT
  1
GRIDFORMAT_BEGIN
 90
        0
 91
        1
 62
     0
 92
       -2
340
0
 93
        0
 40
0.045
309
GRIDFORMAT_END
 95
        8
302
GRIDFORMAT
  1
GRIDFORMAT_BEGIN
 90
        0
 91
        1
 62
     0
 92
       -2
340
0
 93
        0
 40
0.045
309
GRIDFORMAT_END
 95
       16
302
GRIDFORMAT
  1
GRIDFORMAT_BEGIN
 90
        0
 91
        1
 62
     0
 92
       -2
340
0
 93
        0
 40
0.045
309
GRIDFORMAT_END
 95
       32
302
GRIDFORMAT
  1
GRIDFORMAT_BEGIN
 90
        0
 91
        1
 62
     0
 92
       -2
340
0
 93
        0
 40
0.045
309
GRIDFORMAT_END
309
TABLEFORMAT_END
  1
CELLSTYLE_BEGIN
 90
        2
 91
        1
300
_HEADER
309
CELLSTYLE_END
300
CELLSTYLE
  1
TABLEFORMAT_BEGIN
 90
        5
170
     1
 91
        0
 92
        0
 62
   257
 93
        1
300
CONTENTFORMAT
  1
CONTENTFORMAT_BEGIN
 90
        0
 91
        0
 92
        4
 93
        0
300

 40
0.0
140
1.0
 94
        2
 62
     0
340
1B1
144
0.18
309
CONTENTFORMAT_END
171
     0
 94
        6
 95
        1
302
GRIDFORMAT
  1
GRIDFORMAT_BEGIN
 90
        0
 91
        1
 62
     0
 92
       -2
340
0
 93
        0
 40
0.045
309
GRIDFORMAT_END
 95
        2
302
GRIDFORMAT
  1
GRIDFORMAT_BEGIN
 90
        0
 91
        1
 62
     0
 92
       -2
340
0
 93
        0
 40
0.045
309
GRIDFORMAT_END
 95
        4
302
GRIDFORMAT
  1
GRIDFORMAT_BEGIN
 90
        0
 91
        1
 62
     0
 92
       -2
340
0
 93
        0
 40
0.045
309
GRIDFORMAT_END
 95
        8
302
GRIDFORMAT
  1
GRIDFORMAT_BEGIN
 90
        0
 91
        1
 62
     0
 92
       -2
340
0
 93
        0
 40
0.045
309
GRIDFORMAT_END
 95
       16
302
GRIDFORMAT
  1
GRIDFORMAT_BEGIN
 90
        0
 91
        1
 62
     0
 92
       -2
340
0
 93
        0
 40
0.045
309
GRIDFORMAT_END
 95
       32
302
GRIDFORMAT
  1
GRIDFORMAT_BEGIN
 90
        0
 91
        1
 62
     0
 92
       -2
340
0
 93
        0
 40
0.045
309
GRIDFORMAT_END
309
TABLEFORMAT_END
  1
CELLSTYLE_BEGIN
 90
        3
 91
        2
300
_DATA
309
CELLSTYLE_END
  0
XRECORD
  5
239
102
{ACAD_REACTORS
330
1C9
102
}
330
1C9
100
AcDbXrecord
280
     1
102
ACAD_ROUNDTRIP_PRE2007_TABLESTYLE
 90
        4
 91
        0
  1

 92
        4
 93
        0
  2

 94
        4
 95
        0
  3

  0
ENDSEC
  0
EOF
