  0
SECTION
  2
HEADER
  9
$ACADVER
  1
AC1015
  9
$ACADMAINTVER
 70
    20
  9
$DWGCODEPAGE
  3
ANSI_1250
  9
$INSBASE
 10
215187.233673673
 20
127657.5168525552
 30
0.0
  9
$EXTMIN
 10
228790.637244777
 20
127651.5804863085
 30
-0.0000000000000079
  9
$EXTMAX
 10
239001.5742410467
 20
141681.8396902825
 30
0.0000000000000358
  9
$LIMMIN
 10
0.0
 20
0.0
  9
$LIMMAX
 10
420.0
 20
297.0
  9
$ORTHOMODE
 70
     0
  9
$REGENMODE
 70
     1
  9
$FILLMODE
 70
     1
  9
$QTEXTMODE
 70
     0
  9
$MIRRTEXT
 70
     0
  9
$LTSCALE
 40
75.0
  9
$ATTMODE
 70
     1
  9
$TEXTSIZE
 40
20.0
  9
$TRACEWID
 40
1.0
  9
$TEXTSTYLE
  7
ROMANS
  9
$CLAYER
  8
0Hatch
  9
$CELTYPE
  6
ByLayer
  9
$CECOLOR
 62
   256
  9
$CELTSCALE
 40
1.0
  9
$DISPSILH
 70
     0
  9
$DIMSCALE
 40
1.0
  9
$DIMASZ
 40
30.0
  9
$DIMEXO
 40
43.0
  9
$DIMDLI
 40
0.0
  9
$DIMRND
 40
0.5
  9
$DIMDLE
 40
12.0
  9
$DIMEXE
 40
13.0
  9
$DIMTP
 40
0.0
  9
$DIMTM
 40
0.0
  9
$DIMTXT
 40
80.0
  9
$DIMCEN
 40
0.0
  9
$DIMTSZ
 40
0.0
  9
$DIMTOL
 70
     0
  9
$DIMLIM
 70
     0
  9
$DIMTIH
 70
     0
  9
$DIMTOH
 70
     0
  9
$DIMSE1
 70
     1
  9
$DIMSE2
 70
     1
  9
$DIMTAD
 70
     0
  9
$DIMZIN
 70
    12
  9
$DIMBLK
  1
B-DIM
  9
$DIMASO
 70
     1
  9
$DIMSHO
 70
     1
  9
$DIMPOST
  1

  9
$DIMAPOST
  1

  9
$DIMALT
 70
     0
  9
$DIMALTD
 70
     2
  9
$DIMALTF
 40
25.4
  9
$DIMLFAC
 40
1.0
  9
$DIMTOFL
 70
     1
  9
$DIMTVP
 40
1.0
  9
$DIMTIX
 70
     1
  9
$DIMSOXD
 70
     0
  9
$DIMSAH
 70
     0
  9
$DIMBLK1
  1

  9
$DIMBLK2
  1

  9
$DIMSTYLE
  2
500
  9
$DIMCLRD
 70
     1
  9
$DIMCLRE
 70
     1
  9
$DIMCLRT
 70
    10
  9
$DIMTFAC
 40
1.0
  9
$DIMGAP
 40
0.0
  9
$DIMJUST
 70
     0
  9
$DIMSD1
 70
     0
  9
$DIMSD2
 70
     0
  9
$DIMTOLJ
 70
     1
  9
$DIMTZIN
 70
     0
  9
$DIMALTZ
 70
     0
  9
$DIMALTTZ
 70
     0
  9
$DIMUPT
 70
     0
  9
$DIMDEC
 70
     1
  9
$DIMTDEC
 70
     1
  9
$DIMALTU
 70
     2
  9
$DIMALTTD
 70
     2
  9
$DIMTXSTY
  7
ROMANS
  9
$DIMAUNIT
 70
     0
  9
$DIMADEC
 70
     0
  9
$DIMALTRND
 40
0.0
  9
$DIMAZIN
 70
     0
  9
$DIMDSEP
 70
    46
  9
$DIMATFIT
 70
     3
  9
$DIMFRAC
 70
     0
  9
$DIMLDRBLK
  1
B-DIM
  9
$DIMLUNIT
 70
     2
  9
$DIMLWD
 70
    -2
  9
$DIMLWE
 70
    -2
  9
$DIMTMOVE
 70
     2
  9
$LUNITS
 70
     2
  9
$LUPREC
 70
     1
  9
$SKETCHINC
 40
1.0
  9
$FILLETRAD
 40
0.0
  9
$AUNITS
 70
     0
  9
$AUPREC
 70
     0
  9
$MENU
  1
.
  9
$ELEVATION
 40
0.0
  9
$PELEVATION
 40
0.0
  9
$THICKNESS
 40
0.0
  9
$LIMCHECK
 70
     0
  9
$CHAMFERA
 40
0.0
  9
$CHAMFERB
 40
0.0
  9
$CHAMFERC
 40
20.0
  9
$CHAMFERD
 40
0.0
  9
$SKPOLY
 70
     0
  9
$TDCREATE
 40
2452027.670547454
  9
$TDUCREATE
 40
2452027.587214121
  9
$TDUPDATE
 40
2455112.465830070
  9
$TDUUPDATE
 40
2455112.382496736
  9
$TDINDWG
 40
8.9353632639
  9
$TDUSRTIMER
 40
8.9353632639
  9
$USRTIMER
 70
     1
  9
$ANGBASE
 50
0.0
  9
$ANGDIR
 70
     0
  9
$PDMODE
 70
     0
  9
$PDSIZE
 40
0.0
  9
$PLINEWID
 40
0.0
  9
$SPLFRAME
 70
     0
  9
$SPLINETYPE
 70
     6
  9
$SPLINESEGS
 70
     8
  9
$HANDSEED
  5
14D0A
  9
$SURFTAB1
 70
     6
  9
$SURFTAB2
 70
     6
  9
$SURFTYPE
 70
     6
  9
$SURFU
 70
     6
  9
$SURFV
 70
     6
  9
$UCSBASE
  2

  9
$UCSNAME
  2

  9
$UCSORG
 10
0.0
 20
0.0
 30
0.0
  9
$UCSXDIR
 10
1.0
 20
0.0
 30
0.0
  9
$UCSYDIR
 10
0.0
 20
1.0
 30
0.0
  9
$UCSORTHOREF
  2

  9
$UCSORTHOVIEW
 70
     0
  9
$UCSORGTOP
 10
0.0
 20
0.0
 30
0.0
  9
$UCSORGBOTTOM
 10
0.0
 20
0.0
 30
0.0
  9
$UCSORGLEFT
 10
0.0
 20
0.0
 30
0.0
  9
$UCSORGRIGHT
 10
0.0
 20
0.0
 30
0.0
  9
$UCSORGFRONT
 10
0.0
 20
0.0
 30
0.0
  9
$UCSORGBACK
 10
0.0
 20
0.0
 30
0.0
  9
$PUCSBASE
  2

  9
$PUCSNAME
  2

  9
$PUCSORG
 10
0.0
 20
0.0
 30
0.0
  9
$PUCSXDIR
 10
1.0
 20
0.0
 30
0.0
  9
$PUCSYDIR
 10
0.0
 20
1.0
 30
0.0
  9
$PUCSORTHOREF
  2

  9
$PUCSORTHOVIEW
 70
     0
  9
$PUCSORGTOP
 10
0.0
 20
0.0
 30
0.0
  9
$PUCSORGBOTTOM
 10
0.0
 20
0.0
 30
0.0
  9
$PUCSORGLEFT
 10
0.0
 20
0.0
 30
0.0
  9
$PUCSORGRIGHT
 10
0.0
 20
0.0
 30
0.0
  9
$PUCSORGFRONT
 10
0.0
 20
0.0
 30
0.0
  9
$PUCSORGBACK
 10
0.0
 20
0.0
 30
0.0
  9
$USERI1
 70
     0
  9
$USERI2
 70
     0
  9
$USERI3
 70
     0
  9
$USERI4
 70
     0
  9
$USERI5
 70
     0
  9
$USERR1
 40
0.0
  9
$USERR2
 40
0.0
  9
$USERR3
 40
0.0
  9
$USERR4
 40
0.0
  9
$USERR5
 40
0.0
  9
$WORLDVIEW
 70
     1
  9
$SHADEDGE
 70
     3
  9
$SHADEDIF
 70
    70
  9
$TILEMODE
 70
     1
  9
$MAXACTVP
 70
    64
  9
$PINSBASE
 10
0.0
 20
0.0
 30
0.0
  9
$PLIMCHECK
 70
     0
  9
$PEXTMIN
 10
1.000000000000000E+20
 20
1.000000000000000E+20
 30
1.000000000000000E+20
  9
$PEXTMAX
 10
-1.000000000000000E+20
 20
-1.000000000000000E+20
 30
-1.000000000000000E+20
  9
$PLIMMIN
 10
0.0
 20
0.0
  9
$PLIMMAX
 10
420.0
 20
297.0
  9
$UNITMODE
 70
     0
  9
$VISRETAIN
 70
     1
  9
$PLINEGEN
 70
     0
  9
$PSLTSCALE
 70
     1
  9
$TREEDEPTH
 70
  3020
  9
$CMLSTYLE
  2
Standard
  9
$CMLJUST
 70
     0
  9
$CMLSCALE
 40
20.0
  9
$PROXYGRAPHICS
 70
     1
  9
$MEASUREMENT
 70
     0
  9
$CELWEIGHT
370
    -1
  9
$ENDCAPS
280
     0
  9
$JOINSTYLE
280
     0
  9
$LWDISPLAY
290
     1
  9
$INSUNITS
 70
     1
  9
$HYPERLINKBASE
  1

  9
$STYLESHEET
  1
monochrome_140.ctb
  9
$XEDIT
290
     1
  9
$CEPSNTYPE
380
     0
  9
$PSTYLEMODE
290
     1
  9
$FINGERPRINTGUID
  2
{938A2469-3AF5-11D5-BC95-0050BABCE9EC}
  9
$VERSIONGUID
  2
{1A1A78D0-F808-4776-B492-1959F2E7CDEF}
  9
$EXTNAMES
290
     1
  9
$PSVPSCALE
 40
0.0
  9
$OLESTARTUP
290
     0
  0
ENDSEC
  0
SECTION
  2
CLASSES
  0
CLASS
  1
ACDBDICTIONARYWDFLT
  2
AcDbDictionaryWithDefault
  3
ObjectDBX Classes
 90
        0
280
     0
281
     0
  0
CLASS
  1
ACDBPLACEHOLDER
  2
AcDbPlaceHolder
  3
ObjectDBX Classes
 90
        0
280
     0
281
     0
  0
CLASS
  1
LAYOUT
  2
AcDbLayout
  3
ObjectDBX Classes
 90
        0
280
     0
281
     0
  0
CLASS
  1
DICTIONARYVAR
  2
AcDbDictionaryVar
  3
ObjectDBX Classes
 90
        0
280
     0
281
     0
  0
CLASS
  1
SORTENTSTABLE
  2
AcDbSortentsTable
  3
ObjectDBX Classes
 90
        0
280
     0
281
     0
  0
CLASS
  1
AEC_VARS_DWG_SETUP
  2
AecDbVarsDwgSetup
  3
AecBase50|Product Desc: Autodesk Architectural Desktop 2007 |Company: Autodesk,Inc. |WEB Address: www.autodesk.com
 90
      129
280
     0
281
     0
  0
CLASS
  1
AEC_DISP_REP_CONFIG
  2
AecDbDispRepConfig
  3
AecBase50|Product Desc: Autodesk Architectural Desktop 2007 |Company: Autodesk,Inc. |WEB Address: www.autodesk.com
 90
      129
280
     0
281
     0
  0
CLASS
  1
AEC_DISP_REP_SET
  2
AecDbDispRepSet
  3
AecBase50|Product Desc: Autodesk Architectural Desktop 2007 |Company: Autodesk,Inc. |WEB Address: www.autodesk.com
 90
      129
280
     0
281
     0
  0
CLASS
  1
AEC_DISP_REP_2D_SECTION
  2
AecDbDispRep2dSection
  3
AecBase50|Product Desc: Autodesk Architectural Desktop 2007 |Company: Autodesk,Inc. |WEB Address: www.autodesk.com
 90
      129
280
     0
281
     0
  0
CLASS
  1
AEC_DISP_REP_ANCHOR_BUB_TO_GRID
  2
AecDbDispRepAnchorBubToGrid
  3
AecStructureBase50|Product Desc: Autodesk Architectural Desktop 2007 |Company: Autodesk,Inc. |WEB Address: www.autodesk.com
 90
      129
280
     0
281
     0
  0
CLASS
  1
AEC_DISP_REP_ANCHOR_BUB_TO_GRID_MODEL
  2
AecDbDispRepAnchorBubToGridMdl
  3
AecStructureBase50|Product Desc: Autodesk Architectural Desktop 2007 |Company: Autodesk,Inc. |WEB Address: www.autodesk.com
 90
      129
280
     0
281
     0
  0
CLASS
  1
AEC_DISP_REP_ANCHOR_ENT_TO_NODE
  2
AecDbDispRepAnchorEntToNode
  3
AecBaseEx50|Product Desc: Autodesk Architectural Desktop 2007 |Company: Autodesk,Inc. |WEB Address: www.autodesk.com
 90
      129
280
     0
281
     0
  0
CLASS
  1
AEC_DISP_REP_ANCHOR_TAG_TO_ENT
  2
AecDbDispRepAnchorTagToEnt
  3
AecScheduleData50|Product Desc: Autodesk Architectural Desktop 2007 |Company: Autodesk,Inc. |WEB Address: www.autodesk.com
 90
      129
280
     0
281
     0
  0
CLASS
  1
AEC_DISP_REP_AREA
  2
AecDbDispRepArea
  3
AecAreaCalculationBase50|Product Desc: Autodesk Architectural Desktop 2007 |Company: Autodesk,Inc. |WEB Address: www.autodesk.com
 90
    32897
280
     0
281
     0
  0
CLASS
  1
AEC_DISP_REP_AREA_DECOMPOSED
  2
AecDbDispRepAreaDecomposed
  3
AecAreaCalculationBase50|Product Desc: Autodesk Architectural Desktop 2007 |Company: Autodesk,Inc. |WEB Address: www.autodesk.com
 90
    32897
280
     0
281
     0
  0
CLASS
  1
AEC_DISP_REP_AREAGROUP
  2
AecDbDispRepAreaGroup
  3
AecAreaCalculationBase50|Product Desc: Autodesk Architectural Desktop 2007 |Company: Autodesk,Inc. |WEB Address: www.autodesk.com
 90
    32897
280
     0
281
     0
  0
CLASS
  1
AEC_DISP_REP_BDG_ELEVLINE_MODEL
  2
AecDbDispRepBdgElevLineModel
  3
AecArchBase50|Product Desc: Autodesk Architectural Desktop 2007 |Company: Autodesk,Inc. |WEB Address: www.autodesk.com
 90
      129
280
     0
281
     0
  0
CLASS
  1
AEC_DISP_REP_BDG_SECTIONLINE_PLAN
  2
AecDbDispRepBdgElevLinePlan
  3
AecArchBase50|Product Desc: Autodesk Architectural Desktop 2007 |Company: Autodesk,Inc. |WEB Address: www.autodesk.com
 90
      129
280
     0
281
     0
  0
CLASS
  1
AEC_DISP_REP_BDG_SECTIONLINE_MODEL
  2
AecDbDispRepBdgSectionLineModel
  3
AecArchBase50|Product Desc: Autodesk Architectural Desktop 2007 |Company: Autodesk,Inc. |WEB Address: www.autodesk.com
 90
      129
280
     0
281
     0
  0
CLASS
  1
AEC_DISP_REP_BDG_SECTIONLINE_PLAN
  2
AecDbDispRepBdgSectionLinePlan
  3
AecArchBase50|Product Desc: Autodesk Architectural Desktop 2007 |Company: Autodesk,Inc. |WEB Address: www.autodesk.com
 90
      129
280
     0
281
     0
  0
CLASS
  1
AEC_DISP_REP_BDG_SECTION_SUBDIV
  2
AecDbDispRepBdgSectionSubDiv
  3
AecArchBase50|Product Desc: Autodesk Architectural Desktop 2007 |Company: Autodesk,Inc. |WEB Address: www.autodesk.com
 90
      129
280
     0
281
     0
  0
CLASS
  1
AEC_DISP_REP_CAMERA
  2
AecDbDispRepCamera
  3
AecBase50|Product Desc: Autodesk Architectural Desktop 2007 |Company: Autodesk,Inc. |WEB Address: www.autodesk.com
 90
    32897
280
     0
281
     0
  0
CLASS
  1
AEC_DISP_REP_CEILING_GRID
  2
AecDbDispRepCeilingGrid
  3
AecArchBase50|Product Desc: Autodesk Architectural Desktop 2007 |Company: Autodesk,Inc. |WEB Address: www.autodesk.com
 90
      893
280
     0
281
     0
  0
CLASS
  1
AEC_DISP_REP_CEILING_GRID_MODEL
  2
AecDbDispRepCeilingGridModel
  3
AecArchBase50|Product Desc: Autodesk Architectural Desktop 2007 |Company: Autodesk,Inc. |WEB Address: www.autodesk.com
 90
      129
280
     0
281
     0
  0
CLASS
  1
AEC_DISP_REP_CEILING_GRID_RCP
  2
AecDbDispRepCeilingGridRcp
  3
AecArchBase50|Product Desc: Autodesk Architectural Desktop 2007 |Company: Autodesk,Inc. |WEB Address: www.autodesk.com
 90
      129
280
     0
281
     0
  0
CLASS
  1
AEC_DISP_REP_CLIP_VOLUME_MODEL
  2
AecDbDispRepClipVolModel
  3
AecBase50|Product Desc: Autodesk Architectural Desktop 2007 |Company: Autodesk,Inc. |WEB Address: www.autodesk.com
 90
      129
280
     0
281
     0
  0
CLASS
  1
AEC_DISP_REP_CLIP_VOLUME_PLAN
  2
AecDbDispRepClipVolPlan
  3
AecBase50|Product Desc: Autodesk Architectural Desktop 2007 |Company: Autodesk,Inc. |WEB Address: www.autodesk.com
 90
      129
280
     0
281
     0
  0
CLASS
  1
AEC_DISP_REP_CLIP_VOLUME_RESULT_SUBDIV
  2
AecDbDispRepClipVolResSubDiv
  3
AecBase50|Product Desc: Autodesk Architectural Desktop 2007 |Company: Autodesk,Inc. |WEB Address: www.autodesk.com
 90
      129
280
     0
281
     0
  0
CLASS
  1
AEC_DISP_REP_CLIP_VOLUME_RESULT
  2
AecDbDispRepClipVolResult
  3
AecBase50|Product Desc: Autodesk Architectural Desktop 2007 |Company: Autodesk,Inc. |WEB Address: www.autodesk.com
 90
      129
280
     0
281
     0
  0
CLASS
  1
AEC_DISP_REP_COLUMN_GRID
  2
AecDbDispRepColumnGrid
  3
AecStructureBase50|Product Desc: Autodesk Architectural Desktop 2007 |Company: Autodesk,Inc. |WEB Address: www.autodesk.com
 90
      129
280
     0
281
     0
  0
CLASS
  1
AEC_DISP_REP_COLUMN_GRID_MODEL
  2
AecDbDispRepColumnGridModel
  3
AecStructureBase50|Product Desc: Autodesk Architectural Desktop 2007 |Company: Autodesk,Inc. |WEB Address: www.autodesk.com
 90
      129
280
     0
281
     0
  0
CLASS
  1
AEC_DISP_REP_CURTAIN_WALL_LAYOUT_MODEL
  2
AecDbDispRepCurtainWallLayoutModel
  3
AecArchBase50|Product Desc: Autodesk Architectural Desktop 2007 |Company: Autodesk,Inc. |WEB Address: www.autodesk.com
 90
      129
280
     0
281
     0
  0
CLASS
  1
AEC_DISP_REP_CURTAIN_WALL_LAYOUT_PLAN
  2
AecDbDispRepCurtainWallLayoutPlan
  3
AecArchBase50|Product Desc: Autodesk Architectural Desktop 2007 |Company: Autodesk,Inc. |WEB Address: www.autodesk.com
 90
      129
280
     0
281
     0
  0
CLASS
  1
AEC_DISP_REP_CURTAIN_WALL_UNIT_MODEL
  2
AecDbDispRepCurtainWallUnitModel
  3
AecArchBase50|Product Desc: Autodesk Architectural Desktop 2007 |Company: Autodesk,Inc. |WEB Address: www.autodesk.com
 90
      129
280
     0
281
     0
  0
CLASS
  1
AEC_DISP_REP_CURTAIN_WALL_UNIT_PLAN
  2
AecDbDispRepCurtainWallUnitPlan
  3
AecArchBase50|Product Desc: Autodesk Architectural Desktop 2007 |Company: Autodesk,Inc. |WEB Address: www.autodesk.com
 90
      129
280
     0
281
     0
  0
CLASS
  1
AEC_DB_DISP_REP_DIM_GROUP_PLAN
  2
AecDbDispRepDimGroupPlan
  3
AecArchDACHBase50|Product Desc: Autodesk Architectural Desktop 2007 |Company: Autodesk,Inc. |WEB Address: www.autodesk.com
 90
      129
280
     0
281
     0
  0
CLASS
  1
AEC_DISP_REP_DOOR_MODEL
  2
AecDbDispRepDoorModel
  3
AecArchBase50|Product Desc: Autodesk Architectural Desktop 2007 |Company: Autodesk,Inc. |WEB Address: www.autodesk.com
 90
      129
280
     0
281
     0
  0
CLASS
  1
AEC_DISP_REP_DOOR_NOMINAL
  2
AecDbDispRepDoorNominal
  3
AecArchBase50|Product Desc: Autodesk Architectural Desktop 2007 |Company: Autodesk,Inc. |WEB Address: www.autodesk.com
 90
      129
280
     0
281
     0
  0
CLASS
  1
AEC_DISP_REP_DOOR_PLAN
  2
AecDbDispRepDoorPlan
  3
AecArchBase50|Product Desc: Autodesk Architectural Desktop 2007 |Company: Autodesk,Inc. |WEB Address: www.autodesk.com
 90
      129
280
     0
281
     0
  0
CLASS
  1
AEC_DISP_REP_EDITINPLACEPROFILE
  2
AecDbDispRepEditInPlaceProfile
  3
AecBase50|Product Desc: Autodesk Architectural Desktop 2007 |Company: Autodesk,Inc. |WEB Address: www.autodesk.com
 90
      129
280
     0
281
     0
  0
CLASS
  1
AEC_DISP_REP_ENT_REF
  2
AecDbDispRepEntRef
  3
AecBase50|Product Desc: Autodesk Architectural Desktop 2007 |Company: Autodesk,Inc. |WEB Address: www.autodesk.com
 90
      129
280
     0
281
     0
  0
CLASS
  1
AEC_DISP_REP_LAYOUT_CURVE
  2
AecDbDispRepLayoutCurve
  3
AecBase50|Product Desc: Autodesk Architectural Desktop 2007 |Company: Autodesk,Inc. |WEB Address: www.autodesk.com
 90
      129
280
     0
281
     0
  0
CLASS
  1
AEC_DISP_REP_LAYOUT_GRID2D
  2
AecDbDispRepLayoutGrid2d
  3
AecBase50|Product Desc: Autodesk Architectural Desktop 2007 |Company: Autodesk,Inc. |WEB Address: www.autodesk.com
 90
      129
280
     0
281
     0
  0
CLASS
  1
AEC_DISP_REP_LAYOUT_GRID3D
  2
AecDbDispRepLayoutGrid3d
  3
AecBase50|Product Desc: Autodesk Architectural Desktop 2007 |Company: Autodesk,Inc. |WEB Address: www.autodesk.com
 90
      129
280
     0
281
     0
  0
CLASS
  1
AEC_DISP_REP_MASKBLOCK_REF
  2
AecDbDispRepMaskBlockRef
  3
AecBase50|Product Desc: Autodesk Architectural Desktop 2007 |Company: Autodesk,Inc. |WEB Address: www.autodesk.com
 90
      129
280
     0
281
     0
  0
CLASS
  1
AEC_DISP_REP_MASKBLOCK_REF_RCP
  2
AecDbDispRepMaskBlockRefRcp
  3
AecArchBase50|Product Desc: Autodesk Architectural Desktop 2007 |Company: Autodesk,Inc. |WEB Address: www.autodesk.com
 90
      129
280
     0
281
     0
  0
CLASS
  1
AEC_DISP_REP_MASS_ELEM_MODEL
  2
AecDbDispRepMassElemModel
  3
AecBaseEx50|Product Desc: Autodesk Architectural Desktop 2007 |Company: Autodesk,Inc. |WEB Address: www.autodesk.com
 90
      129
280
     0
281
     0
  0
CLASS
  1
AEC_DISP_REP_MASS_ELEM_SCHEM
  2
AecDbDispRepMassElemSchem
  3
AecBaseEx50|Product Desc: Autodesk Architectural Desktop 2007 |Company: Autodesk,Inc. |WEB Address: www.autodesk.com
 90
      129
280
     0
281
     0
  0
CLASS
  1
AEC_DISP_REP_MASS_GROUP_MODEL
  2
AecDbDispRepMassGroupModel
  3
AecBaseEx50|Product Desc: Autodesk Architectural Desktop 2007 |Company: Autodesk,Inc. |WEB Address: www.autodesk.com
 90
      129
280
     0
281
     0
  0
CLASS
  1
AEC_DISP_REP_MASS_GROUP_PLAN
  2
AecDbDispRepMassGroupPlan
  3
AecBaseEx50|Product Desc: Autodesk Architectural Desktop 2007 |Company: Autodesk,Inc. |WEB Address: www.autodesk.com
 90
      129
280
     0
281
     0
  0
CLASS
  1
AEC_DISP_REP_MATERIAL
  2
AecDbDispRepMaterial
  3
AecBase50|Product Desc: Autodesk Architectural Desktop 2007 |Company: Autodesk,Inc. |WEB Address: www.autodesk.com
 90
      129
280
     0
281
     0
  0
CLASS
  1
AEC_DISP_REP_MVBLOCK_REF
  2
AecDbDispRepMvBlockRef
  3
AecBase50|Product Desc: Autodesk Architectural Desktop 2007 |Company: Autodesk,Inc. |WEB Address: www.autodesk.com
 90
      129
280
     0
281
     0
  0
CLASS
  1
AEC_DISP_REP_MVBLOCK_REF_MODEL
  2
AecDbDispRepMvBlockRefModel
  3
AecBase50|Product Desc: Autodesk Architectural Desktop 2007 |Company: Autodesk,Inc. |WEB Address: www.autodesk.com
 90
      129
280
     0
281
     0
  0
CLASS
  1
AEC_DISP_REP_OPENING
  2
AecDbDispRepOpening
  3
AecArchBase50|Product Desc: Autodesk Architectural Desktop 2007 |Company: Autodesk,Inc. |WEB Address: www.autodesk.com
 90
      129
280
     0
281
     0
  0
CLASS
  1
AEC_DISP_REP_OPENING_MODEL
  2
AecDbDispRepOpeningModel
  3
AecArchBase50|Product Desc: Autodesk Architectural Desktop 2007 |Company: Autodesk,Inc. |WEB Address: www.autodesk.com
 90
      129
280
     0
281
     0
  0
CLASS
  1
AEC_DISP_REP_POLYGON_MODEL
  2
AecDbDispRepPolygonModel
  3
AecBaseEx50|Product Desc: Autodesk Architectural Desktop 2007 |Company: Autodesk,Inc. |WEB Address: www.autodesk.com
 90
      129
280
     0
281
     0
  0
CLASS
  1
AEC_DISP_REP_RAILING_MODEL
  2
AecDbDispRepRailingModel
  3
AecArchBase50|Product Desc: Autodesk Architectural Desktop 2007 |Company: Autodesk,Inc. |WEB Address: www.autodesk.com
 90
      129
280
     0
281
     0
  0
CLASS
  1
AEC_DISP_REP_RAILING_PLAN
  2
AecDbDispRepRailingPlan
  3
AecArchBase50|Product Desc: Autodesk Architectural Desktop 2007 |Company: Autodesk,Inc. |WEB Address: www.autodesk.com
 90
      129
280
     0
281
     0
  0
CLASS
  1
AEC_DISP_REP_ROOF_MODEL
  2
AecDbDispRepRoofModel
  3
AecArchBase50|Product Desc: Autodesk Architectural Desktop 2007 |Company: Autodesk,Inc. |WEB Address: www.autodesk.com
 90
      129
280
     0
281
     0
  0
CLASS
  1
AEC_DISP_REP_ROOF_PLAN
  2
AecDbDispRepRoofPlan
  3
AecArchBase50|Product Desc: Autodesk Architectural Desktop 2007 |Company: Autodesk,Inc. |WEB Address: www.autodesk.com
 90
      129
280
     0
281
     0
  0
CLASS
  1
AEC_DISP_REP_ROOFSLAB_MODEL
  2
AecDbDispRepRoofSlabModel
  3
AecArchBase50|Product Desc: Autodesk Architectural Desktop 2007 |Company: Autodesk,Inc. |WEB Address: www.autodesk.com
 90
      129
280
     0
281
     0
  0
CLASS
  1
AEC_DISP_REP_ROOFSLAB_PLAN
  2
AecDbDispRepRoofSlabPlan
  3
AecArchBase50|Product Desc: Autodesk Architectural Desktop 2007 |Company: Autodesk,Inc. |WEB Address: www.autodesk.com
 90
      129
280
     0
281
     0
  0
CLASS
  1
AEC_DISP_REP_SCHEDULE_TABLE
  2
AecDbDispRepScheduleTable
  3
AecSchedule50|Product Desc: Autodesk Architectural Desktop 2007 |Company: Autodesk,Inc. |WEB Address: www.autodesk.com
 90
      129
280
     0
281
     0
  0
CLASS
  1
AEC_DISP_REP_SLAB_MODEL
  2
AecDbDispRepSlabModel
  3
AecArchBase50|Product Desc: Autodesk Architectural Desktop 2007 |Company: Autodesk,Inc. |WEB Address: www.autodesk.com
 90
      129
280
     0
281
     0
  0
CLASS
  1
AEC_DISP_REP_SLAB_PLAN
  2
AecDbDispRepSlabPlan
  3
AecArchBase50|Product Desc: Autodesk Architectural Desktop 2007 |Company: Autodesk,Inc. |WEB Address: www.autodesk.com
 90
      129
280
     0
281
     0
  0
CLASS
  1
AEC_DISP_REP_SLICE
  2
AecDbDispRepSlice
  3
AecBase50|Product Desc: Autodesk Architectural Desktop 2007 |Company: Autodesk,Inc. |WEB Address: www.autodesk.com
 90
      129
280
     0
281
     0
  0
CLASS
  1
AEC_DISP_REP_SPACE_BOUNDARY_MODEL
  2
AecDbDispRepSpaceBoundaryModel
  3
AecArchBase50|Product Desc: Autodesk Architectural Desktop 2007 |Company: Autodesk,Inc. |WEB Address: www.autodesk.com
 90
    32897
280
     0
281
     0
  0
CLASS
  1
AEC_DISP_REP_SPACE_BOUNDARY_PLAN
  2
AecDbDispRepSpaceBoundaryPlan
  3
AecArchBase50|Product Desc: Autodesk Architectural Desktop 2007 |Company: Autodesk,Inc. |WEB Address: www.autodesk.com
 90
    32897
280
     0
281
     0
  0
CLASS
  1
AEC_DISP_REP_SPACE_BOUNDARY_SCHEM
  2
AecDbDispRepSpaceBoundarySketch
  3
AecArchBase50|Product Desc: Autodesk Architectural Desktop 2007 |Company: Autodesk,Inc. |WEB Address: www.autodesk.com
 90
    32897
280
     0
281
     0
  0
CLASS
  1
AEC_DISP_REP_SPACE_MODEL
  2
AecDbDispRepSpaceModel
  3
AecArchBase50|Product Desc: Autodesk Architectural Desktop 2007 |Company: Autodesk,Inc. |WEB Address: www.autodesk.com
 90
      129
280
     0
281
     0
  0
CLASS
  1
AEC_DISP_REP_SPACE_PLAN
  2
AecDbDispRepSpacePlan
  3
AecArchBase50|Product Desc: Autodesk Architectural Desktop 2007 |Company: Autodesk,Inc. |WEB Address: www.autodesk.com
 90
      129
280
     0
281
     0
  0
CLASS
  1
AEC_DISP_REP_STAIR_MODEL
  2
AecDbDispRepStairModel
  3
AecArchBase50|Product Desc: Autodesk Architectural Desktop 2007 |Company: Autodesk,Inc. |WEB Address: www.autodesk.com
 90
      129
280
     0
281
     0
  0
CLASS
  1
AEC_DISP_REP_STAIR_PLAN
  2
AecDbDispRepStairPlan
  3
AecArchBase50|Product Desc: Autodesk Architectural Desktop 2007 |Company: Autodesk,Inc. |WEB Address: www.autodesk.com
 90
      129
280
     0
281
     0
  0
CLASS
  1
AEC_DISP_REP_WALL_GRAPH
  2
AecDbDispRepWallGraph
  3
AecArchBase50|Product Desc: Autodesk Architectural Desktop 2007 |Company: Autodesk,Inc. |WEB Address: www.autodesk.com
 90
      129
280
     0
281
     0
  0
CLASS
  1
AEC_DISP_REP_WALL_MODEL
  2
AecDbDispRepWallModel
  3
AecArchBase50|Product Desc: Autodesk Architectural Desktop 2007 |Company: Autodesk,Inc. |WEB Address: www.autodesk.com
 90
      129
280
     0
281
     0
  0
CLASS
  1
AEC_DISP_REP_WALL_PLAN
  2
AecDbDispRepWallPlan
  3
AecArchBase50|Product Desc: Autodesk Architectural Desktop 2007 |Company: Autodesk,Inc. |WEB Address: www.autodesk.com
 90
      129
280
     0
281
     0
  0
CLASS
  1
AEC_DISP_REP_WALL_SCHEM
  2
AecDbDispRepWallSchem
  3
AecArchBase50|Product Desc: Autodesk Architectural Desktop 2007 |Company: Autodesk,Inc. |WEB Address: www.autodesk.com
 90
      129
280
     0
281
     0
  0
CLASS
  1
AEC_DISP_REP_WINDOW_ASSEMBLY_MODEL
  2
AecDbDispRepWindowAssemblyModel
  3
AecArchBase50|Product Desc: Autodesk Architectural Desktop 2007 |Company: Autodesk,Inc. |WEB Address: www.autodesk.com
 90
      129
280
     0
281
     0
  0
CLASS
  1
AEC_DISP_REP_WINDOW_ASSEMBLY_PLAN
  2
AecDbDispRepWindowAssemblyPlan
  3
AecArchBase50|Product Desc: Autodesk Architectural Desktop 2007 |Company: Autodesk,Inc. |WEB Address: www.autodesk.com
 90
      129
280
     0
281
     0
  0
CLASS
  1
AEC_AECDBDISPREPWINDOWASSEMBLYPLAN100
  2
AecDbDispRepWindowAssemblyPlan100
  3
AecArchDACHBase50|Product Desc: Autodesk Architectural Desktop 2007 |Company: Autodesk,Inc. |WEB Address: www.autodesk.com
 90
      129
280
     0
281
     0
  0
CLASS
  1
AEC_DISP_REP_WINDOW_MODEL
  2
AecDbDispRepWindowModel
  3
AecArchBase50|Product Desc: Autodesk Architectural Desktop 2007 |Company: Autodesk,Inc. |WEB Address: www.autodesk.com
 90
      129
280
     0
281
     0
  0
CLASS
  1
AEC_DISP_REP_WINDOW_NOMINAL
  2
AecDbDispRepWindowNominal
  3
AecArchBase50|Product Desc: Autodesk Architectural Desktop 2007 |Company: Autodesk,Inc. |WEB Address: www.autodesk.com
 90
      129
280
     0
281
     0
  0
CLASS
  1
AEC_DISP_REP_WINDOW_PLAN
  2
AecDbDispRepWindowPlan
  3
AecArchBase50|Product Desc: Autodesk Architectural Desktop 2007 |Company: Autodesk,Inc. |WEB Address: www.autodesk.com
 90
      129
280
     0
281
     0
  0
CLASS
  1
AECS_DISP_REP_MEMBER_LOGICAL
  2
AecsDbDispRepMemberLogical
  3
AecStructureBase50|Product Desc: Autodesk Architectural Desktop 2007 |Company: Autodesk,Inc. |WEB Address: www.autodesk.com
 90
      129
280
     0
281
     0
  0
CLASS
  1
AECS_DISP_REP_MEMBER_MODEL_DESIGN
  2
AecsDbDispRepMemberModelDesign
  3
AecStructureBase50|Product Desc: Autodesk Architectural Desktop 2007 |Company: Autodesk,Inc. |WEB Address: www.autodesk.com
 90
      129
280
     0
281
     0
  0
CLASS
  1
AECS_DISP_REP_MEMBER_PLAN_DESIGN
  2
AecsDbDispRepMemberPlanDesign
  3
AecStructureBase50|Product Desc: Autodesk Architectural Desktop 2007 |Company: Autodesk,Inc. |WEB Address: www.autodesk.com
 90
      129
280
     0
281
     0
  0
CLASS
  1
AEC_DISP_PROPS_ENT
  2
AecDbDispPropsEnt
  3
AecBase50|Product Desc: Autodesk Architectural Desktop 2007 |Company: Autodesk,Inc. |WEB Address: www.autodesk.com
 90
      129
280
     0
281
     0
  0
CLASS
  1
AEC_DISP_PROPS_CLIP_VOLUME
  2
AecDbDispPropsClipVol
  3
AecBase50|Product Desc: Autodesk Architectural Desktop 2007 |Company: Autodesk,Inc. |WEB Address: www.autodesk.com
 90
      129
280
     0
281
     0
  0
CLASS
  1
AEC_DISP_PROPS_SLICE
  2
AecDbDispPropsSlice
  3
AecBase50|Product Desc: Autodesk Architectural Desktop 2007 |Company: Autodesk,Inc. |WEB Address: www.autodesk.com
 90
      129
280
     0
281
     0
  0
CLASS
  1
AEC_DISP_PROPS_ROOFSLAB_PLAN
  2
AecDbDispPropsRoofSlabPlan
  3
AecArchBase50|Product Desc: Autodesk Architectural Desktop 2007 |Company: Autodesk,Inc. |WEB Address: www.autodesk.com
 90
      129
280
     0
281
     0
  0
CLASS
  1
AEC_DISP_PROPS_GRID_ASSEMBLY_MODEL
  2
AecDbDispPropsGridAssemblyModel
  3
AecArchBase50|Product Desc: Autodesk Architectural Desktop 2007 |Company: Autodesk,Inc. |WEB Address: www.autodesk.com
 90
      129
280
     0
281
     0
  0
CLASS
  1
AEC_DISP_PROPS_ROOF
  2
AecDbDispPropsRoof
  3
AecArchBase50|Product Desc: Autodesk Architectural Desktop 2007 |Company: Autodesk,Inc. |WEB Address: www.autodesk.com
 90
      129
280
     0
281
     0
  0
CLASS
  1
AEC_DISP_PROPS_SPACE_MODEL
  2
AecDbDispPropsSpaceModel
  3
AecArchBase50|Product Desc: Autodesk Architectural Desktop 2007 |Company: Autodesk,Inc. |WEB Address: www.autodesk.com
 90
      129
280
     0
281
     0
  0
CLASS
  1
AEC_DISP_PROPS_EDITINPLACEPROFILE_MODEL
  2
AecDbDispPropsEditInPlaceProfile
  3
AecBase50|Product Desc: Autodesk Architectural Desktop 2007 |Company: Autodesk,Inc. |WEB Address: www.autodesk.com
 90
      129
280
     0
281
     0
  0
CLASS
  1
AEC_DISP_PROPS_DOOR
  2
AecDbDispPropsDoor
  3
AecArchBase50|Product Desc: Autodesk Architectural Desktop 2007 |Company: Autodesk,Inc. |WEB Address: www.autodesk.com
 90
      129
280
     0
281
     0
  0
CLASS
  1
AEC_DISP_PROPS_MASKBLOCK
  2
AecDbDispPropsMaskBlock
  3
AecBase50|Product Desc: Autodesk Architectural Desktop 2007 |Company: Autodesk,Inc. |WEB Address: www.autodesk.com
 90
      129
280
     0
281
     0
  0
CLASS
  1
AEC_DISP_PROPS_SPACE_PLAN
  2
AecDbDispPropsSpacePlan
  3
AecArchBase50|Product Desc: Autodesk Architectural Desktop 2007 |Company: Autodesk,Inc. |WEB Address: www.autodesk.com
 90
      129
280
     0
281
     0
  0
CLASS
  1
AEC_DISP_PROPS_RAILING_PLAN
  2
AecDbDispPropsRailingPlan
  3
AecArchBase50|Product Desc: Autodesk Architectural Desktop 2007 |Company: Autodesk,Inc. |WEB Address: www.autodesk.com
 90
      129
280
     0
281
     0
  0
CLASS
  1
AEC_DISP_PROPS_LAYOUT_GRID2D
  2
AecDbDispPropsLayoutGrid2d
  3
AecBase50|Product Desc: Autodesk Architectural Desktop 2007 |Company: Autodesk,Inc. |WEB Address: www.autodesk.com
 90
      129
280
     0
281
     0
  0
CLASS
  1
AEC_DISP_PROPS_CLIP_VOLUME_RESULT
  2
AecDbDispPropsClipVolResSubDiv
  3
AecBase50|Product Desc: Autodesk Architectural Desktop 2007 |Company: Autodesk,Inc. |WEB Address: www.autodesk.com
 90
      129
280
     0
281
     0
  0
CLASS
  1
AEC_DISP_PROPS_STAIR_MODEL
  2
AecDbDispPropsStairModel
  3
AecArchBase50|Product Desc: Autodesk Architectural Desktop 2007 |Company: Autodesk,Inc. |WEB Address: www.autodesk.com
 90
      129
280
     0
281
     0
  0
CLASS
  1
AEC_DISP_PROPS_LAYOUT_CURVE
  2
AecDbDispPropsLayoutCurve
  3
AecBase50|Product Desc: Autodesk Architectural Desktop 2007 |Company: Autodesk,Inc. |WEB Address: www.autodesk.com
 90
      129
280
     0
281
     0
  0
CLASS
  1
AEC_DISP_PROPS_POLYGON_MODEL
  2
AecDbDispPropsPolygonModel
  3
AecBaseEx50|Product Desc: Autodesk Architectural Desktop 2007 |Company: Autodesk,Inc. |WEB Address: www.autodesk.com
 90
      129
280
     0
281
     0
  0
CLASS
  1
AEC_DISP_PROPS_MASS_GROUP
  2
AecDbDispPropsMassGroup
  3
AecBaseEx50|Product Desc: Autodesk Architectural Desktop 2007 |Company: Autodesk,Inc. |WEB Address: www.autodesk.com
 90
      129
280
     0
281
     0
  0
CLASS
  1
AEC_DISP_PROPS_STAIR_PLAN
  2
AecDbDispPropsStairPlan
  3
AecArchBase50|Product Desc: Autodesk Architectural Desktop 2007 |Company: Autodesk,Inc. |WEB Address: www.autodesk.com
 90
      129
280
     0
281
     0
  0
CLASS
  1
AEC_DISP_PROPS_OPENING
  2
AecDbDispPropsOpening
  3
AecArchBase50|Product Desc: Autodesk Architectural Desktop 2007 |Company: Autodesk,Inc. |WEB Address: www.autodesk.com
 90
      129
280
     0
281
     0
  0
CLASS
  1
AEC_DISP_PROPS_WALL_GRAPH
  2
AecDbDispPropsWallGraph
  3
AecArchBase50|Product Desc: Autodesk Architectural Desktop 2007 |Company: Autodesk,Inc. |WEB Address: www.autodesk.com
 90
      129
280
     0
281
     0
  0
CLASS
  1
AEC_DISP_PROPS_DOOR_NOMINAL
  2
AecDbDispPropsDoorNominal
  3
AecArchBase50|Product Desc: Autodesk Architectural Desktop 2007 |Company: Autodesk,Inc. |WEB Address: www.autodesk.com
 90
      129
280
     0
281
     0
  0
CLASS
  1
AEC_DISP_PROPS_SLAB
  2
AecDbDispPropsSlab
  3
AecArchBase50|Product Desc: Autodesk Architectural Desktop 2007 |Company: Autodesk,Inc. |WEB Address: www.autodesk.com
 90
      129
280
     0
281
     0
  0
CLASS
  1
AEC_DISP_PROPS_WALL_MODEL
  2
AecDbDispPropsWallModel
  3
AecArchBase50|Product Desc: Autodesk Architectural Desktop 2007 |Company: Autodesk,Inc. |WEB Address: www.autodesk.com
 90
      129
280
     0
281
     0
  0
CLASS
  1
AEC_DISP_PROPS_MATERIAL
  2
AecDbDispPropsMaterial
  3
AecBase50|Product Desc: Autodesk Architectural Desktop 2007 |Company: Autodesk,Inc. |WEB Address: www.autodesk.com
 90
      129
280
     0
281
     0
  0
CLASS
  1
AEC_DISP_PROPS_WINDOW
  2
AecDbDispPropsWindow
  3
AecArchBase50|Product Desc: Autodesk Architectural Desktop 2007 |Company: Autodesk,Inc. |WEB Address: www.autodesk.com
 90
      129
280
     0
281
     0
  0
CLASS
  1
AEC_DISP_PROPS_LAYOUT_GRID3D
  2
AecDbDispPropsLayoutGrid3d
  3
AecBase50|Product Desc: Autodesk Architectural Desktop 2007 |Company: Autodesk,Inc. |WEB Address: www.autodesk.com
 90
      129
280
     0
281
     0
  0
CLASS
  1
AEC_DISP_PROPS_GRID_ASSEMBLY_PLAN
  2
AecDbDispPropsGridAssemblyPlan
  3
AecArchBase50|Product Desc: Autodesk Architectural Desktop 2007 |Company: Autodesk,Inc. |WEB Address: www.autodesk.com
 90
      129
280
     0
281
     0
  0
CLASS
  1
AEC_DISP_PROPS_WALL_SCHEM
  2
AecDbDispPropsWallSchem
  3
AecArchBase50|Product Desc: Autodesk Architectural Desktop 2007 |Company: Autodesk,Inc. |WEB Address: www.autodesk.com
 90
      129
280
     0
281
     0
  0
CLASS
  1
AEC_DISP_PROPS_WALL_PLAN
  2
AecDbDispPropsWallPlan
  3
AecArchBase50|Product Desc: Autodesk Architectural Desktop 2007 |Company: Autodesk,Inc. |WEB Address: www.autodesk.com
 90
      129
280
     0
281
     0
  0
CLASS
  1
AEC_DISP_PROPS_SPACE_BOUNDARY
  2
AecDbDispPropsSpaceBoundary
  3
AecArchBase50|Product Desc: Autodesk Architectural Desktop 2007 |Company: Autodesk,Inc. |WEB Address: www.autodesk.com
 90
    32897
280
     0
281
     0
  0
CLASS
  1
AEC_DISP_PROPS_SLAB_PLAN
  2
AecDbDispPropsSlabPlan
  3
AecArchBase50|Product Desc: Autodesk Architectural Desktop 2007 |Company: Autodesk,Inc. |WEB Address: www.autodesk.com
 90
      129
280
     0
281
     0
  0
CLASS
  1
AEC_DISP_PROPS_RAILING_MODEL
  2
AecDbDispPropsRailingModel
  3
AecArchBase50|Product Desc: Autodesk Architectural Desktop 2007 |Company: Autodesk,Inc. |WEB Address: www.autodesk.com
 90
      129
280
     0
281
     0
  0
CLASS
  1
AEC_DISP_PROPS_MASS_ELEM_MODEL
  2
AecDbDispPropsMassElem
  3
AecBaseEx50|Product Desc: Autodesk Architectural Desktop 2007 |Company: Autodesk,Inc. |WEB Address: www.autodesk.com
 90
      129
280
     0
281
     0
  0
CLASS
  1
AEC_DISP_PROPS_DIM
  2
AecDbDispPropsDimGroup
  3
AecArchDACHBase50|Product Desc: Autodesk Architectural Desktop 2007 |Company: Autodesk,Inc. |WEB Address: www.autodesk.com
 90
      129
280
     0
281
     0
  0
CLASS
  1
AEC_DISP_PROPS_ROOFSLAB
  2
AecDbDispPropsRoofSlab
  3
AecArchBase50|Product Desc: Autodesk Architectural Desktop 2007 |Company: Autodesk,Inc. |WEB Address: www.autodesk.com
 90
      129
280
     0
281
     0
  0
CLASS
  1
AEC_DISP_PROPS_ENT_REF
  2
AecDbDispPropsEntRef
  3
AecBase50|Product Desc: Autodesk Architectural Desktop 2007 |Company: Autodesk,Inc. |WEB Address: www.autodesk.com
 90
      129
280
     0
281
     0
  0
CLASS
  1
AEC_DISP_PROPS_2D_SECTION
  2
AecDbDispProps2dSection
  3
AecBase50|Product Desc: Autodesk Architectural Desktop 2007 |Company: Autodesk,Inc. |WEB Address: www.autodesk.com
 90
      129
280
     0
281
     0
  0
CLASS
  1
AECS_DISP_PROPS_MEMBER_LOGICAL
  2
AecsDbDispPropsMemberLogical
  3
AecStructureBase50|Product Desc: Autodesk Architectural Desktop 2007 |Company: Autodesk,Inc. |WEB Address: www.autodesk.com
 90
      129
280
     0
281
     0
  0
CLASS
  1
AEC_DISP_PROPS_AREA_DECOMPOSED
  2
AecDbDispPropsAreaDecomposed
  3
AecAreaCalculationBase50|Product Desc: Autodesk Architectural Desktop 2007 |Company: Autodesk,Inc. |WEB Address: www.autodesk.com
 90
    32897
280
     0
281
     0
  0
CLASS
  1
AEC_DISP_PROPS_CAMERA
  2
AecDbDispPropsCamera
  3
AecBase50|Product Desc: Autodesk Architectural Desktop 2007 |Company: Autodesk,Inc. |WEB Address: www.autodesk.com
 90
    32897
280
     0
281
     0
  0
CLASS
  1
AECS_DISP_PROPS_MEMBER
  2
AecsDbDispPropsMember
  3
AecStructureBase50|Product Desc: Autodesk Architectural Desktop 2007 |Company: Autodesk,Inc. |WEB Address: www.autodesk.com
 90
      129
280
     0
281
     0
  0
CLASS
  1
AECS_DISP_PROPS_MEMBER_PLAN
  2
AecsDbDispPropsMemberPlan
  3
AecStructureBase50|Product Desc: Autodesk Architectural Desktop 2007 |Company: Autodesk,Inc. |WEB Address: www.autodesk.com
 90
      129
280
     0
281
     0
  0
CLASS
  1
AEC_DISP_PROPS_AREAGROUP
  2
AecDbDispPropsAreaGroup
  3
AecAreaCalculationBase50|Product Desc: Autodesk Architectural Desktop 2007 |Company: Autodesk,Inc. |WEB Address: www.autodesk.com
 90
    32897
280
     0
281
     0
  0
CLASS
  1
AEC_DISP_PROPS_WINDOW_NOMINAL
  2
AecDbDispPropsWindowNominal
  3
AecArchBase50|Product Desc: Autodesk Architectural Desktop 2007 |Company: Autodesk,Inc. |WEB Address: www.autodesk.com
 90
      129
280
     0
281
     0
  0
CLASS
  1
AEC_DISP_PROPS_AREA
  2
AecDbDispPropsArea
  3
AecAreaCalculationBase50|Product Desc: Autodesk Architectural Desktop 2007 |Company: Autodesk,Inc. |WEB Address: www.autodesk.com
 90
    32897
280
     0
281
     0
  0
CLASS
  1
AEC_DISP_PROPS_SCHEDULE_TABLE
  2
AecDbDispPropsScheduleTable
  3
AecSchedule50|Product Desc: Autodesk Architectural Desktop 2007 |Company: Autodesk,Inc. |WEB Address: www.autodesk.com
 90
      129
280
     0
281
     0
  0
CLASS
  1
AEC_LAYERKEY_STYLE
  2
AecDbLayerKeyStyle
  3
AecBase50|Product Desc: Autodesk Architectural Desktop 2007 |Company: Autodesk,Inc. |WEB Address: www.autodesk.com
 90
      129
280
     0
281
     0
  0
CLASS
  1
AEC_VARS_ARCHBASE
  2
AecDbVarsArchBase
  3
AecArchBase50|Product Desc: Autodesk Architectural Desktop 2007 |Company: Autodesk,Inc. |WEB Address: www.autodesk.com
 90
      129
280
     0
281
     0
  0
CLASS
  1
AEC_VARS_MUNICH
  2
AecDbVarsMunich
  3
AecArchDACHBase50|Product Desc: Autodesk Architectural Desktop 2007 |Company: Autodesk,Inc. |WEB Address: www.autodesk.com
 90
      129
280
     0
281
     0
  0
CLASS
  1
AEC_NOTIFICATION_TRACKER
  2
AecDbNotificationTracker
  3
AecBase50|Product Desc: Autodesk Architectural Desktop 2007 |Company: Autodesk,Inc. |WEB Address: www.autodesk.com
 90
      129
280
     0
281
     0
  0
CLASS
  1
AEC_DISP_REP_ANCHOR
  2
AecDbDispRepAnchor
  3
AecBase50|Product Desc: Autodesk Architectural Desktop 2007 |Company: Autodesk,Inc. |WEB Address: www.autodesk.com
 90
      129
280
     0
281
     0
  0
CLASS
  1
AEC_DISP_REP_POLYGON_TRUECOLOUR
  2
AecDbDispRepPolygonTrueColour
  3
AecBaseEx50|Product Desc: Autodesk Architectural Desktop 2007 |Company: Autodesk,Inc. |WEB Address: www.autodesk.com
 90
      129
280
     0
281
     0
  0
CLASS
  1
AEC_DISP_PROPS_POLYGON_TRUECOLOUR
  2
AecDbDispPropsPolygonTrueColour
  3
AecBaseEx50|Product Desc: Autodesk Architectural Desktop 2007 |Company: Autodesk,Inc. |WEB Address: www.autodesk.com
 90
      129
280
     0
281
     0
  0
CLASS
  1
AEC_DISP_REP_BDG_ELEVLINE_RCP
  2
AecDbDispRepBdgElevLineRcp
  3
AecArchBase50|Product Desc: Autodesk Architectural Desktop 2007 |Company: Autodesk,Inc. |WEB Address: www.autodesk.com
 90
      129
280
     0
281
     0
  0
CLASS
  1
AEC_DISP_REP_BDG_SECTIONLINE_RCP
  2
AecDbDispRepBdgSectionLineRcp
  3
AecArchBase50|Product Desc: Autodesk Architectural Desktop 2007 |Company: Autodesk,Inc. |WEB Address: www.autodesk.com
 90
      129
280
     0
281
     0
  0
CLASS
  1
AEC_DISP_REP_BDG_SECTION_MODEL
  2
AecDbDispRepBdgSectionModel
  3
AecArchBase50|Product Desc: Autodesk Architectural Desktop 2007 |Company: Autodesk,Inc. |WEB Address: www.autodesk.com
 90
      129
280
     0
281
     0
  0
CLASS
  1
AEC_DISP_REP_DOOR_ELEV
  2
AecDbDispRepDoorElev
  3
AecArchBase50|Product Desc: Autodesk Architectural Desktop 2007 |Company: Autodesk,Inc. |WEB Address: www.autodesk.com
 90
      129
280
     0
281
     0
  0
CLASS
  1
AEC_DISP_REP_DOOR_RCP
  2
AecDbDispRepDoorRcp
  3
AecArchBase50|Product Desc: Autodesk Architectural Desktop 2007 |Company: Autodesk,Inc. |WEB Address: www.autodesk.com
 90
      129
280
     0
281
     0
  0
CLASS
  1
AEC_DISP_REP_DOOR_THRESHOLD_PLAN
  2
AecDbDispRepDoorThresholdPlan
  3
AecArchBase50|Product Desc: Autodesk Architectural Desktop 2007 |Company: Autodesk,Inc. |WEB Address: www.autodesk.com
 90
      129
280
     0
281
     0
  0
CLASS
  1
AEC_DISP_PROPS_DOOR_THRESHOLD_PLAN
  2
AecDbDispPropsDoorThresholdPlan
  3
AecArchBase50|Product Desc: Autodesk Architectural Desktop 2007 |Company: Autodesk,Inc. |WEB Address: www.autodesk.com
 90
      129
280
     0
281
     0
  0
CLASS
  1
AEC_DISP_REP_MASS_ELEM_RCP
  2
AecDbDispRepMassElemRcp
  3
AecArchBase50|Product Desc: Autodesk Architectural Desktop 2007 |Company: Autodesk,Inc. |WEB Address: www.autodesk.com
 90
      129
280
     0
281
     0
  0
CLASS
  1
AEC_DISP_REP_MASS_GROUP_RCP
  2
AecDbDispRepMassGroupRcp
  3
AecArchBase50|Product Desc: Autodesk Architectural Desktop 2007 |Company: Autodesk,Inc. |WEB Address: www.autodesk.com
 90
      129
280
     0
281
     0
  0
CLASS
  1
AEC_DISP_REP_MVBLOCK_REF_RCP
  2
AecDbDispRepMvBlockRefRcp
  3
AecArchBase50|Product Desc: Autodesk Architectural Desktop 2007 |Company: Autodesk,Inc. |WEB Address: www.autodesk.com
 90
      129
280
     0
281
     0
  0
CLASS
  1
AEC_DISP_REP_ROOF_RCP
  2
AecDbDispRepRoofRcp
  3
AecArchBase50|Product Desc: Autodesk Architectural Desktop 2007 |Company: Autodesk,Inc. |WEB Address: www.autodesk.com
 90
      129
280
     0
281
     0
  0
CLASS
  1
AEC_DISP_REP_SPACE_BOUNDARY_DIAGRAM
  2
AecDbDispRepSpaceBoundaryDgrm
  3
AecArchBase50|Product Desc: Autodesk Architectural Desktop 2007 |Company: Autodesk,Inc. |WEB Address: www.autodesk.com
 90
    32897
280
     0
281
     0
  0
CLASS
  1
AEC_DISP_REP_SPACE_RCP
  2
AecDbDispRepSpaceRcp
  3
AecArchBase50|Product Desc: Autodesk Architectural Desktop 2007 |Company: Autodesk,Inc. |WEB Address: www.autodesk.com
 90
      129
280
     0
281
     0
  0
CLASS
  1
AEC_DISP_REP_SPACE_VOLUME
  2
AecDbDispRepSpaceVolume
  3
AecArchBase50|Product Desc: Autodesk Architectural Desktop 2007 |Company: Autodesk,Inc. |WEB Address: www.autodesk.com
 90
      129
280
     0
281
     0
  0
CLASS
  1
AEC_DISP_REP_STAIR_PLAN_OVERLAPPING
  2
AecDbDispRepStairPlanOverlapping
  3
AecArchBase50|Product Desc: Autodesk Architectural Desktop 2007 |Company: Autodesk,Inc. |WEB Address: www.autodesk.com
 90
      129
280
     0
281
     0
  0
CLASS
  1
AEC_DISP_PROPS_STAIR_PLAN_OVERLAPPING
  2
AecDbDispPropsStairPlanOverlapping
  3
AecArchBase50|Product Desc: Autodesk Architectural Desktop 2007 |Company: Autodesk,Inc. |WEB Address: www.autodesk.com
 90
      129
280
     0
281
     0
  0
CLASS
  1
AEC_DISP_REP_STAIR_RCP
  2
AecDbDispRepStairRcp
  3
AecArchBase50|Product Desc: Autodesk Architectural Desktop 2007 |Company: Autodesk,Inc. |WEB Address: www.autodesk.com
 90
      129
280
     0
281
     0
  0
CLASS
  1
AEC_DISP_REP_WALL_RCP
  2
AecDbDispRepWallRcp
  3
AecArchBase50|Product Desc: Autodesk Architectural Desktop 2007 |Company: Autodesk,Inc. |WEB Address: www.autodesk.com
 90
      129
280
     0
281
     0
  0
CLASS
  1
AEC_DISP_REP_WINDOWASSEMBLY_SILL_PLAN
  2
AecDbDispRepWindowAssemblySillPlan
  3
AecArchBase50|Product Desc: Autodesk Architectural Desktop 2007 |Company: Autodesk,Inc. |WEB Address: www.autodesk.com
 90
      129
280
     0
281
     0
  0
CLASS
  1
AEC_DISP_PROPS_WINDOW_ASSEMBLY_SILL_PLAN
  2
AecDbDispPropsWindowAssemblySillPlan
  3
AecArchBase50|Product Desc: Autodesk Architectural Desktop 2007 |Company: Autodesk,Inc. |WEB Address: www.autodesk.com
 90
      129
280
     0
281
     0
  0
CLASS
  1
AEC_DISP_REP_WINDOW_ELEV
  2
AecDbDispRepWindowElev
  3
AecArchBase50|Product Desc: Autodesk Architectural Desktop 2007 |Company: Autodesk,Inc. |WEB Address: www.autodesk.com
 90
      129
280
     0
281
     0
  0
CLASS
  1
AEC_DISP_REP_WINDOW_RCP
  2
AecDbDispRepWindowRcp
  3
AecArchBase50|Product Desc: Autodesk Architectural Desktop 2007 |Company: Autodesk,Inc. |WEB Address: www.autodesk.com
 90
      129
280
     0
281
     0
  0
CLASS
  1
AEC_DISP_REP_WINDOW_SILL_PLAN
  2
AecDbDispRepWindowSillPlan
  3
AecArchBase50|Product Desc: Autodesk Architectural Desktop 2007 |Company: Autodesk,Inc. |WEB Address: www.autodesk.com
 90
      129
280
     0
281
     0
  0
CLASS
  1
AEC_DISP_PROPS_WINDOW_SILL_PLAN
  2
AecDbDispPropsWindowSillPlan
  3
AecArchBase50|Product Desc: Autodesk Architectural Desktop 2007 |Company: Autodesk,Inc. |WEB Address: www.autodesk.com
 90
      129
280
     0
281
     0
  0
CLASS
  1
AEC_DISP_REP_ANCHOR_BUB_TO_GRID_RCP
  2
AecDbDispRepAnchorBubToGridRcp
  3
AecStructureBase50|Product Desc: Autodesk Architectural Desktop 2007 |Company: Autodesk,Inc. |WEB Address: www.autodesk.com
 90
      129
280
     0
281
     0
  0
CLASS
  1
AEC_DISP_REP_COLUMN_GRID_RCP
  2
AecDbDispRepColumnGridRcp
  3
AecStructureBase50|Product Desc: Autodesk Architectural Desktop 2007 |Company: Autodesk,Inc. |WEB Address: www.autodesk.com
 90
      129
280
     0
281
     0
  0
CLASS
  1
AECS_DISP_REP_MEMBER_ELEVATION_DESIGN
  2
AecsDbDispRepMemberElevationDesign
  3
AecStructureBase50|Product Desc: Autodesk Architectural Desktop 2007 |Company: Autodesk,Inc. |WEB Address: www.autodesk.com
 90
      129
280
     0
281
     0
  0
CLASS
  1
AECS_DISP_PROPS_MEMBER_PROJECTED
  2
AecsDbDispPropsMemberProjected
  3
AecStructureBase50|Product Desc: Autodesk Architectural Desktop 2007 |Company: Autodesk,Inc. |WEB Address: www.autodesk.com
 90
      129
280
     0
281
     0
  0
CLASS
  1
AECS_DISP_REP_MEMBER_ELEVATION_DETAIL
  2
AecsDbDispRepMemberElevationDetail
  3
AecStructureBase50|Product Desc: Autodesk Architectural Desktop 2007 |Company: Autodesk,Inc. |WEB Address: www.autodesk.com
 90
      129
280
     0
281
     0
  0
CLASS
  1
AECS_DISP_REP_MEMBER_MODEL_DETAIL
  2
AecsDbDispRepMemberModelDetail
  3
AecStructureBase50|Product Desc: Autodesk Architectural Desktop 2007 |Company: Autodesk,Inc. |WEB Address: www.autodesk.com
 90
      129
280
     0
281
     0
  0
CLASS
  1
AECS_DISP_REP_MEMBER_PLAN_DETAIL
  2
AecsDbDispRepMemberPlanDetail
  3
AecStructureBase50|Product Desc: Autodesk Architectural Desktop 2007 |Company: Autodesk,Inc. |WEB Address: www.autodesk.com
 90
      129
280
     0
281
     0
  0
CLASS
  1
AECS_DISP_REP_MEMBER_PLAN_SKETCH
  2
AecsDbDispRepMemberPlanSketch
  3
AecStructureBase50|Product Desc: Autodesk Architectural Desktop 2007 |Company: Autodesk,Inc. |WEB Address: www.autodesk.com
 90
      129
280
     0
281
     0
  0
CLASS
  1
AECS_DISP_PROPS_MEMBER_PLAN_SKETCH
  2
AecsDbDispPropsMemberPlanSketch
  3
AecStructureBase50|Product Desc: Autodesk Architectural Desktop 2007 |Company: Autodesk,Inc. |WEB Address: www.autodesk.com
 90
      129
280
     0
281
     0
  0
CLASS
  1
AEC_AECDBDISPREPAREA100
  2
AecDbDispRepArea100
  3
AecArchDACHBase50|Product Desc: Autodesk Architectural Desktop 2007 |Company: Autodesk,Inc. |WEB Address: www.autodesk.com
 90
    32897
280
     0
281
     0
  0
CLASS
  1
AEC_AECDBDISPREPAREAGROUP100
  2
AecDbDispRepAreaGroup100
  3
AecArchDACHBase50|Product Desc: Autodesk Architectural Desktop 2007 |Company: Autodesk,Inc. |WEB Address: www.autodesk.com
 90
    32897
280
     0
281
     0
  0
CLASS
  1
AEC_AECDBDISPREPBDGELEVLINEPLAN100
  2
AecDbDispRepBdgElevLinePlan100
  3
AecArchDACHBase50|Product Desc: Autodesk Architectural Desktop 2007 |Company: Autodesk,Inc. |WEB Address: www.autodesk.com
 90
      129
280
     0
281
     0
  0
CLASS
  1
AEC_AECDBDISPREPBDGSECTIONLINEPLAN100
  2
AecDbDispRepBdgSectionLinePlan100
  3
AecArchDACHBase50|Product Desc: Autodesk Architectural Desktop 2007 |Company: Autodesk,Inc. |WEB Address: www.autodesk.com
 90
      129
280
     0
281
     0
  0
CLASS
  1
AEC_AECDBDISPREPCEILINGGRIDPLAN100
  2
AecDbDispRepCeilingGridPlan100
  3
AecArchDACHBase50|Product Desc: Autodesk Architectural Desktop 2007 |Company: Autodesk,Inc. |WEB Address: www.autodesk.com
 90
      129
280
     0
281
     0
  0
CLASS
  1
AEC_AECDBDISPREPCOLUMNGRIDPLAN100
  2
AecDbDispRepColumnGridPlan100
  3
AecArchDACHBase50|Product Desc: Autodesk Architectural Desktop 2007 |Company: Autodesk,Inc. |WEB Address: www.autodesk.com
 90
      129
280
     0
281
     0
  0
CLASS
  1
AEC_AECDBDISPREPCURTAINWALLLAYOUTPLAN100
  2
AecDbDispRepCurtainWallLayoutPlan100
  3
AecArchDACHBase50|Product Desc: Autodesk Architectural Desktop 2007 |Company: Autodesk,Inc. |WEB Address: www.autodesk.com
 90
      129
280
     0
281
     0
  0
CLASS
  1
AEC_AECDBDISPREPCURTAINWALLUNITPLAN100
  2
AecDbDispRepCurtainWallUnitPlan100
  3
AecArchDACHBase50|Product Desc: Autodesk Architectural Desktop 2007 |Company: Autodesk,Inc. |WEB Address: www.autodesk.com
 90
      129
280
     0
281
     0
  0
CLASS
  1
AEC_AECDBDISPREPMVBLOCKREFPLAN100
  2
AecDbDispRepMvBlockRefPlan100
  3
AecArchDACHBase50|Product Desc: Autodesk Architectural Desktop 2007 |Company: Autodesk,Inc. |WEB Address: www.autodesk.com
 90
      129
280
     0
281
     0
  0
CLASS
  1
AEC_AECDBDISPREPROOFPLAN100
  2
AecDbDispRepRoofPlan100
  3
AecArchDACHBase50|Product Desc: Autodesk Architectural Desktop 2007 |Company: Autodesk,Inc. |WEB Address: www.autodesk.com
 90
      129
280
     0
281
     0
  0
CLASS
  1
AEC_AECDBDISPREPROOFSLABPLAN100
  2
AecDbDispRepRoofSlabPlan100
  3
AecArchDACHBase50|Product Desc: Autodesk Architectural Desktop 2007 |Company: Autodesk,Inc. |WEB Address: www.autodesk.com
 90
      129
280
     0
281
     0
  0
CLASS
  1
AEC_AECDBDISPREPSLABPLAN100
  2
AecDbDispRepSlabPlan100
  3
AecArchDACHBase50|Product Desc: Autodesk Architectural Desktop 2007 |Company: Autodesk,Inc. |WEB Address: www.autodesk.com
 90
      129
280
     0
281
     0
  0
CLASS
  1
AEC_AECDBDISPREPSPACEBOUNDARYPLAN100
  2
AecDbDispRepSpaceBoundaryPlan100
  3
AecArchDACHBase50|Product Desc: Autodesk Architectural Desktop 2007 |Company: Autodesk,Inc. |WEB Address: www.autodesk.com
 90
    32897
280
     0
281
     0
  0
CLASS
  1
AEC_AECDBDISPREPSPACEPLAN100
  2
AecDbDispRepSpacePlan100
  3
AecArchDACHBase50|Product Desc: Autodesk Architectural Desktop 2007 |Company: Autodesk,Inc. |WEB Address: www.autodesk.com
 90
      129
280
     0
281
     0
  0
CLASS
  1
AEC_AECDBDISPREPWALLPLAN100
  2
AecDbDispRepWallPlan100
  3
AecArchDACHBase50|Product Desc: Autodesk Architectural Desktop 2007 |Company: Autodesk,Inc. |WEB Address: www.autodesk.com
 90
      129
280
     0
281
     0
  0
CLASS
  1
AEC_AECDBDISPREPAREA50
  2
AecDbDispRepArea50
  3
AecArchDACHBase50|Product Desc: Autodesk Architectural Desktop 2007 |Company: Autodesk,Inc. |WEB Address: www.autodesk.com
 90
    32897
280
     0
281
     0
  0
CLASS
  1
AEC_AECDBDISPREPAREAGROUP50
  2
AecDbDispRepAreaGroup50
  3
AecArchDACHBase50|Product Desc: Autodesk Architectural Desktop 2007 |Company: Autodesk,Inc. |WEB Address: www.autodesk.com
 90
    32897
280
     0
281
     0
  0
CLASS
  1
AEC_AECDBDISPREPBDGELEVLINEPLAN50
  2
AecDbDispRepBdgElevLinePlan50
  3
AecArchDACHBase50|Product Desc: Autodesk Architectural Desktop 2007 |Company: Autodesk,Inc. |WEB Address: www.autodesk.com
 90
      129
280
     0
281
     0
  0
CLASS
  1
AEC_AECDBDISPREPBDGSECTIONLINEPLAN50
  2
AecDbDispRepBdgSectionLinePlan50
  3
AecArchDACHBase50|Product Desc: Autodesk Architectural Desktop 2007 |Company: Autodesk,Inc. |WEB Address: www.autodesk.com
 90
      129
280
     0
281
     0
  0
CLASS
  1
AEC_AECDBDISPREPCEILINGGRIDPLAN50
  2
AecDbDispRepCeilingGridPlan50
  3
AecArchDACHBase50|Product Desc: Autodesk Architectural Desktop 2007 |Company: Autodesk,Inc. |WEB Address: www.autodesk.com
 90
      129
280
     0
281
     0
  0
CLASS
  1
AEC_AECDBDISPREPCOLUMNGRIDPLAN50
  2
AecDbDispRepColumnGridPlan50
  3
AecArchDACHBase50|Product Desc: Autodesk Architectural Desktop 2007 |Company: Autodesk,Inc. |WEB Address: www.autodesk.com
 90
      129
280
     0
281
     0
  0
CLASS
  1
AEC_AECDBDISPREPCURTAINWALLLAYOUTPLAN50
  2
AecDbDispRepCurtainWallLayoutPlan50
  3
AecArchDACHBase50|Product Desc: Autodesk Architectural Desktop 2007 |Company: Autodesk,Inc. |WEB Address: www.autodesk.com
 90
      129
280
     0
281
     0
  0
CLASS
  1
AEC_AECDBDISPREPCURTAINWALLUNITPLAN50
  2
AecDbDispRepCurtainWallUnitPlan50
  3
AecArchDACHBase50|Product Desc: Autodesk Architectural Desktop 2007 |Company: Autodesk,Inc. |WEB Address: www.autodesk.com
 90
      129
280
     0
281
     0
  0
CLASS
  1
AEC_AECDBDISPREPMVBLOCKREFPLAN50
  2
AecDbDispRepMvBlockRefPlan50
  3
AecArchDACHBase50|Product Desc: Autodesk Architectural Desktop 2007 |Company: Autodesk,Inc. |WEB Address: www.autodesk.com
 90
      129
280
     0
281
     0
  0
CLASS
  1
AEC_AECDBDISPREPROOFPLAN50
  2
AecDbDispRepRoofPlan50
  3
AecArchDACHBase50|Product Desc: Autodesk Architectural Desktop 2007 |Company: Autodesk,Inc. |WEB Address: www.autodesk.com
 90
      129
280
     0
281
     0
  0
CLASS
  1
AEC_AECDBDISPREPROOFSLABPLAN50
  2
AecDbDispRepRoofSlabPlan50
  3
AecArchDACHBase50|Product Desc: Autodesk Architectural Desktop 2007 |Company: Autodesk,Inc. |WEB Address: www.autodesk.com
 90
      129
280
     0
281
     0
  0
CLASS
  1
AEC_AECDBDISPREPSLABPLAN50
  2
AecDbDispRepSlabPlan50
  3
AecArchDACHBase50|Product Desc: Autodesk Architectural Desktop 2007 |Company: Autodesk,Inc. |WEB Address: www.autodesk.com
 90
      129
280
     0
281
     0
  0
CLASS
  1
AEC_AECDBDISPREPSPACEBOUNDARYPLAN50
  2
AecDbDispRepSpaceBoundaryPlan50
  3
AecArchDACHBase50|Product Desc: Autodesk Architectural Desktop 2007 |Company: Autodesk,Inc. |WEB Address: www.autodesk.com
 90
    32897
280
     0
281
     0
  0
CLASS
  1
AEC_AECDBDISPREPSPACEPLAN50
  2
AecDbDispRepSpacePlan50
  3
AecArchDACHBase50|Product Desc: Autodesk Architectural Desktop 2007 |Company: Autodesk,Inc. |WEB Address: www.autodesk.com
 90
      129
280
     0
281
     0
  0
CLASS
  1
AEC_AECDBDISPREPWALLPLAN50
  2
AecDbDispRepWallPlan50
  3
AecArchDACHBase50|Product Desc: Autodesk Architectural Desktop 2007 |Company: Autodesk,Inc. |WEB Address: www.autodesk.com
 90
      129
280
     0
281
     0
  0
CLASS
  1
AEC_AECDBDISPREPWINDOWASSEMBLYPLAN50
  2
AecDbDispRepWindowAssemblyPlan50
  3
AecArchDACHBase50|Product Desc: Autodesk Architectural Desktop 2007 |Company: Autodesk,Inc. |WEB Address: www.autodesk.com
 90
      129
280
     0
281
     0
  0
CLASS
  1
AEC_DB_DISP_REP_DIM_GROUP_PLAN100
  2
AecDbDispRepDimGroupPlan100
  3
AecArchDACHBase50|Product Desc: Autodesk Architectural Desktop 2007 |Company: Autodesk,Inc. |WEB Address: www.autodesk.com
 90
      129
280
     0
281
     0
  0
CLASS
  1
AEC_DB_DISP_REP_DIM_GROUP_PLAN50
  2
AecDbDispRepDimGroupPlan50
  3
AecArchDACHBase50|Product Desc: Autodesk Architectural Desktop 2007 |Company: Autodesk,Inc. |WEB Address: www.autodesk.com
 90
      129
280
     0
281
     0
  0
CLASS
  1
AEC_DISP_REP_DOOR_PLAN_50
  2
AecDbDispRepDoorPlan50
  3
AecArchDACHBase50|Product Desc: Autodesk Architectural Desktop 2007 |Company: Autodesk,Inc. |WEB Address: www.autodesk.com
 90
      129
280
     0
281
     0
  0
CLASS
  1
AEC_DISP_PROPS_DOOR_PLAN_50
  2
AecDbDispPropsDoorPlan50
  3
AecArchDACHBase50|Product Desc: Autodesk Architectural Desktop 2007 |Company: Autodesk,Inc. |WEB Address: www.autodesk.com
 90
      129
280
     0
281
     0
  0
CLASS
  1
AEC_DISP_REP_DOOR_PLAN_HEKTO
  2
AecDbDispRepDoorPlanHekto
  3
AecArchDACHBase50|Product Desc: Autodesk Architectural Desktop 2007 |Company: Autodesk,Inc. |WEB Address: www.autodesk.com
 90
      129
280
     0
281
     0
  0
CLASS
  1
AEC_DISP_PROPS_DOOR_PLAN_100
  2
AecDbDispPropsDoorPlan100
  3
AecArchDACHBase50|Product Desc: Autodesk Architectural Desktop 2007 |Company: Autodesk,Inc. |WEB Address: www.autodesk.com
 90
      129
280
     0
281
     0
  0
CLASS
  1
AEC_DISP_REP_DOOR_THRESHOLD_SYMBOL_PLAN
  2
AecDbDispRepDoorThresholdSymbolPlan
  3
AecArchDACHBase50|Product Desc: Autodesk Architectural Desktop 2007 |Company: Autodesk,Inc. |WEB Address: www.autodesk.com
 90
      129
280
     0
281
     0
  0
CLASS
  1
AEC_DISP_PROPS_DOOR_THRESHOLD_SYMBOL_PLAN
  2
AecDbDispPropsDoorThresholdSymbolPlan
  3
AecArchDACHBase50|Product Desc: Autodesk Architectural Desktop 2007 |Company: Autodesk,Inc. |WEB Address: www.autodesk.com
 90
      129
280
     0
281
     0
  0
CLASS
  1
AEC_DISPREPAECDBDISPREPMASSELEMPLAN100
  2
AecDbDispRepMassElemPlan100
  3
AecArchDACHBase50|Product Desc: Autodesk Architectural Desktop 2007 |Company: Autodesk,Inc. |WEB Address: www.autodesk.com
 90
      129
280
     0
281
     0
  0
CLASS
  1
AEC_DISPROPSMASSELEMPLANCOMMON
  2
AecDbDispPropsMassElemPlanCommon
  3
AecArchDACHBase50|Product Desc: Autodesk Architectural Desktop 2007 |Company: Autodesk,Inc. |WEB Address: www.autodesk.com
 90
      129
280
     0
281
     0
  0
CLASS
  1
AEC_DISPREPAECDBDISPREPMASSELEMPLAN50
  2
AecDbDispRepMassElemPlan50
  3
AecArchDACHBase50|Product Desc: Autodesk Architectural Desktop 2007 |Company: Autodesk,Inc. |WEB Address: www.autodesk.com
 90
      129
280
     0
281
     0
  0
CLASS
  1
AEC_DISPREPAECDBDISPREPMASSGROUPPLAN100
  2
AecDbDispRepMassGroupPlan100
  3
AecArchDACHBase50|Product Desc: Autodesk Architectural Desktop 2007 |Company: Autodesk,Inc. |WEB Address: www.autodesk.com
 90
      129
280
     0
281
     0
  0
CLASS
  1
AEC_DISPROPSMASSGROUPPLANCOMMON
  2
AecDbDispPropsMassGroupPlanCommon
  3
AecArchDACHBase50|Product Desc: Autodesk Architectural Desktop 2007 |Company: Autodesk,Inc. |WEB Address: www.autodesk.com
 90
      129
280
     0
281
     0
  0
CLASS
  1
AEC_DISPREPAECDBDISPREPMASSGROUPPLAN50
  2
AecDbDispRepMassGroupPlan50
  3
AecArchDACHBase50|Product Desc: Autodesk Architectural Desktop 2007 |Company: Autodesk,Inc. |WEB Address: www.autodesk.com
 90
      129
280
     0
281
     0
  0
CLASS
  1
AEC_DISPREPAECDBDISPREPOPENINGPLAN100
  2
AecDbDispRepOpeningPlan100
  3
AecArchDACHBase50|Product Desc: Autodesk Architectural Desktop 2007 |Company: Autodesk,Inc. |WEB Address: www.autodesk.com
 90
      129
280
     0
281
     0
  0
CLASS
  1
AEC_DISPROPSOPENINGPLANCOMMONHATCHED
  2
AecDbDispPropsOpeningPlanCommonHatched
  3
AecArchDACHBase50|Product Desc: Autodesk Architectural Desktop 2007 |Company: Autodesk,Inc. |WEB Address: www.autodesk.com
 90
      129
280
     0
281
     0
  0
CLASS
  1
AEC_DISPREPAECDBDISPREPOPENINGPLAN50
  2
AecDbDispRepOpeningPlan50
  3
AecArchDACHBase50|Product Desc: Autodesk Architectural Desktop 2007 |Company: Autodesk,Inc. |WEB Address: www.autodesk.com
 90
      129
280
     0
281
     0
  0
CLASS
  1
AEC_DISPREPAECDBDISPREPOPENINGPLANREFLECTED
  2
AecDbDispRepOpeningPlanReflected
  3
AecArchDACHBase50|Product Desc: Autodesk Architectural Desktop 2007 |Company: Autodesk,Inc. |WEB Address: www.autodesk.com
 90
      129
280
     0
281
     0
  0
CLASS
  1
AEC_DISPROPSOPENINGPLANCOMMON
  2
AecDbDispPropsOpeningPlanCommon
  3
AecArchDACHBase50|Product Desc: Autodesk Architectural Desktop 2007 |Company: Autodesk,Inc. |WEB Address: www.autodesk.com
 90
      129
280
     0
281
     0
  0
CLASS
  1
AEC_DISPREPAECDBDISPREPOPENINGSILLPLAN
  2
AecDbDispRepOpeningSillPlan
  3
AecArchDACHBase50|Product Desc: Autodesk Architectural Desktop 2007 |Company: Autodesk,Inc. |WEB Address: www.autodesk.com
 90
      129
280
     0
281
     0
  0
CLASS
  1
AEC_DISPROPSOPENINGSILLPLAN
  2
AecDbDispPropsOpeningSillPlan
  3
AecArchDACHBase50|Product Desc: Autodesk Architectural Desktop 2007 |Company: Autodesk,Inc. |WEB Address: www.autodesk.com
 90
      129
280
     0
281
     0
  0
CLASS
  1
AEC_DISP_REP_RAILING_PLAN_100
  2
AecDbDispRepRailingPlan100
  3
AecArchDACHBase50|Product Desc: Autodesk Architectural Desktop 2007 |Company: Autodesk,Inc. |WEB Address: www.autodesk.com
 90
      129
280
     0
281
     0
  0
CLASS
  1
AEC_DISP_ROPS_RAILING_PLAN_100
  2
AecDbDispPropsRailingPlan100
  3
AecArchDACHBase50|Product Desc: Autodesk Architectural Desktop 2007 |Company: Autodesk,Inc. |WEB Address: www.autodesk.com
 90
      129
280
     0
281
     0
  0
CLASS
  1
AEC_DISP_REP_RAILING_PLAN_50
  2
AecDbDispRepRailingPlan50
  3
AecArchDACHBase50|Product Desc: Autodesk Architectural Desktop 2007 |Company: Autodesk,Inc. |WEB Address: www.autodesk.com
 90
      129
280
     0
281
     0
  0
CLASS
  1
AEC_DISP_ROPS_RAILING_PLAN_50
  2
AecDbDispPropsRailingPlan50
  3
AecArchDACHBase50|Product Desc: Autodesk Architectural Desktop 2007 |Company: Autodesk,Inc. |WEB Address: www.autodesk.com
 90
      129
280
     0
281
     0
  0
CLASS
  1
AEC_DISP_REP_STAIR_PLAN_100
  2
AecDbDispRepStairPlan100
  3
AecArchDACHBase50|Product Desc: Autodesk Architectural Desktop 2007 |Company: Autodesk,Inc. |WEB Address: www.autodesk.com
 90
      129
280
     0
281
     0
  0
CLASS
  1
AEC_DISP_ROPS_STAIR_PLAN_100
  2
AecDbDispPropsStairPlan100
  3
AecArchDACHBase50|Product Desc: Autodesk Architectural Desktop 2007 |Company: Autodesk,Inc. |WEB Address: www.autodesk.com
 90
      129
280
     0
281
     0
  0
CLASS
  1
AEC_DISP_REP_STAIR_PLAN_50
  2
AecDbDispRepStairPlan50
  3
AecArchDACHBase50|Product Desc: Autodesk Architectural Desktop 2007 |Company: Autodesk,Inc. |WEB Address: www.autodesk.com
 90
      129
280
     0
281
     0
  0
CLASS
  1
AEC_DISP_ROPS_STAIR_PLAN_50
  2
AecDbDispPropsStairPlan50
  3
AecArchDACHBase50|Product Desc: Autodesk Architectural Desktop 2007 |Company: Autodesk,Inc. |WEB Address: www.autodesk.com
 90
      129
280
     0
281
     0
  0
CLASS
  1
AEC_DISP_REP_WINDOW_PLAN_100
  2
AecDbDispRepWindowPlan100
  3
AecArchDACHBase50|Product Desc: Autodesk Architectural Desktop 2007 |Company: Autodesk,Inc. |WEB Address: www.autodesk.com
 90
      129
280
     0
281
     0
  0
CLASS
  1
AEC_DISP_PROPS_WINDOW_PLAN_100
  2
AecDbDispPropsWindowPlan100
  3
AecArchDACHBase50|Product Desc: Autodesk Architectural Desktop 2007 |Company: Autodesk,Inc. |WEB Address: www.autodesk.com
 90
      129
280
     0
281
     0
  0
CLASS
  1
AEC_DISP_REP_WINDOW_PLAN_50
  2
AecDbDispRepWindowPlan50
  3
AecArchDACHBase50|Product Desc: Autodesk Architectural Desktop 2007 |Company: Autodesk,Inc. |WEB Address: www.autodesk.com
 90
      129
280
     0
281
     0
  0
CLASS
  1
AEC_DISP_PROPS_WINDOW_PLAN_50
  2
AecDbDispPropsWindowPlan50
  3
AecArchDACHBase50|Product Desc: Autodesk Architectural Desktop 2007 |Company: Autodesk,Inc. |WEB Address: www.autodesk.com
 90
      129
280
     0
281
     0
  0
CLASS
  1
BINRECORD
  2
AcAecBinRecord
  3
AecBase50|Product Desc: Autodesk Architectural Desktop 2007 |Company: Autodesk,Inc. |WEB Address: www.autodesk.com
 90
      129
280
     0
281
     0
  0
CLASS
  1
SPATIAL_FILTER
  2
AcDbSpatialFilter
  3
ObjectDBX Classes
 90
    32768
280
     0
281
     0
  0
CLASS
  1
AEC_VARS_STRUCTUREBASE
  2
AecsDbVarsStructureBase
  3
AecStructureBase50|Product Desc: Autodesk Architectural Desktop 2007 |Company: Autodesk,Inc. |WEB Address: www.autodesk.com
 90
    32897
280
     0
281
     0
  0
CLASS
  1
DIMASSOC
  2
AcDbDimAssoc
  3
"AcDbDimAssoc|Product Desc:     AcDim ARX App For Dimension|Company:          Autodesk, Inc.|WEB Address:      www.autodesk.com"
 90
    32768
280
     0
281
     0
  0
CLASS
  1
TABLESTYLE
  2
AcDbTableStyle
  3
ObjectDBX Classes
 90
     4095
280
     0
281
     0
  0
CLASS
  1
MATERIAL
  2
AcDbMaterial
  3
ObjectDBX Classes
 90
     1153
280
     0
281
     0
  0
CLASS
  1
VISUALSTYLE
  2
AcDbVisualStyle
  3
ObjectDBX Classes
 90
     4095
280
     0
281
     0
  0
CLASS
  1
EXACXREFPANELOBJECT
  2
ExAcXREFPanelObject
  3
EXAC_ESW
 90
     1025
280
     0
281
     0
  0
CLASS
  1
NPOCOLLECTION
  2
AcDbImpNonPersistentObjectsCollection
  3
ObjectDBX Classes
 90
     1153
280
     0
281
     0
  0
CLASS
  1
AEC_AECDBDISPREPZONE100
  2
AecDbDispRepZonePlan100
  3
AecArchDACHBase50|Product Desc: Autodesk Architectural Desktop 2007 |Company: Autodesk,Inc. |WEB Address: www.autodesk.com
 90
      129
280
     0
281
     0
  0
CLASS
  1
AEC_DISP_PROPS_ZONE
  2
AecDbDispPropsZone
  3
AecArchBase50|Product Desc: Autodesk Architectural Desktop 2007 |Company: Autodesk,Inc. |WEB Address: www.autodesk.com
 90
      129
280
     0
281
     0
  0
CLASS
  1
AEC_AECDBDISPREPZONE50
  2
AecDbDispRepZonePlan50
  3
AecArchDACHBase50|Product Desc: Autodesk Architectural Desktop 2007 |Company: Autodesk,Inc. |WEB Address: www.autodesk.com
 90
      129
280
     0
281
     0
  0
CLASS
  1
AEC_DISP_REP_DISPLAYTHEME
  2
AecDbDispRepDisplayTheme
  3
AecBase50|Product Desc: Autodesk Architectural Desktop 2007 |Company: Autodesk,Inc. |WEB Address: www.autodesk.com
 90
      129
280
     0
281
     0
  0
CLASS
  1
AEC_DISP_PROPS_DISPLAYTHEME
  2
AecDbDispPropsDisplayTheme
  3
AecBase50|Product Desc: Autodesk Architectural Desktop 2007 |Company: Autodesk,Inc. |WEB Address: www.autodesk.com
 90
      129
280
     0
281
     0
  0
CLASS
  1
AEC_DISP_REP_ANCHOR_EXT_TAG_TO_ENT
  2
AecDbDispRepAnchorExtendedTagToEnt
  3
AecScheduleData50|Product Desc: Autodesk Architectural Desktop 2007 |Company: Autodesk,Inc. |WEB Address: www.autodesk.com
 90
      129
280
     0
281
     0
  0
CLASS
  1
AEC_DISP_REP_SPACE_DECOMPOSED
  2
AecDbDispRepSpaceDecomposed
  3
AecArchBase50|Product Desc: Autodesk Architectural Desktop 2007 |Company: Autodesk,Inc. |WEB Address: www.autodesk.com
 90
      129
280
     0
281
     0
  0
CLASS
  1
AEC_DISP_PROPS_SPACE_DECOMPOSED
  2
AecDbDispPropsSpaceDecomposed
  3
AecArchBase50|Product Desc: Autodesk Architectural Desktop 2007 |Company: Autodesk,Inc. |WEB Address: www.autodesk.com
 90
      129
280
     0
281
     0
  0
CLASS
  1
AEC_DISP_REP_ZONE
  2
AecDbDispRepZone
  3
AecArchBase50|Product Desc: Autodesk Architectural Desktop 2007 |Company: Autodesk,Inc. |WEB Address: www.autodesk.com
 90
      129
280
     0
281
     0
  0
CLASS
  1
ACAD_EVALUATION_GRAPH
  2
AcDbEvalGraph
  3
ObjectDBX Classes
 90
    33921
280
     0
281
     0
  0
CLASS
  1
BLOCKFLIPPARAMETER
  2
AcDbBlockFlipParameter
  3
ObjectDBX Classes
 90
    33921
280
     0
281
     0
  0
CLASS
  1
BLOCKFLIPGRIP
  2
AcDbBlockFlipGrip
  3
ObjectDBX Classes
 90
    33921
280
     0
281
     0
  0
CLASS
  1
BLOCKGRIPLOCATIONCOMPONENT
  2
AcDbBlockGripExpr
  3
ObjectDBX Classes
 90
    33921
280
     0
281
     0
  0
CLASS
  1
BLOCKFLIPACTION
  2
AcDbBlockFlipAction
  3
ObjectDBX Classes
 90
    33921
280
     0
281
     0
  0
CLASS
  1
BLOCKROTATIONPARAMETER
  2
AcDbBlockRotationParameter
  3
ObjectDBX Classes
 90
    33921
280
     0
281
     0
  0
CLASS
  1
BLOCKROTATIONGRIP
  2
AcDbBlockRotationGrip
  3
ObjectDBX Classes
 90
    33921
280
     0
281
     0
  0
CLASS
  1
BLOCKROTATEACTION
  2
AcDbBlockRotateAction
  3
ObjectDBX Classes
 90
    33921
280
     0
281
     0
  0
CLASS
  1
BLOCKBASEPOINTPARAMETER
  2
AcDbBlockBasepointParameter
  3
ObjectDBX Classes
 90
    33921
280
     0
281
     0
  0
CLASS
  1
ACDB_DYNAMICBLOCKPURGEPREVENTER_VERSION
  2
AcDbDynamicBlockPurgePreventer
  3
ObjectDBX Classes
 90
    33921
280
     0
281
     0
  0
CLASS
  1
ACDB_BLOCKREPRESENTATION_DATA
  2
AcDbBlockRepresentationData
  3
ObjectDBX Classes
 90
    33921
280
     0
281
     0
  0
CLASS
  1
SCALE
  2
AcDbScale
  3
ObjectDBX Classes
 90
     1153
280
     0
281
     0
  0
CLASS
  1
MLEADERSTYLE
  2
AcDbMLeaderStyle
  3
ACDB_MLEADERSTYLE_CLASS
 90
     4095
280
     0
281
     0
  0
CLASS
  1
CELLSTYLEMAP
  2
AcDbCellStyleMap
  3
ObjectDBX Classes
 90
     1152
280
     0
281
     0
  0
CLASS
  1
AEC_REFEDIT_STATUS_TRACKER
  2
AecDbRefEditStatusTracker
  3
AecArchBase50|Product Desc: Autodesk Architectural Desktop 2007 |Company: Autodesk,Inc. |WEB Address: www.autodesk.com
 90
      129
280
     0
281
     0
  0
ENDSEC
  0
SECTION
  2
TABLES
  0
TABLE
  2
VPORT
  5
1C
330
0
100
AcDbSymbolTable
 70
     1
  0
VPORT
  5
1728
330
1C
100
AcDbSymbolTableRecord
100
AcDbViewportTableRecord
  2
*Active
 70
     0
 10
0.0
 20
0.0
 11
1.0
 21
1.0
 12
236116.0452076296
 22
139388.8010088447
 13
0.0
 23
0.0
 14
10.0
 24
10.0
 15
10.0
 25
10.0
 16
0.0
 26
0.0
 36
1.0
 17
0.0
 27
0.0
 37
0.0
 40
35797.36335053377
 41
1.853197674418604
 42
50.0
 43
0.0
 44
0.0
 50
0.0
 51
0.0
 71
     0
 72
  1000
 73
     1
 74
     1
 75
     0
 76
     0
 77
     0
 78
     0
281
     0
 65
     1
110
0.0
120
0.0
130
0.0
111
1.0
121
0.0
131
0.0
112
0.0
122
1.0
132
0.0
 79
     0
146
0.0
  0
ENDTAB
  0
TABLE
  2
LTYPE
  5
17
330
0
100
AcDbSymbolTable
 70
     2
  0
LTYPE
  5
18
330
17
100
AcDbSymbolTableRecord
100
AcDbLinetypeTableRecord
  2
ByBlock
 70
     0
  3

 72
    65
 73
     0
 40
0.0
  0
LTYPE
  5
19
330
17
100
AcDbSymbolTableRecord
100
AcDbLinetypeTableRecord
  2
ByLayer
 70
     0
  3

 72
    65
 73
     0
 40
0.0
  0
LTYPE
  5
8
330
17
100
AcDbSymbolTableRecord
100
AcDbLinetypeTableRecord
  2
Continuous
 70
     0
  3
Solid line
 72
    65
 73
     0
 40
0.0
  0
LTYPE
  5
158
330
17
100
AcDbSymbolTableRecord
100
AcDbLinetypeTableRecord
  2
HIDDEN
 70
     0
  3
Hidden __ __ __ __ __ __ __ __ __ __ __ __ __ _
 72
    65
 73
     2
 40
0.375
 49
0.25
 74
     0
 49
-0.125
 74
     0
  0
ENDTAB
  0
TABLE
  2
LAYER
  5
11
102
{ACAD_XDICTIONARY
360
12
102
}
330
0
100
AcDbSymbolTable
 70
    19
  0
LAYER
  5
4
102
{ACAD_XDICTIONARY
360
12E27
102
}
330
11
100
AcDbSymbolTableRecord
100
AcDbLayerTableRecord
  2
0
 70
     0
 62
     7
  6
Continuous
370
    -3
390
5
1001
RAK
1000
{ACET-LAYISO
1070
     0
1070
     7
1000
Continuous
1071
       -3
1071
        1
1005
5
1000
ACET-LAYISO}
  0
LAYER
  5
65
330
11
100
AcDbSymbolTableRecord
100
AcDbLayerTableRecord
  2
DEFPOINTS
 70
     0
 62
     7
  6
Continuous
290
     0
370
    -3
390
5
1001
RAK
1000
{ACET-LAYISO
1070
     0
1070
     7
1000
Continuous
1071
       -3
1071
        0
1005
5
1000
ACET-LAYISO}
  0
LAYER
  5
15E
102
{ACAD_XDICTIONARY
360
12E29
102
}
330
11
100
AcDbSymbolTableRecord
100
AcDbLayerTableRecord
  2
RAMKI-A4
 70
     0
 62
     2
  6
Continuous
290
     0
370
    -3
390
5
1001
RAK
1000
{ACET-LAYISO
1070
     0
1070
     2
1000
Continuous
1071
       -3
1071
        0
1005
5
1000
ACET-LAYISO}
  0
LAYER
  5
143
102
{ACAD_XDICTIONARY
360
12E2D
102
}
330
11
100
AcDbSymbolTableRecord
100
AcDbLayerTableRecord
  2
NAPISY
 70
     0
 62
   140
  6
Continuous
370
    -3
390
5
1001
RAK
1000
{ACET-LAYISO
1070
     0
1070
   140
1000
Continuous
1071
       -3
1071
        1
1005
5
1000
ACET-LAYISO}
  0
LAYER
  5
202C
102
{ACAD_XDICTIONARY
360
12E31
102
}
330
11
100
AcDbSymbolTableRecord
100
AcDbLayerTableRecord
  2
0Hatch
 70
     0
 62
   122
  6
Continuous
370
     5
390
5
  0
LAYER
  5
2081
102
{ACAD_XDICTIONARY
360
12E33
102
}
330
11
100
AcDbSymbolTableRecord
100
AcDbLayerTableRecord
  2
0Wymiary-PL
 70
     0
 62
     1
  6
Continuous
370
     5
390
5
  0
ENDTAB
  0
TABLE
  2
STYLE
  5
14
330
0
100
AcDbSymbolTable
 70
     6
  0
STYLE
  5
15
330
14
100
AcDbSymbolTableRecord
100
AcDbTextStyleTableRecord
  2
Standard
 70
     0
 40
0.0
 41
1.0
 50
0.0
 71
     0
 42
2.5
  3
txt
  4

  0
STYLE
  5
22
330
14
100
AcDbSymbolTableRecord
100
AcDbTextStyleTableRecord
  2
ROMANS
 70
     0
 40
0.0
 41
0.9
 50
0.0
 71
     0
 42
20.0
  3
romans.shx
  4

  0
STYLE
  5
144
330
14
100
AcDbSymbolTableRecord
100
AcDbTextStyleTableRecord
  2
AVA
 70
     0
 40
0.0
 41
1.0
 50
0.0
 71
     0
 42
158.5644099714409
  3
ARIAL.TTF
  4

1001
ACAD
1000
Arial CE
1071
    60962
  0
ENDTAB
  0
TABLE
  2
VIEW
  5
1A
330
0
100
AcDbSymbolTable
 70
     1
  0
VIEW
  5
C
330
1A
100
AcDbSymbolTableRecord
100
AcDbViewTableRecord
  2
RODODENDRON 5
 70
     0
 40
14020.0
 10
220287.1664355166
 20
148687.514558954
 41
10200.00000000003
 11
0.0
 21
0.0
 31
1.0
 12
0.0
 22
0.0
 32
0.0
 42
50.0
 43
0.0
 44
0.0
 50
0.0
 71
     0
281
     0
 72
     1
110
0.0
120
0.0
130
0.0
111
1.0
121
0.0
131
0.0
112
0.0
122
1.0
132
0.0
 79
     0
146
0.0
  0
ENDTAB
  0
TABLE
  2
UCS
  5
1B
330
0
100
AcDbSymbolTable
 70
     0
  0
ENDTAB
  0
TABLE
  2
APPID
  5
1E
330
0
100
AcDbSymbolTable
 70
    21
  0
APPID
  5
1F
330
1E
100
AcDbSymbolTableRecord
100
AcDbRegAppTableRecord
  2
ACAD
 70
     0
  0
APPID
  5
1E1
330
1E
100
AcDbSymbolTableRecord
100
AcDbRegAppTableRecord
  2
RAK
 70
     0
  0
APPID
  5
1E2
330
1E
100
AcDbSymbolTableRecord
100
AcDbRegAppTableRecord
  2
AcAecLayerStandard
 70
     0
  0
APPID
  5
A87
330
1E
100
AcDbSymbolTableRecord
100
AcDbRegAppTableRecord
  2
ACAD_PSEXT
 70
     0
  0
APPID
  5
C44
330
1E
100
AcDbSymbolTableRecord
100
AcDbRegAppTableRecord
  2
DCO15
 70
     0
  0
APPID
  5
1744
330
1E
100
AcDbSymbolTableRecord
100
AcDbRegAppTableRecord
  2
ACAD_EXEMPT_FROM_CAD_STANDARDS
 70
     0
  0
APPID
  5
1745
330
1E
100
AcDbSymbolTableRecord
100
AcDbRegAppTableRecord
  2
ACAD_DSTYLE_DIM_LINETYPE
 70
     0
  0
APPID
  5
1746
330
1E
100
AcDbSymbolTableRecord
100
AcDbRegAppTableRecord
  2
ACAD_DSTYLE_DIM_EXT1_LINETYPE
 70
     0
  0
APPID
  5
1747
330
1E
100
AcDbSymbolTableRecord
100
AcDbRegAppTableRecord
  2
ACAD_DSTYLE_DIM_EXT2_LINETYPE
 70
     0
  0
APPID
  5
1988
330
1E
100
AcDbSymbolTableRecord
100
AcDbRegAppTableRecord
  2
AcLayerTools
 70
     0
  0
APPID
  5
6A86
330
1E
100
AcDbSymbolTableRecord
100
AcDbRegAppTableRecord
  2
AcDbBlockRepETag
 70
     0
  0
APPID
  5
82FB
330
1E
100
AcDbSymbolTableRecord
100
AcDbRegAppTableRecord
  2
AECBASE
 70
     0
  0
APPID
  5
82FC
330
1E
100
AcDbSymbolTableRecord
100
AcDbRegAppTableRecord
  2
AEC_OBJVER_INFO
 70
     0
  0
APPID
  5
D8C8
330
1E
100
AcDbSymbolTableRecord
100
AcDbRegAppTableRecord
  2
AcDbDynamicBlockGUID
 70
     0
  0
APPID
  5
D8C9
330
1E
100
AcDbSymbolTableRecord
100
AcDbRegAppTableRecord
  2
CADZOOKSMATERIAL
 70
     0
  0
APPID
  5
EFA3
330
1E
100
AcDbSymbolTableRecord
100
AcDbRegAppTableRecord
  2
ACAUTHENVIRON
 70
     0
  0
APPID
  5
EFA4
330
1E
100
AcDbSymbolTableRecord
100
AcDbRegAppTableRecord
  2
AcDbDynamicBlockTrueName
 70
     0
  0
APPID
  5
EFA5
330
1E
100
AcDbSymbolTableRecord
100
AcDbRegAppTableRecord
  2
AcDbBlockRepBTag
 70
     0
  0
APPID
  5
EFA6
330
1E
100
AcDbSymbolTableRecord
100
AcDbRegAppTableRecord
  2
AEC_SCHEDULE_TAG
 70
     0
  0
APPID
  5
12E1D
330
1E
100
AcDbSymbolTableRecord
100
AcDbRegAppTableRecord
  2
ACAD_MLEADERVER
 70
     0
  0
APPID
  5
12FA9
330
1E
100
AcDbSymbolTableRecord
100
AcDbRegAppTableRecord
  2
AEC_XDATA_BOUND_SPACE
 70
     0
  0
ENDTAB
  0
TABLE
  2
DIMSTYLE
  5
20
330
0
100
AcDbSymbolTable
 70
    12
100
AcDbDimStyleTable
 71
     2
340
21
340
2B
  0
DIMSTYLE
105
21
102
{ACAD_REACTORS
330
148FE
330
14B6F
330
14B7C
330
14B87
330
14C82
330
14C83
330
14C84
330
14C72
102
}
330
20
100
AcDbSymbolTableRecord
100
AcDbDimStyleTableRecord
  2
500
 70
     0
 41
30.0
 42
43.0
 43
0.0
 44
13.0
 45
0.5
 46
12.0
 73
     0
 74
     0
 75
     1
 76
     1
 78
    12
140
80.0
141
0.0
145
1.0
147
0.0
172
     1
174
     1
176
     1
177
     1
178
    10
271
     1
272
     1
279
     2
340
22
341
23
342
23
  0
DIMSTYLE
105
2B
330
20
100
AcDbSymbolTableRecord
100
AcDbDimStyleTableRecord
  2
Standard
 70
     0
340
15
  0
ENDTAB
  0
TABLE
  2
BLOCK_RECORD
  5
1
330
0
100
AcDbSymbolTable
 70
    34
  0
BLOCK_RECORD
  5
2
102
{ACAD_XDICTIONARY
360
1FEF
102
}
330
1
100
AcDbSymbolTableRecord
100
AcDbBlockTableRecord
  2
*Model_Space
340
A
  0
BLOCK_RECORD
  5
D
330
1
100
AcDbSymbolTableRecord
100
AcDbBlockTableRecord
  2
*Paper_Space
340
10
  0
BLOCK_RECORD
  5
23
102
{ACAD_XDICTIONARY
360
24
102
}
330
1
100
AcDbSymbolTableRecord
100
AcDbBlockTableRecord
  2
B-DIM
340
0
102
{BLKREFS
331
14903
331
14904
331
14910
331
14911
331
1491B
331
1491C
331
14A5F
331
14A60
331
14A68
331
14A69
331
14A6F
331
14A70
331
14AA2
331
14AA3
331
14AA9
331
14AAA
331
14AC4
331
14AC5
331
14AF4
331
14AF5
331
14B06
331
14B07
331
14B11
331
14B12
331
14B56
331
14B57
331
14B5E
331
14B5F
331
14B76
331
14B77
331
14B81
331
14B82
331
14BA1
331
14BA2
331
14CC0
331
14CC1
331
14CCE
331
14CCF
331
14CD7
331
14CD8
331
14CDE
331
14CDF
102
}
  0
BLOCK_RECORD
  5
148FF
330
1
100
AcDbSymbolTableRecord
100
AcDbBlockTableRecord
  2
*D10
340
0
  0
BLOCK_RECORD
  5
14B70
330
1
100
AcDbSymbolTableRecord
100
AcDbBlockTableRecord
  2
*D26
340
0
  0
BLOCK_RECORD
  5
14B7D
330
1
100
AcDbSymbolTableRecord
100
AcDbBlockTableRecord
  2
*D27
340
0
  0
BLOCK_RECORD
  5
14B88
330
1
100
AcDbSymbolTableRecord
100
AcDbBlockTableRecord
  2
*D28
340
0
  0
BLOCK_RECORD
  5
14C85
330
1
100
AcDbSymbolTableRecord
100
AcDbBlockTableRecord
  2
*D29
340
0
  0
BLOCK_RECORD
  5
14C91
330
1
100
AcDbSymbolTableRecord
100
AcDbBlockTableRecord
  2
*D30
340
0
  0
BLOCK_RECORD
  5
14C9B
330
1
100
AcDbSymbolTableRecord
100
AcDbBlockTableRecord
  2
*D31
340
0
  0
BLOCK_RECORD
  5
14CA5
330
1
100
AcDbSymbolTableRecord
100
AcDbBlockTableRecord
  2
*D32
340
0
  0
ENDTAB
  0
ENDSEC
  0
SECTION
  2
BLOCKS
  0
BLOCK
  5
3
330
2
100
AcDbEntity
  8
0
100
AcDbBlockBegin
  2
*Model_Space
 70
     0
 10
0.0
 20
0.0
 30
0.0
  3
*Model_Space
  1

  0
ENDBLK
  5
9
330
2
100
AcDbEntity
  8
0
100
AcDbBlockEnd
  0
BLOCK
  5
E
330
D
100
AcDbEntity
 67
     1
  8
0
100
AcDbBlockBegin
  2
*Paper_Space
 70
     0
 10
0.0
 20
0.0
 30
0.0
  3
*Paper_Space
  1

  0
ENDBLK
  5
F
330
D
100
AcDbEntity
 67
     1
  8
0
100
AcDbBlockEnd
  0
BLOCK
  5
26
330
23
100
AcDbEntity
  8
0
100
AcDbBlockBegin
  2
B-DIM
 70
     0
 10
0.0
 20
0.0
 30
0.0
  3
B-DIM
  1

  0
LINE
  5
27
330
23
100
AcDbEntity
  8
0
 62
     1
100
AcDbLine
 10
0.000000000000091
 20
-1.1
 30
0.0
 11
0.000000000000091
 21
1.1
 31
0.0
  0
LWPOLYLINE
  5
28
330
23
100
AcDbEntity
  8
0
 62
     1
100
AcDbPolyline
 90
        2
 70
     0
 43
0.3
 10
-0.7071067811864851
 20
-0.7071067811864851
 10
0.707106781186576
 20
0.707106781186576
  0
LINE
  5
29
330
23
100
AcDbEntity
  8
0
 62
     1
100
AcDbLine
 10
1.20000000000009
 20
0.0
 30
0.0
 11
-1.199999999999909
 21
0.0
 31
0.0
  0
ENDBLK
  5
2A
330
23
100
AcDbEntity
  8
0
100
AcDbBlockEnd
  0
BLOCK
  5
14900
330
148FF
100
AcDbEntity
  8
0
100
AcDbBlockBegin
  2
*D10
 70
     1
 10
0.0
 20
0.0
 30
0.0
  3
*D10
  1

  0
LINE
  5
14902
330
148FF
100
AcDbEntity
  8
0Wymiary-PL
 62
     1
370
    -2
100
AcDbLine
 10
231256.362376752
 20
136201.5101901198
 30
0.0
 11
231256.362376752
 21
135418.5101901198
 31
0.0
  0
INSERT
  5
14903
330
148FF
100
AcDbEntity
  8
0Wymiary-PL
 62
     1
370
    -2
100
AcDbBlockReference
  2
B-DIM
 10
231256.362376752
 20
136231.5101901198
 30
0.0
 41
30.0
 42
30.0
 43
30.0
 50
90.0
  0
INSERT
  5
14904
330
148FF
100
AcDbEntity
  8
0Wymiary-PL
 62
     1
370
    -2
100
AcDbBlockReference
  2
B-DIM
 10
231256.362376752
 20
135388.5101901198
 30
0.0
 41
30.0
 42
30.0
 43
30.0
 50
270.0
  0
MTEXT
  5
14905
330
148FF
100
AcDbEntity
  8
0Wymiary-PL
 62
    10
100
AcDbMText
 10
231176.362376752
 20
135810.0101901198
 30
0.0
 40
80.0
 41
0.0
 71
     5
 72
     1
  1
\A1;843
  7
ROMANS
 11
0.0000000000000001
 21
1.0
 31
0.0
 73
     1
 44
1.0
1001
ACAD
1000
MTEXTBEGIN
1070
    73
1070
     1
1070
    44
1040
1.0
1070
    74
1070
     0
1000
MTEXTEND
  0
POINT
  5
14906
330
148FF
100
AcDbEntity
  8
DEFPOINTS
 62
     0
100
AcDbPoint
 10
231379.7222834107
 20
136231.5101901198
 30
0.0
  0
POINT
  5
14907
330
148FF
100
AcDbEntity
  8
DEFPOINTS
 62
     0
100
AcDbPoint
 10
231379.7222834107
 20
135388.5101901198
 30
0.0
  0
POINT
  5
14908
330
148FF
100
AcDbEntity
  8
DEFPOINTS
 62
     0
100
AcDbPoint
 10
231256.362376752
 20
135388.5101901198
 30
0.0
  0
ENDBLK
  5
14901
330
148FF
100
AcDbEntity
  8
0
100
AcDbBlockEnd
  0
BLOCK
  5
14B71
330
14B70
100
AcDbEntity
  8
0
100
AcDbBlockBegin
  2
*D26
 70
     1
 10
0.0
 20
0.0
 30
0.0
  3
*D26
  1

  0
LINE
  5
14B73
330
14B70
100
AcDbEntity
  8
0Wymiary-PL
 62
     1
370
    -2
100
AcDbLine
 10
231256.362376752
 20
135418.5101901198
 30
0.0
 11
231256.362376752
 21
135448.5101901198
 31
0.0
  0
LINE
  5
14B74
330
14B70
100
AcDbEntity
  8
0Wymiary-PL
 62
     1
370
    -2
100
AcDbLine
 10
231256.362376752
 20
135289.5101901198
 30
0.0
 11
231256.362376752
 21
135259.5101901198
 31
0.0
  0
LINE
  5
14B75
330
14B70
100
AcDbEntity
  8
0Wymiary-PL
 62
     1
370
    -2
100
AcDbLine
 10
231256.362376752
 20
135388.5101901198
 30
0.0
 11
231256.362376752
 21
135319.5101901198
 31
0.0
  0
INSERT
  5
14B76
330
14B70
100
AcDbEntity
  8
0Wymiary-PL
 62
     1
370
    -2
100
AcDbBlockReference
  2
B-DIM
 10
231256.362376752
 20
135388.5101901198
 30
0.0
 41
30.0
 42
30.0
 43
30.0
 50
270.0
  0
INSERT
  5
14B77
330
14B70
100
AcDbEntity
  8
0Wymiary-PL
 62
     1
370
    -2
100
AcDbBlockReference
  2
B-DIM
 10
231256.362376752
 20
135319.5101901198
 30
0.0
 41
30.0
 42
30.0
 43
30.0
 50
90.0
  0
MTEXT
  5
14B78
330
14B70
100
AcDbEntity
  8
0Wymiary-PL
 62
    10
100
AcDbMText
 10
231176.362376752
 20
135354.0101901198
 30
0.0
 40
80.0
 41
0.0
 71
     5
 72
     1
  1
\A1;69
  7
ROMANS
 11
0.0000000000000001
 21
1.0
 31
0.0
 73
     1
 44
1.0
1001
ACAD
1000
MTEXTBEGIN
1070
    73
1070
     1
1070
    44
1040
1.0
1070
    74
1070
     0
1000
MTEXTEND
  0
POINT
  5
14B79
330
14B70
100
AcDbEntity
  8
DEFPOINTS
 62
     0
100
AcDbPoint
 10
231727.7222834107
 20
135388.5101901198
 30
0.0
  0
POINT
  5
14B7A
330
14B70
100
AcDbEntity
  8
DEFPOINTS
 62
     0
100
AcDbPoint
 10
231727.7222834107
 20
135319.5101901198
 30
0.0
  0
POINT
  5
14B7B
330
14B70
100
AcDbEntity
  8
DEFPOINTS
 62
     0
100
AcDbPoint
 10
231256.362376752
 20
135319.5101901198
 30
0.0
  0
ENDBLK
  5
14B72
330
14B70
100
AcDbEntity
  8
0
100
AcDbBlockEnd
  0
BLOCK
  5
14B7E
330
14B7D
100
AcDbEntity
  8
0
100
AcDbBlockBegin
  2
*D27
 70
     1
 10
0.0
 20
0.0
 30
0.0
  3
*D27
  1

  0
LINE
  5
14B80
330
14B7D
100
AcDbEntity
  8
0Wymiary-PL
 62
     1
370
    -2
100
AcDbLine
 10
231076.7694500119
 20
136201.5101901198
 30
0.0
 11
231076.7694500119
 21
135349.5101901198
 31
0.0
  0
INSERT
  5
14B81
330
14B7D
100
AcDbEntity
  8
0Wymiary-PL
 62
     1
370
    -2
100
AcDbBlockReference
  2
B-DIM
 10
231076.7694500119
 20
136231.5101901198
 30
0.0
 41
30.0
 42
30.0
 43
30.0
 50
90.0
  0
INSERT
  5
14B82
330
14B7D
100
AcDbEntity
  8
0Wymiary-PL
 62
     1
370
    -2
100
AcDbBlockReference
  2
B-DIM
 10
231076.7694500119
 20
135319.5101901198
 30
0.0
 41
30.0
 42
30.0
 43
30.0
 50
270.0
  0
MTEXT
  5
14B83
330
14B7D
100
AcDbEntity
  8
0Wymiary-PL
 62
    10
100
AcDbMText
 10
230996.7694500119
 20
135775.5101901198
 30
0.0
 40
80.0
 41
0.0
 71
     5
 72
     1
  1
\A1;912
  7
ROMANS
 11
0.0000000000000001
 21
1.0
 31
0.0
 73
     1
 44
1.0
1001
ACAD
1000
MTEXTBEGIN
1070
    73
1070
     1
1070
    44
1040
1.0
1070
    74
1070
     0
1000
MTEXTEND
  0
POINT
  5
14B84
330
14B7D
100
AcDbEntity
  8
DEFPOINTS
 62
     0
100
AcDbPoint
 10
231379.7222834107
 20
136231.5101901198
 30
0.0
  0
POINT
  5
14B85
330
14B7D
100
AcDbEntity
  8
DEFPOINTS
 62
     0
100
AcDbPoint
 10
231727.7222834107
 20
135319.5101901198
 30
0.0
  0
POINT
  5
14B86
330
14B7D
100
AcDbEntity
  8
DEFPOINTS
 62
     0
100
AcDbPoint
 10
231076.7694500119
 20
135319.5101901198
 30
0.0
  0
ENDBLK
  5
14B7F
330
14B7D
100
AcDbEntity
  8
0
100
AcDbBlockEnd
  0
BLOCK
  5
14B89
330
14B88
100
AcDbEntity
  8
0
100
AcDbBlockBegin
  2
*D28
 70
     1
 10
0.0
 20
0.0
 30
0.0
  3
*D28
  1

  0
LINE
  5
14BA0
330
14B88
100
AcDbEntity
  8
0Wymiary-PL
 62
     1
370
    -2
100
AcDbLine
 10
231409.7222834107
 20
135030.4257001552
 30
0.0
 11
232424.2222834107
 21
135030.4257001552
 31
0.0
  0
INSERT
  5
14BA1
330
14B88
100
AcDbEntity
  8
0Wymiary-PL
 62
     1
370
    -2
100
AcDbBlockReference
  2
B-DIM
 10
231379.7222834107
 20
135030.4257001552
 30
0.0
 41
30.0
 42
30.0
 43
30.0
 50
180.0
  0
INSERT
  5
14BA2
330
14B88
100
AcDbEntity
  8
0Wymiary-PL
 62
     1
370
    -2
100
AcDbBlockReference
  2
B-DIM
 10
232454.2222834107
 20
135030.4257001552
 30
0.0
 41
30.0
 42
30.0
 43
30.0
  0
MTEXT
  5
14BA3
330
14B88
100
AcDbEntity
  8
0Wymiary-PL
 62
    10
100
AcDbMText
 10
231916.9722834107
 20
135110.4257001552
 30
0.0
 40
80.0
 41
0.0
 71
     5
 72
     1
  1
\A1;1075
  7
ROMANS
 73
     1
 44
1.0
1001
ACAD
1000
MTEXTBEGIN
1070
    73
1070
     1
1070
    44
1040
1.0
1070
    74
1070
     0
1000
MTEXTEND
  0
POINT
  5
14BA4
330
14B88
100
AcDbEntity
  8
DEFPOINTS
 62
     0
100
AcDbPoint
 10
231379.7222834107
 20
135628.7278236756
 30
0.0
  0
POINT
  5
14BA5
330
14B88
100
AcDbEntity
  8
DEFPOINTS
 62
     0
100
AcDbPoint
 10
232454.2222834107
 20
135667.1213592165
 30
0.0
  0
POINT
  5
14BA6
330
14B88
100
AcDbEntity
  8
DEFPOINTS
 62
     0
100
AcDbPoint
 10
232454.2222834107
 20
135030.4257001552
 30
0.0
  0
ENDBLK
  5
14B8A
330
14B88
100
AcDbEntity
  8
0
100
AcDbBlockEnd
  0
BLOCK
  5
14C86
330
14C85
100
AcDbEntity
  8
0
100
AcDbBlockBegin
  2
*D29
 70
     1
 10
0.0
 20
0.0
 30
0.0
  3
*D29
  1

  0
LINE
  5
14CD4
330
14C85
100
AcDbEntity
  8
0Wymiary-PL
 62
     1
370
    -2
100
AcDbLine
 10
236849.8056216663
 20
135425.6000139954
 30
0.0
 11
236849.8056216663
 21
135455.6000139954
 31
0.0
  0
LINE
  5
14CD5
330
14C85
100
AcDbEntity
  8
0Wymiary-PL
 62
     1
370
    -2
100
AcDbLine
 10
236849.8056216663
 20
135296.6000139954
 30
0.0
 11
236849.8056216663
 21
135266.6000139954
 31
0.0
  0
LINE
  5
14CD6
330
14C85
100
AcDbEntity
  8
0Wymiary-PL
 62
     1
370
    -2
100
AcDbLine
 10
236849.8056216663
 20
135395.6000139954
 30
0.0
 11
236849.8056216663
 21
135326.6000139954
 31
0.0
  0
INSERT
  5
14CD7
330
14C85
100
AcDbEntity
  8
0Wymiary-PL
 62
     1
370
    -2
100
AcDbBlockReference
  2
B-DIM
 10
236849.8056216663
 20
135395.6000139954
 30
0.0
 41
30.0
 42
30.0
 43
30.0
 50
270.0
  0
INSERT
  5
14CD8
330
14C85
100
AcDbEntity
  8
0Wymiary-PL
 62
     1
370
    -2
100
AcDbBlockReference
  2
B-DIM
 10
236849.8056216663
 20
135326.6000139954
 30
0.0
 41
30.0
 42
30.0
 43
30.0
 50
90.0
  0
MTEXT
  5
14CD9
330
14C85
100
AcDbEntity
  8
0Wymiary-PL
 62
    10
100
AcDbMText
 10
236769.8056216663
 20
135361.1000139955
 30
0.0
 40
80.0
 41
0.0
 71
     5
 72
     1
  1
\A1;69
  7
ROMANS
 11
0.0000000000000001
 21
1.0
 31
0.0
 73
     1
 44
1.0
1001
ACAD
1000
MTEXTBEGIN
1070
    73
1070
     1
1070
    44
1040
1.0
1070
    74
1070
     0
1000
MTEXTEND
  0
POINT
  5
14CDA
330
14C85
100
AcDbEntity
  8
DEFPOINTS
 62
     0
100
AcDbPoint
 10
236378.4457150077
 20
135395.6000139954
 30
0.0
  0
POINT
  5
14CDB
330
14C85
100
AcDbEntity
  8
DEFPOINTS
 62
     0
100
AcDbPoint
 10
236378.4457150077
 20
135326.6000139954
 30
0.0
  0
POINT
  5
14CDC
330
14C85
100
AcDbEntity
  8
DEFPOINTS
 62
     0
100
AcDbPoint
 10
236849.8056216663
 20
135326.6000139954
 30
0.0
  0
ENDBLK
  5
14C87
330
14C85
100
AcDbEntity
  8
0
100
AcDbBlockEnd
  0
BLOCK
  5
14C92
330
14C91
100
AcDbEntity
  8
0
100
AcDbBlockBegin
  2
*D30
 70
     1
 10
0.0
 20
0.0
 30
0.0
  3
*D30
  1

  0
LINE
  5
14CDD
330
14C91
100
AcDbEntity
  8
0Wymiary-PL
 62
     1
370
    -2
100
AcDbLine
 10
237029.3985484064
 20
136208.6000139954
 30
0.0
 11
237029.3985484064
 21
135356.6000139954
 31
0.0
  0
INSERT
  5
14CDE
330
14C91
100
AcDbEntity
  8
0Wymiary-PL
 62
     1
370
    -2
100
AcDbBlockReference
  2
B-DIM
 10
237029.3985484064
 20
136238.6000139954
 30
0.0
 41
30.0
 42
30.0
 43
30.0
 50
90.0
  0
INSERT
  5
14CDF
330
14C91
100
AcDbEntity
  8
0Wymiary-PL
 62
     1
370
    -2
100
AcDbBlockReference
  2
B-DIM
 10
237029.3985484064
 20
135326.6000139954
 30
0.0
 41
30.0
 42
30.0
 43
30.0
 50
270.0
  0
MTEXT
  5
14CE0
330
14C91
100
AcDbEntity
  8
0Wymiary-PL
 62
    10
100
AcDbMText
 10
236949.3985484064
 20
135782.6000139955
 30
0.0
 40
80.0
 41
0.0
 71
     5
 72
     1
  1
\A1;912
  7
ROMANS
 11
0.0000000000000001
 21
1.0
 31
0.0
 73
     1
 44
1.0
1001
ACAD
1000
MTEXTBEGIN
1070
    73
1070
     1
1070
    44
1040
1.0
1070
    74
1070
     0
1000
MTEXTEND
  0
POINT
  5
14CE1
330
14C91
100
AcDbEntity
  8
DEFPOINTS
 62
     0
100
AcDbPoint
 10
236726.4457150077
 20
136238.6000139954
 30
0.0
  0
POINT
  5
14CE2
330
14C91
100
AcDbEntity
  8
DEFPOINTS
 62
     0
100
AcDbPoint
 10
236378.4457150077
 20
135326.6000139954
 30
0.0
  0
POINT
  5
14CE3
330
14C91
100
AcDbEntity
  8
DEFPOINTS
 62
     0
100
AcDbPoint
 10
237029.3985484064
 20
135326.6000139954
 30
0.0
  0
ENDBLK
  5
14C93
330
14C91
100
AcDbEntity
  8
0
100
AcDbBlockEnd
  0
BLOCK
  5
14C9C
330
14C9B
100
AcDbEntity
  8
0
100
AcDbBlockBegin
  2
*D31
 70
     1
 10
0.0
 20
0.0
 30
0.0
  3
*D31
  1

  0
LINE
  5
14CBF
330
14C9B
100
AcDbEntity
  8
0Wymiary-PL
 62
     1
370
    -2
100
AcDbLine
 10
236604.216413085
 20
135030.4257001552
 30
0.0
 11
235589.7164130849
 21
135030.4257001552
 31
0.0
  0
INSERT
  5
14CC0
330
14C9B
100
AcDbEntity
  8
0Wymiary-PL
 62
     1
370
    -2
100
AcDbBlockReference
  2
B-DIM
 10
236634.216413085
 20
135030.4257001552
 30
0.0
 41
30.0
 42
30.0
 43
30.0
  0
INSERT
  5
14CC1
330
14C9B
100
AcDbEntity
  8
0Wymiary-PL
 62
     1
370
    -2
100
AcDbBlockReference
  2
B-DIM
 10
235559.716413085
 20
135030.4257001552
 30
0.0
 41
30.0
 42
30.0
 43
30.0
 50
180.0
  0
MTEXT
  5
14CC2
330
14C9B
100
AcDbEntity
  8
0Wymiary-PL
 62
    10
100
AcDbMText
 10
236096.966413085
 20
135110.4257001552
 30
0.0
 40
80.0
 41
0.0
 71
     5
 72
     1
  1
\A1;1075
  7
ROMANS
 73
     1
 44
1.0
1001
ACAD
1000
MTEXTBEGIN
1070
    73
1070
     1
1070
    44
1040
1.0
1070
    74
1070
     0
1000
MTEXTEND
  0
POINT
  5
14CC3
330
14C9B
100
AcDbEntity
  8
DEFPOINTS
 62
     0
100
AcDbPoint
 10
236634.216413085
 20
135628.7278236756
 30
0.0
  0
POINT
  5
14CC4
330
14C9B
100
AcDbEntity
  8
DEFPOINTS
 62
     0
100
AcDbPoint
 10
235559.716413085
 20
135667.1213592165
 30
0.0
  0
POINT
  5
14CC5
330
14C9B
100
AcDbEntity
  8
DEFPOINTS
 62
     0
100
AcDbPoint
 10
235559.716413085
 20
135030.4257001552
 30
0.0
  0
ENDBLK
  5
14C9D
330
14C9B
100
AcDbEntity
  8
0
100
AcDbBlockEnd
  0
BLOCK
  5
14CA6
330
14CA5
100
AcDbEntity
  8
0
100
AcDbBlockBegin
  2
*D32
 70
     1
 10
0.0
 20
0.0
 30
0.0
  3
*D32
  1

  0
LINE
  5
14CCD
330
14CA5
100
AcDbEntity
  8
0Wymiary-PL
 62
     1
370
    -2
100
AcDbLine
 10
236849.8056216663
 20
136208.6000139954
 30
0.0
 11
236849.8056216663
 21
135425.6000139954
 31
0.0
  0
INSERT
  5
14CCE
330
14CA5
100
AcDbEntity
  8
0Wymiary-PL
 62
     1
370
    -2
100
AcDbBlockReference
  2
B-DIM
 10
236849.8056216663
 20
136238.6000139954
 30
0.0
 41
30.0
 42
30.0
 43
30.0
 50
90.0
  0
INSERT
  5
14CCF
330
14CA5
100
AcDbEntity
  8
0Wymiary-PL
 62
     1
370
    -2
100
AcDbBlockReference
  2
B-DIM
 10
236849.8056216663
 20
135395.6000139954
 30
0.0
 41
30.0
 42
30.0
 43
30.0
 50
270.0
  0
MTEXT
  5
14CD0
330
14CA5
100
AcDbEntity
  8
0Wymiary-PL
 62
    10
100
AcDbMText
 10
236769.8056216663
 20
135817.1000139955
 30
0.0
 40
80.0
 41
0.0
 71
     5
 72
     1
  1
\A1;843
  7
ROMANS
 11
0.0000000000000001
 21
1.0
 31
0.0
 73
     1
 44
1.0
1001
ACAD
1000
MTEXTBEGIN
1070
    73
1070
     1
1070
    44
1040
1.0
1070
    74
1070
     0
1000
MTEXTEND
  0
POINT
  5
14CD1
330
14CA5
100
AcDbEntity
  8
DEFPOINTS
 62
     0
100
AcDbPoint
 10
236726.4457150077
 20
136238.6000139954
 30
0.0
  0
POINT
  5
14CD2
330
14CA5
100
AcDbEntity
  8
DEFPOINTS
 62
     0
100
AcDbPoint
 10
236726.4457150077
 20
135395.6000139954
 30
0.0
  0
POINT
  5
14CD3
330
14CA5
100
AcDbEntity
  8
DEFPOINTS
 62
     0
100
AcDbPoint
 10
236849.8056216663
 20
135395.6000139954
 30
0.0
  0
ENDBLK
  5
14CA7
330
14CA5
100
AcDbEntity
  8
0
100
AcDbBlockEnd
  0
ENDSEC
  0
SECTION
  2
ENTITIES
  0
TEXT
  5
E432
330
2
100
AcDbEntity
  8
NAPISY
370
     5
100
AcDbText
 10
230253.6321046451
 20
128323.0717886572
 30
0.0
 40
100.0
  1
   O B R Y S   B U D Y N K U           S K A L A   1 : 5 0 0 
  7
AVA
100
AcDbText
  0
LINE
  5
E43C
330
2
100
AcDbEntity
  8
NAPISY
  6
HIDDEN
 62
     1
 48
8.0
370
     5
100
AcDbLine
 10
234006.9693482478
 20
132297.6012553763
 30
0.0
 11
234006.9693482478
 21
138473.1198157809
 31
0.0
  0
TEXT
  5
E43D
330
2
100
AcDbEntity
  8
NAPISY
370
     5
100
AcDbText
 10
233947.4481712545
 20
132512.3704586351
 30
0.0
 40
100.0
  1
OŚ ODBICIA LUSTRZANEGO
 50
90.0
  7
AVA
100
AcDbText
  0
TEXT
  5
E43F
330
2
100
AcDbEntity
  8
NAPISY
370
     5
100
AcDbText
 10
230349.845155763
 20
140786.437049539
 30
0.0
 40
150.0
  1
MOŻNA WKLEIĆ DO PROJEKTU ZAGOSPODAROWANIA TERENU
  7
AVA
100
AcDbText
  0
TEXT
  5
E440
330
2
100
AcDbEntity
  8
NAPISY
370
     5
100
AcDbText
 10
230273.5098851278
 20
141116.3055269018
 30
0.0
 40
150.0
  1
"DOM  POD  PAPAJĄ"
  7
AVA
100
AcDbText
  0
LINE
  5
1325B
330
2
100
AcDbEntity
  8
0
370
     5
100
AcDbLine
 10
232335.5972834107
 20
136231.5101901198
 30
0.0
 11
232335.5972834107
 21
136359.2051660618
 31
0.0
  0
LINE
  5
1325C
330
2
100
AcDbEntity
  8
0
370
     5
100
AcDbLine
 10
231498.3472834107
 20
136359.2051660618
 30
0.0
 11
231498.3472834107
 21
136231.5101901198
 31
0.0
  0
LINE
  5
1325D
330
2
100
AcDbEntity
  8
0
370
     5
100
AcDbLine
 10
232365.5972834107
 20
136231.5101901198
 30
0.0
 11
232365.5972834107
 21
136359.2051660618
 31
0.0
  0
ARC
  5
1325E
330
2
100
AcDbEntity
  8
0
370
     5
100
AcDbCircle
 10
231916.9722834107
 20
135923.2760037787
 30
0.0
 40
665.7341863409449
100
AcDbArc
 50
52.40754856836764
 51
127.5924514316324
  0
ARC
  5
1325F
330
2
100
AcDbEntity
  8
0
370
     5
100
AcDbCircle
 10
231916.6972969931
 20
135921.389142271
 30
0.0
 40
667.6266700385772
100
AcDbArc
 50
74.69425099633312
 51
102.1686364340786
  0
ARC
  5
13260
330
2
100
AcDbEntity
  8
0
370
     5
100
AcDbCircle
 10
231916.9722834107
 20
135923.2760037787
 30
0.0
 40
695.7341863410041
100
AcDbArc
 50
102.2505635633449
 51
114.2180294134287
  0
LINE
  5
13261
330
2
100
AcDbEntity
  8
0
370
     5
100
AcDbLine
 10
231468.3472834107
 20
136359.2051660618
 30
0.0
 11
231468.3472834107
 21
136231.5101901198
 31
0.0
  0
LINE
  5
13262
330
2
100
AcDbEntity
  8
0
370
     5
100
AcDbLine
 10
232395.5972834107
 20
136231.5101901198
 30
0.0
 11
232395.5972834107
 21
136359.2051660618
 31
0.0
  0
LINE
  5
13263
330
2
100
AcDbEntity
  8
0
370
     5
100
AcDbLine
 10
232395.5972834107
 20
136359.2051660618
 30
0.0
 11
232323.0972834107
 21
136359.2051660618
 31
0.0
  0
LINE
  5
13264
330
2
100
AcDbEntity
  8
0
370
     5
100
AcDbLine
 10
232323.0972834107
 20
136359.2051660618
 30
0.0
 11
232323.0972834107
 21
136450.7838153209
 31
0.0
  0
ARC
  5
13265
330
2
100
AcDbEntity
  8
0
370
     5
100
AcDbCircle
 10
231917.0293415087
 20
135923.3672244454
 30
0.0
 40
665.627098134686
100
AcDbArc
 50
52.40665015556402
 51
75.96342336813639
  0
ARC
  5
13266
330
2
100
AcDbEntity
  8
0
370
     5
100
AcDbCircle
 10
231916.9629905787
 20
135923.3631223575
 30
0.0
 40
665.6471735942
100
AcDbArc
 50
75.95796836005181
 51
102.2267073246716
  0
LINE
  5
13267
330
2
100
AcDbEntity
  8
0
370
     5
100
AcDbLine
 10
231775.9919811498
 20
136573.9116095701
 30
0.0
 11
231762.7006951193
 21
136632.423651501
 31
0.0
  0
ARC
  5
13268
330
2
100
AcDbEntity
  8
0
370
     5
100
AcDbCircle
 10
231916.9722834107
 20
135923.2760037787
 30
0.0
 40
725.7341863410275
100
AcDbArc
 50
102.2731870654055
 51
114.261637897349
  0
LINE
  5
13269
330
2
100
AcDbEntity
  8
0
370
     5
100
AcDbLine
 10
231618.7651736228
 20
136584.9123305444
 30
0.0
 11
231644.3072319692
 21
136530.8113672126
 31
0.0
  0
ARC
  5
1326A
330
2
100
AcDbEntity
  8
0
370
     5
100
AcDbCircle
 10
231938.7397323156
 20
135885.237768567
 30
0.0
 40
709.5461708221959
100
AcDbArc
 50
114.5167284078641
 51
121.1902392133478
  0
LINE
  5
1326B
330
2
100
AcDbEntity
  8
0
370
     5
100
AcDbLine
 10
231510.8472834107
 20
136450.7838153209
 30
0.0
 11
231510.8472834107
 21
136359.2051660618
 31
0.0
  0
LINE
  5
1326C
330
2
100
AcDbEntity
  8
0
370
     5
100
AcDbLine
 10
231510.8472834107
 20
136359.2051660618
 30
0.0
 11
231438.3472834107
 21
136359.2051660618
 31
0.0
  0
LINE
  5
1326D
330
2
100
AcDbEntity
  8
0
370
     5
100
AcDbLine
 10
231438.3472834107
 20
136231.5101901198
 30
0.0
 11
231438.3472834107
 21
136384.3903997438
 31
0.0
  0
LINE
  5
1337D
330
2
100
AcDbEntity
  8
0
370
     5
100
AcDbLine
 10
232395.5972834107
 20
136359.2051660618
 30
0.0
 11
232395.0972834107
 21
136384.2051660618
 31
0.0
  0
LINE
  5
1337F
330
2
100
AcDbEntity
  8
0
370
     5
100
AcDbLine
 10
231611.0982711279
 20
136542.594019656
 30
0.0
 11
231590.7731776252
 21
136585.6448624421
 31
0.0
  0
LINE
  5
13380
330
2
100
AcDbEntity
  8
0
370
     5
100
AcDbLine
 10
231590.7731776252
 20
136585.6448624421
 30
0.0
 11
231613.3803002893
 21
136596.3181002288
 31
0.0
  0
LINE
  5
13381
330
2
100
AcDbEntity
  8
0
370
     5
100
AcDbLine
 10
231613.3803002893
 20
136596.3181002288
 30
0.0
 11
231618.7651736228
 21
136584.9123305444
 31
0.0
  0
LINE
  5
13382
330
2
100
AcDbEntity
  8
0
370
     5
100
AcDbLine
 10
231762.7006951193
 20
136632.423651501
 30
0.0
 11
231759.9250596346
 21
136644.6427926352
 31
0.0
  0
LINE
  5
13383
330
2
100
AcDbEntity
  8
0
370
     5
100
AcDbLine
 10
231759.9250596346
 20
136644.6427926352
 30
0.0
 11
231783.5612011065
 21
136650.0118535429
 31
0.0
  0
LINE
  5
13384
330
2
100
AcDbEntity
  8
0
370
     5
100
AcDbLine
 10
231783.5612011065
 20
136650.0118535429
 30
0.0
 11
231794.2360188729
 21
136603.0182531258
 31
0.0
  0
HATCH
  5
13A23
330
2
100
AcDbEntity
  8
0
370
     5
100
AcDbHatch
 10
0.0
 20
0.0
 30
0.0
210
0.0
220
0.0
230
1.0
  2
SOLID
 70
     1
 71
     0
 91
        1
 92
        7
 72
     0
 73
     1
 93
        8
 10
231498.3472834107
 20
136231.5101901198
 10
231379.7222834107
 20
136231.5101901198
 10
231379.7222834107
 20
135388.5101901198
 10
231861.9722834107
 20
135388.5101901198
 10
231861.9722834107
 20
135448.5101901198
 10
231439.7222834107
 20
135448.5101901198
 10
231439.7222834107
 20
136171.5101901198
 10
231498.3472834107
 20
136171.5101901198
 97
        0
 75
     0
 76
     1
 47
3.192264956133641
 98
        1
 10
231454.1432006043
 20
136186.0514032021
1001
ACAD
1010
0.0
1020
0.0
1030
0.0
  0
HATCH
  5
14039
330
2
100
AcDbEntity
  8
0
370
     5
100
AcDbHatch
 10
0.0
 20
0.0
 30
0.0
210
0.0
220
0.0
230
1.0
  2
SOLID
 70
     1
 71
     0
 91
        1
 92
        7
 72
     0
 73
     1
 93
        8
 10
232454.2222834107
 20
136231.5101901198
 10
231678.3472834107
 20
136231.5101901198
 10
231678.3472834107
 20
136171.5101901198
 10
232394.2222834107
 20
136171.5101901198
 10
232394.2222834107
 20
135448.5101901198
 10
231971.9722834107
 20
135448.5101901198
 10
231971.9722834106
 20
135388.5101901198
 10
232454.2222834107
 20
135388.5101901198
 97
        0
 75
     0
 76
     1
 47
3.192264956133641
 98
        1
 10
231866.1989342213
 20
136182.8591746229
1001
ACAD
1010
0.0
1020
0.0
1030
0.0
  0
DIMENSION
  5
148FE
330
2
100
AcDbEntity
  8
0Wymiary-PL
100
AcDbDimension
  2
*D10
 10
231256.362376752
 20
135388.5101901198
 30
0.0
 11
231176.362376752
 21
135810.0101901198
 31
0.0
 70
    32
 71
     5
 42
843.0
  3
500
100
AcDbAlignedDimension
 13
231379.7222834107
 23
136231.5101901198
 33
0.0
 14
231379.7222834107
 24
135388.5101901198
 34
0.0
 50
90.0
100
AcDbRotatedDimension
  0
HATCH
  5
14B02
330
2
100
AcDbEntity
  8
0
370
     5
100
AcDbHatch
 10
0.0
 20
0.0
 30
0.0
210
0.0
220
0.0
230
1.0
  2
SOLID
 70
     1
 71
     0
 91
        1
 92
        7
 72
     0
 73
     1
 93
        4
 10
231678.3472834107
 20
136231.5101901198
 10
231498.3472834107
 20
136231.5101901198
 10
231498.3472834107
 20
136171.5101901198
 10
231678.3472834107
 20
136171.5101901198
 97
        0
 75
     0
 76
     1
 47
3.26373715154245
 98
        1
 10
231619.3035873156
 20
136189.9045321905
1001
ACAD
1010
0.0
1020
0.0
1030
0.0
  0
LINE
  5
14B30
330
2
100
AcDbEntity
  8
0
370
     5
100
AcDbLine
 10
231796.9722834106
 20
135388.5101901198
 30
0.0
 11
231796.9722834106
 21
135288.5101901198
 31
0.0
  0
LINE
  5
14B31
330
2
100
AcDbEntity
  8
0
370
     5
100
AcDbLine
 10
231796.9722834106
 20
135288.5101901198
 30
0.0
 11
232036.9722834107
 21
135288.5101901198
 31
0.0
  0
LINE
  5
14B32
330
2
100
AcDbEntity
  8
0
370
     5
100
AcDbLine
 10
232036.9722834107
 20
135288.5101901198
 30
0.0
 11
232036.9722834107
 21
135388.5101901198
 31
0.0
  0
LINE
  5
14B33
330
2
100
AcDbEntity
  8
0
370
     5
100
AcDbLine
 10
231761.9722834107
 20
135319.5101901198
 30
0.0
 11
231761.9722834107
 21
135253.5101901198
 31
0.0
  0
LINE
  5
14B34
330
2
100
AcDbEntity
  8
0
370
     5
100
AcDbLine
 10
231761.9722834107
 20
135253.5101901198
 30
0.0
 11
232071.9722834107
 21
135253.5101901198
 31
0.0000000000000087
  0
LINE
  5
14B35
330
2
100
AcDbEntity
  8
0
370
     5
100
AcDbLine
 10
232071.9722834107
 20
135253.5101901198
 30
0.0
 11
232071.9722834107
 21
135319.5101901198
 31
0.0
  0
LINE
  5
14B36
330
2
100
AcDbEntity
  8
0
370
     5
100
AcDbLine
 10
231726.9722834107
 20
135319.5101901198
 30
0.0
 11
231726.9722834107
 21
135218.5101901198
 31
0.0
  0
LINE
  5
14B37
330
2
100
AcDbEntity
  8
0
370
     5
100
AcDbLine
 10
231726.9722834107
 20
135218.5101901198
 30
0.0
 11
232106.9722834107
 21
135218.5101901198
 31
0.0000000000000173
  0
LINE
  5
14B38
330
2
100
AcDbEntity
  8
0
370
     5
100
AcDbLine
 10
232106.9722834107
 20
135218.5101901198
 30
0.0
 11
232106.9722834107
 21
135319.5101901198
 31
0.0
  0
LINE
  5
14B39
330
2
100
AcDbEntity
  8
0
370
     5
100
AcDbLine
 10
232056.9722834107
 20
135388.5101901198
 30
0.0
 11
232056.9722834107
 21
135319.5101901198
 31
0.0
  0
LINE
  5
14B3A
330
2
100
AcDbEntity
  8
0
370
     5
100
AcDbLine
 10
232056.9722834107
 20
135319.5101901198
 30
0.0
 11
232105.7222834107
 21
135319.5101901198
 31
0.0
  0
LINE
  5
14B3B
330
2
100
AcDbEntity
  8
0
370
     5
100
AcDbLine
 10
232105.7222834107
 20
135319.5101901198
 30
0.0
 11
232105.7222834107
 21
135388.5101901198
 31
0.0
  0
LINE
  5
14B3C
330
2
100
AcDbEntity
  8
0
370
     5
100
AcDbLine
 10
231776.7222834107
 20
135319.5101901198
 30
0.0
 11
231727.7222834107
 21
135319.5101901198
 31
0.0
  0
LINE
  5
14B3D
330
2
100
AcDbEntity
  8
0
370
     5
100
AcDbLine
 10
231727.7222834107
 20
135319.5101901198
 30
0.0
 11
231727.7222834107
 21
135388.5101901198
 31
0.0
  0
LINE
  5
14B3E
330
2
100
AcDbEntity
  8
0
370
     5
100
AcDbLine
 10
231776.7222834107
 20
135319.5101901198
 30
0.0
 11
231776.7222834107
 21
135388.5101901198
 31
0.0
  0
HATCH
  5
14B68
330
2
100
AcDbEntity
  8
0
370
     5
100
AcDbHatch
 10
0.0
 20
0.0
 30
0.0
210
0.0
220
0.0
230
1.0
  2
SOLID
 70
     1
 71
     0
 91
        1
 92
        7
 72
     0
 73
     1
 93
        4
 10
231776.7222834107
 20
135388.5101901198
 10
231727.7222834107
 20
135388.5101901198
 10
231727.7222834107
 20
135319.5101901198
 10
231776.7222834107
 20
135319.5101901198
 97
        0
 75
     0
 76
     1
 47
2.898396921370958
 98
        1
 10
231755.8004374971
 20
135351.6147446792
1001
ACAD
1010
0.0
1020
0.0
1030
0.0
  0
HATCH
  5
14B6E
330
2
100
AcDbEntity
  8
0
370
     5
100
AcDbHatch
 10
0.0
 20
0.0
 30
0.0
210
0.0
220
0.0
230
1.0
  2
SOLID
 70
     1
 71
     0
 91
        1
 92
        7
 72
     0
 73
     1
 93
        4
 10
232105.7222834107
 20
135388.5101901198
 10
232056.9722834107
 20
135388.5101901198
 10
232056.9722834107
 20
135319.5101901198
 10
232105.7222834107
 20
135319.5101901198
 97
        0
 75
     0
 76
     1
 47
2.898396921370958
 98
        1
 10
232080.6381317698
 20
135363.2083833193
1001
ACAD
1010
0.0
1020
0.0
1030
0.0
  0
DIMENSION
  5
14B6F
330
2
100
AcDbEntity
  8
0Wymiary-PL
100
AcDbDimension
  2
*D26
 10
231256.362376752
 20
135319.5101901198
 30
0.0
 11
231176.362376752
 21
135354.0101901198
 31
0.0
 70
    32
 71
     5
 42
69.0
  3
500
100
AcDbAlignedDimension
 13
231727.7222834107
 23
135388.5101901198
 33
0.0
 14
231727.7222834107
 24
135319.5101901198
 34
0.0
 50
90.0
100
AcDbRotatedDimension
  0
DIMENSION
  5
14B7C
330
2
100
AcDbEntity
  8
0Wymiary-PL
100
AcDbDimension
  2
*D27
 10
231076.7694500119
 20
135319.5101901198
 30
0.0
 11
230996.7694500119
 21
135775.5101901198
 31
0.0
 70
    32
 71
     5
 42
912.0
  3
500
100
AcDbAlignedDimension
 13
231379.7222834107
 23
136231.5101901198
 33
0.0
 14
231727.7222834107
 24
135319.5101901198
 34
0.0
 50
90.0
100
AcDbRotatedDimension
  0
DIMENSION
  5
14B87
330
2
100
AcDbEntity
  8
0Wymiary-PL
100
AcDbDimension
  2
*D28
 10
232454.2222834107
 20
135030.4257001552
 30
0.0
 11
231916.9722834107
 21
135110.4257001552
 31
0.0
 70
    32
 71
     5
 42
1074.5
  3
500
100
AcDbAlignedDimension
 13
231379.7222834107
 23
135628.7278236756
 33
0.0
 14
232454.2222834107
 24
135667.1213592165
 34
0.0
100
AcDbRotatedDimension
1001
ACAD
1000
DSTYLE
1002
{
1070
   271
1070
     0
1002
}
  0
LINE
  5
14BAA
330
2
100
AcDbEntity
  8
0
370
     5
100
AcDbLine
 10
231971.9722834107
 20
135388.5101901198
 30
0.0
 11
231971.9722834107
 21
135448.5101901198
 31
0.0
  0
LINE
  5
14BAB
330
2
100
AcDbEntity
  8
0
370
     5
100
AcDbLine
 10
231861.9722834107
 20
135388.5101901198
 30
0.0
 11
231861.9722834107
 21
135448.5101901198
 31
0.0
  0
LINE
  5
14BAC
330
2
100
AcDbEntity
  8
0
  6
Continuous
370
     5
100
AcDbLine
 10
231678.3472834107
 20
136231.5101901198
 30
0.0
 11
231678.3472834107
 21
136171.5101901198
 31
0.0
  0
LINE
  5
14BAD
330
2
100
AcDbEntity
  8
0
  6
Continuous
370
     5
100
AcDbLine
 10
231498.3472834107
 20
136231.5101901198
 30
0.0
 11
231498.3472834107
 21
136171.5101901198
 31
0.0
  0
LINE
  5
14BAE
330
2
100
AcDbEntity
  8
0
370
     5
100
AcDbLine
 10
231439.7222834107
 20
136171.5101901198
 30
0.0
 11
231439.7222834107
 21
135448.5101901198
 31
0.0
  0
LINE
  5
14BAF
330
2
100
AcDbEntity
  8
0
370
     5
100
AcDbLine
 10
231439.7222834107
 20
135448.5101901198
 30
0.0
 11
232394.2222834107
 21
135448.5101901198
 31
0.0
  0
LINE
  5
14BB0
330
2
100
AcDbEntity
  8
0
370
     5
100
AcDbLine
 10
232394.2222834107
 20
135448.5101901198
 30
0.0
 11
232394.2222834107
 21
136171.5101901198
 31
0.0
  0
LINE
  5
14BB1
330
2
100
AcDbEntity
  8
0
370
     5
100
AcDbLine
 10
232394.2222834107
 20
136171.5101901198
 30
0.0
 11
231439.7222834107
 21
136171.5101901198
 31
0.0
  0
LINE
  5
14BB2
330
2
100
AcDbEntity
  8
0
370
     5
100
AcDbLine
 10
231379.7222834107
 20
136231.5101901198
 30
0.0
 11
231379.7222834107
 21
135388.5101901198
 31
0.0
  0
LINE
  5
14BB3
330
2
100
AcDbEntity
  8
0
370
     5
100
AcDbLine
 10
231379.7222834107
 20
135388.5101901198
 30
0.0
 11
232454.2222834107
 21
135388.5101901198
 31
0.0
  0
LINE
  5
14BB4
330
2
100
AcDbEntity
  8
0
370
     5
100
AcDbLine
 10
232454.2222834107
 20
135388.5101901198
 30
0.0
 11
232454.2222834107
 21
136231.5101901198
 31
0.0
  0
LINE
  5
14BB5
330
2
100
AcDbEntity
  8
0
370
     5
100
AcDbLine
 10
232454.2222834107
 20
136231.5101901198
 30
0.0
 11
231379.7222834107
 21
136231.5101901198
 31
0.0
  0
3DFACE
  5
14BB6
330
2
100
AcDbEntity
  8
0
370
     5
100
AcDbFace
 10
232348.0972834107
 20
136384.2051660618
 30
0.0
 11
232348.0972834107
 21
136396.3458972455
 31
0.0
 12
232395.0972834107
 22
136397.8940446986
 32
0.0
 13
232395.0972834107
 23
136384.2051660618
 33
0.0
  0
3DFACE
  5
14BB7
330
2
100
AcDbEntity
  8
0
370
     5
100
AcDbFace
 10
232348.0972834107
 20
136396.3458972455
 30
0.0
 11
232348.0972834107
 21
136408.4866284291
 31
0.0
 12
232395.0972834107
 22
136411.5829233354
 32
0.0
 13
232395.0972834107
 23
136397.8940446986
 33
0.0
  0
3DFACE
  5
14BB8
330
2
100
AcDbEntity
  8
0
370
     5
100
AcDbFace
 10
232348.0972834107
 20
136408.4866284291
 30
0.0
 11
232348.0972834107
 21
136420.6273596128
 31
0.0
 12
232395.0972834107
 22
136425.2718019722
 32
0.0
 13
232395.0972834107
 23
136411.5829233354
 33
0.0
  0
3DFACE
  5
14BB9
330
2
100
AcDbEntity
  8
0
370
     5
100
AcDbFace
 10
232348.0972834107
 20
136420.6273596128
 30
0.0
 11
232348.0972834107
 21
136432.7680907964
 31
0.0
 12
232395.0972834107
 22
136438.960680609
 32
0.0
 13
232395.0972834107
 23
136425.2718019722
 33
0.0
  0
3DFACE
  5
14BBA
330
2
100
AcDbEntity
  8
0
370
     5
100
AcDbFace
 10
232348.0972834107
 20
136432.7680907964
 30
0.0
 11
232348.0972834107
 21
136444.9088219801
 31
0.0
 12
232395.0972834107
 22
136452.6495592457
 32
0.0
 13
232395.0972834107
 23
136438.960680609
 33
0.0
  0
3DFACE
  5
14BBB
330
2
100
AcDbEntity
  8
0
370
     5
100
AcDbFace
 10
232348.0972834107
 20
136444.9088219801
 30
0.0
 11
232348.0972834107
 21
136457.0495531637
 31
0.0
 12
232395.0972834107
 22
136466.3384378825
 32
0.0
 13
232395.0972834107
 23
136452.6495592457
 33
0.0
  0
3DFACE
  5
14BBC
330
2
100
AcDbEntity
  8
0
370
     5
100
AcDbFace
 10
232348.0972834107
 20
136457.0495531637
 30
0.0
 11
232343.2274852759
 21
136466.8330197237
 31
0.0
 12
232395.0972834107
 22
136480.0273165193
 32
0.0
 13
232395.0972834107
 23
136466.3384378825
 33
0.0
  0
3DFACE
  5
14BBD
330
2
100
AcDbEntity
  8
0
370
     5
100
AcDbFace
 10
232343.2274852759
 20
136466.8330197237
 30
0.0
 11
232333.60616198
 21
136474.2373229149
 31
0.0
 12
232388.537346631
 22
136490.6602190293
 32
0.0
 13
232395.0972834107
 23
136480.0273165193
 33
0.0
  0
3DFACE
  5
14BBE
330
2
100
AcDbEntity
  8
0
370
     5
100
AcDbFace
 10
232333.60616198
 20
136474.2373229149
 30
0.0
 11
232323.8563349779
 21
136481.4715776201
 31
0.0
 12
232377.9263492587
 22
136499.3081533548
 32
0.0
 13
232388.537346631
 23
136490.6602190293
 33
0.0
  0
3DFACE
  5
14BBF
330
2
100
AcDbEntity
  8
0
370
     5
100
AcDbFace
 10
232323.8563349779
 20
136481.4715776201
 30
0.0
 11
232313.9810093641
 21
136488.5335540951
 31
0.0
 12
232367.1568879256
 22
136507.7579306257
 32
0.0
 13
232377.9263492587
 23
136499.3081533548
 33
0.0
  0
3DFACE
  5
14BC0
330
2
100
AcDbEntity
  8
0
370
     5
100
AcDbFace
 10
232313.9810093641
 20
136488.5335540951
 30
0.0
 11
232303.9832289147
 21
136495.4210756954
 31
0.0
 12
232356.2326626316
 22
136516.0066478023
 32
0.0
 13
232367.1568879256
 23
136507.7579306257
 33
0.0
  0
3DFACE
  5
14BC1
330
2
100
AcDbEntity
  8
0
370
     5
100
AcDbFace
 10
232303.9832289147
 20
136495.4210756954
 30
0.0
 11
232293.8660751484
 21
136502.1320195471
 31
0.0
 12
232345.1574265479
 22
136524.0514709217
 32
0.0
 13
232356.2326626316
 23
136516.0066478023
 33
0.0
  0
3DFACE
  5
14BC2
330
2
100
AcDbEntity
  8
0
370
     5
100
AcDbFace
 10
232293.8660751484
 20
136502.1320195471
 30
0.0
 11
232283.6326663776
 21
136508.664317201
 31
0.0
 12
232333.9349847275
 22
136531.889636072
 32
0.0
 13
232345.1574265479
 23
136524.0514709217
 33
0.0
  0
3DFACE
  5
14BC3
330
2
100
AcDbEntity
  8
0
370
     5
100
AcDbFace
 10
232283.6326663776
 20
136508.664317201
 30
0.0
 11
232273.2861567464
 21
136515.0159552702
 31
0.0
 12
232322.5691927982
 22
136539.5184503411
 32
0.0
 13
232333.9349847275
 23
136531.889636072
 33
0.0
  0
3DFACE
  5
14BC4
330
2
100
AcDbEntity
  8
0
370
     5
100
AcDbFace
 10
232273.2861567464
 20
136515.0159552702
 30
0.0
 11
232262.8297352594
 21
136521.1849760511
 31
0.0
 12
232311.0639556376
 22
136546.9352927427
 32
0.0
 13
232322.5691927982
 23
136539.5184503411
 33
0.0
  0
3DFACE
  5
14BC5
330
2
100
AcDbEntity
  8
0
370
     5
100
AcDbFace
 10
232262.8297352594
 20
136521.1849760511
 30
0.0
 11
232252.2666247977
 21
136527.1694781261
 31
0.0
 12
232299.4232260317
 22
136554.1376151164
 32
0.0
 13
232311.0639556376
 23
136546.9352927427
 33
0.0
  0
3DFACE
  5
14BC6
330
2
100
AcDbEntity
  8
0
370
     5
100
AcDbFace
 10
232252.2666247977
 20
136527.1694781261
 30
0.0
 11
232241.6000811266
 21
136532.9676169502
 31
0.0
 12
232287.6510033168
 22
136561.122943003
 32
0.0
 13
232299.4232260317
 23
136554.1376151164
 33
0.0
  0
3DFACE
  5
14BC7
330
2
100
AcDbEntity
  8
0
370
     5
100
AcDbFace
 10
232241.6000811266
 20
136532.9676169502
 30
0.0
 11
232230.8333918915
 21
136538.5776054193
 31
0.0
 12
232275.7513320055
 22
136567.8888764949
 32
0.0
 13
232287.6510033168
 23
136561.122943003
 33
0.0
  0
3DFACE
  5
14BC8
330
2
100
AcDbEntity
  8
0
370
     5
100
AcDbFace
 10
232230.8333918915
 20
136538.5776054193
 30
0.0
 11
232219.9698756044
 21
136543.9977144211
 31
0.0
 12
232263.7283003972
 22
136574.4330910605
 32
0.0
 13
232275.7513320055
 23
136567.8888764949
 33
0.0
  0
3DFACE
  5
14BC9
330
2
100
AcDbEntity
  8
0
370
     5
100
AcDbFace
 10
232219.9698756044
 20
136543.9977144211
 30
0.0
 11
232209.0128806217
 21
136549.2262733679
 31
0.0
 12
232251.5860391737
 22
136580.7533383429
 32
0.0
 13
232263.7283003972
 23
136574.4330910605
 33
0.0
  0
3DFACE
  5
14BCA
330
2
100
AcDbEntity
  8
0
370
     5
100
AcDbFace
 10
232209.0128806217
 20
136549.2262733679
 30
0.0
 11
232197.9657841117
 21
136554.2616707116
 31
0.0
 12
232239.3287199792
 22
136586.8474469322
 32
0.0
 13
232251.5860391737
 23
136580.7533383429
 33
0.0
  0
3DFACE
  5
14BCB
330
2
100
AcDbEntity
  8
0
370
     5
100
AcDbFace
 10
232197.9657841117
 20
136554.2616707116
 30
0.0
 11
232186.8319910139
 21
136559.1023544407
 31
0.0
 12
232226.9605539883
 22
136592.7133231118
 32
0.0
 13
232239.3287199792
 23
136586.8474469322
 33
0.0
  0
3DFACE
  5
14BCC
330
2
100
AcDbEntity
  8
0
370
     5
100
AcDbFace
 10
232186.8319910139
 20
136559.1023544407
 30
0.0
 11
232175.6149329893
 21
136563.7468325581
 31
0.0
 12
232214.4857904583
 22
136598.3489515774
 32
0.0
 13
232226.9605539883
 23
136592.7133231118
 33
0.0
  0
3DFACE
  5
14BCD
330
2
100
AcDbEntity
  8
0
370
     5
100
AcDbFace
 10
232175.6149329893
 20
136563.7468325581
 30
0.0
 11
232164.3180673629
 21
136568.1936735413
 31
0.0
 12
232201.9087152695
 22
136603.7523961296
 32
0.0
 13
232214.4857904583
 23
136598.3489515774
 33
0.0
  0
3DFACE
  5
14BCE
330
2
100
AcDbEntity
  8
0
370
     5
100
AcDbFace
 10
232164.3180673629
 20
136568.1936735413
 30
0.0
 11
232152.9448760581
 21
136572.4415067837
 31
0.0
 12
232189.233649453
 22
136608.9218003392
 32
0.0
 13
232201.9087152695
 23
136603.7523961296
 33
0.0
  0
3DFACE
  5
14BCF
330
2
100
AcDbEntity
  8
0
370
     5
100
AcDbFace
 10
232152.9448760581
 20
136572.4415067837
 30
0.0
 11
232141.4988645233
 21
136576.4890230168
 31
0.0
 12
232176.464947706
 22
136613.8553881844
 32
0.0
 13
232189.233649453
 23
136608.9218003392
 33
0.0
  0
3DFACE
  5
14BD0
330
2
100
AcDbEntity
  8
0
370
     5
100
AcDbFace
 10
232141.4988645233
 20
136576.4890230168
 30
0.0
 11
232129.9835606518
 21
136580.3349747139
 31
0.0
 12
232163.6069968953
 22
136618.551464662
 32
0.0
 13
232176.464947706
 23
136613.8553881844
 33
0.0
  0
3DFACE
  5
14BD1
330
2
100
AcDbEntity
  8
0
370
     5
100
AcDbFace
 10
232129.9835606518
 20
136580.3349747139
 30
0.0
 11
232118.402513694
 21
136583.9781764747
 31
0.0
 12
232150.6642145508
 22
136623.0084163688
 32
0.0
 13
232163.6069968953
 23
136618.551464662
 33
0.0
  0
3DFACE
  5
14BD2
330
2
100
AcDbEntity
  8
0
370
     5
100
AcDbFace
 10
232118.402513694
 20
136583.9781764747
 30
0.0
 11
232106.7592931635
 21
136587.4175053903
 31
0.0
 12
232137.6410473474
 22
136627.2247120563
 32
0.0
 13
232150.6642145508
 23
136623.0084163688
 33
0.0
  0
3DFACE
  5
14BD3
330
2
100
AcDbEntity
  8
0
370
     5
100
AcDbFace
 10
232106.7592931635
 20
136587.4175053903
 30
0.0
 11
232095.0574877375
 21
136590.6519013899
 31
0.0
 12
232124.5419695772
 22
136631.198903157
 32
0.0
 13
232137.6410473474
 23
136627.2247120563
 33
0.0
  0
3DFACE
  5
14BD4
330
2
100
AcDbEntity
  8
0
370
     5
100
AcDbFace
 10
232095.0574877375
 20
136590.6519013899
 30
0.0
 11
232083.3007041499
 21
136593.6803675668
 31
0.0
 12
232111.3714816127
 22
136634.9296242814
 32
0.0
 13
232124.5419695772
 23
136631.198903157
 33
0.0
  0
3DFACE
  5
14BD5
330
2
100
AcDbEntity
  8
0
370
     5
100
AcDbFace
 10
232083.3007041499
 20
136593.6803675668
 30
0.0
 11
232071.4925660801
 21
136596.5019704863
 31
0.0
 12
232098.1341083601
 22
136638.4155936881
 32
0.0
 13
232111.3714816127
 23
136634.9296242814
 33
0.0
  0
3DFACE
  5
14BD6
330
2
100
AcDbEntity
  8
0
370
     5
100
AcDbFace
 10
232071.4925660801
 20
136596.5019704863
 30
0.0
 11
232059.6367130361
 21
136599.1158404732
 31
0.0
 12
232084.8343977051
 22
136641.6556137231
 32
0.0
 13
232098.1341083601
 23
136638.4155936881
 33
0.0
  0
3DFACE
  5
14BD7
330
2
100
AcDbEntity
  8
0
370
     5
100
AcDbFace
 10
232059.6367130361
 20
136599.1158404732
 30
0.0
 11
232047.7370065433
 21
136601.5222122627
 31
0.0
 12
232071.4769189504
 22
136644.6485712321
 32
0.0
 13
232084.8343977051
 23
136641.6556137231
 33
0.0
  0
3DFACE
  5
14BD8
330
2
100
AcDbEntity
  8
0
370
     5
100
AcDbFace
 10
232047.7370065433
 20
136601.5222122627
 30
0.0
 11
232035.7969023389
 21
136603.7193597677
 31
0.0
 12
232058.0664443358
 22
136647.3943524989
 32
0.0
 13
232071.4769189504
 23
136644.6485712321
 33
0.0
  0
3DFACE
  5
14BD9
330
2
100
AcDbEntity
  8
0
370
     5
100
AcDbFace
 10
232035.7969023389
 20
136603.7193597677
 30
0.0
 11
232023.8199642988
 21
136605.7059399333
 31
0.0
 12
232044.607453628
 22
136649.8914654906
 32
0.0
 13
232058.0664443358
 23
136647.3943524989
 33
0.0
  0
3DFACE
  5
14BDA
330
2
100
AcDbEntity
  8
0
370
     5
100
AcDbFace
 10
232023.8199642988
 20
136605.7059399333
 30
0.0
 11
232011.8099055449
 21
136607.4813368748
 31
0.0
 12
232031.1043786759
 22
136652.1380119521
 32
0.0
 13
232044.607453628
 23
136649.8914654906
 33
0.0
  0
3DFACE
  5
14BDB
330
2
100
AcDbEntity
  8
0
370
     5
100
AcDbFace
 10
232011.8099055449
 20
136607.4813368748
 30
0.0
 11
231999.7704494674
 21
136609.0450001788
 31
0.0
 12
232017.5618838705
 22
136654.133215855
 32
0.0
 13
232031.1043786759
 23
136652.1380119521
 33
0.0
  0
3DFACE
  5
14BDC
330
2
100
AcDbEntity
  8
0
370
     5
100
AcDbFace
 10
231999.7704494674
 20
136609.0450001788
 30
0.0
 11
231987.7053285701
 21
136610.3964450744
 31
0.0
 12
232003.9846472199
 22
136655.8763879925
 32
0.0
 13
232017.5618838705
 23
136654.133215855
 33
0.0
  0
3DFACE
  5
14BDD
330
2
100
AcDbEntity
  8
0
370
     5
100
AcDbFace
 10
231987.7053285701
 20
136610.3964450744
 30
0.0
 11
231975.6182833137
 21
136611.5352525829
 31
0.0
 12
231990.377358733
 22
136657.3669262173
 32
0.0
 13
232003.9846472199
 23
136655.8763879925
 33
0.0
  0
3DFACE
  5
14BDE
330
2
100
AcDbEntity
  8
0
370
     5
100
AcDbFace
 10
231975.6182833137
 20
136611.5352525829
 30
0.0
 11
231963.5130609559
 21
136612.4610696484
 31
0.0
 12
231976.7447187994
 22
136658.6043156505
 32
0.0
 13
231990.377358733
 23
136657.3669262173
 33
0.0
  0
3DFACE
  5
14BDF
330
2
100
AcDbEntity
  8
0
370
     5
100
AcDbFace
 10
231963.5130609559
 20
136612.4610696484
 30
0.0
 11
231951.3934143896
 21
136613.1736092466
 31
0.0
 12
231963.0914365662
 22
136659.5881288582
 32
0.0
 13
231976.7447187994
 23
136658.6043156505
 33
0.0
  0
3DFACE
  5
14BE0
330
2
100
AcDbEntity
  8
0
370
     5
100
AcDbFace
 10
231951.3934143896
 20
136613.1736092466
 30
0.0
 11
231939.2631009796
 21
136613.6726504741
 31
0.0
 12
231949.4222283109
 22
136660.3180260002
 32
0.0
 13
231963.0914365662
 23
136659.5881288582
 33
0.0
  0
3DFACE
  5
14BE1
330
2
100
AcDbEntity
  8
0
370
     5
100
AcDbFace
 10
231939.2631009796
 20
136613.6726504741
 30
0.0
 11
231927.1258813976
 21
136613.9580386167
 31
0.0
 12
231935.7418158121
 22
136660.7937549468
 32
0.0
 13
231949.4222283109
 23
136660.3180260002
 33
0.0
  0
3DFACE
  5
14BE2
330
2
100
AcDbEntity
  8
0
370
     5
100
AcDbFace
 10
231927.1258813976
 20
136613.9580386167
 30
0.0
 11
231914.9855184567
 21
136614.0296851977
 31
0.0
 12
231922.0549247191
 22
136661.0151513661
 32
0.0
 13
231935.7418158121
 23
136660.7937549468
 33
0.0
  0
3DFACE
  5
14BE3
330
2
100
AcDbEntity
  8
0
370
     5
100
AcDbFace
 10
231914.9855184567
 20
136614.0296851977
 30
0.0
 11
231902.845775944
 21
136613.887568005
 31
0.0
 12
231908.3662829188
 22
136660.9821387808
 32
0.0
 13
231922.0549247191
 23
136661.0151513661
 33
0.0
  0
3DFACE
  5
14BE4
330
2
100
AcDbEntity
  8
0
370
     5
100
AcDbFace
 10
231902.845775944
 20
136613.887568005
 30
0.0
 11
231890.7104174545
 21
136613.5317310983
 31
0.0
 12
231894.6806189031
 22
136660.6947285944
 32
0.0
 13
231908.3662829188
 23
136660.9821387808
 33
0.0
  0
3DFACE
  5
14BE5
330
2
100
AcDbEntity
  8
0
370
     5
100
AcDbFace
 10
231890.7104174545
 20
136613.5317310983
 30
0.0
 11
231878.5832052242
 21
136612.9622847949
 31
0.0
 12
231881.0026601351
 22
136660.1530200876
 32
0.0
 13
231894.6806189031
 23
136660.6947285944
 33
0.0
  0
3DFACE
  5
14BE6
330
2
100
AcDbEntity
  8
0
370
     5
100
AcDbFace
 10
231878.5832052242
 20
136612.9622847949
 30
0.0
 11
231866.4678989634
 21
136612.1794056362
 31
0.0
 12
231867.3371314162
 22
136659.3572003836
 32
0.0
 13
231881.0026601351
 23
136660.1530200876
 33
0.0
  0
3DFACE
  5
14BE7
330
2
100
AcDbEntity
  8
0
370
     5
100
AcDbFace
 10
231866.4678989634
 20
136612.1794056362
 30
0.0
 11
231854.3682546912
 21
136611.1833363323
 31
0.0
 12
231853.6887532543
 22
136658.307544384
 32
0.0
 13
231867.3371314162
 23
136659.3572003836
 33
0.0
  0
3DFACE
  5
14BE8
330
2
100
AcDbEntity
  8
0
370
     5
100
AcDbFace
 10
231854.3682546912
 20
136611.1833363323
 30
0.0
 11
231842.2880235713
 21
136609.9743856874
 31
0.0
 12
231840.0622402329
 22
136657.0044146732
 32
0.0
 13
231853.6887532543
 23
136658.307544384
 33
0.0
  0
3DFACE
  5
14BE9
330
2
100
AcDbEntity
  8
0
370
     5
100
AcDbFace
 10
231842.2880235713
 20
136609.9743856874
 30
0.0
 11
231830.2309507489
 21
136608.5529285035
 31
0.0
 12
231826.4622993824
 22
136655.4482613936
 32
0.0
 13
231840.0622402329
 23
136657.0044146732
 33
0.0
  0
3DFACE
  5
14BEA
330
2
100
AcDbEntity
  8
0
370
     5
100
AcDbFace
 10
231830.2309507489
 20
136608.5529285035
 30
0.0
 11
231818.2007741894
 21
136606.9194054644
 31
0.0
 12
231812.8936285545
 22
136653.63962209
 32
0.0
 13
231826.4622993824
 23
136655.4482613936
 33
0.0
  0
3DFACE
  5
14BEB
330
2
100
AcDbEntity
  8
0
370
     5
100
AcDbFace
 10
231818.2007741894
 20
136606.9194054644
 30
0.0
 11
231806.2012235199
 21
136605.0743229994
 31
0.0
 12
231799.3609147992
 22
136651.5791215239
 32
0.0
 13
231812.8936285545
 23
136653.63962209
 33
0.0
  0
3DFACE
  5
14BEC
330
2
100
AcDbEntity
  8
0
370
     5
100
AcDbFace
 10
231806.2012235199
 20
136605.0743229994
 30
0.0
 11
231794.2360188729
 21
136603.0182531258
 31
0.0
 12
231783.8352237314
 22
136648.8055275878
 32
0.0
 13
231799.3609147992
 23
136651.5791215239
 33
0.0
  0
3DFACE
  5
14BED
330
2
100
AcDbEntity
  8
0
370
     5
100
AcDbFace
 10
231611.0395746395
 20
136542.5650266784
 30
0.0
 11
231597.5228355917
 21
136535.7000454662
 31
0.0
 12
231573.4355021366
 22
136576.1396269644
 32
0.0
 13
231590.2159473436
 23
136584.700244089
 33
0.0
  0
3DFACE
  5
14BEE
330
2
100
AcDbEntity
  8
0
370
     5
100
AcDbFace
 10
231597.5228355917
 20
136535.7000454662
 30
0.0
 11
231584.1594261761
 21
136528.5411705319
 31
0.0
 12
231556.8782209474
 22
136567.154976358
 32
0.0
 13
231573.4355021366
 23
136576.1396269644
 33
0.0
  0
3DFACE
  5
14BEF
330
2
100
AcDbEntity
  8
0
370
     5
100
AcDbFace
 10
231584.1594261761
 20
136528.5411705319
 30
0.0
 11
231570.9557355364
 21
136521.0918245861
 31
0.0
 12
231540.5548166773
 22
136557.7521055234
 32
0.0
 13
231556.8782209474
 23
136567.154976358
 33
0.0
  0
3DFACE
  5
14BF0
330
2
100
AcDbEntity
  8
0
370
     5
100
AcDbFace
 10
231570.9557355364
 20
136521.0918245861
 30
0.0
 11
231557.9181835495
 21
136513.3553931096
 31
0.0
 12
231524.4782539432
 22
136547.933207619
 32
0.0
 13
231540.5548166773
 23
136557.7521055234
 33
0.0
  0
3DFACE
  5
14BF1
330
2
100
AcDbEntity
  8
0
370
     5
100
AcDbFace
 10
231557.9181835495
 20
136513.3553931096
 30
0.0
 11
231545.0559936466
 21
136505.3307823919
 31
0.0
 12
231508.6573168152
 22
136537.7074730506
 32
0.0
 13
231524.4782539432
 23
136547.933207619
 33
0.0
  0
3DFACE
  5
14BF2
330
2
100
AcDbEntity
  8
0
370
     5
100
AcDbFace
 10
231545.0559936466
 20
136505.3307823919
 30
0.0
 11
231532.3712902012
 21
136497.0284571291
 31
0.0
 12
231493.1002243421
 22
136527.0846404313
 32
0.0
 13
231508.6573168152
 23
136537.7074730506
 33
0.0
  0
3DFACE
  5
14BF3
330
2
100
AcDbEntity
  8
0
370
     5
100
AcDbFace
 10
231532.3712902012
 20
136497.0284571291
 30
0.0
 11
231519.870068501
 21
136488.4523413257
 31
0.0
 12
231477.8169411968
 22
136516.0715139282
 32
0.0
 13
231493.1002243421
 23
136527.0846404313
 33
0.0
  0
3DFACE
  5
14BF4
330
2
100
AcDbEntity
  8
0
370
     5
100
AcDbFace
 10
231519.870068501
 20
136488.4523413257
 30
0.0
 11
231507.5582371138
 21
136479.6064883902
 31
0.0
 12
231462.8172566712
 22
136504.6751477001
 32
0.0
 13
231477.8169411968
 23
136516.0715139282
 33
0.0
  0
3DFACE
  5
14BF5
330
2
100
AcDbEntity
  8
0
370
     5
100
AcDbFace
 10
231507.5582371138
 20
136479.6064883902
 30
0.0
 11
231495.4416150932
 21
136470.4950792193
 31
0.0
 12
231448.1107784057
 22
136492.9028413798
 32
0.0
 13
231462.8172566712
 23
136504.6751477001
 33
0.0
  0
3DFACE
  5
14BF6
330
2
100
AcDbEntity
  8
0
370
     5
100
AcDbFace
 10
231495.4416150932
 20
136470.4950792193
 30
0.0
 11
231485.8472834107
 21
136460.0074350043
 31
0.0
 12
231438.8472834107
 22
136478.3973422801
 32
0.0
 13
231448.1107784057
 23
136492.9028413798
 33
0.0
  0
3DFACE
  5
14BF7
330
2
100
AcDbEntity
  8
0
370
     5
100
AcDbFace
 10
231485.8472834107
 20
136460.0074350043
 30
0.0
 11
231485.8472834107
 21
136444.8469812157
 31
0.0
 12
231438.8472834107
 22
136459.5589070364
 32
0.0
 13
231438.8472834107
 23
136478.3973422801
 33
0.0
  0
3DFACE
  5
14BF8
330
2
100
AcDbEntity
  8
0
370
     5
100
AcDbFace
 10
231485.8472834107
 20
136444.8469812157
 30
0.0
 11
231485.8472834107
 21
136429.6865274273
 31
0.0
 12
231438.8472834107
 22
136440.7204717928
 32
0.0
 13
231438.8472834107
 23
136459.5589070364
 33
0.0
  0
3DFACE
  5
14BF9
330
2
100
AcDbEntity
  8
0
370
     5
100
AcDbFace
 10
231485.8472834107
 20
136429.6865274273
 30
0.0
 11
231485.8472834107
 21
136414.5260736388
 31
0.0
 12
231438.8472834107
 22
136421.8820365491
 32
0.0
 13
231438.8472834107
 23
136440.7204717928
 33
0.0
  0
3DFACE
  5
14BFA
330
2
100
AcDbEntity
  8
0
370
     5
100
AcDbFace
 10
231485.8472834107
 20
136414.5260736388
 30
0.0
 11
231485.8472834107
 21
136399.3656198503
 31
0.0
 12
231438.8472834107
 22
136403.0436013055
 32
0.0
 13
231438.8472834107
 23
136421.8820365491
 33
0.0
  0
3DFACE
  5
14BFB
330
2
100
AcDbEntity
  8
0
370
     5
100
AcDbFace
 10
231485.8472834107
 20
136399.3656198503
 30
0.0
 11
231485.8472834107
 21
136384.2051660618
 31
0.0
 12
231438.8472834107
 22
136384.2051660618
 32
0.0
 13
231438.8472834107
 23
136403.0436013055
 33
0.0
  0
3DFACE
  5
14C01
330
2
100
AcDbEntity
  8
0
370
     5
100
AcDbFace
 10
236423.7227491521
 20
136584.700244089
 30
0.0
 11
236440.503194359
 21
136576.1396269644
 31
0.0
 12
236416.415860904
 22
136535.7000454662
 32
0.0
 13
236402.8991218562
 23
136542.5650266784
 33
0.0
  0
3DFACE
  5
14C02
330
2
100
AcDbEntity
  8
0
370
     5
100
AcDbFace
 10
236440.503194359
 20
136576.1396269644
 30
0.0
 11
236457.0604755482
 21
136567.154976358
 31
0.0
 12
236429.7792703195
 22
136528.5411705319
 32
0.0
 13
236416.415860904
 23
136535.7000454662
 33
0.0
  0
3DFACE
  5
14C03
330
2
100
AcDbEntity
  8
0
370
     5
100
AcDbFace
 10
236457.0604755482
 20
136567.154976358
 30
0.0
 11
236473.3838798183
 21
136557.7521055234
 31
0.0
 12
236442.9829609592
 22
136521.0918245861
 32
0.0
 13
236429.7792703195
 23
136528.5411705319
 33
0.0
  0
3DFACE
  5
14C04
330
2
100
AcDbEntity
  8
0
370
     5
100
AcDbFace
 10
236473.3838798183
 20
136557.7521055234
 30
0.0
 11
236489.4604425525
 21
136547.933207619
 31
0.0
 12
236456.0205129462
 22
136513.3553931096
 32
0.0
 13
236442.9829609592
 23
136521.0918245861
 33
0.0
  0
3DFACE
  5
14C05
330
2
100
AcDbEntity
  8
0
370
     5
100
AcDbFace
 10
236489.4604425525
 20
136547.933207619
 30
0.0
 11
236505.2813796805
 21
136537.7074730506
 31
0.0
 12
236468.882702849
 22
136505.3307823919
 32
0.0
 13
236456.0205129462
 23
136513.3553931096
 33
0.0
  0
3DFACE
  5
14C06
330
2
100
AcDbEntity
  8
0
370
     5
100
AcDbFace
 10
236505.2813796805
 20
136537.7074730506
 30
0.0
 11
236520.8384721536
 21
136527.0846404313
 31
0.0
 12
236481.5674062945
 22
136497.0284571291
 32
0.0
 13
236468.882702849
 23
136505.3307823919
 33
0.0
  0
3DFACE
  5
14C07
330
2
100
AcDbEntity
  8
0
370
     5
100
AcDbFace
 10
236520.8384721536
 20
136527.0846404313
 30
0.0
 11
236536.1217552989
 21
136516.0715139282
 31
0.0
 12
236494.0686279946
 22
136488.4523413257
 32
0.0
 13
236481.5674062945
 23
136497.0284571291
 33
0.0
  0
3DFACE
  5
14C08
330
2
100
AcDbEntity
  8
0
370
     5
100
AcDbFace
 10
236536.1217552989
 20
136516.0715139282
 30
0.0
 11
236551.1214398244
 21
136504.6751477001
 31
0.0
 12
236506.3804593819
 22
136479.6064883902
 32
0.0
 13
236494.0686279946
 23
136488.4523413257
 33
0.0
  0
3DFACE
  5
14C09
330
2
100
AcDbEntity
  8
0
370
     5
100
AcDbFace
 10
236551.1214398244
 20
136504.6751477001
 30
0.0
 11
236565.8279180899
 21
136492.9028413798
 31
0.0
 12
236518.4970814024
 22
136470.4950792193
 32
0.0
 13
236506.3804593819
 23
136479.6064883902
 33
0.0
  0
3DFACE
  5
14C0A
330
2
100
AcDbEntity
  8
0
370
     5
100
AcDbFace
 10
236565.8279180899
 20
136492.9028413798
 30
0.0
 11
236575.0914130849
 21
136478.3973422801
 31
0.0
 12
236528.0914130849
 22
136460.0074350043
 32
0.0
 13
236518.4970814024
 23
136470.4950792193
 33
0.0
  0
3DFACE
  5
14C0B
330
2
100
AcDbEntity
  8
0
370
     5
100
AcDbFace
 10
236575.0914130849
 20
136478.3973422801
 30
0.0
 11
236575.0914130849
 21
136459.5589070364
 31
0.0
 12
236528.0914130849
 22
136444.8469812157
 32
0.0
 13
236528.0914130849
 23
136460.0074350043
 33
0.0
  0
3DFACE
  5
14C0C
330
2
100
AcDbEntity
  8
0
370
     5
100
AcDbFace
 10
236575.0914130849
 20
136459.5589070364
 30
0.0
 11
236575.0914130849
 21
136440.7204717928
 31
0.0
 12
236528.0914130849
 22
136429.6865274273
 32
0.0
 13
236528.0914130849
 23
136444.8469812157
 33
0.0
  0
3DFACE
  5
14C0D
330
2
100
AcDbEntity
  8
0
370
     5
100
AcDbFace
 10
236575.0914130849
 20
136440.7204717928
 30
0.0
 11
236575.0914130849
 21
136421.8820365491
 31
0.0
 12
236528.0914130849
 22
136414.5260736388
 32
0.0
 13
236528.0914130849
 23
136429.6865274273
 33
0.0
  0
3DFACE
  5
14C0E
330
2
100
AcDbEntity
  8
0
370
     5
100
AcDbFace
 10
236575.0914130849
 20
136421.8820365491
 30
0.0
 11
236575.0914130849
 21
136403.0436013055
 31
0.0
 12
236528.0914130849
 22
136399.3656198503
 32
0.0
 13
236528.0914130849
 23
136414.5260736388
 33
0.0
  0
3DFACE
  5
14C0F
330
2
100
AcDbEntity
  8
0
370
     5
100
AcDbFace
 10
236575.0914130849
 20
136403.0436013055
 30
0.0
 11
236575.0914130849
 21
136384.2051660618
 31
0.0
 12
236528.0914130849
 22
136384.2051660618
 32
0.0
 13
236528.0914130849
 23
136399.3656198503
 33
0.0
  0
3DFACE
  5
14C10
330
2
100
AcDbEntity
  8
0
370
     5
100
AcDbFace
 10
235618.841413085
 20
136384.2051660618
 30
0.0
 11
235618.841413085
 21
136397.8940446986
 31
0.0
 12
235665.8414130849
 22
136396.3458972455
 32
0.0
 13
235665.8414130849
 23
136384.2051660618
 33
0.0
  0
3DFACE
  5
14C11
330
2
100
AcDbEntity
  8
0
370
     5
100
AcDbFace
 10
235618.841413085
 20
136397.8940446986
 30
0.0
 11
235618.841413085
 21
136411.5829233354
 31
0.0
 12
235665.8414130849
 22
136408.4866284291
 32
0.0
 13
235665.8414130849
 23
136396.3458972455
 33
0.0
  0
3DFACE
  5
14C12
330
2
100
AcDbEntity
  8
0
370
     5
100
AcDbFace
 10
235618.841413085
 20
136411.5829233354
 30
0.0
 11
235618.841413085
 21
136425.2718019722
 31
0.0
 12
235665.8414130849
 22
136420.6273596128
 32
0.0
 13
235665.8414130849
 23
136408.4866284291
 33
0.0
  0
3DFACE
  5
14C13
330
2
100
AcDbEntity
  8
0
370
     5
100
AcDbFace
 10
235618.841413085
 20
136425.2718019722
 30
0.0
 11
235618.841413085
 21
136438.960680609
 31
0.0
 12
235665.8414130849
 22
136432.7680907964
 32
0.0
 13
235665.8414130849
 23
136420.6273596128
 33
0.0
  0
3DFACE
  5
14C14
330
2
100
AcDbEntity
  8
0
370
     5
100
AcDbFace
 10
235618.841413085
 20
136438.960680609
 30
0.0
 11
235618.841413085
 21
136452.6495592457
 31
0.0
 12
235665.8414130849
 22
136444.9088219801
 32
0.0
 13
235665.8414130849
 23
136432.7680907964
 33
0.0
  0
3DFACE
  5
14C15
330
2
100
AcDbEntity
  8
0
370
     5
100
AcDbFace
 10
235618.841413085
 20
136452.6495592457
 30
0.0
 11
235618.841413085
 21
136466.3384378825
 31
0.0
 12
235665.8414130849
 22
136457.0495531637
 32
0.0
 13
235665.8414130849
 23
136444.9088219801
 33
0.0
  0
3DFACE
  5
14C16
330
2
100
AcDbEntity
  8
0
370
     5
100
AcDbFace
 10
235618.841413085
 20
136466.3384378825
 30
0.0
 11
235618.841413085
 21
136480.0273165193
 31
0.0
 12
235670.7112112198
 22
136466.8330197237
 32
0.0
 13
235665.8414130849
 23
136457.0495531637
 33
0.0
  0
3DFACE
  5
14C17
330
2
100
AcDbEntity
  8
0
370
     5
100
AcDbFace
 10
235618.841413085
 20
136480.0273165193
 30
0.0
 11
235625.4013498647
 21
136490.6602190293
 31
0.0
 12
235680.3325345157
 22
136474.2373229149
 32
0.0
 13
235670.7112112198
 23
136466.8330197237
 33
0.0
  0
3DFACE
  5
14C18
330
2
100
AcDbEntity
  8
0
370
     5
100
AcDbFace
 10
235625.4013498647
 20
136490.6602190293
 30
0.0
 11
235636.012347237
 21
136499.3081533548
 31
0.0
 12
235690.0823615178
 22
136481.4715776201
 32
0.0
 13
235680.3325345157
 23
136474.2373229149
 33
0.0
  0
3DFACE
  5
14C19
330
2
100
AcDbEntity
  8
0
370
     5
100
AcDbFace
 10
235636.012347237
 20
136499.3081533548
 30
0.0
 11
235646.78180857
 21
136507.7579306257
 31
0.0
 12
235699.9576871315
 22
136488.5335540951
 32
0.0
 13
235690.0823615178
 23
136481.4715776201
 33
0.0
  0
3DFACE
  5
14C1A
330
2
100
AcDbEntity
  8
0
370
     5
100
AcDbFace
 10
235646.78180857
 20
136507.7579306257
 30
0.0
 11
235657.706033864
 21
136516.0066478023
 31
0.0
 12
235709.9554675809
 22
136495.4210756954
 32
0.0
 13
235699.9576871315
 23
136488.5335540951
 33
0.0
  0
3DFACE
  5
14C1B
330
2
100
AcDbEntity
  8
0
370
     5
100
AcDbFace
 10
235657.706033864
 20
136516.0066478023
 30
0.0
 11
235668.7812699478
 21
136524.0514709217
 31
0.0
 12
235720.0726213472
 22
136502.1320195471
 32
0.0
 13
235709.9554675809
 23
136495.4210756954
 33
0.0
  0
3DFACE
  5
14C1C
330
2
100
AcDbEntity
  8
0
370
     5
100
AcDbFace
 10
235668.7812699478
 20
136524.0514709217
 30
0.0
 11
235680.0037117681
 21
136531.889636072
 31
0.0
 12
235730.306030118
 22
136508.664317201
 32
0.0
 13
235720.0726213472
 23
136502.1320195471
 33
0.0
  0
3DFACE
  5
14C1D
330
2
100
AcDbEntity
  8
0
370
     5
100
AcDbFace
 10
235680.0037117681
 20
136531.889636072
 30
0.0
 11
235691.3695036974
 21
136539.5184503411
 31
0.0
 12
235740.6525397492
 22
136515.0159552702
 32
0.0
 13
235730.306030118
 23
136508.664317201
 33
0.0
  0
3DFACE
  5
14C1E
330
2
100
AcDbEntity
  8
0
370
     5
100
AcDbFace
 10
235691.3695036974
 20
136539.5184503411
 30
0.0
 11
235702.874740858
 21
136546.9352927427
 31
0.0
 12
235751.1089612363
 22
136521.1849760511
 32
0.0
 13
235740.6525397492
 23
136515.0159552702
 33
0.0
  0
3DFACE
  5
14C1F
330
2
100
AcDbEntity
  8
0
370
     5
100
AcDbFace
 10
235702.874740858
 20
136546.9352927427
 30
0.0
 11
235714.5154704639
 21
136554.1376151164
 31
0.0
 12
235761.6720716979
 22
136527.1694781261
 32
0.0
 13
235751.1089612363
 23
136521.1849760511
 33
0.0
  0
3DFACE
  5
14C20
330
2
100
AcDbEntity
  8
0
370
     5
100
AcDbFace
 10
235714.5154704639
 20
136554.1376151164
 30
0.0
 11
235726.2876931788
 21
136561.122943003
 31
0.0
 12
235772.338615369
 22
136532.9676169502
 32
0.0
 13
235761.6720716979
 23
136527.1694781261
 33
0.0
  0
3DFACE
  5
14C21
330
2
100
AcDbEntity
  8
0
370
     5
100
AcDbFace
 10
235726.2876931788
 20
136561.122943003
 30
0.0
 11
235738.1873644901
 21
136567.8888764949
 31
0.0
 12
235783.1053046042
 22
136538.5776054193
 32
0.0
 13
235772.338615369
 23
136532.9676169502
 33
0.0
  0
3DFACE
  5
14C22
330
2
100
AcDbEntity
  8
0
370
     5
100
AcDbFace
 10
235738.1873644901
 20
136567.8888764949
 30
0.0
 11
235750.2103960984
 21
136574.4330910605
 31
0.0
 12
235793.9688208912
 22
136543.9977144211
 32
0.0
 13
235783.1053046042
 23
136538.5776054193
 33
0.0
  0
3DFACE
  5
14C23
330
2
100
AcDbEntity
  8
0
370
     5
100
AcDbFace
 10
235750.2103960984
 20
136574.4330910605
 30
0.0
 11
235762.352657322
 21
136580.7533383429
 31
0.0
 12
235804.9258158739
 22
136549.2262733679
 32
0.0
 13
235793.9688208912
 23
136543.9977144211
 33
0.0
  0
3DFACE
  5
14C24
330
2
100
AcDbEntity
  8
0
370
     5
100
AcDbFace
 10
235762.352657322
 20
136580.7533383429
 30
0.0
 11
235774.6099765164
 21
136586.8474469322
 31
0.0
 12
235815.9729123839
 22
136554.2616707116
 32
0.0
 13
235804.9258158739
 23
136549.2262733679
 33
0.0
  0
3DFACE
  5
14C25
330
2
100
AcDbEntity
  8
0
370
     5
100
AcDbFace
 10
235774.6099765164
 20
136586.8474469322
 30
0.0
 11
235786.9781425073
 21
136592.7133231118
 31
0.0
 12
235827.1067054817
 22
136559.1023544407
 32
0.0
 13
235815.9729123839
 23
136554.2616707116
 33
0.0
  0
3DFACE
  5
14C26
330
2
100
AcDbEntity
  8
0
370
     5
100
AcDbFace
 10
235786.9781425073
 20
136592.7133231118
 30
0.0
 11
235799.4529060374
 21
136598.3489515774
 31
0.0
 12
235838.3237635063
 22
136563.7468325581
 32
0.0
 13
235827.1067054817
 23
136559.1023544407
 33
0.0
  0
3DFACE
  5
14C27
330
2
100
AcDbEntity
  8
0
370
     5
100
AcDbFace
 10
235799.4529060374
 20
136598.3489515774
 30
0.0
 11
235812.0299812261
 21
136603.7523961296
 31
0.0
 12
235849.6206291327
 22
136568.1936735413
 32
0.0
 13
235838.3237635063
 23
136563.7468325581
 33
0.0
  0
3DFACE
  5
14C28
330
2
100
AcDbEntity
  8
0
370
     5
100
AcDbFace
 10
235812.0299812261
 20
136603.7523961296
 30
0.0
 11
235824.7050470426
 21
136608.9218003392
 31
0.0
 12
235860.9938204375
 22
136572.4415067837
 32
0.0
 13
235849.6206291327
 23
136568.1936735413
 33
0.0
  0
3DFACE
  5
14C29
330
2
100
AcDbEntity
  8
0
370
     5
100
AcDbFace
 10
235824.7050470426
 20
136608.9218003392
 30
0.0
 11
235837.4737487897
 21
136613.8553881844
 31
0.0
 12
235872.4398319723
 22
136576.4890230168
 32
0.0
 13
235860.9938204375
 23
136572.4415067837
 33
0.0
  0
3DFACE
  5
14C2A
330
2
100
AcDbEntity
  8
0
370
     5
100
AcDbFace
 10
235837.4737487897
 20
136613.8553881844
 30
0.0
 11
235850.3316996003
 21
136618.551464662
 31
0.0
 12
235883.9551358438
 22
136580.3349747139
 32
0.0
 13
235872.4398319723
 23
136576.4890230168
 33
0.0
  0
3DFACE
  5
14C2B
330
2
100
AcDbEntity
  8
0
370
     5
100
AcDbFace
 10
235850.3316996003
 20
136618.551464662
 30
0.0
 11
235863.2744819448
 21
136623.0084163688
 31
0.0
 12
235895.5361828017
 22
136583.9781764747
 32
0.0
 13
235883.9551358438
 23
136580.3349747139
 33
0.0
  0
3DFACE
  5
14C2C
330
2
100
AcDbEntity
  8
0
370
     5
100
AcDbFace
 10
235863.2744819448
 20
136623.0084163688
 30
0.0
 11
235876.2976491482
 21
136627.2247120563
 31
0.0
 12
235907.1794033321
 22
136587.4175053903
 32
0.0
 13
235895.5361828017
 23
136583.9781764747
 33
0.0
  0
3DFACE
  5
14C2D
330
2
100
AcDbEntity
  8
0
370
     5
100
AcDbFace
 10
235876.2976491482
 20
136627.2247120563
 30
0.0
 11
235889.3967269184
 21
136631.198903157
 31
0.0
 12
235918.8812087581
 22
136590.6519013899
 32
0.0
 13
235907.1794033321
 23
136587.4175053903
 33
0.0
  0
3DFACE
  5
14C2E
330
2
100
AcDbEntity
  8
0
370
     5
100
AcDbFace
 10
235889.3967269184
 20
136631.198903157
 30
0.0
 11
235902.5672148829
 21
136634.9296242814
 31
0.0
 12
235930.6379923457
 22
136593.6803675668
 32
0.0
 13
235918.8812087581
 23
136590.6519013899
 33
0.0
  0
3DFACE
  5
14C2F
330
2
100
AcDbEntity
  8
0
370
     5
100
AcDbFace
 10
235902.5672148829
 20
136634.9296242814
 30
0.0
 11
235915.8045881355
 21
136638.4155936881
 31
0.0
 12
235942.4461304155
 22
136596.5019704863
 32
0.0
 13
235930.6379923457
 23
136593.6803675668
 33
0.0
  0
3DFACE
  5
14C30
330
2
100
AcDbEntity
  8
0
370
     5
100
AcDbFace
 10
235915.8045881355
 20
136638.4155936881
 30
0.0
 11
235929.1042987905
 21
136641.6556137231
 31
0.0
 12
235954.3019834596
 22
136599.1158404732
 32
0.0
 13
235942.4461304155
 23
136596.5019704863
 33
0.0
  0
3DFACE
  5
14C31
330
2
100
AcDbEntity
  8
0
370
     5
100
AcDbFace
 10
235929.1042987905
 20
136641.6556137231
 30
0.0
 11
235942.4617775452
 21
136644.6485712321
 31
0.0
 12
235966.2016899523
 22
136601.5222122627
 32
0.0
 13
235954.3019834596
 23
136599.1158404732
 33
0.0
  0
3DFACE
  5
14C32
330
2
100
AcDbEntity
  8
0
370
     5
100
AcDbFace
 10
235942.4617775452
 20
136644.6485712321
 30
0.0
 11
235955.8722521598
 21
136647.3943524989
 31
0.0
 12
235978.1417941567
 22
136603.7193597677
 32
0.0
 13
235966.2016899523
 23
136601.5222122627
 33
0.0
  0
3DFACE
  5
14C33
330
2
100
AcDbEntity
  8
0
370
     5
100
AcDbFace
 10
235955.8722521598
 20
136647.3943524989
 30
0.0
 11
235969.3312428676
 21
136649.8914654906
 31
0.0
 12
235990.1187321968
 22
136605.7059399333
 32
0.0
 13
235978.1417941567
 23
136603.7193597677
 33
0.0
  0
3DFACE
  5
14C34
330
2
100
AcDbEntity
  8
0
370
     5
100
AcDbFace
 10
235969.3312428676
 20
136649.8914654906
 30
0.0
 11
235982.8343178198
 21
136652.1380119521
 31
0.0
 12
236002.1287909507
 22
136607.4813368748
 32
0.0
 13
235990.1187321968
 23
136605.7059399333
 33
0.0
  0
3DFACE
  5
14C35
330
2
100
AcDbEntity
  8
0
370
     5
100
AcDbFace
 10
235982.8343178198
 20
136652.1380119521
 30
0.0
 11
235996.3768126251
 21
136654.133215855
 31
0.0
 12
236014.1682470283
 22
136609.0450001788
 32
0.0
 13
236002.1287909507
 23
136607.4813368748
 33
0.0
  0
3DFACE
  5
14C36
330
2
100
AcDbEntity
  8
0
370
     5
100
AcDbFace
 10
235996.3768126251
 20
136654.133215855
 30
0.0
 11
236009.9540492757
 21
136655.8763879925
 31
0.0
 12
236026.2333679255
 22
136610.3964450744
 32
0.0
 13
236014.1682470283
 23
136609.0450001788
 33
0.0
  0
3DFACE
  5
14C37
330
2
100
AcDbEntity
  8
0
370
     5
100
AcDbFace
 10
236009.9540492757
 20
136655.8763879925
 30
0.0
 11
236023.5613377627
 21
136657.3669262173
 31
0.0
 12
236038.3204131819
 22
136611.5352525829
 32
0.0
 13
236026.2333679255
 23
136610.3964450744
 33
0.0
  0
3DFACE
  5
14C38
330
2
100
AcDbEntity
  8
0
370
     5
100
AcDbFace
 10
236023.5613377627
 20
136657.3669262173
 30
0.0
 11
236037.1939776962
 21
136658.6043156505
 31
0.0
 12
236050.4256355397
 22
136612.4610696484
 32
0.0
 13
236038.3204131819
 23
136611.5352525829
 33
0.0
  0
3DFACE
  5
14C39
330
2
100
AcDbEntity
  8
0
370
     5
100
AcDbFace
 10
236037.1939776962
 20
136658.6043156505
 30
0.0
 11
236050.8472599294
 21
136659.5881288582
 31
0.0
 12
236062.5452821061
 22
136613.1736092466
 32
0.0
 13
236050.4256355397
 23
136612.4610696484
 33
0.0
  0
3DFACE
  5
14C3A
330
2
100
AcDbEntity
  8
0
370
     5
100
AcDbFace
 10
236050.8472599294
 20
136659.5881288582
 30
0.0
 11
236064.5164681848
 21
136660.3180260002
 31
0.0
 12
236074.675595516
 22
136613.6726504741
 32
0.0
 13
236062.5452821061
 23
136613.1736092466
 33
0.0
  0
3DFACE
  5
14C3B
330
2
100
AcDbEntity
  8
0
370
     5
100
AcDbFace
 10
236064.5164681848
 20
136660.3180260002
 30
0.0
 11
236078.1968806835
 21
136660.7937549468
 31
0.0
 12
236086.812815098
 22
136613.9580386167
 32
0.0
 13
236074.675595516
 23
136613.6726504741
 33
0.0
  0
3DFACE
  5
14C3C
330
2
100
AcDbEntity
  8
0
370
     5
100
AcDbFace
 10
236078.1968806835
 20
136660.7937549468
 30
0.0
 11
236091.8837717765
 21
136661.0151513661
 31
0.0
 12
236098.953178039
 22
136614.0296851977
 32
0.0
 13
236086.812815098
 23
136613.9580386167
 33
0.0
  0
3DFACE
  5
14C3D
330
2
100
AcDbEntity
  8
0
370
     5
100
AcDbFace
 10
236091.8837717765
 20
136661.0151513661
 30
0.0
 11
236105.5724135768
 21
136660.9821387808
 31
0.0
 12
236111.0929205517
 22
136613.887568005
 32
0.0
 13
236098.953178039
 23
136614.0296851977
 33
0.0
  0
3DFACE
  5
14C3E
330
2
100
AcDbEntity
  8
0
370
     5
100
AcDbFace
 10
236105.5724135768
 20
136660.9821387808
 30
0.0
 11
236119.2580775925
 21
136660.6947285944
 31
0.0
 12
236123.2282790411
 22
136613.5317310983
 32
0.0
 13
236111.0929205517
 23
136613.887568005
 33
0.0
  0
3DFACE
  5
14C3F
330
2
100
AcDbEntity
  8
0
370
     5
100
AcDbFace
 10
236119.2580775925
 20
136660.6947285944
 30
0.0
 11
236132.9360363606
 21
136660.1530200876
 31
0.0
 12
236135.3554912714
 22
136612.9622847949
 32
0.0
 13
236123.2282790411
 23
136613.5317310983
 33
0.0
  0
3DFACE
  5
14C40
330
2
100
AcDbEntity
  8
0
370
     5
100
AcDbFace
 10
236132.9360363606
 20
136660.1530200876
 30
0.0
 11
236146.6015650794
 21
136659.3572003836
 31
0.0
 12
236147.4707975323
 22
136612.1794056362
 32
0.0
 13
236135.3554912714
 23
136612.9622847949
 33
0.0
  0
3DFACE
  5
14C41
330
2
100
AcDbEntity
  8
0
370
     5
100
AcDbFace
 10
236146.6015650794
 20
136659.3572003836
 30
0.0
 11
236160.2499432413
 21
136658.307544384
 31
0.0
 12
236159.5704418045
 22
136611.1833363323
 32
0.0
 13
236147.4707975323
 23
136612.1794056362
 33
0.0
  0
3DFACE
  5
14C42
330
2
100
AcDbEntity
  8
0
370
     5
100
AcDbFace
 10
236160.2499432413
 20
136658.307544384
 30
0.0
 11
236173.8764562627
 21
136657.0044146732
 31
0.0
 12
236171.6506729243
 22
136609.9743856874
 32
0.0
 13
236159.5704418045
 23
136611.1833363323
 33
0.0
  0
3DFACE
  5
14C43
330
2
100
AcDbEntity
  8
0
370
     5
100
AcDbFace
 10
236173.8764562627
 20
136657.0044146732
 30
0.0
 11
236187.4763971132
 21
136655.4482613936
 31
0.0
 12
236183.7077457468
 22
136608.5529285035
 32
0.0
 13
236171.6506729243
 23
136609.9743856874
 33
0.0
  0
3DFACE
  5
14C44
330
2
100
AcDbEntity
  8
0
370
     5
100
AcDbFace
 10
236187.4763971132
 20
136655.4482613936
 30
0.0
 11
236201.0450679411
 21
136653.63962209
 31
0.0
 12
236195.7379223063
 22
136606.9194054644
 32
0.0
 13
236183.7077457468
 23
136608.5529285035
 33
0.0
  0
3DFACE
  5
14C45
330
2
100
AcDbEntity
  8
0
370
     5
100
AcDbFace
 10
236201.0450679411
 20
136653.63962209
 30
0.0
 11
236214.5777816965
 21
136651.5791215239
 31
0.0
 12
236207.7374729757
 22
136605.0743229994
 32
0.0
 13
236195.7379223063
 23
136606.9194054644
 33
0.0
  0
3DFACE
  5
14C46
330
2
100
AcDbEntity
  8
0
370
     5
100
AcDbFace
 10
236214.5777816965
 20
136651.5791215239
 30
0.0
 11
236230.1034727643
 21
136648.8055275878
 31
0.0
 12
236219.7026776228
 22
136603.0182531258
 32
0.0
 13
236207.7374729757
 23
136605.0743229994
 33
0.0
  0
LINE
  5
14C47
330
2
100
AcDbEntity
  8
0
370
     5
100
AcDbLine
 10
235678.341413085
 20
136231.5101901198
 30
0.0
 11
235678.341413085
 21
136359.2051660618
 31
0.0
  0
LINE
  5
14C48
330
2
100
AcDbEntity
  8
0
370
     5
100
AcDbLine
 10
236515.591413085
 20
136359.2051660618
 30
0.0
 11
236515.591413085
 21
136231.5101901198
 31
0.0
  0
LINE
  5
14C49
330
2
100
AcDbEntity
  8
0
370
     5
100
AcDbLine
 10
235648.3414130849
 20
136231.5101901198
 30
0.0
 11
235648.3414130849
 21
136359.2051660618
 31
0.0
  0
ARC
  5
14C4A
330
2
100
AcDbEntity
  8
0
370
     5
100
AcDbCircle
 10
236096.966413085
 20
135923.2760037787
 30
0.0
 40
665.7341863409449
100
AcDbArc
 50
52.4075485674641
 51
127.5924514325359
  0
ARC
  5
14C4B
330
2
100
AcDbEntity
  8
0
370
     5
100
AcDbCircle
 10
236097.2413995025
 20
135921.389142271
 30
0.0
 40
667.6266700385772
100
AcDbArc
 50
77.83136356436712
 51
105.3057490034792
  0
ARC
  5
14C4C
330
2
100
AcDbEntity
  8
0
370
     5
100
AcDbCircle
 10
236096.966413085
 20
135923.2760037787
 30
0.0
 40
695.7341863410041
100
AcDbArc
 50
65.78197058666076
 51
77.74943643508571
  0
LINE
  5
14C4D
330
2
100
AcDbEntity
  8
0
370
     5
100
AcDbLine
 10
236545.5914130849
 20
136359.2051660618
 30
0.0
 11
236545.5914130849
 21
136231.5101901198
 31
0.0
  0
LINE
  5
14C4E
330
2
100
AcDbEntity
  8
0
370
     5
100
AcDbLine
 10
235618.341413085
 20
136231.5101901198
 30
0.0
 11
235618.341413085
 21
136359.2051660618
 31
0.0
  0
LINE
  5
14C4F
330
2
100
AcDbEntity
  8
0
370
     5
100
AcDbLine
 10
235618.341413085
 20
136359.2051660618
 30
0.0
 11
235690.8414130849
 21
136359.2051660618
 31
0.0
  0
LINE
  5
14C50
330
2
100
AcDbEntity
  8
0
370
     5
100
AcDbLine
 10
235690.8414130849
 20
136359.2051660618
 30
0.0
 11
235690.8414130849
 21
136450.7838153209
 31
0.0
  0
ARC
  5
14C51
330
2
100
AcDbEntity
  8
0
370
     5
100
AcDbCircle
 10
236096.9093549869
 20
135923.3672244454
 30
0.0
 40
665.627098134686
100
AcDbArc
 50
104.0365766303927
 51
127.5933498448542
  0
ARC
  5
14C52
330
2
100
AcDbEntity
  8
0
370
     5
100
AcDbCircle
 10
236096.9757059169
 20
135923.3631223575
 30
0.0
 40
665.6471735942
100
AcDbArc
 50
77.77329267549524
 51
104.0420316398582
  0
LINE
  5
14C53
330
2
100
AcDbEntity
  8
0
370
     5
100
AcDbLine
 10
236237.9467153458
 20
136573.9116095701
 30
0.0
 11
236251.2380013763
 21
136632.423651501
 31
0.0
  0
ARC
  5
14C54
330
2
100
AcDbEntity
  8
0
370
     5
100
AcDbCircle
 10
236096.966413085
 20
135923.2760037787
 30
0.0
 40
725.7341863410275
100
AcDbArc
 50
65.73836210245111
 51
77.72681293603381
  0
LINE
  5
14C55
330
2
100
AcDbEntity
  8
0
370
     5
100
AcDbLine
 10
236395.1735228728
 20
136584.9123305444
 30
0.0
 11
236369.6314645265
 21
136530.8113672126
 31
0.0
  0
ARC
  5
14C56
330
2
100
AcDbEntity
  8
0
370
     5
100
AcDbCircle
 10
236075.19896418
 20
135885.237768567
 30
0.0
 40
709.5461708221959
100
AcDbArc
 50
58.80976078666851
 51
65.48327159347973
  0
LINE
  5
14C57
330
2
100
AcDbEntity
  8
0
370
     5
100
AcDbLine
 10
236503.091413085
 20
136450.7838153209
 30
0.0
 11
236503.091413085
 21
136359.2051660618
 31
0.0
  0
LINE
  5
14C58
330
2
100
AcDbEntity
  8
0
370
     5
100
AcDbLine
 10
236503.091413085
 20
136359.2051660618
 30
0.0
 11
236575.591413085
 21
136359.2051660618
 31
0.0
  0
LINE
  5
14C59
330
2
100
AcDbEntity
  8
0
370
     5
100
AcDbLine
 10
236575.591413085
 20
136231.5101901198
 30
0.0
 11
236575.591413085
 21
136384.3903997438
 31
0.0
  0
LINE
  5
14C5A
330
2
100
AcDbEntity
  8
0
370
     5
100
AcDbLine
 10
235618.341413085
 20
136359.2051660618
 30
0.0
 11
235618.841413085
 21
136384.2051660618
 31
0.0
  0
LINE
  5
14C5B
330
2
100
AcDbEntity
  8
0
370
     5
100
AcDbLine
 10
236402.8404253678
 20
136542.594019656
 30
0.0
 11
236423.1655188705
 21
136585.6448624421
 31
0.0
  0
LINE
  5
14C5C
330
2
100
AcDbEntity
  8
0
370
     5
100
AcDbLine
 10
236423.1655188705
 20
136585.6448624421
 30
0.0
 11
236400.5583962063
 21
136596.3181002288
 31
0.0
  0
LINE
  5
14C5D
330
2
100
AcDbEntity
  8
0
370
     5
100
AcDbLine
 10
236400.5583962063
 20
136596.3181002288
 30
0.0
 11
236395.1735228728
 21
136584.9123305444
 31
0.0
  0
LINE
  5
14C5E
330
2
100
AcDbEntity
  8
0
370
     5
100
AcDbLine
 10
236251.2380013763
 20
136632.423651501
 30
0.0
 11
236254.013636861
 21
136644.6427926352
 31
0.0
  0
LINE
  5
14C5F
330
2
100
AcDbEntity
  8
0
370
     5
100
AcDbLine
 10
236254.013636861
 20
136644.6427926352
 30
0.0
 11
236230.3774953891
 21
136650.0118535429
 31
0.0
  0
LINE
  5
14C60
330
2
100
AcDbEntity
  8
0
370
     5
100
AcDbLine
 10
236230.3774953891
 20
136650.0118535429
 30
0.0
 11
236219.7026776228
 21
136603.0182531258
 31
0.0
  0
HATCH
  5
14C61
330
2
100
AcDbEntity
  8
0
370
     5
100
AcDbHatch
 10
0.0
 20
0.0
 30
0.0
210
0.0
220
0.0
230
1.0
  2
SOLID
 70
     1
 71
     0
 91
        1
 92
        7
 72
     0
 73
     1
 93
        8
 10
236515.5914130849
 20
136231.5101901198
 10
236634.2164130849
 20
136231.5101901198
 10
236634.216413085
 20
135388.5101901198
 10
236151.966413085
 20
135388.5101901198
 10
236151.966413085
 20
135448.5101901198
 10
236574.216413085
 20
135448.5101901198
 10
236574.216413085
 20
136171.5101901198
 10
236515.591413085
 20
136171.5101901198
 97
        0
 75
     0
 76
     1
 47
3.192264956133641
 98
        1
 10
236559.7954958914
 20
136186.0514032021
1001
ACAD
1010
0.0
1020
0.0
1030
0.0
  0
HATCH
  5
14C62
330
2
100
AcDbEntity
  8
0
370
     5
100
AcDbHatch
 10
0.0
 20
0.0
 30
0.0
210
0.0
220
0.0
230
1.0
  2
SOLID
 70
     1
 71
     0
 91
        1
 92
        7
 72
     0
 73
     1
 93
        8
 10
235559.716413085
 20
136231.5101901198
 10
236335.591413085
 20
136231.5101901198
 10
236335.5914130849
 20
136171.5101901198
 10
235619.716413085
 20
136171.5101901198
 10
235619.716413085
 20
135448.5101901198
 10
236041.966413085
 20
135448.5101901198
 10
236041.966413085
 20
135388.5101901198
 10
235559.716413085
 20
135388.5101901198
 97
        0
 75
     0
 76
     1
 47
3.192264956133641
 98
        1
 10
236147.7397622744
 20
136182.8591746229
1001
ACAD
1010
0.0
1020
0.0
1030
0.0
  0
HATCH
  5
14C63
330
2
100
AcDbEntity
  8
0
370
     5
100
AcDbHatch
 10
0.0
 20
0.0
 30
0.0
210
0.0
220
0.0
230
1.0
  2
SOLID
 70
     1
 71
     0
 91
        1
 92
        7
 72
     0
 73
     1
 93
        4
 10
236335.5914130849
 20
136231.5101901198
 10
236515.5914130849
 20
136231.5101901198
 10
236515.591413085
 20
136171.5101901198
 10
236335.5914130849
 20
136171.5101901198
 97
        0
 75
     0
 76
     1
 47
3.26373715154245
 98
        1
 10
236394.6351091801
 20
136189.9045321905
1001
ACAD
1010
0.0
1020
0.0
1030
0.0
  0
HATCH
  5
14C64
330
2
100
AcDbEntity
  8
0
370
     5
100
AcDbHatch
 10
0.0
 20
0.0
 30
0.0
210
0.0
220
0.0
230
1.0
  2
SOLID
 70
     1
 71
     0
 91
        1
 92
        7
 72
     0
 73
     1
 93
        4
 10
236237.2164130849
 20
135388.5101901198
 10
236286.216413085
 20
135388.5101901198
 10
236286.216413085
 20
135319.5101901198
 10
236237.2164130849
 20
135319.5101901198
 97
        0
 75
     0
 76
     1
 47
2.898396921370958
 98
        1
 10
236258.1382589985
 20
135351.6147446792
1001
ACAD
1010
0.0
1020
0.0
1030
0.0
  0
HATCH
  5
14C65
330
2
100
AcDbEntity
  8
0
370
     5
100
AcDbHatch
 10
0.0
 20
0.0
 30
0.0
210
0.0
220
0.0
230
1.0
  2
SOLID
 70
     1
 71
     0
 91
        1
 92
        7
 72
     0
 73
     1
 93
        4
 10
235908.216413085
 20
135388.5101901198
 10
235956.966413085
 20
135388.5101901198
 10
235956.966413085
 20
135319.5101901198
 10
235908.216413085
 20
135319.5101901198
 97
        0
 75
     0
 76
     1
 47
2.898396921370958
 98
        1
 10
235933.3005647259
 20
135363.2083833193
1001
ACAD
1010
0.0
1020
0.0
1030
0.0
  0
LINE
  5
14C66
330
2
100
AcDbEntity
  8
0
370
     5
100
AcDbLine
 10
236634.216413085
 20
136231.5101901198
 30
0.0
 11
236634.216413085
 21
135388.5101901198
 31
0.0
  0
LINE
  5
14C67
330
2
100
AcDbEntity
  8
0
370
     5
100
AcDbLine
 10
236634.216413085
 20
135388.5101901198
 30
0.0
 11
235559.716413085
 21
135388.5101901198
 31
0.0
  0
LINE
  5
14C68
330
2
100
AcDbEntity
  8
0
370
     5
100
AcDbLine
 10
235559.716413085
 20
135388.5101901198
 30
0.0
 11
235559.716413085
 21
136231.5101901198
 31
0.0
  0
LINE
  5
14C69
330
2
100
AcDbEntity
  8
0
370
     5
100
AcDbLine
 10
235559.716413085
 20
136231.5101901198
 30
0.0
 11
236634.216413085
 21
136231.5101901198
 31
0.0
  0
LINE
  5
14C6A
330
2
100
AcDbEntity
  8
0
370
     5
100
AcDbLine
 10
236574.216413085
 20
136171.5101901198
 30
0.0
 11
236574.216413085
 21
135448.5101901198
 31
0.0
  0
LINE
  5
14C6B
330
2
100
AcDbEntity
  8
0
370
     5
100
AcDbLine
 10
236574.216413085
 20
135448.5101901198
 30
0.0
 11
235619.716413085
 21
135448.5101901198
 31
0.0
  0
LINE
  5
14C6C
330
2
100
AcDbEntity
  8
0
370
     5
100
AcDbLine
 10
235619.716413085
 20
135448.5101901198
 30
0.0
 11
235619.716413085
 21
136171.5101901198
 31
0.0
  0
LINE
  5
14C6D
330
2
100
AcDbEntity
  8
0
370
     5
100
AcDbLine
 10
235619.716413085
 20
136171.5101901198
 30
0.0
 11
236574.216413085
 21
136171.5101901198
 31
0.0
  0
LINE
  5
14C6E
330
2
100
AcDbEntity
  8
0
  6
Continuous
370
     5
100
AcDbLine
 10
236515.5914130849
 20
136231.5101901198
 30
0.0
 11
236515.5914130849
 21
136171.5101901198
 31
0.0
  0
LINE
  5
14C6F
330
2
100
AcDbEntity
  8
0
  6
Continuous
370
     5
100
AcDbLine
 10
236335.5914130849
 20
136231.5101901198
 30
0.0
 11
236335.5914130849
 21
136171.5101901198
 31
0.0
  0
LINE
  5
14C70
330
2
100
AcDbEntity
  8
0
370
     5
100
AcDbLine
 10
236151.966413085
 20
135388.5101901198
 30
0.0
 11
236151.966413085
 21
135448.5101901198
 31
0.0
  0
LINE
  5
14C71
330
2
100
AcDbEntity
  8
0
370
     5
100
AcDbLine
 10
236041.966413085
 20
135388.5101901198
 30
0.0
 11
236041.966413085
 21
135448.5101901198
 31
0.0
  0
DIMENSION
  5
14C72
330
2
100
AcDbEntity
  8
0Wymiary-PL
100
AcDbDimension
  2
*D32
 10
236849.8056216663
 20
135395.6000139954
 30
0.0
 11
236769.8056216663
 21
135817.1000139955
 31
0.0
 70
    32
 71
     5
 42
843.0
  3
500
100
AcDbAlignedDimension
 13
236726.4457150077
 23
136238.6000139954
 33
0.0
 14
236726.4457150077
 24
135395.6000139954
 34
0.0
 50
90.0
100
AcDbRotatedDimension
  0
LINE
  5
14C73
330
2
100
AcDbEntity
  8
0
370
     5
100
AcDbLine
 10
236216.966413085
 20
135388.5101901198
 30
0.0
 11
236216.966413085
 21
135288.5101901198
 31
0.0
  0
LINE
  5
14C74
330
2
100
AcDbEntity
  8
0
370
     5
100
AcDbLine
 10
236216.966413085
 20
135288.5101901198
 30
0.0
 11
235976.9664130849
 21
135288.5101901198
 31
0.0
  0
LINE
  5
14C75
330
2
100
AcDbEntity
  8
0
370
     5
100
AcDbLine
 10
235976.9664130849
 20
135288.5101901198
 30
0.0
 11
235976.9664130849
 21
135388.5101901198
 31
0.0
  0
LINE
  5
14C76
330
2
100
AcDbEntity
  8
0
370
     5
100
AcDbLine
 10
236251.966413085
 20
135319.5101901198
 30
0.0
 11
236251.966413085
 21
135253.5101901198
 31
0.0
  0
LINE
  5
14C77
330
2
100
AcDbEntity
  8
0
370
     5
100
AcDbLine
 10
236251.966413085
 20
135253.5101901198
 30
0.0
 11
235941.966413085
 21
135253.5101901198
 31
0.0000000000000087
  0
LINE
  5
14C78
330
2
100
AcDbEntity
  8
0
370
     5
100
AcDbLine
 10
235941.966413085
 20
135253.5101901198
 30
0.0
 11
235941.966413085
 21
135319.5101901198
 31
0.0
  0
LINE
  5
14C79
330
2
100
AcDbEntity
  8
0
370
     5
100
AcDbLine
 10
236286.9664130849
 20
135319.5101901198
 30
0.0
 11
236286.9664130849
 21
135218.5101901198
 31
0.0
  0
LINE
  5
14C7A
330
2
100
AcDbEntity
  8
0
370
     5
100
AcDbLine
 10
236286.9664130849
 20
135218.5101901198
 30
0.0
 11
235906.9664130849
 21
135218.5101901198
 31
0.0000000000000173
  0
LINE
  5
14C7B
330
2
100
AcDbEntity
  8
0
370
     5
100
AcDbLine
 10
235906.9664130849
 20
135218.5101901198
 30
0.0
 11
235906.9664130849
 21
135319.5101901198
 31
0.0
  0
LINE
  5
14C7C
330
2
100
AcDbEntity
  8
0
370
     5
100
AcDbLine
 10
235956.966413085
 20
135388.5101901198
 30
0.0
 11
235956.966413085
 21
135319.5101901198
 31
0.0
  0
LINE
  5
14C7D
330
2
100
AcDbEntity
  8
0
370
     5
100
AcDbLine
 10
235956.966413085
 20
135319.5101901198
 30
0.0
 11
235908.216413085
 21
135319.5101901198
 31
0.0
  0
LINE
  5
14C7E
330
2
100
AcDbEntity
  8
0
370
     5
100
AcDbLine
 10
235908.216413085
 20
135319.5101901198
 30
0.0
 11
235908.216413085
 21
135388.5101901198
 31
0.0
  0
LINE
  5
14C7F
330
2
100
AcDbEntity
  8
0
370
     5
100
AcDbLine
 10
236237.2164130849
 20
135319.5101901198
 30
0.0
 11
236286.216413085
 21
135319.5101901198
 31
0.0
  0
LINE
  5
14C80
330
2
100
AcDbEntity
  8
0
370
     5
100
AcDbLine
 10
236286.216413085
 20
135319.5101901198
 30
0.0
 11
236286.216413085
 21
135388.5101901198
 31
0.0
  0
LINE
  5
14C81
330
2
100
AcDbEntity
  8
0
370
     5
100
AcDbLine
 10
236237.2164130849
 20
135319.5101901198
 30
0.0
 11
236237.2164130849
 21
135388.5101901198
 31
0.0
  0
DIMENSION
  5
14C82
330
2
100
AcDbEntity
  8
0Wymiary-PL
100
AcDbDimension
  2
*D29
 10
236849.8056216663
 20
135326.6000139954
 30
0.0
 11
236769.8056216663
 21
135361.1000139955
 31
0.0
 70
    32
 71
     5
 42
69.0
  3
500
100
AcDbAlignedDimension
 13
236378.4457150077
 23
135395.6000139954
 33
0.0
 14
236378.4457150077
 24
135326.6000139954
 34
0.0
 50
90.0
100
AcDbRotatedDimension
  0
DIMENSION
  5
14C83
330
2
100
AcDbEntity
  8
0Wymiary-PL
100
AcDbDimension
  2
*D30
 10
237029.3985484064
 20
135326.6000139954
 30
0.0
 11
236949.3985484064
 21
135782.6000139955
 31
0.0
 70
    32
 71
     5
 42
912.0
  3
500
100
AcDbAlignedDimension
 13
236726.4457150077
 23
136238.6000139954
 33
0.0
 14
236378.4457150077
 24
135326.6000139954
 34
0.0
 50
90.0
100
AcDbRotatedDimension
  0
DIMENSION
  5
14C84
330
2
100
AcDbEntity
  8
0Wymiary-PL
100
AcDbDimension
  2
*D31
 10
235559.716413085
 20
135030.4257001552
 30
0.0
 11
236096.966413085
 21
135110.4257001552
 31
0.0
 70
    32
 71
     5
 42
1074.5
  3
500
100
AcDbAlignedDimension
 13
236634.216413085
 23
135628.7278236756
 33
0.0
 14
235559.716413085
 24
135667.1213592165
 34
0.0
 50
180.0
100
AcDbRotatedDimension
1001
ACAD
1000
DSTYLE
1002
{
1070
   271
1070
     0
1002
}
  0
LWPOLYLINE
  5
14CED
330
2
100
AcDbEntity
  8
RAMKI-A4
370
     5
100
AcDbPolyline
 90
        4
 70
     1
 43
0.0
 10
228794.2801579701
 20
127657.5157057546
 10
228794.2801579701
 20
141677.5157057546
 10
238994.2801579701
 20
141677.5157057546
 10
238994.2801579701
 20
127657.5157057546
  0
ENDSEC
  0
SECTION
  2
OBJECTS
  0
DICTIONARY
  5
7
330
0
100
AcDbDictionary
281
     1
  3
ACAD_COLOR
350
31
  3
ACAD_GROUP
350
2D
  3
ACAD_LAYOUT
350
B
  3
ACAD_MATERIAL
350
30
  3
ACAD_MLEADERSTYLE
350
12E1B
  3
ACAD_MLINESTYLE
350
2E
  3
ACAD_PLOTSETTINGS
350
2F
  3
ACAD_PLOTSTYLENAME
350
6
  3
ACAD_SCALELIST
350
12E0B
  3
ACAD_TABLESTYLE
350
DF2
  3
ACAD_VISUALSTYLE
350
172D
  3
AcAec
350
8309
  3
ACDB_RECOMPOSE_DATA
350
14A90
  3
AcDbVariableDictionary
350
E04
  3
AEC_2D_SECTION_STYLES
350
6852
  3
AEC_CLASSIFICATION_SYSTEM_DEFS
350
3C3
  3
AEC_CLEANUP_GROUP_DEFS
350
6863
  3
AEC_CURTAIN_WALL_LAYOUT_STYLES
350
6864
  3
AEC_CURTAIN_WALL_UNIT_STYLES
350
6865
  3
AEC_DIM_STYLES
350
6871
  3
AEC_DISP_REP_CONFIGURATIONS
350
69A3
  3
AEC_DISP_REP_SETS
350
6999
  3
AEC_DISP_REPS
350
6873
  3
AEC_DISPLAY_PROPS_DEFAULTS
350
6875
  3
AEC_DISPLAYTHEME_STYLES
350
6870
  3
AEC_DOOR_STYLES
350
685B
  3
AEC_ENDCAP_STYLES
350
685C
  3
AEC_LAYERKEY_STYLES
350
685A
  3
AEC_LIST_DEFINITIONS
350
6855
  3
AEC_MASKBLOCK_DEFS
350
684E
  3
AEC_MASS_ELEM_STYLES
350
6854
  3
AEC_MATERIAL_DEFS
350
6853
  3
AEC_MVBLOCK_DEFS
350
684F
  3
AEC_OPENING_ENDCAP_STYLES
350
686C
  3
AEC_POLYGON_STYLES
350
6851
  3
AEC_PROFILE_DEFS
350
6850
  3
AEC_PROPERTY_FORMAT_DEFS
350
6856
  3
AEC_PROPERTY_SET_DEFS
350
3C4
  3
AEC_RAILING_STYLES
350
6867
  3
AEC_ROOFSLAB_STYLES
350
6868
  3
AEC_ROOFSLABEDGE_STYLES
350
6869
  3
AEC_SCHEDULE_TABLE_STYLES
350
6857
  3
AEC_SLAB_STYLES
350
686A
  3
AEC_SLABEDGE_STYLES
350
686B
  3
AEC_SPACE_MODIFIERS
350
686D
  3
AEC_SPACE_STYLES
350
685D
  3
AEC_STAIR_STYLES
350
685E
  3
AEC_STAIR_WINDER_STYLES
350
685F
  3
AEC_STRUCTURALMEMBER_STYLES
350
6858
  3
AEC_VARS
350
687A
  3
AEC_WALL_STYLES
350
6861
  3
AEC_WALLMOD_STYLES
350
6860
  3
AEC_WINDOW_ASSEMBLY_STYLES
350
6866
  3
AEC_WINDOW_STYLES
350
6862
  3
AEC_ZONE_DEFS
350
686F
  3
AEC_ZONE_STYLES
350
686E
  3
AECS_MEMBER_NODE_SHAPE
350
6859
  3
ASE_INDEX_DICTIONARY
350
14BA7
  3
BNS_VARIABLES
350
41C3
  3
DWGPROPS
350
14CFD
  0
DICTIONARY
  5
12
330
11
100
AcDbDictionary
280
     1
281
     1
  3
ACAD_LAYERFILTERS
360
8311
  3
ACAD_LAYERSTATES
360
13
  3
ACLYDICTIONARY
360
8310
  0
DICTIONARY
  5
12E27
330
4
100
AcDbDictionary
280
     1
281
     1
  3
ADSK_XREC_LAYER_RECONCILED
360
12E28
  0
DICTIONARY
  5
12E29
330
15E
100
AcDbDictionary
280
     1
281
     1
  3
ADSK_XREC_LAYER_RECONCILED
360
12E2A
  0
DICTIONARY
  5
12E2D
330
143
100
AcDbDictionary
280
     1
281
     1
  3
ADSK_XREC_LAYER_RECONCILED
360
12E2E
  0
DICTIONARY
  5
12E31
330
202C
100
AcDbDictionary
280
     1
281
     1
  3
ADSK_XREC_LAYER_RECONCILED
360
12E32
  0
DICTIONARY
  5
12E33
330
2081
100
AcDbDictionary
280
     1
281
     1
  3
ADSK_XREC_LAYER_RECONCILED
360
12E34
  0
DICTIONARY
  5
1FEF
330
2
100
AcDbDictionary
280
     1
281
     1
  3
ACAD_SORTENTS
360
1FF0
  0
DICTIONARY
  5
24
330
23
100
AcDbDictionary
280
     1
281
     1
  3
ACAD_SORTENTS
360
117C
  0
DICTIONARY
  5
31
102
{ACAD_REACTORS
330
7
102
}
330
7
100
AcDbDictionary
281
     1
  0
DICTIONARY
  5
2D
102
{ACAD_REACTORS
330
7
102
}
330
7
100
AcDbDictionary
281
     1
  0
DICTIONARY
  5
B
102
{ACAD_REACTORS
330
7
102
}
330
7
100
AcDbDictionary
281
     1
  3
Layout1
350
10
  3
Model
350
A
  0
DICTIONARY
  5
30
102
{ACAD_REACTORS
330
7
102
}
330
7
100
AcDbDictionary
281
     1
  3
ByBlock
350
172B
  3
ByLayer
350
172A
  3
Global
350
172C
  0
DICTIONARY
  5
12E1B
102
{ACAD_REACTORS
330
7
102
}
330
7
100
AcDbDictionary
281
     1
  3
Standard
350
12E1C
  0
DICTIONARY
  5
2E
102
{ACAD_REACTORS
330
7
102
}
330
7
100
AcDbDictionary
281
     1
  3
Standard
350
33
  0
DICTIONARY
  5
2F
102
{ACAD_REACTORS
330
7
102
}
330
7
100
AcDbDictionary
281
     1
  0
ACDBDICTIONARYWDFLT
  5
6
102
{ACAD_REACTORS
330
7
102
}
330
7
100
AcDbDictionary
281
     1
  3
Normal
350
5
100
AcDbDictionaryWithDefault
340
5
  0
DICTIONARY
  5
12E0B
102
{ACAD_REACTORS
330
7
102
}
330
7
100
AcDbDictionary
281
     1
  3
A0
350
12E0C
  3
A1
350
12E0D
  3
A2
350
12E0E
  3
A3
350
12E0F
  3
A4
350
12E10
  3
A5
350
12E11
  3
A6
350
12E12
  3
A7
350
12E13
  3
A8
350
12E14
  3
A9
350
12E15
  3
B0
350
12E16
  3
B1
350
12E17
  3
B2
350
12E18
  3
B3
350
12E19
  3
B4
350
12E1A
  0
DICTIONARY
  5
DF2
102
{ACAD_REACTORS
330
7
102
}
330
7
100
AcDbDictionary
281
     1
  3
Standard
350
DF3
  0
DICTIONARY
  5
172D
102
{ACAD_REACTORS
330
7
102
}
330
7
100
AcDbDictionary
281
     1
  3
2dWireframe
350
1733
  3
3D Hidden
350
12DA2
  3
3dWireframe
350
12DA1
  3
Basic
350
1732
  3
Brighten
350
1739
  3
ColorChange
350
173D
  3
Conceptual
350
12DA3
  3
Dim
350
1738
  3
Facepattern
350
173C
  3
Flat
350
172E
  3
FlatWithEdges
350
172F
  3
Gouraud
350
1730
  3
GouraudWithEdges
350
1731
  3
Linepattern
350
173B
  3
Realistic
350
12DA4
  3
Thicken
350
173A
  0
DICTIONARY
  5
8309
102
{ACAD_REACTORS
330
7
102
}
330
7
100
AcDbDictionary
281
     1
  3
AcAecLayerManager
350
830A
  0
XRECORD
  5
14A90
102
{ACAD_REACTORS
330
7
102
}
330
7
100
AcDbXrecord
280
     1
 90
        1
330
DF3
  0
DICTIONARY
  5
E04
102
{ACAD_REACTORS
330
7
102
}
330
7
100
AcDbDictionary
281
     1
  3
CANNOSCALE
350
14A93
  3
CMLEADERSTYLE
350
14A91
  3
CTABLESTYLE
350
E05
  3
DIMASSOC
350
14CFB
  3
HIDETEXT
350
14CFA
  3
INDEXCTL
350
14CF9
  3
LAYEREVAL
350
14A95
  3
LAYERNOTIFY
350
14A96
  3
LIGHTINGUNITS
350
14A94
  3
MSLTSCALE
350
14A92
  3
SORTENTS
350
14CF8
  0
DICTIONARY
  5
6852
102
{ACAD_REACTORS
330
7
102
}
330
7
100
AcDbDictionary
281
     1
  0
DICTIONARY
  5
3C3
102
{ACAD_REACTORS
330
7
102
}
330
7
100
AcDbDictionary
281
     1
  0
DICTIONARY
  5
6863
102
{ACAD_REACTORS
330
7
102
}
330
7
100
AcDbDictionary
281
     1
  0
DICTIONARY
  5
6864
102
{ACAD_REACTORS
330
7
102
}
330
7
100
AcDbDictionary
281
     1
  0
DICTIONARY
  5
6865
102
{ACAD_REACTORS
330
7
102
}
330
7
100
AcDbDictionary
281
     1
  0
DICTIONARY
  5
6871
102
{ACAD_REACTORS
330
7
102
}
330
7
100
AcDbDictionary
281
     1
  0
DICTIONARY
  5
69A3
102
{ACAD_REACTORS
330
7
102
}
330
7
100
AcDbDictionary
281
     1
  3
Medium Detail
350
82FE
  3
Standard
350
69A4
  0
DICTIONARY
  5
6999
102
{ACAD_REACTORS
330
7
102
}
330
7
100
AcDbDictionary
281
     1
  3
Elevation
350
699D
  3
Model
350
699A
  3
Model High Detail
350
69A1
  3
Model Low Detail
350
69A0
  3
Plan
350
699B
  3
Plan Diagnostic
350
69A2
  3
Plan High Detail
350
699F
  3
Plan Low Detail
350
699E
  3
Reflected
350
699C
  0
DICTIONARY
  5
6873
102
{ACAD_REACTORS
330
7
102
}
330
7
100
AcDbDictionary
281
     1
  3
AecDbDispRep2dSection
350
68D5
  3
AecDbDispRepAnchor
350
68D7
  3
AecDbDispRepAnchorBubToGrid
350
697D
  3
AecDbDispRepAnchorBubToGridMdl
350
697F
  3
AecDbDispRepAnchorBubToGridRcp
350
6981
  3
AecDbDispRepAnchorEntToNode
350
68D8
  3
AecDbDispRepAnchorExtendedTagToEnt
350
6903
  3
AecDbDispRepAnchorTagToEnt
350
6901
  3
AecDbDispRepBdgElevLineModel
350
6907
  3
AecDbDispRepBdgElevLinePlan
350
6909
  3
AecDbDispRepBdgElevLinePlan100
350
6874
  3
AecDbDispRepBdgElevLinePlan50
350
6892
  3
AecDbDispRepBdgElevLineRcp
350
690B
  3
AecDbDispRepBdgSectionLineModel
350
690D
  3
AecDbDispRepBdgSectionLinePlan
350
690F
  3
AecDbDispRepBdgSectionLinePlan100
350
6877
  3
AecDbDispRepBdgSectionLinePlan50
350
6894
  3
AecDbDispRepBdgSectionLineRcp
350
6911
  3
AecDbDispRepBdgSectionModel
350
6913
  3
AecDbDispRepBdgSectionSubDiv
350
6914
  3
AecDbDispRepCeilingGrid
350
6916
  3
AecDbDispRepCeilingGridModel
350
6918
  3
AecDbDispRepCeilingGridPlan100
350
6879
  3
AecDbDispRepCeilingGridPlan50
350
6896
  3
AecDbDispRepCeilingGridRcp
350
691A
  3
AecDbDispRepClipVolModel
350
68DA
  3
AecDbDispRepClipVolPlan
350
68DC
  3
AecDbDispRepClipVolResSubDiv
350
68DF
  3
AecDbDispRepClipVolResult
350
68DE
  3
AecDbDispRepColumnGrid
350
6983
  3
AecDbDispRepColumnGridModel
350
6985
  3
AecDbDispRepColumnGridPlan100
350
687D
  3
AecDbDispRepColumnGridPlan50
350
6898
  3
AecDbDispRepColumnGridRcp
350
6987
  3
AecDbDispRepCurtainWallLayoutModel
350
691C
  3
AecDbDispRepCurtainWallLayoutPlan
350
691E
  3
AecDbDispRepCurtainWallLayoutPlan100
350
687F
  3
AecDbDispRepCurtainWallLayoutPlan50
350
689A
  3
AecDbDispRepCurtainWallUnitModel
350
6920
  3
AecDbDispRepCurtainWallUnitPlan
350
6922
  3
AecDbDispRepCurtainWallUnitPlan100
350
6881
  3
AecDbDispRepCurtainWallUnitPlan50
350
689C
  3
AecDbDispRepDimGroupPlan
350
68B1
  3
AecDbDispRepDimGroupPlan100
350
68AD
  3
AecDbDispRepDimGroupPlan50
350
68AF
  3
AecDbDispRepDisplayTheme
350
68E1
  3
AecDbDispRepDoorElev
350
6926
  3
AecDbDispRepDoorModel
350
6924
  3
AecDbDispRepDoorNominal
350
692A
  3
AecDbDispRepDoorPlan
350
6928
  3
AecDbDispRepDoorPlan50
350
68B3
  3
AecDbDispRepDoorPlanHekto
350
68B5
  3
AecDbDispRepDoorRcp
350
692C
  3
AecDbDispRepDoorThresholdPlan
350
692E
  3
AecDbDispRepDoorThresholdSymbolPlan
350
68B7
  3
AecDbDispRepEditInPlaceProfile
350
68E3
  3
AecDbDispRepEntRef
350
68E5
  3
AecDbDispRepLayoutCurve
350
68E7
  3
AecDbDispRepLayoutGrid2d
350
68E9
  3
AecDbDispRepLayoutGrid3d
350
68EB
  3
AecDbDispRepMaskBlockRef
350
68ED
  3
AecDbDispRepMaskBlockRefRcp
350
6930
  3
AecDbDispRepMassElemModel
350
68F9
  3
AecDbDispRepMassElemPlan100
350
68B9
  3
AecDbDispRepMassElemPlan50
350
68BB
  3
AecDbDispRepMassElemRcp
350
6932
  3
AecDbDispRepMassElemSchem
350
68FB
  3
AecDbDispRepMassGroupModel
350
68FD
  3
AecDbDispRepMassGroupPlan
350
68FF
  3
AecDbDispRepMassGroupPlan100
350
68BD
  3
AecDbDispRepMassGroupPlan50
350
68BF
  3
AecDbDispRepMassGroupRcp
350
6934
  3
AecDbDispRepMaterial
350
68EF
  3
AecDbDispRepMvBlockRef
350
68F1
  3
AecDbDispRepMvBlockRef$Plan
350
8301
  3
AecDbDispRepMvBlockRefModel
350
68F2
  3
AecDbDispRepMvBlockRefPlan100
350
6883
  3
AecDbDispRepMvBlockRefPlan50
350
689E
  3
AecDbDispRepMvBlockRefRcp
350
6936
  3
AecDbDispRepOpening
350
6937
  3
AecDbDispRepOpeningModel
350
6939
  3
AecDbDispRepOpeningPlan100
350
68C1
  3
AecDbDispRepOpeningPlan50
350
68C3
  3
AecDbDispRepOpeningPlanReflected
350
68C5
  3
AecDbDispRepOpeningSillPlan
350
68C7
  3
AecDbDispRepPolygonModel
350
68F3
  3
AecDbDispRepPolygonTrueColour
350
68F5
  3
AecDbDispRepRailingModel
350
693B
  3
AecDbDispRepRailingPlan
350
693D
  3
AecDbDispRepRailingPlan100
350
68C9
  3
AecDbDispRepRailingPlan50
350
68CB
  3
AecDbDispRepRoofModel
350
693F
  3
AecDbDispRepRoofPlan
350
6941
  3
AecDbDispRepRoofPlan100
350
6884
  3
AecDbDispRepRoofPlan50
350
689F
  3
AecDbDispRepRoofRcp
350
6943
  3
AecDbDispRepRoofSlabModel
350
6947
  3
AecDbDispRepRoofSlabPlan
350
694B
  3
AecDbDispRepRoofSlabPlan100
350
6886
  3
AecDbDispRepRoofSlabPlan50
350
68A1
  3
AecDbDispRepScheduleTable
350
6905
  3
AecDbDispRepSlabModel
350
6945
  3
AecDbDispRepSlabPlan
350
6949
  3
AecDbDispRepSlabPlan100
350
6888
  3
AecDbDispRepSlabPlan50
350
68A3
  3
AecDbDispRepSlice
350
68F7
  3
AecDbDispRepSpaceDecomposed
350
694D
  3
AecDbDispRepSpaceModel
350
694F
  3
AecDbDispRepSpacePlan
350
6951
  3
AecDbDispRepSpacePlan100
350
688A
  3
AecDbDispRepSpacePlan50
350
68A5
  3
AecDbDispRepSpaceRcp
350
6953
  3
AecDbDispRepSpaceVolume
350
6955
  3
AecDbDispRepStairModel
350
6957
  3
AecDbDispRepStairPlan
350
6959
  3
AecDbDispRepStairPlan100
350
68CD
  3
AecDbDispRepStairPlan50
350
68CF
  3
AecDbDispRepStairPlanOverlapping
350
695B
  3
AecDbDispRepStairRcp
350
695D
  3
AecDbDispRepWallGraph
350
695F
  3
AecDbDispRepWallModel
350
6961
  3
AecDbDispRepWallPlan
350
6963
  3
AecDbDispRepWallPlan100
350
688C
  3
AecDbDispRepWallPlan50
350
68A7
  3
AecDbDispRepWallRcp
350
6965
  3
AecDbDispRepWallSchem
350
6967
  3
AecDbDispRepWindowAssemblyModel
350
6969
  3
AecDbDispRepWindowAssemblyPlan
350
696B
  3
AecDbDispRepWindowAssemblyPlan100
350
688E
  3
AecDbDispRepWindowAssemblyPlan50
350
68A9
  3
AecDbDispRepWindowAssemblySillPlan
350
696D
  3
AecDbDispRepWindowElev
350
6971
  3
AecDbDispRepWindowModel
350
696F
  3
AecDbDispRepWindowNominal
350
6975
  3
AecDbDispRepWindowPlan
350
6973
  3
AecDbDispRepWindowPlan100
350
68D1
  3
AecDbDispRepWindowPlan50
350
68D3
  3
AecDbDispRepWindowRcp
350
6977
  3
AecDbDispRepWindowSillPlan
350
6979
  3
AecDbDispRepZone
350
697B
  3
AecDbDispRepZonePlan100
350
6890
  3
AecDbDispRepZonePlan50
350
68AB
  3
AecsDbDispRepMemberElevationDesign
350
6989
  3
AecsDbDispRepMemberElevationDetail
350
698B
  3
AecsDbDispRepMemberLogical
350
698D
  3
AecsDbDispRepMemberModelDesign
350
698F
  3
AecsDbDispRepMemberModelDetail
350
6991
  3
AecsDbDispRepMemberPlanDesign
350
6993
  3
AecsDbDispRepMemberPlanDetail
350
6995
  3
AecsDbDispRepMemberPlanSketch
350
6997
  0
DICTIONARY
  5
6875
102
{ACAD_REACTORS
330
7
102
}
330
7
100
AcDbDictionary
281
     1
  3
*A1
350
6876
  3
*A10
350
68B0
  3
*A100
350
68F8
  3
*A101
350
6935
  3
*A102
350
68CE
  3
*A103
350
6960
  3
*A104
350
6915
  3
*A105
350
68DD
  3
*A106
350
694C
  3
*A107
350
6974
  3
*A108
350
687C
  3
*A109
350
68A0
  3
*A11
350
68FE
  3
*A110
350
68B6
  3
*A111
350
688F
  3
*A112
350
68AA
  3
*A113
350
6925
  3
*A114
350
6962
  3
*A115
350
6964
  3
*A116
350
6917
  3
*A117
350
6906
  3
*A118
350
691B
  3
*A119
350
6895
  3
*A12
350
68E8
  3
*A120
350
6980
  3
*A121
350
691F
  3
*A122
350
688B
  3
*A123
350
68EC
  3
*A124
350
6984
  3
*A125
350
690C
  3
*A126
350
6976
  3
*A127
350
6994
  3
*A128
350
68AC
  3
*A129
350
68D9
  3
*A13
350
694E
  3
*A130
350
6950
  3
*A131
350
6942
  3
*A132
350
6986
  3
*A133
350
6988
  3
*A134
350
692B
  3
*A135
350
693A
  3
*A136
350
68BE
  3
*A137
350
693E
  3
*A138
350
68B8
  3
*A139
350
6919
  3
*A14
350
6902
  3
*A140
350
692F
  3
*A141
350
6893
  3
*A15
350
68A8
  3
*A16
350
68F4
  3
*A17
350
6978
  3
*A18
350
689B
  3
*A19
350
689D
  3
*A2
350
68FA
  3
*A20
350
6968
  3
*A21
350
6956
  3
*A22
350
696C
  3
*A23
350
68DB
  3
*A24
350
6938
  3
*A25
350
68BC
  3
*A26
350
6972
  3
*A27
350
6878
  3
*A28
350
693C
  3
*A29
350
68C2
  3
*A3
350
6948
  3
*A30
350
695E
  3
*A31
350
68B2
  3
*A32
350
68D2
  3
*A33
350
68F6
  3
*A34
350
6927
  3
*A35
350
6885
  3
*A36
350
6887
  3
*A37
350
6996
  3
*A38
350
68C4
  3
*A39
350
68C6
  3
*A4
350
698A
  3
*A40
350
697E
  3
*A41
350
698E
  3
*A42
350
690A
  3
*A43
350
6992
  3
*A44
350
6904
  3
*A45
350
696A
  3
*A46
350
6952
  3
*A47
350
6982
  3
*A48
350
68D4
  3
*A49
350
68F0
  3
*A5
350
691D
  3
*A50
350
6944
  3
*A51
350
68B4
  3
*A52
350
68E2
  3
*A53
350
68E4
  3
*A54
350
694A
  3
*A55
350
68A2
  3
*A56
350
688D
  3
*A57
350
68A6
  3
*A58
350
6929
  3
*A59
350
698C
  3
*A6
350
6899
  3
*A60
350
6908
  3
*A61
350
68AE
  3
*A62
350
68E6
  3
*A63
350
6990
  3
*A64
350
690E
  3
*A65
350
687E
  3
*A66
350
6897
  3
*A67
350
68FC
  3
*A68
350
6921
  3
*A69
350
6946
  3
*A7
350
6966
  3
*A70
350
697A
  3
*A71
350
6958
  3
*A72
350
696E
  3
*A73
350
68D6
  3
*A74
350
6910
  3
*A75
350
6912
  3
*A76
350
68C8
  3
*A77
350
68BA
  3
*A78
350
68CC
  3
*A79
350
695C
  3
*A8
350
692D
  3
*A80
350
68D0
  3
*A81
350
6954
  3
*A82
350
68A4
  3
*A83
350
6889
  3
*A84
350
68C0
  3
*A85
350
6923
  3
*A86
350
6940
  3
*A87
350
6970
  3
*A88
350
6998
  3
*A89
350
6900
  3
*A9
350
6882
  3
*A90
350
6931
  3
*A91
350
6933
  3
*A92
350
6880
  3
*A93
350
68EA
  3
*A94
350
6891
  3
*A95
350
68EE
  3
*A96
350
697C
  3
*A97
350
68CA
  3
*A98
350
68E0
  3
*A99
350
695A
  0
DICTIONARY
  5
6870
102
{ACAD_REACTORS
330
7
102
}
330
7
100
AcDbDictionary
281
     1
  0
DICTIONARY
  5
685B
102
{ACAD_REACTORS
330
7
102
}
330
7
100
AcDbDictionary
281
     1
  0
DICTIONARY
  5
685C
102
{ACAD_REACTORS
330
7
102
}
330
7
100
AcDbDictionary
281
     1
  0
DICTIONARY
  5
685A
102
{ACAD_REACTORS
330
7
102
}
330
7
100
AcDbDictionary
281
     1
  3
AIA (256 Color)
350
8304
  0
DICTIONARY
  5
6855
102
{ACAD_REACTORS
330
7
102
}
330
7
100
AcDbDictionary
281
     1
  0
DICTIONARY
  5
684E
102
{ACAD_REACTORS
330
7
102
}
330
7
100
AcDbDictionary
281
     1
  0
DICTIONARY
  5
6854
102
{ACAD_REACTORS
330
7
102
}
330
7
100
AcDbDictionary
281
     1
  0
DICTIONARY
  5
6853
102
{ACAD_REACTORS
330
7
102
}
330
7
100
AcDbDictionary
281
     1
  0
DICTIONARY
  5
684F
102
{ACAD_REACTORS
330
7
102
}
330
7
100
AcDbDictionary
281
     1
  0
DICTIONARY
  5
686C
102
{ACAD_REACTORS
330
7
102
}
330
7
100
AcDbDictionary
281
     1
  0
DICTIONARY
  5
6851
102
{ACAD_REACTORS
330
7
102
}
330
7
100
AcDbDictionary
281
     1
  0
DICTIONARY
  5
6850
102
{ACAD_REACTORS
330
7
102
}
330
7
100
AcDbDictionary
281
     1
  0
DICTIONARY
  5
6856
102
{ACAD_REACTORS
330
7
102
}
330
7
100
AcDbDictionary
281
     1
  0
DICTIONARY
  5
3C4
102
{ACAD_REACTORS
330
7
102
}
330
7
100
AcDbDictionary
281
     1
  0
DICTIONARY
  5
6867
102
{ACAD_REACTORS
330
7
102
}
330
7
100
AcDbDictionary
281
     1
  0
DICTIONARY
  5
6868
102
{ACAD_REACTORS
330
7
102
}
330
7
100
AcDbDictionary
281
     1
  0
DICTIONARY
  5
6869
102
{ACAD_REACTORS
330
7
102
}
330
7
100
AcDbDictionary
281
     1
  0
DICTIONARY
  5
6857
102
{ACAD_REACTORS
330
7
102
}
330
7
100
AcDbDictionary
281
     1
  0
DICTIONARY
  5
686A
102
{ACAD_REACTORS
330
7
102
}
330
7
100
AcDbDictionary
281
     1
  0
DICTIONARY
  5
686B
102
{ACAD_REACTORS
330
7
102
}
330
7
100
AcDbDictionary
281
     1
  0
DICTIONARY
  5
686D
102
{ACAD_REACTORS
330
7
102
}
330
7
100
AcDbDictionary
281
     1
  0
DICTIONARY
  5
685D
102
{ACAD_REACTORS
330
7
102
}
330
7
100
AcDbDictionary
281
     1
  0
DICTIONARY
  5
685E
102
{ACAD_REACTORS
330
7
102
}
330
7
100
AcDbDictionary
281
     1
  0
DICTIONARY
  5
685F
102
{ACAD_REACTORS
330
7
102
}
330
7
100
AcDbDictionary
281
     1
  0
DICTIONARY
  5
6858
102
{ACAD_REACTORS
330
7
102
}
330
7
100
AcDbDictionary
281
     1
  0
DICTIONARY
  5
687A
102
{ACAD_REACTORS
330
7
102
}
330
7
100
AcDbDictionary
281
     1
  3
AEC_VARS_ARCHBASE
350
8307
  3
AEC_VARS_DWG_SETUP
350
687B
  3
AECMX_VARS_MUNICH
350
8308
  0
DICTIONARY
  5
6861
102
{ACAD_REACTORS
330
7
102
}
330
7
100
AcDbDictionary
281
     1
  0
DICTIONARY
  5
6860
102
{ACAD_REACTORS
330
7
102
}
330
7
100
AcDbDictionary
281
     1
  0
DICTIONARY
  5
6866
102
{ACAD_REACTORS
330
7
102
}
330
7
100
AcDbDictionary
281
     1
  0
DICTIONARY
  5
6862
102
{ACAD_REACTORS
330
7
102
}
330
7
100
AcDbDictionary
281
     1
  0
DICTIONARY
  5
686F
102
{ACAD_REACTORS
330
7
102
}
330
7
100
AcDbDictionary
281
     1
  0
DICTIONARY
  5
686E
102
{ACAD_REACTORS
330
7
102
}
330
7
100
AcDbDictionary
281
     1
  0
DICTIONARY
  5
6859
102
{ACAD_REACTORS
330
7
102
}
330
7
100
AcDbDictionary
281
     1
  0
DICTIONARY
  5
14BA7
102
{ACAD_REACTORS
330
7
102
}
330
7
100
AcDbDictionary
281
     1
  3
ASEBlockHierarchyIndexRecord
350
14BA8
1001
DCO15
1040
1668319543.718
  0
DICTIONARY
  5
41C3
102
{ACAD_REACTORS
330
7
102
}
330
7
100
AcDbDictionary
281
     1
  3
ACET-OVERKILL-FUZZ
350
14CE5
  3
ACET-OVERKILL-NO-ENDTOEND
350
14CE8
  3
ACET-OVERKILL-NO-PARTIAL
350
14CE7
  3
ACET-OVERKILL-NO-PLINES
350
14CE6
  0
XRECORD
  5
14CFD
102
{ACAD_REACTORS
330
7
102
}
330
7
100
AcDbXrecord
280
     1
  1
DWGPROPS COOKIE
  2

  3

  4

  6

  7

  8
anna.bogusz
  9

300
=
301
=
302
=
303
=
304
=
305
=
306
=
307
=
308
=
309
=
 40
8.935360914351852
 41
2452027.670547454
 42
2455112.46583007
  1

 90
        0
  0
DICTIONARY
  5
8311
102
{ACAD_REACTORS
330
12
102
}
330
12
100
AcDbDictionary
281
     1
  0
DICTIONARY
  5
13
102
{ACAD_REACTORS
330
12
102
}
330
12
100
AcDbDictionary
281
     1
  0
DICTIONARY
  5
8310
102
{ACAD_REACTORS
330
12
102
}
330
12
100
AcDbDictionary
281
     1
1001
ACAD
1000
<All
  0
XRECORD
  5
12E28
102
{ACAD_REACTORS
330
12E27
102
}
330
12E27
100
AcDbXrecord
280
     1
290
     1
  0
XRECORD
  5
12E2A
102
{ACAD_REACTORS
330
12E29
102
}
330
12E29
100
AcDbXrecord
280
     1
290
     1
  0
XRECORD
  5
12E2E
102
{ACAD_REACTORS
330
12E2D
102
}
330
12E2D
100
AcDbXrecord
280
     1
290
     1
  0
XRECORD
  5
12E32
102
{ACAD_REACTORS
330
12E31
102
}
330
12E31
100
AcDbXrecord
280
     1
290
     1
  0
XRECORD
  5
12E34
102
{ACAD_REACTORS
330
12E33
102
}
330
12E33
100
AcDbXrecord
280
     1
290
     1
  0
SORTENTSTABLE
  5
1FF0
102
{ACAD_REACTORS
330
1FEF
102
}
330
1FEF
100
AcDbSortentsTable
330
2
331
14BAE
  5
14BE6
331
1325E
  5
14BC5
331
14C61
  5
14C66
331
14C28
  5
14C2D
331
14BE7
  5
14BBC
331
14B3D
  5
14C01
331
14C51
  5
14C56
331
14C18
  5
14C1D
331
14C45
  5
14C4A
331
14C0C
  5
14C11
331
14BCB
  5
14B3A
331
14C76
  5
14C7B
331
14C35
  5
14C3A
331
14BBB
  5
133F2
331
13380
  5
14BD8
331
13267
  5
14BCE
331
14BB7
  5
13381
331
14C6A
  5
14C6F
331
14BF0
  5
13263
331
14C5A
  5
14C5F
331
14C21
  5
14C26
331
14BE0
  5
14BB5
331
14B36
  5
14BF5
331
14C4E
  5
14C53
331
14C15
  5
14C1A
331
14BD4
  5
14B87
331
14C7F
  5
14C84
331
14C3E
  5
14C43
331
14C05
  5
14C0A
331
14BC4
  5
14B33
331
14B6F
  5
14C03
331
13260
  5
14BC7
331
14BB0
  5
14BE8
331
14C63
  5
14C68
331
14C2A
  5
14C2F
331
14BE9
  5
14BBE
331
14C53
  5
14C58
331
14C1A
  5
14C1F
331
14BD9
  5
14BAE
331
14C47
  5
14C4C
331
14C0E
  5
14C13
331
14BCD
  5
14B3C
331
14C78
  5
14C7D
331
14C37
  5
14C3C
331
14BBD
  5
133F4
331
13382
  5
14BDA
331
13269
  5
14BD0
331
14C6C
  5
14C71
331
14BF2
  5
13265
331
14B68
  5
14BE0
331
14C5C
  5
14C61
331
14C23
  5
14C28
331
14BE2
  5
14BB7
331
14B38
  5
14BF7
331
14C17
  5
14C1C
331
14BD6
  5
14BAB
331
14C81
  5
14CEA
331
14C40
  5
14C45
331
14C07
  5
14C0C
331
14BC6
  5
14B35
331
E43D
  5
12619
331
14C71
  5
14C76
331
14C30
  5
14C35
331
14BB2
  5
14BE2
331
13262
  5
14BC9
331
14C65
  5
14C6A
331
14C2C
  5
14C31
331
14BEB
  5
14BC0
331
14C55
  5
14C5A
331
14C1C
  5
14C21
331
14BDB
  5
14BB0
331
14B31
  5
14BF0
331
14C49
  5
14C4E
331
14C10
  5
14C15
331
14BCF
  5
14B3E
331
14C7A
  5
14C7F
331
14C39
  5
14C3E
331
14BBF
  5
133F6
331
13384
  5
14BDC
331
1326B
  5
14BD3
331
14C6E
  5
14C73
331
14BF4
  5
13267
331
14BAB
  5
14BEC
331
1325B
  5
14BC2
331
14C5E
  5
14C63
331
14C25
  5
14C2A
331
14BE4
  5
14BB9
331
14B3A
  5
14BF9
331
14C83
  5
14CEC
331
14C42
  5
14C47
331
14C09
  5
14C0E
331
14BC8
  5
14B37
331
E43F
  5
1261B
331
14BB8
  5
13382
331
14C73
  5
14C78
331
14C32
  5
14C37
331
14BF9
  5
1326C
331
14BB4
  5
14BE4
331
1337D
  5
14BD6
331
13264
  5
14BCB
331
14CED
  5
1325C
331
14C67
  5
14C6C
331
14C2E
  5
14C33
331
14B02
  5
14BDF
331
14BED
  5
13260
331
14C57
  5
14C5C
331
14C1E
  5
14C23
331
14BDD
  5
14BB2
331
14B33
  5
14BF2
331
14C4B
  5
14C50
331
14C12
  5
14C17
331
14BD1
  5
14B69
331
14C7C
  5
14C81
331
14C3B
  5
14C40
331
14C02
  5
14C07
331
14BC1
  5
1340E
331
14B7C
  5
14C04
331
1326D
  5
14BD5
331
14BF6
  5
13269
331
14BAD
  5
14BEA
331
1325D
  5
14BC4
331
14C60
  5
14C65
331
14C27
  5
14C2C
331
14BE6
  5
14BBB
331
14B3C
  5
14BFB
331
14C50
  5
14C55
331
13A23
  5
14BDD
331
14C44
  5
14C49
331
14C0B
  5
14C10
331
14BCA
  5
14B39
331
14BBA
  5
13384
331
14C75
  5
14C7A
331
14C34
  5
14C39
331
14BFB
  5
1337F
331
1337F
  5
14BD7
331
13266
  5
14BCD
331
14C69
  5
14C6E
331
14BEF
  5
13262
331
14BB6
  5
13380
331
14C59
  5
14C5E
331
14C20
  5
14C25
331
14BDF
  5
14BB4
331
14B35
  5
14BF4
331
14C4D
  5
14C52
331
14C14
  5
14C19
331
14BD3
  5
14B7C
331
14C7E
  5
14C83
331
14C3D
  5
14C42
331
14C04
  5
14C09
331
14BC3
  5
14B32
331
14BAF
  5
14BE7
331
14B6E
  5
14BE1
331
1325F
  5
14BC6
331
14C62
  5
14C67
331
14C29
  5
14C2E
331
14BE8
  5
14BBD
331
14B3E
  5
14C02
331
14C52
  5
14C57
331
14C19
  5
14C1E
331
14BD8
  5
14BAD
331
14C46
  5
14C4B
331
14C0D
  5
14C12
331
14BCC
  5
14B3B
331
14C77
  5
14C7C
331
14C36
  5
14C3B
331
14BBC
  5
133F3
331
13381
  5
14BD9
331
13268
  5
14BCF
331
14C6B
  5
14C70
331
14BF1
  5
13264
331
14C5B
  5
14C60
331
14C22
  5
14C27
331
14BE1
  5
14BB6
331
14B37
  5
14BF6
331
14C4F
  5
14C54
331
14C16
  5
14C1B
331
14BD5
  5
14BAA
331
14C80
  5
14CE9
331
14C3F
  5
14C44
331
14C06
  5
14C0B
331
14BC5
  5
14B34
331
E43C
  5
12617
331
14C70
  5
14C75
331
14BB1
  5
14BE9
331
13261
  5
14BC8
331
14C64
  5
14C69
331
14C2B
  5
14C30
331
14BEA
  5
14BBF
331
14C54
  5
14C59
331
14C1B
  5
14C20
331
14BDA
  5
14BAF
331
14B30
  5
14BEF
331
14C48
  5
14C4D
331
14C0F
  5
14C14
331
14BCE
  5
14B3D
331
14C79
  5
14C7E
331
14C38
  5
14C3D
331
14BBE
  5
133F5
331
13383
  5
14BDB
331
1326A
  5
14BD2
331
14C6D
  5
14C72
331
14BF3
  5
13266
331
14BAA
  5
14BED
331
14C5D
  5
14C62
331
14C24
  5
14C29
331
14BE3
  5
14BB8
331
14B39
  5
14BF8
331
14BD7
  5
14BAC
331
14C82
  5
14CEB
331
14C41
  5
14C46
331
14C08
  5
14C0D
331
14BC7
  5
14B36
331
E432
  5
1024D
331
14C72
  5
14C77
331
14C31
  5
14C36
331
14BF8
  5
1326B
331
14BB3
  5
14BE3
331
13263
  5
14BCA
331
14C66
  5
14C6B
331
14C2D
  5
14C32
331
14BEC
  5
14BC1
331
14C56
  5
14C5B
331
14C1D
  5
14C22
331
14BDC
  5
14BB1
331
14B32
  5
14BF1
331
14039
  5
14BDE
331
14C4A
  5
14C4F
331
14C11
  5
14C16
331
14BD0
  5
14B63
331
14B87
  5
14C05
331
14C7B
  5
14C80
331
14C3A
  5
14C3F
331
14C01
  5
14C06
331
14BC0
  5
13403
331
1326C
  5
14BD4
331
14C6F
  5
14C74
331
14BF5
  5
13268
331
148FE
  5
14BEE
331
1325C
  5
14BC3
331
14BAC
  5
14BEB
331
14C5F
  5
14C64
331
14C26
  5
14C2B
331
14BE5
  5
14BBA
331
14B3B
  5
14BFA
331
14C84
  5
14CED
331
14C43
  5
14C48
331
14C0A
  5
14C0F
331
14BC9
  5
14B38
331
E440
  5
1261C
331
14BB9
  5
13383
331
14C74
  5
14C79
331
14C33
  5
14C38
331
14BFA
  5
1326D
331
14BB5
  5
14BE5
331
13265
  5
14BCC
331
14C68
  5
14C6D
331
14C2F
  5
14C34
331
14BEE
  5
13261
331
14C58
  5
14C5D
331
14C1F
  5
14C24
331
14BDE
  5
14BB3
331
14B34
  5
14BF3
331
14C4C
  5
14C51
331
14C13
  5
14C18
331
14BD2
  5
14B6F
331
14C7D
  5
14C82
331
14C3C
  5
14C41
331
14C03
  5
14C08
331
14BC2
  5
14B31
331
14BF7
  5
1326A
  0
SORTENTSTABLE
  5
117C
102
{ACAD_REACTORS
330
24
102
}
330
24
100
AcDbSortentsTable
330
23
  0
LAYOUT
  5
10
102
{ACAD_XDICTIONARY
360
14D00
102
}
102
{ACAD_REACTORS
330
B
102
}
330
B
100
AcDbPlotSettings
  1

  2
C:\PROGRAM FILES\AUTOCAD LT 2000\plotters\DWF ePlot.pc3
  4

  6

 40
0.0
 41
0.0
 42
0.0
 43
0.0
 44
0.0
 45
0.0
 46
0.0
 47
0.0
 48
0.0
 49
0.0
140
0.0
141
0.0
142
1.0
143
1.0
 70
   688
 72
     0
 73
     0
 74
     5
  7
monochrome_140.ctb
 75
    16
147
1.0
148
0.0
149
0.0
100
AcDbLayout
  1
Layout1
 70
     1
 71
     1
 10
0.0
 20
0.0
 11
420.0
 21
297.0
 12
0.0
 22
0.0
 32
0.0
 14
1.000000000000000E+20
 24
1.000000000000000E+20
 34
1.000000000000000E+20
 15
-1.000000000000000E+20
 25
-1.000000000000000E+20
 35
-1.000000000000000E+20
146
0.0
 13
0.0
 23
0.0
 33
0.0
 16
1.0
 26
0.0
 36
0.0
 17
0.0
 27
1.0
 37
0.0
 76
     0
330
D
  0
LAYOUT
  5
A
102
{ACAD_XDICTIONARY
360
14CFE
102
}
102
{ACAD_REACTORS
330
B
102
}
330
B
100
AcDbPlotSettings
  1

  2
PDFCreator
  4
A4
  6
RODODENDRON 5
 40
3.174999952316284
 41
3.174999952316284
 42
3.175003051757812
 43
3.17498779296875
 44
209.8886566162109
 45
297.0530090332031
 46
-0.230673193931878
 47
5.151510643959028
 48
228794.2801579701
 49
127657.5157057546
140
238994.2801579701
141
141677.5157057546
142
1.0
143
50.0
 70
 11956
 72
     1
 73
     0
 74
     4
  7
monochrome_140.ctb
 75
    25
147
0.02
148
-228794.2801579701
149
-127657.5157057546
100
AcDbLayout
  1
Model
 70
     1
 71
     0
 10
0.0
 20
0.0
 11
12.0
 21
9.0
 12
0.0
 22
0.0
 32
0.0
 14
0.0
 24
0.0
 34
0.0
 15
0.0
 25
0.0
 35
0.0
146
0.0
 13
0.0
 23
0.0
 33
0.0
 16
1.0
 26
0.0
 36
0.0
 17
0.0
 27
1.0
 37
0.0
 76
     0
330
2
331
1728
1001
ACAD_PSEXT
1000
PDFCreator
1000
PDFCreator
1000
PDFCreator:
1000
eDoc Printer
1070
     0
  0
MATERIAL
  5
172B
102
{ACAD_XDICTIONARY
360
14D05
102
}
102
{ACAD_REACTORS
330
30
102
}
330
30
100
AcDbMaterial
  1
ByBlock
 73
     1
 78
     1
172
     1
176
     1
270
     1
274
     1
  0
MATERIAL
  5
172A
102
{ACAD_XDICTIONARY
360
14D03
102
}
102
{ACAD_REACTORS
330
30
102
}
330
30
100
AcDbMaterial
  1
ByLayer
 73
     1
 78
     1
172
     1
176
     1
270
     1
274
     1
  0
MATERIAL
  5
172C
102
{ACAD_XDICTIONARY
360
14D07
102
}
102
{ACAD_REACTORS
330
30
102
}
330
30
100
AcDbMaterial
  1
Global
 73
     1
 78
     1
172
     1
176
     1
270
     1
274
     1
  0
MLEADERSTYLE
  5
12E1C
102
{ACAD_REACTORS
330
12E1B
102
}
330
12E1B
100
AcDbMLeaderStyle
170
     2
171
     1
172
     0
 90
        2
 40
0.0
 41
0.0
173
     1
 91
-1056964608
340
18
 92
       -2
290
     1
 42
0.09
291
     1
 43
0.36
  3
Standard
 44
0.18
300

342
15
174
     1
178
     6
175
     1
176
     0
 93
-1056964608
 45
0.18
292
     0
297
     0
 46
0.18
 94
-1056964608
 47
1.0
 49
1.0
140
1.0
293
     1
141
0.0
294
     1
177
     0
142
1.0
295
     0
296
     0
143
0.125
1001
ACAD_MLEADERVER
1070
     2
  0
MLINESTYLE
  5
33
102
{ACAD_REACTORS
330
2E
102
}
330
2E
100
AcDbMlineStyle
  2
STANDARD
 70
     0
  3

 62
   256
 51
90.0
 52
90.0
 71
     2
 49
0.5
 62
   256
  6
BYLAYER
 49
-0.5
 62
   256
  6
BYLAYER
  0
ACDBPLACEHOLDER
  5
5
102
{ACAD_REACTORS
330
6
102
}
330
6
  0
SCALE
  5
12E0C
102
{ACAD_REACTORS
330
12E0B
102
}
330
12E0B
100
AcDbScale
 70
     0
300
1/64" = 1'-0"
140
0.015625
141
12.0
290
     0
  0
SCALE
  5
12E0D
102
{ACAD_REACTORS
330
12E0B
102
}
330
12E0B
100
AcDbScale
 70
     0
300
1/32" = 1'-0"
140
0.03125
141
12.0
290
     0
  0
SCALE
  5
12E0E
102
{ACAD_REACTORS
330
12E0B
102
}
330
12E0B
100
AcDbScale
 70
     0
300
1/16" = 1'-0"
140
0.0625
141
12.0
290
     0
  0
SCALE
  5
12E0F
102
{ACAD_REACTORS
330
12E0B
102
}
330
12E0B
100
AcDbScale
 70
     0
300
3/32" = 1'-0"
140
0.09375
141
12.0
290
     0
  0
SCALE
  5
12E10
102
{ACAD_REACTORS
330
12E0B
102
}
330
12E0B
100
AcDbScale
 70
     0
300
1/8" = 1'-0"
140
0.125
141
12.0
290
     0
  0
SCALE
  5
12E11
102
{ACAD_REACTORS
330
12E0B
102
}
330
12E0B
100
AcDbScale
 70
     0
300
3/16" = 1'-0"
140
0.1875
141
12.0
290
     0
  0
SCALE
  5
12E12
102
{ACAD_REACTORS
330
12E0B
102
}
330
12E0B
100
AcDbScale
 70
     0
300
1/4" = 1'-0"
140
0.25
141
12.0
290
     0
  0
SCALE
  5
12E13
102
{ACAD_REACTORS
330
12E0B
102
}
330
12E0B
100
AcDbScale
 70
     0
300
3/8" = 1'-0"
140
0.375
141
12.0
290
     0
  0
SCALE
  5
12E14
102
{ACAD_REACTORS
330
12E0B
102
}
330
12E0B
100
AcDbScale
 70
     0
300
1/2" = 1'-0"
140
0.5
141
12.0
290
     0
  0
SCALE
  5
12E15
102
{ACAD_REACTORS
330
12E0B
102
}
330
12E0B
100
AcDbScale
 70
     0
300
3/4" = 1'-0"
140
0.75
141
12.0
290
     0
  0
SCALE
  5
12E16
102
{ACAD_REACTORS
330
12E0B
102
}
330
12E0B
100
AcDbScale
 70
     0
300
1" = 1'-0"
140
1.0
141
12.0
290
     0
  0
SCALE
  5
12E17
102
{ACAD_REACTORS
330
12E0B
102
}
330
12E0B
100
AcDbScale
 70
     0
300
1 1/2" = 1'-0"
140
1.5
141
12.0
290
     0
  0
SCALE
  5
12E18
102
{ACAD_REACTORS
330
12E0B
102
}
330
12E0B
100
AcDbScale
 70
     0
300
3" = 1'-0"
140
3.0
141
12.0
290
     0
  0
SCALE
  5
12E19
102
{ACAD_REACTORS
330
12E0B
102
}
330
12E0B
100
AcDbScale
 70
     0
300
6" = 1'-0"
140
6.0
141
12.0
290
     0
  0
SCALE
  5
12E1A
102
{ACAD_REACTORS
330
12E0B
102
}
330
12E0B
100
AcDbScale
 70
     0
300
1'-0" = 1'-0"
140
12.0
141
12.0
290
     1
  0
TABLESTYLE
  5
DF3
102
{ACAD_XDICTIONARY
360
14A8E
102
}
102
{ACAD_REACTORS
330
DF2
102
}
330
DF2
100
AcDbTableStyle
  3
Standard
 70
     0
 71
     0
 40
0.06
 41
0.06
280
     0
281
     0
  7
Standard
140
0.18
170
     2
 62
     0
 63
     7
283
     0
274
    -2
284
     1
 64
     0
275
    -2
285
     1
 65
     0
276
    -2
286
     1
 66
     0
277
    -2
287
     1
 67
     0
278
    -2
288
     1
 68
     0
279
    -2
289
     1
 69
     0
  7
Standard
140
0.25
170
     5
 62
     0
 63
     7
283
     0
274
    -2
284
     1
 64
     0
275
    -2
285
     1
 65
     0
276
    -2
286
     1
 66
     0
277
    -2
287
     1
 67
     0
278
    -2
288
     1
 68
     0
279
    -2
289
     1
 69
     0
  7
Standard
140
0.18
170
     5
 62
     0
 63
     7
283
     0
274
    -2
284
     1
 64
     0
275
    -2
285
     1
 65
     0
276
    -2
286
     1
 66
     0
277
    -2
287
     1
 67
     0
278
    -2
288
     1
 68
     0
279
    -2
289
     1
 69
     0
  0
VISUALSTYLE
  5
1733
102
{ACAD_REACTORS
330
172D
102
}
330
172D
100
AcDbVisualStyle
  2
2dWireframe
 70
     4
 71
     0
 72
     2
 73
     0
 90
        0
 40
-0.6
 41
-30.0
 62
     5
 63
     7
 74
     1
 91
        4
 64
     7
 65
   257
 75
     1
175
     1
 42
1.0
 92
        0
 66
   257
 43
1.0
 76
     1
 77
     6
 78
     2
 67
     7
 79
     5
170
     0
171
     0
290
     0
174
     0
 93
        1
 44
0.0
173
     0
291
     0
 45
0.0
1001
ACAD
1000
AcDbSavedByObjectVersion
1070
     0
  0
VISUALSTYLE
  5
12DA2
102
{ACAD_REACTORS
330
172D
102
}
330
172D
100
AcDbVisualStyle
  2
3D Hidden
 70
     6
 71
     1
 72
     2
 73
     2
 90
        0
 40
-0.6
 41
-30.0
 62
     5
 63
     7
 74
     2
 91
        2
 64
     7
 65
   257
 75
     2
175
     1
 42
40.0
 92
        0
 66
   257
 43
1.0
 76
     1
 77
     6
 78
     2
 67
     7
 79
     3
170
     0
171
     0
290
     0
174
     0
 93
        1
 44
0.0
173
     0
291
     0
 45
0.0
1001
ACAD
1000
AcDbSavedByObjectVersion
1070
     0
  0
VISUALSTYLE
  5
12DA1
102
{ACAD_REACTORS
330
172D
102
}
330
172D
100
AcDbVisualStyle
  2
3dWireframe
 70
     5
 71
     0
 72
     2
 73
     0
 90
        0
 40
-0.6
 41
-30.0
 62
     5
 63
     7
 74
     1
 91
        4
 64
     7
 65
   257
 75
     1
175
     1
 42
1.0
 92
        0
 66
   257
 43
1.0
 76
     1
 77
     6
 78
     2
 67
     7
 79
     5
170
     0
171
     0
290
     0
174
     0
 93
        1
 44
0.0
173
     0
291
     0
 45
0.0
1001
ACAD
1000
AcDbSavedByObjectVersion
1070
     0
  0
VISUALSTYLE
  5
1732
102
{ACAD_REACTORS
330
172D
102
}
330
172D
100
AcDbVisualStyle
  2
Basic
 70
     7
 71
     1
 72
     0
 73
     1
 90
        0
 40
-0.6
 41
-30.0
 62
     5
 63
     7
 74
     0
 91
        4
 64
     7
 65
   257
 75
     1
175
     1
 42
1.0
 92
        8
 66
     7
 43
1.0
 76
     1
 77
     6
 78
     2
 67
     7
 79
     5
170
     0
171
     0
290
     0
174
     0
 93
        1
 44
0.0
173
     0
291
     1
 45
0.0
1001
ACAD
1000
AcDbSavedByObjectVersion
1070
     0
  0
VISUALSTYLE
  5
1739
102
{ACAD_REACTORS
330
172D
102
}
330
172D
100
AcDbVisualStyle
  2
Brighten
 70
    12
 71
     2
 72
     2
 73
     0
 90
        0
 40
-0.6
 41
-30.0
 62
     5
 63
     7
 74
     1
 91
        4
 64
     7
 65
   257
 75
     1
175
     1
 42
1.0
 92
        8
 66
     7
 43
1.0
 76
     1
 77
     6
 78
     2
 67
     7
 79
     5
170
     0
171
     0
290
     0
174
     0
 93
        1
 44
50.0
173
     0
291
     1
 45
0.0
1001
ACAD
1000
AcDbSavedByObjectVersion
1070
     0
  0
VISUALSTYLE
  5
173D
102
{ACAD_REACTORS
330
172D
102
}
330
172D
100
AcDbVisualStyle
  2
ColorChange
 70
    16
 71
     2
 72
     2
 73
     3
 90
        0
 40
-0.6
 41
-30.0
 62
     5
 63
     8
 74
     1
 91
        4
 64
     7
 65
   257
 75
     1
175
     1
 42
1.0
 92
        8
 66
     8
 43
1.0
 76
     1
 77
     6
 78
     2
 67
     7
 79
     5
170
     0
171
     0
290
     0
174
     0
 93
        1
 44
0.0
173
     0
291
     1
 45
0.0
1001
ACAD
1000
AcDbSavedByObjectVersion
1070
     0
  0
VISUALSTYLE
  5
12DA3
102
{ACAD_REACTORS
330
172D
102
}
330
172D
100
AcDbVisualStyle
  2
Conceptual
 70
     9
 71
     3
 72
     2
 73
     0
 90
        0
 40
-0.6
 41
-30.0
 62
     5
 63
     7
 74
     2
 91
        2
 64
     7
 65
   257
 75
     1
175
     1
 42
40.0
 92
        8
 66
     7
 43
1.0
 76
     1
 77
     6
 78
     2
 67
     7
 79
     3
170
     0
171
     0
290
     0
174
     0
 93
        1
 44
0.0
173
     0
291
     0
 45
0.0
1001
ACAD
1000
AcDbSavedByObjectVersion
1070
     0
  0
VISUALSTYLE
  5
1738
102
{ACAD_REACTORS
330
172D
102
}
330
172D
100
AcDbVisualStyle
  2
Dim
 70
    11
 71
     2
 72
     2
 73
     0
 90
        0
 40
-0.6
 41
-30.0
 62
     5
 63
     7
 74
     1
 91
        4
 64
     7
 65
   257
 75
     1
175
     1
 42
1.0
 92
        8
 66
     7
 43
1.0
 76
     1
 77
     6
 78
     2
 67
     7
 79
     5
170
     0
171
     0
290
     0
174
     0
 93
        1
 44
-50.0
173
     0
291
     1
 45
0.0
1001
ACAD
1000
AcDbSavedByObjectVersion
1070
     0
  0
VISUALSTYLE
  5
173C
102
{ACAD_REACTORS
330
172D
102
}
330
172D
100
AcDbVisualStyle
  2
Facepattern
 70
    15
 71
     2
 72
     2
 73
     0
 90
        0
 40
-0.6
 41
-30.0
 62
     5
 63
     7
 74
     1
 91
        4
 64
     7
 65
   257
 75
     1
175
     1
 42
1.0
 92
        8
 66
     7
 43
1.0
 76
     1
 77
     6
 78
     2
 67
     7
 79
     5
170
     0
171
     0
290
     0
174
     0
 93
        1
 44
0.0
173
     0
291
     1
 45
0.0
1001
ACAD
1000
AcDbSavedByObjectVersion
1070
     0
  0
VISUALSTYLE
  5
172E
102
{ACAD_REACTORS
330
172D
102
}
330
172D
100
AcDbVisualStyle
  2
Flat
 70
     0
 71
     2
 72
     1
 73
     1
 90
        2
 40
-0.6
 41
30.0
 62
     5
 63
     7
 74
     0
 91
        4
 64
     7
 65
   257
 75
     1
175
     1
 42
1.0
 92
        8
 66
     7
 43
1.0
 76
     1
 77
     6
 78
     2
 67
     7
 79
     5
170
     0
171
     0
290
     0
174
     0
 93
       13
 44
0.0
173
     0
291
     1
 45
0.0
1001
ACAD
1000
AcDbSavedByObjectVersion
1070
     0
  0
VISUALSTYLE
  5
172F
102
{ACAD_REACTORS
330
172D
102
}
330
172D
100
AcDbVisualStyle
  2
FlatWithEdges
 70
     1
 71
     2
 72
     1
 73
     1
 90
        2
 40
-0.6
 41
30.0
 62
     5
 63
     7
 74
     1
 91
        4
 64
     7
 65
   257
 75
     1
175
     1
 42
1.0
 92
        0
 66
   257
 43
1.0
 76
     1
 77
     6
 78
     2
 67
     7
 79
     5
170
     0
171
     0
290
     0
174
     0
 93
       13
 44
0.0
173
     0
291
     1
 45
0.0
1001
ACAD
1000
AcDbSavedByObjectVersion
1070
     0
  0
VISUALSTYLE
  5
1730
102
{ACAD_REACTORS
330
172D
102
}
330
172D
100
AcDbVisualStyle
  2
Gouraud
 70
     2
 71
     2
 72
     2
 73
     1
 90
        2
 40
-0.6
 41
30.0
 62
     5
 63
     7
 74
     0
 91
        4
 64
     7
 65
   257
 75
     1
175
     1
 42
1.0
 92
        0
 66
     7
 43
1.0
 76
     1
 77
     6
 78
     2
 67
     7
 79
     5
170
     0
171
     0
290
     0
174
     0
 93
       13
 44
0.0
173
     0
291
     1
 45
0.0
1001
ACAD
1000
AcDbSavedByObjectVersion
1070
     0
  0
VISUALSTYLE
  5
1731
102
{ACAD_REACTORS
330
172D
102
}
330
172D
100
AcDbVisualStyle
  2
GouraudWithEdges
 70
     3
 71
     2
 72
     2
 73
     1
 90
        2
 40
-0.6
 41
30.0
 62
     5
 63
     7
 74
     1
 91
        4
 64
     7
 65
   257
 75
     1
175
     1
 42
1.0
 92
        0
 66
   257
 43
1.0
 76
     1
 77
     6
 78
     2
 67
     7
 79
     5
170
     0
171
     0
290
     0
174
     0
 93
       13
 44
0.0
173
     0
291
     1
 45
0.0
1001
ACAD
1000
AcDbSavedByObjectVersion
1070
     0
  0
VISUALSTYLE
  5
173B
102
{ACAD_REACTORS
330
172D
102
}
330
172D
100
AcDbVisualStyle
  2
Linepattern
 70
    14
 71
     2
 72
     2
 73
     0
 90
        0
 40
-0.6
 41
-30.0
 62
     5
 63
     7
 74
     1
 91
        4
 64
     7
 65
   257
 75
     7
175
     7
 42
1.0
 92
        8
 66
     7
 43
1.0
 76
     1
 77
     6
 78
     2
 67
     7
 79
     5
170
     0
171
     0
290
     0
174
     0
 93
        1
 44
0.0
173
     0
291
     1
 45
0.0
1001
ACAD
1000
AcDbSavedByObjectVersion
1070
     0
  0
VISUALSTYLE
  5
12DA4
102
{ACAD_REACTORS
330
172D
102
}
330
172D
100
AcDbVisualStyle
  2
Realistic
 70
     8
 71
     2
 72
     2
 73
     0
 90
        0
 40
-0.6
 41
-30.0
 62
     5
 63
     7
 74
     1
 91
        0
 64
     7
 65
   257
 75
     1
175
     1
 42
1.0
 92
        8
 66
     8
 43
1.0
 76
     1
 77
     6
 78
     2
 67
     7
 79
     5
170
     0
171
     0
290
     0
174
     0
 93
       13
 44
0.0
173
     0
291
     0
 45
0.0
1001
ACAD
1000
AcDbSavedByObjectVersion
1070
     0
  0
VISUALSTYLE
  5
173A
102
{ACAD_REACTORS
330
172D
102
}
330
172D
100
AcDbVisualStyle
  2
Thicken
 70
    13
 71
     2
 72
     2
 73
     0
 90
        0
 40
-0.6
 41
-30.0
 62
     5
 63
     7
 74
     1
 91
        4
 64
     7
 65
   257
 75
     1
175
     1
 42
1.0
 92
       12
 66
     7
 43
1.0
 76
     1
 77
     6
 78
     2
 67
     7
 79
     5
170
     0
171
     0
290
     0
174
     0
 93
        1
 44
0.0
173
     0
291
     1
 45
0.0
1001
ACAD
1000
AcDbSavedByObjectVersion
1070
     0
  0
DICTIONARY
  5
830A
102
{ACAD_REACTORS
330
8309
102
}
330
8309
100
AcDbDictionary
280
     1
281
     1
  3
Standards
360
830B
  0
DICTIONARYVAR
  5
14A93
102
{ACAD_REACTORS
330
E04
102
}
330
E04
100
DictionaryVariables
280
     0
  1
1/8" = 1'-0"
  0
DICTIONARYVAR
  5
14A91
102
{ACAD_REACTORS
330
E04
102
}
330
E04
100
DictionaryVariables
280
     0
  1
STANDARD
  0
DICTIONARYVAR
  5
E05
102
{ACAD_REACTORS
330
E04
102
}
330
E04
100
DictionaryVariables
280
     0
  1
STANDARD
  0
DICTIONARYVAR
  5
14CFB
102
{ACAD_REACTORS
330
E04
102
}
330
E04
100
DictionaryVariables
280
     0
  1
1
  0
DICTIONARYVAR
  5
14CFA
102
{ACAD_REACTORS
330
E04
102
}
330
E04
100
DictionaryVariables
280
     0
  1
1
  0
DICTIONARYVAR
  5
14CF9
102
{ACAD_REACTORS
330
E04
102
}
330
E04
100
DictionaryVariables
280
     0
  1
0
  0
DICTIONARYVAR
  5
14A95
102
{ACAD_REACTORS
330
E04
102
}
330
E04
100
DictionaryVariables
280
     0
  1
1
  0
DICTIONARYVAR
  5
14A96
102
{ACAD_REACTORS
330
E04
102
}
330
E04
100
DictionaryVariables
280
     0
  1
15
  0
DICTIONARYVAR
  5
14A94
102
{ACAD_REACTORS
330
E04
102
}
330
E04
100
DictionaryVariables
280
     0
  1
0
  0
DICTIONARYVAR
  5
14A92
102
{ACAD_REACTORS
330
E04
102
}
330
E04
100
DictionaryVariables
280
     0
  1
0
  0
DICTIONARYVAR
  5
14CF8
102
{ACAD_REACTORS
330
E04
102
}
330
E04
100
DictionaryVariables
280
     0
  1
127
  0
XRECORD
  5
14BA8
102
{ACAD_REACTORS
330
14BA7
102
}
330
14BA7
100
AcDbXrecord
280
     1
330
14903
330
14904
330
14AF4
330
14AF5
330
14B56
330
14B57
330
14B5E
330
14B5F
330
14B76
330
14B77
330
14B81
330
14B82
330
14BA1
330
14BA2
330
14CD7
330
14CD8
330
14CDE
330
14CDF
330
14CC0
330
14CC1
330
14CCE
330
14CCF
  0
XRECORD
  5
14CE5
102
{ACAD_REACTORS
330
41C3
102
}
330
41C3
100
AcDbXrecord
280
     1
 40
0.000001
  0
XRECORD
  5
14CE8
102
{ACAD_REACTORS
330
41C3
102
}
330
41C3
100
AcDbXrecord
280
     1
 70
     0
  0
XRECORD
  5
14CE7
102
{ACAD_REACTORS
330
41C3
102
}
330
41C3
100
AcDbXrecord
280
     1
 70
     0
  0
XRECORD
  5
14CE6
102
{ACAD_REACTORS
330
41C3
102
}
330
41C3
100
AcDbXrecord
280
     1
 70
     0
  0
DICTIONARY
  5
14D00
330
10
100
AcDbDictionary
280
     1
281
     1
  3
ACAD_XREC_ROUNDTRIP
360
14D01
  0
DICTIONARY
  5
14CFE
330
A
100
AcDbDictionary
280
     1
281
     1
  3
ACAD_XREC_ROUNDTRIP
360
14CFF
  0
DICTIONARY
  5
14D05
330
172B
100
AcDbDictionary
280
     1
281
     1
  3
ACAD_XREC_ROUNDTRIP
360
14D06
  0
DICTIONARY
  5
14D03
330
172A
100
AcDbDictionary
280
     1
281
     1
  3
ACAD_XREC_ROUNDTRIP
360
14D04
  0
DICTIONARY
  5
14D07
330
172C
100
AcDbDictionary
280
     1
281
     1
  3
ACAD_XREC_ROUNDTRIP
360
14D08
  0
DICTIONARY
  5
14A8E
330
DF3
100
AcDbDictionary
280
     1
281
     1
  3
ACAD_ROUNDTRIP_2008_TABLESTYLE_CELLSTYLEMAP
360
14CFC
  3
ACAD_XREC_ROUNDTRIP
360
14D02
  0
BINRECORD
  5
830B
102
{ACAD_REACTORS
330
830A
102
}
330
830A
100
AcAecBinRecord
 90
        0
 91
    19403
 70
     0
310
0100FFFEFF0D4100490041002000560065007200730069006F006E00200033000500FFFF01001C004163416563556B4C6179657244657363726970746976654669656C64FFFEFF154400690073006300690070006C0069006E0065002000440065007300690067006E00610074006F0072000102000000007B333637354541
310
46100100002100000070BA406CD0EA76040B00FFFEFF001500FFFEFF01440002000000FFFEFF07500072006F0063006500730073000E00FFFEFF01440002000000FFFEFF12500072006F0063006500730073002000440065006D006F006C006900740069006F006E00000000000000FFFEFF01560002000000FFFEFF0E5000
310
72006F0063006500730073002000560061006300750075006D00000000000000FFFEFF01450002000000FFFEFF12500072006F006300650073007300200045006C0065006300740072006900630061006C00000000000000FFFEFF01570002000000FFFEFF0E500072006F0063006500730073002000570061007400650072
310
007300000000000000FFFEFF01580002000000FFFEFF0F500072006F00630065007300730020004500780068006100750073007400000000000000FFFEFF01470002000000FFFEFF0D500072006F006300650073007300200047006100730065007300000000000000FFFEFF014F0002000000FFFEFF0B500072006F006300
310
65007300730020004F0069006C00000000000000FFFEFF01500002000000FFFEFF0E500072006F006300650073007300200050006900700069006E006700000000000000FFFEFF01510002000000FFFEFF11500072006F0063006500730073002000450071007500690070006D0065006E007400000000000000FFFEFF0152
310
0002000000FFFEFF19500072006F006300650073007300200044007200610069006E0073002000260020005200650063006C00610069006D007300000000000000FFFEFF01410002000000FFFEFF0C500072006F00630065007300730020004100690072007300000000000000FFFEFF01530002000000FFFEFF0C50007200
310
6F00630065007300730020005300690074006500000000000000FFFEFF01540002000000FFFEFF18500072006F006300650073007300200045006E0074007200610069006E0065006400200053006F006C00690064007300000000000000FFFEFF01430002000000FFFEFF11500072006F0063006500730073002000430068
310
0065006D006900630061006C00730000000000000000000000FFFEFF01560002000000FFFEFF1053007500720076006500790020002F0020004D0061007000700069006E0067000500FFFEFF01460002000000FFFEFF0C4600690065006C0064002000530075007200760065007900000000000000FFFEFF01490002000000
310
FFFEFF0E4400690067006900740061006C002000530075007200760065007900000000000000FFFEFF014A0002000000FFFEFF1F53007500720076006500790020002F0020004D0061007000700069006E006700200028005500730065007200200044006500660069006E00650064002900000000000000FFFEFF014B0002
310
000000FFFEFF1F53007500720076006500790020002F0020004D0061007000700069006E006700200028005500730065007200200044006500660069006E00650064002900000000000000FFFEFF01410002000000FFFEFF0D410065007200690061006C00200053007500720076006500790000000000000000000000FFFE
310
FF01450002000000FFFEFF0A45006C0065006300740072006900630061006C000900FFFEFF01440002000000FFFEFF1545006C0065006300740072006900630061006C002000440065006D006F006C006900740069006F006E00000000000000FFFEFF01590002000000FFFEFF1C45006C0065006300740072006900630061
310
006C00200041007500780069006C0069006100720079002000530079007300740065006D007300000000000000FFFEFF01490002000000FFFEFF1A45006C0065006300740072006900630061006C00200049006E0073007400720075006D0065006E0074006100740069006F006E00000000000000FFFEFF014A0002000000
310
FFFEFF1945006C0065006300740072006900630061006C00200028005500730065007200200044006500660069006E00650064002900000000000000FFFEFF014B0002000000FFFEFF1945006C0065006300740072006900630061006C00200028005500730065007200200044006500660069006E00650064002900000000
310
000000FFFEFF014C0002000000FFFEFF1345006C0065006300740072006900630061006C0020004C00690067006800740069006E006700000000000000FFFEFF01500002000000FFFEFF1045006C0065006300740072006900630061006C00200050006F00770065007200000000000000FFFEFF01530002000000FFFEFF0F
310
45006C0065006300740072006900630061006C0020005300690074006500000000000000FFFEFF01540002000000FFFEFF1D45006C0065006300740072006900630061006C002000540065006C00650063006F006D006D0075006E00690063006100740069006F006E00730000000000000000000000FFFEFF015700020000
310
00FFFEFF0B43006900760069006C00200057006F0072006B0073000200FFFEFF014A0002000000FFFEFF1A43006900760069006C00200057006F0072006B007300200028005500730065007200200044006500660069006E00650064002900000000000000FFFEFF014B0002000000FFFEFF1A43006900760069006C002000
310
57006F0072006B007300200028005500730065007200200044006500660069006E0065006400290000000000000000000000FFFEFF01460002000000FFFEFF0F46006900720065002000500072006F00740065006300740069006F006E000400FFFEFF014A0002000000FFFEFF134600690072006500200028005500730065
310
007200200044006500660069006E00650064002900000000000000FFFEFF014B0002000000FFFEFF134600690072006500200028005500730065007200200044006500660069006E00650064002900000000000000FFFEFF01410002000000FFFEFF184600690072006500200044006500740065006300740069006F006E00
310
200061006E006400200041006C00610072006D00000000000000FFFEFF01530002000000FFFEFF10460069007200650020005300750070007000720065007300730069006F006E0000000000000000000000FFFEFF01470002000000FFFEFF07470065006E006500720061006C000500FFFEFF01490002000000FFFEFF1347
310
0065006E006500720061006C00200049006E0066006F0072006D006100740069006F006E00000000000000FFFEFF014A0002000000FFFEFF16470065006E006500720061006C00200028005500730065007200200044006500660069006E00650064002900000000000000FFFEFF014B0002000000FFFEFF16470065006E00
310
6500720061006C00200028005500730065007200200044006500660069006E00650064002900000000000000FFFEFF01520002000000FFFEFF10470065006E006500720061006C0020005200650073006F007500720063006500000000000000FFFEFF01430002000000FFFEFF13470065006E006500720061006C00200043
310
006F006E0074007200610063007400750061006C0000000000000000000000FFFEFF01580002000000FFFEFF114F00740068006500720020004400690073006300690070006C0069006E00650073000200FFFEFF014A0002000000FFFEFF204F00740068006500720020004400690073006300690070006C0069006E006500
310
7300200028005500730065007200200044006500660069006E00650064002900000000000000FFFEFF014B0002000000FFFEFF204F00740068006500720020004400690073006300690070006C0069006E0065007300200028005500730065007200200044006500660069006E0065006400290000000000000000000000FF
310
FEFF01480002000000FFFEFF13480061007A006100720064006F007500730020004D006100740065007200690061006C0073000700FFFEFF014A0002000000FFFEFF22480061007A006100720064006F007500730020004D006100740065007200690061006C00730020002800550073006500720020004400650066006900
310
6E00650064002900000000000000FFFEFF014B0002000000FFFEFF22480061007A006100720064006F007500730020004D006100740065007200690061006C007300200028005500730065007200200044006500660069006E00650064002900000000000000FFFEFF014C0002000000FFFEFF044C00650061006400000000
310
000000FFFEFF01500002000000FFFEFF03500043004200000000000000FFFEFF01520002000000FFFEFF0C5200650066007200690067006500720061006E0074007300000000000000FFFEFF01410002000000FFFEFF084100730062006500730074006F007300000000000000FFFEFF01430002000000FFFEFF0943006800
310
65006D006900630061006C00730000000000000000000000FFFEFF01490002000000FFFEFF0949006E0074006500720069006F00720073000600FFFEFF01440002000000FFFEFF1349006E0074006500720069006F0072002000440065006D006F006C006900740069006F006E00000000000000FFFEFF01460002000000FF
310
FEFF1149006E0074006500720069006F0072002000460069006E0069007300680065007300000000000000FFFEFF01470002000000FFFEFF1249006E0074006500720069006F0072007300200047007200610070006800690063007300000000000000FFFEFF014A0002000000FFFEFF1849006E0074006500720069006F00
310
72007300200028005500730065007200200044006500660069006E00650064002900000000000000FFFEFF014B0002000000FFFEFF1849006E0074006500720069006F0072007300200028005500730065007200200044006500660069006E00650064002900000000000000FFFEFF014E0002000000FFFEFF0F49006E0074
310
006500720069006F0072002000440065007300690067006E0000000000000000000000FFFEFF015A0002000000FFFEFF1A43006F006E00740072006100630074006F00720020002F002000530068006F0070002000440072006100770069006E00670073000200FFFEFF014A0002000000FFFEFF2943006F006E0074007200
310
6100630074006F00720020002F002000530068006F0070002000440072006100770069006E0067007300200028005500730065007200200044006500660069006E00650064002900000000000000FFFEFF014B0002000000FFFEFF2943006F006E00740072006100630074006F00720020002F002000530068006F00700020
310
00440072006100770069006E0067007300200028005500730065007200200044006500660069006E0065006400290000000000000000000000FFFEFF014C0002000000FFFEFF094C0061006E006400730063006100700065000500FFFEFF01440002000000FFFEFF144C0061006E0064007300630061007000650020004400
310
65006D006F006C006900740069006F006E00000000000000FFFEFF01490002000000FFFEFF144C0061006E006400730063006100700065002000490072007200690067006100740069006F006E00000000000000FFFEFF014A0002000000FFFEFF184C0061006E006400730063006100700065002000280055007300650072
310
00200044006500660069006E00650064002900000000000000FFFEFF014B0002000000FFFEFF184C0061006E00640073006300610070006500200028005500730065007200200044006500660069006E00650064002900000000000000FFFEFF01500002000000FFFEFF124C0061006E006400730063006100700065002000
310
50006C0061006E00740069006E00670000000000000000000000FFFEFF014D0002000000FFFEFF0A4D0065006300680061006E006900630061006C000700FFFEFF01440002000000FFFEFF154D0065006300680061006E006900630061006C002000440065006D006F006C006900740069006F006E00000000000000FFFEFF
310
01480002000000FFFEFF0F4D0065006300680061006E006900630061006C0020004800560041004300000000000000FFFEFF01490002000000FFFEFF1A4D0065006300680061006E006900630061006C00200049006E0073007400720075006D0065006E0074006100740069006F006E00000000000000FFFEFF014A000200
310
0000FFFEFF194D0065006300680061006E006900630061006C00200028005500730065007200200044006500660069006E00650064002900000000000000FFFEFF014B0002000000FFFEFF194D0065006300680061006E006900630061006C00200028005500730065007200200044006500660069006E0065006400290000
310
0000000000FFFEFF01500002000000FFFEFF114D0065006300680061006E006900630061006C00200050006900700069006E006700000000000000FFFEFF01530002000000FFFEFF0F4D0065006300680061006E006900630061006C002000530069007400650000000000000000000000FFFEFF014F0002000000FFFEFF0A
310
4F007000650072006100740069006F006E0073000200FFFEFF014A0002000000FFFEFF194F007000650072006100740069006F006E007300200028005500730065007200200044006500660069006E00650064002900000000000000FFFEFF014B0002000000FFFEFF194F007000650072006100740069006F006E00730020
310
0028005500730065007200200044006500660069006E0065006400290000000000000000000000FFFEFF01500002000000FFFEFF0850006C0075006D00620069006E0067000600FFFEFF01440002000000FFFEFF1350006C0075006D00620069006E0067002000440065006D006F006C006900740069006F006E0000000000
310
0000FFFEFF014A0002000000FFFEFF1750006C0075006D00620069006E006700200028005500730065007200200044006500660069006E00650064002900000000000000FFFEFF014B0002000000FFFEFF1750006C0075006D00620069006E006700200028005500730065007200200044006500660069006E006500640029
310
00000000000000FFFEFF01500002000000FFFEFF0F50006C0075006D00620069006E006700200050006900700069006E006700000000000000FFFEFF01510002000000FFFEFF1250006C0075006D00620069006E0067002000450071007500690070006D0065006E007400000000000000FFFEFF01530002000000FFFEFF0D
310
50006C0075006D00620069006E0067002000530069007400650000000000000000000000FFFEFF01510002000000FFFEFF09450071007500690070006D0065006E0074001100FFFEFF01440002000000FFFEFF1344006500740065006E00740069006F006E002000450071007500690070006D0065006E0074000000000000
310
00FFFEFF01560002000000FFFEFF1C56006900640065006F002F00500068006F0074006F0067007200610070006800690063002000450071007500690070006D0065006E007400000000000000FFFEFF01450002000000FFFEFF1545006400750063006100740069006F006E0061006C002000450071007500690070006D00
310
65006E007400000000000000FFFEFF01460002000000FFFEFF1646006F006F006400200053006500720076006900630065002000450071007500690070006D0065006E007400000000000000FFFEFF01590002000000FFFEFF12530065006300750072006900740079002000450071007500690070006D0065006E00740000
310
0000000000FFFEFF01480002000000FFFEFF1248006F00730070006900740061006C002000450071007500690070006D0065006E007400000000000000FFFEFF014A0002000000FFFEFF18450071007500690070006D0065006E007400200028005500730065007200200044006500660069006E0065006400290000000000
310
0000FFFEFF014B0002000000FFFEFF18450071007500690070006D0065006E007400200028005500730065007200200044006500660069006E00650064002900000000000000FFFEFF014C0002000000FFFEFF144C00610062006F007200610074006F00720079002000450071007500690070006D0065006E007400000000
310
000000FFFEFF014D0002000000FFFEFF154D00610069006E00740065006E0061006E00630065002000450071007500690070006D0065006E007400000000000000FFFEFF01500002000000FFFEFF155000610072006B0069006E00670020004C006F0074002000450071007500690070006D0065006E007400000000000000
310
FFFEFF01520002000000FFFEFF10520065007400610069006C002000450071007500690070006D0065006E007400000000000000FFFEFF01410002000000FFFEFF124100740068006C0065007400690063002000450071007500690070006D0065006E007400000000000000FFFEFF01530002000000FFFEFF0E5300690074
310
0065002000450071007500690070006D0065006E007400000000000000FFFEFF01420002000000FFFEFF0E420061006E006B002000450071007500690070006D0065006E007400000000000000FFFEFF01540002000000FFFEFF145400680065006100740072006900630061006C002000450071007500690070006D006500
310
6E007400000000000000FFFEFF01430002000000FFFEFF16440072007900200043006C00650061006E0069006E0067002000450071007500690070006D0065006E00740000000000000000000000FFFEFF01410002000000FFFEFF0D4100720063006800690074006500630074007500720061006C000A00FFFEFF01440002
310
000000FFFEFF184100720063006800690074006500630074007500720061006C002000440065006D006F006C006900740069006F006E00000000000000FFFEFF01450002000000FFFEFF164100720063006800690074006500630074007500720061006C00200045006C0065006D0065006E0074007300000000000000FFFE
310
FF01460002000000FFFEFF164100720063006800690074006500630074007500720061006C002000460069006E0069007300680065007300000000000000FFFEFF01470002000000FFFEFF164100720063006800690074006500630074007500720061006C00200047007200610070006800690063007300000000000000FF
310
FEFF01490002000000FFFEFF164100720063006800690074006500630074007500720061006C00200049006E0074006500720069006F007200000000000000FFFEFF014A0002000000FFFEFF1C4100720063006800690074006500630074007500720061006C00200028005500730065007200200044006500660069006E00
310
650064002900000000000000FFFEFF014B0002000000FFFEFF1C4100720063006800690074006500630074007500720061006C00200028005500730065007200200044006500660069006E00650064002900000000000000FFFEFF01500002000000FFFEFF144100720063006800690074006500630074007500720061006C
310
00200050006100760069006E006700000000000000FFFEFF01530002000000FFFEFF124100720063006800690074006500630074007500720061006C0020005300690074006500000000000000FFFEFF01540002000000FFFEFF1C4100720063006800690074006500630074007500720061006C0020005400720061006E00
310
730070006F00720074006100740069006F006E0000000000000001000000FFFEFF01520002000000FFFEFF085200650073006F0075007200630065000700FFFEFF01450002000000FFFEFF135200650073006F007500720063006500200045006C0065006300740072006900630061006C00000000000000FFFEFF014A0002
310
000000FFFEFF175200650073006F007500720063006500200028005500730065007200200044006500660069006E00650064002900000000000000FFFEFF014B0002000000FFFEFF175200650073006F007500720063006500200028005500730065007200200044006500660069006E00650064002900000000000000FFFE
310
FF014D0002000000FFFEFF135200650073006F00750072006300650020004D0065006300680061006E006900630061006C00000000000000FFFEFF01410002000000FFFEFF165200650073006F00750072006300650020004100720063006800690074006500630074007500720061006C00000000000000FFFEFF01530002
310
000000FFFEFF135200650073006F00750072006300650020005300740072007500630074007500720061006C00000000000000FFFEFF01430002000000FFFEFF0E5200650073006F007500720063006500200043006900760069006C0000000000000000000000FFFEFF01420002000000FFFEFF0C470065006F0074006500
310
630068006E006900630061006C000200FFFEFF014A0002000000FFFEFF1B470065006F0074006500630068006E006900630061006C00200028005500730065007200200044006500660069006E00650064002900000000000000FFFEFF014B0002000000FFFEFF1B470065006F0074006500630068006E006900630061006C
310
00200028005500730065007200200044006500660069006E0065006400290000000000000000000000FFFEFF01530002000000FFFEFF0A5300740072007500630074007500720061006C000600FFFEFF01440002000000FFFEFF155300740072007500630074007500720061006C002000440065006D006F006C0069007400
310
69006F006E00000000000000FFFEFF01460002000000FFFEFF125300740072007500630074007500720061006C0020004600720061006D0069006E006700000000000000FFFEFF014A0002000000FFFEFF195300740072007500630074007500720061006C00200028005500730065007200200044006500660069006E0065
310
0064002900000000000000FFFEFF014B0002000000FFFEFF195300740072007500630074007500720061006C00200028005500730065007200200044006500660069006E00650064002900000000000000FFFEFF01530002000000FFFEFF0F5300740072007500630074007500720061006C00200053006900740065000000
310
00000000FFFEFF01420002000000FFFEFF175300740072007500630074007500720061006C00200053007500620073007400720075006300740075007200650000000000000000000000FFFEFF01430002000000FFFEFF0543006900760069006C000900FFFEFF01440002000000FFFEFF1043006900760069006C00200044
310
0065006D006F006C006900740069006F006E00000000000000FFFEFF01550002000000FFFEFF0F43006900760069006C0020005500740069006C0069007400690065007300000000000000FFFEFF01470002000000FFFEFF0D43006900760069006C002000470072006100640069006E006700000000000000FFFEFF014900
310
02000000FFFEFF1243006900760069006C00200049006D00700072006F00760065006D0065006E0074007300000000000000FFFEFF014A0002000000FFFEFF1443006900760069006C00200028005500730065007200200044006500660069006E00650064002900000000000000FFFEFF014B0002000000FFFEFF14430069
310
00760069006C00200028005500730065007200200044006500660069006E00650064002900000000000000FFFEFF01500002000000FFFEFF0C43006900760069006C00200050006100760069006E006700000000000000FFFEFF01530002000000FFFEFF0A43006900760069006C0020005300690074006500000000000000
310
FFFEFF01540002000000FFFEFF1443006900760069006C0020005400720061006E00730070006F00720074006100740069006F006E0000000000000000000000FFFEFF01540002000000FFFEFF12540065006C00650063006F006D006D0075006E00690063006100740069006F006E0073000900FFFEFF01590002000000FF
310
FEFF0853006500630075007200690074007900000000000000FFFEFF01490002000000FFFEFF0849006E0074006500720063006F006D00000000000000FFFEFF014A0002000000FFFEFF21540065006C00650063006F006D006D0075006E00690063006100740069006F006E00730020002800550073006500720020004400
310
6500660069006E00650064002900000000000000FFFEFF014B0002000000FFFEFF21540065006C00650063006F006D006D0075006E00690063006100740069006F006E007300200028005500730065007200200044006500660069006E00650064002900000000000000FFFEFF014D0002000000FFFEFF0A4D006F006E0069
310
0074006F00720069006E006700000000000000FFFEFF014E0002000000FFFEFF0D440061007400610020004E006500740077006F0072006B007300000000000000FFFEFF01410002000000FFFEFF0E41007500640069006F0020002F002000560069007300750061006C00000000000000FFFEFF01540002000000FFFEFF09
310
540065006C006500700068006F006E006500000000000000FFFEFF01430002000000FFFEFF1143006C006F0063006B00200061006E0064002000500072006F006700720061006D00000000000000000000000180FFFEFF054D0061006A006F0072000300000000000000000000000000000000000000000000000000000000
310
000000FFFEFF002300FFFEFF052D0046006C006F00720002000000FFFEFF0546006C006F006F007200000000000000FFFEFF052D004500710070006D0002000000FFFEFF09450071007500690070006D0065006E007400000000000000FFFEFF052D00530069007400650002000000FFFEFF09530069007400650020007000
310
6C0061006E00000000000000FFFEFF052D0050006C0061006E0002000000FFFEFF154B0065007900200070006C0061006E002000280066006C006F006F007200200070006C0061006E002900000000000000FFFEFF052D004400650074006C0002000000FFFEFF06440065007400610069006C00000000000000FFFEFF052D
310
0054006F0070006F0002000000FFFEFF0A54006F0070006F00670072006100700068007900000000000000FFFEFF052D004300740072006C0002000000FFFEFF0E43006F006E00740072006F006C00200050006F0069006E0074007300000000000000FFFEFF052D004600750072006E0002000000FFFEFF0B460075007200
310
6E0069007300680069006E0067007300000000000000FFFEFF052D0053006C006100620002000000FFFEFF0553006C00610062007300000000000000FFFEFF052D0050006F006C00790002000000FFFEFF0850006F006C00790067006F006E007300000000000000FFFEFF052D0043006F006D006D0002000000FFFEFF1254
310
0065006C00650063006F006D006D0075006E00690063006100740069006F006E007300000000000000FFFEFF052D00570061006C006C0002000000FFFEFF05570061006C006C007300000000000000FFFEFF052D0047006C0061007A0002000000FFFEFF0747006C0061007A0069006E006700000000000000FFFEFF052D00
310
410072006500610002000000FFFEFF044100720065006100000000000000FFFEFF052D0043006F006400650002000000FFFEFF1443006F0064006500200063006F006D0070006C00690061006E0063006500200070006C0061006E00000000000000FFFEFF052D005300740072006D0002000000FFFEFF0844007200610069
310
006E00610067006500000000000000FFFEFF052D0044006F006F00720002000000FFFEFF0544006F006F0072007300000000000000FFFEFF052D0041006E006E006F0002000000FFFEFF0A41006E006E006F0074006100740069006F006E00000000000000FFFEFF052D004200650061006D0002000000FFFEFF0542006500
310
61006D007300000000000000FFFEFF052D004C0069007400650002000000FFFEFF114C00690067006800740069006E006700200066006900780074007500720065007300000000000000FFFEFF052D00480056004100430002000000FFFEFF044800560041004300000000000000FFFEFF052D004100630063007300020000
310
00FFFEFF0B410063006300650073007300200070006C0061006E00000000000000FFFEFF052D0043006F006C00730002000000FFFEFF0743006F006C0075006D006E007300000000000000FFFEFF052D0043006C006E00670002000000FFFEFF074300650069006C0069006E006700000000000000FFFEFF052D0045007600
310
6100630002000000FFFEFF0F450076006100630075006100740069006F006E00200070006C0061006E00000000000000FFFEFF052D0043006F006E00760002000000FFFEFF1143006F006E0076006500790069006E0067002000730079007300740065006D007300000000000000FFFEFF052D005300650063007400020000
310
00FFFEFF07530065006300740069006F006E00000000000000FFFEFF052D00500072006F00700002000000FFFEFF08500072006F0070006500720074007900000000000000FFFEFF052D0052006F006F00660002000000FFFEFF0452006F006F006600000000000000FFFEFF052D0045006C006500630002000000FFFEFF0A
310
45006C0065006300740072006900630061006C00000000000000FFFEFF052D00470072006900640002000000FFFEFF0A470072006900640020006C0069006E0065007300000000000000FFFEFF052D00540069006E006E0002000000FFFEFF1E54007200690061006E00670075006C00610074006500640020006900720072
310
006500670075006C006100720020006E006500740077006F0072006B00000000000000FFFEFF052D00500072006F00740002000000FFFEFF1646006900720065002000700072006F00740065006300740069006F006E002000730079007300740065006D00000000000000FFFEFF052D00460069007200650002000000FFFE
310
FF1446006900720065002000700072006F00740065006300740069006F006E00200070006C0061006E00000000000000FFFEFF052D0045006C006500760002000000FFFEFF0945006C00650076006100740069006F006E000000000000000180FFFEFF074D0069006E006F00720020003100040000000000000000F00E7704
310
00000000000000000000000000000000F00000FFFEFF006A00FFFEFF052D00410062006F00760002000000FFFEFF0E45006C0065006D0065006E00740073002000610062006F0076006500000000000000FFFEFF052D005400610062006C0002000000FFFEFF0B440061007400610020007400610062006C00650073000000
310
00000000FFFEFF052D00420064007200790002000000FFFEFF0842006F0075006E006400610072007900000000000000FFFEFF052D004500710070006D0002000000FFFEFF09450071007500690070006D0065006E007400000000000000FFFEFF052D0043006E007400720002000000FFFEFF0A430065006E007400650072
310
006C0069006E006500000000000000FFFEFF052D0057006B007300660002000000FFFEFF1E530079007300740065006D00200077006F0072006B0020007300750072006600610063006500200063006F006D0070006F006E0065006E0074007300000000000000FFFEFF052D00420072006E00670002000000FFFEFF1A4200
310
65006100720069006E0067007300200026002000640069007300740061006E006300650020006C006100620065006C007300000000000000FFFEFF052D00530077006300680002000000FFFEFF0853007700690074006300680065007300000000000000FFFEFF052D005400680069006E0002000000FFFEFF195400680069
310
006E0020007700650069006700680074002000670072006100700068006900630020006C0069006E0065007300000000000000FFFEFF052D00520061006900730002000000FFFEFF06520061006900730065006400000000000000FFFEFF052D004F00700065006E0002000000FFFEFF084F00700065006E0069006E006700
310
7300000000000000FFFEFF052D004E0070006C00740002000000FFFEFF204E006F006E002D0070006C006F007400740069006E00670020006700720061007000680069006300200069006E0066006F0072006D006100740069006F006E00000000000000FFFEFF052D00500072006F00660002000000FFFEFF08500072006F
310
00660069006C0065007300000000000000FFFEFF052D005200650066006C0002000000FFFEFF0E5200650066006C0065006300740065006400200050006C0061006E00000000000000FFFEFF052D00460069006E00650002000000FFFEFF19460069006E006500200077006500690067006800740020006700720061007000
310
68006900630020006C0069006E0065007300000000000000FFFEFF052D004100700070006C0002000000FFFEFF0A4100700070006C00690061006E00630065007300000000000000FFFEFF052D00440069006D00730002000000FFFEFF0A440069006D0065006E00730069006F006E007300000000000000FFFEFF052D0050
310
006F007700720002000000FFFEFF0550006F00770065007200000000000000FFFEFF052D0053006C006100620002000000FFFEFF0553006C00610062007300000000000000FFFEFF052D0043006F006E006E0002000000FFFEFF0B43006F006E006E0065006300740069006F006E007300000000000000FFFEFF052D005700
310
61006C006C0002000000FFFEFF05570061006C006C007300000000000000FFFEFF052D004100730073006D0002000000FFFEFF0A41007300730065006D0062006C00690065007300000000000000FFFEFF052D005600680063006C0002000000FFFEFF08560065006800690063006C0065007300000000000000FFFEFF052D
310
0043006F006D006D0002000000FFFEFF1A540065006C006500700068006F006E0065002C00200063006F006D006D0075006E00690063006100740069006F006E0073002000000000000000FFFEFF052D00460072006500650002000000FFFEFF0C46007200650065007300740061006E00640069006E006700000000000000
310
FFFEFF052D00530079006D00620002000000FFFEFF07530079006D0062006F006C007300000000000000FFFEFF052D00520064006D00650002000000FFFEFF1B52006500610064002D006D00650020006C006100790065007200200028006E006F007400200070006C006F0074007400650064002900000000000000FFFEFF
310
052D0053006C006300650002000000FFFEFF0653006C006900630065007300000000000000FFFEFF052D00460061007300630002000000FFFEFF074600610073006300690061007300000000000000FFFEFF052D00460069006C00650002000000FFFEFF0D460069006C006500200063006100620069006E00650074007300
310
000000000000FFFEFF052D004D00610073006B0002000000FFFEFF1241004400540020004D00610073006B0069006E00670020004F0062006A00650063007400000000000000FFFEFF052D004A0061006D00620002000000FFFEFF1544006F006F007200200061006E0064002000770069006E0064006F00770020006A0061
310
006D0062007300000000000000FFFEFF052D005300690067006E0002000000FFFEFF055300690067006E007300000000000000FFFEFF052D0046006E007300680002000000FFFEFF08460069006E0069007300680065007300000000000000FFFEFF052D00530063006800640002000000FFFEFF0953006300680065006400
310
75006C0065007300000000000000FFFEFF052D00500072006800740002000000FFFEFF0E5000610072007400690061006C002000680065006900670068007400000000000000FFFEFF052D00470072007000730002000000FFFEFF06470072006F00750070007300000000000000FFFEFF052D00540068006C006400020000
310
00FFFEFF0A5400680072006500730068006F006C0064007300000000000000FFFEFF052D005300630072006E0002000000FFFEFF14530063007200650065006E006500640020004200610063006B00670072006F0075006E0064007300000000000000FFFEFF052D0043006F006D00700002000000FFFEFF1349006E007400
310
650072006E0061006C00200063006F006D0070006F006E0065006E0074007300000000000000FFFEFF052D005400690074006C0002000000FFFEFF18440072006100770069006E00670020006F0072002000640065007400610069006C0020007400690074006C0065007300000000000000FFFEFF052D0054006500780074
310
0002000000FFFEFF045400650078007400000000000000FFFEFF052D004D00610072006B0002000000FFFEFF1D4D00610072006B006500720073002C00200062007200650061006B0020006D00610072006B0073002C0020006C00650061006400650072007300000000000000FFFEFF052D00460075006C006C0002000000
310
FFFEFF0B460075006C006C002D00680065006900670068007400000000000000FFFEFF052D00450076007400720002000000FFFEFF1B45006C0065007600610074006F00720020006300610072007300200061006E0064002000650071007500690070006D0065006E007400000000000000FFFEFF052D0053007000630065
310
0002000000FFFEFF0553007000610063006500000000000000FFFEFF052D00530075007300700002000000FFFEFF12530075007300700065006E00640065006400200065006C0065006D0065006E0074007300000000000000FFFEFF052D00540065006500730002000000FFFEFF094D00610069006E002000740065006500
310
7300000000000000FFFEFF052D00460069007800740002000000FFFEFF1170006C0075006D00620069006E006700200066006900780074007500720065007300000000000000FFFEFF052D00520065006600720002000000FFFEFF195200650066006500720065006E00630065002C002000650078007400650072006E0061
310
006C002000660069006C0065007300000000000000FFFEFF052D004C00610062006C0002000000FFFEFF064C006100620065006C007300000000000000FFFEFF052D004C0069007400650002000000FFFEFF084C00690067006800740069006E006700000000000000FFFEFF052D00480065007600790002000000FFFEFF1A
310
4800650061007600790020007700650069006700680074002000670072006100700068006900630020006C0069006E0065007300000000000000FFFEFF052D00480065006100640002000000FFFEFF1744006F006F007200200061006E0064002000770069006E0064006F0077002000680065006100640065007200730000
310
0000000000FFFEFF052D004C00650067006E0002000000FFFEFF144C006500670065006E00640073002C002000530079006D0062006F006C0020006B00650079007300000000000000FFFEFF052D004B00650079006E0002000000FFFEFF084B00650079006E006F00740065007300000000000000FFFEFF052D0046006900
310
7800640002000000FFFEFF0F460069007800650064002000650071007500690070006D0065006E007400000000000000FFFEFF052D004C00650076006C0002000000FFFEFF274C006500760065006C0020006300680061006E006700650073002C002000720061006D00700073002C00200070006900740073002C00200064
310
0065007000720065007300730069006F006E007300000000000000FFFEFF052D004D00650064006D0002000000FFFEFF1B4D0065006400690075006D0020007700650069006700680074002000670072006100700068006900630020006C0069006E0065007300000000000000FFFEFF052D0042006C006F00770002000000
310
FFFEFF0E45006C0065006D0065006E00740073002000620065006C006F007700000000000000FFFEFF052D00410063006300730002000000FFFEFF06410063006300650073007300000000000000FFFEFF052D004F0063006300700002000000FFFEFF1A4F00630063007500700061006E00740020006F007200200065006D
310
0070006C006F0079006500650020006E0061006D0065007300000000000000FFFEFF052D00430061007300650002000000FFFEFF08430061007300650077006F0072006B00000000000000FFFEFF052D00520065007600730002000000FFFEFF095200650076006900730069006F006E007300000000000000FFFEFF052D00
310
420072006300650002000000FFFEFF06420072006100630065007300000000000000FFFEFF052D00480069006400650002000000FFFEFF0E480069006400640065006E0020006F0062006A006500630074007300000000000000FFFEFF052D0043006C006E00670002000000FFFEFF074300650069006C0069006E00670000
310
0000000000FFFEFF052D005500740069006C0002000000FFFEFF095500740069006C0069007400690065007300000000000000FFFEFF052D00500061007400740002000000FFFEFF19540065007800740075007200650020006F00720020006800610074006300680020007000610074007400650072006E00730000000000
310
0000FFFEFF052D00430061007600690002000000FFFEFF06430061007600690074007900000000000000FFFEFF052D0050006C006E00740002000000FFFEFF0650006C0061006E0074007300000000000000FFFEFF052D00530074007200730002000000FFFEFF215300740061006900720020007400720065006100640073
310
002C00200065007300630061006C00610074006F00720073002C0020006C00610064006400650072007300000000000000FFFEFF052D00520065007600630002000000FFFEFF0F5200650076006900730069006F006E00200063006C006F00750064007300000000000000FFFEFF052D004D006F007600650002000000FFFE
310
FF124D006F0076006500610062006C0065002000650071007500690070006D0065006E007400000000000000FFFEFF052D005000650070006C0002000000FFFEFF06500065006F0070006C006500000000000000FFFEFF052D00440065006D006F0002000000FFFEFF0A440065006D006F006C006900740069006F006E0000
310
0000000000FFFEFF052D00430075007200740002000000FFFEFF0C4300750072007400610069006E002000570061006C006C00000000000000FFFEFF052D005700640077006B0002000000FFFEFF164100720063006800690074006500630074007500720061006C00200077006F006F00640077006F0072006B0000000000
310
0000FFFEFF052D004E006F007400650002000000FFFEFF054E006F00740065007300000000000000FFFEFF052D004F0076006800640002000000FFFEFF084F007600650072006800650061006400000000000000FFFEFF052D00530075006200740002000000FFFEFF14530075006200740072006100630074006900760065
310
00200065006C0065006D0065006E0074007300000000000000FFFEFF052D00530044004600460002000000FFFEFF1053007500700070006C0079002000640069006600660075007300650072007300000000000000FFFEFF052D00530074006F00720002000000FFFEFF19530079007300740065006D002000730074006F00
310
7200610067006500200063006F006D0070006F006E0065006E0074007300000000000000FFFEFF052D004900640065006E0002000000FFFEFF134900640065006E00740069006600690063006100740069006F006E0020005400610067007300000000000000FFFEFF052D004800720061006C0002000000FFFEFF16480061
310
006E0064007200610069006C0073002C0020006700750061007200640020007200610069006C007300000000000000FFFEFF052D00570069006400650002000000FFFEFF19570069006400650020007700650069006700680074002000670072006100700068006900630020006C0069006E0065007300000000000000FFFE
310
FF052D004D0061007300730002000000FFFEFF104D0061007300730069006E006700200045006C0065006D0065006E0074007300000000000000FFFEFF052D004C0069006E00650002000000FFFEFF0D44006500660069006E0069006E00670020004C0069006E006500000000000000FFFEFF052D00560069006500770002
310
000000FFFEFF13560069006500770070006F0072007400200044006500660069006E006900740069006F006E00000000000000FFFEFF052D0050006B006E00670002000000FFFEFF075000610072006B0069006E006700000000000000FFFEFF052D00520044004600460002000000FFFEFF14520065007400750072006E00
310
20006100690072002000640069006600660075007300650072007300000000000000FFFEFF052D00530065006100740002000000FFFEFF07530065006100740069006E006700000000000000FFFEFF052D0050006E006C00730002000000FFFEFF0D530079007300740065006D002000700061006E0065006C007300000000
310
000000FFFEFF052D004D0061007400630002000000FFFEFF0B4D00610074006300680020006C0069006E0065007300000000000000FFFEFF052D00410064007400760002000000FFFEFF1141006400640069007400690076006500200065006C0065006D0065006E0074007300000000000000FFFEFF052D00430068006100
310
730002000000FFFEFF0543006800610073006500000000000000FFFEFF052D005300700063006C0002000000FFFEFF0B5300700065006300690061006C007400690065007300000000000000FFFEFF052D00470072006900640002000000FFFEFF044700720069006400000000000000FFFEFF052D004E00690063006E0002
310
000000FFFEFF0F4E006F007400200069006E00200063006F006E0074007200610063007400000000000000FFFEFF052D004D0063007500740002000000FFFEFF164D00610069006E00200063007500740020006C0069006E006500200065006C0065006D0065006E0074007300000000000000FFFEFF052D00460069007200
310
650002000000FFFEFF0A46006900720065002000770061006C006C007300000000000000FFFEFF052D00530069006C006C0002000000FFFEFF0C570069006E0064006F0077002000730069006C006C007300000000000000FFFEFF052D005400700074006E0002000000FFFEFF1154006F0069006C00650074002000700061
310
00720074006900740069006F006E007300000000000000FFFEFF052D00520069007300720002000000FFFEFF0C530074006100690072002000720069007300650072007300000000000000FFFEFF052D004F0074006C006E0002000000FFFEFF074F00750074006C0069006E006500000000000000FFFEFF052D0054007400
310
6C00620002000000FFFEFF1642006F007200640065007200200061006E00640020007400690074006C006500200062006C006F0063006B000000000000000180FFFEFF074D0069006E006F0072002000320005000000004164642062656C6F77207468652073656C6563746564206974656DFFFEFF001600FFFEFF052D0041
310
0062006F00760002000000FFFEFF0E45006C0065006D0065006E00740073002000610062006F0076006500000000000000FFFEFF052D00420064007200790002000000FFFEFF0D4500640067006500200062006F0075006E006400610072007900000000000000FFFEFF052D005400680069006E0002000000FFFEFF0E4D00
310
69006E006F00720020006C0069006E00650077006F0072006B00000000000000FFFEFF052D004E0070006C00740002000000FFFEFF154E006F006E002D0070006C006F007400740069006E006700200065006C0065006D0065006E0074007300000000000000FFFEFF052D005200650066006C0002000000FFFEFF0F520065
310
0066006C0065006300740065006400200050006C0061006E007300000000000000FFFEFF052D00440069006D00730002000000FFFEFF0A440069006D0065006E00730069006F006E007300000000000000FFFEFF052D005300630061006C0002000000FFFEFF10470072006100700068006900630061006C00200053006300
310
61006C0065007300000000000000FFFEFF052D0053006C006300650002000000FFFEFF0653006C006900630065007300000000000000FFFEFF052D0047006C0061007A0002000000FFFEFF0747006C0061007A0069006E006700000000000000FFFEFF052D00460061007300630002000000FFFEFF06460061007300630069
310
006100000000000000FFFEFF052D00470072007000730002000000FFFEFF06470072006F00750070007300000000000000FFFEFF052D005400690074006C0002000000FFFEFF065400690074006C0065007300000000000000FFFEFF052D00530066006900740002000000FFFEFF0653006F00660066006900740000000000
310
0000FFFEFF052D00500061007400740002000000FFFEFF0E4800610074006300680020007000610074007400650072006E007300000000000000FFFEFF052D00480069006400650002000000FFFEFF0F480069006400640065006E00200065006C0065006D0065006E0074007300000000000000FFFEFF052D004E006F0074
310
00650002000000FFFEFF16470065006E006500720061006C0020005400650078007400200061006E00640020004E006F00740065007300000000000000FFFEFF052D0055006E006900740002000000FFFEFF0455006E0069007400000000000000FFFEFF052D004900640065006E0002000000FFFEFF0A4900640065006E00
310
740069006600690065007200000000000000FFFEFF052D004C0069006E00650002000000FFFEFF10470065006E006500720061006C0020006C0069006E00650077006F0072006B00000000000000FFFEFF052D00530069006C006C0002000000FFFEFF05530069006C006C007300000000000000FFFEFF052D005200690073
310
00720002000000FFFEFF06520069007300650072007300000000000000FFFEFF052D004F0074006C006E0002000000FFFEFF074F00750074006C0069006E0065000000000000000180FFFEFF06530074006100740075007300060000000000000000A434770470040000B10000005073770400000000050000FFFEFF000F00
310
FFFEFF022D00310002000000FFFEFF075000680061007300650020003100000000000000FFFEFF022D00320002000000FFFEFF075000680061007300650020003200000000000000FFFEFF022D00540002000000FFFEFF0E540065006D0070006F007200610072007900200077006F0072006B00000000000000FFFEFF022D
310
00330002000000FFFEFF075000680061007300650020003300000000000000FFFEFF022D00440002000000FFFEFF144500780069007300740069006E006700200074006F002000640065006D006F006C00690073006800000000000000FFFEFF022D00340002000000FFFEFF07500068006100730065002000340000000000
310
0000FFFEFF022D00450002000000FFFEFF124500780069007300740069006E006700200074006F002000720065006D00610069006E00000000000000FFFEFF022D00350002000000FFFEFF075000680061007300650020003500000000000000FFFEFF022D00460002000000FFFEFF0B460075007400750072006500200077
310
006F0072006B00000000000000FFFEFF022D00360002000000FFFEFF075000680061007300650020003600000000000000FFFEFF022D00370002000000FFFEFF075000680061007300650020003700000000000000FFFEFF022D00380002000000FFFEFF075000680061007300650020003800000000000000FFFEFF022D00
310
390002000000FFFEFF075000680061007300650020003900000000000000FFFEFF022D004D0002000000FFFEFF114900740065006D007300200074006F0020006200650020006D006F00760065006400000000000000FFFEFF022D004E0002000000FFFEFF084E0065007700200077006F0072006B000000000000000600FF
310
FF04001A004163416563556B4C61796572436F6D706F6E656E744669656C64FFFEFF174400690073006300690070006C0069006E0065002000440065007300690067006E00610074006F0072002000310001000000FFFEFF0440002C0040004000000000000100000000FFFEFF014100000000000780FFFEFF174400690073
310
006300690070006C0069006E0065002000440065007300690067006E00610074006F0072002000320001000000FFFEFF0440002C0040004000010000000100000000FFFEFF014400000000000780FFFEFF054D0061006A006F00720005000000FFFEFF052D00400040004000400000000000010000002DFFFEFF052D005700
310
61006C006C00000000000780FFFEFF064D0069006E006F007200310005000000FFFEFF022D002A0001000000010000002DFFFEFF052D004900640065006E00000000000780FFFEFF064D0069006E006F007200320005000000FFFEFF022D002A0001000000010000002DFFFEFF052D005400650078007400000000000780FF
310
FEFF0653007400610074007500730002000000FFFEFF022D002A0001000000010000002DFFFEFF022D004E0000000000050000010203040500FFFEFF00FFFEFF0320002D002000FFFEFF022C002000FFFEFF012000FFFEFF0320002D002000FFFEFF00
  0
XRECORD
  5
14D01
102
{ACAD_REACTORS
330
14D00
102
}
330
14D00
100
AcDbXrecord
280
     1
102
SHADEPLOT
 70
     0
102
SHADEPLOTRESLEVEL
 70
     2
102
SHADEPLOTCUSTOMDPI
 70
   300
  0
XRECORD
  5
14CFF
102
{ACAD_REACTORS
330
14CFE
102
}
330
14CFE
100
AcDbXrecord
280
     1
102
SHADEPLOT
 70
     1
102
SHADEPLOTRESLEVEL
 70
     2
102
SHADEPLOTCUSTOMDPI
 70
   300
  0
XRECORD
  5
14D06
102
{ACAD_REACTORS
330
14D05
102
}
330
14D05
100
AcDbXrecord
280
     1
102
MATERIAL
148
0.0
149
0.0
149
0.0
 93
        0
 94
       63
282
     0
 72
     1
 77
     1
171
     1
175
     1
179
     1
273
     0
  0
XRECORD
  5
14D04
102
{ACAD_REACTORS
330
14D03
102
}
330
14D03
100
AcDbXrecord
280
     1
102
MATERIAL
148
0.0
149
0.0
149
0.0
 93
        0
 94
       63
282
     0
 72
     1
 77
     1
171
     1
175
     1
179
     1
273
     0
  0
XRECORD
  5
14D08
102
{ACAD_REACTORS
330
14D07
102
}
330
14D07
100
AcDbXrecord
280
     1
102
MATERIAL
148
0.0
149
0.0
149
0.0
 93
        0
 94
       63
282
     0
 72
     1
 77
     1
171
     1
175
     1
179
     1
273
     0
  0
CELLSTYLEMAP
  5
14CFC
102
{ACAD_REACTORS
330
14A8E
102
}
330
14A8E
100
AcDbCellStyleMap
 90
        3
300
CELLSTYLE
  1
TABLEFORMAT_BEGIN
 90
        5
170
     1
 91
        0
 92
    32768
 62
   257
 93
        1
300
CONTENTFORMAT
  1
CONTENTFORMAT_BEGIN
 90
        0
 91
        0
 92
        4
 93
        0
300

 40
0.0
140
1.0
 94
        5
 62
     0
340
15
144
0.25
309
CONTENTFORMAT_END
171
     0
 94
        6
 95
        1
302
GRIDFORMAT
  1
GRIDFORMAT_BEGIN
 90
        0
 91
        1
 62
     0
 92
       -2
340
0
 93
        0
 40
0.045
309
GRIDFORMAT_END
 95
        2
302
GRIDFORMAT
  1
GRIDFORMAT_BEGIN
 90
        0
 91
        1
 62
     0
 92
       -2
340
0
 93
        0
 40
0.045
309
GRIDFORMAT_END
 95
        4
302
GRIDFORMAT
  1
GRIDFORMAT_BEGIN
 90
        0
 91
        1
 62
     0
 92
       -2
340
0
 93
        0
 40
0.045
309
GRIDFORMAT_END
 95
        8
302
GRIDFORMAT
  1
GRIDFORMAT_BEGIN
 90
        0
 91
        1
 62
     0
 92
       -2
340
0
 93
        0
 40
0.045
309
GRIDFORMAT_END
 95
       16
302
GRIDFORMAT
  1
GRIDFORMAT_BEGIN
 90
        0
 91
        1
 62
     0
 92
       -2
340
0
 93
        0
 40
0.045
309
GRIDFORMAT_END
 95
       32
302
GRIDFORMAT
  1
GRIDFORMAT_BEGIN
 90
        0
 91
        1
 62
     0
 92
       -2
340
0
 93
        0
 40
0.045
309
GRIDFORMAT_END
309
TABLEFORMAT_END
  1
CELLSTYLE_BEGIN
 90
        1
 91
        1
300
_TITLE
309
CELLSTYLE_END
300
CELLSTYLE
  1
TABLEFORMAT_BEGIN
 90
        5
170
     1
 91
        0
 92
        0
 62
   257
 93
        1
300
CONTENTFORMAT
  1
CONTENTFORMAT_BEGIN
 90
        0
 91
        0
 92
        4
 93
        0
300

 40
0.0
140
1.0
 94
        5
 62
     0
340
15
144
0.18
309
CONTENTFORMAT_END
171
     0
 94
        6
 95
        1
302
GRIDFORMAT
  1
GRIDFORMAT_BEGIN
 90
        0
 91
        1
 62
     0
 92
       -2
340
0
 93
        0
 40
0.045
309
GRIDFORMAT_END
 95
        2
302
GRIDFORMAT
  1
GRIDFORMAT_BEGIN
 90
        0
 91
        1
 62
     0
 92
       -2
340
0
 93
        0
 40
0.045
309
GRIDFORMAT_END
 95
        4
302
GRIDFORMAT
  1
GRIDFORMAT_BEGIN
 90
        0
 91
        1
 62
     0
 92
       -2
340
0
 93
        0
 40
0.045
309
GRIDFORMAT_END
 95
        8
302
GRIDFORMAT
  1
GRIDFORMAT_BEGIN
 90
        0
 91
        1
 62
     0
 92
       -2
340
0
 93
        0
 40
0.045
309
GRIDFORMAT_END
 95
       16
302
GRIDFORMAT
  1
GRIDFORMAT_BEGIN
 90
        0
 91
        1
 62
     0
 92
       -2
340
0
 93
        0
 40
0.045
309
GRIDFORMAT_END
 95
       32
302
GRIDFORMAT
  1
GRIDFORMAT_BEGIN
 90
        0
 91
        1
 62
     0
 92
       -2
340
0
 93
        0
 40
0.045
309
GRIDFORMAT_END
309
TABLEFORMAT_END
  1
CELLSTYLE_BEGIN
 90
        2
 91
        1
300
_HEADER
309
CELLSTYLE_END
300
CELLSTYLE
  1
TABLEFORMAT_BEGIN
 90
        5
170
     1
 91
        0
 92
        0
 62
   257
 93
        1
300
CONTENTFORMAT
  1
CONTENTFORMAT_BEGIN
 90
        0
 91
        0
 92
        4
 93
        0
300

 40
0.0
140
1.0
 94
        2
 62
     0
340
15
144
0.18
309
CONTENTFORMAT_END
171
     0
 94
        6
 95
        1
302
GRIDFORMAT
  1
GRIDFORMAT_BEGIN
 90
        0
 91
        1
 62
     0
 92
       -2
340
0
 93
        0
 40
0.045
309
GRIDFORMAT_END
 95
        2
302
GRIDFORMAT
  1
GRIDFORMAT_BEGIN
 90
        0
 91
        1
 62
     0
 92
       -2
340
0
 93
        0
 40
0.045
309
GRIDFORMAT_END
 95
        4
302
GRIDFORMAT
  1
GRIDFORMAT_BEGIN
 90
        0
 91
        1
 62
     0
 92
       -2
340
0
 93
        0
 40
0.045
309
GRIDFORMAT_END
 95
        8
302
GRIDFORMAT
  1
GRIDFORMAT_BEGIN
 90
        0
 91
        1
 62
     0
 92
       -2
340
0
 93
        0
 40
0.045
309
GRIDFORMAT_END
 95
       16
302
GRIDFORMAT
  1
GRIDFORMAT_BEGIN
 90
        0
 91
        1
 62
     0
 92
       -2
340
0
 93
        0
 40
0.045
309
GRIDFORMAT_END
 95
       32
302
GRIDFORMAT
  1
GRIDFORMAT_BEGIN
 90
        0
 91
        1
 62
     0
 92
       -2
340
0
 93
        0
 40
0.045
309
GRIDFORMAT_END
309
TABLEFORMAT_END
  1
CELLSTYLE_BEGIN
 90
        3
 91
        2
300
_DATA
309
CELLSTYLE_END
  0
XRECORD
  5
14D02
102
{ACAD_REACTORS
330
14A8E
102
}
330
14A8E
100
AcDbXrecord
280
     1
102
ACAD_ROUNDTRIP_PRE2007_TABLESTYLE
 90
        4
 91
        0
  1

 92
        4
 93
        0
  2

 94
        4
 95
        0
  3

  0
ENDSEC
  0
EOF
