  0
SECTION
  2
HEADER
  9
$ACADVER
  1
AC1015
  9
$ACADMAINTVER
 70
    18
  9
$DWGCODEPAGE
  3
ANSI_1250
  9
$INSBASE
 10
0.0
 20
0.0
 30
0.0
  9
$EXTMIN
 10
215187.2000545948
 20
127657.5157057546
 30
-110.0000000000045
  9
$EXTMAX
 10
225387.2000545948
 20
141677.5157057546
 30
59.99999999999332
  9
$LIMMIN
 10
0.0
 20
0.0
  9
$LIMMAX
 10
420.0
 20
297.0
  9
$ORTHOMODE
 70
     1
  9
$REGENMODE
 70
     1
  9
$FILLMODE
 70
     1
  9
$QTEXTMODE
 70
     0
  9
$MIRRTEXT
 70
     0
  9
$LTSCALE
 40
75.0
  9
$ATTMODE
 70
     1
  9
$TEXTSIZE
 40
20.0
  9
$TRACEWID
 40
1.0
  9
$TEXTSTYLE
  7
ROMANS
  9
$CLAYER
  8
0Wymiary-PL
  9
$CELTYPE
  6
ByLayer
  9
$CECOLOR
 62
   256
  9
$CELTSCALE
 40
1.0
  9
$DISPSILH
 70
     0
  9
$DIMSCALE
 40
1.0
  9
$DIMASZ
 40
30.0
  9
$DIMEXO
 40
43.0
  9
$DIMDLI
 40
0.0
  9
$DIMRND
 40
0.5
  9
$DIMDLE
 40
12.0
  9
$DIMEXE
 40
13.0
  9
$DIMTP
 40
0.0
  9
$DIMTM
 40
0.0
  9
$DIMTXT
 40
80.0
  9
$DIMCEN
 40
0.0
  9
$DIMTSZ
 40
0.0
  9
$DIMTOL
 70
     0
  9
$DIMLIM
 70
     0
  9
$DIMTIH
 70
     0
  9
$DIMTOH
 70
     0
  9
$DIMSE1
 70
     1
  9
$DIMSE2
 70
     1
  9
$DIMTAD
 70
     0
  9
$DIMZIN
 70
    12
  9
$DIMBLK
  1
B-DIM
  9
$DIMASO
 70
     1
  9
$DIMSHO
 70
     1
  9
$DIMPOST
  1

  9
$DIMAPOST
  1

  9
$DIMALT
 70
     0
  9
$DIMALTD
 70
     2
  9
$DIMALTF
 40
25.4
  9
$DIMLFAC
 40
1.0
  9
$DIMTOFL
 70
     1
  9
$DIMTVP
 40
1.0
  9
$DIMTIX
 70
     1
  9
$DIMSOXD
 70
     0
  9
$DIMSAH
 70
     0
  9
$DIMBLK1
  1

  9
$DIMBLK2
  1

  9
$DIMSTYLE
  2
500
  9
$DIMCLRD
 70
     1
  9
$DIMCLRE
 70
     1
  9
$DIMCLRT
 70
   140
  9
$DIMTFAC
 40
1.0
  9
$DIMGAP
 40
0.0
  9
$DIMJUST
 70
     0
  9
$DIMSD1
 70
     0
  9
$DIMSD2
 70
     0
  9
$DIMTOLJ
 70
     1
  9
$DIMTZIN
 70
     0
  9
$DIMALTZ
 70
     0
  9
$DIMALTTZ
 70
     0
  9
$DIMUPT
 70
     0
  9
$DIMDEC
 70
     1
  9
$DIMTDEC
 70
     1
  9
$DIMALTU
 70
     2
  9
$DIMALTTD
 70
     2
  9
$DIMTXSTY
  7
ROMANS
  9
$DIMAUNIT
 70
     0
  9
$DIMADEC
 70
     0
  9
$DIMALTRND
 40
0.0
  9
$DIMAZIN
 70
     0
  9
$DIMDSEP
 70
    46
  9
$DIMATFIT
 70
     3
  9
$DIMFRAC
 70
     0
  9
$DIMLDRBLK
  1
B-DIM
  9
$DIMLUNIT
 70
     2
  9
$DIMLWD
 70
    -2
  9
$DIMLWE
 70
    -2
  9
$DIMTMOVE
 70
     2
  9
$LUNITS
 70
     2
  9
$LUPREC
 70
     1
  9
$SKETCHINC
 40
1.0
  9
$FILLETRAD
 40
0.0
  9
$AUNITS
 70
     0
  9
$AUPREC
 70
     0
  9
$MENU
  1
.
  9
$ELEVATION
 40
0.0
  9
$PELEVATION
 40
0.0
  9
$THICKNESS
 40
0.0
  9
$LIMCHECK
 70
     0
  9
$CHAMFERA
 40
0.0
  9
$CHAMFERB
 40
0.0
  9
$CHAMFERC
 40
20.0
  9
$CHAMFERD
 40
0.0
  9
$SKPOLY
 70
     0
  9
$TDCREATE
 40
2452027.670547454
  9
$TDUCREATE
 40
2452027.587214121
  9
$TDUPDATE
 40
2456770.375581053
  9
$TDUUPDATE
 40
2456770.292247720
  9
$TDINDWG
 40
9.2006641551
  9
$TDUSRTIMER
 40
9.2006641551
  9
$USRTIMER
 70
     1
  9
$ANGBASE
 50
0.0
  9
$ANGDIR
 70
     0
  9
$PDMODE
 70
     0
  9
$PDSIZE
 40
0.0
  9
$PLINEWID
 40
0.0
  9
$SPLFRAME
 70
     0
  9
$SPLINETYPE
 70
     6
  9
$SPLINESEGS
 70
     8
  9
$HANDSEED
  5
2D8
  9
$SURFTAB1
 70
     6
  9
$SURFTAB2
 70
     6
  9
$SURFTYPE
 70
     6
  9
$SURFU
 70
     6
  9
$SURFV
 70
     6
  9
$UCSBASE
  2

  9
$UCSNAME
  2

  9
$UCSORG
 10
0.0
 20
0.0
 30
0.0
  9
$UCSXDIR
 10
1.0
 20
0.0
 30
0.0
  9
$UCSYDIR
 10
0.0
 20
1.0
 30
0.0
  9
$UCSORTHOREF
  2

  9
$UCSORTHOVIEW
 70
     0
  9
$UCSORGTOP
 10
0.0
 20
0.0
 30
0.0
  9
$UCSORGBOTTOM
 10
0.0
 20
0.0
 30
0.0
  9
$UCSORGLEFT
 10
0.0
 20
0.0
 30
0.0
  9
$UCSORGRIGHT
 10
0.0
 20
0.0
 30
0.0
  9
$UCSORGFRONT
 10
0.0
 20
0.0
 30
0.0
  9
$UCSORGBACK
 10
0.0
 20
0.0
 30
0.0
  9
$PUCSBASE
  2

  9
$PUCSNAME
  2

  9
$PUCSORG
 10
0.0
 20
0.0
 30
0.0
  9
$PUCSXDIR
 10
1.0
 20
0.0
 30
0.0
  9
$PUCSYDIR
 10
0.0
 20
1.0
 30
0.0
  9
$PUCSORTHOREF
  2

  9
$PUCSORTHOVIEW
 70
     0
  9
$PUCSORGTOP
 10
0.0
 20
0.0
 30
0.0
  9
$PUCSORGBOTTOM
 10
0.0
 20
0.0
 30
0.0
  9
$PUCSORGLEFT
 10
0.0
 20
0.0
 30
0.0
  9
$PUCSORGRIGHT
 10
0.0
 20
0.0
 30
0.0
  9
$PUCSORGFRONT
 10
0.0
 20
0.0
 30
0.0
  9
$PUCSORGBACK
 10
0.0
 20
0.0
 30
0.0
  9
$USERI1
 70
     0
  9
$USERI2
 70
     0
  9
$USERI3
 70
     0
  9
$USERI4
 70
     0
  9
$USERI5
 70
     0
  9
$USERR1
 40
0.0
  9
$USERR2
 40
0.0
  9
$USERR3
 40
0.0
  9
$USERR4
 40
0.0
  9
$USERR5
 40
0.0
  9
$WORLDVIEW
 70
     1
  9
$SHADEDGE
 70
     3
  9
$SHADEDIF
 70
    70
  9
$TILEMODE
 70
     1
  9
$MAXACTVP
 70
    64
  9
$PINSBASE
 10
0.0
 20
0.0
 30
0.0
  9
$PLIMCHECK
 70
     0
  9
$PEXTMIN
 10
1.049999952316284
 20
0.7999999523162842
 30
0.0
  9
$PEXTMAX
 10
9.449999570846559
 20
7.199999570846558
 30
0.0
  9
$PLIMMIN
 10
-0.2500002402958907
 20
-0.2499999962453767
  9
$PLIMMAX
 10
10.74999951940822
 20
8.249999763458733
  9
$UNITMODE
 70
     0
  9
$VISRETAIN
 70
     1
  9
$PLINEGEN
 70
     0
  9
$PSLTSCALE
 70
     1
  9
$TREEDEPTH
 70
  3020
  9
$CMLSTYLE
  2
Standard
  9
$CMLJUST
 70
     0
  9
$CMLSCALE
 40
20.0
  9
$PROXYGRAPHICS
 70
     1
  9
$MEASUREMENT
 70
     0
  9
$CELWEIGHT
370
    -1
  9
$ENDCAPS
280
     0
  9
$JOINSTYLE
280
     0
  9
$LWDISPLAY
290
     0
  9
$INSUNITS
 70
     5
  9
$HYPERLINKBASE
  1

  9
$STYLESHEET
  1

  9
$XEDIT
290
     1
  9
$CEPSNTYPE
380
     0
  9
$PSTYLEMODE
290
     1
  9
$FINGERPRINTGUID
  2
{3416A432-4A7C-484C-942E-F8432E9FB7FF}
  9
$VERSIONGUID
  2
{4A49DCB0-54C3-4734-98F3-5B3026D6288C}
  9
$EXTNAMES
290
     1
  9
$PSVPSCALE
 40
0.0
  9
$OLESTARTUP
290
     0
  0
ENDSEC
  0
SECTION
  2
CLASSES
  0
CLASS
  1
ACDBDICTIONARYWDFLT
  2
AcDbDictionaryWithDefault
  3
ObjectDBX Classes
 90
        0
280
     0
281
     0
  0
CLASS
  1
ACDBPLACEHOLDER
  2
AcDbPlaceHolder
  3
ObjectDBX Classes
 90
        0
280
     0
281
     0
  0
CLASS
  1
LAYOUT
  2
AcDbLayout
  3
ObjectDBX Classes
 90
        0
280
     0
281
     0
  0
CLASS
  1
DICTIONARYVAR
  2
AcDbDictionaryVar
  3
ObjectDBX Classes
 90
        0
280
     0
281
     0
  0
CLASS
  1
SORTENTSTABLE
  2
AcDbSortentsTable
  3
ObjectDBX Classes
 90
        0
280
     0
281
     0
  0
CLASS
  1
AEC_VARS_DWG_SETUP
  2
AecDbVarsDwgSetup
  3
AecBase50|Product Desc: Autodesk Architectural Desktop 2007 |Company: Autodesk,Inc. |WEB Address: www.autodesk.com
 90
    32897
280
     0
281
     0
  0
CLASS
  1
AEC_DISP_REP_CONFIG
  2
AecDbDispRepConfig
  3
AecBase50|Product Desc: Autodesk Architectural Desktop 2007 |Company: Autodesk,Inc. |WEB Address: www.autodesk.com
 90
    32897
280
     0
281
     0
  0
CLASS
  1
AEC_DISP_REP_SET
  2
AecDbDispRepSet
  3
AecBase50|Product Desc: Autodesk Architectural Desktop 2007 |Company: Autodesk,Inc. |WEB Address: www.autodesk.com
 90
    32897
280
     0
281
     0
  0
CLASS
  1
AEC_DISP_REP_2D_SECTION
  2
AecDbDispRep2dSection
  3
AecBase50|Product Desc: Autodesk Architectural Desktop 2007 |Company: Autodesk,Inc. |WEB Address: www.autodesk.com
 90
    32897
280
     0
281
     0
  0
CLASS
  1
AEC_DISP_REP_ANCHOR_BUB_TO_GRID
  2
AecDbDispRepAnchorBubToGrid
  3
AecStructureBase50|Product Desc: Autodesk Architectural Desktop 2007 |Company: Autodesk,Inc. |WEB Address: www.autodesk.com
 90
    32897
280
     0
281
     0
  0
CLASS
  1
AEC_DISP_REP_ANCHOR_BUB_TO_GRID_MODEL
  2
AecDbDispRepAnchorBubToGridMdl
  3
AecStructureBase50|Product Desc: Autodesk Architectural Desktop 2007 |Company: Autodesk,Inc. |WEB Address: www.autodesk.com
 90
    32897
280
     0
281
     0
  0
CLASS
  1
AEC_DISP_REP_ANCHOR_ENT_TO_NODE
  2
AecDbDispRepAnchorEntToNode
  3
AecBaseEx50|Product Desc: Autodesk Architectural Desktop 2007 |Company: Autodesk,Inc. |WEB Address: www.autodesk.com
 90
    32897
280
     0
281
     0
  0
CLASS
  1
AEC_DISP_REP_ANCHOR_TAG_TO_ENT
  2
AecDbDispRepAnchorTagToEnt
  3
AecScheduleData50|Product Desc: Autodesk Architectural Desktop 2007 |Company: Autodesk,Inc. |WEB Address: www.autodesk.com
 90
    32897
280
     0
281
     0
  0
CLASS
  1
AEC_DISP_REP_AREA
  2
AecDbDispRepArea
  3
AecAreaCalculationBase50|Product Desc: Autodesk Architectural Desktop 2007 |Company: Autodesk,Inc. |WEB Address: www.autodesk.com
 90
    32897
280
     0
281
     0
  0
CLASS
  1
AEC_DISP_REP_AREA_DECOMPOSED
  2
AecDbDispRepAreaDecomposed
  3
AecAreaCalculationBase50|Product Desc: Autodesk Architectural Desktop 2007 |Company: Autodesk,Inc. |WEB Address: www.autodesk.com
 90
    32897
280
     0
281
     0
  0
CLASS
  1
AEC_DISP_REP_AREAGROUP
  2
AecDbDispRepAreaGroup
  3
AecAreaCalculationBase50|Product Desc: Autodesk Architectural Desktop 2007 |Company: Autodesk,Inc. |WEB Address: www.autodesk.com
 90
    32897
280
     0
281
     0
  0
CLASS
  1
AEC_DISP_REP_BDG_ELEVLINE_MODEL
  2
AecDbDispRepBdgElevLineModel
  3
AecArchBase50|Product Desc: Autodesk Architectural Desktop 2007 |Company: Autodesk,Inc. |WEB Address: www.autodesk.com
 90
    32897
280
     0
281
     0
  0
CLASS
  1
AEC_DISP_REP_BDG_SECTIONLINE_PLAN
  2
AecDbDispRepBdgElevLinePlan
  3
AecArchBase50|Product Desc: Autodesk Architectural Desktop 2007 |Company: Autodesk,Inc. |WEB Address: www.autodesk.com
 90
    32897
280
     0
281
     0
  0
CLASS
  1
AEC_DISP_REP_BDG_SECTIONLINE_MODEL
  2
AecDbDispRepBdgSectionLineModel
  3
AecArchBase50|Product Desc: Autodesk Architectural Desktop 2007 |Company: Autodesk,Inc. |WEB Address: www.autodesk.com
 90
    32897
280
     0
281
     0
  0
CLASS
  1
AEC_DISP_REP_BDG_SECTIONLINE_PLAN
  2
AecDbDispRepBdgSectionLinePlan
  3
AecArchBase50|Product Desc: Autodesk Architectural Desktop 2007 |Company: Autodesk,Inc. |WEB Address: www.autodesk.com
 90
    32897
280
     0
281
     0
  0
CLASS
  1
AEC_DISP_REP_BDG_SECTION_SUBDIV
  2
AecDbDispRepBdgSectionSubDiv
  3
AecArchBase50|Product Desc: Autodesk Architectural Desktop 2007 |Company: Autodesk,Inc. |WEB Address: www.autodesk.com
 90
    32897
280
     0
281
     0
  0
CLASS
  1
AEC_DISP_REP_CAMERA
  2
AecDbDispRepCamera
  3
AecBase50|Product Desc: Autodesk Architectural Desktop 2007 |Company: Autodesk,Inc. |WEB Address: www.autodesk.com
 90
    32897
280
     0
281
     0
  0
CLASS
  1
AEC_DISP_REP_CEILING_GRID
  2
AecDbDispRepCeilingGrid
  3
AecArchBase50|Product Desc: Autodesk Architectural Desktop 2007 |Company: Autodesk,Inc. |WEB Address: www.autodesk.com
 90
    33661
280
     0
281
     0
  0
CLASS
  1
AEC_DISP_REP_CEILING_GRID_MODEL
  2
AecDbDispRepCeilingGridModel
  3
AecArchBase50|Product Desc: Autodesk Architectural Desktop 2007 |Company: Autodesk,Inc. |WEB Address: www.autodesk.com
 90
    32897
280
     0
281
     0
  0
CLASS
  1
AEC_DISP_REP_CEILING_GRID_RCP
  2
AecDbDispRepCeilingGridRcp
  3
AecArchBase50|Product Desc: Autodesk Architectural Desktop 2007 |Company: Autodesk,Inc. |WEB Address: www.autodesk.com
 90
    32897
280
     0
281
     0
  0
CLASS
  1
AEC_DISP_REP_CLIP_VOLUME_MODEL
  2
AecDbDispRepClipVolModel
  3
AecBase50|Product Desc: Autodesk Architectural Desktop 2007 |Company: Autodesk,Inc. |WEB Address: www.autodesk.com
 90
    32897
280
     0
281
     0
  0
CLASS
  1
AEC_DISP_REP_CLIP_VOLUME_PLAN
  2
AecDbDispRepClipVolPlan
  3
AecBase50|Product Desc: Autodesk Architectural Desktop 2007 |Company: Autodesk,Inc. |WEB Address: www.autodesk.com
 90
    32897
280
     0
281
     0
  0
CLASS
  1
AEC_DISP_REP_CLIP_VOLUME_RESULT_SUBDIV
  2
AecDbDispRepClipVolResSubDiv
  3
AecBase50|Product Desc: Autodesk Architectural Desktop 2007 |Company: Autodesk,Inc. |WEB Address: www.autodesk.com
 90
    32897
280
     0
281
     0
  0
CLASS
  1
AEC_DISP_REP_CLIP_VOLUME_RESULT
  2
AecDbDispRepClipVolResult
  3
AecBase50|Product Desc: Autodesk Architectural Desktop 2007 |Company: Autodesk,Inc. |WEB Address: www.autodesk.com
 90
    32897
280
     0
281
     0
  0
CLASS
  1
AEC_DISP_REP_COLUMN_GRID
  2
AecDbDispRepColumnGrid
  3
AecStructureBase50|Product Desc: Autodesk Architectural Desktop 2007 |Company: Autodesk,Inc. |WEB Address: www.autodesk.com
 90
    32897
280
     0
281
     0
  0
CLASS
  1
AEC_DISP_REP_COLUMN_GRID_MODEL
  2
AecDbDispRepColumnGridModel
  3
AecStructureBase50|Product Desc: Autodesk Architectural Desktop 2007 |Company: Autodesk,Inc. |WEB Address: www.autodesk.com
 90
    32897
280
     0
281
     0
  0
CLASS
  1
AEC_DISP_REP_CURTAIN_WALL_LAYOUT_MODEL
  2
AecDbDispRepCurtainWallLayoutModel
  3
AecArchBase50|Product Desc: Autodesk Architectural Desktop 2007 |Company: Autodesk,Inc. |WEB Address: www.autodesk.com
 90
    32897
280
     0
281
     0
  0
CLASS
  1
AEC_DISP_REP_CURTAIN_WALL_LAYOUT_PLAN
  2
AecDbDispRepCurtainWallLayoutPlan
  3
AecArchBase50|Product Desc: Autodesk Architectural Desktop 2007 |Company: Autodesk,Inc. |WEB Address: www.autodesk.com
 90
    32897
280
     0
281
     0
  0
CLASS
  1
AEC_DISP_REP_CURTAIN_WALL_UNIT_MODEL
  2
AecDbDispRepCurtainWallUnitModel
  3
AecArchBase50|Product Desc: Autodesk Architectural Desktop 2007 |Company: Autodesk,Inc. |WEB Address: www.autodesk.com
 90
    32897
280
     0
281
     0
  0
CLASS
  1
AEC_DISP_REP_CURTAIN_WALL_UNIT_PLAN
  2
AecDbDispRepCurtainWallUnitPlan
  3
AecArchBase50|Product Desc: Autodesk Architectural Desktop 2007 |Company: Autodesk,Inc. |WEB Address: www.autodesk.com
 90
    32897
280
     0
281
     0
  0
CLASS
  1
AEC_DB_DISP_REP_DIM_GROUP_PLAN
  2
AecDbDispRepDimGroupPlan
  3
AecArchDACHBase50|Product Desc: Autodesk Architectural Desktop 2007 |Company: Autodesk,Inc. |WEB Address: www.autodesk.com
 90
    32897
280
     0
281
     0
  0
CLASS
  1
AEC_DISP_REP_DOOR_MODEL
  2
AecDbDispRepDoorModel
  3
AecArchBase50|Product Desc: Autodesk Architectural Desktop 2007 |Company: Autodesk,Inc. |WEB Address: www.autodesk.com
 90
    32897
280
     0
281
     0
  0
CLASS
  1
AEC_DISP_REP_DOOR_NOMINAL
  2
AecDbDispRepDoorNominal
  3
AecArchBase50|Product Desc: Autodesk Architectural Desktop 2007 |Company: Autodesk,Inc. |WEB Address: www.autodesk.com
 90
    32897
280
     0
281
     0
  0
CLASS
  1
AEC_DISP_REP_DOOR_PLAN
  2
AecDbDispRepDoorPlan
  3
AecArchBase50|Product Desc: Autodesk Architectural Desktop 2007 |Company: Autodesk,Inc. |WEB Address: www.autodesk.com
 90
    32897
280
     0
281
     0
  0
CLASS
  1
AEC_DISP_REP_EDITINPLACEPROFILE
  2
AecDbDispRepEditInPlaceProfile
  3
AecBase50|Product Desc: Autodesk Architectural Desktop 2007 |Company: Autodesk,Inc. |WEB Address: www.autodesk.com
 90
    32897
280
     0
281
     0
  0
CLASS
  1
AEC_DISP_REP_ENT_REF
  2
AecDbDispRepEntRef
  3
AecBase50|Product Desc: Autodesk Architectural Desktop 2007 |Company: Autodesk,Inc. |WEB Address: www.autodesk.com
 90
    32897
280
     0
281
     0
  0
CLASS
  1
AEC_DISP_REP_LAYOUT_CURVE
  2
AecDbDispRepLayoutCurve
  3
AecBase50|Product Desc: Autodesk Architectural Desktop 2007 |Company: Autodesk,Inc. |WEB Address: www.autodesk.com
 90
    32897
280
     0
281
     0
  0
CLASS
  1
AEC_DISP_REP_LAYOUT_GRID2D
  2
AecDbDispRepLayoutGrid2d
  3
AecBase50|Product Desc: Autodesk Architectural Desktop 2007 |Company: Autodesk,Inc. |WEB Address: www.autodesk.com
 90
    32897
280
     0
281
     0
  0
CLASS
  1
AEC_DISP_REP_LAYOUT_GRID3D
  2
AecDbDispRepLayoutGrid3d
  3
AecBase50|Product Desc: Autodesk Architectural Desktop 2007 |Company: Autodesk,Inc. |WEB Address: www.autodesk.com
 90
    32897
280
     0
281
     0
  0
CLASS
  1
AEC_DISP_REP_MASKBLOCK_REF
  2
AecDbDispRepMaskBlockRef
  3
AecBase50|Product Desc: Autodesk Architectural Desktop 2007 |Company: Autodesk,Inc. |WEB Address: www.autodesk.com
 90
    32897
280
     0
281
     0
  0
CLASS
  1
AEC_DISP_REP_MASKBLOCK_REF_RCP
  2
AecDbDispRepMaskBlockRefRcp
  3
AecArchBase50|Product Desc: Autodesk Architectural Desktop 2007 |Company: Autodesk,Inc. |WEB Address: www.autodesk.com
 90
    32897
280
     0
281
     0
  0
CLASS
  1
AEC_DISP_REP_MASS_ELEM_MODEL
  2
AecDbDispRepMassElemModel
  3
AecBaseEx50|Product Desc: Autodesk Architectural Desktop 2007 |Company: Autodesk,Inc. |WEB Address: www.autodesk.com
 90
    32897
280
     0
281
     0
  0
CLASS
  1
AEC_DISP_REP_MASS_ELEM_SCHEM
  2
AecDbDispRepMassElemSchem
  3
AecBaseEx50|Product Desc: Autodesk Architectural Desktop 2007 |Company: Autodesk,Inc. |WEB Address: www.autodesk.com
 90
    32897
280
     0
281
     0
  0
CLASS
  1
AEC_DISP_REP_MASS_GROUP_MODEL
  2
AecDbDispRepMassGroupModel
  3
AecBaseEx50|Product Desc: Autodesk Architectural Desktop 2007 |Company: Autodesk,Inc. |WEB Address: www.autodesk.com
 90
    32897
280
     0
281
     0
  0
CLASS
  1
AEC_DISP_REP_MASS_GROUP_PLAN
  2
AecDbDispRepMassGroupPlan
  3
AecBaseEx50|Product Desc: Autodesk Architectural Desktop 2007 |Company: Autodesk,Inc. |WEB Address: www.autodesk.com
 90
    32897
280
     0
281
     0
  0
CLASS
  1
AEC_DISP_REP_MATERIAL
  2
AecDbDispRepMaterial
  3
AecBase50|Product Desc: Autodesk Architectural Desktop 2007 |Company: Autodesk,Inc. |WEB Address: www.autodesk.com
 90
    32897
280
     0
281
     0
  0
CLASS
  1
AEC_DISP_REP_MVBLOCK_REF
  2
AecDbDispRepMvBlockRef
  3
AecBase50|Product Desc: Autodesk Architectural Desktop 2007 |Company: Autodesk,Inc. |WEB Address: www.autodesk.com
 90
    32897
280
     0
281
     0
  0
CLASS
  1
AEC_DISP_REP_MVBLOCK_REF_MODEL
  2
AecDbDispRepMvBlockRefModel
  3
AecBase50|Product Desc: Autodesk Architectural Desktop 2007 |Company: Autodesk,Inc. |WEB Address: www.autodesk.com
 90
    32897
280
     0
281
     0
  0
CLASS
  1
AEC_DISP_REP_OPENING
  2
AecDbDispRepOpening
  3
AecArchBase50|Product Desc: Autodesk Architectural Desktop 2007 |Company: Autodesk,Inc. |WEB Address: www.autodesk.com
 90
    32897
280
     0
281
     0
  0
CLASS
  1
AEC_DISP_REP_OPENING_MODEL
  2
AecDbDispRepOpeningModel
  3
AecArchBase50|Product Desc: Autodesk Architectural Desktop 2007 |Company: Autodesk,Inc. |WEB Address: www.autodesk.com
 90
    32897
280
     0
281
     0
  0
CLASS
  1
AEC_DISP_REP_POLYGON_MODEL
  2
AecDbDispRepPolygonModel
  3
AecBaseEx50|Product Desc: Autodesk Architectural Desktop 2007 |Company: Autodesk,Inc. |WEB Address: www.autodesk.com
 90
    32897
280
     0
281
     0
  0
CLASS
  1
AEC_DISP_REP_RAILING_MODEL
  2
AecDbDispRepRailingModel
  3
AecArchBase50|Product Desc: Autodesk Architectural Desktop 2007 |Company: Autodesk,Inc. |WEB Address: www.autodesk.com
 90
    32897
280
     0
281
     0
  0
CLASS
  1
AEC_DISP_REP_RAILING_PLAN
  2
AecDbDispRepRailingPlan
  3
AecArchBase50|Product Desc: Autodesk Architectural Desktop 2007 |Company: Autodesk,Inc. |WEB Address: www.autodesk.com
 90
    32897
280
     0
281
     0
  0
CLASS
  1
AEC_DISP_REP_ROOF_MODEL
  2
AecDbDispRepRoofModel
  3
AecArchBase50|Product Desc: Autodesk Architectural Desktop 2007 |Company: Autodesk,Inc. |WEB Address: www.autodesk.com
 90
    32897
280
     0
281
     0
  0
CLASS
  1
AEC_DISP_REP_ROOF_PLAN
  2
AecDbDispRepRoofPlan
  3
AecArchBase50|Product Desc: Autodesk Architectural Desktop 2007 |Company: Autodesk,Inc. |WEB Address: www.autodesk.com
 90
    32897
280
     0
281
     0
  0
CLASS
  1
AEC_DISP_REP_ROOFSLAB_MODEL
  2
AecDbDispRepRoofSlabModel
  3
AecArchBase50|Product Desc: Autodesk Architectural Desktop 2007 |Company: Autodesk,Inc. |WEB Address: www.autodesk.com
 90
    32897
280
     0
281
     0
  0
CLASS
  1
AEC_DISP_REP_ROOFSLAB_PLAN
  2
AecDbDispRepRoofSlabPlan
  3
AecArchBase50|Product Desc: Autodesk Architectural Desktop 2007 |Company: Autodesk,Inc. |WEB Address: www.autodesk.com
 90
    32897
280
     0
281
     0
  0
CLASS
  1
AEC_DISP_REP_SCHEDULE_TABLE
  2
AecDbDispRepScheduleTable
  3
AecSchedule50|Product Desc: Autodesk Architectural Desktop 2007 |Company: Autodesk,Inc. |WEB Address: www.autodesk.com
 90
    32897
280
     0
281
     0
  0
CLASS
  1
AEC_DISP_REP_SLAB_MODEL
  2
AecDbDispRepSlabModel
  3
AecArchBase50|Product Desc: Autodesk Architectural Desktop 2007 |Company: Autodesk,Inc. |WEB Address: www.autodesk.com
 90
    32897
280
     0
281
     0
  0
CLASS
  1
AEC_DISP_REP_SLAB_PLAN
  2
AecDbDispRepSlabPlan
  3
AecArchBase50|Product Desc: Autodesk Architectural Desktop 2007 |Company: Autodesk,Inc. |WEB Address: www.autodesk.com
 90
    32897
280
     0
281
     0
  0
CLASS
  1
AEC_DISP_REP_SLICE
  2
AecDbDispRepSlice
  3
AecBase50|Product Desc: Autodesk Architectural Desktop 2007 |Company: Autodesk,Inc. |WEB Address: www.autodesk.com
 90
    32897
280
     0
281
     0
  0
CLASS
  1
AEC_DISP_REP_SPACE_BOUNDARY_MODEL
  2
AecDbDispRepSpaceBoundaryModel
  3
AecArchBase50|Product Desc: Autodesk Architectural Desktop 2007 |Company: Autodesk,Inc. |WEB Address: www.autodesk.com
 90
    32897
280
     0
281
     0
  0
CLASS
  1
AEC_DISP_REP_SPACE_BOUNDARY_PLAN
  2
AecDbDispRepSpaceBoundaryPlan
  3
AecArchBase50|Product Desc: Autodesk Architectural Desktop 2007 |Company: Autodesk,Inc. |WEB Address: www.autodesk.com
 90
    32897
280
     0
281
     0
  0
CLASS
  1
AEC_DISP_REP_SPACE_BOUNDARY_SCHEM
  2
AecDbDispRepSpaceBoundarySketch
  3
AecArchBase50|Product Desc: Autodesk Architectural Desktop 2007 |Company: Autodesk,Inc. |WEB Address: www.autodesk.com
 90
    32897
280
     0
281
     0
  0
CLASS
  1
AEC_DISP_REP_SPACE_MODEL
  2
AecDbDispRepSpaceModel
  3
AecArchBase50|Product Desc: Autodesk Architectural Desktop 2007 |Company: Autodesk,Inc. |WEB Address: www.autodesk.com
 90
    32897
280
     0
281
     0
  0
CLASS
  1
AEC_DISP_REP_SPACE_PLAN
  2
AecDbDispRepSpacePlan
  3
AecArchBase50|Product Desc: Autodesk Architectural Desktop 2007 |Company: Autodesk,Inc. |WEB Address: www.autodesk.com
 90
    32897
280
     0
281
     0
  0
CLASS
  1
AEC_DISP_REP_STAIR_MODEL
  2
AecDbDispRepStairModel
  3
AecArchBase50|Product Desc: Autodesk Architectural Desktop 2007 |Company: Autodesk,Inc. |WEB Address: www.autodesk.com
 90
    32897
280
     0
281
     0
  0
CLASS
  1
AEC_DISP_REP_STAIR_PLAN
  2
AecDbDispRepStairPlan
  3
AecArchBase50|Product Desc: Autodesk Architectural Desktop 2007 |Company: Autodesk,Inc. |WEB Address: www.autodesk.com
 90
    32897
280
     0
281
     0
  0
CLASS
  1
AEC_DISP_REP_WALL_GRAPH
  2
AecDbDispRepWallGraph
  3
AecArchBase50|Product Desc: Autodesk Architectural Desktop 2007 |Company: Autodesk,Inc. |WEB Address: www.autodesk.com
 90
    32897
280
     0
281
     0
  0
CLASS
  1
AEC_DISP_REP_WALL_MODEL
  2
AecDbDispRepWallModel
  3
AecArchBase50|Product Desc: Autodesk Architectural Desktop 2007 |Company: Autodesk,Inc. |WEB Address: www.autodesk.com
 90
    32897
280
     0
281
     0
  0
CLASS
  1
AEC_DISP_REP_WALL_PLAN
  2
AecDbDispRepWallPlan
  3
AecArchBase50|Product Desc: Autodesk Architectural Desktop 2007 |Company: Autodesk,Inc. |WEB Address: www.autodesk.com
 90
    32897
280
     0
281
     0
  0
CLASS
  1
AEC_DISP_REP_WALL_SCHEM
  2
AecDbDispRepWallSchem
  3
AecArchBase50|Product Desc: Autodesk Architectural Desktop 2007 |Company: Autodesk,Inc. |WEB Address: www.autodesk.com
 90
    32897
280
     0
281
     0
  0
CLASS
  1
AEC_DISP_REP_WINDOW_ASSEMBLY_MODEL
  2
AecDbDispRepWindowAssemblyModel
  3
AecArchBase50|Product Desc: Autodesk Architectural Desktop 2007 |Company: Autodesk,Inc. |WEB Address: www.autodesk.com
 90
    32897
280
     0
281
     0
  0
CLASS
  1
AEC_DISP_REP_WINDOW_ASSEMBLY_PLAN
  2
AecDbDispRepWindowAssemblyPlan
  3
AecArchBase50|Product Desc: Autodesk Architectural Desktop 2007 |Company: Autodesk,Inc. |WEB Address: www.autodesk.com
 90
    32897
280
     0
281
     0
  0
CLASS
  1
AEC_AECDBDISPREPWINDOWASSEMBLYPLAN100
  2
AecDbDispRepWindowAssemblyPlan100
  3
AecArchDACHBase50|Product Desc: Autodesk Architectural Desktop 2007 |Company: Autodesk,Inc. |WEB Address: www.autodesk.com
 90
    32897
280
     0
281
     0
  0
CLASS
  1
AEC_DISP_REP_WINDOW_MODEL
  2
AecDbDispRepWindowModel
  3
AecArchBase50|Product Desc: Autodesk Architectural Desktop 2007 |Company: Autodesk,Inc. |WEB Address: www.autodesk.com
 90
    32897
280
     0
281
     0
  0
CLASS
  1
AEC_DISP_REP_WINDOW_NOMINAL
  2
AecDbDispRepWindowNominal
  3
AecArchBase50|Product Desc: Autodesk Architectural Desktop 2007 |Company: Autodesk,Inc. |WEB Address: www.autodesk.com
 90
    32897
280
     0
281
     0
  0
CLASS
  1
AEC_DISP_REP_WINDOW_PLAN
  2
AecDbDispRepWindowPlan
  3
AecArchBase50|Product Desc: Autodesk Architectural Desktop 2007 |Company: Autodesk,Inc. |WEB Address: www.autodesk.com
 90
    32897
280
     0
281
     0
  0
CLASS
  1
AECS_DISP_REP_MEMBER_LOGICAL
  2
AecsDbDispRepMemberLogical
  3
AecStructureBase50|Product Desc: Autodesk Architectural Desktop 2007 |Company: Autodesk,Inc. |WEB Address: www.autodesk.com
 90
    32897
280
     0
281
     0
  0
CLASS
  1
AECS_DISP_REP_MEMBER_MODEL_DESIGN
  2
AecsDbDispRepMemberModelDesign
  3
AecStructureBase50|Product Desc: Autodesk Architectural Desktop 2007 |Company: Autodesk,Inc. |WEB Address: www.autodesk.com
 90
    32897
280
     0
281
     0
  0
CLASS
  1
AECS_DISP_REP_MEMBER_PLAN_DESIGN
  2
AecsDbDispRepMemberPlanDesign
  3
AecStructureBase50|Product Desc: Autodesk Architectural Desktop 2007 |Company: Autodesk,Inc. |WEB Address: www.autodesk.com
 90
    32897
280
     0
281
     0
  0
CLASS
  1
AEC_DISP_PROPS_ENT
  2
AecDbDispPropsEnt
  3
AecBase50|Product Desc: Autodesk Architectural Desktop 2007 |Company: Autodesk,Inc. |WEB Address: www.autodesk.com
 90
    32897
280
     0
281
     0
  0
CLASS
  1
AEC_DISP_PROPS_CLIP_VOLUME
  2
AecDbDispPropsClipVol
  3
AecBase50|Product Desc: Autodesk Architectural Desktop 2007 |Company: Autodesk,Inc. |WEB Address: www.autodesk.com
 90
    32897
280
     0
281
     0
  0
CLASS
  1
AEC_DISP_PROPS_SLICE
  2
AecDbDispPropsSlice
  3
AecBase50|Product Desc: Autodesk Architectural Desktop 2007 |Company: Autodesk,Inc. |WEB Address: www.autodesk.com
 90
    32897
280
     0
281
     0
  0
CLASS
  1
AEC_DISP_PROPS_ROOFSLAB_PLAN
  2
AecDbDispPropsRoofSlabPlan
  3
AecArchBase50|Product Desc: Autodesk Architectural Desktop 2007 |Company: Autodesk,Inc. |WEB Address: www.autodesk.com
 90
    32897
280
     0
281
     0
  0
CLASS
  1
AEC_DISP_PROPS_GRID_ASSEMBLY_MODEL
  2
AecDbDispPropsGridAssemblyModel
  3
AecArchBase50|Product Desc: Autodesk Architectural Desktop 2007 |Company: Autodesk,Inc. |WEB Address: www.autodesk.com
 90
    32897
280
     0
281
     0
  0
CLASS
  1
AEC_DISP_PROPS_ROOF
  2
AecDbDispPropsRoof
  3
AecArchBase50|Product Desc: Autodesk Architectural Desktop 2007 |Company: Autodesk,Inc. |WEB Address: www.autodesk.com
 90
    32897
280
     0
281
     0
  0
CLASS
  1
AEC_DISP_PROPS_SPACE_MODEL
  2
AecDbDispPropsSpaceModel
  3
AecArchBase50|Product Desc: Autodesk Architectural Desktop 2007 |Company: Autodesk,Inc. |WEB Address: www.autodesk.com
 90
    32897
280
     0
281
     0
  0
CLASS
  1
AEC_DISP_PROPS_EDITINPLACEPROFILE_MODEL
  2
AecDbDispPropsEditInPlaceProfile
  3
AecBase50|Product Desc: Autodesk Architectural Desktop 2007 |Company: Autodesk,Inc. |WEB Address: www.autodesk.com
 90
    32897
280
     0
281
     0
  0
CLASS
  1
AEC_DISP_PROPS_DOOR
  2
AecDbDispPropsDoor
  3
AecArchBase50|Product Desc: Autodesk Architectural Desktop 2007 |Company: Autodesk,Inc. |WEB Address: www.autodesk.com
 90
    32897
280
     0
281
     0
  0
CLASS
  1
AEC_DISP_PROPS_MASKBLOCK
  2
AecDbDispPropsMaskBlock
  3
AecBase50|Product Desc: Autodesk Architectural Desktop 2007 |Company: Autodesk,Inc. |WEB Address: www.autodesk.com
 90
    32897
280
     0
281
     0
  0
CLASS
  1
AEC_DISP_PROPS_SPACE_PLAN
  2
AecDbDispPropsSpacePlan
  3
AecArchBase50|Product Desc: Autodesk Architectural Desktop 2007 |Company: Autodesk,Inc. |WEB Address: www.autodesk.com
 90
    32897
280
     0
281
     0
  0
CLASS
  1
AEC_DISP_PROPS_RAILING_PLAN
  2
AecDbDispPropsRailingPlan
  3
AecArchBase50|Product Desc: Autodesk Architectural Desktop 2007 |Company: Autodesk,Inc. |WEB Address: www.autodesk.com
 90
    32897
280
     0
281
     0
  0
CLASS
  1
AEC_DISP_PROPS_LAYOUT_GRID2D
  2
AecDbDispPropsLayoutGrid2d
  3
AecBase50|Product Desc: Autodesk Architectural Desktop 2007 |Company: Autodesk,Inc. |WEB Address: www.autodesk.com
 90
    32897
280
     0
281
     0
  0
CLASS
  1
AEC_DISP_PROPS_CLIP_VOLUME_RESULT
  2
AecDbDispPropsClipVolResSubDiv
  3
AecBase50|Product Desc: Autodesk Architectural Desktop 2007 |Company: Autodesk,Inc. |WEB Address: www.autodesk.com
 90
    32897
280
     0
281
     0
  0
CLASS
  1
AEC_DISP_PROPS_STAIR_MODEL
  2
AecDbDispPropsStairModel
  3
AecArchBase50|Product Desc: Autodesk Architectural Desktop 2007 |Company: Autodesk,Inc. |WEB Address: www.autodesk.com
 90
    32897
280
     0
281
     0
  0
CLASS
  1
AEC_DISP_PROPS_LAYOUT_CURVE
  2
AecDbDispPropsLayoutCurve
  3
AecBase50|Product Desc: Autodesk Architectural Desktop 2007 |Company: Autodesk,Inc. |WEB Address: www.autodesk.com
 90
    32897
280
     0
281
     0
  0
CLASS
  1
AEC_DISP_PROPS_POLYGON_MODEL
  2
AecDbDispPropsPolygonModel
  3
AecBaseEx50|Product Desc: Autodesk Architectural Desktop 2007 |Company: Autodesk,Inc. |WEB Address: www.autodesk.com
 90
    32897
280
     0
281
     0
  0
CLASS
  1
AEC_DISP_PROPS_MASS_GROUP
  2
AecDbDispPropsMassGroup
  3
AecBaseEx50|Product Desc: Autodesk Architectural Desktop 2007 |Company: Autodesk,Inc. |WEB Address: www.autodesk.com
 90
    32897
280
     0
281
     0
  0
CLASS
  1
AEC_DISP_PROPS_STAIR_PLAN
  2
AecDbDispPropsStairPlan
  3
AecArchBase50|Product Desc: Autodesk Architectural Desktop 2007 |Company: Autodesk,Inc. |WEB Address: www.autodesk.com
 90
    32897
280
     0
281
     0
  0
CLASS
  1
AEC_DISP_PROPS_OPENING
  2
AecDbDispPropsOpening
  3
AecArchBase50|Product Desc: Autodesk Architectural Desktop 2007 |Company: Autodesk,Inc. |WEB Address: www.autodesk.com
 90
    32897
280
     0
281
     0
  0
CLASS
  1
AEC_DISP_PROPS_WALL_GRAPH
  2
AecDbDispPropsWallGraph
  3
AecArchBase50|Product Desc: Autodesk Architectural Desktop 2007 |Company: Autodesk,Inc. |WEB Address: www.autodesk.com
 90
    32897
280
     0
281
     0
  0
CLASS
  1
AEC_DISP_PROPS_DOOR_NOMINAL
  2
AecDbDispPropsDoorNominal
  3
AecArchBase50|Product Desc: Autodesk Architectural Desktop 2007 |Company: Autodesk,Inc. |WEB Address: www.autodesk.com
 90
    32897
280
     0
281
     0
  0
CLASS
  1
AEC_DISP_PROPS_SLAB
  2
AecDbDispPropsSlab
  3
AecArchBase50|Product Desc: Autodesk Architectural Desktop 2007 |Company: Autodesk,Inc. |WEB Address: www.autodesk.com
 90
    32897
280
     0
281
     0
  0
CLASS
  1
AEC_DISP_PROPS_WALL_MODEL
  2
AecDbDispPropsWallModel
  3
AecArchBase50|Product Desc: Autodesk Architectural Desktop 2007 |Company: Autodesk,Inc. |WEB Address: www.autodesk.com
 90
    32897
280
     0
281
     0
  0
CLASS
  1
AEC_DISP_PROPS_MATERIAL
  2
AecDbDispPropsMaterial
  3
AecBase50|Product Desc: Autodesk Architectural Desktop 2007 |Company: Autodesk,Inc. |WEB Address: www.autodesk.com
 90
    32897
280
     0
281
     0
  0
CLASS
  1
AEC_DISP_PROPS_WINDOW
  2
AecDbDispPropsWindow
  3
AecArchBase50|Product Desc: Autodesk Architectural Desktop 2007 |Company: Autodesk,Inc. |WEB Address: www.autodesk.com
 90
    32897
280
     0
281
     0
  0
CLASS
  1
AEC_DISP_PROPS_LAYOUT_GRID3D
  2
AecDbDispPropsLayoutGrid3d
  3
AecBase50|Product Desc: Autodesk Architectural Desktop 2007 |Company: Autodesk,Inc. |WEB Address: www.autodesk.com
 90
    32897
280
     0
281
     0
  0
CLASS
  1
AEC_DISP_PROPS_GRID_ASSEMBLY_PLAN
  2
AecDbDispPropsGridAssemblyPlan
  3
AecArchBase50|Product Desc: Autodesk Architectural Desktop 2007 |Company: Autodesk,Inc. |WEB Address: www.autodesk.com
 90
    32897
280
     0
281
     0
  0
CLASS
  1
AEC_DISP_PROPS_WALL_SCHEM
  2
AecDbDispPropsWallSchem
  3
AecArchBase50|Product Desc: Autodesk Architectural Desktop 2007 |Company: Autodesk,Inc. |WEB Address: www.autodesk.com
 90
    32897
280
     0
281
     0
  0
CLASS
  1
AEC_DISP_PROPS_WALL_PLAN
  2
AecDbDispPropsWallPlan
  3
AecArchBase50|Product Desc: Autodesk Architectural Desktop 2007 |Company: Autodesk,Inc. |WEB Address: www.autodesk.com
 90
    32897
280
     0
281
     0
  0
CLASS
  1
AEC_DISP_PROPS_SPACE_BOUNDARY
  2
AecDbDispPropsSpaceBoundary
  3
AecArchBase50|Product Desc: Autodesk Architectural Desktop 2007 |Company: Autodesk,Inc. |WEB Address: www.autodesk.com
 90
    32897
280
     0
281
     0
  0
CLASS
  1
AEC_DISP_PROPS_SLAB_PLAN
  2
AecDbDispPropsSlabPlan
  3
AecArchBase50|Product Desc: Autodesk Architectural Desktop 2007 |Company: Autodesk,Inc. |WEB Address: www.autodesk.com
 90
    32897
280
     0
281
     0
  0
CLASS
  1
AEC_DISP_PROPS_RAILING_MODEL
  2
AecDbDispPropsRailingModel
  3
AecArchBase50|Product Desc: Autodesk Architectural Desktop 2007 |Company: Autodesk,Inc. |WEB Address: www.autodesk.com
 90
    32897
280
     0
281
     0
  0
CLASS
  1
AEC_DISP_PROPS_MASS_ELEM_MODEL
  2
AecDbDispPropsMassElem
  3
AecBaseEx50|Product Desc: Autodesk Architectural Desktop 2007 |Company: Autodesk,Inc. |WEB Address: www.autodesk.com
 90
    32897
280
     0
281
     0
  0
CLASS
  1
AEC_DISP_PROPS_DIM
  2
AecDbDispPropsDimGroup
  3
AecArchDACHBase50|Product Desc: Autodesk Architectural Desktop 2007 |Company: Autodesk,Inc. |WEB Address: www.autodesk.com
 90
    32897
280
     0
281
     0
  0
CLASS
  1
AEC_DISP_PROPS_ROOFSLAB
  2
AecDbDispPropsRoofSlab
  3
AecArchBase50|Product Desc: Autodesk Architectural Desktop 2007 |Company: Autodesk,Inc. |WEB Address: www.autodesk.com
 90
    32897
280
     0
281
     0
  0
CLASS
  1
AEC_DISP_PROPS_ENT_REF
  2
AecDbDispPropsEntRef
  3
AecBase50|Product Desc: Autodesk Architectural Desktop 2007 |Company: Autodesk,Inc. |WEB Address: www.autodesk.com
 90
    32897
280
     0
281
     0
  0
CLASS
  1
AEC_DISP_PROPS_2D_SECTION
  2
AecDbDispProps2dSection
  3
AecBase50|Product Desc: Autodesk Architectural Desktop 2007 |Company: Autodesk,Inc. |WEB Address: www.autodesk.com
 90
    32897
280
     0
281
     0
  0
CLASS
  1
AECS_DISP_PROPS_MEMBER_LOGICAL
  2
AecsDbDispPropsMemberLogical
  3
AecStructureBase50|Product Desc: Autodesk Architectural Desktop 2007 |Company: Autodesk,Inc. |WEB Address: www.autodesk.com
 90
    32897
280
     0
281
     0
  0
CLASS
  1
AEC_DISP_PROPS_AREA_DECOMPOSED
  2
AecDbDispPropsAreaDecomposed
  3
AecAreaCalculationBase50|Product Desc: Autodesk Architectural Desktop 2007 |Company: Autodesk,Inc. |WEB Address: www.autodesk.com
 90
    32897
280
     0
281
     0
  0
CLASS
  1
AEC_DISP_PROPS_CAMERA
  2
AecDbDispPropsCamera
  3
AecBase50|Product Desc: Autodesk Architectural Desktop 2007 |Company: Autodesk,Inc. |WEB Address: www.autodesk.com
 90
    32897
280
     0
281
     0
  0
CLASS
  1
AECS_DISP_PROPS_MEMBER
  2
AecsDbDispPropsMember
  3
AecStructureBase50|Product Desc: Autodesk Architectural Desktop 2007 |Company: Autodesk,Inc. |WEB Address: www.autodesk.com
 90
    32897
280
     0
281
     0
  0
CLASS
  1
AECS_DISP_PROPS_MEMBER_PLAN
  2
AecsDbDispPropsMemberPlan
  3
AecStructureBase50|Product Desc: Autodesk Architectural Desktop 2007 |Company: Autodesk,Inc. |WEB Address: www.autodesk.com
 90
    32897
280
     0
281
     0
  0
CLASS
  1
AEC_DISP_PROPS_AREAGROUP
  2
AecDbDispPropsAreaGroup
  3
AecAreaCalculationBase50|Product Desc: Autodesk Architectural Desktop 2007 |Company: Autodesk,Inc. |WEB Address: www.autodesk.com
 90
    32897
280
     0
281
     0
  0
CLASS
  1
AEC_DISP_PROPS_WINDOW_NOMINAL
  2
AecDbDispPropsWindowNominal
  3
AecArchBase50|Product Desc: Autodesk Architectural Desktop 2007 |Company: Autodesk,Inc. |WEB Address: www.autodesk.com
 90
    32897
280
     0
281
     0
  0
CLASS
  1
AEC_DISP_PROPS_AREA
  2
AecDbDispPropsArea
  3
AecAreaCalculationBase50|Product Desc: Autodesk Architectural Desktop 2007 |Company: Autodesk,Inc. |WEB Address: www.autodesk.com
 90
    32897
280
     0
281
     0
  0
CLASS
  1
AEC_DISP_PROPS_SCHEDULE_TABLE
  2
AecDbDispPropsScheduleTable
  3
AecSchedule50|Product Desc: Autodesk Architectural Desktop 2007 |Company: Autodesk,Inc. |WEB Address: www.autodesk.com
 90
    32897
280
     0
281
     0
  0
CLASS
  1
AEC_LAYERKEY_STYLE
  2
AecDbLayerKeyStyle
  3
AecBase50|Product Desc: Autodesk Architectural Desktop 2007 |Company: Autodesk,Inc. |WEB Address: www.autodesk.com
 90
    32897
280
     0
281
     0
  0
CLASS
  1
AEC_VARS_ARCHBASE
  2
AecDbVarsArchBase
  3
AecArchBase50|Product Desc: Autodesk Architectural Desktop 2007 |Company: Autodesk,Inc. |WEB Address: www.autodesk.com
 90
    32897
280
     0
281
     0
  0
CLASS
  1
AEC_VARS_MUNICH
  2
AecDbVarsMunich
  3
AecArchDACHBase50|Product Desc: Autodesk Architectural Desktop 2007 |Company: Autodesk,Inc. |WEB Address: www.autodesk.com
 90
    32897
280
     0
281
     0
  0
CLASS
  1
AEC_NOTIFICATION_TRACKER
  2
AecDbNotificationTracker
  3
AecBase50|Product Desc: Autodesk Architectural Desktop 2007 |Company: Autodesk,Inc. |WEB Address: www.autodesk.com
 90
    32897
280
     0
281
     0
  0
CLASS
  1
AEC_DISP_REP_ANCHOR
  2
AecDbDispRepAnchor
  3
AecBase50|Product Desc: Autodesk Architectural Desktop 2007 |Company: Autodesk,Inc. |WEB Address: www.autodesk.com
 90
    32897
280
     0
281
     0
  0
CLASS
  1
AEC_DISP_REP_POLYGON_TRUECOLOUR
  2
AecDbDispRepPolygonTrueColour
  3
AecBaseEx50|Product Desc: Autodesk Architectural Desktop 2007 |Company: Autodesk,Inc. |WEB Address: www.autodesk.com
 90
    32897
280
     0
281
     0
  0
CLASS
  1
AEC_DISP_PROPS_POLYGON_TRUECOLOUR
  2
AecDbDispPropsPolygonTrueColour
  3
AecBaseEx50|Product Desc: Autodesk Architectural Desktop 2007 |Company: Autodesk,Inc. |WEB Address: www.autodesk.com
 90
    32897
280
     0
281
     0
  0
CLASS
  1
AEC_DISP_REP_BDG_ELEVLINE_RCP
  2
AecDbDispRepBdgElevLineRcp
  3
AecArchBase50|Product Desc: Autodesk Architectural Desktop 2007 |Company: Autodesk,Inc. |WEB Address: www.autodesk.com
 90
    32897
280
     0
281
     0
  0
CLASS
  1
AEC_DISP_REP_BDG_SECTIONLINE_RCP
  2
AecDbDispRepBdgSectionLineRcp
  3
AecArchBase50|Product Desc: Autodesk Architectural Desktop 2007 |Company: Autodesk,Inc. |WEB Address: www.autodesk.com
 90
    32897
280
     0
281
     0
  0
CLASS
  1
AEC_DISP_REP_BDG_SECTION_MODEL
  2
AecDbDispRepBdgSectionModel
  3
AecArchBase50|Product Desc: Autodesk Architectural Desktop 2007 |Company: Autodesk,Inc. |WEB Address: www.autodesk.com
 90
    32897
280
     0
281
     0
  0
CLASS
  1
AEC_DISP_REP_DOOR_ELEV
  2
AecDbDispRepDoorElev
  3
AecArchBase50|Product Desc: Autodesk Architectural Desktop 2007 |Company: Autodesk,Inc. |WEB Address: www.autodesk.com
 90
    32897
280
     0
281
     0
  0
CLASS
  1
AEC_DISP_REP_DOOR_RCP
  2
AecDbDispRepDoorRcp
  3
AecArchBase50|Product Desc: Autodesk Architectural Desktop 2007 |Company: Autodesk,Inc. |WEB Address: www.autodesk.com
 90
    32897
280
     0
281
     0
  0
CLASS
  1
AEC_DISP_REP_DOOR_THRESHOLD_PLAN
  2
AecDbDispRepDoorThresholdPlan
  3
AecArchBase50|Product Desc: Autodesk Architectural Desktop 2007 |Company: Autodesk,Inc. |WEB Address: www.autodesk.com
 90
    32897
280
     0
281
     0
  0
CLASS
  1
AEC_DISP_PROPS_DOOR_THRESHOLD_PLAN
  2
AecDbDispPropsDoorThresholdPlan
  3
AecArchBase50|Product Desc: Autodesk Architectural Desktop 2007 |Company: Autodesk,Inc. |WEB Address: www.autodesk.com
 90
    32897
280
     0
281
     0
  0
CLASS
  1
AEC_DISP_REP_MASS_ELEM_RCP
  2
AecDbDispRepMassElemRcp
  3
AecArchBase50|Product Desc: Autodesk Architectural Desktop 2007 |Company: Autodesk,Inc. |WEB Address: www.autodesk.com
 90
    32897
280
     0
281
     0
  0
CLASS
  1
AEC_DISP_REP_MASS_GROUP_RCP
  2
AecDbDispRepMassGroupRcp
  3
AecArchBase50|Product Desc: Autodesk Architectural Desktop 2007 |Company: Autodesk,Inc. |WEB Address: www.autodesk.com
 90
    32897
280
     0
281
     0
  0
CLASS
  1
AEC_DISP_REP_MVBLOCK_REF_RCP
  2
AecDbDispRepMvBlockRefRcp
  3
AecArchBase50|Product Desc: Autodesk Architectural Desktop 2007 |Company: Autodesk,Inc. |WEB Address: www.autodesk.com
 90
    32897
280
     0
281
     0
  0
CLASS
  1
AEC_DISP_REP_ROOF_RCP
  2
AecDbDispRepRoofRcp
  3
AecArchBase50|Product Desc: Autodesk Architectural Desktop 2007 |Company: Autodesk,Inc. |WEB Address: www.autodesk.com
 90
    32897
280
     0
281
     0
  0
CLASS
  1
AEC_DISP_REP_SPACE_BOUNDARY_DIAGRAM
  2
AecDbDispRepSpaceBoundaryDgrm
  3
AecArchBase50|Product Desc: Autodesk Architectural Desktop 2007 |Company: Autodesk,Inc. |WEB Address: www.autodesk.com
 90
    32897
280
     0
281
     0
  0
CLASS
  1
AEC_DISP_REP_SPACE_RCP
  2
AecDbDispRepSpaceRcp
  3
AecArchBase50|Product Desc: Autodesk Architectural Desktop 2007 |Company: Autodesk,Inc. |WEB Address: www.autodesk.com
 90
    32897
280
     0
281
     0
  0
CLASS
  1
AEC_DISP_REP_SPACE_VOLUME
  2
AecDbDispRepSpaceVolume
  3
AecArchBase50|Product Desc: Autodesk Architectural Desktop 2007 |Company: Autodesk,Inc. |WEB Address: www.autodesk.com
 90
    32897
280
     0
281
     0
  0
CLASS
  1
AEC_DISP_REP_STAIR_PLAN_OVERLAPPING
  2
AecDbDispRepStairPlanOverlapping
  3
AecArchBase50|Product Desc: Autodesk Architectural Desktop 2007 |Company: Autodesk,Inc. |WEB Address: www.autodesk.com
 90
    32897
280
     0
281
     0
  0
CLASS
  1
AEC_DISP_PROPS_STAIR_PLAN_OVERLAPPING
  2
AecDbDispPropsStairPlanOverlapping
  3
AecArchBase50|Product Desc: Autodesk Architectural Desktop 2007 |Company: Autodesk,Inc. |WEB Address: www.autodesk.com
 90
    32897
280
     0
281
     0
  0
CLASS
  1
AEC_DISP_REP_STAIR_RCP
  2
AecDbDispRepStairRcp
  3
AecArchBase50|Product Desc: Autodesk Architectural Desktop 2007 |Company: Autodesk,Inc. |WEB Address: www.autodesk.com
 90
    32897
280
     0
281
     0
  0
CLASS
  1
AEC_DISP_REP_WALL_RCP
  2
AecDbDispRepWallRcp
  3
AecArchBase50|Product Desc: Autodesk Architectural Desktop 2007 |Company: Autodesk,Inc. |WEB Address: www.autodesk.com
 90
    32897
280
     0
281
     0
  0
CLASS
  1
AEC_DISP_REP_WINDOWASSEMBLY_SILL_PLAN
  2
AecDbDispRepWindowAssemblySillPlan
  3
AecArchBase50|Product Desc: Autodesk Architectural Desktop 2007 |Company: Autodesk,Inc. |WEB Address: www.autodesk.com
 90
    32897
280
     0
281
     0
  0
CLASS
  1
AEC_DISP_PROPS_WINDOW_ASSEMBLY_SILL_PLAN
  2
AecDbDispPropsWindowAssemblySillPlan
  3
AecArchBase50|Product Desc: Autodesk Architectural Desktop 2007 |Company: Autodesk,Inc. |WEB Address: www.autodesk.com
 90
    32897
280
     0
281
     0
  0
CLASS
  1
AEC_DISP_REP_WINDOW_ELEV
  2
AecDbDispRepWindowElev
  3
AecArchBase50|Product Desc: Autodesk Architectural Desktop 2007 |Company: Autodesk,Inc. |WEB Address: www.autodesk.com
 90
    32897
280
     0
281
     0
  0
CLASS
  1
AEC_DISP_REP_WINDOW_RCP
  2
AecDbDispRepWindowRcp
  3
AecArchBase50|Product Desc: Autodesk Architectural Desktop 2007 |Company: Autodesk,Inc. |WEB Address: www.autodesk.com
 90
    32897
280
     0
281
     0
  0
CLASS
  1
AEC_DISP_REP_WINDOW_SILL_PLAN
  2
AecDbDispRepWindowSillPlan
  3
AecArchBase50|Product Desc: Autodesk Architectural Desktop 2007 |Company: Autodesk,Inc. |WEB Address: www.autodesk.com
 90
    32897
280
     0
281
     0
  0
CLASS
  1
AEC_DISP_PROPS_WINDOW_SILL_PLAN
  2
AecDbDispPropsWindowSillPlan
  3
AecArchBase50|Product Desc: Autodesk Architectural Desktop 2007 |Company: Autodesk,Inc. |WEB Address: www.autodesk.com
 90
    32897
280
     0
281
     0
  0
CLASS
  1
AEC_DISP_REP_ANCHOR_BUB_TO_GRID_RCP
  2
AecDbDispRepAnchorBubToGridRcp
  3
AecStructureBase50|Product Desc: Autodesk Architectural Desktop 2007 |Company: Autodesk,Inc. |WEB Address: www.autodesk.com
 90
    32897
280
     0
281
     0
  0
CLASS
  1
AEC_DISP_REP_COLUMN_GRID_RCP
  2
AecDbDispRepColumnGridRcp
  3
AecStructureBase50|Product Desc: Autodesk Architectural Desktop 2007 |Company: Autodesk,Inc. |WEB Address: www.autodesk.com
 90
    32897
280
     0
281
     0
  0
CLASS
  1
AECS_DISP_REP_MEMBER_ELEVATION_DESIGN
  2
AecsDbDispRepMemberElevationDesign
  3
AecStructureBase50|Product Desc: Autodesk Architectural Desktop 2007 |Company: Autodesk,Inc. |WEB Address: www.autodesk.com
 90
    32897
280
     0
281
     0
  0
CLASS
  1
AECS_DISP_PROPS_MEMBER_PROJECTED
  2
AecsDbDispPropsMemberProjected
  3
AecStructureBase50|Product Desc: Autodesk Architectural Desktop 2007 |Company: Autodesk,Inc. |WEB Address: www.autodesk.com
 90
    32897
280
     0
281
     0
  0
CLASS
  1
AECS_DISP_REP_MEMBER_ELEVATION_DETAIL
  2
AecsDbDispRepMemberElevationDetail
  3
AecStructureBase50|Product Desc: Autodesk Architectural Desktop 2007 |Company: Autodesk,Inc. |WEB Address: www.autodesk.com
 90
    32897
280
     0
281
     0
  0
CLASS
  1
AECS_DISP_REP_MEMBER_MODEL_DETAIL
  2
AecsDbDispRepMemberModelDetail
  3
AecStructureBase50|Product Desc: Autodesk Architectural Desktop 2007 |Company: Autodesk,Inc. |WEB Address: www.autodesk.com
 90
    32897
280
     0
281
     0
  0
CLASS
  1
AECS_DISP_REP_MEMBER_PLAN_DETAIL
  2
AecsDbDispRepMemberPlanDetail
  3
AecStructureBase50|Product Desc: Autodesk Architectural Desktop 2007 |Company: Autodesk,Inc. |WEB Address: www.autodesk.com
 90
    32897
280
     0
281
     0
  0
CLASS
  1
AECS_DISP_REP_MEMBER_PLAN_SKETCH
  2
AecsDbDispRepMemberPlanSketch
  3
AecStructureBase50|Product Desc: Autodesk Architectural Desktop 2007 |Company: Autodesk,Inc. |WEB Address: www.autodesk.com
 90
    32897
280
     0
281
     0
  0
CLASS
  1
AECS_DISP_PROPS_MEMBER_PLAN_SKETCH
  2
AecsDbDispPropsMemberPlanSketch
  3
AecStructureBase50|Product Desc: Autodesk Architectural Desktop 2007 |Company: Autodesk,Inc. |WEB Address: www.autodesk.com
 90
    32897
280
     0
281
     0
  0
CLASS
  1
AEC_AECDBDISPREPAREA100
  2
AecDbDispRepArea100
  3
AecArchDACHBase50|Product Desc: Autodesk Architectural Desktop 2007 |Company: Autodesk,Inc. |WEB Address: www.autodesk.com
 90
    32897
280
     0
281
     0
  0
CLASS
  1
AEC_AECDBDISPREPAREAGROUP100
  2
AecDbDispRepAreaGroup100
  3
AecArchDACHBase50|Product Desc: Autodesk Architectural Desktop 2007 |Company: Autodesk,Inc. |WEB Address: www.autodesk.com
 90
    32897
280
     0
281
     0
  0
CLASS
  1
AEC_AECDBDISPREPBDGELEVLINEPLAN100
  2
AecDbDispRepBdgElevLinePlan100
  3
AecArchDACHBase50|Product Desc: Autodesk Architectural Desktop 2007 |Company: Autodesk,Inc. |WEB Address: www.autodesk.com
 90
    32897
280
     0
281
     0
  0
CLASS
  1
AEC_AECDBDISPREPBDGSECTIONLINEPLAN100
  2
AecDbDispRepBdgSectionLinePlan100
  3
AecArchDACHBase50|Product Desc: Autodesk Architectural Desktop 2007 |Company: Autodesk,Inc. |WEB Address: www.autodesk.com
 90
    32897
280
     0
281
     0
  0
CLASS
  1
AEC_AECDBDISPREPCEILINGGRIDPLAN100
  2
AecDbDispRepCeilingGridPlan100
  3
AecArchDACHBase50|Product Desc: Autodesk Architectural Desktop 2007 |Company: Autodesk,Inc. |WEB Address: www.autodesk.com
 90
    32897
280
     0
281
     0
  0
CLASS
  1
AEC_AECDBDISPREPCOLUMNGRIDPLAN100
  2
AecDbDispRepColumnGridPlan100
  3
AecArchDACHBase50|Product Desc: Autodesk Architectural Desktop 2007 |Company: Autodesk,Inc. |WEB Address: www.autodesk.com
 90
    32897
280
     0
281
     0
  0
CLASS
  1
AEC_AECDBDISPREPCURTAINWALLLAYOUTPLAN100
  2
AecDbDispRepCurtainWallLayoutPlan100
  3
AecArchDACHBase50|Product Desc: Autodesk Architectural Desktop 2007 |Company: Autodesk,Inc. |WEB Address: www.autodesk.com
 90
    32897
280
     0
281
     0
  0
CLASS
  1
AEC_AECDBDISPREPCURTAINWALLUNITPLAN100
  2
AecDbDispRepCurtainWallUnitPlan100
  3
AecArchDACHBase50|Product Desc: Autodesk Architectural Desktop 2007 |Company: Autodesk,Inc. |WEB Address: www.autodesk.com
 90
    32897
280
     0
281
     0
  0
CLASS
  1
AEC_AECDBDISPREPMVBLOCKREFPLAN100
  2
AecDbDispRepMvBlockRefPlan100
  3
AecArchDACHBase50|Product Desc: Autodesk Architectural Desktop 2007 |Company: Autodesk,Inc. |WEB Address: www.autodesk.com
 90
    32897
280
     0
281
     0
  0
CLASS
  1
AEC_AECDBDISPREPROOFPLAN100
  2
AecDbDispRepRoofPlan100
  3
AecArchDACHBase50|Product Desc: Autodesk Architectural Desktop 2007 |Company: Autodesk,Inc. |WEB Address: www.autodesk.com
 90
    32897
280
     0
281
     0
  0
CLASS
  1
AEC_AECDBDISPREPROOFSLABPLAN100
  2
AecDbDispRepRoofSlabPlan100
  3
AecArchDACHBase50|Product Desc: Autodesk Architectural Desktop 2007 |Company: Autodesk,Inc. |WEB Address: www.autodesk.com
 90
    32897
280
     0
281
     0
  0
CLASS
  1
AEC_AECDBDISPREPSLABPLAN100
  2
AecDbDispRepSlabPlan100
  3
AecArchDACHBase50|Product Desc: Autodesk Architectural Desktop 2007 |Company: Autodesk,Inc. |WEB Address: www.autodesk.com
 90
    32897
280
     0
281
     0
  0
CLASS
  1
AEC_AECDBDISPREPSPACEBOUNDARYPLAN100
  2
AecDbDispRepSpaceBoundaryPlan100
  3
AecArchDACHBase50|Product Desc: Autodesk Architectural Desktop 2007 |Company: Autodesk,Inc. |WEB Address: www.autodesk.com
 90
    32897
280
     0
281
     0
  0
CLASS
  1
AEC_AECDBDISPREPSPACEPLAN100
  2
AecDbDispRepSpacePlan100
  3
AecArchDACHBase50|Product Desc: Autodesk Architectural Desktop 2007 |Company: Autodesk,Inc. |WEB Address: www.autodesk.com
 90
    32897
280
     0
281
     0
  0
CLASS
  1
AEC_AECDBDISPREPWALLPLAN100
  2
AecDbDispRepWallPlan100
  3
AecArchDACHBase50|Product Desc: Autodesk Architectural Desktop 2007 |Company: Autodesk,Inc. |WEB Address: www.autodesk.com
 90
    32897
280
     0
281
     0
  0
CLASS
  1
AEC_AECDBDISPREPAREA50
  2
AecDbDispRepArea50
  3
AecArchDACHBase50|Product Desc: Autodesk Architectural Desktop 2007 |Company: Autodesk,Inc. |WEB Address: www.autodesk.com
 90
    32897
280
     0
281
     0
  0
CLASS
  1
AEC_AECDBDISPREPAREAGROUP50
  2
AecDbDispRepAreaGroup50
  3
AecArchDACHBase50|Product Desc: Autodesk Architectural Desktop 2007 |Company: Autodesk,Inc. |WEB Address: www.autodesk.com
 90
    32897
280
     0
281
     0
  0
CLASS
  1
AEC_AECDBDISPREPBDGELEVLINEPLAN50
  2
AecDbDispRepBdgElevLinePlan50
  3
AecArchDACHBase50|Product Desc: Autodesk Architectural Desktop 2007 |Company: Autodesk,Inc. |WEB Address: www.autodesk.com
 90
    32897
280
     0
281
     0
  0
CLASS
  1
AEC_AECDBDISPREPBDGSECTIONLINEPLAN50
  2
AecDbDispRepBdgSectionLinePlan50
  3
AecArchDACHBase50|Product Desc: Autodesk Architectural Desktop 2007 |Company: Autodesk,Inc. |WEB Address: www.autodesk.com
 90
    32897
280
     0
281
     0
  0
CLASS
  1
AEC_AECDBDISPREPCEILINGGRIDPLAN50
  2
AecDbDispRepCeilingGridPlan50
  3
AecArchDACHBase50|Product Desc: Autodesk Architectural Desktop 2007 |Company: Autodesk,Inc. |WEB Address: www.autodesk.com
 90
    32897
280
     0
281
     0
  0
CLASS
  1
AEC_AECDBDISPREPCOLUMNGRIDPLAN50
  2
AecDbDispRepColumnGridPlan50
  3
AecArchDACHBase50|Product Desc: Autodesk Architectural Desktop 2007 |Company: Autodesk,Inc. |WEB Address: www.autodesk.com
 90
    32897
280
     0
281
     0
  0
CLASS
  1
AEC_AECDBDISPREPCURTAINWALLLAYOUTPLAN50
  2
AecDbDispRepCurtainWallLayoutPlan50
  3
AecArchDACHBase50|Product Desc: Autodesk Architectural Desktop 2007 |Company: Autodesk,Inc. |WEB Address: www.autodesk.com
 90
    32897
280
     0
281
     0
  0
CLASS
  1
AEC_AECDBDISPREPCURTAINWALLUNITPLAN50
  2
AecDbDispRepCurtainWallUnitPlan50
  3
AecArchDACHBase50|Product Desc: Autodesk Architectural Desktop 2007 |Company: Autodesk,Inc. |WEB Address: www.autodesk.com
 90
    32897
280
     0
281
     0
  0
CLASS
  1
AEC_AECDBDISPREPMVBLOCKREFPLAN50
  2
AecDbDispRepMvBlockRefPlan50
  3
AecArchDACHBase50|Product Desc: Autodesk Architectural Desktop 2007 |Company: Autodesk,Inc. |WEB Address: www.autodesk.com
 90
    32897
280
     0
281
     0
  0
CLASS
  1
AEC_AECDBDISPREPROOFPLAN50
  2
AecDbDispRepRoofPlan50
  3
AecArchDACHBase50|Product Desc: Autodesk Architectural Desktop 2007 |Company: Autodesk,Inc. |WEB Address: www.autodesk.com
 90
    32897
280
     0
281
     0
  0
CLASS
  1
AEC_AECDBDISPREPROOFSLABPLAN50
  2
AecDbDispRepRoofSlabPlan50
  3
AecArchDACHBase50|Product Desc: Autodesk Architectural Desktop 2007 |Company: Autodesk,Inc. |WEB Address: www.autodesk.com
 90
    32897
280
     0
281
     0
  0
CLASS
  1
AEC_AECDBDISPREPSLABPLAN50
  2
AecDbDispRepSlabPlan50
  3
AecArchDACHBase50|Product Desc: Autodesk Architectural Desktop 2007 |Company: Autodesk,Inc. |WEB Address: www.autodesk.com
 90
    32897
280
     0
281
     0
  0
CLASS
  1
AEC_AECDBDISPREPSPACEBOUNDARYPLAN50
  2
AecDbDispRepSpaceBoundaryPlan50
  3
AecArchDACHBase50|Product Desc: Autodesk Architectural Desktop 2007 |Company: Autodesk,Inc. |WEB Address: www.autodesk.com
 90
    32897
280
     0
281
     0
  0
CLASS
  1
AEC_AECDBDISPREPSPACEPLAN50
  2
AecDbDispRepSpacePlan50
  3
AecArchDACHBase50|Product Desc: Autodesk Architectural Desktop 2007 |Company: Autodesk,Inc. |WEB Address: www.autodesk.com
 90
    32897
280
     0
281
     0
  0
CLASS
  1
AEC_AECDBDISPREPWALLPLAN50
  2
AecDbDispRepWallPlan50
  3
AecArchDACHBase50|Product Desc: Autodesk Architectural Desktop 2007 |Company: Autodesk,Inc. |WEB Address: www.autodesk.com
 90
    32897
280
     0
281
     0
  0
CLASS
  1
AEC_AECDBDISPREPWINDOWASSEMBLYPLAN50
  2
AecDbDispRepWindowAssemblyPlan50
  3
AecArchDACHBase50|Product Desc: Autodesk Architectural Desktop 2007 |Company: Autodesk,Inc. |WEB Address: www.autodesk.com
 90
    32897
280
     0
281
     0
  0
CLASS
  1
AEC_DB_DISP_REP_DIM_GROUP_PLAN100
  2
AecDbDispRepDimGroupPlan100
  3
AecArchDACHBase50|Product Desc: Autodesk Architectural Desktop 2007 |Company: Autodesk,Inc. |WEB Address: www.autodesk.com
 90
    32897
280
     0
281
     0
  0
CLASS
  1
AEC_DB_DISP_REP_DIM_GROUP_PLAN50
  2
AecDbDispRepDimGroupPlan50
  3
AecArchDACHBase50|Product Desc: Autodesk Architectural Desktop 2007 |Company: Autodesk,Inc. |WEB Address: www.autodesk.com
 90
    32897
280
     0
281
     0
  0
CLASS
  1
AEC_DISP_REP_DOOR_PLAN_50
  2
AecDbDispRepDoorPlan50
  3
AecArchDACHBase50|Product Desc: Autodesk Architectural Desktop 2007 |Company: Autodesk,Inc. |WEB Address: www.autodesk.com
 90
    32897
280
     0
281
     0
  0
CLASS
  1
AEC_DISP_PROPS_DOOR_PLAN_50
  2
AecDbDispPropsDoorPlan50
  3
AecArchDACHBase50|Product Desc: Autodesk Architectural Desktop 2007 |Company: Autodesk,Inc. |WEB Address: www.autodesk.com
 90
    32897
280
     0
281
     0
  0
CLASS
  1
AEC_DISP_REP_DOOR_PLAN_HEKTO
  2
AecDbDispRepDoorPlanHekto
  3
AecArchDACHBase50|Product Desc: Autodesk Architectural Desktop 2007 |Company: Autodesk,Inc. |WEB Address: www.autodesk.com
 90
    32897
280
     0
281
     0
  0
CLASS
  1
AEC_DISP_PROPS_DOOR_PLAN_100
  2
AecDbDispPropsDoorPlan100
  3
AecArchDACHBase50|Product Desc: Autodesk Architectural Desktop 2007 |Company: Autodesk,Inc. |WEB Address: www.autodesk.com
 90
    32897
280
     0
281
     0
  0
CLASS
  1
AEC_DISP_REP_DOOR_THRESHOLD_SYMBOL_PLAN
  2
AecDbDispRepDoorThresholdSymbolPlan
  3
AecArchDACHBase50|Product Desc: Autodesk Architectural Desktop 2007 |Company: Autodesk,Inc. |WEB Address: www.autodesk.com
 90
    32897
280
     0
281
     0
  0
CLASS
  1
AEC_DISP_PROPS_DOOR_THRESHOLD_SYMBOL_PLAN
  2
AecDbDispPropsDoorThresholdSymbolPlan
  3
AecArchDACHBase50|Product Desc: Autodesk Architectural Desktop 2007 |Company: Autodesk,Inc. |WEB Address: www.autodesk.com
 90
    32897
280
     0
281
     0
  0
CLASS
  1
AEC_DISPREPAECDBDISPREPMASSELEMPLAN100
  2
AecDbDispRepMassElemPlan100
  3
AecArchDACHBase50|Product Desc: Autodesk Architectural Desktop 2007 |Company: Autodesk,Inc. |WEB Address: www.autodesk.com
 90
    32897
280
     0
281
     0
  0
CLASS
  1
AEC_DISPROPSMASSELEMPLANCOMMON
  2
AecDbDispPropsMassElemPlanCommon
  3
AecArchDACHBase50|Product Desc: Autodesk Architectural Desktop 2007 |Company: Autodesk,Inc. |WEB Address: www.autodesk.com
 90
    32897
280
     0
281
     0
  0
CLASS
  1
AEC_DISPREPAECDBDISPREPMASSELEMPLAN50
  2
AecDbDispRepMassElemPlan50
  3
AecArchDACHBase50|Product Desc: Autodesk Architectural Desktop 2007 |Company: Autodesk,Inc. |WEB Address: www.autodesk.com
 90
    32897
280
     0
281
     0
  0
CLASS
  1
AEC_DISPREPAECDBDISPREPMASSGROUPPLAN100
  2
AecDbDispRepMassGroupPlan100
  3
AecArchDACHBase50|Product Desc: Autodesk Architectural Desktop 2007 |Company: Autodesk,Inc. |WEB Address: www.autodesk.com
 90
    32897
280
     0
281
     0
  0
CLASS
  1
AEC_DISPROPSMASSGROUPPLANCOMMON
  2
AecDbDispPropsMassGroupPlanCommon
  3
AecArchDACHBase50|Product Desc: Autodesk Architectural Desktop 2007 |Company: Autodesk,Inc. |WEB Address: www.autodesk.com
 90
    32897
280
     0
281
     0
  0
CLASS
  1
AEC_DISPREPAECDBDISPREPMASSGROUPPLAN50
  2
AecDbDispRepMassGroupPlan50
  3
AecArchDACHBase50|Product Desc: Autodesk Architectural Desktop 2007 |Company: Autodesk,Inc. |WEB Address: www.autodesk.com
 90
    32897
280
     0
281
     0
  0
CLASS
  1
AEC_DISPREPAECDBDISPREPOPENINGPLAN100
  2
AecDbDispRepOpeningPlan100
  3
AecArchDACHBase50|Product Desc: Autodesk Architectural Desktop 2007 |Company: Autodesk,Inc. |WEB Address: www.autodesk.com
 90
    32897
280
     0
281
     0
  0
CLASS
  1
AEC_DISPROPSOPENINGPLANCOMMONHATCHED
  2
AecDbDispPropsOpeningPlanCommonHatched
  3
AecArchDACHBase50|Product Desc: Autodesk Architectural Desktop 2007 |Company: Autodesk,Inc. |WEB Address: www.autodesk.com
 90
    32897
280
     0
281
     0
  0
CLASS
  1
AEC_DISPREPAECDBDISPREPOPENINGPLAN50
  2
AecDbDispRepOpeningPlan50
  3
AecArchDACHBase50|Product Desc: Autodesk Architectural Desktop 2007 |Company: Autodesk,Inc. |WEB Address: www.autodesk.com
 90
    32897
280
     0
281
     0
  0
CLASS
  1
AEC_DISPREPAECDBDISPREPOPENINGPLANREFLECTED
  2
AecDbDispRepOpeningPlanReflected
  3
AecArchDACHBase50|Product Desc: Autodesk Architectural Desktop 2007 |Company: Autodesk,Inc. |WEB Address: www.autodesk.com
 90
    32897
280
     0
281
     0
  0
CLASS
  1
AEC_DISPROPSOPENINGPLANCOMMON
  2
AecDbDispPropsOpeningPlanCommon
  3
AecArchDACHBase50|Product Desc: Autodesk Architectural Desktop 2007 |Company: Autodesk,Inc. |WEB Address: www.autodesk.com
 90
    32897
280
     0
281
     0
  0
CLASS
  1
AEC_DISPREPAECDBDISPREPOPENINGSILLPLAN
  2
AecDbDispRepOpeningSillPlan
  3
AecArchDACHBase50|Product Desc: Autodesk Architectural Desktop 2007 |Company: Autodesk,Inc. |WEB Address: www.autodesk.com
 90
    32897
280
     0
281
     0
  0
CLASS
  1
AEC_DISPROPSOPENINGSILLPLAN
  2
AecDbDispPropsOpeningSillPlan
  3
AecArchDACHBase50|Product Desc: Autodesk Architectural Desktop 2007 |Company: Autodesk,Inc. |WEB Address: www.autodesk.com
 90
    32897
280
     0
281
     0
  0
CLASS
  1
AEC_DISP_REP_RAILING_PLAN_100
  2
AecDbDispRepRailingPlan100
  3
AecArchDACHBase50|Product Desc: Autodesk Architectural Desktop 2007 |Company: Autodesk,Inc. |WEB Address: www.autodesk.com
 90
    32897
280
     0
281
     0
  0
CLASS
  1
AEC_DISP_ROPS_RAILING_PLAN_100
  2
AecDbDispPropsRailingPlan100
  3
AecArchDACHBase50|Product Desc: Autodesk Architectural Desktop 2007 |Company: Autodesk,Inc. |WEB Address: www.autodesk.com
 90
    32897
280
     0
281
     0
  0
CLASS
  1
AEC_DISP_REP_RAILING_PLAN_50
  2
AecDbDispRepRailingPlan50
  3
AecArchDACHBase50|Product Desc: Autodesk Architectural Desktop 2007 |Company: Autodesk,Inc. |WEB Address: www.autodesk.com
 90
    32897
280
     0
281
     0
  0
CLASS
  1
AEC_DISP_ROPS_RAILING_PLAN_50
  2
AecDbDispPropsRailingPlan50
  3
AecArchDACHBase50|Product Desc: Autodesk Architectural Desktop 2007 |Company: Autodesk,Inc. |WEB Address: www.autodesk.com
 90
    32897
280
     0
281
     0
  0
CLASS
  1
AEC_DISP_REP_STAIR_PLAN_100
  2
AecDbDispRepStairPlan100
  3
AecArchDACHBase50|Product Desc: Autodesk Architectural Desktop 2007 |Company: Autodesk,Inc. |WEB Address: www.autodesk.com
 90
    32897
280
     0
281
     0
  0
CLASS
  1
AEC_DISP_ROPS_STAIR_PLAN_100
  2
AecDbDispPropsStairPlan100
  3
AecArchDACHBase50|Product Desc: Autodesk Architectural Desktop 2007 |Company: Autodesk,Inc. |WEB Address: www.autodesk.com
 90
    32897
280
     0
281
     0
  0
CLASS
  1
AEC_DISP_REP_STAIR_PLAN_50
  2
AecDbDispRepStairPlan50
  3
AecArchDACHBase50|Product Desc: Autodesk Architectural Desktop 2007 |Company: Autodesk,Inc. |WEB Address: www.autodesk.com
 90
    32897
280
     0
281
     0
  0
CLASS
  1
AEC_DISP_ROPS_STAIR_PLAN_50
  2
AecDbDispPropsStairPlan50
  3
AecArchDACHBase50|Product Desc: Autodesk Architectural Desktop 2007 |Company: Autodesk,Inc. |WEB Address: www.autodesk.com
 90
    32897
280
     0
281
     0
  0
CLASS
  1
AEC_DISP_REP_WINDOW_PLAN_100
  2
AecDbDispRepWindowPlan100
  3
AecArchDACHBase50|Product Desc: Autodesk Architectural Desktop 2007 |Company: Autodesk,Inc. |WEB Address: www.autodesk.com
 90
    32897
280
     0
281
     0
  0
CLASS
  1
AEC_DISP_PROPS_WINDOW_PLAN_100
  2
AecDbDispPropsWindowPlan100
  3
AecArchDACHBase50|Product Desc: Autodesk Architectural Desktop 2007 |Company: Autodesk,Inc. |WEB Address: www.autodesk.com
 90
    32897
280
     0
281
     0
  0
CLASS
  1
AEC_DISP_REP_WINDOW_PLAN_50
  2
AecDbDispRepWindowPlan50
  3
AecArchDACHBase50|Product Desc: Autodesk Architectural Desktop 2007 |Company: Autodesk,Inc. |WEB Address: www.autodesk.com
 90
    32897
280
     0
281
     0
  0
CLASS
  1
AEC_DISP_PROPS_WINDOW_PLAN_50
  2
AecDbDispPropsWindowPlan50
  3
AecArchDACHBase50|Product Desc: Autodesk Architectural Desktop 2007 |Company: Autodesk,Inc. |WEB Address: www.autodesk.com
 90
    32897
280
     0
281
     0
  0
CLASS
  1
BINRECORD
  2
AcAecBinRecord
  3
AecBase50|Product Desc: Autodesk Architectural Desktop 2007 |Company: Autodesk,Inc. |WEB Address: www.autodesk.com
 90
    32897
280
     0
281
     0
  0
CLASS
  1
SPATIAL_FILTER
  2
AcDbSpatialFilter
  3
ObjectDBX Classes
 90
    32768
280
     0
281
     0
  0
CLASS
  1
AEC_VARS_STRUCTUREBASE
  2
AecsDbVarsStructureBase
  3
AecStructureBase50|Product Desc: Autodesk Architectural Desktop 2007 |Company: Autodesk,Inc. |WEB Address: www.autodesk.com
 90
    32897
280
     0
281
     0
  0
CLASS
  1
DIMASSOC
  2
AcDbDimAssoc
  3
"AcDbDimAssoc|Product Desc:     AcDim ARX App For Dimension|Company:          Autodesk, Inc.|WEB Address:      www.autodesk.com"
 90
    32768
280
     0
281
     0
  0
CLASS
  1
TABLESTYLE
  2
AcDbTableStyle
  3
ObjectDBX Classes
 90
     4095
280
     0
281
     0
  0
CLASS
  1
MATERIAL
  2
AcDbMaterial
  3
ObjectDBX Classes
 90
     1153
280
     0
281
     0
  0
CLASS
  1
VISUALSTYLE
  2
AcDbVisualStyle
  3
ObjectDBX Classes
 90
     4095
280
     0
281
     0
  0
CLASS
  1
EXACXREFPANELOBJECT
  2
ExAcXREFPanelObject
  3
EXAC_ESW
 90
    33793
280
     1
281
     0
  0
CLASS
  1
NPOCOLLECTION
  2
AcDbImpNonPersistentObjectsCollection
  3
ObjectDBX Classes
 90
    33921
280
     0
281
     0
  0
CLASS
  1
AEC_AECDBDISPREPZONE100
  2
AecDbDispRepZonePlan100
  3
AecArchDACHBase50|Product Desc: Autodesk Architectural Desktop 2007 |Company: Autodesk,Inc. |WEB Address: www.autodesk.com
 90
    32897
280
     0
281
     0
  0
CLASS
  1
AEC_DISP_PROPS_ZONE
  2
AecDbDispPropsZone
  3
AecArchBase50|Product Desc: Autodesk Architectural Desktop 2007 |Company: Autodesk,Inc. |WEB Address: www.autodesk.com
 90
    32897
280
     0
281
     0
  0
CLASS
  1
AEC_AECDBDISPREPZONE50
  2
AecDbDispRepZonePlan50
  3
AecArchDACHBase50|Product Desc: Autodesk Architectural Desktop 2007 |Company: Autodesk,Inc. |WEB Address: www.autodesk.com
 90
    32897
280
     0
281
     0
  0
CLASS
  1
AEC_DISP_REP_DISPLAYTHEME
  2
AecDbDispRepDisplayTheme
  3
AecBase50|Product Desc: Autodesk Architectural Desktop 2007 |Company: Autodesk,Inc. |WEB Address: www.autodesk.com
 90
    32897
280
     0
281
     0
  0
CLASS
  1
AEC_DISP_PROPS_DISPLAYTHEME
  2
AecDbDispPropsDisplayTheme
  3
AecBase50|Product Desc: Autodesk Architectural Desktop 2007 |Company: Autodesk,Inc. |WEB Address: www.autodesk.com
 90
    32897
280
     0
281
     0
  0
CLASS
  1
AEC_DISP_REP_ANCHOR_EXT_TAG_TO_ENT
  2
AecDbDispRepAnchorExtendedTagToEnt
  3
AecScheduleData50|Product Desc: Autodesk Architectural Desktop 2007 |Company: Autodesk,Inc. |WEB Address: www.autodesk.com
 90
    32897
280
     0
281
     0
  0
CLASS
  1
AEC_DISP_REP_SPACE_DECOMPOSED
  2
AecDbDispRepSpaceDecomposed
  3
AecArchBase50|Product Desc: Autodesk Architectural Desktop 2007 |Company: Autodesk,Inc. |WEB Address: www.autodesk.com
 90
    32897
280
     0
281
     0
  0
CLASS
  1
AEC_DISP_PROPS_SPACE_DECOMPOSED
  2
AecDbDispPropsSpaceDecomposed
  3
AecArchBase50|Product Desc: Autodesk Architectural Desktop 2007 |Company: Autodesk,Inc. |WEB Address: www.autodesk.com
 90
    32897
280
     0
281
     0
  0
CLASS
  1
AEC_DISP_REP_ZONE
  2
AecDbDispRepZone
  3
AecArchBase50|Product Desc: Autodesk Architectural Desktop 2007 |Company: Autodesk,Inc. |WEB Address: www.autodesk.com
 90
    32897
280
     0
281
     0
  0
CLASS
  1
ACAD_EVALUATION_GRAPH
  2
AcDbEvalGraph
  3
ObjectDBX Classes
 90
    33921
280
     0
281
     0
  0
CLASS
  1
BLOCKFLIPPARAMETER
  2
AcDbBlockFlipParameter
  3
ObjectDBX Classes
 90
    33921
280
     0
281
     0
  0
CLASS
  1
BLOCKFLIPGRIP
  2
AcDbBlockFlipGrip
  3
ObjectDBX Classes
 90
    33921
280
     0
281
     0
  0
CLASS
  1
BLOCKGRIPLOCATIONCOMPONENT
  2
AcDbBlockGripExpr
  3
ObjectDBX Classes
 90
    33921
280
     0
281
     0
  0
CLASS
  1
BLOCKFLIPACTION
  2
AcDbBlockFlipAction
  3
ObjectDBX Classes
 90
    33921
280
     0
281
     0
  0
CLASS
  1
BLOCKROTATIONPARAMETER
  2
AcDbBlockRotationParameter
  3
ObjectDBX Classes
 90
    33921
280
     0
281
     0
  0
CLASS
  1
BLOCKROTATIONGRIP
  2
AcDbBlockRotationGrip
  3
ObjectDBX Classes
 90
    33921
280
     0
281
     0
  0
CLASS
  1
BLOCKROTATEACTION
  2
AcDbBlockRotateAction
  3
ObjectDBX Classes
 90
    33921
280
     0
281
     0
  0
CLASS
  1
BLOCKBASEPOINTPARAMETER
  2
AcDbBlockBasepointParameter
  3
ObjectDBX Classes
 90
    33921
280
     0
281
     0
  0
CLASS
  1
ACDB_DYNAMICBLOCKPURGEPREVENTER_VERSION
  2
AcDbDynamicBlockPurgePreventer
  3
ObjectDBX Classes
 90
    33921
280
     0
281
     0
  0
CLASS
  1
ACDB_BLOCKREPRESENTATION_DATA
  2
AcDbBlockRepresentationData
  3
ObjectDBX Classes
 90
    33921
280
     0
281
     0
  0
CLASS
  1
BLOCKVISIBILITYPARAMETER
  2
AcDbBlockVisibilityParameter
  3
ObjectDBX Classes
 90
    33921
280
     0
281
     0
  0
CLASS
  1
BLOCKVISIBILITYGRIP
  2
AcDbBlockVisibilityGrip
  3
ObjectDBX Classes
 90
    33921
280
     0
281
     0
  0
CLASS
  1
BLOCKLINEARPARAMETER
  2
AcDbBlockLinearParameter
  3
ObjectDBX Classes
 90
    33921
280
     0
281
     0
  0
CLASS
  1
BLOCKSTRETCHACTION
  2
AcDbBlockStretchAction
  3
ObjectDBX Classes
 90
    33921
280
     0
281
     0
  0
CLASS
  1
BLOCKLOOKUPPARAMETER
  2
AcDbBlockLookupParameter
  3
ObjectDBX Classes
 90
    33921
280
     0
281
     0
  0
CLASS
  1
BLOCKLOOKUPGRIP
  2
AcDbBlockLookupGrip
  3
ObjectDBX Classes
 90
    33921
280
     0
281
     0
  0
CLASS
  1
BLOCKLOOKUPACTION
  2
AcDbBlockLookupAction
  3
ObjectDBX Classes
 90
    33921
280
     0
281
     0
  0
CLASS
  1
BLOCKMOVEACTION
  2
AcDbBlockMoveAction
  3
ObjectDBX Classes
 90
    33921
280
     0
281
     0
  0
CLASS
  1
BLOCKLINEARGRIP
  2
AcDbBlockLinearGrip
  3
ObjectDBX Classes
 90
    33921
280
     0
281
     0
  0
CLASS
  1
OBJECT_PTR
  2
CAseDLPNTableRecord
  3
ASE-LPNTableRecord
 90
        1
280
     0
281
     0
  0
CLASS
  1
SCALE
  2
AcDbScale
  3
ObjectDBX Classes
 90
     1153
280
     0
281
     0
  0
CLASS
  1
MLEADERSTYLE
  2
AcDbMLeaderStyle
  3
ACDB_MLEADERSTYLE_CLASS
 90
    36863
280
     0
281
     0
  0
CLASS
  1
AEC_REFEDIT_STATUS_TRACKER
  2
AecDbRefEditStatusTracker
  3
AecArchBase50|Product Desc: Autodesk Architectural Desktop 2007 |Company: Autodesk,Inc. |WEB Address: www.autodesk.com
 90
    32897
280
     0
281
     0
  0
CLASS
  1
CELLSTYLEMAP
  2
AcDbCellStyleMap
  3
ObjectDBX Classes
 90
     1152
280
     0
281
     0
  0
ENDSEC
  0
SECTION
  2
TABLES
  0
TABLE
  2
VPORT
  5
2C
330
0
100
AcDbSymbolTable
 70
     1
  0
VPORT
  5
2D
330
2C
100
AcDbSymbolTableRecord
100
AcDbViewportTableRecord
  2
*Active
 70
     0
 10
0.0
 20
0.0
 11
1.0
 21
1.0
 12
220355.8471350155
 22
134487.0743173613
 13
0.0
 23
0.0
 14
10.0
 24
10.0
 15
10.0
 25
10.0
 16
0.0
 26
0.0
 36
1.0
 17
0.0
 27
0.0
 37
0.0
 40
17487.75516163331
 41
1.781997187060478
 42
50.0
 43
0.0
 44
0.0
 50
0.0
 51
0.0
 71
     0
 72
  1000
 73
     1
 74
     1
 75
     0
 76
     0
 77
     0
 78
     0
281
     0
 65
     1
110
0.0
120
0.0
130
0.0
111
1.0
121
0.0
131
0.0
112
0.0
122
1.0
132
0.0
 79
     0
146
0.0
  0
ENDTAB
  0
TABLE
  2
LTYPE
  5
27
330
0
100
AcDbSymbolTable
 70
     2
  0
LTYPE
  5
28
330
27
100
AcDbSymbolTableRecord
100
AcDbLinetypeTableRecord
  2
ByBlock
 70
     0
  3

 72
    65
 73
     0
 40
0.0
  0
LTYPE
  5
29
330
27
100
AcDbSymbolTableRecord
100
AcDbLinetypeTableRecord
  2
ByLayer
 70
     0
  3

 72
    65
 73
     0
 40
0.0
  0
LTYPE
  5
E
330
27
100
AcDbSymbolTableRecord
100
AcDbLinetypeTableRecord
  2
Continuous
 70
     0
  3
Solid line
 72
    65
 73
     0
 40
0.0
  0
LTYPE
  5
65
330
27
100
AcDbSymbolTableRecord
100
AcDbLinetypeTableRecord
  2
HIDDEN
 70
     0
  3
Hidden __ __ __ __ __ __ __ __ __ __ __ __ __ _
 72
    65
 73
     2
 40
0.375
 49
0.25
 74
     0
 49
-0.125
 74
     0
  0
ENDTAB
  0
TABLE
  2
LAYER
  5
1D
102
{ACAD_XDICTIONARY
360
1E
102
}
330
0
100
AcDbSymbolTable
 70
     6
  0
LAYER
  5
6
102
{ACAD_XDICTIONARY
360
7
102
}
330
1D
100
AcDbSymbolTableRecord
100
AcDbLayerTableRecord
  2
0
 70
     0
 62
     7
  6
Continuous
370
    -3
390
9
1001
RAK
1000
{ACET-LAYISO
1070
     0
1070
     7
1000
Continuous
1071
       -3
1071
        1
1005
9
1000
ACET-LAYISO}
  0
LAYER
  5
129
330
1D
100
AcDbSymbolTableRecord
100
AcDbLayerTableRecord
  2
DEFPOINTS
 70
     0
 62
     7
  6
Continuous
290
     0
370
    -3
390
9
1001
RAK
1000
{ACET-LAYISO
1070
     0
1070
     7
1000
Continuous
1071
       -3
1071
        0
1005
9
1000
ACET-LAYISO}
  0
LAYER
  5
6C
102
{ACAD_XDICTIONARY
360
6D
102
}
330
1D
100
AcDbSymbolTableRecord
100
AcDbLayerTableRecord
  2
RAMKI-A4
 70
     0
 62
     2
  6
Continuous
290
     0
370
    -3
390
9
1001
RAK
1000
{ACET-LAYISO
1070
     0
1070
     2
1000
Continuous
1071
       -3
1071
        0
1005
9
1000
ACET-LAYISO}
  0
LAYER
  5
44
102
{ACAD_XDICTIONARY
360
45
102
}
330
1D
100
AcDbSymbolTableRecord
100
AcDbLayerTableRecord
  2
0Wymiary-PL
 70
     0
 62
     1
  6
Continuous
370
     5
390
9
  0
LAYER
  5
67
102
{ACAD_XDICTIONARY
360
68
102
}
330
1D
100
AcDbSymbolTableRecord
100
AcDbLayerTableRecord
  2
0Napisy-PL
 70
     0
 62
   140
  6
Continuous
370
    15
390
9
1001
RAK
1000
{ACET-LAYISO
1070
     0
1070
   140
1000
Continuous
1071
       15
1071
        1
1005
9
1000
ACET-LAYISO}
  0
LAYER
  5
62
102
{ACAD_XDICTIONARY
360
63
102
}
330
1D
100
AcDbSymbolTableRecord
100
AcDbLayerTableRecord
  2
0Napisy
 70
     0
 62
   140
  6
Continuous
370
    15
390
9
1001
RAK
1000
{ACET-LAYISO
1070
     0
1070
    33
1000
Continuous
1071
       18
1071
        1
1005
9
1000
ACET-LAYISO}
  0
ENDTAB
  0
TABLE
  2
STYLE
  5
24
330
0
100
AcDbSymbolTable
 70
     4
  0
STYLE
  5
25
330
24
100
AcDbSymbolTableRecord
100
AcDbTextStyleTableRecord
  2
Standard
 70
     0
 40
0.0
 41
1.0
 50
0.0
 71
     0
 42
2.5
  3
txt
  4

  0
STYLE
  5
31
330
24
100
AcDbSymbolTableRecord
100
AcDbTextStyleTableRecord
  2
ROMANS
 70
     0
 40
0.0
 41
0.9
 50
0.0
 71
     0
 42
20.0
  3
romans.shx
  4

  0
STYLE
  5
6A
330
24
100
AcDbSymbolTableRecord
100
AcDbTextStyleTableRecord
  2
AVA
 70
     0
 40
0.0
 41
1.0
 50
0.0
 71
     0
 42
158.5644099714409
  3
ARIAL.TTF
  4

1001
ACAD
1000
Arial CE
1071
    60962
  0
STYLE
  5
70
330
24
100
AcDbSymbolTableRecord
100
AcDbTextStyleTableRecord
  2
ARIAL
 70
     0
 40
0.0
 41
1.0
 50
0.0
 71
     0
 42
20.0
  3
ARIAL.TTF
  4

1001
ACAD
1000
Arial CE
1071
    60962
  0
ENDTAB
  0
TABLE
  2
VIEW
  5
2A
330
0
100
AcDbSymbolTable
 70
     1
  0
VIEW
  5
13
330
2A
100
AcDbSymbolTableRecord
100
AcDbViewTableRecord
  2
RODODENDRON 5
 70
     0
 40
14020.0
 10
220287.1664355166
 20
148687.514558954
 41
10200.00000000003
 11
0.0
 21
0.0
 31
1.0
 12
0.0
 22
0.0
 32
0.0
 42
50.0
 43
0.0
 44
0.0
 50
0.0
 71
     0
281
     0
 72
     1
110
0.0
120
0.0
130
0.0
111
1.0
121
0.0
131
0.0
112
0.0
122
1.0
132
0.0
 79
     0
146
0.0
  0
ENDTAB
  0
TABLE
  2
UCS
  5
2B
330
0
100
AcDbSymbolTable
 70
     0
  0
ENDTAB
  0
TABLE
  2
APPID
  5
2E
330
0
100
AcDbSymbolTable
 70
     6
  0
APPID
  5
23
330
2E
100
AcDbSymbolTableRecord
100
AcDbRegAppTableRecord
  2
ACAD
 70
     0
  0
APPID
  5
F
330
2E
100
AcDbSymbolTableRecord
100
AcDbRegAppTableRecord
  2
RAK
 70
     0
  0
APPID
  5
16
330
2E
100
AcDbSymbolTableRecord
100
AcDbRegAppTableRecord
  2
ACAD_PSEXT
 70
     0
  0
APPID
  5
72
330
2E
100
AcDbSymbolTableRecord
100
AcDbRegAppTableRecord
  2
DCO15
 70
     0
  0
APPID
  5
21
330
2E
100
AcDbSymbolTableRecord
100
AcDbRegAppTableRecord
  2
AcLayerTools
 70
     0
  0
APPID
  5
71
330
2E
100
AcDbSymbolTableRecord
100
AcDbRegAppTableRecord
  2
AcDbBlockRepETag
 70
     0
  0
ENDTAB
  0
TABLE
  2
DIMSTYLE
  5
2F
330
0
100
AcDbSymbolTable
 70
     2
100
AcDbDimStyleTable
 71
     2
340
30
340
3A
  0
DIMSTYLE
105
30
102
{ACAD_REACTORS
330
121
330
12D
330
13A
330
145
330
150
330
15B
330
166
330
173
330
228
330
233
330
240
330
24B
330
256
330
261
330
26C
330
279
102
}
330
2F
100
AcDbSymbolTableRecord
100
AcDbDimStyleTableRecord
  2
500
 70
     0
 41
30.0
 42
43.0
 43
0.0
 44
13.0
 45
0.5
 46
12.0
 73
     0
 74
     0
 75
     1
 76
     1
 78
    12
140
80.0
141
0.0
145
1.0
147
0.0
172
     1
174
     1
176
     1
177
     1
178
   140
271
     1
272
     1
279
     2
340
31
341
32
342
32
  0
DIMSTYLE
105
3A
330
2F
100
AcDbSymbolTableRecord
100
AcDbDimStyleTableRecord
  2
Standard
 70
     0
340
25
  0
ENDTAB
  0
TABLE
  2
BLOCK_RECORD
  5
1
330
0
100
AcDbSymbolTable
 70
    17
  0
BLOCK_RECORD
  5
2
102
{ACAD_XDICTIONARY
360
3
102
}
330
1
100
AcDbSymbolTableRecord
100
AcDbBlockTableRecord
  2
*Model_Space
340
11
  0
BLOCK_RECORD
  5
17
330
1
100
AcDbSymbolTableRecord
100
AcDbBlockTableRecord
  2
*Paper_Space
340
1A
  0
BLOCK_RECORD
  5
32
102
{ACAD_XDICTIONARY
360
33
102
}
330
1
100
AcDbSymbolTableRecord
100
AcDbBlockTableRecord
  2
B-DIM
340
0
102
{BLKREFS
331
125
331
126
331
133
331
134
331
13E
331
13F
331
149
331
14A
331
154
331
155
331
15F
331
160
331
16C
331
16D
331
177
331
178
331
22C
331
22D
331
239
331
23A
331
244
331
245
331
24F
331
250
331
25A
331
25B
331
265
331
266
331
272
331
273
331
27D
331
27E
102
}
  0
BLOCK_RECORD
  5
122
330
1
100
AcDbSymbolTableRecord
100
AcDbBlockTableRecord
  2
*D1
340
0
  0
BLOCK_RECORD
  5
12E
330
1
100
AcDbSymbolTableRecord
100
AcDbBlockTableRecord
  2
*D2
340
0
  0
BLOCK_RECORD
  5
13B
330
1
100
AcDbSymbolTableRecord
100
AcDbBlockTableRecord
  2
*D3
340
0
  0
BLOCK_RECORD
  5
146
330
1
100
AcDbSymbolTableRecord
100
AcDbBlockTableRecord
  2
*D4
340
0
  0
BLOCK_RECORD
  5
151
330
1
100
AcDbSymbolTableRecord
100
AcDbBlockTableRecord
  2
*D5
340
0
  0
BLOCK_RECORD
  5
15C
330
1
100
AcDbSymbolTableRecord
100
AcDbBlockTableRecord
  2
*D6
340
0
  0
BLOCK_RECORD
  5
167
330
1
100
AcDbSymbolTableRecord
100
AcDbBlockTableRecord
  2
*D7
340
0
  0
BLOCK_RECORD
  5
174
330
1
100
AcDbSymbolTableRecord
100
AcDbBlockTableRecord
  2
*D8
340
0
  0
BLOCK_RECORD
  5
229
330
1
100
AcDbSymbolTableRecord
100
AcDbBlockTableRecord
  2
*D9
340
0
  0
BLOCK_RECORD
  5
234
330
1
100
AcDbSymbolTableRecord
100
AcDbBlockTableRecord
  2
*D10
340
0
  0
BLOCK_RECORD
  5
241
330
1
100
AcDbSymbolTableRecord
100
AcDbBlockTableRecord
  2
*D11
340
0
  0
BLOCK_RECORD
  5
24C
330
1
100
AcDbSymbolTableRecord
100
AcDbBlockTableRecord
  2
*D12
340
0
  0
BLOCK_RECORD
  5
257
330
1
100
AcDbSymbolTableRecord
100
AcDbBlockTableRecord
  2
*D13
340
0
  0
BLOCK_RECORD
  5
262
330
1
100
AcDbSymbolTableRecord
100
AcDbBlockTableRecord
  2
*D14
340
0
  0
BLOCK_RECORD
  5
26D
330
1
100
AcDbSymbolTableRecord
100
AcDbBlockTableRecord
  2
*D15
340
0
  0
BLOCK_RECORD
  5
27A
330
1
100
AcDbSymbolTableRecord
100
AcDbBlockTableRecord
  2
*D16
340
0
  0
ENDTAB
  0
ENDSEC
  0
SECTION
  2
BLOCKS
  0
BLOCK
  5
5
330
2
100
AcDbEntity
  8
0
100
AcDbBlockBegin
  2
*Model_Space
 70
     0
 10
0.0
 20
0.0
 30
0.0
  3
*Model_Space
  1

  0
ENDBLK
  5
10
330
2
100
AcDbEntity
  8
0
100
AcDbBlockEnd
  0
BLOCK
  5
18
330
17
100
AcDbEntity
 67
     1
  8
0
100
AcDbBlockBegin
  2
*Paper_Space
 70
     0
 10
0.0
 20
0.0
 30
0.0
  3
*Paper_Space
  1

  0
ENDBLK
  5
19
330
17
100
AcDbEntity
 67
     1
  8
0
100
AcDbBlockEnd
  0
BLOCK
  5
35
330
32
100
AcDbEntity
  8
0
100
AcDbBlockBegin
  2
B-DIM
 70
     0
 10
0.0
 20
0.0
 30
0.0
  3
B-DIM
  1

  0
LINE
  5
36
330
32
100
AcDbEntity
  8
0
 62
     1
100
AcDbLine
 10
0.000000000000091
 20
-1.1
 30
0.0
 11
0.000000000000091
 21
1.1
 31
0.0
  0
LWPOLYLINE
  5
37
330
32
100
AcDbEntity
  8
0
 62
     1
100
AcDbPolyline
 90
        2
 70
     0
 43
0.3
 10
-0.7071067811864851
 20
-0.7071067811864851
 10
0.707106781186576
 20
0.707106781186576
  0
LINE
  5
38
330
32
100
AcDbEntity
  8
0
 62
     1
100
AcDbLine
 10
1.20000000000009
 20
0.0
 30
0.0
 11
-1.199999999999909
 21
0.0
 31
0.0
  0
ENDBLK
  5
39
330
32
100
AcDbEntity
  8
0
100
AcDbBlockEnd
  0
BLOCK
  5
123
330
122
100
AcDbEntity
  8
0
100
AcDbBlockBegin
  2
*D1
 70
     1
 10
0.0
 20
0.0
 30
0.0
  3
*D1
  1

  0
LINE
  5
124
330
122
100
AcDbEntity
  8
0Wymiary-PL
 62
     1
370
    -2
100
AcDbLine
 10
216368.8210971665
 20
137625.7613951159
 30
0.0
 11
218493.8210971665
 21
137625.7613951159
 31
0.0
  0
INSERT
  5
125
330
122
100
AcDbEntity
  8
0Wymiary-PL
 62
     1
370
    -2
100
AcDbBlockReference
  2
B-DIM
 10
216338.8210971666
 20
137625.7613951159
 30
0.0
 41
30.0
 42
30.0
 43
30.0
 50
180.0
  0
INSERT
  5
126
330
122
100
AcDbEntity
  8
0Wymiary-PL
 62
     1
370
    -2
100
AcDbBlockReference
  2
B-DIM
 10
218523.8210971665
 20
137625.7613951159
 30
0.0
 41
30.0
 42
30.0
 43
30.0
  0
MTEXT
  5
127
330
122
100
AcDbEntity
  8
0Wymiary-PL
 62
   140
100
AcDbMText
 10
217431.3210971665
 20
137705.7613951159
 30
0.0
 40
80.0
 41
0.0
 71
     5
 72
     1
  1
\A1;2185
  7
ROMANS
 73
     1
 44
1.0
1001
ACAD
1000
MTEXTBEGIN
1070
    73
1070
     1
1070
    44
1040
1.0
1070
    74
1070
     0
1000
MTEXTEND
  0
POINT
  5
128
330
122
100
AcDbEntity
  8
DEFPOINTS
 62
     0
100
AcDbPoint
 10
216338.8210971666
 20
134876.8441953225
 30
0.0
  0
POINT
  5
12A
330
122
100
AcDbEntity
  8
DEFPOINTS
 62
     0
100
AcDbPoint
 10
218523.8210971665
 20
135119.8441953225
 30
0.0
  0
POINT
  5
12B
330
122
100
AcDbEntity
  8
DEFPOINTS
 62
     0
100
AcDbPoint
 10
218523.8210971665
 20
137625.7613951159
 30
0.0
  0
ENDBLK
  5
12C
330
122
100
AcDbEntity
  8
0
100
AcDbBlockEnd
  0
BLOCK
  5
12F
330
12E
100
AcDbEntity
  8
0
100
AcDbBlockBegin
  2
*D2
 70
     1
 10
0.0
 20
0.0
 30
0.0
  3
*D2
  1

  0
LINE
  5
130
330
12E
100
AcDbEntity
  8
0Wymiary-PL
 62
     1
370
    -2
100
AcDbLine
 10
218493.8210971665
 20
137625.7613951159
 30
0.0
 11
218463.8210971665
 21
137625.7613951159
 31
0.0
  0
LINE
  5
131
330
12E
100
AcDbEntity
  8
0Wymiary-PL
 62
     1
370
    -2
100
AcDbLine
 10
218673.8210971665
 20
137625.7613951159
 30
0.0
 11
218703.8210971666
 21
137625.7613951159
 31
0.0
  0
LINE
  5
132
330
12E
100
AcDbEntity
  8
0Wymiary-PL
 62
     1
370
    -2
100
AcDbLine
 10
218523.8210971665
 20
137625.7613951159
 30
0.0
 11
218643.8210971665
 21
137625.7613951159
 31
0.0
  0
INSERT
  5
133
330
12E
100
AcDbEntity
  8
0Wymiary-PL
 62
     1
370
    -2
100
AcDbBlockReference
  2
B-DIM
 10
218523.8210971665
 20
137625.7613951159
 30
0.0
 41
30.0
 42
30.0
 43
30.0
  0
INSERT
  5
134
330
12E
100
AcDbEntity
  8
0Wymiary-PL
 62
     1
370
    -2
100
AcDbBlockReference
  2
B-DIM
 10
218643.8210971665
 20
137625.7613951159
 30
0.0
 41
30.0
 42
30.0
 43
30.0
 50
180.0
  0
MTEXT
  5
135
330
12E
100
AcDbEntity
  8
0Wymiary-PL
 62
   140
100
AcDbMText
 10
218583.8210971665
 20
137705.7613951159
 30
0.0
 40
80.0
 41
0.0
 71
     5
 72
     1
  1
\A1;120
  7
ROMANS
 73
     1
 44
1.0
1001
ACAD
1000
MTEXTBEGIN
1070
    73
1070
     1
1070
    44
1040
1.0
1070
    74
1070
     0
1000
MTEXTEND
  0
POINT
  5
136
330
12E
100
AcDbEntity
  8
DEFPOINTS
 62
     0
100
AcDbPoint
 10
218523.8210971665
 20
135119.8441953225
 30
0.0
  0
POINT
  5
137
330
12E
100
AcDbEntity
  8
DEFPOINTS
 62
     0
100
AcDbPoint
 10
218643.8210971665
 20
135910.9985242551
 30
0.0
  0
POINT
  5
138
330
12E
100
AcDbEntity
  8
DEFPOINTS
 62
     0
100
AcDbPoint
 10
218643.8210971665
 20
137625.7613951159
 30
0.0
  0
ENDBLK
  5
139
330
12E
100
AcDbEntity
  8
0
100
AcDbBlockEnd
  0
BLOCK
  5
13C
330
13B
100
AcDbEntity
  8
0
100
AcDbBlockBegin
  2
*D3
 70
     1
 10
0.0
 20
0.0
 30
0.0
  3
*D3
  1

  0
LINE
  5
13D
330
13B
100
AcDbEntity
  8
0Wymiary-PL
 62
     1
370
    -2
100
AcDbLine
 10
216368.8210971665
 20
137886.2068671806
 30
0.0
 11
218613.8210971666
 21
137886.2068671806
 31
0.0
  0
INSERT
  5
13E
330
13B
100
AcDbEntity
  8
0Wymiary-PL
 62
     1
370
    -2
100
AcDbBlockReference
  2
B-DIM
 10
216338.8210971666
 20
137886.2068671806
 30
0.0
 41
30.0
 42
30.0
 43
30.0
 50
180.0
  0
INSERT
  5
13F
330
13B
100
AcDbEntity
  8
0Wymiary-PL
 62
     1
370
    -2
100
AcDbBlockReference
  2
B-DIM
 10
218643.8210971665
 20
137886.2068671806
 30
0.0
 41
30.0
 42
30.0
 43
30.0
  0
MTEXT
  5
140
330
13B
100
AcDbEntity
  8
0Wymiary-PL
 62
   140
100
AcDbMText
 10
217491.3210971666
 20
137966.2068671805
 30
0.0
 40
80.0
 41
0.0
 71
     5
 72
     1
  1
\A1;2305
  7
ROMANS
 73
     1
 44
1.0
1001
ACAD
1000
MTEXTBEGIN
1070
    73
1070
     1
1070
    44
1040
1.0
1070
    74
1070
     0
1000
MTEXTEND
  0
POINT
  5
141
330
13B
100
AcDbEntity
  8
DEFPOINTS
 62
     0
100
AcDbPoint
 10
216338.8210971666
 20
135814.8441953225
 30
0.0
  0
POINT
  5
142
330
13B
100
AcDbEntity
  8
DEFPOINTS
 62
     0
100
AcDbPoint
 10
218643.8210971665
 20
135910.9985242551
 30
0.0
  0
POINT
  5
143
330
13B
100
AcDbEntity
  8
DEFPOINTS
 62
     0
100
AcDbPoint
 10
218643.8210971665
 20
137886.2068671806
 30
0.0
  0
ENDBLK
  5
144
330
13B
100
AcDbEntity
  8
0
100
AcDbBlockEnd
  0
BLOCK
  5
147
330
146
100
AcDbEntity
  8
0
100
AcDbBlockBegin
  2
*D4
 70
     1
 10
0.0
 20
0.0
 30
0.0
  3
*D4
  1

  0
LINE
  5
148
330
146
100
AcDbEntity
  8
0Wymiary-PL
 62
     1
370
    -2
100
AcDbLine
 10
219227.4476160421
 20
134906.8441953225
 30
0.0
 11
219227.4476160421
 21
135089.8441953225
 31
0.0
  0
INSERT
  5
149
330
146
100
AcDbEntity
  8
0Wymiary-PL
 62
     1
370
    -2
100
AcDbBlockReference
  2
B-DIM
 10
219227.4476160421
 20
134876.8441953225
 30
0.0
 41
30.0
 42
30.0
 43
30.0
 50
270.0
  0
INSERT
  5
14A
330
146
100
AcDbEntity
  8
0Wymiary-PL
 62
     1
370
    -2
100
AcDbBlockReference
  2
B-DIM
 10
219227.4476160421
 20
135119.8441953225
 30
0.0
 41
30.0
 42
30.0
 43
30.0
 50
90.0
  0
MTEXT
  5
14B
330
146
100
AcDbEntity
  8
0Wymiary-PL
 62
   140
100
AcDbMText
 10
219147.4476160421
 20
134998.3441953226
 30
0.0
 40
80.0
 41
0.0
 71
     5
 72
     1
  1
\A1;243
  7
ROMANS
 11
0.0000000000000001
 21
1.0
 31
0.0
 73
     1
 44
1.0
1001
ACAD
1000
MTEXTBEGIN
1070
    73
1070
     1
1070
    44
1040
1.0
1070
    74
1070
     0
1000
MTEXTEND
  0
POINT
  5
14C
330
146
100
AcDbEntity
  8
DEFPOINTS
 62
     0
100
AcDbPoint
 10
217033.8210971666
 20
134876.8441953225
 30
0.0
  0
POINT
  5
14D
330
146
100
AcDbEntity
  8
DEFPOINTS
 62
     0
100
AcDbPoint
 10
217033.8210971666
 20
135119.8441953225
 30
0.0
  0
POINT
  5
14E
330
146
100
AcDbEntity
  8
DEFPOINTS
 62
     0
100
AcDbPoint
 10
219227.4476160421
 20
135119.8441953225
 30
0.0
  0
ENDBLK
  5
14F
330
146
100
AcDbEntity
  8
0
100
AcDbBlockEnd
  0
BLOCK
  5
152
330
151
100
AcDbEntity
  8
0
100
AcDbBlockBegin
  2
*D5
 70
     1
 10
0.0
 20
0.0
 30
0.0
  3
*D5
  1

  0
LINE
  5
153
330
151
100
AcDbEntity
  8
0Wymiary-PL
 62
     1
370
    -2
100
AcDbLine
 10
219227.4476160421
 20
135149.8441953225
 30
0.0
 11
219227.4476160421
 21
136419.8441953225
 31
0.0
  0
INSERT
  5
154
330
151
100
AcDbEntity
  8
0Wymiary-PL
 62
     1
370
    -2
100
AcDbBlockReference
  2
B-DIM
 10
219227.4476160421
 20
135119.8441953225
 30
0.0
 41
30.0
 42
30.0
 43
30.0
 50
270.0
  0
INSERT
  5
155
330
151
100
AcDbEntity
  8
0Wymiary-PL
 62
     1
370
    -2
100
AcDbBlockReference
  2
B-DIM
 10
219227.4476160421
 20
136449.8441953225
 30
0.0
 41
30.0
 42
30.0
 43
30.0
 50
90.0
  0
MTEXT
  5
156
330
151
100
AcDbEntity
  8
0Wymiary-PL
 62
   140
100
AcDbMText
 10
219147.4476160421
 20
135784.8441953225
 30
0.0
 40
80.0
 41
0.0
 71
     5
 72
     1
  1
\A1;1330
  7
ROMANS
 11
0.0000000000000001
 21
1.0
 31
0.0
 73
     1
 44
1.0
1001
ACAD
1000
MTEXTBEGIN
1070
    73
1070
     1
1070
    44
1040
1.0
1070
    74
1070
     0
1000
MTEXTEND
  0
POINT
  5
157
330
151
100
AcDbEntity
  8
DEFPOINTS
 62
     0
100
AcDbPoint
 10
217033.8210971666
 20
135119.8441953225
 30
0.0
  0
POINT
  5
158
330
151
100
AcDbEntity
  8
DEFPOINTS
 62
     0
100
AcDbPoint
 10
218523.8210971665
 20
136449.8441953225
 30
0.0
  0
POINT
  5
159
330
151
100
AcDbEntity
  8
DEFPOINTS
 62
     0
100
AcDbPoint
 10
219227.4476160421
 20
136449.8441953225
 30
0.0
  0
ENDBLK
  5
15A
330
151
100
AcDbEntity
  8
0
100
AcDbBlockEnd
  0
BLOCK
  5
15D
330
15C
100
AcDbEntity
  8
0
100
AcDbBlockBegin
  2
*D6
 70
     1
 10
0.0
 20
0.0
 30
0.0
  3
*D6
  1

  0
LINE
  5
15E
330
15C
100
AcDbEntity
  8
0Wymiary-PL
 62
     1
370
    -2
100
AcDbLine
 10
219227.4476160421
 20
136479.8441953225
 30
0.0
 11
219227.4476160421
 21
136956.8441953225
 31
0.0
  0
INSERT
  5
15F
330
15C
100
AcDbEntity
  8
0Wymiary-PL
 62
     1
370
    -2
100
AcDbBlockReference
  2
B-DIM
 10
219227.4476160421
 20
136449.8441953225
 30
0.0
 41
30.0
 42
30.0
 43
30.0
 50
270.0
  0
INSERT
  5
160
330
15C
100
AcDbEntity
  8
0Wymiary-PL
 62
     1
370
    -2
100
AcDbBlockReference
  2
B-DIM
 10
219227.4476160421
 20
136986.8441953225
 30
0.0
 41
30.0
 42
30.0
 43
30.0
 50
90.0
  0
MTEXT
  5
161
330
15C
100
AcDbEntity
  8
0Wymiary-PL
 62
   140
100
AcDbMText
 10
219147.4476160421
 20
136718.3441953226
 30
0.0
 40
80.0
 41
0.0
 71
     5
 72
     1
  1
\A1;537
  7
ROMANS
 11
0.0000000000000001
 21
1.0
 31
0.0
 73
     1
 44
1.0
1001
ACAD
1000
MTEXTBEGIN
1070
    73
1070
     1
1070
    44
1040
1.0
1070
    74
1070
     0
1000
MTEXTEND
  0
POINT
  5
162
330
15C
100
AcDbEntity
  8
DEFPOINTS
 62
     0
100
AcDbPoint
 10
218523.8210971665
 20
136449.8441953225
 30
0.0
  0
POINT
  5
163
330
15C
100
AcDbEntity
  8
DEFPOINTS
 62
     0
100
AcDbPoint
 10
217478.8210971666
 20
136986.8441953225
 30
0.0
  0
POINT
  5
164
330
15C
100
AcDbEntity
  8
DEFPOINTS
 62
     0
100
AcDbPoint
 10
219227.4476160421
 20
136986.8441953225
 30
0.0
  0
ENDBLK
  5
165
330
15C
100
AcDbEntity
  8
0
100
AcDbBlockEnd
  0
BLOCK
  5
168
330
167
100
AcDbEntity
  8
0
100
AcDbBlockBegin
  2
*D7
 70
     1
 10
0.0
 20
0.0
 30
0.0
  3
*D7
  1

  0
LINE
  5
169
330
167
100
AcDbEntity
  8
0Wymiary-PL
 62
     1
370
    -2
100
AcDbLine
 10
219227.4476160421
 20
136956.8441953225
 30
0.0
 11
219227.4476160421
 21
136926.8441953225
 31
0.0
  0
LINE
  5
16A
330
167
100
AcDbEntity
  8
0Wymiary-PL
 62
     1
370
    -2
100
AcDbLine
 10
219227.4476160421
 20
137051.8441953225
 30
0.0
 11
219227.4476160421
 21
137081.8441953225
 31
0.0
  0
LINE
  5
16B
330
167
100
AcDbEntity
  8
0Wymiary-PL
 62
     1
370
    -2
100
AcDbLine
 10
219227.4476160421
 20
136986.8441953225
 30
0.0
 11
219227.4476160421
 21
137021.8441953225
 31
0.0
  0
INSERT
  5
16C
330
167
100
AcDbEntity
  8
0Wymiary-PL
 62
     1
370
    -2
100
AcDbBlockReference
  2
B-DIM
 10
219227.4476160421
 20
136986.8441953225
 30
0.0
 41
30.0
 42
30.0
 43
30.0
 50
90.0
  0
INSERT
  5
16D
330
167
100
AcDbEntity
  8
0Wymiary-PL
 62
     1
370
    -2
100
AcDbBlockReference
  2
B-DIM
 10
219227.4476160421
 20
137021.8441953225
 30
0.0
 41
30.0
 42
30.0
 43
30.0
 50
270.0
  0
MTEXT
  5
16E
330
167
100
AcDbEntity
  8
0Wymiary-PL
 62
   140
100
AcDbMText
 10
219147.4476160421
 20
137004.3441953226
 30
0.0
 40
80.0
 41
0.0
 71
     5
 72
     1
  1
\A1;35
  7
ROMANS
 11
0.0000000000000001
 21
1.0
 31
0.0
 73
     1
 44
1.0
1001
ACAD
1000
MTEXTBEGIN
1070
    73
1070
     1
1070
    44
1040
1.0
1070
    74
1070
     0
1000
MTEXTEND
  0
POINT
  5
16F
330
167
100
AcDbEntity
  8
DEFPOINTS
 62
     0
100
AcDbPoint
 10
217478.8210971666
 20
136986.8441953225
 30
0.0
  0
POINT
  5
170
330
167
100
AcDbEntity
  8
DEFPOINTS
 62
     0
100
AcDbPoint
 10
217299.8210971665
 20
137021.8441953225
 30
0.0
  0
POINT
  5
171
330
167
100
AcDbEntity
  8
DEFPOINTS
 62
     0
100
AcDbPoint
 10
219227.4476160421
 20
137021.8441953225
 30
0.0
  0
ENDBLK
  5
172
330
167
100
AcDbEntity
  8
0
100
AcDbBlockEnd
  0
BLOCK
  5
175
330
174
100
AcDbEntity
  8
0
100
AcDbBlockBegin
  2
*D8
 70
     1
 10
0.0
 20
0.0
 30
0.0
  3
*D8
  1

  0
LINE
  5
176
330
174
100
AcDbEntity
  8
0Wymiary-PL
 62
     1
370
    -2
100
AcDbLine
 10
219492.0207162091
 20
134906.8441953225
 30
0.0
 11
219492.0207162091
 21
136991.8441953225
 31
0.0
  0
INSERT
  5
177
330
174
100
AcDbEntity
  8
0Wymiary-PL
 62
     1
370
    -2
100
AcDbBlockReference
  2
B-DIM
 10
219492.0207162091
 20
134876.8441953225
 30
0.0
 41
30.0
 42
30.0
 43
30.0
 50
270.0
  0
INSERT
  5
178
330
174
100
AcDbEntity
  8
0Wymiary-PL
 62
     1
370
    -2
100
AcDbBlockReference
  2
B-DIM
 10
219492.0207162091
 20
137021.8441953225
 30
0.0
 41
30.0
 42
30.0
 43
30.0
 50
90.0
  0
MTEXT
  5
179
330
174
100
AcDbEntity
  8
0Wymiary-PL
 62
   140
100
AcDbMText
 10
219412.020716209
 20
135949.3441953226
 30
0.0
 40
80.0
 41
0.0
 71
     5
 72
     1
  1
\A1;2145
  7
ROMANS
 11
0.0000000000000001
 21
1.0
 31
0.0
 73
     1
 44
1.0
1001
ACAD
1000
MTEXTBEGIN
1070
    73
1070
     1
1070
    44
1040
1.0
1070
    74
1070
     0
1000
MTEXTEND
  0
POINT
  5
17A
330
174
100
AcDbEntity
  8
DEFPOINTS
 62
     0
100
AcDbPoint
 10
217033.8210971666
 20
134876.8441953225
 30
0.0
  0
POINT
  5
17B
330
174
100
AcDbEntity
  8
DEFPOINTS
 62
     0
100
AcDbPoint
 10
217299.8210971665
 20
137021.8441953225
 30
0.0
  0
POINT
  5
17C
330
174
100
AcDbEntity
  8
DEFPOINTS
 62
     0
100
AcDbPoint
 10
219492.0207162091
 20
137021.8441953225
 30
0.0
  0
ENDBLK
  5
17D
330
174
100
AcDbEntity
  8
0
100
AcDbBlockEnd
  0
BLOCK
  5
22A
330
229
100
AcDbEntity
  8
0
100
AcDbBlockBegin
  2
*D9
 70
     1
 10
0.0
 20
0.0
 30
0.0
  3
*D9
  1

  0
LINE
  5
22B
330
229
100
AcDbEntity
  8
0Wymiary-PL
 62
     1
370
    -2
100
AcDbLine
 10
224430.9573925785
 20
137625.7613951159
 30
0.0
 11
222305.9573925785
 21
137625.7613951159
 31
0.0
  0
INSERT
  5
22C
330
229
100
AcDbEntity
  8
0Wymiary-PL
 62
     1
370
    -2
100
AcDbBlockReference
  2
B-DIM
 10
224460.9573925785
 20
137625.7613951159
 30
0.0
 41
30.0
 42
30.0
 43
30.0
  0
INSERT
  5
22D
330
229
100
AcDbEntity
  8
0Wymiary-PL
 62
     1
370
    -2
100
AcDbBlockReference
  2
B-DIM
 10
222275.9573925785
 20
137625.7613951159
 30
0.0
 41
30.0
 42
30.0
 43
30.0
 50
180.0
  0
MTEXT
  5
22E
330
229
100
AcDbEntity
  8
0Wymiary-PL
 62
   140
100
AcDbMText
 10
223368.4573925785
 20
137705.7613951159
 30
0.0
 40
80.0
 41
0.0
 71
     5
 72
     1
  1
\A1;2185
  7
ROMANS
 73
     1
 44
1.0
1001
ACAD
1000
MTEXTBEGIN
1070
    73
1070
     1
1070
    44
1040
1.0
1070
    74
1070
     0
1000
MTEXTEND
  0
POINT
  5
22F
330
229
100
AcDbEntity
  8
DEFPOINTS
 62
     0
100
AcDbPoint
 10
224460.9573925785
 20
134876.8441953225
 30
0.0
  0
POINT
  5
230
330
229
100
AcDbEntity
  8
DEFPOINTS
 62
     0
100
AcDbPoint
 10
222275.9573925785
 20
135119.8441953225
 30
0.0
  0
POINT
  5
231
330
229
100
AcDbEntity
  8
DEFPOINTS
 62
     0
100
AcDbPoint
 10
222275.9573925785
 20
137625.7613951159
 30
0.0
  0
ENDBLK
  5
232
330
229
100
AcDbEntity
  8
0
100
AcDbBlockEnd
  0
BLOCK
  5
235
330
234
100
AcDbEntity
  8
0
100
AcDbBlockBegin
  2
*D10
 70
     1
 10
0.0
 20
0.0
 30
0.0
  3
*D10
  1

  0
LINE
  5
236
330
234
100
AcDbEntity
  8
0Wymiary-PL
 62
     1
370
    -2
100
AcDbLine
 10
222305.9573925785
 20
137625.7613951159
 30
0.0
 11
222335.9573925785
 21
137625.7613951159
 31
0.0
  0
LINE
  5
237
330
234
100
AcDbEntity
  8
0Wymiary-PL
 62
     1
370
    -2
100
AcDbLine
 10
222125.9573925785
 20
137625.7613951159
 30
0.0
 11
222095.9573925785
 21
137625.7613951159
 31
0.0
  0
LINE
  5
238
330
234
100
AcDbEntity
  8
0Wymiary-PL
 62
     1
370
    -2
100
AcDbLine
 10
222275.9573925785
 20
137625.7613951159
 30
0.0
 11
222155.9573925785
 21
137625.7613951159
 31
0.0
  0
INSERT
  5
239
330
234
100
AcDbEntity
  8
0Wymiary-PL
 62
     1
370
    -2
100
AcDbBlockReference
  2
B-DIM
 10
222275.9573925785
 20
137625.7613951159
 30
0.0
 41
30.0
 42
30.0
 43
30.0
 50
180.0
  0
INSERT
  5
23A
330
234
100
AcDbEntity
  8
0Wymiary-PL
 62
     1
370
    -2
100
AcDbBlockReference
  2
B-DIM
 10
222155.9573925785
 20
137625.7613951159
 30
0.0
 41
30.0
 42
30.0
 43
30.0
  0
MTEXT
  5
23B
330
234
100
AcDbEntity
  8
0Wymiary-PL
 62
   140
100
AcDbMText
 10
222215.9573925785
 20
137705.7613951159
 30
0.0
 40
80.0
 41
0.0
 71
     5
 72
     1
  1
\A1;120
  7
ROMANS
 73
     1
 44
1.0
1001
ACAD
1000
MTEXTBEGIN
1070
    73
1070
     1
1070
    44
1040
1.0
1070
    74
1070
     0
1000
MTEXTEND
  0
POINT
  5
23C
330
234
100
AcDbEntity
  8
DEFPOINTS
 62
     0
100
AcDbPoint
 10
222275.9573925785
 20
135119.8441953225
 30
0.0
  0
POINT
  5
23D
330
234
100
AcDbEntity
  8
DEFPOINTS
 62
     0
100
AcDbPoint
 10
222155.9573925785
 20
135910.9985242551
 30
0.0
  0
POINT
  5
23E
330
234
100
AcDbEntity
  8
DEFPOINTS
 62
     0
100
AcDbPoint
 10
222155.9573925785
 20
137625.7613951159
 30
0.0
  0
ENDBLK
  5
23F
330
234
100
AcDbEntity
  8
0
100
AcDbBlockEnd
  0
BLOCK
  5
242
330
241
100
AcDbEntity
  8
0
100
AcDbBlockBegin
  2
*D11
 70
     1
 10
0.0
 20
0.0
 30
0.0
  3
*D11
  1

  0
LINE
  5
243
330
241
100
AcDbEntity
  8
0Wymiary-PL
 62
     1
370
    -2
100
AcDbLine
 10
224430.9573925785
 20
137886.2068671806
 30
0.0
 11
222185.9573925785
 21
137886.2068671806
 31
0.0
  0
INSERT
  5
244
330
241
100
AcDbEntity
  8
0Wymiary-PL
 62
     1
370
    -2
100
AcDbBlockReference
  2
B-DIM
 10
224460.9573925785
 20
137886.2068671806
 30
0.0
 41
30.0
 42
30.0
 43
30.0
  0
INSERT
  5
245
330
241
100
AcDbEntity
  8
0Wymiary-PL
 62
     1
370
    -2
100
AcDbBlockReference
  2
B-DIM
 10
222155.9573925785
 20
137886.2068671806
 30
0.0
 41
30.0
 42
30.0
 43
30.0
 50
180.0
  0
MTEXT
  5
246
330
241
100
AcDbEntity
  8
0Wymiary-PL
 62
   140
100
AcDbMText
 10
223308.4573925785
 20
137966.2068671805
 30
0.0
 40
80.0
 41
0.0
 71
     5
 72
     1
  1
\A1;2305
  7
ROMANS
 73
     1
 44
1.0
1001
ACAD
1000
MTEXTBEGIN
1070
    73
1070
     1
1070
    44
1040
1.0
1070
    74
1070
     0
1000
MTEXTEND
  0
POINT
  5
247
330
241
100
AcDbEntity
  8
DEFPOINTS
 62
     0
100
AcDbPoint
 10
224460.9573925785
 20
135814.8441953225
 30
0.0
  0
POINT
  5
248
330
241
100
AcDbEntity
  8
DEFPOINTS
 62
     0
100
AcDbPoint
 10
222155.9573925785
 20
135910.9985242551
 30
0.0
  0
POINT
  5
249
330
241
100
AcDbEntity
  8
DEFPOINTS
 62
     0
100
AcDbPoint
 10
222155.9573925785
 20
137886.2068671806
 30
0.0
  0
ENDBLK
  5
24A
330
241
100
AcDbEntity
  8
0
100
AcDbBlockEnd
  0
BLOCK
  5
24D
330
24C
100
AcDbEntity
  8
0
100
AcDbBlockBegin
  2
*D12
 70
     1
 10
0.0
 20
0.0
 30
0.0
  3
*D12
  1

  0
LINE
  5
24E
330
24C
100
AcDbEntity
  8
0Wymiary-PL
 62
     1
370
    -2
100
AcDbLine
 10
221572.3308737029
 20
134906.8441953225
 30
0.0
 11
221572.3308737029
 21
135089.8441953225
 31
0.0
  0
INSERT
  5
24F
330
24C
100
AcDbEntity
  8
0Wymiary-PL
 62
     1
370
    -2
100
AcDbBlockReference
  2
B-DIM
 10
221572.3308737029
 20
134876.8441953225
 30
0.0
 41
30.0
 42
30.0
 43
30.0
 50
270.0
  0
INSERT
  5
250
330
24C
100
AcDbEntity
  8
0Wymiary-PL
 62
     1
370
    -2
100
AcDbBlockReference
  2
B-DIM
 10
221572.3308737029
 20
135119.8441953225
 30
0.0
 41
30.0
 42
30.0
 43
30.0
 50
90.0
  0
MTEXT
  5
251
330
24C
100
AcDbEntity
  8
0Wymiary-PL
 62
   140
100
AcDbMText
 10
221492.3308737029
 20
134998.3441953226
 30
0.0
 40
80.0
 41
0.0
 71
     5
 72
     1
  1
\A1;243
  7
ROMANS
 11
0.0000000000000001
 21
1.0
 31
0.0
 73
     1
 44
1.0
1001
ACAD
1000
MTEXTBEGIN
1070
    73
1070
     1
1070
    44
1040
1.0
1070
    74
1070
     0
1000
MTEXTEND
  0
POINT
  5
252
330
24C
100
AcDbEntity
  8
DEFPOINTS
 62
     0
100
AcDbPoint
 10
223765.9573925785
 20
134876.8441953225
 30
0.0
  0
POINT
  5
253
330
24C
100
AcDbEntity
  8
DEFPOINTS
 62
     0
100
AcDbPoint
 10
223765.9573925785
 20
135119.8441953225
 30
0.0
  0
POINT
  5
254
330
24C
100
AcDbEntity
  8
DEFPOINTS
 62
     0
100
AcDbPoint
 10
221572.3308737029
 20
135119.8441953225
 30
0.0
  0
ENDBLK
  5
255
330
24C
100
AcDbEntity
  8
0
100
AcDbBlockEnd
  0
BLOCK
  5
258
330
257
100
AcDbEntity
  8
0
100
AcDbBlockBegin
  2
*D13
 70
     1
 10
0.0
 20
0.0
 30
0.0
  3
*D13
  1

  0
LINE
  5
259
330
257
100
AcDbEntity
  8
0Wymiary-PL
 62
     1
370
    -2
100
AcDbLine
 10
221572.3308737029
 20
135149.8441953225
 30
0.0
 11
221572.3308737029
 21
136419.8441953225
 31
0.0
  0
INSERT
  5
25A
330
257
100
AcDbEntity
  8
0Wymiary-PL
 62
     1
370
    -2
100
AcDbBlockReference
  2
B-DIM
 10
221572.3308737029
 20
135119.8441953225
 30
0.0
 41
30.0
 42
30.0
 43
30.0
 50
270.0
  0
INSERT
  5
25B
330
257
100
AcDbEntity
  8
0Wymiary-PL
 62
     1
370
    -2
100
AcDbBlockReference
  2
B-DIM
 10
221572.3308737029
 20
136449.8441953225
 30
0.0
 41
30.0
 42
30.0
 43
30.0
 50
90.0
  0
MTEXT
  5
25C
330
257
100
AcDbEntity
  8
0Wymiary-PL
 62
   140
100
AcDbMText
 10
221492.3308737029
 20
135784.8441953225
 30
0.0
 40
80.0
 41
0.0
 71
     5
 72
     1
  1
\A1;1330
  7
ROMANS
 11
0.0000000000000001
 21
1.0
 31
0.0
 73
     1
 44
1.0
1001
ACAD
1000
MTEXTBEGIN
1070
    73
1070
     1
1070
    44
1040
1.0
1070
    74
1070
     0
1000
MTEXTEND
  0
POINT
  5
25D
330
257
100
AcDbEntity
  8
DEFPOINTS
 62
     0
100
AcDbPoint
 10
223765.9573925785
 20
135119.8441953225
 30
0.0
  0
POINT
  5
25E
330
257
100
AcDbEntity
  8
DEFPOINTS
 62
     0
100
AcDbPoint
 10
222275.9573925785
 20
136449.8441953225
 30
0.0
  0
POINT
  5
25F
330
257
100
AcDbEntity
  8
DEFPOINTS
 62
     0
100
AcDbPoint
 10
221572.3308737029
 20
136449.8441953225
 30
0.0
  0
ENDBLK
  5
260
330
257
100
AcDbEntity
  8
0
100
AcDbBlockEnd
  0
BLOCK
  5
263
330
262
100
AcDbEntity
  8
0
100
AcDbBlockBegin
  2
*D14
 70
     1
 10
0.0
 20
0.0
 30
0.0
  3
*D14
  1

  0
LINE
  5
264
330
262
100
AcDbEntity
  8
0Wymiary-PL
 62
     1
370
    -2
100
AcDbLine
 10
221572.3308737029
 20
136479.8441953225
 30
0.0
 11
221572.3308737029
 21
136956.8441953225
 31
0.0
  0
INSERT
  5
265
330
262
100
AcDbEntity
  8
0Wymiary-PL
 62
     1
370
    -2
100
AcDbBlockReference
  2
B-DIM
 10
221572.3308737029
 20
136449.8441953225
 30
0.0
 41
30.0
 42
30.0
 43
30.0
 50
270.0
  0
INSERT
  5
266
330
262
100
AcDbEntity
  8
0Wymiary-PL
 62
     1
370
    -2
100
AcDbBlockReference
  2
B-DIM
 10
221572.3308737029
 20
136986.8441953225
 30
0.0
 41
30.0
 42
30.0
 43
30.0
 50
90.0
  0
MTEXT
  5
267
330
262
100
AcDbEntity
  8
0Wymiary-PL
 62
   140
100
AcDbMText
 10
221492.3308737029
 20
136718.3441953226
 30
0.0
 40
80.0
 41
0.0
 71
     5
 72
     1
  1
\A1;537
  7
ROMANS
 11
0.0000000000000001
 21
1.0
 31
0.0
 73
     1
 44
1.0
1001
ACAD
1000
MTEXTBEGIN
1070
    73
1070
     1
1070
    44
1040
1.0
1070
    74
1070
     0
1000
MTEXTEND
  0
POINT
  5
268
330
262
100
AcDbEntity
  8
DEFPOINTS
 62
     0
100
AcDbPoint
 10
222275.9573925785
 20
136449.8441953225
 30
0.0
  0
POINT
  5
269
330
262
100
AcDbEntity
  8
DEFPOINTS
 62
     0
100
AcDbPoint
 10
223320.9573925785
 20
136986.8441953225
 30
0.0
  0
POINT
  5
26A
330
262
100
AcDbEntity
  8
DEFPOINTS
 62
     0
100
AcDbPoint
 10
221572.3308737029
 20
136986.8441953225
 30
0.0
  0
ENDBLK
  5
26B
330
262
100
AcDbEntity
  8
0
100
AcDbBlockEnd
  0
BLOCK
  5
26E
330
26D
100
AcDbEntity
  8
0
100
AcDbBlockBegin
  2
*D15
 70
     1
 10
0.0
 20
0.0
 30
0.0
  3
*D15
  1

  0
LINE
  5
26F
330
26D
100
AcDbEntity
  8
0Wymiary-PL
 62
     1
370
    -2
100
AcDbLine
 10
221572.3308737029
 20
136956.8441953225
 30
0.0
 11
221572.3308737029
 21
136926.8441953225
 31
0.0
  0
LINE
  5
270
330
26D
100
AcDbEntity
  8
0Wymiary-PL
 62
     1
370
    -2
100
AcDbLine
 10
221572.3308737029
 20
137051.8441953225
 30
0.0
 11
221572.3308737029
 21
137081.8441953225
 31
0.0
  0
LINE
  5
271
330
26D
100
AcDbEntity
  8
0Wymiary-PL
 62
     1
370
    -2
100
AcDbLine
 10
221572.3308737029
 20
136986.8441953225
 30
0.0
 11
221572.3308737029
 21
137021.8441953225
 31
0.0
  0
INSERT
  5
272
330
26D
100
AcDbEntity
  8
0Wymiary-PL
 62
     1
370
    -2
100
AcDbBlockReference
  2
B-DIM
 10
221572.3308737029
 20
136986.8441953225
 30
0.0
 41
30.0
 42
30.0
 43
30.0
 50
90.0
  0
INSERT
  5
273
330
26D
100
AcDbEntity
  8
0Wymiary-PL
 62
     1
370
    -2
100
AcDbBlockReference
  2
B-DIM
 10
221572.3308737029
 20
137021.8441953225
 30
0.0
 41
30.0
 42
30.0
 43
30.0
 50
270.0
  0
MTEXT
  5
274
330
26D
100
AcDbEntity
  8
0Wymiary-PL
 62
   140
100
AcDbMText
 10
221492.3308737029
 20
137004.3441953226
 30
0.0
 40
80.0
 41
0.0
 71
     5
 72
     1
  1
\A1;35
  7
ROMANS
 11
0.0000000000000001
 21
1.0
 31
0.0
 73
     1
 44
1.0
1001
ACAD
1000
MTEXTBEGIN
1070
    73
1070
     1
1070
    44
1040
1.0
1070
    74
1070
     0
1000
MTEXTEND
  0
POINT
  5
275
330
26D
100
AcDbEntity
  8
DEFPOINTS
 62
     0
100
AcDbPoint
 10
223320.9573925785
 20
136986.8441953225
 30
0.0
  0
POINT
  5
276
330
26D
100
AcDbEntity
  8
DEFPOINTS
 62
     0
100
AcDbPoint
 10
223499.9573925785
 20
137021.8441953225
 30
0.0
  0
POINT
  5
277
330
26D
100
AcDbEntity
  8
DEFPOINTS
 62
     0
100
AcDbPoint
 10
221572.3308737029
 20
137021.8441953225
 30
0.0
  0
ENDBLK
  5
278
330
26D
100
AcDbEntity
  8
0
100
AcDbBlockEnd
  0
BLOCK
  5
27B
330
27A
100
AcDbEntity
  8
0
100
AcDbBlockBegin
  2
*D16
 70
     1
 10
0.0
 20
0.0
 30
0.0
  3
*D16
  1

  0
LINE
  5
27C
330
27A
100
AcDbEntity
  8
0Wymiary-PL
 62
     1
370
    -2
100
AcDbLine
 10
221307.757773536
 20
134906.8441953225
 30
0.0
 11
221307.757773536
 21
136991.8441953225
 31
0.0
  0
INSERT
  5
27D
330
27A
100
AcDbEntity
  8
0Wymiary-PL
 62
     1
370
    -2
100
AcDbBlockReference
  2
B-DIM
 10
221307.757773536
 20
134876.8441953225
 30
0.0
 41
30.0
 42
30.0
 43
30.0
 50
270.0
  0
INSERT
  5
27E
330
27A
100
AcDbEntity
  8
0Wymiary-PL
 62
     1
370
    -2
100
AcDbBlockReference
  2
B-DIM
 10
221307.757773536
 20
137021.8441953225
 30
0.0
 41
30.0
 42
30.0
 43
30.0
 50
90.0
  0
MTEXT
  5
27F
330
27A
100
AcDbEntity
  8
0Wymiary-PL
 62
   140
100
AcDbMText
 10
221227.757773536
 20
135949.3441953226
 30
0.0
 40
80.0
 41
0.0
 71
     5
 72
     1
  1
\A1;2145
  7
ROMANS
 11
0.0000000000000001
 21
1.0
 31
0.0
 73
     1
 44
1.0
1001
ACAD
1000
MTEXTBEGIN
1070
    73
1070
     1
1070
    44
1040
1.0
1070
    74
1070
     0
1000
MTEXTEND
  0
POINT
  5
280
330
27A
100
AcDbEntity
  8
DEFPOINTS
 62
     0
100
AcDbPoint
 10
223765.9573925785
 20
134876.8441953225
 30
0.0
  0
POINT
  5
281
330
27A
100
AcDbEntity
  8
DEFPOINTS
 62
     0
100
AcDbPoint
 10
223499.9573925785
 20
137021.8441953225
 30
0.0
  0
POINT
  5
282
330
27A
100
AcDbEntity
  8
DEFPOINTS
 62
     0
100
AcDbPoint
 10
221307.757773536
 20
137021.8441953225
 30
0.0
  0
ENDBLK
  5
283
330
27A
100
AcDbEntity
  8
0
100
AcDbBlockEnd
  0
ENDSEC
  0
SECTION
  2
ENTITIES
  0
LINE
  5
61
330
2
100
AcDbEntity
  8
0Napisy
  6
HIDDEN
 62
     1
 48
8.0
370
     5
100
AcDbLine
 10
220399.8892448725
 20
132297.6012553763
 30
0.0
 11
220399.8892448725
 21
138473.1198157809
 31
0.0
  0
TEXT
  5
66
330
2
100
AcDbEntity
  8
0Napisy-PL
370
     5
100
AcDbText
 10
216714.5930245932
 20
140952.5016474007
 30
0.0
 40
150.0
  1
REZYDENCJA W PERSYMONACH 2 
  7
AVA
100
AcDbText
  0
LWPOLYLINE
  5
6B
330
2
100
AcDbEntity
  8
RAMKI-A4
370
     5
100
AcDbPolyline
 90
        4
 70
     1
 43
0.0
 10
215187.2000545948
 20
127657.5157057546
 10
215187.2000545948
 20
141677.5157057546
 10
225387.2000545948
 20
141677.5157057546
 10
225387.2000545948
 20
127657.5157057546
  0
MTEXT
  5
6F
102
{ACAD_XDICTIONARY
360
2D4
102
}
330
2
100
AcDbEntity
  8
0Napisy
100
AcDbMText
 10
216731.5435860943
 20
140778.5536523063
 30
0.0
 40
150.0
 41
0.0
 71
     1
 72
     5
  1
{\fArial|b0|i0|c238|p34;MO\U+017BNA WKLEI\U+0106 DO PROJEKTU ZAGOSPODAROWANIA TERENU}
  7
ARIAL
 73
     1
 44
1.0
1001
AcDbBlockRepETag
1070
     1
1071
      383
1005
6F
1001
DCO15
1071
        1
1071
        1
1000
_tabelka_-_inform_i_etykiety_Link1
1004
19000000
1000
_tabelka_Arial151
1001
ACAD
1000
MTEXTBEGIN
1070
    73
1070
     1
1070
    44
1040
1.0
1070
    74
1070
     0
1000
MTEXTEND
  0
MTEXT
  5
73
102
{ACAD_XDICTIONARY
360
2D6
102
}
330
2
100
AcDbEntity
  8
0Napisy
100
AcDbMText
 10
220212.6558968869
 20
132370.0274562156
 30
0.0
 40
100.0
 41
0.0
 71
     1
 72
     5
  1
{\fArial|b0|i0|c238|p34;O\U+015A ODBICIA LUSTRZANEGO}
  7
ARIAL
 11
0.0000000000000001
 21
1.0
 31
0.0
 73
     1
 44
1.0
1001
AcDbBlockRepETag
1070
     1
1071
      383
1005
6F
1001
DCO15
1071
        1
1071
        1
1000
_tabelka_-_inform_i_etykiety_Link1
1004
1B000000
1000
_tabelka_Arial151
1001
ACAD
1000
MTEXTBEGIN
1070
    73
1070
     1
1070
    44
1040
1.0
1070
    74
1070
     0
1000
MTEXTEND
  0
MTEXT
  5
74
330
2
100
AcDbEntity
  8
0Napisy
100
AcDbMText
 10
216789.6764640862
 20
128621.06909775
 30
0.0
 40
100.0
 41
0.0
 71
     1
 72
     5
  1
{\fArial|b0|i0|c238|p34;OBRYS  BUDYNKU}
  7
ARIAL
 73
     1
 44
1.0
1001
AcDbBlockRepETag
1070
     1
1071
      383
1005
6F
1001
DCO15
1071
        1
1071
        1
1000
_tabelka_-_inform_i_etykiety_Link1
1004
1A000000
1000
_tabelka_Arial151
1001
ACAD
1000
MTEXTBEGIN
1070
    73
1070
     1
1070
    44
1040
1.0
1070
    74
1070
     0
1000
MTEXTEND
  0
MTEXT
  5
75
330
2
100
AcDbEntity
  8
0Napisy
100
AcDbMText
 10
216789.6764640862
 20
128371.0690977501
 30
0.0
 40
100.0
 41
0.0
 71
     1
 72
     5
  1
{\fArial|b0|i0|c238|p34;Skala:}
  7
ARIAL
 73
     1
 44
1.0
1001
AcDbBlockRepETag
1070
     1
1071
      383
1005
6F
1001
DCO15
1071
        1
1071
        1
1000
_tabelka_-_inform_i_etykiety_Link1
1004
08000000
1000
_tabelka_Arial151
1001
ACAD
1000
MTEXTBEGIN
1070
    73
1070
     1
1070
    44
1040
1.0
1070
    74
1070
     0
1000
MTEXTEND
  0
TEXT
  5
76
330
2
100
AcDbEntity
  8
0Napisy
100
AcDbText
 10
217457.3675813689
 20
128269.3637771498
 30
0.0
 40
100.0
  1
1:500
  7
ARIAL
100
AcDbText
1001
AcDbBlockRepETag
1070
     1
1071
      383
1005
6F
1001
DCO15
1071
        1
1071
        1
1000
_tabelka_-_inform_i_etykiety_Link1
1004
08000000
1000
_tabelka_Arial151
  0
HATCH
  5
77
330
2
100
AcDbEntity
  8
0
370
     5
100
AcDbHatch
 10
0.0
 20
0.0
 30
0.0
210
0.0
220
0.0
230
1.0
  2
SOLID
 70
     1
 71
     1
 91
        2
 92
        7
 72
     0
 73
     1
 93
       81
 10
216748.8210971658
 20
136204.8441953225
 10
216773.8210971665
 20
136204.8441953225
 10
216773.8210971665
 20
136558.8441953225
 10
216748.8210971665
 20
136558.8441953225
 10
216748.8210971665
 20
136824.8441953225
 10
216773.8210971665
 20
136824.8441953225
 10
216773.8210971665
 20
136926.8441953225
 10
216953.3210971671
 20
136926.8441953225
 10
216953.321097167
 20
136961.8441953225
 10
217239.8210971665
 20
136961.8441953225
 10
217239.8210971665
 20
136926.8441953225
 10
217418.8210971665
 20
136926.8441953225
 10
217418.8210971665
 20
136889.8441953225
 10
217443.8210971665
 20
136889.8441953225
 10
217443.8210971665
 20
136553.8441953225
 10
217418.8210971665
 20
136553.8441953225
 10
217418.8210971665
 20
136389.8441953225
 10
217818.8210971658
 20
136389.8441953225
 10
217818.8210971658
 20
136428.8441953225
 10
218098.8210971658
 20
136428.8441953225
 10
218098.8210971658
 20
136389.8441953226
 10
218463.8210971665
 20
136389.8441953225
 10
218463.8210971665
 20
136006.1457105127
 10
218583.8210971665
 20
135886.1457105127
 10
218583.8210971665
 20
135683.5426801324
 10
218463.8210971665
 20
135563.5426801324
 10
218463.8210971665
 20
135179.8441953225
 10
218375.0949094988
 20
135179.8441953226
 10
218308.0949094988
 20
135112.8441953225
 10
218161.534544387
 20
135112.8441953225
 10
218094.534544387
 20
135179.8441953226
 10
217818.8210971665
 20
135179.8441953226
 10
217818.8210971666
 20
135268.8441953225
 10
217708.8210971666
 20
135268.8441953225
 10
217708.8210971666
 20
135208.8441953225
 10
217758.8210971665
 20
135208.8441953225
 10
217758.8210971665
 20
135060.2441953224
 10
217872.3376518512
 20
135060.2441953224
 10
217872.3376518512
 20
135119.8441953226
 10
218069.6817306446
 20
135119.8441953226
 10
218136.6817306446
 20
135052.8441953225
 10
218332.9477232412
 20
135052.8441953225
 10
218399.9477232412
 20
135119.8441953225
 10
218523.8210971665
 20
135119.8441953225
 10
218523.8210971665
 20
135538.68986639
 10
218643.8210971665
 20
135658.68986639
 10
218643.8210971665
 20
135910.9985242551
 10
218523.8210971665
 20
136030.9985242551
 10
218523.8210971665
 20
136449.8441953225
 10
218158.8210971658
 20
136449.8441953226
 10
218158.8210971659
 20
136488.8441953225
 10
217758.8210971658
 20
136488.8441953225
 10
217758.8210971658
 20
136449.8441953225
 10
217478.8210971666
 20
136449.8441953225
 10
217478.8210971666
 20
136493.8441953225
 10
217503.8210971666
 20
136493.8441953225
 10
217503.8210971665
 20
136949.8441953225
 10
217478.8210971666
 20
136949.8441953225
 10
217478.8210971666
 20
136986.8441953225
 10
217299.8210971665
 20
136986.8441953225
 10
217299.8210971665
 20
137021.8441953225
 10
216893.3210971668
 20
137021.8441953225
 10
216893.3210971669
 20
136986.8441953225
 10
216713.8210971666
 20
136986.8441953225
 10
216713.8210971666
 20
136884.8441953225
 10
216688.8210971666
 20
136884.8441953225
 10
216688.8210971666
 20
136498.8441953225
 10
216713.8210971665
 20
136498.8441953225
 10
216713.8210971666
 20
136264.8441953225
 10
216688.8210971658
 20
136264.8441953225
 10
216688.8210971658
 20
135946.8617327876
 10
216713.8210971666
 20
135946.8617327876
 10
216713.8210971666
 20
135814.8441953225
 10
216338.8210971666
 20
135814.8441953225
 10
216338.8210971666
 20
134876.8441953225
 10
216398.8210971666
 20
134876.8441953225
 10
216398.8210971666
 20
134936.8441953225
 10
216398.8210971666
 20
135754.8441953225
 10
216773.8210971665
 20
135754.8441953225
 10
216773.8210971665
 20
136006.8617327876
 10
216748.8210971658
 20
136006.8617327876
 97
        4
330
7B
330
7D
330
7A
330
7E
 92
       23
 72
     0
 73
     1
 93
       13
 10
216973.8210971666
 20
135179.8441953225
 10
216973.8210971666
 20
134936.8441953225
 10
216973.8210971666
 20
134876.8441953225
 10
217033.8210971666
 20
134876.8441953225
 10
217033.8210971666
 20
135119.8441953225
 10
217365.304542482
 20
135119.8441953225
 10
217365.3045424819
 20
135060.2441953223
 10
217478.8210971665
 20
135060.2441953226
 10
217478.8210971666
 20
135208.8441953225
 10
217528.8210971666
 20
135208.8441953225
 10
217528.8210971666
 20
135268.8441953225
 10
217418.8210971666
 20
135268.8441953225
 10
217418.8210971665
 20
135179.8441953225
 97
        4
330
7A
330
7C
330
7B
330
81
 75
     0
 76
     1
 47
5.424948387451019
 98
        2
 10
216721.0909811717
 20
136132.820676172
 10
217234.46917452
 20
135153.8815266435
1001
ACAD
1010
0.0
1020
0.0
1030
0.0
  0
HATCH
  5
78
330
2
100
AcDbEntity
  8
0
370
     5
100
AcDbHatch
 10
0.0
 20
0.0
 30
0.0
210
0.0
220
0.0
230
1.0
  2
SOLID
 70
     1
 71
     0
 91
        1
 92
        5
 93
       88
 72
     1
 10
216973.8210971666
 20
135179.8441953225
 11
216973.8210971666
 21
134876.8441953225
 72
     1
 10
216973.8210971666
 20
134876.8441953225
 11
217033.8210971666
 21
134876.8441953225
 72
     1
 10
217033.8210971666
 20
134876.8441953225
 11
217033.8210971666
 21
135119.8441953225
 72
     1
 10
217033.8210971666
 20
135119.8441953225
 11
217365.3045424819
 21
135119.8441953225
 72
     1
 10
217365.3045424819
 20
135119.8441953225
 11
217365.3045424819
 21
135060.2441953223
 72
     1
 10
217365.3045424819
 20
135060.2441953223
 11
217478.8210971665
 21
135060.2441953226
 72
     1
 10
217478.8210971665
 20
135060.2441953226
 11
217478.8210971665
 21
135208.8441953225
 72
     1
 10
217478.8210971666
 20
135208.8441953225
 11
217758.8210971665
 21
135208.8441953225
 72
     1
 10
217758.8210971665
 20
135208.8441953225
 11
217758.8210971665
 21
135060.2441953224
 72
     1
 10
217758.8210971665
 20
135060.2441953224
 11
217872.3376518512
 21
135060.2441953224
 72
     1
 10
217872.3376518512
 20
135060.2441953224
 11
217872.3376518512
 21
135119.8441953226
 72
     1
 10
217872.3376518512
 20
135119.8441953226
 11
218069.6817306447
 21
135119.8441953226
 72
     1
 10
218069.6817306447
 20
135119.8441953226
 11
218136.6817306446
 21
135052.8441953225
 72
     1
 10
218136.6817306446
 20
135052.8441953225
 11
218332.9477232412
 21
135052.8441953225
 72
     1
 10
218332.9477232412
 20
135052.8441953225
 11
218399.9477232412
 21
135119.8441953225
 72
     1
 10
218399.9477232412
 20
135119.8441953226
 11
218523.8210971665
 21
135119.8441953225
 72
     1
 10
218523.8210971665
 20
135119.8441953225
 11
218523.8210971665
 21
135538.68986639
 72
     1
 10
218523.8210971665
 20
135538.68986639
 11
218643.8210971665
 21
135658.68986639
 72
     1
 10
218643.8210971665
 20
135658.68986639
 11
218643.8210971665
 21
135910.9985242551
 72
     1
 10
218643.8210971665
 20
135910.9985242551
 11
218523.8210971665
 21
136030.9985242551
 72
     1
 10
218523.8210971665
 20
136030.9985242551
 11
218523.8210971665
 21
136449.8441953225
 72
     1
 10
218523.8210971665
 20
136449.8441953225
 11
218158.8210971658
 21
136449.8441953226
 72
     1
 10
218158.8210971659
 20
136449.8441953226
 11
218158.8210971659
 21
136488.8441953225
 72
     1
 10
218158.8210971659
 20
136488.8441953225
 11
217758.8210971658
 21
136488.8441953225
 72
     1
 10
217758.8210971658
 20
136488.8441953225
 11
217758.8210971658
 21
136449.8441953225
 72
     1
 10
217758.8210971658
 20
136449.8441953225
 11
217478.8210971666
 21
136449.8441953225
 72
     1
 10
217478.8210971666
 20
136449.8441953225
 11
217478.8210971666
 21
136493.8441953225
 72
     1
 10
217478.8210971666
 20
136493.8441953225
 11
217503.8210971665
 21
136493.8441953225
 72
     1
 10
217503.8210971665
 20
136493.8441953225
 11
217503.8210971665
 21
136949.8441953225
 72
     1
 10
217503.8210971665
 20
136949.8441953225
 11
217478.8210971666
 21
136949.8441953225
 72
     1
 10
217478.8210971666
 20
136949.8441953225
 11
217478.8210971666
 21
136986.8441953225
 72
     1
 10
217478.8210971666
 20
136986.8441953225
 11
217299.8210971666
 21
136986.8441953225
 72
     1
 10
217299.8210971665
 20
136986.8441953225
 11
217299.8210971665
 21
137021.8441953225
 72
     1
 10
217299.8210971665
 20
137021.8441953225
 11
216893.3210971667
 21
137021.8441953225
 72
     1
 10
216893.3210971668
 20
137021.8441953225
 11
216893.3210971669
 21
136986.8441953225
 72
     1
 10
216893.3210971669
 20
136986.8441953225
 11
216713.8210971665
 21
136986.8441953225
 72
     1
 10
216713.8210971666
 20
136986.8441953225
 11
216713.8210971666
 21
136884.8441953225
 72
     1
 10
216713.8210971666
 20
136884.8441953225
 11
216688.8210971666
 21
136884.8441953225
 72
     1
 10
216688.8210971666
 20
136884.8441953225
 11
216688.8210971666
 21
136498.8441953225
 72
     1
 10
216688.8210971666
 20
136498.8441953225
 11
216713.8210971666
 21
136498.8441953225
 72
     1
 10
216713.8210971666
 20
136498.8441953225
 11
216713.8210971666
 21
136264.8441953225
 72
     1
 10
216713.8210971666
 20
136264.8441953225
 11
216688.8210971658
 21
136264.8441953225
 72
     1
 10
216688.8210971658
 20
136264.8441953225
 11
216688.8210971658
 21
135946.8617327876
 72
     1
 10
216688.8210971658
 20
135946.8617327876
 11
216713.8210971665
 21
135946.8617327876
 72
     1
 10
216713.8210971666
 20
135946.8617327876
 11
216713.8210971666
 21
135814.8441953225
 72
     1
 10
216713.8210971666
 20
135814.8441953225
 11
216338.8210971666
 21
135814.8441953225
 72
     1
 10
216338.8210971666
 20
135814.8441953225
 11
216338.8210971666
 21
134876.8441953225
 72
     1
 10
216338.8210971666
 20
134876.8441953225
 11
216398.8210971666
 21
134876.8441953225
 72
     1
 10
216398.8210971666
 20
134876.8441953225
 11
216398.8210971666
 21
135754.8441953225
 72
     1
 10
216398.8210971666
 20
135754.8441953225
 11
216773.8210971665
 21
135754.8441953225
 72
     1
 10
216773.8210971665
 20
135754.8441953225
 11
216773.8210971665
 21
136006.8617327876
 72
     1
 10
216773.8210971665
 20
136006.8617327876
 11
216748.8210971658
 21
136006.8617327876
 72
     1
 10
216748.8210971658
 20
136006.8617327876
 11
216748.8210971658
 21
136204.8441953225
 72
     1
 10
216748.8210971658
 20
136204.8441953225
 11
216773.8210971665
 21
136204.8441953225
 72
     1
 10
216773.8210971665
 20
136204.8441953225
 11
216773.8210971665
 21
136558.8441953225
 72
     1
 10
216773.8210971665
 20
136558.8441953225
 11
216748.8210971665
 21
136558.8441953225
 72
     1
 10
216748.8210971665
 20
136558.8441953225
 11
216748.8210971665
 21
136824.8441953225
 72
     1
 10
216748.8210971665
 20
136824.8441953225
 11
216773.8210971665
 21
136824.8441953225
 72
     1
 10
216773.8210971665
 20
136824.8441953225
 11
216773.8210971665
 21
136926.8441953225
 72
     1
 10
216773.8210971665
 20
136926.8441953225
 11
216953.3210971671
 21
136926.8441953225
 72
     1
 10
216953.3210971671
 20
136926.8441953225
 11
216953.321097167
 21
136961.8441953225
 72
     1
 10
216953.321097167
 20
136961.8441953225
 11
217239.8210971666
 21
136961.8441953225
 72
     1
 10
217239.8210971665
 20
136961.8441953225
 11
217239.8210971665
 21
136926.8441953225
 72
     1
 10
217239.8210971665
 20
136926.8441953225
 11
217418.8210971665
 21
136926.8441953225
 72
     1
 10
217418.8210971665
 20
136926.8441953225
 11
217418.8210971665
 21
136889.8441953225
 72
     1
 10
217418.8210971665
 20
136889.8441953225
 11
217443.8210971665
 21
136889.8441953225
 72
     1
 10
217443.8210971665
 20
136889.8441953225
 11
217443.8210971665
 21
136553.8441953225
 72
     1
 10
217443.8210971665
 20
136553.8441953225
 11
217418.8210971665
 21
136553.8441953225
 72
     1
 10
217418.8210971665
 20
136553.8441953225
 11
217418.8210971665
 21
136389.8441953225
 72
     1
 10
217418.8210971665
 20
136389.8441953225
 11
217818.8210971658
 21
136389.8441953225
 72
     1
 10
217818.8210971658
 20
136389.8441953225
 11
217818.8210971658
 21
136428.8441953225
 72
     1
 10
217818.8210971658
 20
136428.8441953225
 11
218098.8210971658
 21
136428.8441953225
 72
     1
 10
218098.8210971658
 20
136428.8441953225
 11
218098.8210971658
 21
136389.8441953226
 72
     1
 10
218098.8210971658
 20
136389.8441953226
 11
218463.8210971665
 21
136389.8441953226
 72
     1
 10
218463.8210971665
 20
136389.8441953225
 11
218463.8210971665
 21
136006.1457105127
 72
     1
 10
218463.8210971665
 20
136006.1457105127
 11
218583.8210971665
 21
135886.1457105127
 72
     1
 10
218583.8210971665
 20
135886.1457105127
 11
218583.8210971665
 21
135683.5426801324
 72
     1
 10
218583.8210971665
 20
135683.5426801324
 11
218463.8210971665
 21
135563.5426801324
 72
     1
 10
218463.8210971665
 20
135563.5426801324
 11
218463.8210971665
 21
135179.8441953225
 72
     1
 10
218463.8210971665
 20
135179.8441953225
 11
218375.0949094988
 21
135179.8441953225
 72
     1
 10
218375.0949094988
 20
135179.8441953226
 11
218308.0949094988
 21
135112.8441953225
 72
     1
 10
218308.0949094988
 20
135112.8441953225
 11
218161.534544387
 21
135112.8441953225
 72
     1
 10
218161.534544387
 20
135112.8441953225
 11
218094.5345443871
 21
135179.8441953226
 72
     1
 10
218094.5345443871
 20
135179.8441953226
 11
217818.8210971665
 21
135179.8441953226
 72
     1
 10
217818.8210971665
 20
135179.8441953226
 11
217818.8210971665
 21
135268.8441953225
 72
     1
 10
217818.8210971665
 20
135268.8441953225
 11
217418.8210971665
 21
135268.8441953225
 72
     1
 10
217418.8210971665
 20
135268.8441953225
 11
217418.8210971665
 21
135179.8441953225
 72
     1
 10
217418.8210971665
 20
135179.8441953225
 11
216973.8210971666
 21
135179.8441953225
 97
        0
 75
     0
 76
     1
 47
5.424948387451019
 98
        1
 10
217234.46917452
 20
135153.8815266435
1001
ACAD
1010
0.0
1020
0.0
1030
0.0
  0
HATCH
  5
79
330
2
100
AcDbEntity
  8
0
370
     5
100
AcDbHatch
 10
0.0
 20
0.0
 30
0.0
210
0.0
220
0.0
230
1.0
  2
SOLID
 70
     1
 71
     1
 91
        1
 92
        7
 72
     0
 73
     1
 93
        4
 10
216658.8210971665
 20
134936.8441953225
 10
216658.8210971665
 20
134876.8441953225
 10
216713.7225466362
 20
134876.8441953225
 10
216713.7225466362
 20
134936.8441953225
 97
        4
330
7B
330
7F
330
7A
330
80
 75
     0
 76
     1
 47
2.091951897588443
 98
        1
 10
216681.8129329966
 20
134922.2830377677
1001
ACAD
1010
0.0
1020
0.0
1030
0.0
  0
LWPOLYLINE
  5
7A
102
{ACAD_REACTORS
330
77
330
79
102
}
330
2
100
AcDbEntity
  8
0
370
     5
100
AcDbPolyline
 90
       47
 70
     0
 43
0.0
 10
216713.8210971658
 20
136264.8441953225
 10
216688.8210971658
 20
136264.8441953225
 10
216688.8210971658
 20
135946.8617327876
 10
216713.8210971666
 20
135946.8617327876
 10
216713.8210971666
 20
135814.8441953225
 10
216338.8210971666
 20
135814.8441953225
 10
216338.8210971666
 20
134876.8441953225
 10
217033.8210971666
 20
134876.8441953225
 10
217033.8210971666
 20
135119.8441953225
 10
217365.3045424819
 20
135119.8441953225
 10
217365.3045424819
 20
135060.2441953223
 10
217478.8210971665
 20
135060.2441953226
 10
217478.8210971666
 20
135208.8441953225
 10
217758.8210971665
 20
135208.8441953225
 10
217758.8210971665
 20
135060.2441953224
 10
217872.3376518512
 20
135060.2441953224
 10
217872.3376518512
 20
135119.8441953226
 10
218069.6817306447
 20
135119.8441953226
 10
218136.6817306446
 20
135052.8441953225
 10
218332.9477232412
 20
135052.8441953225
 10
218399.9477232412
 20
135119.8441953225
 10
218523.8210971665
 20
135119.8441953225
 10
218523.8210971665
 20
135538.68986639
 10
218643.8210971665
 20
135658.68986639
 10
218643.8210971665
 20
135910.9985242551
 10
218523.8210971665
 20
136030.9985242551
 10
218523.8210971665
 20
136449.8441953225
 10
218158.8210971658
 20
136449.8441953226
 10
218158.8210971659
 20
136488.8441953225
 10
217758.8210971658
 20
136488.8441953225
 10
217758.8210971658
 20
136449.8441953225
 10
217478.8210971666
 20
136449.8441953225
 10
217478.8210971666
 20
136493.8441953225
 10
217503.8210971665
 20
136493.8441953225
 10
217503.8210971665
 20
136949.8441953225
 10
217478.8210971666
 20
136949.8441953225
 10
217478.8210971666
 20
136986.8441953225
 10
217299.8210971665
 20
136986.8441953225
 10
217299.8210971665
 20
137021.8441953225
 10
216893.3210971668
 20
137021.8441953225
 10
216893.3210971669
 20
136986.8441953225
 10
216713.8210971666
 20
136986.8441953225
 10
216713.8210971666
 20
136884.8441953225
 10
216688.8210971666
 20
136884.8441953225
 10
216688.8210971666
 20
136498.8441953225
 10
216713.8210971666
 20
136498.8441953225
 10
216713.8210971666
 20
136264.8441953225
  0
LWPOLYLINE
  5
7B
102
{ACAD_REACTORS
330
77
330
79
102
}
330
2
100
AcDbEntity
  8
0
370
     5
100
AcDbPolyline
 90
       42
 70
     1
 43
0.0
 10
216773.8210971665
 20
136204.8441953225
 10
216748.8210971658
 20
136204.8441953225
 10
216748.8210971658
 20
136006.8617327876
 10
216773.8210971665
 20
136006.8617327876
 10
216773.8210971665
 20
135754.8441953225
 10
216398.8210971666
 20
135754.8441953225
 10
216398.8210971666
 20
134936.8441953225
 10
216973.8210971666
 20
134936.8441953225
 10
216973.8210971666
 20
135179.8441953225
 10
217418.8210971665
 20
135179.8441953225
 10
217418.8210971665
 20
135268.8441953225
 10
217818.8210971665
 20
135268.8441953225
 10
217818.8210971665
 20
135179.8441953226
 10
218094.5345443871
 20
135179.8441953226
 10
218161.534544387
 20
135112.8441953225
 10
218308.0949094988
 20
135112.8441953225
 10
218375.0949094988
 20
135179.8441953226
 10
218463.8210971665
 20
135179.8441953225
 10
218463.8210971665
 20
135563.5426801324
 10
218583.8210971665
 20
135683.5426801324
 10
218583.8210971665
 20
135886.1457105127
 10
218463.8210971665
 20
136006.1457105127
 10
218463.8210971665
 20
136389.8441953225
 10
218098.8210971658
 20
136389.8441953226
 10
218098.8210971658
 20
136428.8441953225
 10
217818.8210971658
 20
136428.8441953225
 10
217818.8210971658
 20
136389.8441953225
 10
217418.8210971665
 20
136389.8441953225
 10
217418.8210971665
 20
136553.8441953225
 10
217443.8210971665
 20
136553.8441953225
 10
217443.8210971665
 20
136889.8441953225
 10
217418.8210971665
 20
136889.8441953225
 10
217418.8210971665
 20
136926.8441953225
 10
217239.8210971665
 20
136926.8441953225
 10
217239.8210971665
 20
136961.8441953225
 10
216953.321097167
 20
136961.8441953225
 10
216953.3210971671
 20
136926.8441953225
 10
216773.8210971665
 20
136926.8441953225
 10
216773.8210971665
 20
136824.8441953225
 10
216748.8210971665
 20
136824.8441953225
 10
216748.8210971665
 20
136558.8441953225
 10
216773.8210971665
 20
136558.8441953225
  0
LWPOLYLINE
  5
7C
102
{ACAD_REACTORS
330
77
102
}
330
2
100
AcDbEntity
  8
0
370
     5
100
AcDbPolyline
 90
        2
 70
     0
 43
0.0
 10
217528.8210971666
 20
135208.8441953225
 10
217528.8210971666
 20
135268.8441953225
  0
LINE
  5
7D
102
{ACAD_REACTORS
330
77
102
}
330
2
100
AcDbEntity
  8
0
370
     5
100
AcDbLine
 10
217708.8210971666
 20
135268.8441953225
 30
0.0000000000014255
 11
217708.8210971666
 21
135208.8441953225
 31
-0.0000000000026473
  0
LINE
  5
7E
102
{ACAD_REACTORS
330
77
102
}
330
2
100
AcDbEntity
  8
0
370
     5
100
AcDbLine
 10
216398.8210971666
 20
134936.8441953225
 30
0.0000000000011371
 11
216398.8210971666
 21
134876.8441953225
 31
0.0000000000011371
  0
LINE
  5
7F
102
{ACAD_REACTORS
330
79
102
}
330
2
100
AcDbEntity
  8
0
370
     5
100
AcDbLine
 10
216658.8210971665
 20
134936.8441953225
 30
0.0
 11
216658.8210971665
 21
134876.8441953225
 31
0.0
  0
LINE
  5
80
102
{ACAD_REACTORS
330
79
102
}
330
2
100
AcDbEntity
  8
0
370
     5
100
AcDbLine
 10
216713.7225466362
 20
134936.8441953225
 30
0.0
 11
216713.7225466362
 21
134876.8441953225
 31
0.0
  0
LINE
  5
81
102
{ACAD_REACTORS
330
77
102
}
330
2
100
AcDbEntity
  8
0
370
     5
100
AcDbLine
 10
216973.8210971665
 20
134936.8441953225
 30
0.0
 11
216973.8210971666
 21
134876.8441953225
 31
0.0
  0
ARC
  5
82
330
2
100
AcDbEntity
  8
0
370
     5
100
AcDbCircle
 10
217108.6750796675
 20
134805.414329275
 30
-0.0000000000007651
 40
11.08931251203426
100
AcDbArc
 50
187.0096187411994
 51
297.9958501274895
  0
LWPOLYLINE
  5
83
330
2
100
AcDbEntity
  8
0
370
     5
100
AcDbPolyline
 90
        5
 70
     0
 43
0.0
 10
218824.2144126659
 20
137018.1499305822
 42
0.5276008317927953
 10
218075.7136639139
 20
137163.7614528945
 42
-0.1120778036783264
 10
217906.7312742424
 20
137056.6725190764
 42
-0.2740130295617334
 10
217679.5417560803
 20
137079.7620717489
 42
0.307733324664029
 10
217478.5629270999
 20
137127.8446291006
  0
LWPOLYLINE
  5
84
330
2
100
AcDbEntity
  8
0
370
     5
100
AcDbPolyline
 90
        2
 70
     0
 43
0.0
 10
218804.6992224573
 20
137012.8692312054
 42
0.1918417715054476
 10
218571.6094438616
 20
137242.3002726141
  0
LWPOLYLINE
  5
85
330
2
100
AcDbEntity
  8
0
370
     5
100
AcDbPolyline
 90
        4
 70
     0
 43
0.0
 10
218533.8210971665
 20
135435.440652627
 42
0.2605860760493596
 10
218853.8210971665
 20
135653.5322039088
 42
0.232098103410782
 10
218873.9652621729
 20
136056.2803413555
 42
0.3508411482432125
 10
218533.8210971665
 20
136276.5620161161
  0
LWPOLYLINE
  5
86
330
2
100
AcDbEntity
  8
0
370
     5
100
AcDbPolyline
 90
        4
 70
     0
 43
0.0
 10
218533.8210971665
 20
135201.4852849257
 42
0.1042733700002888
 10
218953.8210971665
 20
135530.2836620543
 42
0.1636492992279299
 10
219127.9643017586
 20
135981.2494363446
 42
0.3243285027925692
 10
218916.8240146401
 20
136373.5940045792
  0
LWPOLYLINE
  5
87
330
2
100
AcDbEntity
  8
0
370
     5
100
AcDbPolyline
 90
        2
 70
     0
 43
0.0
 10
218681.0335398769
 20
136695.8166896664
 42
0.2767577734766961
 10
218824.2144126659
 20
137018.1499305822
  0
LWPOLYLINE
  5
88
330
2
100
AcDbEntity
  8
0
370
     5
100
AcDbPolyline
 90
        2
 70
     0
 43
0.0
 10
218674.5836919493
 20
136715.8034987214
 42
0.2692011273914762
 10
218804.6992224573
 20
137012.8692312054
 42
0.2692011273914762
  0
LWPOLYLINE
  5
89
330
2
100
AcDbEntity
  8
0
370
     5
100
AcDbPolyline
 90
        2
 70
     0
 43
0.0
 10
218916.8240146401
 20
136373.5940045792
 42
0.2355981486077139
 10
218533.8210971665
 20
136368.2031057193
  0
ARC
  5
8A
330
2
100
AcDbEntity
  8
0
370
     5
100
AcDbCircle
 10
218576.4417564921
 20
137077.1051040059
 30
-0.0000000000005571
 40
256.4104886034744
100
AcDbArc
 50
27.8981142763131
 51
109.6433936764296
  0
ARC
  5
8B
330
2
100
AcDbEntity
  8
0
370
     5
100
AcDbCircle
 10
219055.8129528707
 20
137328.8679372991
 30
-0.0000000000007807
 40
285.0543451194038
100
AcDbArc
 50
207.5373348153984
 51
248.5330555952169
  0
LINE
  5
8C
330
2
100
AcDbEntity
  8
0
370
     5
100
AcDbLine
 10
218513.8210892815
 20
136459.831637401
 30
-0.0000000000000086
 11
218533.8210971665
 21
136459.8441953225
 31
-0.0000000000000089
  0
ARC
  5
8D
330
2
100
AcDbEntity
  8
0
370
     5
100
AcDbCircle
 10
218796.6814180171
 20
136459.7185947005
 30
0.0000000000000004
 40
262.9094402296039
100
AcDbArc
 50
116.3113309614514
 51
181.1075612065092
  0
LWPOLYLINE
  5
8E
330
2
100
AcDbEntity
  8
0
370
     5
100
AcDbPolyline
 90
        2
 70
     0
 43
0.0
 10
218815.3757563882
 20
136572.3303295816
 42
0.3225831769715858
 10
218916.8240146401
 20
136373.5940045792
  0
LWPOLYLINE
  5
8F
330
2
100
AcDbEntity
  8
0
370
     5
100
AcDbPolyline
 90
        2
 70
     0
 43
0.0
 10
217265.6810755665
 20
135119.8441953225
 42
0.2269303476127987
 10
217283.8210971665
 20
134925.8441953225
  0
LWPOLYLINE
  5
90
330
2
100
AcDbEntity
  8
0
370
     5
100
AcDbPolyline
 90
        2
 70
     0
 43
0.0
 10
217153.7774240156
 20
134811.5310646829
 42
0.7290381588565626
 10
217283.8210971665
 20
134925.8441953225
  0
LWPOLYLINE
  5
91
330
2
100
AcDbEntity
  8
0
370
     5
100
AcDbPolyline
 90
        3
 70
     0
 43
0.0
 10
218038.9632428259
 20
134796.817457723
 42
-0.3601899259825781
 10
218007.8509735464
 20
134896.0972200512
 42
0.215206496283424
 10
218006.6681565273
 20
135119.8441953225
  0
LINE
  5
92
330
2
100
AcDbEntity
  8
0
370
     5
100
AcDbLine
 10
217073.8210971665
 20
134832.5951232258
 30
0.0000000000014364
 11
217073.8210971665
 21
134968.8441953225
 31
0.0000000000013154
  0
LINE
  5
93
330
2
100
AcDbEntity
  8
0
370
     5
100
AcDbLine
 10
217073.8210971665
 20
134968.8441953225
 30
0.0000000000013154
 11
217043.8210971665
 21
134968.8441953225
 31
0.0000000000013154
  0
ARC
  5
94
330
2
100
AcDbEntity
  8
0
370
     5
100
AcDbCircle
 10
-218928.2967541696
 20
137009.4328339852
 30
-0.0000000001227403
 40
87.26806250588873
210
0.0
220
-0.0000000000000009
230
-1.0
100
AcDbArc
 50
259.841233414436
 51
279.7832473361296
  0
ARC
  5
95
330
2
100
AcDbEntity
  8
0
370
     5
100
AcDbCircle
 10
218484.2337978905
 20
136976.140882988
 30
-0.0000000000004674
 40
438.4581713372718
100
AcDbArc
 50
316.8646551684175
 51
352.9883953766186
  0
ARC
  5
96
330
2
100
AcDbEntity
  8
0
370
     5
100
AcDbCircle
 10
-218928.1925866273
 20
137025.2893518711
 30
-0.0000000001227403
 40
102.914304417052
210
0.0
220
-0.0000000000000009
230
-1.0
100
AcDbArc
 50
278.2258658835974
 51
295.2486797458215
  0
ARC
  5
97
330
2
100
AcDbEntity
  8
0
370
     5
100
AcDbCircle
 10
218484.4208441365
 20
136976.113369824
 30
-0.0000000000004674
 40
406.2771156572773
100
AcDbArc
 50
316.3778193619654
 51
353.552817412515
  0
ARC
  5
98
330
2
100
AcDbEntity
  8
0
370
     5
100
AcDbCircle
 10
-218928.2603146864
 20
137026.7448813807
 30
-0.0000000001227403
 40
104.2611708932392
210
0.0
220
-0.0000000000000009
230
-1.0
100
AcDbArc
 50
294.9411577016376
 51
313.9316296107832
  0
ARC
  5
99
330
2
100
AcDbEntity
  8
0
370
     5
100
AcDbCircle
 10
-218730.6401456247
 20
136598.796269527
 30
-0.0000000001227403
 40
108.9951514697081
210
0.0
220
-0.0000000000000009
230
-1.0
100
AcDbArc
 50
62.40242357939708
 51
95.95146859994651
  0
ARC
  5
9A
330
2
100
AcDbEntity
  8
0
370
     5
100
AcDbCircle
 10
218481.3976049737
 20
136977.489160926
 30
-0.0000000000004686
 40
377.4160058555368
100
AcDbArc
 50
314.1929679444485
 51
355.8068681601138
  0
ARC
  5
9B
330
2
100
AcDbEntity
  8
0
370
     5
100
AcDbCircle
 10
-218929.6153116433
 20
137027.8170610892
 30
-0.0000000001227403
 40
105.973670683336
210
0.0
220
-0.0000000000000009
230
-1.0
100
AcDbArc
 50
314.0570348346401
 51
350.6027987292156
  0
LINE
  5
9C
330
2
100
AcDbEntity
  8
0
370
     5
100
AcDbLine
 10
217478.5629270875
 20
137127.8450628765
 30
-0.0000000000005924
 11
216588.8210971665
 21
137127.8441736458
 31
-0.0000000000005924
  0
ARC
  5
9D
330
2
100
AcDbEntity
  8
0
370
     5
100
AcDbCircle
 10
-218796.6814180171
 20
136459.7185947005
 30
-0.0000000001227403
 40
262.9094402296051
210
0.0
220
-0.0000000000000009
230
-1.0
100
AcDbArc
 50
358.8924387934908
 51
63.68866903854851
  0
ARC
  5
9E
330
2
100
AcDbEntity
  8
0
370
     5
100
AcDbCircle
 10
218798.5554151711
 20
136459.4740699862
 30
-0.0000000000000086
 40
284.734550404932
100
AcDbArc
 50
115.8103692319868
 51
179.9280483904786
  0
ARC
  5
9F
330
2
100
AcDbEntity
  8
0
370
     5
100
AcDbCircle
 10
218400.1732170152
 20
136835.0112004421
 30
-0.0000000000003421
 40
491.8990475051696
100
AcDbArc
 50
67.28899676568598
 51
134.6058070917584
  0
ARC
  5
A0
330
2
100
AcDbEntity
  8
0
370
     5
100
AcDbCircle
 10
-217725.4559388805
 20
137525.7532410685
 30
-0.0000000001227403
 40
473.7048030850882
210
0.0
220
-0.0000000000000009
230
-1.0
100
AcDbArc
 50
225.9612542501275
 51
252.4042285481029
  0
ARC
  5
A1
330
2
100
AcDbEntity
  8
0
370
     5
100
AcDbCircle
 10
-217812.3549403425
 20
137258.3926734919
 30
-0.0000000001227403
 40
192.5942029847676
210
0.0
220
-0.0000000000000009
230
-1.0
100
AcDbArc
 50
253.0022870032684
 51
306.0251991108798
  0
ARC
  5
A2
330
2
100
AcDbEntity
  8
0
370
     5
100
AcDbCircle
 10
217543.7677522936
 20
136956.7994054425
 30
-0.0000000000013418
 40
213.04774920496
100
AcDbArc
 50
43.19626207347702
 51
109.3242969629292
  0
ARC
  5
A3
330
2
100
AcDbEntity
  8
0
370
     5
100
AcDbCircle
 10
217618.6598141791
 20
135299.641644258
 30
0.0000000000010216
 40
403.7974489354454
100
AcDbArc
 50
247.7749535033118
 51
292.2250464966883
  0
ARC
  5
A4
330
2
100
AcDbEntity
  8
0
370
     5
100
AcDbCircle
 10
217761.3169770683
 20
135041.6707897598
 30
0.0000000000012507
 40
224.663384274638
100
AcDbArc
 50
328.9653624392581
 51
20.36246359770601
  0
ARC
  5
A5
330
2
100
AcDbEntity
  8
0
370
     5
100
AcDbCircle
 10
-217618.6598141791
 20
135339.641644258
 30
-0.0000000001227403
 40
373.7974489354331
210
0.0
220
-0.0000000000000009
230
-1.0
100
AcDbArc
 50
246.8884852205571
 51
293.1115147794428
  0
LINE
  5
A6
330
2
100
AcDbEntity
  8
0
370
     5
100
AcDbLine
 10
217313.8210971665
 20
135119.8441953225
 30
0.0000000000011813
 11
217313.8210971665
 21
134995.8441953225
 31
0.0000000000012914
  0
LINE
  5
A7
330
2
100
AcDbEntity
  8
0
370
     5
100
AcDbLine
 10
217313.8210971665
 20
134995.8441953225
 30
0.0000000000012914
 11
217471.9361046572
 21
134995.8441953221
 31
0.0000000000012914
  0
ARC
  5
A8
330
2
100
AcDbEntity
  8
0
370
     5
100
AcDbCircle
 10
217618.6598141791
 20
135339.641644258
 30
0.0000000000009861
 40
373.797448935449
100
AcDbArc
 50
246.8884852205571
 51
293.1115147794428
  0
LINE
  5
A9
330
2
100
AcDbEntity
  8
0
370
     5
100
AcDbLine
 10
217765.3835237018
 20
134995.8441953225
 30
0.0000000000012914
 11
217923.8210971666
 21
134995.8441953225
 31
0.0000000000012914
  0
LINE
  5
AA
330
2
100
AcDbEntity
  8
0
370
     5
100
AcDbLine
 10
217923.8210971666
 20
134995.8441953225
 30
0.0000000000012914
 11
217923.8210971666
 21
135119.8441953225
 31
0.0000000000011813
  0
ARC
  5
AB
330
2
100
AcDbEntity
  8
0
370
     5
100
AcDbCircle
 10
-217195.8983112139
 20
134445.1244797249
 30
-0.0000000001227278
 40
114.8110098138098
210
0.0
220
-0.0000000000000009
230
-1.0
100
AcDbArc
 50
61.78630959571038
 51
220.0213844755066
  0
LINE
  5
AC
330
2
100
AcDbEntity
  8
0
370
     5
100
AcDbLine
 10
217283.8210971665
 20
134371.2925646421
 30
0.0000000000018461
 11
217953.8210971665
 21
134332.4957835428
 31
0.0000000000018806
  0
ARC
  5
AD
330
2
100
AcDbEntity
  8
0
370
     5
100
AcDbCircle
 10
-218004.4740836546
 20
134469.0589636684
 30
-0.0000000001227403
 40
145.6544788400355
210
0.0
220
-0.0000000000000009
230
-1.0
100
AcDbArc
 50
290.3504453553219
 51
47.17869772215562
  0
ARC
  5
AE
330
2
100
AcDbEntity
  8
0
370
     5
100
AcDbCircle
 10
217816.3460918701
 20
134706.1619205012
 30
-0.0000000000008332
 40
157.8389439940509
100
AcDbArc
 50
304.3783577871714
 51
19.17036460807817
  0
ARC
  5
AF
330
2
100
AcDbEntity
  8
0
370
     5
100
AcDbCircle
 10
-218155.9957747944
 20
134855.5024010801
 30
-0.0000000001227558
 40
214.0620664461468
210
0.0
220
-0.0000000000000009
230
-1.0
100
AcDbArc
 50
332.9015821615605
 51
19.18410637923597
  0
LINE
  5
B0
330
2
100
AcDbEntity
  8
0
370
     5
100
AcDbLine
 10
217953.8210971665
 20
134925.8441953224
 30
0.0000000000013536
 11
217771.3943778382
 21
134925.8441953225
 31
0.0000000000013536
  0
ARC
  5
B1
330
2
100
AcDbEntity
  8
0
370
     5
100
AcDbCircle
 10
-217618.6598141791
 20
135299.641644258
 30
-0.0000000001227403
 40
403.7974489354373
210
0.0
220
-0.0000000000000009
230
-1.0
100
AcDbArc
 50
247.7749535033118
 51
292.2250464966883
  0
LINE
  5
B2
330
2
100
AcDbEntity
  8
0
370
     5
100
AcDbLine
 10
217465.92525052
 20
134925.8441953225
 30
0.0000000000013536
 11
217283.8210971663
 21
134925.8441953228
 31
0.0000000000013536
  0
LINE
  5
B3
330
2
100
AcDbEntity
  8
0
370
     5
100
AcDbLine
 10
217073.8210971665
 20
134541.0061519339
 30
0.0000000000016954
 11
217073.8210971665
 21
134346.3505146446
 31
0.0000000000018353
  0
ARC
  5
B4
330
2
100
AcDbEntity
  8
0
370
     5
100
AcDbCircle
 10
217070.9040947787
 20
134798.9826495707
 30
0.0000000000014663
 40
28.02229129028858
100
AcDbArc
 50
275.9750733317241
 51
344.8072016825512
  0
ARC
  5
B5
330
2
100
AcDbEntity
  8
0
370
     5
100
AcDbCircle
 10
-217127.9855788465
 20
134836.9175769305
 30
-0.0000000001227403
 40
54.33667897179664
210
0.0
220
-0.0000000000000009
230
-1.0
100
AcDbArc
 50
303.5609262980896
 51
355.4373305916806
  0
LINE
  5
B6
330
2
100
AcDbEntity
  8
0
370
     5
100
AcDbLine
 10
217043.8210971665
 20
134549.3039021759
 30
0.000000000001688
 11
217073.8210971665
 21
134541.0061519339
 31
0.0000000000016954
  0
ARC
  5
B7
330
2
100
AcDbEntity
  8
0
370
     5
100
AcDbCircle
 10
-217127.9855788465
 20
134536.6836982292
 30
-0.0000000001227403
 40
54.33667897179654
210
0.0
220
-0.0000000000000009
230
-1.0
100
AcDbArc
 50
4.562669408319414
 51
56.43907370191041
  0
ARC
  5
B8
330
2
100
AcDbEntity
  8
0
370
     5
100
AcDbCircle
 10
217070.4904778871
 20
134573.6527986518
 30
0.000000000006507
 40
29.02759119093689
100
AcDbArc
 50
17.1318124514717
 51
83.41138410357151
  0
ARC
  5
B9
330
2
100
AcDbEntity
  8
0
370
     5
100
AcDbCircle
 10
216963.9624428404
 20
134685.9833404253
 30
0.0000000000015666
 40
201.6950989524381
100
AcDbArc
 50
334.9792016724316
 51
25.40698219254153
  0
ARC
  5
BA
330
2
100
AcDbEntity
  8
0
370
     5
100
AcDbCircle
 10
-217108.934923499
 20
134809.0842670171
 30
-0.0000000001227403
 40
52.12018188317347
210
0.0
220
-0.0000000000000009
230
-1.0
100
AcDbArc
 50
229.0979075592403
 51
261.7644734557195
  0
ARC
  5
BB
330
2
100
AcDbEntity
  8
0
370
     5
100
AcDbCircle
 10
216959.9262531074
 20
134686.8006375799
 30
0.0000000000015659
 40
173.7058283021657
100
AcDbArc
 50
335.8768537866007
 51
24.1392225796251
  0
ARC
  5
BC
330
2
100
AcDbEntity
  8
0
370
     5
100
AcDbCircle
 10
-217109.330941659
 20
134808.7918534738
 30
-0.0000000001225425
 40
51.77524048189328
210
0.0
220
-0.0000000000000009
230
-1.0
100
AcDbArc
 50
262.1518485016789
 51
313.3021810489851
  0
LINE
  5
BD
330
2
100
AcDbEntity
  8
0
370
     5
100
AcDbLine
 10
216238.8218170128
 20
134346.3507399854
 30
0.0000000000000017
 11
217073.8210971665
 21
134346.3505146446
 31
0.0000000000018353
  0
ARC
  5
BE
330
2
100
AcDbEntity
  8
0
370
     5
100
AcDbCircle
 10
216960.7638297369
 20
134686.8006375799
 30
0.000000000003951
 40
141.0335137129088
100
AcDbArc
 50
323.2864276109442
 51
36.71357238905588
  0
ARC
  5
BF
330
2
100
AcDbEntity
  8
0
370
     5
100
AcDbCircle
 10
-217105.6497679367
 20
134824.1196877881
 30
-0.0000000001227403
 40
61.82892608826483
210
0.0
220
-0.0000000000000009
230
-1.0
100
AcDbArc
 50
300.983157649594
 51
0.1646579765298936
  0
ARC
  5
C0
330
2
100
AcDbEntity
  8
0
370
     5
100
AcDbCircle
 10
217950.4991321798
 20
134749.2681721367
 30
0.0000000000015104
 40
17.29502689455036
100
AcDbArc
 50
27.10172091748114
 51
30.29535000867375
  0
ARC
  5
C1
330
2
100
AcDbEntity
  8
0
370
     5
100
AcDbCircle
 10
-217938.3677997328
 20
134537.7442140885
 30
-0.0000000001227403
 40
50.22834052161089
210
0.0
220
-0.0000000000000009
230
-1.0
100
AcDbArc
 50
57.24975523121385
 51
151.6004113472089
  0
ARC
  5
C2
330
2
100
AcDbEntity
  8
0
370
     5
100
AcDbCircle
 10
-217951.448391325
 20
134545.8087664687
 30
-0.0000000001227403
 40
34.89723893477023
210
0.0
220
-0.0000000000000009
230
-1.0
100
AcDbArc
 50
153.0332919899991
 51
226.9841688996807
  0
ARC
  5
C3
330
2
100
AcDbEntity
  8
0
370
     5
100
AcDbCircle
 10
217849.3889484862
 20
134698.2631680393
 30
0.0000000000015557
 40
217.9809107752634
100
AcDbArc
 50
305.2692238158872
 51
20.18633427472052
  0
ARC
  5
C4
330
2
100
AcDbEntity
  8
0
370
     5
100
AcDbCircle
 10
-218016.3055328874
 20
134768.0338609314
 30
-0.0000000001227403
 40
38.06692613509353
210
0.0
220
-0.0000000000000009
230
-1.0
100
AcDbArc
 50
171.770372157835
 51
262.2592350190655
  0
ARC
  5
C5
330
2
100
AcDbEntity
  8
0
370
     5
100
AcDbCircle
 10
-218011.7060051666
 20
134781.0724058808
 30
-0.0000000001227403
 40
51.68215688921637
210
0.0
220
-0.0000000000000009
230
-1.0
100
AcDbArc
 50
259.1519874807964
 51
332.4238015675748
  0
LINE
  5
C6
330
2
100
AcDbEntity
  8
0
370
     5
100
AcDbLine
 10
216238.8210971665
 20
135968.4419495658
 30
0.0000000000000568
 11
216238.8218170128
 21
134346.3507399854
 31
0.0000000000000017
  0
LINE
  5
C7
330
2
100
AcDbEntity
  8
0
370
     5
100
AcDbLine
 10
218533.8210971665
 20
136454.6367166816
 30
-0.0000000000000043
 11
218533.8210971665
 21
136368.2031057193
 31
-0.0000000000004823
  0
ARC
  5
C8
330
2
100
AcDbEntity
  8
0
370
     5
100
AcDbCircle
 10
217106.5143287187
 20
134802.2827100287
 30
0.0000000000003488
 40
13.66344797809392
100
AcDbArc
 50
231.1689533183209
 51
309.062036893864
  0
ARC
  5
C9
330
2
100
AcDbEntity
  8
0
370
     5
100
AcDbCircle
 10
217120.4947896582
 20
134810.609533961
 30
0.0000000000003499
 40
23.7469029009631
100
AcDbArc
 50
91.84067050469996
 51
196.0074452048917
  0
ARC
  5
CA
330
2
100
AcDbEntity
  8
0
370
     5
100
AcDbCircle
 10
217120.0914048005
 20
134797.8657946404
 30
0.0000000000003499
 40
36.35226947384346
100
AcDbArc
 50
309.1887499260804
 51
59.95854278557924
  0
ARC
  5
CB
330
2
100
AcDbEntity
  8
0
370
     5
100
AcDbCircle
 10
217972.3854448984
 20
134784.886022274
 30
0.0000000000003577
 40
27.77756109289372
100
AcDbArc
 50
255.5038147308618
 51
325.0290817509977
  0
ARC
  5
CC
330
2
100
AcDbEntity
  8
0
370
     5
100
AcDbCircle
 10
218006.8545296251
 20
134775.8687646384
 30
0.0000000000003577
 40
13.5909788842775
100
AcDbArc
 50
210.5284281944407
 51
309.4730155785593
  0
ARC
  5
CD
330
2
100
AcDbEntity
  8
0
370
     5
100
AcDbCircle
 10
218009.8565765278
 20
134777.5610916578
 30
-110.0000000000001
 40
10.63712201946035
100
AcDbArc
 50
181.9181975122536
 51
353.7157576396355
  0
ARC
  5
CE
330
2
100
AcDbEntity
  8
0
370
     5
100
AcDbCircle
 10
218024.6480954646
 20
134778.5534510289
 30
0.0000000000003499
 40
25.45841432485664
100
AcDbArc
 50
143.1791504701786
 51
183.0361273628191
  0
ARC
  5
CF
330
2
100
AcDbEntity
  8
0
370
     5
100
AcDbCircle
 10
218022.8458576129
 20
134779.0195218262
 30
-0.000000000000771
 40
23.74690290094789
100
AcDbArc
 50
81.47304163014865
 51
141.4730416297278
  0
ARC
  5
D0
330
2
100
AcDbEntity
  8
0
370
     5
100
AcDbCircle
 10
218017.7781267368
 20
134766.6840436083
 30
-0.0000000000018842
 40
36.83519770433863
100
AcDbArc
 50
10.63617828424566
 51
76.51633107089839
  0
LWPOLYLINE
  5
D1
330
2
100
AcDbEntity
  8
0
370
     5
100
AcDbPolyline
 90
        2
 70
     0
 43
0.0
 10
218533.8210971665
 20
136278.1856706193
 10
218533.8210971665
 20
136368.2031057193
  0
LWPOLYLINE
  5
D2
330
2
100
AcDbEntity
  8
0
370
     5
100
AcDbPolyline
 90
        2
 70
     0
 43
0.0
 10
218533.8210971665
 20
135201.4852849257
 10
218533.8210971665
 20
135435.440652627
  0
ARC
  5
D3
330
2
100
AcDbEntity
  8
0
370
     5
100
AcDbCircle
 10
218933.3944425836
 20
136994.5857589785
 30
0.0000000000003499
 40
71.79473156193829
100
AcDbArc
 50
278.2438108325798
 51
357.8961741057018
  0
ARC
  5
D4
330
2
100
AcDbEntity
  8
0
370
     5
100
AcDbCircle
 10
218926.9012360579
 20
136995.069362923
 30
0.0000000000011814
 40
78.30169763091895
100
AcDbArc
 50
357.7169659311415
 51
43.99752265296256
  0
ARC
  5
D5
330
2
100
AcDbEntity
  8
0
370
     5
100
AcDbCircle
 10
218948.9605519644
 20
137015.1912937417
 30
0.0000000000020639
 40
48.46306714478743
100
AcDbArc
 50
45.0000000000001
 51
134.9999999999999
  0
ARC
  5
D6
330
2
100
AcDbEntity
  8
0
370
     5
100
AcDbCircle
 10
218949.5379133516
 20
137014.5038405422
 30
0.0000000000020442
 40
49.35748750591688
100
AcDbArc
 50
134.9096330154788
 51
160.781823745161
  0
ARC
  5
D7
330
2
100
AcDbEntity
  8
0
370
     5
100
AcDbCircle
 10
218917.2204971627
 20
137022.3072257318
 30
0.0000000000003499
 40
28.90656568445659
100
AcDbArc
 50
191.0059234025818
 51
268.0493934069578
  0
ARC
  5
D8
330
2
100
AcDbEntity
  8
0
370
     5
100
AcDbCircle
 10
218857.5355637707
 20
137065.211782178
 30
0.0000000000003871
 40
57.66382736672009
100
AcDbArc
 50
234.7004032108214
 51
302.886410010399
  0
ARC
  5
D9
330
2
100
AcDbEntity
  8
0
370
     5
100
AcDbCircle
 10
218661.0055772083
 20
136643.3742007673
 30
0.000000000001117
 40
55.42631646162314
100
AcDbArc
 50
358.4495636689126
 51
32.91652218350214
  0
ARC
  5
DA
330
2
100
AcDbEntity
  8
0
370
     5
100
AcDbCircle
 10
218727.1973895113
 20
136615.8980148311
 30
0.0000000000016375
 40
28.1267283107575
100
AcDbArc
 50
42.25097929879846
 51
112.5488576222708
  0
ARC
  5
DB
330
2
100
AcDbEntity
  8
0
370
     5
100
AcDbCircle
 10
218749.8373227489
 20
136592.1371596356
 30
0.0000000000003499
 40
47.87410095494151
100
AcDbArc
 50
130.8139053378322
 51
182.7833313093026
  0
ARC
  5
DC
330
2
100
AcDbEntity
  8
0
370
     5
100
AcDbCircle
 10
218750.4199927647
 20
136592.2782781767
 30
0.0000000000008242
 40
48.46306714478593
100
AcDbArc
 50
182.916522184224
 51
257.9165221846022
  0
ARC
  5
DD
330
2
100
AcDbEntity
  8
0
370
     5
100
AcDbCircle
 10
218756.1662311429
 20
136617.8857641213
 30
0.0000000000012586
 40
74.70652913808429
100
AcDbArc
 50
257.7183902254055
 51
322.4255442471054
  0
ARC
  5
DE
330
2
100
AcDbEntity
  8
0
370
     5
100
AcDbCircle
 10
218761.3899864569
 20
136616.5130862128
 30
0.0000000000012586
 40
69.76087293498713
100
AcDbArc
 50
320.7025851192124
 51
7.829397952674415
  0
ARC
  5
DF
330
2
100
AcDbEntity
  8
0
370
     5
100
AcDbCircle
 10
218730.4525104789
 20
136605.7781382503
 30
0.0000000000012586
 40
102.0744309251367
100
AcDbArc
 50
11.43566613394153
 51
83.53742260589282
  0
ARC
  5
E0
330
2
100
AcDbEntity
  8
0
370
     5
100
AcDbCircle
 10
217102.9617102107
 20
134550.9978432662
 30
0.0000000000003499
 40
59.16486751156
100
AcDbArc
 50
119.507163929569
 51
181.6406516917139
  0
ARC
  5
E1
330
2
100
AcDbEntity
  8
0
370
     5
100
AcDbCircle
 10
217109.2623061485
 20
134804.683080004
 30
-0.0000000000018839
 40
10.16949453870185
100
AcDbArc
 50
297.0083932064387
 51
13.15745922154505
  0
ARC
  5
E2
330
2
100
AcDbEntity
  8
0
370
     5
100
AcDbCircle
 10
217107.3441594641
 20
134801.9196708299
 30
-0.0000000000029936
 40
12.86534691363855
100
AcDbArc
 50
307.2110177390594
 51
23.24880611043543
  0
ARC
  5
E3
330
2
100
AcDbEntity
  8
0
370
     5
100
AcDbCircle
 10
217108.6936300802
 20
134568.3388506384
 30
-0.0000000000005672
 40
11.02565423749921
100
AcDbArc
 50
62.26581964678325
 51
136.122295033771
  0
ARC
  5
E4
330
2
100
AcDbEntity
  8
0
370
     5
100
AcDbCircle
 10
-217110.0561192547
 20
134566.3397231876
 30
-0.0000000001227403
 40
50.17662901418463
210
0.0
220
-0.0000000000000009
230
-1.0
100
AcDbArc
 50
97.78626958422412
 51
134.3737987478429
  0
ARC
  5
E5
330
2
100
AcDbEntity
  8
0
370
     5
100
AcDbCircle
 10
-217111.3106981099
 20
134558.5990281686
 30
-0.0000000001225425
 40
57.72150097515039
210
0.0
220
-0.0000000000000009
230
-1.0
100
AcDbArc
 50
49.49675630933423
 51
95.51086681376425
  0
ARC
  5
E6
330
2
100
AcDbEntity
  8
0
370
     5
100
AcDbCircle
 10
217106.5826237339
 20
134572.1094115394
 30
0.0000000000027774
 40
13.10171359425024
100
AcDbArc
 50
52.43110937707618
 51
131.2329732310618
  0
ARC
  5
E7
330
2
100
AcDbEntity
  8
0
370
     5
100
AcDbCircle
 10
217121.2268597734
 20
134563.8049924521
 30
0.0000000000005684
 40
24.38835869441508
100
AcDbArc
 50
170.5607922975125
 51
262.91308934854
  0
ARC
  5
E8
330
2
100
AcDbEntity
  8
0
370
     5
100
AcDbCircle
 10
217121.0391362072
 20
134575.6595031963
 30
0.000000000000542
 40
35.8588761112133
100
AcDbArc
 50
304.2848398335928
 51
47.75644270283829
  0
ARC
  5
E9
330
2
100
AcDbEntity
  8
0
370
     5
100
AcDbCircle
 10
217118.691447264
 20
134582.3422423763
 30
0.0000000000005254
 40
42.74190797044798
100
AcDbArc
 50
269.3652632268236
 51
301.8381221780871
  0
ARC
  5
EA
330
2
100
AcDbEntity
  8
0
370
     5
100
AcDbCircle
 10
217108.6107174171
 20
134568.6597122597
 30
-59.99999999999779
 40
10.78253969071462
100
AcDbArc
 50
347.74572658971
 51
61.08232621977278
  0
ARC
  5
EB
330
2
100
AcDbEntity
  8
0
370
     5
100
AcDbCircle
 10
217106.776123018
 20
134571.5685589861
 30
59.99999999999332
 40
13.41888220630702
100
AcDbArc
 50
337.2119455893898
 51
54.20862263520355
  0
ARC
  5
EC
330
2
100
AcDbEntity
  8
0
370
     5
100
AcDbCircle
 10
217116.3076315468
 20
134564.3015234226
 30
-0.0000000000019036
 40
19.45688612159377
100
AcDbArc
 50
143.1105452936995
 51
169.6274091250655
  0
ARC
  5
ED
330
2
100
AcDbEntity
  8
0
370
     5
100
AcDbCircle
 10
217935.6994522555
 20
134543.0969301508
 30
-0.0000000000072618
 40
13.98084112871924
100
AcDbArc
 50
333.4987934144367
 51
8.228855132931714
  0
ARC
  5
EE
330
2
100
AcDbEntity
  8
0
370
     5
100
AcDbCircle
 10
217935.8343904064
 20
134542.5816350306
 30
-0.0000000000072604
 40
13.9311039998666
100
AcDbArc
 50
10.40629466364011
 51
80.35165514337146
  0
ARC
  5
EF
330
2
100
AcDbEntity
  8
0
370
     5
100
AcDbCircle
 10
217936.2283879743
 20
134542.6657140402
 30
0.0000000000106287
 40
13.78726266330501
100
AcDbArc
 50
81.90746241112043
 51
126.5173872574511
  0
ARC
  5
F0
330
2
100
AcDbEntity
  8
0
370
     5
100
AcDbCircle
 10
217938.7059565726
 20
134540.142613101
 30
-0.000000000008611
 40
10.0566630385685
100
AcDbArc
 50
340.9395045601005
 51
23.28752416523925
  0
ARC
  5
F1
330
2
100
AcDbEntity
  8
0
370
     5
100
AcDbCircle
 10
217938.1319005523
 20
134539.9108574222
 30
-0.0000000000072494
 40
10.81357277244671
100
AcDbArc
 50
68.42229024790269
 51
157.4663258335757
  0
ARC
  5
F2
330
2
100
AcDbEntity
  8
0
370
     5
100
AcDbCircle
 10
217901.0495954162
 20
134548.3945992195
 30
0.0000000000003499
 40
27.50072750458181
100
AcDbArc
 50
11.18510057419763
 51
81.43914520689156
  0
ARC
  5
F3
330
2
100
AcDbEntity
  8
0
370
     5
100
AcDbCircle
 10
217949.5819427426
 20
134533.5527746799
 30
0.0000000000003499
 40
23.85958116199383
100
AcDbArc
 50
153.9748173797757
 51
195.1428174224044
  0
ARC
  5
F4
330
2
100
AcDbEntity
  8
0
370
     5
100
AcDbCircle
 10
217949.4693158365
 20
134533.5375900803
 30
-0.0000000000010077
 40
23.74690290092591
100
AcDbArc
 50
195.1784388490044
 51
270.1784388487826
  0
ARC
  5
F5
330
2
100
AcDbEntity
  8
0
370
     5
100
AcDbCircle
 10
217948.6393840026
 20
134548.7292949566
 30
-0.0000000000023808
 40
38.94898227464121
100
AcDbArc
 50
271.3297806837702
 51
313.106245744895
  0
ARC
  5
F6
330
2
100
AcDbEntity
  8
0
370
     5
100
AcDbCircle
 10
218006.2388631548
 20
134776.1377710927
 30
-110.0000000000013
 40
14.19328075635793
100
AcDbArc
 50
310.7012585121956
 51
1.045478967256501
  0
ARC
  5
F7
330
2
100
AcDbEntity
  8
0
370
     5
100
AcDbCircle
 10
218923.6593313169
 20
137022.7759298332
 30
0.0000000000029098
 40
22.20943884966693
100
AcDbArc
 50
158.956948693892
 51
290.4968266326514
  0
ARC
  5
F8
330
2
100
AcDbEntity
  8
0
370
     5
100
AcDbCircle
 10
218924.8884494849
 20
137019.1051250665
 30
0.000000000004607
 40
18.34113428432245
100
AcDbArc
 50
290.9155817621188
 51
347.5809645625451
  0
ARC
  5
F9
330
2
100
AcDbEntity
  8
0
370
     5
100
AcDbCircle
 10
218916.4884533207
 20
137020.8061307306
 30
0.0000000000029101
 40
27.38987867758574
100
AcDbArc
 50
269.4731036518488
 51
341.5460360049591
  0
ARC
  5
FA
330
2
100
AcDbEntity
  8
0
370
     5
100
AcDbCircle
 10
218928.795876431
 20
137015.1606844659
 30
0.0000000000037586
 40
14.00454098558845
100
AcDbArc
 50
347.5273228312908
 51
27.86271236111716
  0
ARC
  5
FB
330
2
100
AcDbEntity
  8
0
370
     5
100
AcDbCircle
 10
218730.6418379268
 20
136611.5428384667
 30
0.0000000000008584
 40
20.72314791783164
100
AcDbArc
 50
29.67489164510803
 51
125.7082488134154
  0
ARC
  5
FC
330
2
100
AcDbEntity
  8
0
370
     5
100
AcDbCircle
 10
218730.1678986904
 20
136609.8073300297
 30
0.0000000000013611
 40
22.03096539651161
100
AcDbArc
 50
332.0649276132289
 51
32.98808881557194
  0
ARC
  5
FD
330
2
100
AcDbEntity
  8
0
370
     5
100
AcDbCircle
 10
218727.9306228192
 20
136616.1929969438
 30
-110.0000000000045
 40
27.38702156570014
100
AcDbArc
 50
322.4093238676888
 51
42.82560591654255
  0
LWPOLYLINE
  5
FE
330
2
100
AcDbEntity
  8
0
370
     5
100
AcDbPolyline
 90
        2
 70
     0
 43
0.0
 10
217043.8210971665
 20
134824.2973729839
 10
217043.8210971665
 20
134864.1125956377
  0
LINE
  5
FF
330
2
100
AcDbEntity
  8
0
370
     5
100
AcDbLine
 10
216588.8211163834
 20
137127.8441736458
 30
-0.0000000000005924
 11
216588.8210971665
 21
136722.3448065139
 31
0.0000000000006309
  0
ARC
  5
100
330
2
100
AcDbEntity
  8
0
370
     5
100
AcDbCircle
 10
216350.541260599
 20
136737.3053843814
 30
0.0000000000003413
 40
238.7490333347239
100
AcDbArc
 50
267.1862256849912
 51
356.4073453288883
  0
LINE
  5
101
330
2
100
AcDbEntity
  8
0
370
     5
100
AcDbLine
 10
216338.8232064108
 20
136498.8440916643
 30
0.0000000000003413
 11
216338.8232064108
 21
136393.9117310206
 31
0.0
  0
LINE
  5
102
330
2
100
AcDbEntity
  8
0
370
     5
100
AcDbLine
 10
216338.8210971666
 20
136393.9117310206
 30
0.0
 11
216238.8210971665
 21
136393.9117310206
 31
0.0
  0
LINE
  5
103
330
2
100
AcDbEntity
  8
0
370
     5
100
AcDbLine
 10
216238.8210971665
 20
136393.9117310206
 30
0.0
 11
216238.8210971665
 21
136243.4354203738
 31
0.0000000000002981
  0
ARC
  5
104
330
2
100
AcDbEntity
  8
0
370
     5
100
AcDbCircle
 10
216179.6804822206
 20
136241.7414797685
 30
0.0000000000002981
 40
59.16486939858491
100
AcDbArc
 50
299.5071633531223
 51
1.640651169564045
  0
ARC
  5
105
330
2
100
AcDbEntity
  8
0
370
     5
100
AcDbCircle
 10
216154.6566154866
 20
136256.0556243205
 30
0.0000000000002656
 40
54.33667897179916
100
AcDbArc
 50
303.5609308970877
 51
355.4373305916806
  0
LINE
  5
106
330
2
100
AcDbEntity
  8
0
370
     5
100
AcDbLine
 10
216208.8210971665
 20
136251.7331706157
 30
0.000000000000307
 11
216238.8210971665
 21
136243.4354203738
 31
0.0000000000002981
  0
ARC
  5
107
330
2
100
AcDbEntity
  8
0
370
     5
100
AcDbCircle
 10
216211.7380995544
 20
136218.1206969607
 30
0.000000000000294
 40
28.02229129035128
100
AcDbArc
 50
195.1927983174487
 51
264.0054922329326
  0
ARC
  5
108
330
2
100
AcDbEntity
  8
0
370
     5
100
AcDbCircle
 10
216175.9202016796
 20
136222.4304158252
 30
0.0000000000002265
 40
14.58779658760138
100
AcDbArc
 50
277.8746106993336
 51
306.9795743275271
  0
ARC
  5
109
330
2
100
AcDbEntity
  8
0
370
     5
100
AcDbCircle
 10
216175.9202016795
 20
136222.4304158252
 30
0.0000000000002602
 40
14.5877965876512
100
AcDbArc
 50
248.7696470680242
 51
277.8746106993336
  0
ARC
  5
10A
330
2
100
AcDbEntity
  8
0
370
     5
100
AcDbCircle
 10
216176.6414649766
 20
136221.5166586808
 30
0.0000000000003
 40
14.03314129274001
100
AcDbArc
 50
159.6798848960945
 51
244.6701905467427
  0
ARC
  5
10B
330
2
100
AcDbEntity
  8
0
370
     5
100
AcDbCircle
 10
216173.7120393497
 20
136223.870880855
 30
-0.0000000000205451
 40
10.53595096164207
100
AcDbArc
 50
166.1674159933079
 51
308.393474259224
  0
ARC
  5
10C
330
2
100
AcDbEntity
  8
0
370
     5
100
AcDbCircle
 10
216162.78373368
 20
136230.2954598113
 30
0.000000000021132
 40
22.82172909234437
100
AcDbArc
 50
319.9581834677539
 51
71.96192364801575
  0
ARC
  5
10D
330
2
100
AcDbEntity
  8
0
370
     5
100
AcDbCircle
 10
216161.858994688
 20
136216.8808010107
 30
-0.0000000000205523
 40
36.01259720993345
100
AcDbArc
 50
77.17890852779422
 51
165.4862997197841
  0
ARC
  5
10E
330
2
100
AcDbEntity
  8
0
370
     5
100
AcDbCircle
 10
216163.0956908335
 20
136217.5534824972
 30
-0.0000000000204642
 40
37.05371365702829
100
AcDbArc
 50
166.9726751025424
 51
229.5673462966036
  0
ARC
  5
10F
330
2
100
AcDbEntity
  8
0
370
     5
100
AcDbCircle
 10
216173.2185710187
 20
136227.397706304
 30
-0.0000000000204967
 40
51.12912271495238
100
AcDbArc
 50
228.0871794556538
 51
262.2085457959404
  0
ARC
  5
110
330
2
100
AcDbEntity
  8
0
370
     5
100
AcDbCircle
 10
216174.1037571418
 20
136225.8147802467
 30
0.0000000000002435
 40
49.69280404143861
100
AcDbArc
 50
260.9498211001359
 51
314.3026951382806
  0
ARC
  5
111
330
2
100
AcDbEntity
  8
0
370
     5
100
AcDbCircle
 10
216368.97840597
 20
136105.9580107492
 30
0.000000000000321
 40
236.1549604526279
100
AcDbArc
 50
160.6904381512201
 51
199.3095618487798
  0
ARC
  5
112
330
2
100
AcDbEntity
  8
0
370
     5
100
AcDbCircle
 10
216179.6804822206
 20
135970.135890171
 30
0.0000000000002981
 40
59.16486939858491
100
AcDbArc
 50
358.359348830436
 51
60.49283664687768
  0
ARC
  5
113
330
2
100
AcDbEntity
  8
0
370
     5
100
AcDbCircle
 10
216154.6566154866
 20
135955.821745619
 30
0.0000000000002656
 40
54.33667897179916
100
AcDbArc
 50
4.562669408319414
 51
56.43906910291227
  0
LINE
  5
114
330
2
100
AcDbEntity
  8
0
370
     5
100
AcDbLine
 10
216208.8210971665
 20
135960.1441993238
 30
0.000000000000307
 11
216238.8210971665
 21
135968.4419495657
 31
0.0000000000002981
  0
ARC
  5
115
330
2
100
AcDbEntity
  8
0
370
     5
100
AcDbCircle
 10
216211.7380995544
 20
135993.7566729788
 30
0.000000000000294
 40
28.02229129035128
100
AcDbArc
 50
95.99450776706737
 51
164.8072016825512
  0
ARC
  5
116
330
2
100
AcDbEntity
  8
0
370
     5
100
AcDbCircle
 10
216175.9202016796
 20
135989.4469541143
 30
0.0000000000002265
 40
14.58779658760138
100
AcDbArc
 50
53.02042567247287
 51
82.12538930066639
  0
ARC
  5
117
330
2
100
AcDbEntity
  8
0
370
     5
100
AcDbCircle
 10
216175.9202016795
 20
135989.4469541143
 30
0.0000000000002602
 40
14.5877965876512
100
AcDbArc
 50
82.12538930066639
 51
111.2303529319758
  0
ARC
  5
118
330
2
100
AcDbEntity
  8
0
370
     5
100
AcDbCircle
 10
216176.6414649766
 20
135990.3607112587
 30
0.0000000000003
 40
14.03314129274001
100
AcDbArc
 50
115.3298094532573
 51
200.3201151039024
  0
ARC
  5
119
330
2
100
AcDbEntity
  8
0
370
     5
100
AcDbCircle
 10
216173.7120393497
 20
135988.0064890845
 30
-0.0000000000205451
 40
10.53595096164207
100
AcDbArc
 50
51.60652574077601
 51
193.832584006692
  0
ARC
  5
11A
330
2
100
AcDbEntity
  8
0
370
     5
100
AcDbCircle
 10
216162.78373368
 20
135981.5819101282
 30
0.000000000021132
 40
22.82172909234437
100
AcDbArc
 50
288.0380763519843
 51
40.04181653224607
  0
ARC
  5
11B
330
2
100
AcDbEntity
  8
0
370
     5
100
AcDbCircle
 10
216161.858994688
 20
135994.9965689288
 30
-0.0000000000205523
 40
36.01259720993345
100
AcDbArc
 50
194.5137002802158
 51
282.8210914722058
  0
ARC
  5
11C
330
2
100
AcDbEntity
  8
0
370
     5
100
AcDbCircle
 10
216163.0956908335
 20
135994.3238874423
 30
-0.0000000000204642
 40
37.05371365702829
100
AcDbArc
 50
130.4326537033963
 51
193.0273248974575
  0
ARC
  5
11D
330
2
100
AcDbEntity
  8
0
370
     5
100
AcDbCircle
 10
216173.2185710187
 20
135984.4796636355
 30
-0.0000000000204967
 40
51.12912271495238
100
AcDbArc
 50
97.7914542040596
 51
131.9128205443462
  0
ARC
  5
11E
330
2
100
AcDbEntity
  8
0
370
     5
100
AcDbCircle
 10
216174.1037571418
 20
135986.0625896928
 30
0.0000000000002435
 40
49.69280404143861
100
AcDbArc
 50
45.69730486171941
 51
99.05017889986408
  0
LINE
  5
11F
330
2
100
AcDbEntity
  8
0
370
     5
100
AcDbLine
 10
216238.8210971665
 20
135968.4419495657
 30
0.0000000000002981
 11
216238.8218170128
 21
134346.3507399854
 31
0.0000000000000017
  0
LINE
  5
120
330
2
100
AcDbEntity
  8
0
370
     5
100
AcDbLine
 10
217478.5629270999
 20
137127.8446291006
 30
0.0
 11
217473.2671430524
 21
137157.8441953225
 31
-0.0000000000013418
  0
DIMENSION
  5
121
330
2
100
AcDbEntity
  8
0Wymiary-PL
100
AcDbDimension
  2
*D1
 10
218523.8210971665
 20
137625.7613951159
 30
0.0
 11
217431.3210971665
 21
137705.7613951159
 31
0.0
 71
     5
 42
2184.999999999971
  3
500
100
AcDbAlignedDimension
 13
216338.8210971666
 23
134876.8441953225
 33
0.0
 14
218523.8210971665
 24
135119.8441953225
 34
0.0
100
AcDbRotatedDimension
  0
DIMENSION
  5
12D
330
2
100
AcDbEntity
  8
0Wymiary-PL
100
AcDbDimension
  2
*D2
 10
218643.8210971665
 20
137625.7613951159
 30
0.0
 11
218583.8210971665
 21
137705.7613951159
 31
0.0
 71
     5
 42
120.0000000000291
  3
500
100
AcDbAlignedDimension
 13
218523.8210971665
 23
135119.8441953225
 33
0.0
 14
218643.8210971665
 24
135910.9985242551
 34
0.0
100
AcDbRotatedDimension
  0
DIMENSION
  5
13A
330
2
100
AcDbEntity
  8
0Wymiary-PL
100
AcDbDimension
  2
*D3
 10
218643.8210971665
 20
137886.2068671806
 30
0.0
 11
217491.3210971666
 21
137966.2068671805
 31
0.0
 71
     5
 42
2305.0
  3
500
100
AcDbAlignedDimension
 13
216338.8210971666
 23
135814.8441953225
 33
0.0
 14
218643.8210971665
 24
135910.9985242551
 34
0.0
100
AcDbRotatedDimension
  0
DIMENSION
  5
145
330
2
100
AcDbEntity
  8
0Wymiary-PL
100
AcDbDimension
  2
*D4
 10
219227.4476160421
 20
135119.8441953225
 30
0.0
 11
219147.4476160421
 21
134998.3441953226
 31
0.0
 71
     5
 42
243.0
  3
500
100
AcDbAlignedDimension
 13
217033.8210971666
 23
134876.8441953225
 33
0.0
 14
217033.8210971666
 24
135119.8441953225
 34
0.0
 50
90.0
100
AcDbRotatedDimension
  0
DIMENSION
  5
150
330
2
100
AcDbEntity
  8
0Wymiary-PL
100
AcDbDimension
  2
*D5
 10
219227.4476160421
 20
136449.8441953225
 30
0.0
 11
219147.4476160421
 21
135784.8441953225
 31
0.0
 71
     5
 42
1330.0
  3
500
100
AcDbAlignedDimension
 13
217033.8210971666
 23
135119.8441953225
 33
0.0
 14
218523.8210971665
 24
136449.8441953225
 34
0.0
 50
90.0
100
AcDbRotatedDimension
  0
DIMENSION
  5
15B
330
2
100
AcDbEntity
  8
0Wymiary-PL
100
AcDbDimension
  2
*D6
 10
219227.4476160421
 20
136986.8441953225
 30
0.0
 11
219147.4476160421
 21
136718.3441953226
 31
0.0
 71
     5
 42
537.0
  3
500
100
AcDbAlignedDimension
 13
218523.8210971665
 23
136449.8441953225
 33
0.0
 14
217478.8210971666
 24
136986.8441953225
 34
0.0
 50
90.0
100
AcDbRotatedDimension
  0
DIMENSION
  5
166
330
2
100
AcDbEntity
  8
0Wymiary-PL
100
AcDbDimension
  2
*D7
 10
219227.4476160421
 20
137021.8441953225
 30
0.0
 11
219147.4476160421
 21
137004.3441953226
 31
0.0
 71
     5
 42
35.0
  3
500
100
AcDbAlignedDimension
 13
217478.8210971666
 23
136986.8441953225
 33
0.0
 14
217299.8210971665
 24
137021.8441953225
 34
0.0
 50
90.0
100
AcDbRotatedDimension
  0
DIMENSION
  5
173
330
2
100
AcDbEntity
  8
0Wymiary-PL
100
AcDbDimension
  2
*D8
 10
219492.0207162091
 20
137021.8441953225
 30
0.0
 11
219412.020716209
 21
135949.3441953226
 31
0.0
 71
     5
 42
2145.0
  3
500
100
AcDbAlignedDimension
 13
217033.8210971666
 23
134876.8441953225
 33
0.0
 14
217299.8210971665
 24
137021.8441953225
 34
0.0
 50
90.0
100
AcDbRotatedDimension
  0
HATCH
  5
17E
330
2
100
AcDbEntity
  8
0
370
     5
100
AcDbHatch
 10
0.0
 20
0.0
 30
0.0
210
0.0
220
0.0
230
1.0
  2
SOLID
 70
     1
 71
     1
 91
        2
 92
        7
 72
     0
 73
     1
 93
       81
 10
224050.9573925792
 20
136006.8617327876
 10
224025.9573925785
 20
136006.8617327876
 10
224025.9573925785
 20
135754.8441953225
 10
224400.9573925785
 20
135754.8441953225
 10
224400.9573925785
 20
134936.8441953225
 10
224400.9573925785
 20
134876.8441953225
 10
224460.9573925785
 20
134876.8441953225
 10
224460.9573925785
 20
135814.8441953225
 10
224085.9573925785
 20
135814.8441953225
 10
224085.9573925785
 20
135946.8617327876
 10
224110.9573925792
 20
135946.8617327876
 10
224110.9573925792
 20
136264.8441953225
 10
224085.9573925785
 20
136264.8441953225
 10
224085.9573925785
 20
136498.8441953225
 10
224110.9573925785
 20
136498.8441953225
 10
224110.9573925785
 20
136884.8441953225
 10
224085.9573925785
 20
136884.8441953225
 10
224085.9573925785
 20
136986.8441953225
 10
223906.4573925782
 20
136986.8441953225
 10
223906.4573925783
 20
137021.8441953225
 10
223499.9573925785
 20
137021.8441953225
 10
223499.9573925785
 20
136986.8441953225
 10
223320.9573925785
 20
136986.8441953225
 10
223320.9573925785
 20
136949.8441953225
 10
223295.9573925785
 20
136949.8441953225
 10
223295.9573925785
 20
136493.8441953225
 10
223320.9573925785
 20
136493.8441953225
 10
223320.9573925785
 20
136449.8441953225
 10
223040.9573925792
 20
136449.8441953225
 10
223040.9573925792
 20
136488.8441953225
 10
222640.9573925792
 20
136488.8441953225
 10
222640.9573925792
 20
136449.8441953226
 10
222275.9573925785
 20
136449.8441953225
 10
222275.9573925785
 20
136030.9985242551
 10
222155.9573925785
 20
135910.9985242551
 10
222155.9573925786
 20
135658.68986639
 10
222275.9573925785
 20
135538.68986639
 10
222275.9573925785
 20
135119.8441953225
 10
222399.8307665038
 20
135119.8441953225
 10
222466.8307665039
 20
135052.8441953225
 10
222663.0967591004
 20
135052.8441953225
 10
222730.0967591004
 20
135119.8441953226
 10
222927.4408378939
 20
135119.8441953226
 10
222927.4408378939
 20
135060.2441953224
 10
223040.9573925785
 20
135060.2441953224
 10
223040.9573925785
 20
135208.8441953225
 10
223090.9573925785
 20
135208.8441953225
 10
223090.9573925785
 20
135268.8441953225
 10
222980.9573925785
 20
135268.8441953225
 10
222980.9573925785
 20
135179.8441953226
 10
222705.243945358
 20
135179.8441953226
 10
222638.243945358
 20
135112.8441953225
 10
222491.6835802463
 20
135112.8441953225
 10
222424.6835802463
 20
135179.8441953226
 10
222335.9573925785
 20
135179.8441953225
 10
222335.9573925785
 20
135563.5426801324
 10
222215.9573925785
 20
135683.5426801324
 10
222215.9573925785
 20
135886.1457105127
 10
222335.9573925785
 20
136006.1457105127
 10
222335.9573925785
 20
136389.8441953225
 10
222700.9573925792
 20
136389.8441953226
 10
222700.9573925792
 20
136428.8441953225
 10
222980.9573925792
 20
136428.8441953225
 10
222980.9573925793
 20
136389.8441953225
 10
223380.9573925785
 20
136389.8441953225
 10
223380.9573925785
 20
136553.8441953225
 10
223355.9573925785
 20
136553.8441953225
 10
223355.9573925785
 20
136889.8441953225
 10
223380.9573925785
 20
136889.8441953225
 10
223380.9573925785
 20
136926.8441953225
 10
223559.9573925785
 20
136926.8441953225
 10
223559.9573925785
 20
136961.8441953225
 10
223846.4573925781
 20
136961.8441953225
 10
223846.4573925779
 20
136926.8441953225
 10
224025.9573925785
 20
136926.8441953225
 10
224025.9573925785
 20
136824.8441953225
 10
224050.9573925785
 20
136824.8441953225
 10
224050.9573925785
 20
136558.8441953225
 10
224025.9573925785
 20
136558.8441953225
 10
224025.9573925785
 20
136204.8441953225
 10
224050.9573925792
 20
136204.8441953225
 97
        4
330
182
330
184
330
181
330
185
 92
       23
 72
     0
 73
     1
 93
       13
 10
223380.9573925785
 20
135179.8441953225
 10
223380.9573925785
 20
135268.8441953225
 10
223270.9573925785
 20
135268.8441953225
 10
223270.9573925785
 20
135208.8441953225
 10
223320.9573925785
 20
135208.8441953225
 10
223320.9573925785
 20
135060.2441953226
 10
223434.4739472631
 20
135060.2441953223
 10
223434.4739472631
 20
135119.8441953225
 10
223765.9573925785
 20
135119.8441953225
 10
223765.9573925785
 20
134876.8441953225
 10
223825.9573925785
 20
134876.8441953225
 10
223825.9573925785
 20
134936.8441953225
 10
223825.9573925785
 20
135179.8441953225
 97
        4
330
181
330
183
330
182
330
188
 75
     0
 76
     1
 47
5.424948387451019
 98
        2
 10
224078.6875085734
 20
136132.820676172
 10
223565.309315225
 20
135153.8815266435
1001
ACAD
1010
0.0
1020
0.0
1030
0.0
  0
HATCH
  5
17F
330
2
100
AcDbEntity
  8
0
370
     5
100
AcDbHatch
 10
0.0
 20
0.0
 30
0.0
210
0.0
220
0.0
230
1.0
  2
SOLID
 70
     1
 71
     0
 91
        1
 92
        5
 93
       88
 72
     1
 10
223825.9573925785
 20
135179.8441953225
 11
223825.9573925785
 21
134876.8441953225
 72
     1
 10
223825.9573925785
 20
134876.8441953225
 11
223765.9573925785
 21
134876.8441953225
 72
     1
 10
223765.9573925785
 20
134876.8441953225
 11
223765.9573925785
 21
135119.8441953225
 72
     1
 10
223765.9573925785
 20
135119.8441953225
 11
223434.4739472631
 21
135119.8441953225
 72
     1
 10
223434.4739472631
 20
135119.8441953225
 11
223434.4739472631
 21
135060.2441953223
 72
     1
 10
223434.4739472631
 20
135060.2441953223
 11
223320.9573925785
 21
135060.2441953226
 72
     1
 10
223320.9573925785
 20
135060.2441953226
 11
223320.9573925785
 21
135208.8441953225
 72
     1
 10
223320.9573925785
 20
135208.8441953225
 11
223040.9573925785
 21
135208.8441953225
 72
     1
 10
223040.9573925785
 20
135208.8441953225
 11
223040.9573925785
 21
135060.2441953224
 72
     1
 10
223040.9573925785
 20
135060.2441953224
 11
222927.4408378939
 21
135060.2441953224
 72
     1
 10
222927.4408378939
 20
135060.2441953224
 11
222927.4408378938
 21
135119.8441953226
 72
     1
 10
222927.4408378939
 20
135119.8441953226
 11
222730.0967591004
 21
135119.8441953226
 72
     1
 10
222730.0967591004
 20
135119.8441953226
 11
222663.0967591004
 21
135052.8441953225
 72
     1
 10
222663.0967591004
 20
135052.8441953225
 11
222466.8307665039
 21
135052.8441953225
 72
     1
 10
222466.8307665038
 20
135052.8441953225
 11
222399.8307665038
 21
135119.8441953225
 72
     1
 10
222399.8307665039
 20
135119.8441953226
 11
222275.9573925785
 21
135119.8441953225
 72
     1
 10
222275.9573925785
 20
135119.8441953225
 11
222275.9573925785
 21
135538.68986639
 72
     1
 10
222275.9573925785
 20
135538.68986639
 11
222155.9573925786
 21
135658.68986639
 72
     1
 10
222155.9573925786
 20
135658.68986639
 11
222155.9573925786
 21
135910.9985242551
 72
     1
 10
222155.9573925785
 20
135910.9985242551
 11
222275.9573925785
 21
136030.9985242551
 72
     1
 10
222275.9573925785
 20
136030.9985242551
 11
222275.9573925785
 21
136449.8441953225
 72
     1
 10
222275.9573925785
 20
136449.8441953225
 11
222640.9573925792
 21
136449.8441953226
 72
     1
 10
222640.9573925792
 20
136449.8441953226
 11
222640.9573925792
 21
136488.8441953225
 72
     1
 10
222640.9573925792
 20
136488.8441953225
 11
223040.9573925792
 21
136488.8441953225
 72
     1
 10
223040.9573925792
 20
136488.8441953225
 11
223040.9573925792
 21
136449.8441953225
 72
     1
 10
223040.9573925792
 20
136449.8441953225
 11
223320.9573925785
 21
136449.8441953225
 72
     1
 10
223320.9573925785
 20
136449.8441953225
 11
223320.9573925785
 21
136493.8441953225
 72
     1
 10
223320.9573925785
 20
136493.8441953225
 11
223295.9573925785
 21
136493.8441953225
 72
     1
 10
223295.9573925785
 20
136493.8441953225
 11
223295.9573925785
 21
136949.8441953225
 72
     1
 10
223295.9573925785
 20
136949.8441953225
 11
223320.9573925785
 21
136949.8441953225
 72
     1
 10
223320.9573925785
 20
136949.8441953225
 11
223320.9573925785
 21
136986.8441953225
 72
     1
 10
223320.9573925785
 20
136986.8441953225
 11
223499.9573925785
 21
136986.8441953225
 72
     1
 10
223499.9573925785
 20
136986.8441953225
 11
223499.9573925785
 21
137021.8441953225
 72
     1
 10
223499.9573925785
 20
137021.8441953225
 11
223906.4573925783
 21
137021.8441953225
 72
     1
 10
223906.4573925783
 20
137021.8441953225
 11
223906.4573925781
 21
136986.8441953225
 72
     1
 10
223906.4573925782
 20
136986.8441953225
 11
224085.9573925785
 21
136986.8441953225
 72
     1
 10
224085.9573925785
 20
136986.8441953225
 11
224085.9573925785
 21
136884.8441953225
 72
     1
 10
224085.9573925785
 20
136884.8441953225
 11
224110.9573925785
 21
136884.8441953225
 72
     1
 10
224110.9573925785
 20
136884.8441953225
 11
224110.9573925785
 21
136498.8441953225
 72
     1
 10
224110.9573925785
 20
136498.8441953225
 11
224085.9573925785
 21
136498.8441953225
 72
     1
 10
224085.9573925785
 20
136498.8441953225
 11
224085.9573925785
 21
136264.8441953225
 72
     1
 10
224085.9573925785
 20
136264.8441953225
 11
224110.9573925792
 21
136264.8441953225
 72
     1
 10
224110.9573925792
 20
136264.8441953225
 11
224110.9573925792
 21
135946.8617327876
 72
     1
 10
224110.9573925792
 20
135946.8617327876
 11
224085.9573925785
 21
135946.8617327876
 72
     1
 10
224085.9573925785
 20
135946.8617327876
 11
224085.9573925785
 21
135814.8441953225
 72
     1
 10
224085.9573925785
 20
135814.8441953225
 11
224460.9573925785
 21
135814.8441953225
 72
     1
 10
224460.9573925785
 20
135814.8441953225
 11
224460.9573925785
 21
134876.8441953225
 72
     1
 10
224460.9573925785
 20
134876.8441953225
 11
224400.9573925785
 21
134876.8441953225
 72
     1
 10
224400.9573925785
 20
134876.8441953225
 11
224400.9573925785
 21
135754.8441953225
 72
     1
 10
224400.9573925785
 20
135754.8441953225
 11
224025.9573925785
 21
135754.8441953225
 72
     1
 10
224025.9573925785
 20
135754.8441953225
 11
224025.9573925785
 21
136006.8617327876
 72
     1
 10
224025.9573925785
 20
136006.8617327876
 11
224050.9573925792
 21
136006.8617327876
 72
     1
 10
224050.9573925792
 20
136006.8617327876
 11
224050.9573925792
 21
136204.8441953225
 72
     1
 10
224050.9573925792
 20
136204.8441953225
 11
224025.9573925785
 21
136204.8441953225
 72
     1
 10
224025.9573925785
 20
136204.8441953225
 11
224025.9573925785
 21
136558.8441953225
 72
     1
 10
224025.9573925785
 20
136558.8441953225
 11
224050.9573925785
 21
136558.8441953225
 72
     1
 10
224050.9573925785
 20
136558.8441953225
 11
224050.9573925785
 21
136824.8441953225
 72
     1
 10
224050.9573925785
 20
136824.8441953225
 11
224025.9573925785
 21
136824.8441953225
 72
     1
 10
224025.9573925785
 20
136824.8441953225
 11
224025.9573925785
 21
136926.8441953225
 72
     1
 10
224025.9573925785
 20
136926.8441953225
 11
223846.4573925779
 21
136926.8441953225
 72
     1
 10
223846.4573925779
 20
136926.8441953225
 11
223846.4573925781
 21
136961.8441953225
 72
     1
 10
223846.4573925781
 20
136961.8441953225
 11
223559.9573925785
 21
136961.8441953225
 72
     1
 10
223559.9573925785
 20
136961.8441953225
 11
223559.9573925785
 21
136926.8441953225
 72
     1
 10
223559.9573925785
 20
136926.8441953225
 11
223380.9573925785
 21
136926.8441953225
 72
     1
 10
223380.9573925785
 20
136926.8441953225
 11
223380.9573925785
 21
136889.8441953225
 72
     1
 10
223380.9573925785
 20
136889.8441953225
 11
223355.9573925785
 21
136889.8441953225
 72
     1
 10
223355.9573925785
 20
136889.8441953225
 11
223355.9573925785
 21
136553.8441953225
 72
     1
 10
223355.9573925785
 20
136553.8441953225
 11
223380.9573925785
 21
136553.8441953225
 72
     1
 10
223380.9573925785
 20
136553.8441953225
 11
223380.9573925785
 21
136389.8441953225
 72
     1
 10
223380.9573925785
 20
136389.8441953225
 11
222980.9573925792
 21
136389.8441953225
 72
     1
 10
222980.9573925793
 20
136389.8441953225
 11
222980.9573925793
 21
136428.8441953225
 72
     1
 10
222980.9573925792
 20
136428.8441953225
 11
222700.9573925792
 21
136428.8441953225
 72
     1
 10
222700.9573925792
 20
136428.8441953225
 11
222700.9573925792
 21
136389.8441953226
 72
     1
 10
222700.9573925792
 20
136389.8441953226
 11
222335.9573925785
 21
136389.8441953226
 72
     1
 10
222335.9573925785
 20
136389.8441953225
 11
222335.9573925785
 21
136006.1457105127
 72
     1
 10
222335.9573925785
 20
136006.1457105127
 11
222215.9573925785
 21
135886.1457105127
 72
     1
 10
222215.9573925785
 20
135886.1457105127
 11
222215.9573925785
 21
135683.5426801324
 72
     1
 10
222215.9573925785
 20
135683.5426801324
 11
222335.9573925785
 21
135563.5426801324
 72
     1
 10
222335.9573925785
 20
135563.5426801324
 11
222335.9573925785
 21
135179.8441953225
 72
     1
 10
222335.9573925785
 20
135179.8441953225
 11
222424.6835802462
 21
135179.8441953225
 72
     1
 10
222424.6835802462
 20
135179.8441953226
 11
222491.6835802462
 21
135112.8441953225
 72
     1
 10
222491.6835802462
 20
135112.8441953225
 11
222638.243945358
 21
135112.8441953225
 72
     1
 10
222638.243945358
 20
135112.8441953225
 11
222705.243945358
 21
135179.8441953226
 72
     1
 10
222705.243945358
 20
135179.8441953226
 11
222980.9573925785
 21
135179.8441953226
 72
     1
 10
222980.9573925785
 20
135179.8441953226
 11
222980.9573925785
 21
135268.8441953225
 72
     1
 10
222980.9573925785
 20
135268.8441953225
 11
223380.9573925785
 21
135268.8441953225
 72
     1
 10
223380.9573925785
 20
135268.8441953225
 11
223380.9573925785
 21
135179.8441953225
 72
     1
 10
223380.9573925785
 20
135179.8441953225
 11
223825.9573925785
 21
135179.8441953225
 97
        0
 75
     0
 76
     1
 47
5.424948387451019
 98
        1
 10
223565.309315225
 20
135153.8815266435
1001
ACAD
1010
0.0
1020
0.0
1030
0.0
  0
HATCH
  5
180
330
2
100
AcDbEntity
  8
0
370
     5
100
AcDbHatch
 10
0.0
 20
0.0
 30
0.0
210
0.0
220
0.0
230
1.0
  2
SOLID
 70
     1
 71
     1
 91
        1
 92
        7
 72
     0
 73
     1
 93
        4
 10
224086.0559431089
 20
134936.8441953225
 10
224086.0559431089
 20
134876.8441953225
 10
224140.9573925785
 20
134876.8441953225
 10
224140.9573925785
 20
134936.8441953225
 97
        4
330
182
330
186
330
181
330
187
 75
     0
 76
     1
 47
2.091951897588443
 98
        1
 10
224117.9655567485
 20
134922.2830377677
1001
ACAD
1010
0.0
1020
0.0
1030
0.0
  0
LWPOLYLINE
  5
181
102
{ACAD_REACTORS
330
17E
330
180
102
}
330
2
100
AcDbEntity
  8
0
370
     5
100
AcDbPolyline
 90
       47
 70
     0
 43
0.0
 10
224085.9573925792
 20
136264.8441953225
 10
224110.9573925792
 20
136264.8441953225
 10
224110.9573925792
 20
135946.8617327876
 10
224085.9573925785
 20
135946.8617327876
 10
224085.9573925785
 20
135814.8441953225
 10
224460.9573925785
 20
135814.8441953225
 10
224460.9573925785
 20
134876.8441953225
 10
223765.9573925785
 20
134876.8441953225
 10
223765.9573925785
 20
135119.8441953225
 10
223434.4739472631
 20
135119.8441953225
 10
223434.4739472631
 20
135060.2441953223
 10
223320.9573925785
 20
135060.2441953226
 10
223320.9573925785
 20
135208.8441953225
 10
223040.9573925785
 20
135208.8441953225
 10
223040.9573925785
 20
135060.2441953224
 10
222927.4408378939
 20
135060.2441953224
 10
222927.4408378939
 20
135119.8441953226
 10
222730.0967591004
 20
135119.8441953226
 10
222663.0967591004
 20
135052.8441953225
 10
222466.8307665039
 20
135052.8441953225
 10
222399.8307665039
 20
135119.8441953225
 10
222275.9573925785
 20
135119.8441953225
 10
222275.9573925785
 20
135538.68986639
 10
222155.9573925786
 20
135658.68986639
 10
222155.9573925785
 20
135910.9985242551
 10
222275.9573925785
 20
136030.9985242551
 10
222275.9573925785
 20
136449.8441953225
 10
222640.9573925792
 20
136449.8441953226
 10
222640.9573925792
 20
136488.8441953225
 10
223040.9573925792
 20
136488.8441953225
 10
223040.9573925792
 20
136449.8441953225
 10
223320.9573925785
 20
136449.8441953225
 10
223320.9573925785
 20
136493.8441953225
 10
223295.9573925785
 20
136493.8441953225
 10
223295.9573925785
 20
136949.8441953225
 10
223320.9573925785
 20
136949.8441953225
 10
223320.9573925785
 20
136986.8441953225
 10
223499.9573925785
 20
136986.8441953225
 10
223499.9573925785
 20
137021.8441953225
 10
223906.4573925783
 20
137021.8441953225
 10
223906.4573925782
 20
136986.8441953225
 10
224085.9573925785
 20
136986.8441953225
 10
224085.9573925785
 20
136884.8441953225
 10
224110.9573925785
 20
136884.8441953225
 10
224110.9573925785
 20
136498.8441953225
 10
224085.9573925785
 20
136498.8441953225
 10
224085.9573925785
 20
136264.8441953225
  0
LWPOLYLINE
  5
182
102
{ACAD_REACTORS
330
17E
330
180
102
}
330
2
100
AcDbEntity
  8
0
370
     5
100
AcDbPolyline
 90
       42
 70
     1
 43
0.0
 10
224025.9573925785
 20
136204.8441953225
 10
224050.9573925792
 20
136204.8441953225
 10
224050.9573925792
 20
136006.8617327876
 10
224025.9573925785
 20
136006.8617327876
 10
224025.9573925785
 20
135754.8441953225
 10
224400.9573925785
 20
135754.8441953225
 10
224400.9573925785
 20
134936.8441953225
 10
223825.9573925785
 20
134936.8441953225
 10
223825.9573925785
 20
135179.8441953225
 10
223380.9573925785
 20
135179.8441953225
 10
223380.9573925785
 20
135268.8441953225
 10
222980.9573925785
 20
135268.8441953225
 10
222980.9573925785
 20
135179.8441953226
 10
222705.243945358
 20
135179.8441953226
 10
222638.243945358
 20
135112.8441953225
 10
222491.6835802462
 20
135112.8441953225
 10
222424.6835802462
 20
135179.8441953226
 10
222335.9573925785
 20
135179.8441953225
 10
222335.9573925785
 20
135563.5426801324
 10
222215.9573925785
 20
135683.5426801324
 10
222215.9573925785
 20
135886.1457105127
 10
222335.9573925785
 20
136006.1457105127
 10
222335.9573925785
 20
136389.8441953225
 10
222700.9573925792
 20
136389.8441953226
 10
222700.9573925792
 20
136428.8441953225
 10
222980.9573925792
 20
136428.8441953225
 10
222980.9573925793
 20
136389.8441953225
 10
223380.9573925785
 20
136389.8441953225
 10
223380.9573925785
 20
136553.8441953225
 10
223355.9573925785
 20
136553.8441953225
 10
223355.9573925785
 20
136889.8441953225
 10
223380.9573925785
 20
136889.8441953225
 10
223380.9573925785
 20
136926.8441953225
 10
223559.9573925785
 20
136926.8441953225
 10
223559.9573925785
 20
136961.8441953225
 10
223846.4573925781
 20
136961.8441953225
 10
223846.4573925779
 20
136926.8441953225
 10
224025.9573925785
 20
136926.8441953225
 10
224025.9573925785
 20
136824.8441953225
 10
224050.9573925785
 20
136824.8441953225
 10
224050.9573925785
 20
136558.8441953225
 10
224025.9573925785
 20
136558.8441953225
  0
LWPOLYLINE
  5
183
102
{ACAD_REACTORS
330
17E
102
}
330
2
100
AcDbEntity
  8
0
370
     5
100
AcDbPolyline
 90
        2
 70
     0
 43
0.0
 10
223270.9573925785
 20
135208.8441953225
 10
223270.9573925785
 20
135268.8441953225
  0
LINE
  5
184
102
{ACAD_REACTORS
330
17E
102
}
330
2
100
AcDbEntity
  8
0
370
     5
100
AcDbLine
 10
223090.9573925785
 20
135268.8441953225
 30
0.0000000000014255
 11
223090.9573925785
 21
135208.8441953225
 31
-0.0000000000026473
  0
LINE
  5
185
102
{ACAD_REACTORS
330
17E
102
}
330
2
100
AcDbEntity
  8
0
370
     5
100
AcDbLine
 10
224400.9573925785
 20
134936.8441953225
 30
0.0000000000011371
 11
224400.9573925785
 21
134876.8441953225
 31
0.0000000000011371
  0
LINE
  5
186
102
{ACAD_REACTORS
330
180
102
}
330
2
100
AcDbEntity
  8
0
370
     5
100
AcDbLine
 10
224140.9573925785
 20
134936.8441953225
 30
0.0
 11
224140.9573925785
 21
134876.8441953225
 31
0.0
  0
LINE
  5
187
102
{ACAD_REACTORS
330
180
102
}
330
2
100
AcDbEntity
  8
0
370
     5
100
AcDbLine
 10
224086.0559431089
 20
134936.8441953225
 30
0.0
 11
224086.0559431089
 21
134876.8441953225
 31
0.0
  0
LINE
  5
188
102
{ACAD_REACTORS
330
17E
102
}
330
2
100
AcDbEntity
  8
0
370
     5
100
AcDbLine
 10
223825.9573925785
 20
134936.8441953225
 30
0.0
 11
223825.9573925785
 21
134876.8441953225
 31
0.0
  0
ARC
  5
189
330
2
100
AcDbEntity
  8
0
370
     5
100
AcDbCircle
 10
223691.1034100775
 20
134805.414329275
 30
-0.0000000000007651
 40
11.08931251203425
100
AcDbArc
 50
242.0041498726168
 51
352.9903812586147
  0
LWPOLYLINE
  5
18A
330
2
100
AcDbEntity
  8
0
370
     5
100
AcDbPolyline
 90
        5
 70
     0
 43
0.0
 10
221975.5640770792
 20
137018.1499305822
 42
-0.5276008317927953
 10
222724.0648258312
 20
137163.7614528945
 42
0.1120778036783264
 10
222893.0472155027
 20
137056.6725190764
 42
0.2740130295617334
 10
223120.2367336647
 20
137079.7620717489
 42
-0.307733324664029
 10
223321.2155626452
 20
137127.8446291006
  0
LWPOLYLINE
  5
18B
330
2
100
AcDbEntity
  8
0
370
     5
100
AcDbPolyline
 90
        2
 70
     0
 43
0.0
 10
221995.0792672877
 20
137012.8692312054
 42
-0.1918417715054476
 10
222228.1690458835
 20
137242.3002726141
  0
LWPOLYLINE
  5
18C
330
2
100
AcDbEntity
  8
0
370
     5
100
AcDbPolyline
 90
        4
 70
     0
 43
0.0
 10
222265.9573925785
 20
135435.440652627
 42
-0.2605860760493596
 10
221945.9573925785
 20
135653.5322039088
 42
-0.232098103410782
 10
221925.8132275721
 20
136056.2803413555
 42
-0.3508411482432125
 10
222265.9573925785
 20
136276.5620161161
  0
LWPOLYLINE
  5
18D
330
2
100
AcDbEntity
  8
0
370
     5
100
AcDbPolyline
 90
        4
 70
     0
 43
0.0
 10
222265.9573925785
 20
135201.4852849257
 42
-0.1042733700002888
 10
221845.9573925785
 20
135530.2836620543
 42
-0.1636492992279299
 10
221671.8141879864
 20
135981.2494363446
 42
-0.3243285027925692
 10
221882.9544751049
 20
136373.5940045792
  0
LWPOLYLINE
  5
18E
330
2
100
AcDbEntity
  8
0
370
     5
100
AcDbPolyline
 90
        2
 70
     0
 43
0.0
 10
222118.7449498681
 20
136695.8166896664
 42
-0.2767577734766961
 10
221975.5640770792
 20
137018.1499305822
  0
LWPOLYLINE
  5
18F
330
2
100
AcDbEntity
  8
0
370
     5
100
AcDbPolyline
 90
        2
 70
     0
 43
0.0
 10
222125.1947977957
 20
136715.8034987214
 42
-0.2692011273914762
 10
221995.0792672877
 20
137012.8692312054
 42
-0.2692011273914762
  0
LWPOLYLINE
  5
190
330
2
100
AcDbEntity
  8
0
370
     5
100
AcDbPolyline
 90
        2
 70
     0
 43
0.0
 10
221882.9544751049
 20
136373.5940045792
 42
-0.2355981486077139
 10
222265.9573925785
 20
136368.2031057193
  0
ARC
  5
191
330
2
100
AcDbEntity
  8
0
370
     5
100
AcDbCircle
 10
222223.336733253
 20
137077.1051040059
 30
-0.0000000000005571
 40
256.4104886034743
100
AcDbArc
 50
70.35660632359482
 51
152.1018857230697
  0
ARC
  5
192
330
2
100
AcDbEntity
  8
0
370
     5
100
AcDbCircle
 10
221743.9655368743
 20
137328.8679372991
 30
-0.0000000000007807
 40
285.0543451194038
100
AcDbArc
 50
291.4669444047772
 51
332.4626651839704
  0
LINE
  5
193
330
2
100
AcDbEntity
  8
0
370
     5
100
AcDbLine
 10
222285.9574004635
 20
136459.831637401
 30
-0.0000000000000086
 11
222265.9573925785
 21
136459.8441953225
 31
-0.0000000000000089
  0
ARC
  5
194
330
2
100
AcDbEntity
  8
0
370
     5
100
AcDbCircle
 10
222003.097071728
 20
136459.7185947005
 30
0.0000000000000004
 40
262.9094402296039
100
AcDbArc
 50
358.8924387934587
 51
63.68866903858631
  0
LWPOLYLINE
  5
195
330
2
100
AcDbEntity
  8
0
370
     5
100
AcDbPolyline
 90
        2
 70
     0
 43
0.0
 10
221984.4027333569
 20
136572.3303295816
 42
-0.3225831769715858
 10
221882.9544751049
 20
136373.5940045792
  0
LWPOLYLINE
  5
196
330
2
100
AcDbEntity
  8
0
370
     5
100
AcDbPolyline
 90
        2
 70
     0
 43
0.0
 10
223534.0974141786
 20
135119.8441953225
 42
-0.2269303476127987
 10
223515.9573925785
 20
134925.8441953225
  0
LWPOLYLINE
  5
197
330
2
100
AcDbEntity
  8
0
370
     5
100
AcDbPolyline
 90
        2
 70
     0
 43
0.0
 10
223646.0010657294
 20
134811.5310646829
 42
-0.7290381588565626
 10
223515.9573925785
 20
134925.8441953225
  0
LWPOLYLINE
  5
198
330
2
100
AcDbEntity
  8
0
370
     5
100
AcDbPolyline
 90
        3
 70
     0
 43
0.0
 10
222760.8152469191
 20
134796.817457723
 42
0.3601899259825781
 10
222791.9275161987
 20
134896.0972200512
 42
-0.215206496283424
 10
222793.1103332178
 20
135119.8441953225
  0
LINE
  5
199
330
2
100
AcDbEntity
  8
0
370
     5
100
AcDbLine
 10
223725.9573925785
 20
134832.5951232258
 30
0.0000000000014364
 11
223725.9573925785
 21
134968.8441953225
 31
0.0000000000013154
  0
LINE
  5
19A
330
2
100
AcDbEntity
  8
0
370
     5
100
AcDbLine
 10
223725.9573925785
 20
134968.8441953225
 30
0.0000000000013154
 11
223755.9573925785
 21
134968.8441953225
 31
0.0000000000013154
  0
ARC
  5
19B
330
2
100
AcDbEntity
  8
0
370
     5
100
AcDbCircle
 10
-221871.4817355755
 20
137009.4328339852
 30
-0.0000000001227403
 40
87.26806250588872
210
0.0
220
-0.0000000000000009
230
-1.0
100
AcDbArc
 50
260.2167526623686
 51
280.1587665871896
  0
ARC
  5
19C
330
2
100
AcDbEntity
  8
0
370
     5
100
AcDbCircle
 10
222315.5446918546
 20
136976.140882988
 30
-0.0000000000004674
 40
438.4581713372718
100
AcDbArc
 50
187.0116046233786
 51
223.1353448307213
  0
ARC
  5
19D
330
2
100
AcDbEntity
  8
0
370
     5
100
AcDbCircle
 10
-221871.5859031178
 20
137025.2893518711
 30
-0.0000000001227403
 40
102.914304417052
210
0.0
220
-0.0000000000000009
230
-1.0
100
AcDbArc
 50
244.7513202544493
 51
261.7741341163962
  0
ARC
  5
19E
330
2
100
AcDbEntity
  8
0
370
     5
100
AcDbCircle
 10
222315.3576456086
 20
136976.113369824
 30
-0.0000000000004674
 40
406.2771156572772
100
AcDbArc
 50
186.4471825873653
 51
223.622180638583
  0
ARC
  5
19F
330
2
100
AcDbEntity
  8
0
370
     5
100
AcDbCircle
 10
-221871.5181750587
 20
137026.7448813807
 30
-0.0000000001227403
 40
104.2611708932392
210
0.0
220
-0.0000000000000009
230
-1.0
100
AcDbArc
 50
226.0683703902723
 51
245.0588422996144
  0
ARC
  5
1A0
330
2
100
AcDbEntity
  8
0
370
     5
100
AcDbCircle
 10
-222069.1383441204
 20
136598.796269527
 30
-0.0000000001227403
 40
108.9951514697081
210
0.0
220
-0.0000000000000009
230
-1.0
100
AcDbArc
 50
84.04853140008595
 51
117.5975764218323
  0
ARC
  5
1A1
330
2
100
AcDbEntity
  8
0
370
     5
100
AcDbCircle
 10
222318.3808847714
 20
136977.489160926
 30
-0.0000000000004686
 40
377.4160058555367
100
AcDbArc
 50
184.1931318397886
 51
225.8070320553325
  0
ARC
  5
1A2
330
2
100
AcDbEntity
  8
0
370
     5
100
AcDbCircle
 10
-221870.1631781017
 20
137027.8170610892
 30
-0.0000000001227403
 40
105.973670683336
210
0.0
220
-0.0000000000000009
230
-1.0
100
AcDbArc
 50
189.3972012705576
 51
225.94296516652
  0
LINE
  5
1A3
330
2
100
AcDbEntity
  8
0
370
     5
100
AcDbLine
 10
223321.2155626575
 20
137127.8450628765
 30
-0.0000000000005924
 11
224210.9573925785
 21
137127.8441736458
 31
-0.0000000000005924
  0
ARC
  5
1A4
330
2
100
AcDbEntity
  8
0
370
     5
100
AcDbCircle
 10
-222003.097071728
 20
136459.7185947005
 30
-0.0000000001227403
 40
262.909440229605
210
0.0
220
-0.0000000000000009
230
-1.0
100
AcDbArc
 50
116.3113309614137
 51
181.1075612065413
  0
ARC
  5
1A5
330
2
100
AcDbEntity
  8
0
370
     5
100
AcDbCircle
 10
222001.2230745739
 20
136459.4740699862
 30
-0.0000000000000086
 40
284.7345504049319
100
AcDbArc
 50
0.0719516095194863
 51
64.1896307693234
  0
ARC
  5
1A6
330
2
100
AcDbEntity
  8
0
370
     5
100
AcDbCircle
 10
222399.6052727299
 20
136835.0112004421
 30
-0.0000000000003421
 40
491.8990475051695
100
AcDbArc
 50
45.39419290845955
 51
112.7110032328445
  0
ARC
  5
1A7
330
2
100
AcDbEntity
  8
0
370
     5
100
AcDbCircle
 10
-223074.3225508645
 20
137525.7532410685
 30
-0.0000000001227403
 40
473.7048030850881
210
0.0
220
-0.0000000000000009
230
-1.0
100
AcDbArc
 50
287.5957714520335
 51
314.0387457487485
  0
ARC
  5
1A8
330
2
100
AcDbEntity
  8
0
370
     5
100
AcDbCircle
 10
-222987.4235494026
 20
137258.3926734919
 30
-0.0000000001227403
 40
192.5942029847675
210
0.0
220
-0.0000000000000009
230
-1.0
100
AcDbArc
 50
233.9748008901021
 51
286.9977129967749
  0
ARC
  5
1A9
330
2
100
AcDbEntity
  8
0
370
     5
100
AcDbCircle
 10
223256.0107374514
 20
136956.7994054425
 30
-0.0000000000013418
 40
213.04774920496
100
AcDbArc
 50
70.67570303580423
 51
136.8037379269025
  0
ARC
  5
1AA
330
2
100
AcDbEntity
  8
0
370
     5
100
AcDbCircle
 10
223181.118675566
 20
135299.641644258
 30
0.0000000000010216
 40
403.7974489354453
100
AcDbArc
 50
247.7749535031998
 51
292.2250464968002
  0
ARC
  5
1AB
330
2
100
AcDbEntity
  8
0
370
     5
100
AcDbCircle
 10
223038.4615126767
 20
135041.6707897598
 30
0.0000000000012507
 40
224.663384274638
100
AcDbArc
 50
159.6375364023323
 51
211.0346375600124
  0
ARC
  5
1AC
330
2
100
AcDbEntity
  8
0
370
     5
100
AcDbCircle
 10
-223181.118675566
 20
135339.641644258
 30
-0.0000000001227403
 40
373.7974489354331
210
0.0
220
-0.0000000000000009
230
-1.0
100
AcDbArc
 50
246.8884852203715
 51
293.1115147796285
  0
LINE
  5
1AD
330
2
100
AcDbEntity
  8
0
370
     5
100
AcDbLine
 10
223485.9573925785
 20
135119.8441953225
 30
0.0000000000011813
 11
223485.9573925785
 21
134995.8441953225
 31
0.0000000000012914
  0
LINE
  5
1AE
330
2
100
AcDbEntity
  8
0
370
     5
100
AcDbLine
 10
223485.9573925785
 20
134995.8441953225
 30
0.0000000000012914
 11
223327.8423850878
 21
134995.8441953221
 31
0.0000000000012914
  0
ARC
  5
1AF
330
2
100
AcDbEntity
  8
0
370
     5
100
AcDbCircle
 10
223181.118675566
 20
135339.641644258
 30
0.0000000000009861
 40
373.7974489354489
100
AcDbArc
 50
246.8884852203715
 51
293.1115147796285
  0
LINE
  5
1B0
330
2
100
AcDbEntity
  8
0
370
     5
100
AcDbLine
 10
223034.3949660432
 20
134995.8441953225
 30
0.0000000000012914
 11
222875.9573925785
 21
134995.8441953225
 31
0.0000000000012914
  0
LINE
  5
1B1
330
2
100
AcDbEntity
  8
0
370
     5
100
AcDbLine
 10
222875.9573925785
 20
134995.8441953225
 30
0.0000000000012914
 11
222875.9573925785
 21
135119.8441953225
 31
0.0000000000011813
  0
ARC
  5
1B2
330
2
100
AcDbEntity
  8
0
370
     5
100
AcDbCircle
 10
-223603.8801785312
 20
134445.1244797249
 30
-0.0000000001227278
 40
114.8110098138098
210
0.0
220
-0.0000000000000009
230
-1.0
100
AcDbArc
 50
319.9786155238355
 51
118.2136904045853
  0
LINE
  5
1B3
330
2
100
AcDbEntity
  8
0
370
     5
100
AcDbLine
 10
223515.9573925785
 20
134371.2925646421
 30
0.0000000000018461
 11
222845.9573925785
 21
134332.4957835428
 31
0.0000000000018806
  0
ARC
  5
1B4
330
2
100
AcDbEntity
  8
0
370
     5
100
AcDbCircle
 10
-222795.3044060904
 20
134469.0589636684
 30
-0.0000000001227403
 40
145.6544788400354
210
0.0
220
-0.0000000000000009
230
-1.0
100
AcDbArc
 50
132.8213022790216
 51
249.6495546461718
  0
ARC
  5
1B5
330
2
100
AcDbEntity
  8
0
370
     5
100
AcDbCircle
 10
222983.4323978749
 20
134706.1619205012
 30
-0.0000000000008332
 40
157.8389439940508
100
AcDbArc
 50
160.8296353914278
 51
235.6216422130432
  0
ARC
  5
1B6
330
2
100
AcDbEntity
  8
0
370
     5
100
AcDbCircle
 10
-222643.7827149506
 20
134855.5024010801
 30
-0.0000000001227558
 40
214.0620664461468
210
0.0
220
-0.0000000000000009
230
-1.0
100
AcDbArc
 50
160.8158936210463
 51
207.0984178391842
  0
LINE
  5
1B7
330
2
100
AcDbEntity
  8
0
370
     5
100
AcDbLine
 10
222845.9573925785
 20
134925.8441953224
 30
0.0000000000013536
 11
223028.3841119069
 21
134925.8441953225
 31
0.0000000000013536
  0
ARC
  5
1B8
330
2
100
AcDbEntity
  8
0
370
     5
100
AcDbCircle
 10
-223181.118675566
 20
135299.641644258
 30
-0.0000000001227403
 40
403.7974489354373
210
0.0
220
-0.0000000000000009
230
-1.0
100
AcDbArc
 50
247.7749535031998
 51
292.2250464968002
  0
LINE
  5
1B9
330
2
100
AcDbEntity
  8
0
370
     5
100
AcDbLine
 10
223333.853239225
 20
134925.8441953225
 30
0.0000000000013536
 11
223515.9573925787
 21
134925.8441953228
 31
0.0000000000013536
  0
LINE
  5
1BA
330
2
100
AcDbEntity
  8
0
370
     5
100
AcDbLine
 10
223725.9573925785
 20
134541.0061519339
 30
0.0000000000016954
 11
223725.9573925785
 21
134346.3505146446
 31
0.0000000000018353
  0
ARC
  5
1BB
330
2
100
AcDbEntity
  8
0
370
     5
100
AcDbCircle
 10
223728.8743949663
 20
134798.9826495707
 30
0.0000000000014663
 40
28.02229129028857
100
AcDbArc
 50
195.1927983177144
 51
264.0249266698956
  0
ARC
  5
1BC
330
2
100
AcDbEntity
  8
0
370
     5
100
AcDbCircle
 10
-223671.7929108986
 20
134836.9175769305
 30
-0.0000000001227403
 40
54.33667897179663
210
0.0
220
-0.0000000000000009
230
-1.0
100
AcDbArc
 50
184.5626694083817
 51
236.4390737017939
  0
LINE
  5
1BD
330
2
100
AcDbEntity
  8
0
370
     5
100
AcDbLine
 10
223755.9573925785
 20
134549.3039021759
 30
0.000000000001688
 11
223725.9573925785
 21
134541.0061519339
 31
0.0000000000016954
  0
ARC
  5
1BE
330
2
100
AcDbEntity
  8
0
370
     5
100
AcDbCircle
 10
-223671.7929108986
 20
134536.6836982292
 30
-0.0000000001227403
 40
54.33667897179653
210
0.0
220
-0.0000000000000009
230
-1.0
100
AcDbArc
 50
123.5609262982061
 51
175.4373305916183
  0
ARC
  5
1BF
330
2
100
AcDbEntity
  8
0
370
     5
100
AcDbCircle
 10
223729.288011858
 20
134573.6527986518
 30
0.000000000006507
 40
29.02759119093689
100
AcDbArc
 50
96.5886158963962
 51
162.8681875480596
  0
ARC
  5
1C0
330
2
100
AcDbEntity
  8
0
370
     5
100
AcDbCircle
 10
223835.8160469046
 20
134685.9833404253
 30
0.0000000000015666
 40
201.6950989524381
100
AcDbArc
 50
154.5930178081605
 51
205.0207983275273
  0
ARC
  5
1C1
330
2
100
AcDbEntity
  8
0
370
     5
100
AcDbCircle
 10
-223690.843566246
 20
134809.0842670171
 30
-0.0000000001227403
 40
52.12018188317346
210
0.0
220
-0.0000000000000009
230
-1.0
100
AcDbArc
 50
278.2355265458053
 51
310.9020924395687
  0
ARC
  5
1C2
330
2
100
AcDbEntity
  8
0
370
     5
100
AcDbCircle
 10
223839.8522366376
 20
134686.8006375799
 30
0.0000000000015659
 40
173.7058283021656
100
AcDbArc
 50
155.8607774202949
 51
204.1231462134696
  0
ARC
  5
1C3
330
2
100
AcDbEntity
  8
0
370
     5
100
AcDbCircle
 10
-223690.447548086
 20
134808.7918534738
 30
-0.0000000001225425
 40
51.77524048189328
210
0.0
220
-0.0000000000000009
230
-1.0
100
AcDbArc
 50
226.6978189499656
 51
277.8481514998601
  0
LINE
  5
1C4
330
2
100
AcDbEntity
  8
0
370
     5
100
AcDbLine
 10
224560.9566727323
 20
134346.3507399854
 30
0.0000000000000017
 11
223725.9573925785
 21
134346.3505146446
 31
0.0000000000018353
  0
ARC
  5
1C5
330
2
100
AcDbEntity
  8
0
370
     5
100
AcDbCircle
 10
223839.0146600082
 20
134686.8006375799
 30
0.000000000003951
 40
141.0335137129088
100
AcDbArc
 50
143.28642761049
 51
216.7135723895099
  0
ARC
  5
1C6
330
2
100
AcDbEntity
  8
0
370
     5
100
AcDbCircle
 10
-223694.1287218084
 20
134824.1196877881
 30
-0.0000000001227403
 40
61.82892608826482
210
0.0
220
-0.0000000000000009
230
-1.0
100
AcDbArc
 50
179.8353420234705
 51
239.016842349015
  0
ARC
  5
1C7
330
2
100
AcDbEntity
  8
0
370
     5
100
AcDbCircle
 10
222849.2793575652
 20
134749.2681721367
 30
0.0000000000015104
 40
17.29502689455036
100
AcDbArc
 50
149.7046499907054
 51
152.8982790825556
  0
ARC
  5
1C8
330
2
100
AcDbEntity
  8
0
370
     5
100
AcDbCircle
 10
-222861.4106900122
 20
134537.7442140885
 30
-0.0000000001227403
 40
50.22834052161088
210
0.0
220
-0.0000000000000009
230
-1.0
100
AcDbArc
 50
28.39958865293156
 51
122.7502447685612
  0
ARC
  5
1C9
330
2
100
AcDbEntity
  8
0
370
     5
100
AcDbCircle
 10
-222848.33009842
 20
134545.8087664687
 30
-0.0000000001227403
 40
34.89723893477022
210
0.0
220
-0.0000000000000009
230
-1.0
100
AcDbArc
 50
313.0158311001093
 51
26.96670801004531
  0
ARC
  5
1CA
330
2
100
AcDbEntity
  8
0
370
     5
100
AcDbCircle
 10
222950.3895412589
 20
134698.2631680393
 30
0.0000000000015557
 40
217.9809107752634
100
AcDbArc
 50
159.8136657258443
 51
234.7307761840943
  0
ARC
  5
1CB
330
2
100
AcDbEntity
  8
0
370
     5
100
AcDbCircle
 10
-222783.4729568577
 20
134768.0338609314
 30
-0.0000000001227403
 40
38.06692613509353
210
0.0
220
-0.0000000000000009
230
-1.0
100
AcDbArc
 50
277.7407649792982
 51
8.229627841972945
  0
ARC
  5
1CC
330
2
100
AcDbEntity
  8
0
370
     5
100
AcDbCircle
 10
-222788.0724845784
 20
134781.0724058808
 30
-0.0000000001227403
 40
51.68215688921636
210
0.0
220
-0.0000000000000009
230
-1.0
100
AcDbArc
 50
207.5761984328553
 51
280.8480125191112
  0
LINE
  5
1CD
330
2
100
AcDbEntity
  8
0
370
     5
100
AcDbLine
 10
224560.9573925785
 20
135968.4419495658
 30
0.0000000000000568
 11
224560.9566727323
 21
134346.3507399854
 31
0.0000000000000017
  0
LINE
  5
1CE
330
2
100
AcDbEntity
  8
0
370
     5
100
AcDbLine
 10
222265.9573925785
 20
136454.6367166816
 30
-0.0000000000000043
 11
222265.9573925785
 21
136368.2031057193
 31
-0.0000000000004823
  0
ARC
  5
1CF
330
2
100
AcDbEntity
  8
0
370
     5
100
AcDbCircle
 10
223693.2641610264
 20
134802.2827100287
 30
0.0000000000003488
 40
13.66344797809392
100
AcDbArc
 50
230.9379631061629
 51
308.8310466804657
  0
ARC
  5
1D0
330
2
100
AcDbEntity
  8
0
370
     5
100
AcDbCircle
 10
223679.2837000868
 20
134810.609533961
 30
0.0000000000003499
 40
23.7469029009631
100
AcDbArc
 50
343.9925547951833
 51
88.15932949695039
  0
ARC
  5
1D1
330
2
100
AcDbEntity
  8
0
370
     5
100
AcDbCircle
 10
223679.6870849446
 20
134797.8657946404
 30
0.0000000000003499
 40
36.35226947384345
100
AcDbArc
 50
120.0414572147793
 51
230.8112500738291
  0
ARC
  5
1D2
330
2
100
AcDbEntity
  8
0
370
     5
100
AcDbCircle
 10
222827.3930448466
 20
134784.886022274
 30
0.0000000000003577
 40
27.77756109289372
100
AcDbArc
 50
214.970918249041
 51
284.4961852690941
  0
ARC
  5
1D3
330
2
100
AcDbEntity
  8
0
370
     5
100
AcDbCircle
 10
222792.92396012
 20
134775.8687646384
 30
0.0000000000003577
 40
13.5909788842775
100
AcDbArc
 50
230.5269844216345
 51
329.4715718052764
  0
ARC
  5
1D4
330
2
100
AcDbEntity
  8
0
370
     5
100
AcDbCircle
 10
222789.9219132173
 20
134777.5610916578
 30
-110.0000000000001
 40
10.63712201946034
100
AcDbArc
 50
186.2842423601849
 51
358.0818024877914
  0
ARC
  5
1D5
330
2
100
AcDbEntity
  8
0
370
     5
100
AcDbCircle
 10
222775.1303942805
 20
134778.5534510289
 30
0.0000000000003499
 40
25.45841432485664
100
AcDbArc
 50
356.9638726371133
 51
36.82084952965238
  0
ARC
  5
1D6
330
2
100
AcDbEntity
  8
0
370
     5
100
AcDbCircle
 10
222776.9326321322
 20
134779.0195218262
 30
-0.000000000000771
 40
23.74690290094789
100
AcDbArc
 50
38.52695837118002
 51
98.5269583714971
  0
ARC
  5
1D7
330
2
100
AcDbEntity
  8
0
370
     5
100
AcDbCircle
 10
222782.0003630083
 20
134766.6840436083
 30
-0.0000000000018842
 40
36.83519770433863
100
AcDbArc
 50
103.4836689288896
 51
169.3638217158581
  0
LWPOLYLINE
  5
1D8
330
2
100
AcDbEntity
  8
0
370
     5
100
AcDbPolyline
 90
        2
 70
     0
 43
0.0
 10
222265.9573925785
 20
136278.1856706193
 10
222265.9573925785
 20
136368.2031057193
  0
LWPOLYLINE
  5
1D9
330
2
100
AcDbEntity
  8
0
370
     5
100
AcDbPolyline
 90
        2
 70
     0
 43
0.0
 10
222265.9573925785
 20
135201.4852849257
 10
222265.9573925785
 20
135435.440652627
  0
ARC
  5
1DA
330
2
100
AcDbEntity
  8
0
370
     5
100
AcDbCircle
 10
221866.3840471615
 20
136994.5857589785
 30
0.0000000000003499
 40
71.79473156193828
100
AcDbArc
 50
182.1038258942863
 51
261.7561891658571
  0
ARC
  5
1DB
330
2
100
AcDbEntity
  8
0
370
     5
100
AcDbCircle
 10
221872.8772536871
 20
136995.069362923
 30
0.0000000000011814
 40
78.30169763091894
100
AcDbArc
 50
136.0024773474722
 51
182.2830340689248
  0
ARC
  5
1DC
330
2
100
AcDbEntity
  8
0
370
     5
100
AcDbCircle
 10
221850.8179377806
 20
137015.1912937417
 30
0.0000000000020639
 40
48.46306714478742
100
AcDbArc
 50
44.99999999977414
 51
135.0000000002258
  0
ARC
  5
1DD
330
2
100
AcDbEntity
  8
0
370
     5
100
AcDbCircle
 10
221850.2405763934
 20
137014.5038405422
 30
0.0000000000020442
 40
49.35748750591687
100
AcDbArc
 50
19.21817625530033
 51
45.0903669855586
  0
ARC
  5
1DE
330
2
100
AcDbEntity
  8
0
370
     5
100
AcDbCircle
 10
221882.5579925823
 20
137022.3072257318
 30
0.0000000000003499
 40
28.90656568445659
100
AcDbArc
 50
271.9506065930225
 51
348.9940765972358
  0
ARC
  5
1DF
330
2
100
AcDbEntity
  8
0
370
     5
100
AcDbCircle
 10
221942.2429259743
 20
137065.211782178
 30
0.0000000000003871
 40
57.66382736672008
100
AcDbArc
 50
237.1135899884981
 51
305.2995967894476
  0
ARC
  5
1E0
330
2
100
AcDbEntity
  8
0
370
     5
100
AcDbCircle
 10
222138.7729125367
 20
136643.3742007673
 30
0.000000000001117
 40
55.42631646162313
100
AcDbArc
 50
147.0834778157559
 51
181.5504363311289
  0
ARC
  5
1E1
330
2
100
AcDbEntity
  8
0
370
     5
100
AcDbCircle
 10
222072.5811002337
 20
136615.8980148311
 30
0.0000000000016375
 40
28.12672831075749
100
AcDbArc
 50
67.45114237905285
 51
137.7490207001627
  0
ARC
  5
1E2
330
2
100
AcDbEntity
  8
0
370
     5
100
AcDbCircle
 10
222049.9411669962
 20
136592.1371596356
 30
0.0000000000003499
 40
47.87410095494151
100
AcDbArc
 50
357.2166686906852
 51
49.18609466228533
  0
ARC
  5
1E3
330
2
100
AcDbEntity
  8
0
370
     5
100
AcDbCircle
 10
222049.3584969803
 20
136592.2782781767
 30
0.0000000000008242
 40
48.46306714478592
100
AcDbArc
 50
282.0834778170186
 51
357.0834778157523
  0
ARC
  5
1E4
330
2
100
AcDbEntity
  8
0
370
     5
100
AcDbCircle
 10
222043.6122586021
 20
136617.8857641213
 30
0.0000000000012586
 40
74.70652913808428
100
AcDbArc
 50
217.5744557530002
 51
282.281609773064
  0
ARC
  5
1E5
330
2
100
AcDbEntity
  8
0
370
     5
100
AcDbCircle
 10
222038.3885032882
 20
136616.5130862128
 30
0.0000000000012586
 40
69.76087293498712
100
AcDbArc
 50
172.1706020471021
 51
219.2974148809522
  0
ARC
  5
1E6
330
2
100
AcDbEntity
  8
0
370
     5
100
AcDbCircle
 10
222069.3259792662
 20
136605.7781382503
 30
0.0000000000012586
 40
102.0744309251367
100
AcDbArc
 50
96.46257739401345
 51
168.56433386616
  0
ARC
  5
1E7
330
2
100
AcDbEntity
  8
0
370
     5
100
AcDbCircle
 10
223696.8167795343
 20
134550.9978432662
 30
0.0000000000003499
 40
59.16486751156
100
AcDbArc
 50
358.3593483082852
 51
60.49283607027231
  0
ARC
  5
1E8
330
2
100
AcDbEntity
  8
0
370
     5
100
AcDbCircle
 10
223690.5161835965
 20
134804.683080004
 30
-0.0000000000018839
 40
10.16949453870185
100
AcDbArc
 50
166.8425407782321
 51
242.9916067937962
  0
ARC
  5
1E9
330
2
100
AcDbEntity
  8
0
370
     5
100
AcDbCircle
 10
223692.4343302809
 20
134801.9196708299
 30
-0.0000000000029936
 40
12.86534691363855
100
AcDbArc
 50
156.7511938900962
 51
232.7889822606224
  0
ARC
  5
1EA
330
2
100
AcDbEntity
  8
0
370
     5
100
AcDbCircle
 10
223691.0848596648
 20
134568.3388506384
 30
-0.0000000000005672
 40
11.02565423749921
100
AcDbArc
 50
43.87770496636665
 51
117.734180353122
  0
ARC
  5
1EB
330
2
100
AcDbEntity
  8
0
370
     5
100
AcDbCircle
 10
-223689.7223704904
 20
134566.3397231876
 30
-0.0000000001227403
 40
50.17662901418463
210
0.0
220
-0.0000000000000009
230
-1.0
100
AcDbArc
 50
45.62620125191312
 51
82.21373041740539
  0
ARC
  5
1EC
330
2
100
AcDbEntity
  8
0
370
     5
100
AcDbCircle
 10
-223688.4677916351
 20
134558.5990281686
 30
-0.0000000001225425
 40
57.72150097515038
210
0.0
220
-0.0000000000000009
230
-1.0
100
AcDbArc
 50
84.48913318785995
 51
130.5032436903067
  0
ARC
  5
1ED
330
2
100
AcDbEntity
  8
0
370
     5
100
AcDbCircle
 10
223693.1958660111
 20
134572.1094115394
 30
0.0000000000027774
 40
13.10171359425024
100
AcDbArc
 50
48.76702676923233
 51
127.5688906240652
  0
ARC
  5
1EE
330
2
100
AcDbEntity
  8
0
370
     5
100
AcDbCircle
 10
223678.5516299717
 20
134563.8049924521
 30
0.0000000000005684
 40
24.38835869441508
100
AcDbArc
 50
277.0869106514051
 51
9.439207702357034
  0
ARC
  5
1EF
330
2
100
AcDbEntity
  8
0
370
     5
100
AcDbCircle
 10
223678.7393535379
 20
134575.6595031963
 30
0.000000000000542
 40
35.85887611121329
100
AcDbArc
 50
132.2435572981816
 51
235.7151601665146
  0
ARC
  5
1F0
330
2
100
AcDbEntity
  8
0
370
     5
100
AcDbCircle
 10
223681.0870424811
 20
134582.3422423763
 30
0.0000000000005254
 40
42.74190797044797
100
AcDbArc
 50
238.1618778223062
 51
270.6347367731699
  0
ARC
  5
1F1
330
2
100
AcDbEntity
  8
0
370
     5
100
AcDbCircle
 10
223691.167772328
 20
134568.6597122597
 30
-59.99999999999779
 40
10.78253969071462
100
AcDbArc
 50
118.9176737815238
 51
192.2542734106291
  0
ARC
  5
1F2
330
2
100
AcDbEntity
  8
0
370
     5
100
AcDbCircle
 10
223693.0023667271
 20
134571.5685589861
 30
59.99999999999332
 40
13.41888220630702
100
AcDbArc
 50
125.791377363576
 51
202.7880544106588
  0
ARC
  5
1F3
330
2
100
AcDbEntity
  8
0
370
     5
100
AcDbCircle
 10
223683.4708581983
 20
134564.3015234226
 30
-0.0000000000019036
 40
19.45688612159376
100
AcDbArc
 50
10.3725908750378
 51
36.88945470676439
  0
ARC
  5
1F4
330
2
100
AcDbEntity
  8
0
370
     5
100
AcDbCircle
 10
222864.0790374896
 20
134543.0969301508
 30
-0.0000000000072618
 40
13.98084112871924
100
AcDbArc
 50
171.7711448671694
 51
206.5012065851534
  0
ARC
  5
1F5
330
2
100
AcDbEntity
  8
0
370
     5
100
AcDbCircle
 10
222863.9440993386
 20
134542.5816350306
 30
-0.0000000000072604
 40
13.9311039998666
100
AcDbArc
 50
99.64834485656728
 51
169.5937053361608
  0
ARC
  5
1F6
330
2
100
AcDbEntity
  8
0
370
     5
100
AcDbCircle
 10
222863.5501017707
 20
134542.6657140402
 30
0.0000000000106287
 40
13.78726266330501
100
AcDbArc
 50
53.48261274211191
 51
98.09253758884745
  0
ARC
  5
1F7
330
2
100
AcDbEntity
  8
0
370
     5
100
AcDbCircle
 10
222861.0725331724
 20
134540.142613101
 30
-0.000000000008611
 40
10.0566630385685
100
AcDbArc
 50
156.7124758353826
 51
199.0604954400513
  0
ARC
  5
1F8
330
2
100
AcDbEntity
  8
0
370
     5
100
AcDbCircle
 10
222861.6465891928
 20
134539.9108574222
 30
-0.0000000000072494
 40
10.81357277244671
100
AcDbArc
 50
22.53367416688385
 51
111.577709751761
  0
ARC
  5
1F9
330
2
100
AcDbEntity
  8
0
370
     5
100
AcDbCircle
 10
222898.7288943289
 20
134548.3945992195
 30
0.0000000000003499
 40
27.50072750458181
100
AcDbArc
 50
98.5608547947541
 51
168.8148994259398
  0
ARC
  5
1FA
330
2
100
AcDbEntity
  8
0
370
     5
100
AcDbCircle
 10
222850.1965470025
 20
134533.5527746799
 30
0.0000000000003499
 40
23.85958116199383
100
AcDbArc
 50
344.8571825773578
 51
26.02518262050166
  0
ARC
  5
1FB
330
2
100
AcDbEntity
  8
0
370
     5
100
AcDbCircle
 10
222850.3091739085
 20
134533.5375900803
 30
-0.0000000000010077
 40
23.74690290092591
100
AcDbArc
 50
269.8215611528849
 51
344.8215611509743
  0
ARC
  5
1FC
330
2
100
AcDbEntity
  8
0
370
     5
100
AcDbCircle
 10
222851.1391057425
 20
134548.7292949566
 30
-0.0000000000023808
 40
38.9489822746412
100
AcDbArc
 50
226.8937542540462
 51
268.6702193162298
  0
ARC
  5
1FD
330
2
100
AcDbEntity
  8
0
370
     5
100
AcDbCircle
 10
222793.5396265903
 20
134776.1377710927
 30
-110.0000000000013
 40
14.19328075635793
100
AcDbArc
 50
178.9545210327412
 51
229.298741487733
  0
ARC
  5
1FE
330
2
100
AcDbEntity
  8
0
370
     5
100
AcDbCircle
 10
221876.1191584281
 20
137022.7759298332
 30
0.0000000000029098
 40
22.20943884966692
100
AcDbArc
 50
249.5031733688553
 51
21.04305130648945
  0
ARC
  5
1FF
330
2
100
AcDbEntity
  8
0
370
     5
100
AcDbCircle
 10
221874.8900402601
 20
137019.1051250665
 30
0.000000000004607
 40
18.34113428432244
100
AcDbArc
 50
192.4190354371532
 51
249.0844182378658
  0
ARC
  5
200
330
2
100
AcDbEntity
  8
0
370
     5
100
AcDbCircle
 10
221883.2900364244
 20
137020.8061307306
 30
0.0000000000029101
 40
27.38987867758574
100
AcDbArc
 50
198.4539639947638
 51
270.5268963498154
  0
ARC
  5
201
330
2
100
AcDbEntity
  8
0
370
     5
100
AcDbCircle
 10
221870.9826133141
 20
137015.1606844659
 30
0.0000000000037586
 40
14.00454098558844
100
AcDbArc
 50
152.1372876396443
 51
192.4726771686756
  0
ARC
  5
202
330
2
100
AcDbEntity
  8
0
370
     5
100
AcDbCircle
 10
222069.1366518183
 20
136611.5428384667
 30
0.0000000000008584
 40
20.72314791783163
100
AcDbArc
 50
54.29175118632477
 51
150.3251083548278
  0
ARC
  5
203
330
2
100
AcDbEntity
  8
0
370
     5
100
AcDbCircle
 10
222069.6105910547
 20
136609.8073300297
 30
0.0000000000013611
 40
22.03096539651161
100
AcDbArc
 50
147.0119111853178
 51
207.9350723860092
  0
ARC
  5
204
330
2
100
AcDbEntity
  8
0
370
     5
100
AcDbCircle
 10
222071.8478669259
 20
136616.1929969438
 30
-110.0000000000045
 40
27.38702156570014
100
AcDbArc
 50
137.1743940824414
 51
217.5906761325221
  0
LWPOLYLINE
  5
205
330
2
100
AcDbEntity
  8
0
370
     5
100
AcDbPolyline
 90
        2
 70
     0
 43
0.0
 10
223755.9573925785
 20
134824.2973729839
 10
223755.9573925785
 20
134864.1125956377
  0
LINE
  5
206
330
2
100
AcDbEntity
  8
0
370
     5
100
AcDbLine
 10
224210.9573733616
 20
137127.8441736458
 30
-0.0000000000005924
 11
224210.9573925785
 21
136722.3448065139
 31
0.0000000000006309
  0
ARC
  5
207
330
2
100
AcDbEntity
  8
0
370
     5
100
AcDbCircle
 10
224449.237229146
 20
136737.3053843814
 30
0.0000000000003413
 40
238.7490333347238
100
AcDbArc
 50
183.5926546711911
 51
272.8137743150414
  0
LINE
  5
208
330
2
100
AcDbEntity
  8
0
370
     5
100
AcDbLine
 10
224460.9552833342
 20
136498.8440916643
 30
0.0000000000003413
 11
224460.9552833342
 21
136393.9117310206
 31
0.0
  0
LINE
  5
209
330
2
100
AcDbEntity
  8
0
370
     5
100
AcDbLine
 10
224460.9573925785
 20
136393.9117310206
 30
0.0
 11
224560.9573925785
 21
136393.9117310206
 31
0.0
  0
LINE
  5
20A
330
2
100
AcDbEntity
  8
0
370
     5
100
AcDbLine
 10
224560.9573925785
 20
136393.9117310206
 30
0.0
 11
224560.9573925785
 21
136243.4354203738
 31
0.0000000000002981
  0
ARC
  5
20B
330
2
100
AcDbEntity
  8
0
370
     5
100
AcDbCircle
 10
224620.0980075244
 20
136241.7414797685
 30
0.0000000000002981
 40
59.1648693985849
100
AcDbArc
 50
178.3593488303889
 51
240.492836645483
  0
ARC
  5
20C
330
2
100
AcDbEntity
  8
0
370
     5
100
AcDbCircle
 10
224645.1218742584
 20
136256.0556243205
 30
0.0000000000002656
 40
54.33667897179915
100
AcDbArc
 50
184.5626694083817
 51
236.4390691030971
  0
LINE
  5
20D
330
2
100
AcDbEntity
  8
0
370
     5
100
AcDbLine
 10
224590.9573925785
 20
136251.7331706157
 30
0.000000000000307
 11
224560.9573925785
 21
136243.4354203738
 31
0.0000000000002981
  0
ARC
  5
20E
330
2
100
AcDbEntity
  8
0
370
     5
100
AcDbCircle
 10
224588.0403901907
 20
136218.1206969607
 30
0.000000000000294
 40
28.02229129035128
100
AcDbArc
 50
275.9945077670221
 51
344.8072016822856
  0
ARC
  5
20F
330
2
100
AcDbEntity
  8
0
370
     5
100
AcDbCircle
 10
224623.8582880655
 20
136222.4304158252
 30
0.0000000000002265
 40
14.58779658760138
100
AcDbArc
 50
233.0204256737552
 51
262.1253892990402
  0
ARC
  5
210
330
2
100
AcDbEntity
  8
0
370
     5
100
AcDbCircle
 10
224623.8582880655
 20
136222.4304158252
 30
0.0000000000002602
 40
14.5877965876512
100
AcDbArc
 50
262.1253892990402
 51
291.2303529334784
  0
ARC
  5
211
330
2
100
AcDbEntity
  8
0
370
     5
100
AcDbCircle
 10
224623.1370247685
 20
136221.5166586808
 30
0.0000000000003
 40
14.03314129274001
100
AcDbArc
 50
295.3298094533044
 51
20.32011510336394
  0
ARC
  5
212
330
2
100
AcDbEntity
  8
0
370
     5
100
AcDbCircle
 10
224626.0664503954
 20
136223.870880855
 30
-0.0000000000205451
 40
10.53595096164207
100
AcDbArc
 50
231.6065257409089
 51
13.8325840066269
  0
ARC
  5
213
330
2
100
AcDbEntity
  8
0
370
     5
100
AcDbCircle
 10
224636.994756065
 20
136230.2954598113
 30
0.000000000021132
 40
22.82172909234436
100
AcDbArc
 50
108.0380763521579
 51
220.0418165314178
  0
ARC
  5
214
330
2
100
AcDbEntity
  8
0
370
     5
100
AcDbCircle
 10
224637.9194950571
 20
136216.8808010107
 30
-0.0000000000205523
 40
36.01259720993344
100
AcDbArc
 50
14.51370028010677
 51
102.8210914738001
  0
ARC
  5
215
330
2
100
AcDbEntity
  8
0
370
     5
100
AcDbCircle
 10
224636.6827989116
 20
136217.5534824972
 30
-0.0000000000204642
 40
37.05371365702828
100
AcDbArc
 50
310.4326537044988
 51
13.02732489738814
  0
ARC
  5
216
330
2
100
AcDbEntity
  8
0
370
     5
100
AcDbCircle
 10
224626.5599187263
 20
136227.397706304
 30
-0.0000000000204967
 40
51.12912271495237
100
AcDbArc
 50
277.7914542039982
 51
311.9128205445354
  0
ARC
  5
217
330
2
100
AcDbEntity
  8
0
370
     5
100
AcDbCircle
 10
224625.6747326032
 20
136225.8147802467
 30
0.0000000000002435
 40
49.6928040414386
100
AcDbArc
 50
225.6973048625966
 51
279.0501788998221
  0
ARC
  5
218
330
2
100
AcDbEntity
  8
0
370
     5
100
AcDbCircle
 10
224430.8000837751
 20
136105.9580107492
 30
0.000000000000321
 40
236.1549604526279
100
AcDbArc
 50
340.6904381517574
 51
19.30956184824257
  0
ARC
  5
219
330
2
100
AcDbEntity
  8
0
370
     5
100
AcDbCircle
 10
224620.0980075244
 20
135970.135890171
 30
0.0000000000002981
 40
59.1648693985849
100
AcDbArc
 50
119.507163354517
 51
181.640651169611
  0
ARC
  5
21A
330
2
100
AcDbEntity
  8
0
370
     5
100
AcDbCircle
 10
224645.1218742584
 20
135955.821745619
 30
0.0000000000002656
 40
54.33667897179915
100
AcDbArc
 50
123.5609308969028
 51
175.4373305916183
  0
LINE
  5
21B
330
2
100
AcDbEntity
  8
0
370
     5
100
AcDbLine
 10
224590.9573925785
 20
135960.1441993238
 30
0.000000000000307
 11
224560.9573925785
 21
135968.4419495657
 31
0.0000000000002981
  0
ARC
  5
21C
330
2
100
AcDbEntity
  8
0
370
     5
100
AcDbCircle
 10
224588.0403901907
 20
135993.7566729788
 30
0.000000000000294
 40
28.02229129035128
100
AcDbArc
 50
15.19279831771442
 51
84.00549223297788
  0
ARC
  5
21D
330
2
100
AcDbEntity
  8
0
370
     5
100
AcDbCircle
 10
224623.8582880655
 20
135989.4469541143
 30
0.0000000000002265
 40
14.58779658760138
100
AcDbArc
 50
97.87461070095979
 51
126.9795743262448
  0
ARC
  5
21E
330
2
100
AcDbEntity
  8
0
370
     5
100
AcDbCircle
 10
224623.8582880655
 20
135989.4469541143
 30
0.0000000000002602
 40
14.5877965876512
100
AcDbArc
 50
68.76964706652163
 51
97.87461070095979
  0
ARC
  5
21F
330
2
100
AcDbEntity
  8
0
370
     5
100
AcDbCircle
 10
224623.1370247685
 20
135990.3607112587
 30
0.0000000000003
 40
14.03314129274001
100
AcDbArc
 50
339.6798848966388
 51
64.67019054669565
  0
ARC
  5
220
330
2
100
AcDbEntity
  8
0
370
     5
100
AcDbCircle
 10
224626.0664503954
 20
135988.0064890845
 30
-0.0000000000205451
 40
10.53595096164207
100
AcDbArc
 50
346.1674159933731
 51
128.3934742590911
  0
ARC
  5
221
330
2
100
AcDbEntity
  8
0
370
     5
100
AcDbCircle
 10
224636.994756065
 20
135981.5819101282
 30
0.000000000021132
 40
22.82172909234436
100
AcDbArc
 50
139.9581834685822
 51
251.9619236478421
  0
ARC
  5
222
330
2
100
AcDbEntity
  8
0
370
     5
100
AcDbCircle
 10
224637.9194950571
 20
135994.9965689288
 30
-0.0000000000205523
 40
36.01259720993344
100
AcDbArc
 50
257.1789085261999
 51
345.4862997198932
  0
ARC
  5
223
330
2
100
AcDbEntity
  8
0
370
     5
100
AcDbCircle
 10
224636.6827989116
 20
135994.3238874423
 30
-0.0000000000204642
 40
37.05371365702828
100
AcDbArc
 50
346.9726751026119
 51
49.56734629550119
  0
ARC
  5
224
330
2
100
AcDbEntity
  8
0
370
     5
100
AcDbCircle
 10
224626.5599187263
 20
135984.4796636355
 30
-0.0000000000204967
 40
51.12912271495237
100
AcDbArc
 50
48.08717945546463
 51
82.20854579600173
  0
ARC
  5
225
330
2
100
AcDbEntity
  8
0
370
     5
100
AcDbCircle
 10
224625.6747326032
 20
135986.0625896928
 30
0.0000000000002435
 40
49.6928040414386
100
AcDbArc
 50
80.94982110017788
 51
134.3026951374034
  0
LINE
  5
226
330
2
100
AcDbEntity
  8
0
370
     5
100
AcDbLine
 10
224560.9573925785
 20
135968.4419495657
 30
0.0000000000002981
 11
224560.9566727323
 21
134346.3507399854
 31
0.0000000000000017
  0
LINE
  5
227
330
2
100
AcDbEntity
  8
0
370
     5
100
AcDbLine
 10
223321.2155626452
 20
137127.8446291006
 30
0.0
 11
223326.5113466927
 21
137157.8441953225
 31
-0.0000000000013418
  0
DIMENSION
  5
228
330
2
100
AcDbEntity
  8
0Wymiary-PL
100
AcDbDimension
  2
*D9
 10
222275.9573925785
 20
137625.7613951159
 30
0.0
 11
223368.4573925785
 21
137705.7613951159
 31
0.0
 71
     5
 42
2184.999999999971
  3
500
100
AcDbAlignedDimension
 13
224460.9573925785
 23
134876.8441953225
 33
0.0
 14
222275.9573925785
 24
135119.8441953225
 34
0.0
 50
180.0
100
AcDbRotatedDimension
  0
DIMENSION
  5
233
330
2
100
AcDbEntity
  8
0Wymiary-PL
100
AcDbDimension
  2
*D10
 10
222155.9573925785
 20
137625.7613951159
 30
0.0
 11
222215.9573925785
 21
137705.7613951159
 31
0.0
 71
     5
 42
120.0000000000291
  3
500
100
AcDbAlignedDimension
 13
222275.9573925785
 23
135119.8441953225
 33
0.0
 14
222155.9573925785
 24
135910.9985242551
 34
0.0
 50
180.0
100
AcDbRotatedDimension
  0
DIMENSION
  5
240
330
2
100
AcDbEntity
  8
0Wymiary-PL
100
AcDbDimension
  2
*D11
 10
222155.9573925785
 20
137886.2068671806
 30
0.0
 11
223308.4573925785
 21
137966.2068671805
 31
0.0
 71
     5
 42
2305.0
  3
500
100
AcDbAlignedDimension
 13
224460.9573925785
 23
135814.8441953225
 33
0.0
 14
222155.9573925785
 24
135910.9985242551
 34
0.0
 50
180.0
100
AcDbRotatedDimension
  0
DIMENSION
  5
24B
330
2
100
AcDbEntity
  8
0Wymiary-PL
100
AcDbDimension
  2
*D12
 10
221572.3308737029
 20
135119.8441953225
 30
0.0
 11
221492.3308737029
 21
134998.3441953226
 31
0.0
 71
     5
 42
243.0
  3
500
100
AcDbAlignedDimension
 13
223765.9573925785
 23
134876.8441953225
 33
0.0
 14
223765.9573925785
 24
135119.8441953225
 34
0.0
 50
90.0
100
AcDbRotatedDimension
  0
DIMENSION
  5
256
330
2
100
AcDbEntity
  8
0Wymiary-PL
100
AcDbDimension
  2
*D13
 10
221572.3308737029
 20
136449.8441953225
 30
0.0
 11
221492.3308737029
 21
135784.8441953225
 31
0.0
 71
     5
 42
1330.0
  3
500
100
AcDbAlignedDimension
 13
223765.9573925785
 23
135119.8441953225
 33
0.0
 14
222275.9573925785
 24
136449.8441953225
 34
0.0
 50
90.0
100
AcDbRotatedDimension
  0
DIMENSION
  5
261
330
2
100
AcDbEntity
  8
0Wymiary-PL
100
AcDbDimension
  2
*D14
 10
221572.3308737029
 20
136986.8441953225
 30
0.0
 11
221492.3308737029
 21
136718.3441953226
 31
0.0
 71
     5
 42
537.0
  3
500
100
AcDbAlignedDimension
 13
222275.9573925785
 23
136449.8441953225
 33
0.0
 14
223320.9573925785
 24
136986.8441953225
 34
0.0
 50
90.0
100
AcDbRotatedDimension
  0
DIMENSION
  5
26C
330
2
100
AcDbEntity
  8
0Wymiary-PL
100
AcDbDimension
  2
*D15
 10
221572.3308737029
 20
137021.8441953225
 30
0.0
 11
221492.3308737029
 21
137004.3441953226
 31
0.0
 71
     5
 42
35.0
  3
500
100
AcDbAlignedDimension
 13
223320.9573925785
 23
136986.8441953225
 33
0.0
 14
223499.9573925785
 24
137021.8441953225
 34
0.0
 50
90.0
100
AcDbRotatedDimension
  0
DIMENSION
  5
279
330
2
100
AcDbEntity
  8
0Wymiary-PL
100
AcDbDimension
  2
*D16
 10
221307.757773536
 20
137021.8441953225
 30
0.0
 11
221227.757773536
 21
135949.3441953226
 31
0.0
 71
     5
 42
2145.0
  3
500
100
AcDbAlignedDimension
 13
223765.9573925785
 23
134876.8441953225
 33
0.0
 14
223499.9573925785
 24
137021.8441953225
 34
0.0
 50
90.0
100
AcDbRotatedDimension
  0
ENDSEC
  0
SECTION
  2
OBJECTS
  0
DICTIONARY
  5
B
330
0
100
AcDbDictionary
281
     1
  3
ACAD_COLOR
350
41
  3
ACAD_GROUP
350
3C
  3
ACAD_LAYOUT
350
12
  3
ACAD_MATERIAL
350
D
  3
ACAD_MLINESTYLE
350
3D
  3
ACAD_PLOTSETTINGS
350
3E
  3
ACAD_PLOTSTYLENAME
350
A
  3
ACAD_SCALELIST
350
42
  3
ACAD_TABLESTYLE
350
43
  3
ACAD_VISUALSTYLE
350
15
  3
ACDB_RECOMPOSE_DATA
350
2C9
  3
AcDbVariableDictionary
350
2C0
  3
CONLABELDictionary
350
297
  3
CONLDEFDictionary
350
286
  0
DICTIONARY
  5
1E
330
1D
100
AcDbDictionary
280
     1
281
     1
  3
ACAD_LAYERFILTERS
360
1F
  3
ACAD_LAYERSTATES
360
20
  3
ACLYDICTIONARY
360
22
  0
DICTIONARY
  5
7
330
6
100
AcDbDictionary
280
     1
281
     1
  3
ADSK_XREC_LAYER_RECONCILED
360
8
  0
DICTIONARY
  5
6D
330
6C
100
AcDbDictionary
280
     1
281
     1
  3
ADSK_XREC_LAYER_RECONCILED
360
6E
  0
DICTIONARY
  5
45
330
44
100
AcDbDictionary
280
     1
281
     1
  3
ADSK_XREC_LAYER_RECONCILED
360
46
  0
DICTIONARY
  5
68
330
67
100
AcDbDictionary
280
     1
281
     1
  3
ADSK_XREC_LAYER_RECONCILED
360
69
  0
DICTIONARY
  5
63
330
62
100
AcDbDictionary
280
     1
281
     1
  3
ADSK_XREC_LAYER_RECONCILED
360
64
  0
DICTIONARY
  5
3
330
2
100
AcDbDictionary
280
     1
281
     1
  3
ACAD_SORTENTS
360
285
  0
DICTIONARY
  5
33
330
32
100
AcDbDictionary
280
     1
281
     1
  3
ACAD_SORTENTS
360
284
  0
DICTIONARY
  5
2D4
330
6F
100
AcDbDictionary
280
     1
281
     1
  3
ACAD_MTEXT_RT
360
2D5
  0
DICTIONARY
  5
2D6
330
73
100
AcDbDictionary
280
     1
281
     1
  3
ACAD_MTEXT_RT
360
2D7
  0
DICTIONARY
  5
41
102
{ACAD_REACTORS
330
B
102
}
330
B
100
AcDbDictionary
281
     1
  0
DICTIONARY
  5
3C
102
{ACAD_REACTORS
330
B
102
}
330
B
100
AcDbDictionary
281
     1
  0
DICTIONARY
  5
12
102
{ACAD_REACTORS
330
B
102
}
330
B
100
AcDbDictionary
281
     1
  3
Layout1
350
1A
  3
Model
350
11
  0
DICTIONARY
  5
D
102
{ACAD_REACTORS
330
B
102
}
330
B
100
AcDbDictionary
281
     1
  3
ByBlock
350
40
  3
ByLayer
350
3F
  3
Global
350
C
  0
DICTIONARY
  5
3D
102
{ACAD_REACTORS
330
B
102
}
330
B
100
AcDbDictionary
281
     1
  3
Standard
350
47
  0
DICTIONARY
  5
3E
102
{ACAD_REACTORS
330
B
102
}
330
B
100
AcDbDictionary
281
     1
  0
ACDBDICTIONARYWDFLT
  5
A
102
{ACAD_REACTORS
330
B
102
}
330
B
100
AcDbDictionary
281
     1
  3
Normal
350
9
100
AcDbDictionaryWithDefault
340
9
  0
DICTIONARY
  5
42
102
{ACAD_REACTORS
330
B
102
}
330
B
100
AcDbDictionary
281
     1
  3
A0
350
4C
  3
A1
350
4D
  3
A2
350
4E
  3
A3
350
4F
  3
A4
350
50
  3
A5
350
51
  3
A6
350
52
  3
A7
350
53
  3
A8
350
54
  3
A9
350
55
  3
B0
350
56
  3
B1
350
57
  3
B2
350
58
  3
B3
350
59
  3
B4
350
5A
  3
B5
350
5B
  3
B6
350
5C
  3
B7
350
5D
  3
B8
350
5E
  3
B9
350
5F
  3
C0
350
60
  0
DICTIONARY
  5
43
102
{ACAD_REACTORS
330
B
102
}
330
B
100
AcDbDictionary
281
     1
  3
Standard
350
48
  0
DICTIONARY
  5
15
102
{ACAD_REACTORS
330
B
102
}
330
B
100
AcDbDictionary
281
     1
  3
2dWireframe
350
14
  3
3dWireframe
350
4B
  3
Realistic
350
4A
  0
XRECORD
  5
2C9
102
{ACAD_REACTORS
330
B
102
}
330
B
100
AcDbXrecord
280
     1
 90
        1
330
48
  0
DICTIONARY
  5
2C0
102
{ACAD_REACTORS
330
B
102
}
330
B
100
AcDbDictionary
281
     1
  3
CANNOSCALE
350
2C3
  3
CMLEADERSTYLE
350
2C2
  3
CTABLESTYLE
350
2C1
  3
DIMASSOC
350
2C7
  3
HIDETEXT
350
2C6
  3
INDEXCTL
350
2C5
  3
SORTENTS
350
2C4
  0
DICTIONARY
  5
297
102
{ACAD_REACTORS
330
B
102
}
330
B
100
AcDbDictionary
281
     1
  3
_el_wzb_Left_nazw_romans16
350
2BB
  3
_elementy_wiezby_SKROT_Romans16
350
2BA
  3
_materialy_przegrod_pl_Label1
350
2B9
  3
_nazwy_przegrod_romans18
350
2B8
  3
_nazwy_rysunkow_Arial37
350
2B7
  3
_nazwy_rysunkow_Romans18
350
2B6
  3
_opisy_rozne_II_Label1
350
2B5
  3
_opisy_rozne_II_Link1Label1
350
2B4
  3
_posadzki_do_zestawienia_pomieszczen_Romans17
350
2B3
  3
_rozne_opisy_rys_R16_right
350
2B2
  3
_rozne_opisy_rys_Romans12
350
2B1
  3
_rozne_opisy_rys_Romans16
350
2B0
  3
_tabelka_-_inform_i_etykiety_Romans13
350
2AF
  3
_tabelka_Arial15-center
350
2AE
  3
_tabelka_Arial151
350
2AD
  3
_tabelka_Romans 10
350
2AC
  3
_tabelka_Romans13
350
2AB
  3
_tabelka_Romans19
350
2AA
  3
ALFABET-Arial20
350
2A9
  3
ALFABET-Arial26
350
2A8
  3
ALFABET-Arial37
350
2A7
  3
Arial_27
350
2A6
  3
jednostki-Arial18
350
2A5
  3
jednostki-Arial30
350
2A4
  3
jednostki-Romans16
350
2A3
  3
miesiace-Romans17
350
2A2
  3
pomieszczenia-Arial 15
350
2A1
  3
pomieszczenia-Romans17
350
2A0
  3
romans16
350
29F
  3
Romans_17
350
29E
  3
stolarka-Arial14
350
29D
  3
stolarka-Romans1607
350
29C
  3
stolarka-Romans1608
350
29B
  3
stolarkaLabel1
350
29A
  3
tbl_PRZEGRODY
350
299
  3
uwag_og_na_ark_Arial18
350
298
  0
DICTIONARY
  5
286
102
{ACAD_REACTORS
330
B
102
}
330
B
100
AcDbDictionary
281
     1
  3
_elementy_wiezby_Link1
350
296
  3
_materialy_przegrod_pl_Link1
350
295
  3
_nazwy_przegrod_pl_Link1
350
294
  3
_nazwy_rysunkow_Arial37
350
293
  3
_opisy_rozne_II_Link1
350
292
  3
_opisy_rozne_II_Link2
350
291
  3
_posadzki_do_zestawienia_pomieszczen_Link1
350
290
  3
_rozne_opisy_rys_Link1
350
28F
  3
_tabelka_-_inform_i_etykiety_Link1
350
28E
  3
_uwagi_ogolne_na_arkuszu_Link1
350
28D
  3
ALFABETLink1
350
28C
  3
jednostkiLink1
350
28B
  3
miesiaceLink1
350
28A
  3
pomieszczeniaLink1
350
289
  3
stolarkaLink1
350
288
  3
tbl_PRZEGRODYLink1
350
287
  0
DICTIONARY
  5
1F
102
{ACAD_REACTORS
330
1E
102
}
330
1E
100
AcDbDictionary
281
     1
  0
DICTIONARY
  5
20
102
{ACAD_REACTORS
330
1E
102
}
330
1E
100
AcDbDictionary
281
     1
1001
AcLayerTools
1000
A
1000
0
  0
DICTIONARY
  5
22
102
{ACAD_REACTORS
330
1E
102
}
330
1E
100
AcDbDictionary
281
     1
1001
ACAD
1000
<All
  0
XRECORD
  5
8
102
{ACAD_REACTORS
330
7
102
}
330
7
100
AcDbXrecord
280
     1
290
     1
  0
XRECORD
  5
6E
102
{ACAD_REACTORS
330
6D
102
}
330
6D
100
AcDbXrecord
280
     1
290
     1
  0
XRECORD
  5
46
102
{ACAD_REACTORS
330
45
102
}
330
45
100
AcDbXrecord
280
     1
290
     1
  0
XRECORD
  5
69
102
{ACAD_REACTORS
330
68
102
}
330
68
100
AcDbXrecord
280
     1
290
     1
  0
XRECORD
  5
64
102
{ACAD_REACTORS
330
63
102
}
330
63
100
AcDbXrecord
280
     1
290
     1
  0
SORTENTSTABLE
  5
285
102
{ACAD_REACTORS
330
3
102
}
330
3
100
AcDbSortentsTable
330
2
  0
SORTENTSTABLE
  5
284
102
{ACAD_REACTORS
330
33
102
}
330
33
100
AcDbSortentsTable
330
32
  0
XRECORD
  5
2D5
102
{ACAD_REACTORS
330
2D4
102
}
330
2D4
100
AcDbXrecord
280
     1
 40
264312.0
  1
{\fArial|b0|i0|c238|p34;MOŻNA WKLEIĆ DO PROJEKTU ZAGOSPODAROWANIA TERENU}
  0
XRECORD
  5
2D7
102
{ACAD_REACTORS
330
2D6
102
}
330
2D6
100
AcDbXrecord
280
     1
 40
106589.0
  1
{\fArial|b0|i0|c238|p34;OŚ ODBICIA LUSTRZANEGO}
  0
LAYOUT
  5
1A
102
{ACAD_XDICTIONARY
360
1B
102
}
102
{ACAD_REACTORS
330
12
102
}
330
12
100
AcDbPlotSettings
  1

  2
none_device
  4
Letter_(8.50_x_11.00_Inches)
  6

 40
6.349999904632568
 41
6.349999904632568
 42
6.350006103515625
 43
6.350006103515625
 44
215.8999938964844
 45
279.3999938964844
 46
0.0
 47
0.0
 48
0.0
 49
0.0
140
0.0
141
0.0
142
1.0
143
1.0
 70
   688
 72
     0
 73
     1
 74
     5
  7
monochrome_140.ctb
 75
    16
147
1.0
148
0.0
149
0.0
100
AcDbLayout
  1
Layout1
 70
     1
 71
     1
 10
-0.2500002402958907
 20
-0.2499999962453767
 11
10.74999951940822
 21
8.249999763458733
 12
0.0
 22
0.0
 32
0.0
 14
1.049999952316284
 24
0.7999999523162842
 34
0.0
 15
9.449999570846559
 25
7.199999570846558
 35
0.0
146
0.0
 13
0.0
 23
0.0
 33
0.0
 16
1.0
 26
0.0
 36
0.0
 17
0.0
 27
1.0
 37
0.0
 76
     0
330
17
1001
ACAD_PSEXT
1000
None
1000
None
1000
Not applicable
1000
The layout will not be plotted unless a new plotter configuration name is selected.
1070
     0
  0
LAYOUT
  5
11
102
{ACAD_XDICTIONARY
360
2CC
102
}
102
{ACAD_REACTORS
330
12
102
}
330
12
100
AcDbPlotSettings
  1

  2
PDFCreator
  4
A4
  6
RODODENDRON 5
 40
3.174999952316284
 41
3.174999952316284
 42
3.175003051757812
 43
3.17498779296875
 44
209.8886566162109
 45
297.0530090332031
 46
-0.230673193931878
 47
5.151510643959028
 48
215187.2000545948
 49
127657.5157057546
140
225387.2000545948
141
141677.5157057546
142
1.0
143
50.0
 70
 11956
 72
     1
 73
     0
 74
     4
  7
monochrome_140.ctb
 75
    25
147
0.02
148
-215187.2000545948
149
-127657.5157057546
100
AcDbLayout
  1
Model
 70
     1
 71
     0
 10
0.0
 20
0.0
 11
12.0
 21
9.0
 12
0.0
 22
0.0
 32
0.0
 14
0.0
 24
0.0
 34
0.0
 15
0.0
 25
0.0
 35
0.0
146
0.0
 13
0.0
 23
0.0
 33
0.0
 16
1.0
 26
0.0
 36
0.0
 17
0.0
 27
1.0
 37
0.0
 76
     0
330
2
331
2D
1001
ACAD_PSEXT
1000
PDFCreator
1000
PDFCreator
1000
pdfcmon
1000
PDFCreator Printer
1070
     0
  0
MATERIAL
  5
40
102
{ACAD_XDICTIONARY
360
2D1
102
}
102
{ACAD_REACTORS
330
D
102
}
330
D
100
AcDbMaterial
  1
ByBlock
 73
     1
 78
     1
172
     1
176
     1
270
     1
274
     1
  0
MATERIAL
  5
3F
102
{ACAD_XDICTIONARY
360
2CF
102
}
102
{ACAD_REACTORS
330
D
102
}
330
D
100
AcDbMaterial
  1
ByLayer
 73
     1
 78
     1
172
     1
176
     1
270
     1
274
     1
  0
MATERIAL
  5
C
102
{ACAD_XDICTIONARY
360
2CA
102
}
102
{ACAD_REACTORS
330
D
102
}
330
D
100
AcDbMaterial
  1
Global
 73
     1
 78
     1
172
     1
176
     1
270
     1
274
     1
  0
MLINESTYLE
  5
47
102
{ACAD_REACTORS
330
3D
102
}
330
3D
100
AcDbMlineStyle
  2
STANDARD
 70
     0
  3

 62
   256
 51
90.0
 52
90.0
 71
     2
 49
0.5
 62
   256
  6
BYLAYER
 49
-0.5
 62
   256
  6
BYLAYER
  0
ACDBPLACEHOLDER
  5
9
102
{ACAD_REACTORS
330
A
102
}
330
A
  0
SCALE
  5
4C
102
{ACAD_REACTORS
330
42
102
}
330
42
100
AcDbScale
 70
     0
300
1:1
140
1.0
141
0.1
290
     0
  0
SCALE
  5
4D
102
{ACAD_REACTORS
330
42
102
}
330
42
100
AcDbScale
 70
     0
300
1:2
140
1.0
141
0.2
290
     0
  0
SCALE
  5
4E
102
{ACAD_REACTORS
330
42
102
}
330
42
100
AcDbScale
 70
     0
300
1:2.5
140
1.0
141
0.25
290
     0
  0
SCALE
  5
4F
102
{ACAD_REACTORS
330
42
102
}
330
42
100
AcDbScale
 70
     0
300
1:5
140
1.0
141
0.5
290
     0
  0
SCALE
  5
50
102
{ACAD_REACTORS
330
42
102
}
330
42
100
AcDbScale
 70
     0
300
1:7.5
140
1.0
141
0.75
290
     0
  0
SCALE
  5
51
102
{ACAD_REACTORS
330
42
102
}
330
42
100
AcDbScale
 70
     0
300
1:10
140
1.0
141
1.0
290
     1
  0
SCALE
  5
52
102
{ACAD_REACTORS
330
42
102
}
330
42
100
AcDbScale
 70
     0
300
1:20
140
1.0
141
2.0
290
     0
  0
SCALE
  5
53
102
{ACAD_REACTORS
330
42
102
}
330
42
100
AcDbScale
 70
     0
300
1:25
140
1.0
141
2.5
290
     0
  0
SCALE
  5
54
102
{ACAD_REACTORS
330
42
102
}
330
42
100
AcDbScale
 70
     0
300
1:50
140
1.0
141
5.0
290
     0
  0
SCALE
  5
55
102
{ACAD_REACTORS
330
42
102
}
330
42
100
AcDbScale
 70
     0
300
1:75
140
1.0
141
7.5
290
     0
  0
SCALE
  5
56
102
{ACAD_REACTORS
330
42
102
}
330
42
100
AcDbScale
 70
     0
300
1:100
140
1.0
141
10.0
290
     0
  0
SCALE
  5
57
102
{ACAD_REACTORS
330
42
102
}
330
42
100
AcDbScale
 70
     0
300
1:150
140
1.0
141
15.0
290
     0
  0
SCALE
  5
58
102
{ACAD_REACTORS
330
42
102
}
330
42
100
AcDbScale
 70
     0
300
1:200
140
1.0
141
20.0
290
     0
  0
SCALE
  5
59
102
{ACAD_REACTORS
330
42
102
}
330
42
100
AcDbScale
 70
     0
300
1:250
140
1.0
141
25.0
290
     0
  0
SCALE
  5
5A
102
{ACAD_REACTORS
330
42
102
}
330
42
100
AcDbScale
 70
     0
300
1:500
140
1.0
141
50.0
290
     0
  0
SCALE
  5
5B
102
{ACAD_REACTORS
330
42
102
}
330
42
100
AcDbScale
 70
     0
300
1:750
140
1.0
141
75.0
290
     0
  0
SCALE
  5
5C
102
{ACAD_REACTORS
330
42
102
}
330
42
100
AcDbScale
 70
     0
300
1:1000
140
1.0
141
100.0
290
     0
  0
SCALE
  5
5D
102
{ACAD_REACTORS
330
42
102
}
330
42
100
AcDbScale
 70
     0
300
1:1250
140
1.0
141
125.0
290
     0
  0
SCALE
  5
5E
102
{ACAD_REACTORS
330
42
102
}
330
42
100
AcDbScale
 70
     0
300
1:2000
140
1.0
141
200.0
290
     0
  0
SCALE
  5
5F
102
{ACAD_REACTORS
330
42
102
}
330
42
100
AcDbScale
 70
     0
300
1:2500
140
1.0
141
250.0
290
     0
  0
SCALE
  5
60
102
{ACAD_REACTORS
330
42
102
}
330
42
100
AcDbScale
 70
     0
300
1:5000
140
1.0
141
500.0
290
     0
  0
TABLESTYLE
  5
48
102
{ACAD_XDICTIONARY
360
49
102
}
102
{ACAD_REACTORS
330
43
102
}
330
43
100
AcDbTableStyle
  3
Standard
 70
     0
 71
     0
 40
0.06
 41
0.06
280
     0
281
     0
  7
Standard
140
0.18
170
     2
 62
     0
 63
     7
283
     0
274
    -2
284
     1
 64
     0
275
    -2
285
     1
 65
     0
276
    -2
286
     1
 66
     0
277
    -2
287
     1
 67
     0
278
    -2
288
     1
 68
     0
279
    -2
289
     1
 69
     0
  7
Standard
140
0.25
170
     5
 62
     0
 63
     7
283
     0
274
    -2
284
     1
 64
     0
275
    -2
285
     1
 65
     0
276
    -2
286
     1
 66
     0
277
    -2
287
     1
 67
     0
278
    -2
288
     1
 68
     0
279
    -2
289
     1
 69
     0
  7
Standard
140
0.18
170
     5
 62
     0
 63
     7
283
     0
274
    -2
284
     1
 64
     0
275
    -2
285
     1
 65
     0
276
    -2
286
     1
 66
     0
277
    -2
287
     1
 67
     0
278
    -2
288
     1
 68
     0
279
    -2
289
     1
 69
     0
  0
VISUALSTYLE
  5
14
102
{ACAD_REACTORS
330
15
102
}
330
15
100
AcDbVisualStyle
  2
2dWireframe
 70
     4
 71
     0
 72
     2
 73
     0
 90
        0
 40
-0.6
 41
-30.0
 62
     5
 63
     7
 74
     1
 91
        4
 64
     7
 65
   257
 75
     1
175
     1
 42
1.0
 92
        0
 66
   257
 43
1.0
 76
     1
 77
     6
 78
     2
 67
     7
 79
     5
170
     0
171
     0
290
     0
174
     0
 93
        1
 44
0.0
173
     0
291
     0
 45
0.0
1001
ACAD
1000
AcDbSavedByObjectVersion
1070
     0
  0
VISUALSTYLE
  5
4B
102
{ACAD_REACTORS
330
15
102
}
330
15
100
AcDbVisualStyle
  2
3dWireframe
 70
     5
 71
     0
 72
     2
 73
     0
 90
        0
 40
-0.6
 41
-30.0
 62
     5
 63
     7
 74
     1
 91
        4
 64
     7
 65
   257
 75
     1
175
     1
 42
1.0
 92
        0
 66
   257
 43
1.0
 76
     1
 77
     6
 78
     2
 67
     7
 79
     5
170
     0
171
     0
290
     0
174
     0
 93
        1
 44
0.0
173
     0
291
     0
 45
0.0
1001
ACAD
1000
AcDbSavedByObjectVersion
1070
     0
  0
VISUALSTYLE
  5
4A
102
{ACAD_REACTORS
330
15
102
}
330
15
100
AcDbVisualStyle
  2
Realistic
 70
     8
 71
     2
 72
     2
 73
     0
 90
        0
 40
-0.6
 41
-30.0
 62
     5
 63
     7
 74
     1
 91
        0
 64
     7
 65
   257
 75
     1
175
     1
 42
1.0
 92
        8
 66
     8
 43
1.0
 76
     1
 77
     6
 78
     2
 67
     7
 79
     5
170
     0
171
     0
290
     0
174
     0
 93
       13
 44
0.0
173
     0
291
     0
 45
0.0
1001
ACAD
1000
AcDbSavedByObjectVersion
1070
     0
  0
DICTIONARYVAR
  5
2C3
102
{ACAD_REACTORS
330
2C0
102
}
330
2C0
100
DictionaryVariables
280
     0
  1
1:100
  0
DICTIONARYVAR
  5
2C2
102
{ACAD_REACTORS
330
2C0
102
}
330
2C0
100
DictionaryVariables
280
     0
  1
STANDARD
  0
DICTIONARYVAR
  5
2C1
102
{ACAD_REACTORS
330
2C0
102
}
330
2C0
100
DictionaryVariables
280
     0
  1
STANDARD
  0
DICTIONARYVAR
  5
2C7
102
{ACAD_REACTORS
330
2C0
102
}
330
2C0
100
DictionaryVariables
280
     0
  1
1
  0
DICTIONARYVAR
  5
2C6
102
{ACAD_REACTORS
330
2C0
102
}
330
2C0
100
DictionaryVariables
280
     0
  1
1
  0
DICTIONARYVAR
  5
2C5
102
{ACAD_REACTORS
330
2C0
102
}
330
2C0
100
DictionaryVariables
280
     0
  1
0
  0
DICTIONARYVAR
  5
2C4
102
{ACAD_REACTORS
330
2C0
102
}
330
2C0
100
DictionaryVariables
280
     0
  1
127
  0
OBJECT_PTR
  5
2BB
102
{ACAD_REACTORS
330
297
102
}
330
297
1001
DCO15
1000
jet_dbsamples..."elementy wiezby"(_el_wzb_Left_nazw_romans16)
1000
nazw_el_wiezb
1040
1.0
1040
1.0
1040
0.0
1040
0.0
1040
0.0
1040
0.0
1040
0.0
1040
15.0
1071
        0
1071
      256
1071
        7
1071
        5
1071
        1
1000
ROMANS
1000
ByLayer
1000
#(nazw_el_wiezb)
  0
OBJECT_PTR
  5
2BA
102
{ACAD_REACTORS
330
297
102
}
330
297
1001
DCO15
1000
jet_dbsamples..."elementy wiezby"(_elementy_wiezby_SKROT_Romans16)
1000
skrot_el_wiezb
1040
1.0
1040
1.0
1040
0.0
1040
0.0
1040
0.0
1040
0.0
1040
0.0
1040
16.0
1071
        0
1071
      256
1071
        9
1071
        5
1071
        1
1000
ROMANS
1000
ByLayer
1000
#(skrot_el_wiezb)
  0
OBJECT_PTR
  5
2B9
102
{ACAD_REACTORS
330
297
102
}
330
297
1001
DCO15
1000
jet_dbsamples..."materialy przegrod pl"(_materialy_przegrod_pl_Label1)
1000
nazw_mat
1040
1.0
1040
1.0
1040
0.0
1040
0.0
1040
0.0
1040
0.0
1040
0.0
1040
17.0
1071
        0
1071
      256
1071
        7
1071
        5
1071
        1
1000
ROMANS
1000
ByLayer
1000
#(nazw_mat)
  0
OBJECT_PTR
  5
2B8
102
{ACAD_REACTORS
330
297
102
}
330
297
1001
DCO15
1000
jet_dbsamples..."nazwy przegrod pl"(_nazwy_przegrod_romans18)
1000
nzw_przegrody
1040
1.0
1040
1.0
1040
0.0
1040
0.0
1040
0.0
1040
0.0
1040
0.0
1040
17.0
1071
        0
1071
      256
1071
        7
1071
        5
1071
        1
1000
ROMANS
1000
ByLayer
1000
{\L\C2;#(nzw_przegrody)}
  0
OBJECT_PTR
  5
2B7
102
{ACAD_REACTORS
330
297
102
}
330
297
1001
DCO15
1000
jet_dbsamples..."nazwy rysunkow"(_nazwy_rysunkow_Arial37)
1000
1linia
1000
2linia
1000
3linia
1040
1.0
1040
1.0
1040
0.0
1040
0.0
1040
0.0
1040
0.0
1040
0.0
1040
37.0
1071
        0
1071
      256
1071
        1
1071
        5
1071
        1
1000
ROMANS
1000
ByLayer
1000
{\fArial|b0|i0|c238|p34;#(1linia)\P#(2linia)\P#(3linia)}
  0
OBJECT_PTR
  5
2B6
102
{ACAD_REACTORS
330
297
102
}
330
297
1001
DCO15
1000
jet_dbsamples..."nazwy rysunkow"(_nazwy_rysunkow_Romans18)
1000
1linia
1000
2linia
1000
3linia
1040
1.0
1040
1.0
1040
0.0
1040
0.0
1040
0.0
1040
0.0
1040
0.0
1040
18.0
1071
        0
1071
      256
1071
        2
1071
        5
1071
        1
1000
ROMANS
1000
ByLayer
1000
{\Fromans.shx|c238;#(1linia)\P#(2linia)\P#(3linia)}
  0
OBJECT_PTR
  5
2B5
102
{ACAD_REACTORS
330
297
102
}
330
297
1001
DCO15
1000
jet_dbsamples..."opisy rozne II"(_opisy_rozne_II_Label1)
1000
opis różny
1040
1.0
1040
1.0
1040
0.0
1040
0.0
1040
0.0
1040
0.0
1040
0.0
1040
10.0
1071
        0
1071
      256
1071
        1
1071
        5
1071
        1
1000
ROMANS
1000
ByLayer
1000
#(opis różny)
  0
OBJECT_PTR
  5
2B4
102
{ACAD_REACTORS
330
297
102
}
330
297
1001
DCO15
1000
jet_dbsamples..."opisy rozne II"(_opisy_rozne_II_Link1Label1)
1000
opis różny
1040
1.0
1040
1.0
1040
0.0
1040
0.0
1040
0.0
1040
0.0
1040
0.0
1040
10.0
1071
        0
1071
      256
1071
        1
1071
        5
1071
        1
1000
ROMANS
1000
ByLayer
1000
#(opis różny)
  0
OBJECT_PTR
  5
2B3
102
{ACAD_REACTORS
330
297
102
}
330
297
1001
DCO15
1000
jet_dbsamples..."posadzki do zestawienia pomieszczen"(_posadzki_do_zestawienia_pomieszczen_Romans17)
1000
nazwa_pos
1040
1.0
1040
1.0
1040
0.0
1040
0.0
1040
0.0
1040
0.0
1040
0.0
1040
17.0
1071
        0
1071
      256
1071
        7
1071
        5
1071
        1
1000
ROMANS
1000
ByLayer
1000
#(nazwa_pos)
  0
OBJECT_PTR
  5
2B2
102
{ACAD_REACTORS
330
297
102
}
330
297
1001
DCO15
1000
jet_dbsamples..."rozne opisy rys"(_rozne_opisy_rys_R16_right)
1000
1L
1000
2L
1000
3L
1000
4L
1000
5L
1040
1.0
1040
1.0
1040
0.0
1040
0.0
1040
0.0
1040
0.0
1040
0.0
1040
16.0
1071
        0
1071
      256
1071
        3
1071
        5
1071
        1
1000
ROMANS
1000
ByLayer
1000
#(1L)\P#(2L)\P#(3L)\P#(4L)\P#(5L)
  0
OBJECT_PTR
  5
2B1
102
{ACAD_REACTORS
330
297
102
}
330
297
1001
DCO15
1000
jet_dbsamples..."rozne opisy rys"(_rozne_opisy_rys_Romans12)
1000
1L
1000
2L
1000
3L
1000
4L
1000
5L
1040
1.0
1040
1.0
1040
0.0
1040
0.0
1040
0.0
1040
0.0
1040
0.0
1040
13.0
1071
        0
1071
      256
1071
        1
1071
        5
1071
        1
1000
ROMANS
1000
ByLayer
1000
#(1L)\P#(2L)\P#(3L)\P#(4L)\P#(5L)
  0
OBJECT_PTR
  5
2B0
102
{ACAD_REACTORS
330
297
102
}
330
297
1001
DCO15
1000
jet_dbsamples..."rozne opisy rys"(_rozne_opisy_rys_Romans16)
1000
1L
1000
2L
1000
3L
1000
4L
1000
5L
1040
1.0
1040
1.0
1040
0.0
1040
0.0
1040
0.0
1040
0.0
1040
0.0
1040
16.0
1071
        0
1071
      256
1071
        1
1071
        5
1071
        1
1000
ROMANS
1000
ByLayer
1000
#(1L)\P#(2L)\P#(3L)\P#(4L)\P#(5L)
  0
OBJECT_PTR
  5
2AF
102
{ACAD_REACTORS
330
297
102
}
330
297
1001
DCO15
1000
jet_dbsamples..."tabelka - inform i etykiety"(_tabelka_-_inform_i_etykiety_Romans13)
1000
1linia
1000
2linia_ewentualna
1000
3linia_ewentualna
1040
1.0
1040
1.0
1040
0.0
1040
0.0
1040
0.0
1040
0.0
1040
0.0
1040
13.0
1071
        0
1071
      256
1071
        1
1071
        5
1071
        1
1000
ROMANS
1000
ByLayer
1000
#(1linia)\P#(2linia_ewentualna)\P#(3linia_ewentualna)
  0
OBJECT_PTR
  5
2AE
102
{ACAD_REACTORS
330
297
102
}
330
297
1001
DCO15
1000
jet_dbsamples..."tabelka - inform i etykiety"(_tabelka_Arial15-center)
1000
1linia
1000
2linia_ewentualna
1000
3linia_ewentualna
1040
1.0
1040
1.0
1040
0.0
1040
0.0
1040
0.0
1040
0.0
1040
0.0
1040
15.0
1071
        0
1071
      256
1071
        2
1071
        5
1071
        1
1000
ROMANS
1000
ByLayer
1000
{\fArial|b0|i0|c238|p34;#(1linia)\P#(2linia_ewentualna)\P#(3linia_ewentualna)}
  0
OBJECT_PTR
  5
2AD
102
{ACAD_REACTORS
330
297
102
}
330
297
1001
DCO15
1000
jet_dbsamples..."tabelka - inform i etykiety"(_tabelka_Arial151)
1000
1linia
1040
1.0
1040
1.0
1040
0.0
1040
0.0
1040
0.0
1040
0.0
1040
0.0
1040
15.0
1071
        0
1071
      256
1071
        1
1071
        5
1071
        1
1000
ARIAL
1000
ByLayer
1000
{\fArial|b0|i0|c238|p34;#(1linia)}
  0
OBJECT_PTR
  5
2AC
102
{ACAD_REACTORS
330
297
102
}
330
297
1001
DCO15
1000
jet_dbsamples..."tabelka - inform i etykiety"(_tabelka_Romans 10)
1000
1linia
1000
2linia_ewentualna
1000
3linia_ewentualna
1040
1.0
1040
1.0
1040
0.0
1040
0.0
1040
0.0
1040
0.0
1040
0.0
1040
10.0
1071
        0
1071
      256
1071
        1
1071
        5
1071
        1
1000
ARIAL
1000
ByLayer
1000
#(1linia)\P#(2linia_ewentualna)\P#(3linia_ewentualna)
  0
OBJECT_PTR
  5
2AB
102
{ACAD_REACTORS
330
297
102
}
330
297
1001
DCO15
1000
jet_dbsamples..."tabelka - inform i etykiety"(_tabelka_Romans13)
1000
1linia
1000
2linia_ewentualna
1000
3linia_ewentualna
1040
1.0
1040
1.0
1040
0.0
1040
0.0
1040
0.0
1040
0.0
1040
0.0
1040
13.0
1071
        0
1071
      256
1071
        1
1071
        5
1071
        1
1000
ARIAL
1000
ByLayer
1000
#(1linia)\P#(2linia_ewentualna)\P#(3linia_ewentualna)
  0
OBJECT_PTR
  5
2AA
102
{ACAD_REACTORS
330
297
102
}
330
297
1001
DCO15
1000
jet_dbsamples..."tabelka - inform i etykiety"(_tabelka_Romans19)
1000
1linia
1000
2linia_ewentualna
1000
3linia_ewentualna
1040
1.0
1040
1.0
1040
0.0
1040
0.0
1040
0.0
1040
0.0
1040
0.0
1040
19.0
1071
        0
1071
      256
1071
        2
1071
        5
1071
        1
1000
ARIAL
1000
ByLayer
1000
#(1linia)\P#(2linia_ewentualna)\P#(3linia_ewentualna)
  0
OBJECT_PTR
  5
2A9
102
{ACAD_REACTORS
330
297
102
}
330
297
1001
DCO15
1000
jet_dbsamples...ALFABET(ALFABET-Arial20)
1000
liter_alf
1040
1.0
1040
1.0
1040
0.0
1040
0.0
1040
0.0
1040
0.0
1040
0.0
1040
20.0
1071
        0
1071
      256
1071
        7
1071
        5
1071
        1
1000
ARIAL
1000
ByLayer
1000
{\fArial|b0|i0|c238|p34;#(liter_alf)}
  0
OBJECT_PTR
  5
2A8
102
{ACAD_REACTORS
330
297
102
}
330
297
1001
DCO15
1000
jet_dbsamples...ALFABET(ALFABET-Arial26)
1000
liter_alf
1040
1.0
1040
1.0
1040
0.0
1040
0.0
1040
0.0
1040
0.0
1040
0.0
1040
26.0
1071
        0
1071
      256
1071
        7
1071
        5
1071
        1
1000
ARIAL
1000
ByLayer
1000
{\fArial|b0|i0|c238|p34;\C140;#(liter_alf)}
  0
OBJECT_PTR
  5
2A7
102
{ACAD_REACTORS
330
297
102
}
330
297
1001
DCO15
1000
jet_dbsamples...ALFABET(ALFABET-Arial37)
1000
liter_alf
1040
1.0
1040
1.0
1040
0.0
1040
0.0
1040
0.0
1040
0.0
1040
0.0
1040
37.0
1071
        0
1071
      256
1071
        7
1071
        5
1071
        1
1000
ARIAL
1000
ByLayer
1000
{\fArial|b0|i0|c238|p34;#(liter_alf)}
  0
OBJECT_PTR
  5
2A6
102
{ACAD_REACTORS
330
297
102
}
330
297
1001
DCO15
1000
jet_dbsamples..."uwagi ogolne na arkuszu"(Arial_27)
1000
1naglowek
1000
1linia
1000
2linia
1000
3linia
1000
4linia
1000
5linia
1000
6linia
1000
7linia
1000
8linia
1000
9linia
1000
10linia
1000
11linia
1000
12linia
1040
1.0
1040
1.0
1040
0.0
1040
0.0
1040
0.0
1040
0.0
1040
0.0
1040
26.0
1071
        0
1071
      256
1071
        1
1071
        5
1071
        1
1000
ARIAL
1000
ByLayer
1000
{\fArial|b0|i0|c238|p34;#(1naglowek)\P#(1linia)\P#(2linia)\P#(3linia)\P#(4linia)\P#(5linia)\P#(6linia)\P#(7linia)\P#(8linia)\P#(9linia)\P#(10linia)\P#(11linia)\P#(12linia)}
  0
OBJECT_PTR
  5
2A5
102
{ACAD_REACTORS
330
297
102
}
330
297
1001
DCO15
1000
jet_dbsamples...jednostki(jednostki-Arial18)
1000
jedn
1040
1.0
1040
1.0
1040
0.0
1040
0.0
1040
0.0
1040
0.0
1040
0.0
1040
18.0
1071
        0
1071
      256
1071
        7
1071
        5
1071
        1
1000
ARIAL
1000
ByLayer
1000
{\fArial|b0|i0|c238|p34;#(jedn)}
  0
OBJECT_PTR
  5
2A4
102
{ACAD_REACTORS
330
297
102
}
330
297
1001
DCO15
1000
jet_dbsamples...jednostki(jednostki-Arial30)
1000
jedn
1040
1.0
1040
1.0
1040
0.0
1040
0.0
1040
0.0
1040
0.0
1040
0.0
1040
30.0
1071
        0
1071
      256
1071
        7
1071
        5
1071
        1
1000
ARIAL
1000
ByLayer
1000
{\fArial|b0|i0|c238|p34;#(jedn)}
  0
OBJECT_PTR
  5
2A3
102
{ACAD_REACTORS
330
297
102
}
330
297
1001
DCO15
1000
jet_dbsamples...jednostki(jednostki-Romans16)
1000
jedn
1040
1.0
1040
1.0
1040
0.0
1040
0.0
1040
0.0
1040
0.0
1040
0.0
1040
16.0
1071
        0
1071
      256
1071
        7
1071
        5
1071
        1
1000
ARIAL
1000
ByLayer
1000
#(jedn)
  0
OBJECT_PTR
  5
2A2
102
{ACAD_REACTORS
330
297
102
}
330
297
1001
DCO15
1000
jet_dbsamples...miesiace(miesiace-Romans17)
1000
nzw_mies
1040
1.0
1040
1.0
1040
0.0
1040
0.0
1040
0.0
1040
0.0
1040
0.0
1040
17.0
1071
        0
1071
      256
1071
        1
1071
        5
1071
        1
1000
ARIAL
1000
ByLayer
1000
#(nzw_mies)
  0
OBJECT_PTR
  5
2A1
102
{ACAD_REACTORS
330
297
102
}
330
297
1001
DCO15
1000
jet_dbsamples...pomieszczenia(pomieszczenia-Arial 15)
1000
nazwa
1040
1.0
1040
1.0
1040
0.0
1040
0.0
1040
0.0
1040
0.0
1040
0.0
1040
15.0
1071
        0
1071
      256
1071
        8
1071
        5
1071
        1
1000
ARIAL
1000
ByLayer
1000
{\fArial|b0|i0|c238|p34;#(nazwa)}
  0
OBJECT_PTR
  5
2A0
102
{ACAD_REACTORS
330
297
102
}
330
297
1001
DCO15
1000
jet_dbsamples...pomieszczenia(pomieszczenia-Romans17)
1000
nazwa
1040
1.0
1040
1.0
1040
0.0
1040
0.0
1040
0.0
1040
0.0
1040
0.0
1040
17.0
1071
        0
1071
      256
1071
        7
1071
        5
1071
        1
1000
ARIAL
1000
ByLayer
1000
#(nazwa)
  0
OBJECT_PTR
  5
29F
102
{ACAD_REACTORS
330
297
102
}
330
297
1001
DCO15
1000
jet_dbsamples..."elementy wiezby"(romans16)
1000
nazw_el_wiezb
1040
1.0
1040
1.0
1040
0.0
1040
0.0
1040
0.0
1040
0.0
1040
0.0
1040
16.0
1071
        0
1071
      256
1071
        1
1071
        5
1071
        1
1000
ARIAL
1000
ByLayer
1000
#(nazw_el_wiezb)
  0
OBJECT_PTR
  5
29E
102
{ACAD_REACTORS
330
297
102
}
330
297
1001
DCO15
1000
jet_dbsamples..."uwagi ogolne na arkuszu"(Romans_17)
1000
1naglowek
1000
1linia
1000
2linia
1000
3linia
1000
4linia
1000
5linia
1000
6linia
1000
7linia
1000
8linia
1000
9linia
1000
10linia
1000
11linia
1000
12linia
1040
1.0
1040
1.0
1040
0.0
1040
0.0
1040
0.0
1040
0.0
1040
0.0
1040
17.0
1071
        0
1071
      256
1071
        1
1071
        5
1071
        1
1000
ARIAL
1000
ByLayer
1000
#(1naglowek)\P#(1linia)\P#(2linia)\P#(3linia)\P#(4linia)\P#(5linia)\P#(6linia)\P#(7linia)\P#(8linia)\P#(9linia)\P#(10linia)\P#(11linia)\P#(12linia)
  0
OBJECT_PTR
  5
29D
102
{ACAD_REACTORS
330
297
102
}
330
297
1001
DCO15
1000
jet_dbsamples...stolarka(stolarka-Arial14)
1000
STOL_TKST
1000
STOL_TKST_2linia
1040
1.0
1040
1.0
1040
0.0
1040
0.0
1040
0.0
1040
0.0
1040
0.0
1040
14.0
1071
        0
1071
      256
1071
        1
1071
        5
1071
        1
1000
ARIAL
1000
ByLayer
1000
{\fArial|b0|i0|c238|p34;#(STOL_TKST)\P#(STOL_TKST_2linia)}
  0
OBJECT_PTR
  5
29C
102
{ACAD_REACTORS
330
297
102
}
330
297
1001
DCO15
1000
jet_dbsamples...stolarka(stolarka-Romans1607)
1000
STOL_TKST
1000
STOL_TKST_2linia
1040
1.0
1040
1.0
1040
0.0
1040
0.0
1040
0.0
1040
0.0
1040
0.0
1040
16.0
1071
        0
1071
      256
1071
        5
1071
        5
1071
        1
1000
ARIAL
1000
ByLayer
1000
#(STOL_TKST)\P#(STOL_TKST_2linia)
  0
OBJECT_PTR
  5
29B
102
{ACAD_REACTORS
330
297
102
}
330
297
1001
DCO15
1000
jet_dbsamples...stolarka(stolarka-Romans1608)
1000
STOL_TKST
1000
STOL_TKST_2linia
1040
1.0
1040
1.0
1040
0.0
1040
0.0
1040
0.0
1040
0.0
1040
0.0
1040
16.0
1071
        0
1071
      256
1071
        5
1071
        5
1071
        1
1000
ROMANS
1000
ByLayer
1000
#(STOL_TKST)\P#(STOL_TKST_2linia)
  0
OBJECT_PTR
  5
29A
102
{ACAD_REACTORS
330
297
102
}
330
297
1001
DCO15
1000
jet_dbsamples...stolarka(stolarkaLabel1)
1000
STOL_TKST
1000
STOL_TKST_2linia
1040
1.0
1040
1.0
1040
0.0
1040
0.0
1040
0.0
1040
0.0
1040
0.0
1040
25.0
1071
        0
1071
      256
1071
        1
1071
        5
1071
        1
1000
ROMANS
1000
ByLayer
1000
{\fArial|b0|i0|c238|p34;#(STOL_TKST)\P#(STOL_TKST_2linia)}
  0
OBJECT_PTR
  5
299
102
{ACAD_REACTORS
330
297
102
}
330
297
1001
DCO15
1000
jet_dbsamples...tbl_PRZEGRODY(tbl_PRZEGRODY)
1000
nazwa przegrody
1000
1w
1000
2w
1000
3w
1000
4w
1000
5w
1000
6w
1000
7w
1000
8w
1000
9w
1000
10w
1000
11w
1000
12w
1000
13w
1000
14w
1000
15w
1000
16w
1040
1.0
1040
1.0
1040
0.0
1040
0.0
1040
0.0
1040
0.0
1040
0.0
1040
17.0
1071
        0
1071
      256
1071
        1
1071
        5
1071
        1
1000
ROMANS
1000
ByLayer
1000
{\Fromans.shx|c238;\L\C2;#(nazwa przegrody)\C4;\P}#(1w)\P#(2w)\P#(3w)\P#(4w)\P#(5w)\P#(6w)\P#(7w)\P#(8w)\P#(9w)\P#(10w)\P#(11w)\P#(12w)\P#(13w)\P#(14w)\P#(15w)\P#(16w)
  0
OBJECT_PTR
  5
298
102
{ACAD_REACTORS
330
297
102
}
330
297
1001
DCO15
1000
jet_dbsamples..."uwagi ogolne na arkuszu"(uwag_og_na_ark_Arial18)
1000
1naglowek
1000
1linia
1000
2linia
1000
3linia
1000
4linia
1000
5linia
1000
6linia
1000
7linia
1000
8linia
1000
9linia
1000
10linia
1000
11linia
1000
12linia
1040
1.0
1040
1.0
1040
0.0
1040
0.0
1040
0.0
1040
0.0
1040
0.0
1040
18.0
1071
        0
1071
      256
1071
        1
1071
        5
1071
        1
1000
ROMANS
1000
ByLayer
1000
{\fArial|b0|i0|c238|p34;#(1naglowek)\P#(1linia)\P#(2linia)\P#(3linia)\P#(4linia)\P#(5linia)\P#(6linia)\P#(7linia)\P#(8linia)\P#(9linia)\P#(10linia)\P#(11linia)\P#(12linia)}
  0
OBJECT_PTR
  5
296
102
{ACAD_REACTORS
330
286
102
}
330
286
1001
DCO15
1000
jet_dbsamples..."elementy wiezby"(_elementy_wiezby_Link1)
1000
IDENTYFIKATOR
1000

1000

1070
     4
1070
     0
1070
     0
1070
     0
1070
  1024
  0
OBJECT_PTR
  5
295
102
{ACAD_REACTORS
330
286
102
}
330
286
1001
DCO15
1000
jet_dbsamples..."materialy przegrod pl"(_materialy_przegrod_pl_Link1)
1000
IDENTYFIKATOR
1000

1000

1070
     4
1070
     0
1070
     0
1070
     0
1070
  1024
  0
OBJECT_PTR
  5
294
102
{ACAD_REACTORS
330
286
102
}
330
286
1001
DCO15
1000
jet_dbsamples..."nazwy przegrod pl"(_nazwy_przegrod_pl_Link1)
1000
IDENTYFIKATOR
1000

1000

1070
     4
1070
     0
1070
     0
1070
     0
1070
  1024
  0
OBJECT_PTR
  5
293
102
{ACAD_REACTORS
330
286
102
}
330
286
1001
DCO15
1000
jet_dbsamples..."nazwy rysunkow"(_nazwy_rysunkow_Arial37)
1000
IDENTYFIKATOR
1000

1000

1070
     4
1070
     0
1070
     0
1070
     0
1070
  1024
  0
OBJECT_PTR
  5
292
102
{ACAD_REACTORS
330
286
102
}
330
286
1001
DCO15
1000
jet_dbsamples..."opisy rozne II"(_opisy_rozne_II_Link1)
1000
"opis różny"
1000
1250
1000
ASCII
1070
    12
1070
   200
1070
     0
1070
     0
1070
  1024
  0
OBJECT_PTR
  5
291
102
{ACAD_REACTORS
330
286
102
}
330
286
1001
DCO15
1000
jet_dbsamples..."opisy rozne II"(_opisy_rozne_II_Link2)
1000
IDENTYFIKATOR
1000

1000

1070
     4
1070
     0
1070
     0
1070
     0
1070
  1024
  0
OBJECT_PTR
  5
290
102
{ACAD_REACTORS
330
286
102
}
330
286
1001
DCO15
1000
jet_dbsamples..."posadzki do zestawienia pomieszczen"(_posadzki_do_zestawienia_pomieszczen_Link1)
1000
IDENTYFIKATOR
1000

1000

1070
     4
1070
     0
1070
     0
1070
     0
1070
  1024
  0
OBJECT_PTR
  5
28F
102
{ACAD_REACTORS
330
286
102
}
330
286
1001
DCO15
1000
jet_dbsamples..."rozne opisy rys"(_rozne_opisy_rys_Link1)
1000
IDENTYFIKATOR
1000

1000

1070
     4
1070
     0
1070
     0
1070
     0
1070
  1024
  0
OBJECT_PTR
  5
28E
102
{ACAD_REACTORS
330
286
102
}
330
286
1001
DCO15
1000
jet_dbsamples..."tabelka - inform i etykiety"(_tabelka_-_inform_i_etykiety_Link1)
1000
IDENTYFIKATOR
1000

1000

1070
     4
1070
     0
1070
     0
1070
     0
1070
  1024
  0
OBJECT_PTR
  5
28D
102
{ACAD_REACTORS
330
286
102
}
330
286
1001
DCO15
1000
jet_dbsamples..."uwagi ogolne na arkuszu"(_uwagi_ogolne_na_arkuszu_Link1)
1000
IDENTYFIKATOR
1000

1000

1070
     4
1070
     0
1070
     0
1070
     0
1070
  1024
  0
OBJECT_PTR
  5
28C
102
{ACAD_REACTORS
330
286
102
}
330
286
1001
DCO15
1000
jet_dbsamples...ALFABET(ALFABETLink1)
1000
IDENTYFIKATOR
1000

1000

1070
     4
1070
     0
1070
     0
1070
     0
1070
  1024
  0
OBJECT_PTR
  5
28B
102
{ACAD_REACTORS
330
286
102
}
330
286
1001
DCO15
1000
jet_dbsamples...jednostki(jednostkiLink1)
1000
IDENTYFIKATOR
1000

1000

1070
     4
1070
     0
1070
     0
1070
     0
1070
  1024
  0
OBJECT_PTR
  5
28A
102
{ACAD_REACTORS
330
286
102
}
330
286
1001
DCO15
1000
jet_dbsamples...miesiace(miesiaceLink1)
1000
IDENTYFIKATOR
1000

1000

1070
     4
1070
     0
1070
     0
1070
     0
1070
  1024
  0
OBJECT_PTR
  5
289
102
{ACAD_REACTORS
330
286
102
}
330
286
1001
DCO15
1000
jet_dbsamples...pomieszczenia(pomieszczeniaLink1)
1000
IDENTYFIKATOR
1000

1000

1070
     4
1070
     0
1070
     0
1070
     0
1070
  1024
  0
OBJECT_PTR
  5
288
102
{ACAD_REACTORS
330
286
102
}
330
286
1001
DCO15
1000
jet_dbsamples...stolarka(stolarkaLink1)
1000
IDENTYFIKATOR
1000

1000

1070
     4
1070
     0
1070
     0
1070
     0
1070
  1024
  0
OBJECT_PTR
  5
287
102
{ACAD_REACTORS
330
286
102
}
330
286
1001
DCO15
1000
jet_dbsamples...tbl_PRZEGRODY(tbl_PRZEGRODYLink1)
1000
IDENTYFIKATOR
1000

1000

1070
     4
1070
     0
1070
     0
1070
     0
1070
  1024
  0
DICTIONARY
  5
1B
330
1A
100
AcDbDictionary
280
     1
281
     1
  3
ACAD_XREC_ROUNDTRIP
360
2CE
  3
ADSK_XREC_LAYOUTTHUMBNAIL
360
1C
  0
DICTIONARY
  5
2CC
330
11
100
AcDbDictionary
280
     1
281
     1
  3
ACAD_XREC_ROUNDTRIP
360
2CD
  0
DICTIONARY
  5
2D1
330
40
100
AcDbDictionary
280
     1
281
     1
  3
ACAD_XREC_ROUNDTRIP
360
2D2
  0
DICTIONARY
  5
2CF
330
3F
100
AcDbDictionary
280
     1
281
     1
  3
ACAD_XREC_ROUNDTRIP
360
2D0
  0
DICTIONARY
  5
2CA
330
C
100
AcDbDictionary
280
     1
281
     1
  3
ACAD_XREC_ROUNDTRIP
360
2CB
  0
DICTIONARY
  5
49
330
48
100
AcDbDictionary
280
     1
281
     1
  3
ACAD_ROUNDTRIP_2008_TABLESTYLE_CELLSTYLEMAP
360
2C8
  3
ACAD_XREC_ROUNDTRIP
360
2D3
  0
XRECORD
  5
2CE
102
{ACAD_REACTORS
330
1B
102
}
330
1B
100
AcDbXrecord
280
     1
102
SHADEPLOT
 70
     0
102
SHADEPLOTRESLEVEL
 70
     2
102
SHADEPLOTCUSTOMDPI
 70
   300
  0
XRECORD
  5
1C
102
{ACAD_REACTORS
330
1B
102
}
330
1B
100
AcDbXrecord
280
     1
310
28000000B40000008A000000010008000000000008610000000000000000000000010000000000000000000000000000FFFFFF000000000000000000000000000000000000000000000000000000000000000000330000006600000099000000CC000000FF00000000330000333300006633000099330000CC330000FF3300
310
0000660000336600006666000099660000CC660000FF66000000990000339900006699000099990000CC990000FF99000000CC000033CC000066CC000099CC0000CCCC0000FFCC000000FF000033FF000066FF000099FF0000CCFF0000FFFF000000003300330033006600330099003300CC003300FF003300003333003333
310
33006633330099333300CC333300FF33330000663300336633006666330099663300CC663300FF66330000993300339933006699330099993300CC993300FF99330000CC330033CC330066CC330099CC3300CCCC3300FFCC330000FF330033FF330066FF330099FF3300CCFF3300FFFF330000006600330066006600660099
310
006600CC006600FF00660000336600333366006633660099336600CC336600FF33660000666600336666006666660099666600CC666600FF66660000996600339966006699660099996600CC996600FF99660000CC660033CC660066CC660099CC6600CCCC6600FFCC660000FF660033FF660066FF660099FF6600CCFF6600
310
FFFF660000009900330099006600990099009900CC009900FF00990000339900333399006633990099339900CC339900FF33990000669900336699006666990099669900CC669900FF66990000999900339999006699990099999900CC999900FF99990000CC990033CC990066CC990099CC9900CCCC9900FFCC990000FF99
310
0033FF990066FF990099FF9900CCFF9900FFFF99000000CC003300CC006600CC009900CC00CC00CC00FF00CC000033CC003333CC006633CC009933CC00CC33CC00FF33CC000066CC003366CC006666CC009966CC00CC66CC00FF66CC000099CC003399CC006699CC009999CC00CC99CC00FF99CC0000CCCC0033CCCC0066CC
310
CC0099CCCC00CCCCCC00FFCCCC0000FFCC0033FFCC0066FFCC0099FFCC00CCFFCC00FFFFCC000000FF003300FF006600FF009900FF00CC00FF00FF00FF000033FF003333FF006633FF009933FF00CC33FF00FF33FF000066FF003366FF006666FF009966FF00CC66FF00FF66FF000099FF003399FF006699FF009999FF00CC
310
99FF00FF99FF0000CCFF0033CCFF0066CCFF0099CCFF00CCCCFF00FFCCFF0000FFFF0033FFFF0066FFFF0099FFFF00CCFFFF00FFFFFF00000000000D0D0D001A1A1A00282828003535350043434300505050005D5D5D006B6B6B00787878008686860093939300A1A1A100AEAEAE00BBBBBB00C9C9C900D6D6D600E4E4E400
310
F1F1F100FFFFFF0000000000000000000000000000000000000000000000000000000000000000000000000000000000F5F5F5F5F5F5F5F5F5F5F5F5F5F5F5F5F5F5F5F5F5F5F5F5F5F5F5F5F5F5F5F5F5F5F5F5F5F5F5F5F5F5F5F5F5F5F5F5F5F5F5F5F5F5F5F5F5F5F5F5F5F5F5F5F5F5F5F5F5F5F5F5F5F5F5F5F5F5F5
310
F5F5F5F5F5F5F5F5F5F5F5F5F5F5F5F5F5F5F5F5F5F5F5F5F5F5F5F5F5F5F5F5F5F5F5F5F5F5F5F5F5F5F5F5F5F5F5F5F5F5F5F5F5F5F5F5F5F5F5F5F5F5F5F5F5F5F5F5F5F5F5F5F5F5F5F5F5F5F5F5F5F5F5F5F5F5F5F5F5F5F5F5F5F5F5F5F5F5F5F5EFF5E2E2E2E2E2E2E2E2E2E2E2E2E2E2E2E2E2E2E2E2E2E2E2E2E2
310
E2E2E2E2E2E2E2E2E2E2E2E2E2E2E2E2E2E2E2E2E2E2E2E2E2E2E2E2E2E2E2E2E2E2E2E2E2E2E2E2E2E2E2E2E2E2E2E2E2E2E2E2E2E2E2E2E2E2E2E2E2E2E2E2E2E2E2E2E2E2E2E2E2E2E2E2E2E2E2E2E2E2E2E2E2E2E2E2E2E2E2E2E2E2E2E2E2E2E2E2E2E2E2E2E2E2E2E2E2E2E2E2E2E2E2E2E2E2E2E2E2E2E2E2E2E2E2
310
E2E2E2E2E2E2E2E2E2E2E2E2E2E2E2E2E2E2E2E2E2E2E2E2F5F5EFF5E2E2E2E2E2E2E2E2E2E2E2E2E2E2E2E2E2E2E2E2E2E2E2E2E2E2E2E2E2E2E2E2E2E2E2E2E2E2E2E2E2E2E2E2E2E2E2E2E2E2E2E2E2E2E2E2E2E2E2E2E2E2E2E2E2E2E2E2E2E2E2E2E2E2E2E2E2E2E2E2E2E2E2E2E2E2E2E2E2E2E2E2E2E2E2E2E2E2E2
310
E2E2E2E2E2E2E2E2E2E2E2E2E2E2E2E2E2E2E2E2E2E2E2E2E2E2E2E2E2E2E2E2E2E2E2E2E2E2E2E2E2E2E2E2E2E2E2E2E2E2E2E2E2E2E2E2E2E2E2E2E2E2E2E2E2E2E2E2E2E2E2E2E2E2E2E2E2F5F5EFF5E2E2E2E2E2E2E2E2E2E2E2E2E2E2E2E2E2E2E2E2E2E2E2E2E2E2E2E2E2E2E2E2E2E2E2E2E2E2E2E2E2E2E2E2E2E2
310
E2E2E2E2E2E2E2E2E2E2E2E2E2E2E2E2E2E2E2E2E2E2E2E2E2E2E2E2E2E2E2E2E2E2E2E2E2E2E2E2E2E2E2E2E2E2E2E2E2E2E2E2E2E2E2E2E2E2E2E2E2E2E2E2E2E2E2E2E2E2E2E2E2E2E2E2E2E2E2E2E2E2E2E2E2E2E2E2E2E2E2E2E2E2E2E2E2E2E2E2E2E2E2E2E2E2E2E2E2E2E2E2E2E2E2E2E2E2E2E2E2E2E2E2E2E2E2
310
E2E2E2F5F5EFF5E2E2E2F5F5F5F5F5F5F5F5E2E2E2E2E2E2E2E2E2F5F5F5F5F5F5F5F5F5F5F5F5F5F5F5E2E2E2E2E2E2E2E2E2F5F5F5F5F5F5F5F5F5F5F5F5F5F5F5F5E2E2E2E2E2E2E2E2F5F5F5F5F5F5F5F5F5F5F5F5F5F5F5F5E2E2E2E2E2E2E2E2F5F5F5F5F5F5F5F5F5F5F5F5F5F5F5F5E2E2E2E2E2E2E2E2F5F5F5F5
310
F5F5F5F5F5F5F5F5F5F5F5F5E2E2E2E2E2E2E2E2E2F5F5F5F5F5F5F5F5F5F5F5F5F5F5F5E2E2E2E2E2E2E2E2E2F5F5F5F5F5F5F5F5E2E2E2F5F5EFF5E2E2E2F5E2E2E2E2E2E2E2E2E2E2E2E2E2E2E2E2E2E2E2E2E2E2E2E2E2E2E2E2E2E2E2E2E2E2E2E2E2E2E2E2E2E2E2E2E2E2E2E2E2E2E2E2E2E2E2E2E2E2E2E2E2E2E2
310
E2E2E2E2E2E2E2E2E2E2E2E2E2E2E2E2E2E2E2E2E2E2E2E2E2E2E2E2E2E2E2E2E2E2E2E2E2E2E2E2E2E2E2E2E2E2E2E2E2E2E2E2E2E2E2E2E2E2E2E2E2E2E2E2E2E2E2E2E2E2E2E2E2E2E2E2E2E2E2E2E2E2E2E2E2E2E2E2E2E2E2E2E2E2E2E2E2E2E2E2E2E2E2E2E2F5E2E2E2F5F5EFF5E2E2E2F5E2E2E2E2E2E2E2E2E2E2
310
E2E2E2E2E2E2E2E2E2E2E2E2E2E2E2E2E2E2E2E2E2E2E2E2E2E2E2E2E2E2E2E2E2E2E2E2E2E2E2E2E2E2E2E2E2E2E2E2E2E2E2E2E2E2E2E2E2E2E2E2E2E2E2E2E2E2E2E2E2E2E2E2E2E2E2E2E2E2E2E2E2E2E2E2E2E2E2E2E2E2E2E2E2E2E2E2E2E2E2E2E2E2E2E2E2E2E2E2E2E2E2E2E2E2E2E2E2E2E2E2E2E2E2E2E2E2E2
310
E2E2E2E2E2E2E2E2E2E2E2E2E2E2E2E2E2E2E2E2E2E2E2E2E2E2E2E2E2E2E2F5E2E2E2F5F5EFF5E2E2E2F5E2E2E2E2E2E2E2E2E2E2E2E2E2E2E2E2E2E2E2E2E2E2E2E2E2E2E2E2E2E2E2E2E2E2E2E2E2E2E2E2E2E2E2E2E2E2E2E2E2E2E2E2E2E2E2E2E2E2E2E2E2E2E2E2E2E2E2E2E2E2E2E2E2E2E2E2E2E2E2E2E2E2E2E2
310
E2E2E2E2E2E2E2E2E2E2E2E2E2E2E2E2E2E2E2E2E2E2E2E2E2E2E2E2E2E2E2E2E2E2E2E2E2E2E2E2E2E2E2E2E2E2E2E2E2E2E2E2E2E2E2E2E2E2E2E2E2E2E2E2E2E2E2E2E2E2E2E2E2E2E2E2E2E2E2E2E2E2E2E2F5E2E2E2F5F5EFF5E2E2E2F5E2E2E2E2E2E2E2E2E2E2E2E2E2E2E2E2E2E2E2E2E2E2E2E2E2E2E2E2E2E2E2
310
E2E2E2E2E2E2E2E2E2E2E2E2E2E2E2E2E2E2E2E2E2E2E2E2E2E2E2E2E2E2E2E2E2E2E2E2E2E2E2E2E2E2E2E2E2E2E2E2E2E2E2E2E2E2E2E2E2E2E2E2E2E2E2E2E2E2E2E2E2E2E2E2E2E2E2E2E2E2E2E2E2E2E2E2E2E2E2E2E2E2E2E2E2E2E2E2E2E2E2E2E2E2E2E2E2E2E2E2E2E2E2E2E2E2E2E2E2E2E2E2E2E2E2E2E2E2E2
310
E2E2E2E2E2E2E2E2E2E2F5E2E2E2F5F5EFF5E2E2E2F5E2E2E2E2E2E2E2E2E2E2E2E2E2E2E2E2E2E2E2E2E2E2E2E2E2E2E2E2E2E2E2E2E2E2E2E2E2E2E2E2E2E2E2E2E2E2E2E2E2E2E2E2E2E2E2E2E2E2E2E2E2E2E2E2E2E2E2E2E2E2E2E2E2E2E2E2E2E2E2E2E2E2E2E2E2E2E2E2E2E2E2E2E2E2E2E2E2E2E2E2E2E2E2E2E2
310
E2E2E2E2E2E2E2E2E2E2E2E2E2E2E2E2E2E2E2E2E2E2E2E2E2E2E2E2E2E2E2E2E2E2E2E2E2E2E2E2E2E2E2E2E2E2E2E2E2E2E2E2E2E2E2E2E2E2E2E2E2E2E2F5E2E2E2F5F5EFF5E2E2E2F5E2E2E2E2E2E2E2E2E2E2E2E2E2E2E2E2E2E2E2E2E2E2E2E2E2E2E2E2E2E2E2E2E2E2E2E2E2E2E2E2E2E2E2E2E2E2E2E2E2E2E2E2
310
E2E2E2E2E2E2E2E2E2E2E2E2E2E2E2E2E2E2E2E2E2E2E2E2E2E2E2E2E2E2E2E2E2E2E2E2E2E2E2E2E2E2E2E2E2E2E2E2E2E2E2E2E2E2E2E2E2E2E2E2E2E2E2E2E2E2E2E2E2E2E2E2E2E2E2E2E2E2E2E2E2E2E2E2E2E2E2E2E2E2E2E2E2E2E2E2E2E2E2E2E2E2E2E2E2E2E2E2E2E2E2E2E2E2E2E2F5E2E2E2F5F5EFF5E2E2E2
310
F5E2E2E2E2E2E2E2E2E2E2E2E2E2E2E2E2E2E2E2E2E2E2E2E2E2E2E2E2E2E2E2E2E2E2E2E2E2E2E2E2E2E2E2E2E2E2E2E2E2E2E2E2E2E2E2E2E2E2E2E2E2E2E2E2E2E2E2E2E2E2E2E2E2E2E2E2E2E2E2E2E2E2E2E2E2E2E2E2E2E2E2E2E2E2E2E2E2E2E2E2E2E2E2E2E2E2E2E2E2E2E2E2E2E2E2E2E2E2E2E2E2E2E2E2E2E2
310
E2E2E2E2E2E2E2E2E2E2E2E2E2E2E2E2E2E2E2E2E2E2E2E2E2E2E2E2E2E2E2E2E2E2E2E2E2E2E2E2E2E2F5E2E2E2F5F5EFF5E2E2E2F5E2E2E2E2E2E2E2E2E2E2E2E2E2E2E2E2E2E2E2E2E2E2E2E2E2E2E2E2E2E2E2E2E2E2E2E2E2E2E2E2E2E2E2E2E2E2E2E2E2E2E2E2E2E2E2E2E2E2E2E2E2E2E2E2E2E2E2E2E2E2E2E2E2
310
E2E2E2E2E2E2E2E2E2E2E2E2E2E2E2E2E2E2E2E2E2E2E2E2E2E2E2E2E2E2E2E2E2E2E2E2E2E2E2E2E2E2E2E2E2E2E2E2E2E2E2E2E2E2E2E2E2E2E2E2E2E2E2E2E2E2E2E2E2E2E2E2E2E2E2E2E2E2E2E2E2E2E2E2E2E2E2E2E2E2E2E2E2E2E2F5E2E2E2F5F5EFF5E2E2E2E2E2E2E2E2E2E2E2E2E2E2E2E2E2E2E2E2E2E2E2E2
310
E2E2E2E2E2E2E2E2E2E2E2E2E2E2E2E2E2E2E2E2E2E2E2E2E2E2E2E2E2E2E2E2E2E2E2E2E2E2E2E2E2E2E2E2E2E2E2E2E2E2E2E2E2E2E2E2E2E2E2E2E2E2E2E2E2E2E2E2E2E2E2E2E2E2E2E2E2E2E2E2E2E2E2E2E2E2E2E2E2E2E2E2E2E2E2E2E2E2E2E2E2E2E2E2E2E2E2E2E2E2E2E2E2E2E2E2E2E2E2E2E2E2E2E2E2E2E2
310
E2E2E2E2E2E2E2E2E2E2E2E2E2E2E2E2E2E2E2E2E2E2E2E2E2F5F5EFF5E2E2E2E2E2E2E2E2E2E2E2E2E2E2E2E2E2E2E2E2E2E2E2E2E2E2E2E2E2E2E2E2E2E2E2E2E2E2E2E2E2E2E2E2E2E2E2E2E2E2E2E2E2E2E2E2E2E2E2E2E2E2E2E2E2E2E2E2E2E2E2E2E2E2E2E2E2E2E2E2E2E2E2E2E2E2E2E2E2E2E2E2E2E2E2E2E2E2
310
E2E2E2E2E2E2E2E2E2E2E2E2E2E2E2E2E2E2E2E2E2E2E2E2E2E2E2E2E2E2E2E2E2E2E2E2E2E2E2E2E2E2E2E2E2E2E2E2E2E2E2E2E2E2E2E2E2E2E2E2E2E2E2E2E2E2E2E2E2E2E2E2E2E2E2E2E2E2F5F5EFF5E2E2E2E2E2E2E2E2E2E2E2E2E2E2E2E2E2E2E2E2E2E2E2E2E2E2E2E2E2E2E2E2E2E2E2E2E2E2E2E2E2E2E2E2E2
310
E2E2E2E2E2E2E2E2E2E2E2E2E2E2E2E2E2E2E2E2E2E2E2E2E2E2E2E2E2E2E2E2E2E2E2E2E2E2E2E2E2E2E2E2E2E2E2E2E2E2E2E2E2E2E2E2E2E2E2E2E2E2E2E2E2E2E2E2E2E2E2E2E2E2E2E2E2E2E2E2E2E2E2E2E2E2E2E2E2E2E2E2E2E2E2E2E2E2E2E2E2E2E2E2E2E2E2E2E2E2E2E2E2E2E2E2E2E2E2E2E2E2E2E2E2E2E2
310
E2E2E2E2F5F5EFF5E2E2E2E2E2E2E2E2E2E2E2E2E2E2E2E2E2E2E2E2E2E2E2E2E2E2E2E2E2E2E2E2E2E2E2E2E2E2E2E2E2E2E2E2E2E2E2E2E2E2E2E2E2E2E2E2E2E2E2E2E2E2E2E2E2E2E2E2E2E2E2E2E2E2E2E2E2E2E2E2E2E2E2E2E2E2E2E2E2E2E2E2E2E2E2E2E2E2E2E2E2E2E2E2E2E2E2E2E2E2E2E2E2E2E2E2E2E2E2
310
E2E2E2E2E2E2E2E2E2E2E2E2E2E2E2E2E2E2E2E2E2E2E2E2E2E2E2E2E2E2E2E2E2E2E2E2E2E2E2E2E2E2E2E2E2E2E2E2E2E2E2E2E2E2E2E2E2F5F5EFF5E2E2E2E2E2E2E2E2E2E2E2E2E2E2E2E2E2E2E2E2F5F5F5F5F5F5F5F5F5F5F5F5F5F5F5F5F5F5F5F5F5F5F5F5F5F5F5F5F5F5F5F5F5F5F5F5F5F5F5F5F5F5F5F5F5F5
310
F5F5F5F5F5F5F5F5F5F5F5F5F5F5F5F5F5F5F5F5F5F5F5F5F5F5F5F5F5F5F5F5F5F5F5F5F5F5F5F5F5F5F5F5F5F5F5F5F5F5F5F5F5F5F5F5F5F5F5F5F5F5F5F5F5F5F5F5F5F5F5F5F5F5F5F5F5F5F5F5F5F5F5F5F5F5F5F5F5F5E2E2E2E2E2E2E2E2E2E2E2E2E2E2E2E2E2E2E2E2F5F5EFF5E2E2E2E2E2E2E2E2E2E2E2E2E2
310
E2E2E2E2E2E2E2F5E2E2E2E2E2E2E2E2E2E2E2E2E2E2E2E2E2E2E2E2E2E2E2E2E2E2E2E2E2DCE2E2E2E2E2E2E2E2E2E2E2E2E2E2E2E2E2E2E2E2E2E2E2E2E2E2E2E2E2E2E2E2E2E2E2E2E2E2E2E2E2E2E2E2E2E2E2E2E2E2E2E2E2E2E2E2E2E2E2E2E2E2E2E2E2E2E2E2E2E2E2E2E2E2DCE2E2E2E2E2E2E2E2E2E2E2E2E2E2
310
E2E2E2E2E2E2E2E2E2E2E2E2E2E2E2F5E2E2E2E2E2E2E2E2E2E2E2E2E2E2E2E2E2E2E2E2F5F5EFF5E2E2E2E2E2E2E2E2E2E2E2E2E2E2E2E2E2E2E2E2F5E2E2E2E2E2E2E2E2E2E2E2E2E2E2E2E2E2E2E2E2E2E2E2E2E2E2E2E2E2DCE2E2E2E2E2E2E2E2E2E2E2E2E2E2E2E2E2E2E2E2E2E2E2E2E2E2E2E2E2E2E2E2E2E2E2E2
310
E2E2E2E2E2E2E2E2E2E2E2E2E2E2E2E2E2E2E2E2E2E2E2E2E2E2E2E2E2E2E2E2E2E2E2E2E2E2DCE2E2E2E2E2E2E2E2E2E2E2E2E2E2E2E2E2E2E2E2E2E2E2E2E2E2E2E2E2F5E2E2E2E2E2E2E2E2E2E2E2E2E2E2E2E2E2E2E2E2F5F5EFF5E2E2E2E2E2E2E2E2E2E2E2E2E2E2E2E2E2E2E2E2F5E2E2E2E2E2E2E2E2E2E2E2E2E2
310
E2E2E2E2E2E2E2E2E2E2E2E2E2E2E2E2DCE2E2E2E2E2E2E2E2E2E2E2E2E2E2E2E2E2E2E2E2E2E2E2E2E2E2E2E2E2E2E2E2E2E2E2E2E2E2E2E2E2E2E2E2E2E2E2E2E2E2E2E2E2E2E2E2E2E2E2E2E2E2E2E2E2E2E2E2E2E2E2E2E2E2DCE2E2E2E2E2E2E2E2E2E2E2E2E2E2E2E2E2E2E2E2E2E2E2E2E2E2E2E2E2F5E2E2E2E2E2
310
E2E2E2E2E2E2E2E2E2E2E2E2E2E2E2F5F5EFF5E2E2E2E2E2E2E2E2E2E2E2E2E2E2E2E2E2E2E2E2F5E2E2E2E2E2E2E2E2E2E2E2E2E2E2E2E2E2E2E2E2E2E2E2E2E2E2E2E2E2DCE2E2E2E2E2E2E2E2E2E2E2E2E2E2E2E2E2E2E2E2E2E2E2E2E2E2E2E2E2E2E2E2E2E2E2E2E2E2E2E2E2E2E2E2E2E2E2E2E2E2E2E2E2E2E2E2E2
310
E2E2E2E2E2E2E2E2E2E2E2E2E2E2E2E2E2DCE2E2E2E2E2E2E2E2E2E2E2E2E2E2E2E2E2E2E2E2E2E2E2E2E2E2E2E2E2F5E2E2E2E2E2E2E2E2E2E2E2E2E2E2E2E2E2E2E2E2F5F5EFF5E2E2E2F5E2E2E2E2E2E2E2E2E2E2E2E2E2E2E2E2F5E2E2E2E2E2E2E2E2E2E2E2E2E2E2E2E2E2E2E2E2E2E2E2E2E2E2E2E2E2DCE2E2E2E2
310
E2E2E2E2E2E2E2272727E2E22727E2E2E2E2E2E2E2E2E2E2E2E2E2E2E2E2E2E2E2E2E2E2E2E2E2E2E2E2E2E2E2E2E2E2E2E2E2E2E2E2E2E2E2E2E2E2E2E2E2E2E2E2E2E2E2E2DCE2E2E2E2E2E2E2E2E2E2E2E2E2E2E2E2E2E2E2E2E2E2E2E2E2E2E2E2E2F5E2E2E2E2E2E2E2E2E2E2E2E2E2E2E2E2F5E2E2E2F5F5EFF5E2E2
310
E2F5E2E2E2E2E2E2E2E2E2E2E2E2E2E2E2E2F5E2E2E2E2E2E2E2E2E2E2E2E2E2E2E2E2E2E2E2E2E2E2E2E2E2E2E2E2E2DCE2E2E2E2E2E2E2E2E2E2E2272727272727272727E2E2E2E2E2E2E2E2E2E2E2E2E2E2E2E2E2E2E2E2E2E2E2E2E2E2E2E2E2E2E2E2E2E2E2E2E2E2E2E2E2E2E2E2E2E2E2E2E2E2E2E2E2E2DCE2E2E2
310
E2E2E2E2E2E2E2E2E2E2E2E2E2E2E2E2E2E2E2E2E2E2E2E2E2E2F5E2E2E2E2E2E2E2E2E2E2E2E2E2E2E2E2F5E2E2E2F5F5EFF5E2E2E2F5E2E2E2E2E2E2E2E2E2E2E2E2E2E2E2E2F5E2E2E2E2E2E2E2E2E2E2E2E2E2E2E2E2E2E2E2E2E2E2E2E2E2E2E2E2E2DCE2E2E2E2E2E2E2E2E2E2E2272727272727272727E2E2E2E2E2
310
E2E2E2E2E2E2E2E2E2E2E2E2E2E2E2E2E2E2E2E2E2E2E2E2E2E2E2E2E2E2E2E2E2E2E2E2E2E2E2E2E2E2E2E2E2E2E2E2E2DCE2E2E2E2E2E2E2E2E2E2E2E2E2E2E2E2E2E2E2E2E2E2E2E2E2E2E2E2E2F5E2E2E2E2E2E2E2E2E2E2E2E2E2E2E2E2F5E2E2E2F5F5EFF5E2E2E2F5E2E2E2E2E2E2E2E2E2E2E2E2E2E2E2E2F5E2E2
310
E2E2E2E2E2E2E2E2E2E2E2E2E2E2E2E2E2E2E2E2E2E2E2E2E2E2E2DCE2E2E2E2E2E2E2E2E2E2E2E2E2E2E2E2E2E2E2E2E2E2E2E2E2E2E2E2E2E2E2E2E2E2E2E2E2E2E2E2E2E2E2E2E2E2E2E2E2E2E2E2E2E2E2E2E2E2E2E2E2E2E2E2E2E2E2E2E2E2E2E2E2E2DCE2E2E2E2E2E2E2E2E2E2E2E2E2E2E2E2E2E2E2E2E2E2E2E2
310
E2E2E2E2E2F5E2E2E2E2E2E2E2E2E2E2E2E2E2E2E2E2F5E2E2E2F5F5EFF5E2E2E2F5E2E2E2E2E2E2E2E2E2E2E2E2E2E2E2E2F5E2E2E2E2E2E2E2E2E2E2E2E2E2E2E2E2E2E2E2E2E2E2E2E2E2E2E2E2E2DCE2E2E2E2E2E2E2E2E2E2E2E2E2E2E2E2E2E2E2E2E2E2E2E2E2E2E2E2E2E2E2E2E2E2E2E2E2E2E2E2E2E2E2E2E2E2
310
E2E2E2E2E2E2E2E2E2E2E2E2E2E2E2E2E2E2E2E2E2E2E2E2E2E2E2E2DCE2E2E2E2E2E2E2E2E2E2E2E2E2E2E2E2E2E2E2E2E2E2E2E2E2E2E2E2E2F5E2E2E2E2E2E2E2E2E2E2E2E2E2E2E2E2F5E2E2E2F5F5EFF5E2E2E2F5E2E2E2E2E2E2E2E2E2E2E2E2E2E2E2E2F5E2E2E2E2E2E2E2E2E2E2E2E2E2E2E2E2E2E2E2E2E2E2E2
310
E2E2E2E2E2E2DCE2E2E2E2E2E2E2E2E2E2E2E2E2E2E2E2E2E2E2E2E2E2E2E2E2E2E2E2E2E2E2E2E2E2E2E2E2E2E2E2E2E2E2E2E2E2E2E2E2E2E2E2E2E2E2E2E2E2E2E2E2E2E2E2E2E2E2E2E2E2E2E2E2E2DCE2E2E2E2E2E2E2E2E2E2E2E2E2E2E2E2E2E2E2E2E2E2E2E2E2E2E2E2E2F5E2E2E2E2E2E2E2E2E2E2E2E2E2E2E2
310
E2F5E2E2E2F5F5EFF5E2E2E2F5E2E2E2E2E2E2E2E2E2E2E2E2E2E2E2E2F5E2E2E2E2E2E2E2E2E2E2E2E2E2E2E2E2E2E2E2E2E2E2E2E2E2E2E2E2E2DCE2E2E2E2E2E2E2E2E2E2E2E2E2E2E2E2E2E2E2E2E2E2E2E2E2E2E2E2E2E2E2E2E2E2E2E2E2E2E2E2E2E2E2E2E2E2E2E2E2E2E2E2E2E2E2E2E2E2E2E2E2E2E2E2E2E2E2
310
E2E2E2E2E2E2E2DCE2E2E2E2E2E2E2E2E2E2E2E2E2E2E2E2E2E2E2E2E2E2E2E2E2E2E2E2E2F5E2E2E2E2E2E2E2E2E2E2E2E2E2E2E2E2F5E2E2E2F5F5EFF5E2E2E2F5E2E2E2E2E2E2E2E2E2E2E2E2E2E2E2E2F5E2E2E2E2E2E2E2E2E2E2E2E2E2E2E2E2E2E2E2E2E2E2E2E2E2E2E2E2E2DCE2E2E2E2E2E2E2E2E2E2E2E2E2E2
310
E2E2E2E2E2E2E2E2E2E2E2E2E2E2E2E2E2E2E2E2E2E2E2E2E2E2E2E2E2E2E2E2E2E2E2E2E2E2E2E2E2E2E2E2E2E2E2E2E2E2E2E2E2E2E2E2E2E2E2E2DCE2E2E2E2E2E2E2E2E2E2E2E2E2E2E2E2E2E2E2E2E2E2E2E2E2E2E2E2E2F5E2E2E2E2E2E2E2E2E2E2E2E2E2E2E2E2F5E2E2E2F5F5EFF5E2E2E2F5E2E2E2E2E2E2E2E2
310
E2E2E2E2E2E2E2E2F5E2E2E2E2E2E2E2E2E2E2E2E2E2E2E2E2E2E2E2E2E2E2E2E2E2E2E2E2E2DCE2E2E2E2E2E2E2E2E2E2E2E2E2E2E2E2E2E2E2E2E2E2E2E2E2E2E2E2E2E2E2E2E2E2E2E2E2E2E2E2E2E2E2E2E2E2E2E2E2E2E2E2E2E2E2E2E2E2E2E2E2E2E2E2E2E2E2E2E2E2E2E2E2E2DCE2E2E2E2E2E2E2E2E2E2E2E2E2
310
E2E2E2E2E2E2E2E2E2E2E2E2E2E2E2E2F5E2E2E2E2E2E2E2E2E2E2E2E2E2E2E2E2F5E2E2E2F5F5EFF5E2E2E2F5E2E2E2E2E2E2E2E2E2E2E2E2E2E2E2E2F5E2E2E2E2E2E2E2E2E2E2E2E2E2E2E2E2E2E2E2E2E2E2E2E2E2E2E2E2E2DCE2E2E2E2E2E2E2E2E2E2E2E2E2E2E2E2E2E2E2E2E2E2E2E2E2E2E2E2E2E2E2E2E2E2E2
310
E2E2E2E2E2E2E2E2E2E2E2E2E2E2E2E2E2E2E2E2E2E2E2E2E2E2E2E2E2E2E2E2E2E2E2E2E2E2E2DCE2E2E2E2E2E2E2E2E2E2E2E2E2E2E2E2E2E2E2E2E2E2E2E2E2E2E2E2E2F5E2E2E2E2E2E2E2E2E2E2E2E2E2E2E2E2F5E2E2E2F5F5EFF5E2E2E2F5E2E2E2E2E2E2E2E2E2E2E2E2E2E2E2E2F5E2E2E2E2E2E2E2E2E2E2E2E2
310
E2E2E2E2E2E2E2E2E2E2E2E2E2E2E2E2E2DCE2E2E2E2E2E2E2E2E2E2E2E2E2E2E2E2E2E2E2E2E2E2E2E2E2E2E2E2E2E2E2E2E2E2E2E2E2E2E2E2E2E2E2E2E2E2E2E2E2E2E2E2E2E2E2E2E2E2E2E2E2E2E2E2E2E2E2E2E2E2E2E2E2E2DCE2E2E2E2E2E2E2E2E2E2E2E2E2E2E2E2E2E2E2E2E2E2E2E2E2E2E2E2E2F5E2E2E2E2
310
E2E2E2E2E2E2E2E2E2E2E2E2F5E2E2E2F5F5EFF5E2E2E2F5E2E2E2E2E2E2E2E2E2E2E2E2E2E2E2E2F5E2E2E2E2E2E2E2E2E2E2E2E2E2E2E2E2E2E2E2E2E2E2E2E2E2E2E2E2E2DCE2E2E2E2E2E2E2E2E2E2E2E2E2E2E2E2E2E2E2E2E2E2E2E2E2E2E2E2E2E2E2E2E2E2E2E2E2E2E2E2E2E2E2E2E2E2E2E2E2E2E2E2E2E2E2E2
310
E2E2E2E2E2E2E2E2E2E2E2E2E2E2E2E2E2E2DCE2E2E2E2E2E2E2E2E2E2E2E2E2E2E2E2E2E2E2E2E2E2E2E2E2E2E2E2E2F5E2E2E2E2E2E2E2E2E2E2E2E2E2E2E2E2F5E2E2E2F5F5EFF5E2E2E2F5E2E2E2E2E2E2E2E2E2E2E2E2E2E2E2E2F5E2E2E2E2E2E2E2E2E2E2E2E2E2E2E2E2E2E2E2E2E2E2E2E2E2E2E2E2E2DCE2E2E2
310
E2E2E2E2E2E2E2E2E2E2E2E2E2E2E2E2E2E2E2E2E2E2E2E2E2E2E2E2E2E2E2E2E2E2E2E2E2E2E2E2E2E2E2E2E2E2E2E2E2E2E2E2E2E2E2E2E2E2E2E2E2E2E2E2E2E2E2E2E2E2E2DCE2E2E2E2E2E2E2E2E2E2E2E2E2E2E2E2E2E2E2E2E2E2E2E2E2E2E2E2E2F5E2E2E2E2E2E2E2E2E2E2E2E2E2E2E2E2F5E2E2E2F5F5EFF5E2
310
E2E2F5E2E2E2E2E2E2E2E2E2E2E2E2E2E2E2E2F5E2E2E2E2E2E2E2E2E2E2E2E2E2E2E2E2E2E2E2E2E2E2E2E2E2E2E2E2E2DCE2E2E2E2E2E2E2E2E2E2E2E2E2E2E2E2E2E2E2E2E2E2E2E2E2E2E2E2E2E2E2E2E2E2E2E2E2E2E2E2E2E2E2E2E2E2E2E2E2E2E2E2E2E2E2E2E2E2E2E2E2E2E2E2E2E2E2E2E2E2E2E2E2E2DCE2E2
310
E2E2E2E2E2E2E2E2E2E2E2E2E2E2E2E2E2E2E2E2E2E2E2E2E2E2E2F5E2E2E2E2E2E2E2E2E2E2E2E2E2E2E2E2F5E2E2E2F5F5EFF5E2E2E2F5E2E2E2E2E2E2E2E2E2E2E2E2E2E2E2E2F5E2E2E2E2E2E2E2E2E2E2E2E2E2E2E2E2E2E2E2E2E2E2E2E2E2E2E2E2E2DCE2E2E2E2E2E2E2E2E2E2E2E2E2E2E2E2E2E2E2E2E2E2E2E2
310
E2E2E2E2E2E2E2E2E2E2E2E2E2E2E2E2E2E2E2E2E2E2E2E2E2E2E2E2E2E2E2E2E2E2E2E2E2E2E2E2E2E2E2E2E2E2E2E2E2E2DCE2E2E2E2E2E2E2E2E2E2E2E2E2E2E2E2E2E2E2E2E2E2E2E2E2E2E2E2E2F5E2E2E2E2E2E2E2E2E2E2E2E2E2E2E2E2F5E2E2E2F5F5EFF5E2E2E2F5E2E2E2E2E2E2E2E2E2E2E2E2E2E2E2E2F5E2
310
E2E2E2E2E2E2E2E2E2E2E2E2E2E2E2E2E2E2E2E2E2E2E2E2E2E2E2E2DCE2E2E2E2E2E2E2E2E2E2E2E2E2E2E2E2E2E2E2E2E2E2E2E2E2E2E2E2E2E2E2E2E2E2E2E2E2E2E2E2E2E2E2E2E2E2E2E2E2E2E2E2E2E2E2E2E2E2E2E2E2E2E2E2E2E2E2E2E2E2E2E2E2E2DCE2E2E2E2E2E2E2E2E2E2E2E2E2E2E2E2E2E2E2E2E2E2E2
310
E2E2E2E2E2E2F5E2E2E2E2E2E2E2E2E2E2E2E2E2E2E2E2F5E2E2E2F5F5EFF5E2E2E2F5E2E2E2E2E2E2E2E2E2E2E2E2E2E2E2E2F5E2E2E2E2E2E2E2E2E2E2E2E2E2E2E2E2E2E2E2E2E2E2E2E2E2E2E2E2E2DCE2E2E2E2E2E2E2E2E2E2E2E2E2E2E2E2E2E2E2E2E2E2E2E2E2E2E2E2E2E2E2E2E2E2E2E2E2E2E2E2E2E2E2E2E2
310
E2E2E2E2E2E2E2E2E2E2E2E2E2E2E2E2E2E2E2E2E2E2E2E2E2E2E2E2E2DCE2E2E2E2E2E2E2E2E2E2E2E2E2E2E2E2E2E2E2E2E2E2E2E2E2E2E2E2E2F5E2E2E2E2E2E2E2E2E2E2E2E2E2E2E2E2F5E2E2E2F5F5EFF5E2E2E2E2E2E2E2E2E2E2E2E2E2E2E2E2E2E2E2E2F5E2E2E2E2E2E2E2E2E2E2E2E2E2E2E2E2E2E2E2E2E2E2
310
E2E2E2E2E2E2E2DCE2E2E2E2E2E2E2E2E2E2E2E2E2E2E2E2E2E2E2E2E2E2E2E2E2E2E2E2E2E2E2E2E2E2E2E2E2E2E2E2E2E2E2E2E2E2E2E2E2E2E2E2E2E2E2E2E2E2E2E2E2E2E2E2E2E2E2E2E2E2E2E2E2E2DCE2E2E2E2E2E2E2E2E2E2E2E2E2E2E2E2E2E2E2E2E2E2E2E2E2E2E2E2E2F5E2E2E2E2E2E2E2E2E2E2E2E2E2E2
310
E2E2E2E2E2E2F5F5EFF5E2E2E2E2E2E2E2E2E2E2E2E2E2E2E2E2E2E2E2E2F5E2E2E2E2E2E2E2E2E2E2E2E2E2E2E2E2E2E2E2E2E2E2E2E2E2E2E2E2E2DCE2E2E2E2E2E2E2E2E2E2E2E2E2E2E2E2E2E2E2E2E2E2E2E2E2E2E2E2E2E2E2E2E2E2E2E2E2E2E2E2E2E2E2E2E2E2E2E2E2E2E2E2E2E2E2E2E2E2E2E2E2E2E2E2E2E2
310
E2E2E2E2E2E2E2E2DCE2E2E2E2E2E2E2E2E2E2E2E2E2E2E2E2E2E2E2E2E2E2E2E2E2E2E2E2E2F5E2E2E2E2E2E2E2E2E2E2E2E2E2E2E2E2E2E2E2E2F5F5EFF5E2E2E2E2E2E2E2E2E2E2E2E2E2E2E2E2E2E2E2E2F5E2E2E2E2E2E2E2E2E2E2E2E2E2E2E2E2E2E2E2E2E2E2E2E2E2E2E2E2E2DCE2E2E2E2E2E2E2E2E2E2E2E2E2
310
E2E2E2E2E2E2E2E2E2E2E2E2E2E2E2E2E2E2E2E2E2E2E2E2E2E2E2E2E2E2E2E2E2E2E2E2E2E2E2E2E2E2E2E2E2E2E2E2E2E2E2E2E2E2E2E2E2E2E2E2E2DCE2E2E2E2E2E2E2E2E2E2E2E2E2E2E2E2E2E2E2E2E2E2E2E2E2E2E2E2E2F5E2E2E2E2E2E2E2E2E2E2E2E2E2E2E2E2E2E2E2E2F5F5EFF5E2E2E2E2E2E2E2E2E2E2E2
310
E2E2E2E2E2E2E2E2E2F5E2E2E2E2E2E2E2E2E2E2E2E2E2E2E2E2E2E2E2E2E2E2E2E2E2E2E2E2E2DCE2E2E2E2E2E2E2E2E2E2E2E2E2E2E2E2E2E2E2E2E2E2E2E2E2E2E2E2E2E2E2E2E2E2E2E2E2E2E2E2E2E2E2E2E2E2E2E2E2E2E2E2E2E2E2E2E2E2E2E2E2E2E2E2E2E2E2E2E2E2E2E2E2E2DCE2E2E2E2E2E2E2E2E2E2E2E2
310
E2E2E2E2E2E2E2E2E2E2E2E2E2E2E2E2E2F5E2E2E2E2E2E2E2E2E2E2E2E2E2E2E2E2E2E2E2E2F5F5EFF5E2E2E2E2E2E2E2E2E2E2E2E2E2E2E2E2E2E2E2E2F5E2E2E2E2E2E2E2E2E2E2E2E2E2E2E2E2E2E2E2E2E2E2E2E2E2E2E2E2E2DCE2E2E2E2E2E2E2E2E2E2E2E2E2E2E2E2E2E2E2E2E2E2E2E2E2E2E2E2E2E2E2E2E2E2
310
E2E2E2E2E2E2E2E2E2E2E2E2E2E2E2E2E2E2E2E2E2E2E2E2E2E2E2E2E2E2E2E2E2E2E2E2E2E2E2E2DCE2E2E2E2E2E2E2E2E2E2E2E2E2E2E2E2E2E2E2E2E2E2E2E2E2E2E2E2E2F5E2E2E2E2E2E2E2E2E2E2E2E2E2E2E2E2E2E2E2E2F5F5EFF5E2E2E2E2E2E2E2E2E2E2E2E2E2E2E2E2E2E2E2E2F5E2E2E2E2E2E2E2E2E2E2E2
310
E2E2E2E2E2E2E2E2E2E2E2E2E2E2E2E2E2E2DCE2E2E2E2E2E2E2E2E2E2E2E2E2E2E2E2E2E2E2E2E2E2E2E2E2E2E2E2E2E2E2E2E2E2E2E2E2E2E2E2E2E2E2E2E2E2E2E2E2E2E2E2E2E2E2E2E2E2E2E2E2E2E2E2E2E2E2E2E2E2E2E2E2E2DCE2E2E2E2E2E2E2E2E2E2E2E2E2E2E2E2E2E2E2E2E2E2E2E2E2E2E2E2E2F5E2E2E2
310
E2E2E2E2E2E2E2E2E2E2E2E2E2E2E2E2E2F5F5EFF5E2E2E2E2E2E2E2E2E2E2E2E2E2E2E2E2E2E2E2E2F5E2E2E2E2E2E2E2E2E2E2E2E2E2E2E2E2E2E2E2E2E2E2E2E2E2E2E2E2E2DCE2E2E2E2E2E2E2E2E2E2E2E2E2E2E2E2E2E2E2E2E2E2E2E2E2E2E2E2E2E2E2E2E2E2E2E2E2E2E2E2E2E2E2E2E2E2E2E2E2E2E2E2E2E2E2
310
E2E2E2E2E2E2E2E2E2E2E2E2E2E2E2E2E2E2E2DCE2E2E2E2E2E2E2E2E2E2E2E2E2E2E2E2E2E2E2E2E2E2E2E2E2E2E2E2E2F5E2E2E2E2E2E2E2E2E2E2E2E2E2E2E2E2E2E2E2E2F5F5EFF5E2E2E2E2E2E2E2E2E2E2E2E2E2E2E2E2E2E2E2E2F5E2E2E2E2E2E2E2E2E2E2E2E2E2E2E2E2E2E2E2E2E2E2E2E2E2E2E2E2E2DCE2E2
310
E2E2E2E2E2E2E2E2E2E2E2E2E2E2E2E2E2E2E2E2E2E2E2E2E2E2E2E2E2E2E2E2E2E2E2E2E2E2E2E2E2E2E2E2E2E2E2E2E2E2E2E2E2E2E2E2E2E2E2E2E2E2E2E2E2E2E2E2E2E2E2E2DCE2E2E2E2E2E2E2E2E2E2E2E2E2E2E2E2E2E2E2E2E2E2E2E2E2E2E2E2E2F5E2E2E2E2E2E2E2E2E2E2E2E2E2E2E2E2E2E2E2E2F5F5EFF5
310
E2E2E2E2E2E2E2E2E2E2E2E2E2E2E2E2E2E2E2E2F5E2E2E2E2E2E2E2E2E2E2E2E2E2E2E2E2E2E2E2E2E2E2E2E2E2E2E2E2E2DCE2E2E2E2E2E2E2E2E2E2E2E2E2E2E2E2E2E2E2E2E2E2E2E2E2E2E2E2E2E2E2E2E2E2E2E2E2E2E2E2E2E2E2E2E2E2E2E2E2E2E2E2E2E2E2E2E2E2E2E2E2E2E2E2E2E2E2E2E2E2E2E2E2E2DCE2
310
E2E2E2E2E2E2E2E2E2E2E2E2E2E2E2E2E2E2E2E2E2E2E2E2E2E2E2E2F5E2E2E2E2E2E2E2E2E2E2E2E2E2E2E2E2E2E2E2E2F5F5EFF5E2E2E2F5E2E2E2E2E2E2E2E2E2E2E2E2E2E2E2E2F5E2E2E2E2E2E2E2E2E2E2E2E2E2E2E2E2E2E2E2E2E2E2E2E2E2E2E2E2E2DCE2E2E2E2E2E2E2E2E2E2E2E2E2E2E2E2E2E2E2E2E2E2E2
310
E2E2E2E2E2E2E2E2E2E2E2E2E2E2E2E2E2E2E2E2E2E2E2E2E2E2E2E2E2E2E2E2E2E2E2E2E2E2E2E2E2E2E2E2E2E2E2E2E2E2E2DCE2E2E2E2E2E2E2E2E2E2E2E2E2E2E2E2E2E2E2E2E2E2E2E2E2E2E2E2E2F5E2E2E2E2E2E2E2E2E2E2E2E2E2E2E2E2F5E2E2E2F5F5EFF5E2E2E2F5E2E2E2E2E2E2E2E2E2E2E2E2E2E2E2E2F5
310
E2E2E2E2E2E2E2E2E2E2E2E2E2E2E2E2E2E2E2E2E2E2E2E2E2E2E2E2E2DCE2E2E2E2E2E2E2E2E2E2E2E2E2E2E2E2E2E2E2E2E2E2E2E2E2E2E2E2E2E2E2E2E2E2E2E2E2E2E2E2E2E2E2E2E2E2E2E2E2E2E2E2E2E2E2E2E2E2E2E2E2E2E2E2E2E2E2E2E2E2E2E2E2E2DCE2E2E2E2E2E2E2E2E2E2E2E2E2E2E2E2E2E2E2E2E2E2
310
E2E2E2E2E2E2E2F5E2E2E2E2E2E2E2E2E2E2E2E2E2E2E2E2F5E2E2E2F5F5EFF5E2E2E2F5E2E2E2E2E2E2E2E2E2E2E2E2E2E2E2E2F5E2E2E2E2E2E2E2E2E2E2E2E2E2E2E2E2E2E2E2E2E2E2E2E2E2E2E2E2E2DCE2E2E2E2E2E2E2E2E2E2E2E2E2E2E2E2E2E2E2E2E2E2E2E2E2E2E2E2E2E2E2E2E2E2E2E2E2E2E2E2E2E2E2E2
310
E2E2E2E2E2E2E2E2E2E2E2E2E2E2E2E2E2E2E2E2E2E2E2E2E2E2E2E2E2E2DCE2E2E2E2E2E2E2E2E2E2E2E2E2E2E2E2E2E2E2E2E2E2E2E2E2E2E2E2E2F5E2E2E2E2E2E2E2E2E2E2E2E2E2E2E2E2F5E2E2E2F5F5EFF5E2E2E2F5E2E2E2E2E2E2E2E2E2E2E2E2E2E2E2E2F5E2E2E2E2E2E2E2E2E2E2E2E2E2E2E2E2E2E2E2E2E2
310
E2E2E2E2E2E2E2E2DCE2E2E2E2E2E2E2E2E2E2E2E2E2E2E2E2E2E2E2E2E2E2E2E2E2E2E2E2E2E2E2E2E2E2E2E2E2BEE2E2E2E2E2E2E2E2E2E2E2E2E2E2E2E2E2E2E2E2E2E2E2E2E2E2E2E2E2E2E2E2E2E2E2E2DCE2E2E2E2E2E2E2E2E2E2E2E2E2E2E2E2E2E2E2E2E2E2E2E2E2E2E2E2E2F5E2E2E2E2E2E2E2E2E2E2E2E2E2
310
E2E2E2F5E2E2E2F5F5EFF5E2E2E2F5E2E2E2E2E2E2E2E2E2E2E2E2E2E2E2E2F5E2E2E2E2E2E2E2E2E2E2E2E2E2E2E2E2E2E2E2E2E2E2E2E2E2E2E2E2E2DCE2E2E2E2E2E2E2E2E2E2E2E2E2E2E2E2E2E2E2E2E2E2E2E2E2E2E2E2E2E2E2E2E2E2E2E227BEE2E2E2E2E2E2E2E2E2E2E2E2E2E2E2E2E2E2E2E2E2E2E2E2E2E2E2
310
E2E2E2E2E2E2E2E2E2DCE2E2E2E2E2E2E2E2E2E2E2E2E2E2E2E2E2E2E2E2E2E2E2E2E2E2E2E2E2F5E2E2E2E2E2E2E2E2E2E2E2E2E2E2E2E2F5E2E2E2F5F5EFF5E2E2E2F5E2E2E2E2E2E2E2E2E2E2E2E2E2E2E2E2F5E2E2E2E2E2E2E2E2E2E2E2E2E2E2E2E2E2E2E2E2E2E2E2E2E2E2E2E2E2DCE2E2E2E2E2E2E2E2E2E2E2E2
310
E2E2E2E2E2E2E2E2E2E2E2E2E2E2E2E2E2E2E2E2E2E2E2E227BEE2E2E2E2E2E2E2E2E2E2E2E2E2E2E2E2E2E2E2E2E2E2E2E2E2E2E2E2E2E2E2E2E2E2E2E2DCE2E2E2E2E2E2E2E2E2E2E2E2E2E2E2E2E2E2E2E2E2E2E2E2E2E2E2E2E2F5E2E2E2E2E2E2E2E2E2E2E2E2E2E2E2E2F5E2E2E2F5F5EFF5E2E2E2F5E2E2E2E2E2E2
310
E2E2E2E2E2E2E2E2E2E2F5E2E2E2E2E2E2E2E2E2E2E2E2E2E2E2E2E2E2E2E2E2E2E2E2E2E2E2E2E2DCE2E2E2E2E2E2E2E2E2E2E2E2E2E2E2E2E2E2E2E2E2E2E2E2E2E2E2E2E2E2E2E2E2E2E2E227BEE2E2E2E2E2E2E2E2E2E2E2E2E2E2E2E2E2E2E2E2E2E2E2E2E2E2E2E2E2E2E2E2E2E2E2E2DCE2E2E2E2E2E2E2E2E2E2E2
310
E2E2E2E2E2E2E2E2E2E2E2E2E2E2E2E2E2E2F5E2E2E2E2E2E2E2E2E2E2E2E2E2E2E2E2F5E2E2E2F5F5EFF5E2E2E2F5E2E2E2E2E2E2E2E2E2E2E2E2E2E2E2E2F5E2E2E2E2E2E2E2E2E2E2E2E2E2E2E2E2E2E2E2E2E2E2E2E2E2E2E2E2E2DCE2E2E2E2E2E2E2E2E2E2E2E2E2E2E2E2E2E2E2E2E2E2E2E2E2E2E2E2E2E2E2E2E2
310
E2E2E227BEE2E2E2E2E2E2E2E2E2E2E2E2E2E2E2E2E2E2E2E2E2E2E2E2E2E2E2E2E2E2E2E2E2E2E2E2DCE2E2E2E2E2E2E2E2E2E2E2E2E2E2E2E2E2E2E2E2E2E2E2E2E2E2E2E2E2F5E2E2E2E2E2E2E2E2E2E2E2E2E2E2E2E2F5E2E2E2F5F5EFF5E2E2E2F5E2E2E2E2E2E2E2E2E2E2E2E2E2E2E2E2F5E2E2E2E2E2E2E2E2E2E2
310
E2E2E2E2E2E2E2E2E2E2E2E2E2E2E2E2E2E2E2DCE2E2E2E2E2E2E2E2E2E2E2E2E2E2E2E2E2E2E2E2E2E2E2E2E2E2E2E2E2E2E2E2E2E2E2E227BEE2E2E2E2E2E2E2E2E2E2E2E2E2E2E2E2E2E2E2E2E2E2E2E2E2E2E2E2E2E2E2E2E2E2E2E2DCE2E2E2E2E2E2E2E2E2E2E2E2E2E2E2E2E2E2E2E2E2E2E2E2E2E2E2E2E2F5E2E2
310
E2E2E2E2E2E2E2E2E2E2E2E2E2E2F5E2E2E2F5F5EFF5E2E2E2F5E2E2E2E2E2E2E2E2E2E2E2E2E2E2E2E2F5E2E2E2E2E2E2E2E2E2E2E2E2E2E2E2E2E2E2E2E2E2E2E2E2E2E2E2E2E2DCE2E2E2E2E2E2E2E2E2E2E2E2E2E2E2E2E2E2E2E2E2E2E2E2E2E2E2E2E2E2E2E2E2E2E2E227BEE2E2E2E2E2E2E2E2E2E2E2E2E2E2E2E2
310
E2E2E2E2E2E2E2E2E2E2E2E2E2E2E2E2E2E2E2E2DCE2E2E2E2E2E2E2E2E2E2E2E2E2E2E2E2E2E2E2E2E2E2E2E2E2E2E2E2E2F5E2E2E2E2E2E2E2E2E2E2E2E2E2E2E2E2F5E2E2E2F5F5EFF5E2E2E2F5E2E2E2E2E2E2E2E2E2E2E2E2E2E2E2E2F5E2E2E2E2E2E2E2E2E2E2E2E2E2E2E2E2E2E2E2E2E2E2E2E2E2E2E2E2E2DCE2
310
E2E2E2E2E2E2E2E2E2E2E2E2E2E2E2E2E2E2E2E2E2E2E2E2E2E2E2E2E2E2E2E2E2E2E227BEE2E2E2E2E2E2E2E2E2E2E2E2E2E2E2E2E2E2E2E2E2E2E2E2E2E2E2E2E2E2E2E2E2E2E2E2DCE2E2E2E2E2E2E2E2E2E2E2E2E2E2E2E2E2E2E2E2E2E2E2E2E2E2E2E2E2F5E2E2E2E2E2E2E2E2E2E2E2E2E2E2E2E2F5E2E2E2F5F5EF
310
F5E2E2E2F5E2E2E2E2E2E2E2E2E2E2E2E2E2E2E2E2F5E2E2E2E2E2E2E2E2E2E2E2E2E2E2E2E2E2E2E2E2E2E2E2E2E2E2E2E2E2DCE2E2E2E2E2E2E2E2E2E2E2E2E2E2E2E2E2E2E2E2E2E2E2E2E2E2E2E2E2E2E2E2E2E2E2E227BEE2E2E2E2E2E2E2E2E2E2E2E2E2E2E2E2E2E2E2E2E2E2E2E2E2E2E2E2E2E2E2E2E2E2E2E2DC
310
E2E2E2E2E2E2E2E2E2E2E2E2E2E2E2E2E2E2E2E2E2E2E2E2E2E2E2E2E2F5E2E2E2E2E2E2E2E2E2E2E2E2E2E2E2E2F5E2E2E2F5F5EFF5E2E2E2F5E2E2E2E2E2E2E2E2E2E2E2E2E2E2E2E2F5E2E2E2E2E2E2E2E2E2E2E2E2E2E2E2E2E2E2E2E2E2E2E2E2E2E2E2E2E2DCE2E2E2E2E2E2E2E2E2E2E2E2E2E2E2E2E2E2E2E2E2E2
310
E2E2E2E2E2E2E2E2E2E2E2E2E2E227BEE2E2E2E2E2E2E2E2E2E2E2E2E2E2E2E2E2E2E2E2E2E2E2E2E2E2E2E2E2E2E2E2E2E2E2E2DCE2E2E2E2E2E2E2E2E2E2E2E2E2E2E2E2E2E2E2E2E2E2E2E2E2E2E2E2E2F5E2E2E2E2E2E2E2E2E2E2E2E2E2E2E2E2F5E2E2E2F5F5EFF5E2E2E2F5E2E2E2E2E2E2E2E2E2E2E2E2E2E2E2E2
310
F5E2E2E2E2E2E2E2E2E2E2E2E2E2E2E2E2E2E2E2E2E2E2E2E2E2E2E2E2E2DCE2E2E2E2E2E2E2E2E2E2E2E2E2E2E2E2E2E2E2E2E2E2E2E2E2E2E2E2E2E2E2E2E2E2E2E227BEE2E2E2E2E2E2E2E2E2E2E2E2E2E2E2E2E2E2E2E2E2E2E2E2E2E2E2E2E2E2E2E2E2E2E2E2DCE2E2E2E2E2E2E2E2E2E2E2E2E2E2E2E2E2E2E2E2E2
310
E2E2E2E2E2E2E2E2F5E2E2E2E2E2E2E2E2E2E2E2E2E2E2E2E2F5E2E2E2F5F5EFF5E2E2E2F5E2E2E2E2E2E2E2E2E2E2E2E2E2E2E2E2F5E2E2E2E2E2E2E2E2E2E2E2E2E2E2E2E2E2E2E2E2E2E2E2E2E2E2E2E2E2DCE2E2E2E2E2E2E2E2E2E2E2E2E2E2E2E2E2E2E2E2E2E2E2E2E2E2E2E2E2E2E2E2E2E2E2E227BEE2E2E2E2E2
310
E2E2E2E2E2E2E2E2E2E2E2E2E2E2E2E2E2E2E2E2E2E2E2E2E2E2E2E2E2E2E2DCE2E2E2E2E2E2E2E2E2E2E2E2E2E2E2E2E2E2E2E2E2E2E2E2E2E2E2E2E2F5E2E2E2E2E2E2E2E2E2E2E2E2E2E2E2E2F5E2E2E2F5F5EFF5E2E2E2F5E2E2E2E2E2E2E2E2E2E2E2E2E2E2E2E2F5E2E2E2E2E2E2E2E2E2E2E2E2E2E2E2E2E2E2E2E2
310
E2E2E2E2E2E2E2E2E2DCE2E2E2E2E2E2E2E2E2E2E2E2E2E2E2E2E2E2E2E2E2E2E2E2E2E2E2E2E2E2E2E2E2E2E2E227BEE2E2E2E2E2E2E2E2E2E2E2E2E2E2E2E2E2E2E2E2E2E2E2E2E2E2E2E2E2E2E2E2E2E2E2E2DCE2E2E2E2E2E2E2E2E2E2E2E2E2E2E2E2E2E2E2E2E2E2E2E2E2E2E2E2E2F5E2E2E2E2E2E2E2E2E2E2E2E2
310
E2E2E2E2F5E2E2E2F5F5EFF5E2E2E2E2E2E2E2E2E2E2E2E2E2E2E2E2E2E2E2E2F5E2E2E2E2E2E2E2E2E2E2E2E2E2E2E2E2E2E2E2E2E2E2E2E2E2E2E2E2E2DCE2E2E2E2E2E2E2E2E2E2E2E2E2E2E2E2E2E2E2E2E2E2E2E2E2E2E2E2E2E2E2E2E2E2E2E227BEE2E2E2E2E2E2E2E2E2E2E2E2E2E2E2E2E2E2E2E2E2E2E2E2E2E2
310
E2E2E2E2E2E2E2E2E2E2DCE2E2E2E2E2E2E2E2E2E2E2E2E2E2E2E2E2E2E2E2E2E2E2E2E2E2E2E2E2F5E2E2E2E2E2E2E2E2E2E2E2E2E2E2E2E2E2E2E2E2F5F5EFF5E2E2E2E2E2E2E2E2E2E2E2E2E2E2E2E2E2E2E2E2F5E2E2E2E2E2E2E2E2E2E2E2E2E2E2E2E2E2E2E2E2E2E2E2E2E2E2E2E2E2DCE2E2E2E2E2E2E2E2E2E2E2
310
E2E2E2E2E2E2E2E2E2E2E2E2E2E2E2E2E2E2E2E2E2E2E2E2E227BEE2E2E2E2E2E2E2E2E2E2E2E2E2E2E2E2E2E2E2E2E2E2E2E2E2E2E2E2E2E2E2E2E2E2E2E2DCE2E2E2E2E2E2E2E2E2E2E2E2E2E2E2E2E2E2E2E2E2E2E2E2E2E2E2E2E2F5E2E2E2E2E2E2E2E2E2E2E2E2E2E2E2E2E2E2E2E2F5F5EFF5E2E2E2E2E2E2E2E2E2
310
E2E2E2E2E2E2E2E2E2E2E2F5E2E2E2E2E2E2E2E2E2E2E2E2E2E2E2E2E2E2E2E2E2E2E2E2E2E2E2E2E2DCE2E2E2E2E2E2E2E2E2E2E2E2E2E2E2E2E2E2E2E2E2E2E2E2E2E2E2E2E2E2E2E2E2E2E2E2E2BEE2E2E2E2E2E2E2E2E2E2E2E2E2E2E2E2E2E2E2E2E2E2E2E2E2E2E2E2E2E2E2E2E2E2E2E2DCE2E2E2E2E2E2E2E2E2E2
310
E2E2E2E2E2E2E2E2E2E2E2E2E2E2E2E2E2E2E2F5E2E2E2E2E2E2E2E2E2E2E2E2E2E2E2E2E2E2E2E2F5F5EFF5E2E2E2E2E2E2E2E2E2E2E2E2E2E2E2E2E2E2E2E2F5E2E2E2E2E2E2E2E2E2E2E2E2E2E2E2E2E2E2E2E2E2E2E2E2E2E2E2E2E2DCE2E2E2E2E2E2E2E2E2E2E2E2E2E2E2E2E2E2E2E2E2E2E2E2E2E2E2E2E2E2E2E2
310
E2E2E2E2E2BEE2E2E2E2E2E2E2E2E2E2E2E2E2E2E2E2E2E2E2E2E2E2E2E2E2E2E2E2E2E2E2E2E2E2E2E2DCE2E2E2E2E2E2E2E2E2E2E2E2E2E2E2E2E2E2E2E2E2E2E2E2E2E2E2E2E2F5E2E2E2E2E2E2E2E2E2E2E2E2E2E2E2E2E2E2E2E2F5F5EFF5E2E2E2E2E2E2E2E2E2E2E2E2E2E2E2E2E2E2E2E2F5E2E2E2E2E2E2E2E2E2
310
E2E2E2E2E2E2E2E2E2E2E2E2E2E2E2E2E2E2E2E2DCE2E2E2E2E2E2E2E2E2E2E2E2E2E2E2E2E2E2E2E2E2E2E2E2E2E2E2E2E2E2E2E2E2E2E2E2E2BEE2E2E2E2E2E2E2E2E2E2E2E2E2E2E2E2E2E2E2E2E2E2E2E2E2E2E2E2E2E2E2E2E2E2E2E2DCE2E2E2E2E2E2E2E2E2E2E2E2E2E2E2E2E2E2E2E2E2E2E2E2E2E2E2E2E2F5E2
310
E2E2E2E2E2E2E2E2E2E2E2E2E2E2E2E2E2E2E2F5F5EFF5E2E2E2E2E2E2E2E2E2E2E2E2E2E2E2E2E2E2E2E2F5E2E2E2E2E2E2E2E2E2E2E2E2E2E2E2E2E2E2E2E2E2E2E2E2E2E2E2E2E2DCE2E2E2E2E2E2E2E2E2E2E2E2E2E2E2E2E2E2E2E2E2E2E2E2E2E2E2E2E2E2E2E2E2E2E2E2E2BEE2E2E2E2E2E2E2E2E2E2E2E2E2E2E2
310
E2E2E2E2E2E2E2E2E2E2E2E2E2E2E2E2E2E2E2E2E2DCE2E2E2E2E2E2E2E2E2E2E2E2E2E2E2E2E2E2E2E2E2E2E2E2E2E2E2E2E2F5E2E2E2E2E2E2E2E2E2E2E2E2E2E2E2E2E2E2E2E2F5F5EFF5E2E2E2E2E2E2E2E2E2E2E2E2E2E2E2E2E2E2E2E2F5E2E2E2E2E2E2E2E2E2E2E2E2E2E2E2E2E2E2E2E2E2E2E2E2E2E2E2E2E2DC
310
E2E2E2E2E2E2E2E2E2E2E2E2E2E2E2E2E2E2E2E2E2E2E2E2E2E2E2E2E2E2E2E2E2E2E2E2E2BEE2E2E2E2E2E2E2E2E2E2E2E2E2E2E2E2E2E2E2E2E2E2E2E2E2E2E2E2E2E2E2E2E2E2E2E2DCE2E2E2E2E2E2E2E2E2E2E2E2E2E2E2E2E2E2E2E2E2E2E2E2E2E2E2E2E2F5E2E2E2E2E2E2E2E2E2E2E2E2E2E2E2E2E2E2E2E2F5F5
310
EFF5E2E2E2E2E2E2E2E2E2E2E2E2E2E2E2E2E2E2E2E2F5E2E2E2E2E2E2E2E2E2E2E2E2E2E2E2E2E2E2E2E2E2E2E2E2E2E2E2E2E2DCE2E2E2E2E2E2E2E2E2E2E2E2E2E2E2E2E2E2E2E2E2E2E2E2E2E2E2E2E2E2E2E2E2E2E2E2E2BEE2E2E2E2E2E2E2E2E2E2E2E2E2E2E2E2E2E2E2E2E2E2E2E2E2E2E2E2E2E2E2E2E2E2E2E2
310
DCE2E2E2E2E2E2E2E2E2E2E2E2E2E2E2E2E2E2E2E2E2E2E2E2E2E2E2E2E2F5E2E2E2E2E2E2E2E2E2E2E2E2E2E2E2E2E2E2E2E2F5F5EFF5E2E2E2E2E2E2E2E2E2E2E2E2E2E2E2E2E2E2E2E2F5E2E2E2E2E2E2E2E2E2E2E2E2E2E2E2E2E2E2E2E2E2E2E2E2E2E2E2E2E2DCE2E2E2E2E2E2E2E2E2E2E2E2E2E2E2E2E2E2E2E2E2
310
E2E2E2E2E2E2E2E2E2E2E2E2E2E2E2E2BEE2E2E2E2E2E2E2E2E2E2E2E2E2E2E2E2E2E2E2E2E2E2E2E2E2E2E2E2E2E2E2E2E2E2E2E2DCE2E2E2E2E2E2E2E2E2E2E2E2E2E2E2E2E2E2E2E2E2E2E2E2E2E2E2E2E2F5E2E2E2E2E2E2E2E2E2E2E2E2E2E2E2E2E2E2E2E2F5F5EFF5E2E2E2E2E2E2E2E2E2E2E2E2E2E2E2E2E2E2E2
310
E2F5E2E2E2E2E2E2E2E2E2E2E2E2E2E2E2E2E2E2E2E2E2E2E2E2E2E2E2E2E2DCE2E2E2E2E2E2E2E2E2E2E2E2E2E2E2E2E2E2E2E2E2C3C3C3C3C3C3E2E2E2E2E2E2E2E2E2E2BEE2E2E2E2E2E2E2E2E2E2E2C3C3C3C3C3C3E2E2E2E2E2E2E2E2E2E2E2E2E2E2E2E2E2E2E2DCE2E2E2E2E2E2E2E2E2E2E2E2E2E2E2E2E2E2E2E2
310
E2E2E2E2E2E2E2E2E2F5E2E2E2E2E2E2E2E2E2E2E2E2E2E2E2E2E2E2E2E2F5F5EFF5E2E2E2F5E2E2E2E2E2E2E2E2E2E2E2E2E2E2E2E2F5E2E2E2E2E2E2E2E2E2E2E2E2E2E2E2E2E2E2E2E2E2E2E2E2E2E2E2E2E2DCE2E2E2E2E2E2E2E2E2E2E2BEE2BEE2E2E2E2E2E2E2C3C3C3C3C3C3E2E2E2E2E2E2E2E2E2E2BEE2E2E2E2
310
E2E2E2E2E2E2E2C3C3C3C3C3C3E2E2E2E2E2E2E2E2BEE2BEE2E2E2E2E2E2E2E2DCE2E2E2E2E2E2E2E2E2E2E2E2E2E2E2E2E2E2E2E2E2E2E2E2E2E2E2E2E2F5E2E2E2E2E2E2E2E2E2E2E2E2E2E2E2E2F5E2E2E2F5F5EFF5E2E2E2F5E2E2E2E2E2E2E2E2E2E2E2E2E2E2E2E2F5E2E2E2E2E2E2E2E2E2E2E2E2E2E2E2E2E2E2E2
310
E2E2E2E2E2E2E2E2E2E2DCE2E2E2E2E2E2E2E2E2E2E2BEBEBEE2E2E2E2E2E2E2F5BEF5F5F5BEE2E2E2E2E2E2E2E2E2E2BEE2E2E2E2E2E2E2E2E2E2E2F5F5F5F5F5F5E2E2E2E2E2E2E227BEBEBEE2E2E2E2E2E2E2E2DCE2E2E2E2E2E2E2E2E2E2E2E2E2E2E2E2E2E2E2E2E2E2E2E2E2E2E2E2E2F5E2E2E2E2E2E2E2E2E2E2E2
310
E2E2E2E2E2F5E2E2E2F5F5EFF5E2E2E2F5E2E2E2E2E2E2E2E2E2E2E2E2E2E2E2E2F5E2E2E2E2E2E2E2E2E2E2E2E2E2E2E2E2E2E2E2E2E2E2E2E2E2E2E2E2E2DCE2E2E2E2E2E2E2E2E2E2E2BE2727E2E2E2E2E2E2E2F5E2E2E2F5F5E2E2E2E2E2E2E2E2E2E2BEE2E2E2E2E2E2E2E2E2E2E2F5E2E2E2F5F5E2E2E2E2E2E2E227
310
27E2BEE2E2E2E2E2E2E2E2DCE2E2E2E2E2E2E2E2E2E2E2E2E2E2E2E2E2E2E2E2E2E2E2E2E2E2E2E2E2F5E2E2E2E2E2E2E2E2E2E2E2E2E2E2E2E2F5E2E2E2F5F5EFF5E2E2E2F5E2E2E2E2E2E2E2E2E2E2E2E2E2E2E2E2F5E2E2E2E2E2E2E2E2E2E2E2E2E2E2E2E2E2E2E2E2E2E2E2E2E2E2E2E2E2DCE2E2E2E2E2E2E2E2E2E2
310
E2BE2727E2E2E2E2E2C3C3F5E2E2E2F5F5E2E2E2E2E2E2E2E2E2E2BEE2E2E2E2E2E2E2E2E2E2E2F5E2E2E2F5F5C3E2E2E2E2E2E22727E2BEE2E2E2E2E2E2E2E2DCE2E2E2E2E2E2E2E2E2E2E2E2E2E2E2E2E2E2E2E2E2E2E2E2E2E2E2E2E2F5E2E2E2E2E2E2E2E2E2E2E2E2E2E2E2E2F5E2E2E2F5F5EFF5E2E2E2F5E2E2E2E2
310
E2E2E2E2E2E2E2E2E2E2E2E2F5E2E2E2E2E2E2E2E2E2E2E2E2E2E2E2E2E2E2E2E2E2E2E2E2E2E2E2E2E2DCE2E2E2E2E2E2E2E2E2E2E2BE27BEC3C3C3F5BEF5F5F5E2E2E2F5F5E2E2E2E2E2E2E2E2E2E2BEE2E2E2E2E2E2E2E2E2E2E2F5E2E2E2F5F5F5F5F5F5C3C3E227BEE2BEE2E2E2E2E2E2E2E2DCE2E2E2E2E2E2E2E2E2
310
E2E2E2E2E2E2E2E2E2E2E2E2E2E2E2E2E2E2E2E2F5E2E2E2E2E2E2E2E2E2E2E2E2E2E2E2E2F5E2E2E2F5F5EFF5E2E2E2F5E2E2E2E2E2E2E2E2E2E2E2E2E2E2E2E2F5E2E2E2E2E2E2E2E2E2E2E2E2E2E2E2E2E2E2E2E2E2E2E2E2E2E2E2E2E2DCE2E2E2E2E2E2E2E2E2E227272727C3E2E2F5E2E2E2E2E2E2F5F5BEE2E2E2E2
310
E2E2E2E2E2E2BEE2E2E2E2E2E2E2E2E2E2E2F5F5F5E2E2E2E2E2E2F5E2C3E2272727BEE2E2E2E2E2E2E2E2DCE2E2E2E2E2E2E2E2E2E2E2E2E2E2E2E2E2E2E2E2E2E2E2E2E2E2E2E2E2F5E2E2E2E2E2E2E2E2E2E2E2E2E2E2E2E2F5E2E2E2F5F5EFF5E2E2E2F5E2E2E2E2E2E2E2E2E2E2E2E2E2E2E2E2F5E2E2E2E2E2E2E2E2
310
E2E2E2E2E2E2E2E2E2E2E2E2E2E2E2E2E2E2E2E2E2DCE2E2E2E2E2E2E2E2E2E227272727C3F5F5BEE2E2E2E2E2E2F5E2E2E2E2E2E2E2E2E2E2E2E2BEE2E2E2E2E2E2E2E2E2E2E2E2E2F5E2E2E2E2E2E2F5F5C3E2272727BEE2E2E2E2E2E2E2E2DCE2E2E2E2E2E2E2E2E2E2E2E2E2E2E2E2E2E2E2E2E2E2E2E2E2E2E2E2E2F5
310
E2E2E2E2E2E2E2E2E2E2E2E2E2E2E2E2F5E2E2E2F5F5EFF5E2E2E2F5E2E2E2E2E2E2E2E2E2E2E2E2E2E2E2E2F5E2E2E2E2E2E2E2E2E2E2E2E2E2E2E2E2E2E2E2E2E2E2E2E2E2E2E2E2E2DCE2E2E2E2E2E2E2E2E2E22727E2BEE2C3F5E2E2E2E2E2E2E2F5E2E2E2E2E2E2E2E2E2E2E2E2BEE2E2E2E2E2E2E2E2E2E2E2E2E2F5
310
E2E2E2E2E2E2E2C3C3E2E2BE27BEE2E2E2E2E2E2E2E2DCE2E2E2E2E2E2E2E2E2E2E2E2E2E2E2E2E2E2E2E2E2E2E2E2E2E2E2E2E2F5E2E2E2E2E2E2E2E2E2E2E2E2E2E2E2E2F5E2E2E2F5F5EFF5E2E2E2F5E2E2E2E2E2E2E2E2E2E2E2E2E2E2E2E2F5E2E2E2E2E2E2E2E2E2E2E2E2E2E2E2E2E2E2E2E2E2E2E2E2E2E2E2E2E2
310
DCE2E2E2E2E2E2E2E2E2E2E2272727E2F5F5E2E2E2E2E2E2E2F5E2E2E2E2E2E2E2E2E2E2E2E2BEE2E2E2E2E2E2E2E2E2E2E2E2E2F5E2E2E2E2E2E2E2F5E2E2272727BEE2E2E2E2E2E2E2E2DCE2E2E2E2E2E2E2E2E2E2E2E2E2E2E2E2E2E2E2E2E2E2E2E2E2E2E2E2E2F5E2E2E2E2E2E2E2E2E2E2E2E2E2E2E2E2F5E2E2E2F5
310
F5EFF5E2E2E2F5E2E2E2E2E2E2E2E2E2E2E2E2E2E2E2E2F5E2E2E2E2E2E2E2E2E2E2E2E2E2E2E2E2E2E2E2E2E2E2E2E2E2E2E2E2E2DCE2E2E2E2E2E2E2E2E2E2E2BE2727E2F5F5E2E2E2E2E2E2E2F5E2E2E2E2E2E2E2E2E2E2E2E2BEE2E2E2E2E2E2E2E2E2E2E2E2E2F5E2E2E2E2E2E2E2F5E2E22727E2BEE2E2E2E2E2E2E2
310
E2DCE2E2E2E2E2E2E2E2E2E2E2E2E2E2E2E2E2E2E2E2E2E2E2E2E2E2E2E2E2F5E2E2E2E2E2E2E2E2E2E2E2E2E2E2E2E2F5E2E2E2F5F5EFF5E2E2E2F5E2E2E2E2E2E2E2E2E2E2E2E2E2E2E2E2F5E2E2E2E2E2E2E2E2E2E2E2E2E2E2E2E2E2E2E2E2E2E2E2E2E2E2E2E2E2DCE2E2E2E2E2E2E2E2E2E2E2BE2727E2F5F5E2E2E2
310
E2E2E2E2F5E2E2E2E2E2E2E2E2E2E2E2E2BEE2E2E2E2E2E2E2E2E2E2E2E2E2F5E2E2E2E2E2E2E2F5E2E22727E2BEE2E2E2E2E2E2E2E2DCE2E2E2E2E2E2E2E2E2E2E2E2E2E2E2E2E2E2E2E2E2E2E2E2E2E2E2E2E2F5E2E2E2E2E2E2E2E2E2E2E2E2E2E2E2E2F5E2E2E2F5F5EFF5E2E2E2F5E2E2E2E2E2E2E2E2E2E2E2E2E2E2
310
E2E2F5E2E2E2E2E2E2E2E2E2E2E2E2E2E2E2E2E2E2E2E2E2E2E2E2E2E2E2E2E2DCE2E2E2E2E2E2E2E2E2E2E2BEE2BEE2F5F5E2E2F5F5F5F5F5BEE2E2E2E2E2E2E2E2E2E2E2E2BEE2E2E2E2E2E2E2E2E2E2E2E2E2F5F5F5F5F5F5E2E2F5E2E2E2BEE2BEE2E2E2E2E2E2E2E2DCE2E2E2E2E2E2E2E2E2E2E2E2E2E2E2E2E2E2E2
310
E2E2E2E2E2E2E2E2E2E2F5E2E2E2E2E2E2E2E2E2E2E2E2E2E2E2E2F5E2E2E2F5F5EFF5E2E2E2F5E2E2E2E2E2E2E2E2E2E2E2E2E2E2E2E2F5E2E2E2E2E2E2E2E2E2E2E2E2E2E2E2E2E2E2E2E2E2E2E2E2E2E2E2E2E2DCE2E2E2E2E2E2E2E2E2E2E2BEBEBEE2BEF5BEF5BEE2E2E2E2C3E2E2E2E2E2E2E2E2E2E2E2E2BEE2E2E2
310
E2E2E2E2E2E2E2E2E2E2C3E2E2E2F5F5F5F5F5BEE2E2BEBEBEE2E2E2E2E2E2E2E2DCE2E2E2E2E2E2E2E2E2E2E2E2E2E2E2E2E2E2E2E2E2E2E2E2E2E2E2E2E2F5E2E2E2E2E2E2E2E2E2E2E2E2E2E2E2E2F5E2E2E2F5F5EFF5E2E2E2F5E2E2E2E2E2E2E2E2E2E2E2E2E2E2E2E2F5E2E2E2E2E2E2E2E2E2E2E2E2E2E2E2E2E2E2
310
E2E2E2E2E2E2E2E2E2E2E2DCE2E2E2E2E2E2E2E2E2E2E2E2E2E2E2E2C3C3E2E2E2E2E2E2C3E2E2E2E2E2E2E2E2E2E2E2E2BEE2E2E2E2E2E2E2E2E2E2E2E2E2C3E2E2E2E2E2E2C3C3E2E2E2E2E2E2E2E2E2E2E2E2E2E2DCE2E2E2E2E2E2E2E2E2E2E2E2E2E2E2E2E2E2E2E2E2E2E2E2E2E2E2E2E2F5E2E2E2E2E2E2E2E2E2E2
310
E2E2E2E2E2E2F5E2E2E2F5F5EFF5E2E2E2F5E2E2E2E2E2E2E2E2E2E2E2E2E2E2E2E2F5E2E2E2E2E2E2E2E2E2E2E2E2E2E2E2E2E2E2E2E2E2E2E2E2E2E2E2E2E2DCE2E2E2E2E2E2E2E2E2E2E2E2E2E2E2E2C3C3C3C3C3C3C3C3C3E2E2E2E2E2E2E2E2E2E2E2E2BEE2E2E2E2E2E2E2E2E2E2E2E2E2C3C3C3C3C3C3C3C3C3E2E2
310
E2E2E2E2E2E2E2E2E2E2E2E2DCE2E2E2E2E2E2E2E2E2E2E2E2E2E2E2E2E2E2E2E2E2E2E2E2E2E2E2E2E2F5E2E2E2E2E2E2E2E2E2E2E2E2E2E2E2E2F5E2E2E2F5F5EFF5E2E2E2F5E2E2E2E2E2E2E2E2E2E2E2E2E2E2E2E2F5E2E2E2E2E2E2E2E2E2E2E2E2E2E2E2E2E2E2E2E2E2E2E2E2E2E2E2E2E2DCE2E2E2E2E2E2E2E2E2
310
E2E2E2E2E2E2E2E2E2E2E2E2E2E2E2E2E2E2E2E2E2E2E2E2E2E2E2E2BEE2E2E2E2E2E2E2E2E2E2E2E2E2E2E2E2E2E2E2E2E2E2E2E2E2E2E2E2E2E2E2E2E2E2E2E2DCE2E2E2E2E2E2E2E2E2E2E2E2E2E2E2E2E2E2E2E2E2E2E2E2E2E2E2E2E2F5E2E2E2E2E2E2E2E2E2E2E2E2E2E2E2E2F5E2E2E2F5F5EFF5E2E2E2E2E2E2E2
310
E2E2E2E2E2E2E2E2E2E2E2E2E2F5E2E2E2E2E2E2E2E2E2E2E2E2E2E2E2E2E2E2E2E2E2E2E2E2E2E2E2E2E2DCE2E2E2E2E2E2E2E2E2E2E2E2E2E2E2BE272727BEBE2727272727BEE2E2E2E2E2E2E2E2E2E2BEE2E2E2E2E2E2E2E2E2E2BEBE2727272727BEBE2727BEE2E2E2E2E2E2E2E2E2E2E2E2E2E2DCE2E2E2E2E2E2E2E2
310
E2E2E2E2E2E2E2E2E2E2E2E2E2E2E2E2E2E2E2E2E2F5E2E2E2E2E2E2E2E2E2E2E2E2E2E2E2E2E2E2E2E2F5F5EFF5E2E2E2E2E2E2E2E2E2E2E2E2E2E2E2E2E2E2E2E2F5E2E2E2E2E2E2E2E2E2E2E2E2E2E2E2E2E2E2E2E2E2E2E2E2E2E2E2E2E2DCE2E2E2E2E2E2E2E2E2E2E2E2E2E2E2BEBEBEBEBEBEBEBEBEBEBEBEE2E2E2
310
E2E2E2E2E2E2E2BEE2E2E2E2E2E2E2E2E2E2E2BEBEBEBEBEBEBEBEBEBEBEE2E2E2E2E2E2E2E2E2E2E2E2E2E2DCE2E2E2E2E2E2E2E2E2E2E2E2E2E2E2E2E2E2E2E2E2E2E2E2E2E2E2E2E2F5E2E2E2E2E2E2E2E2E2E2E2E2E2E2E2E2E2E2E2E2F5F5EFF5E2E2E2E2E2E2E2E2E2E2E2E2E2E2E2E2E2E2E2E2F5E2E2E2E2E2E2E2
310
E2E2E2E2E2E2E2E2E2E2E2E2E2E2E2E2E2E2E2E2E2E2DCE2E2E2E2E2E2E2E2E2E2E2E2E2E2E2BEBEE2E227272727E2E2E2BEE2E2E2E2E2E2E2E2E2E2BEE2E2E2E2E2E2E2E2E2E2E2BEE2E2E2272727E2E2E2BEE2E2E2E2E2E2E2E2E2E2E2E2E2E2DCE2E2E2E2E2E2E2E2E2E2E2E2E2E2E2E2E2E2E2E2E2E2E2E2E2E2E2E2E2
310
F5E2E2E2E2E2E2E2E2E2E2E2E2E2E2E2E2E2E2E2E2F5F5EFF5E2E2E2E2E2E2E2E2E2E2E2E2E2E2E2E2E2E2E2E2F5E2E2E2E2E2E2E2E2E2E2E2E2E2E2E2E2E2E2E2E2E2E2E2E2E2E2E2E2E2DCE2E2E2E2E2E2E2E2E2E2E2E2E2E2E2E2E2E2E2E2E2E2E2E2E2E2E2E2E2E2E2E2E2E2E2E2E2BEE2E2E2E2E2E2E2E2E2E2E2E2E2
310
E2E2E2E2E2E2E2E2E2E2E2E2E2E2E2E2E2E2E2E2E2E2E2DCE2E2E2E2E2E2E2E2E2E2E2E2E2E2E2E2E2E2E2E2E2E2E2E2E2E2E2E2E2F5E2E2E2E2E2E2E2E2E2E2E2E2E2E2E2E2E2E2E2E2F5F5EFF5E2E2E2E2E2E2E2E2E2E2E2E2E2E2E2E2E2E2E2E2F5E2E2E2E2E2E2E2E2E2E2E2E2E2E2E2E2E2E2E2E2E2E2E2E2E2E2E2E2
310
E2DCE2E2E2E2E2E2E2E2E2E2E2E2E2E2E2E2E2E2E2E2E2E2E2E2E2E2E2E2E2E2E2E2E2E2E2E2E2BEE2E2E2E2E2E2E2E2E2E2E2E2E2E2E2E2E2E2E2E2E2E2E2E2E2E2E2E2E2E2E2E2E2E2E2E2DCE2E2E2E2E2E2E2E2E2E2E2E2E2E2E2E2E2E2E2E2E2E2E2E2E2E2E2E2E2F5E2E2E2E2E2E2E2E2E2E2E2E2E2E2E2E2E2E2E2E2
310
F5F5EFF5E2E2E2E2E2E2E2E2E2E2E2E2E2E2E2E2E2E2E2E2F5E2E2E2E2E2E2E2E2E2E2E2E2E2E2E2E2E2E2E2E2E2E2E2E2E2E2E2E2E2DCE2E2E2E2E2E2E2E2E2E2E2E2E2E2E2E2E2E2E2E2E2E2E2E2E2E2E2E2E2E2E2E2E2E2E2E2E2BEE2E2E2E2E2E2E2E2E2E2E2E2E2E2E2E2E2E2E2E2E2E2E2E2E2E2E2E2E2E2E2E2E2E2
310
E2E2DCE2E2E2E2E2E2E2E2E2E2E2E2E2E2E2E2E2E2E2E2E2E2E2E2E2E2E2E2E2F5E2E2E2E2E2E2E2E2E2E2E2E2E2E2E2E2E2E2E2E2F5F5EFF5E2E2E2E2E2E2E2E2E2E2E2E2E2E2E2E2E2E2E2E2F5E2E2E2E2E2E2E2E2E2E2E2E2E2E2E2E2E2E2E2E2E2E2E2E2E2E2E2E2E2DCE2E2E2E2E2E2E2E2E2E2E2E2E2E2E2E2E2E2E2
310
E2E2E2E2E2E2E2E2E2E2E2E2E2E2E2E2E2E2BEE2E2E2E2E2E2E2E2E2E2E2E2E2E2E2E2E2E2E2E2E2E2E2E2E2E2E2E2E2E2E2E2E2E2E2E2DCE2E2E2E2E2E2E2E2E2E2E2E2E2E2E2E2E2E2E2E2E2E2E2E2E2E2E2E2E2F5E2E2E2E2E2E2E2E2E2E2E2E2E2E2E2E2E2E2E2E2F5F5EFF5E2E2E2E2E2E2E2E2E2E2E2E2E2E2E2E2E2
310
E2E2E2F5E2E2E2E2E2E2E2E2E2E2E2E2E2E2E2E2E2E2E2E2E2E2E2E2E2E2E2E2E2DCE2E2E2E2E2E2E2E2E2E2E2E2E2E2E2E2E2E2E2E2E2E2E2E2E2E2E2E2E2E2E2E2E2E2E2E2E2E2E2E2E2E2E2E2E2E2E2E2E2E2E2E2E2E2E2E2E2E2E2E2E2E2E2E2E2E2E2E2E2E2E2E2E2E2DCE2E2E2E2E2E2E2E2E2E2E2E2E2E2E2E2E2E2
310
E2E2E2E2E2E2E2E2E2E2E2F5E2E2E2E2E2E2E2E2E2E2E2E2E2E2E2E2E2E2E2E2F5F5EFF5E2E2E2E2E2E2E2E2E2E2E2E2E2E2E2E2E2E2E2E2F5E2E2E2E2E2E2E2E2E2E2E2E2E2E2E2E2E2E2E2E2E2E2E2E2E2E2E2E2E2DCE2E2E2E2E2E2E2E2E2E2E2E2E2E2E2E2E2E2E2E2E2E2E2E2E2E2E2E2E2E2E2E2E2E2E2E2E2E2E2E2
310
E2E2E2E2E2E2E2E2E2E2E2E2E2E2E2E2E2E2E2E2E2E2E2E2E2E2E2E2E2E2E2E2E2E2DCE2E2E2E2E2E2E2E2E2E2E2E2E2E2E2E2E2E2E2E2E2E2E2E2E2E2E2E2E2F5E2E2E2E2E2E2E2E2E2E2E2E2E2E2E2E2E2E2E2E2F5F5EFF5E2E2E2F5E2E2E2E2E2E2E2E2E2E2E2E2E2E2E2E2F5E2E2E2E2E2E2E2E2E2E2E2E2E2E2E2E2E2
310
E2E2E2E2E2E2E2E2E2E2E2E2DCE2E2E2E2E2E2E2E2E2E2E2E2E2E2E2E2E2E2E2E2E2E2E2E2E2E2E2E2E2E2E2E2E2E2E2E2E2E2E2E2E2E2E2E2E2E2E2E2E2E2E2E2E2E2E2E2E2E2E2E2E2E2E2E2E2E2E2E2E2E2E2E2E2E2DCE2E2E2E2E2E2E2E2E2E2E2E2E2E2E2E2E2E2E2E2E2E2E2E2E2E2E2E2E2F5E2E2E2E2E2E2E2E2E2
310
E2E2E2E2E2E2E2F5E2E2E2F5F5EFF5E2E2E2F5E2E2E2E2E2E2E2E2E2E2E2E2E2E2E2E2F5E2E2E2E2E2E2E2E2E2E2E2E2E2E2E2E2E2E2E2E2E2E2E2E2E2E2E2E2E2DCE2E2E2E2E2E2E2E2E2E2E2E2E2E2E2E2E2E2E2E2E2E2E2E2E2E2E2E2E2E2E2E2E2E2E2E2E2E2E2E2E2E2E2E2E2E2E2E2E2E2E2E2E2E2E2E2E2E2E2E2E2
310
E2E2E2E2E2E2E2E2E2E2E2E2E2DCE2E2E2E2E2E2E2E2E2E2E2E2E2E2E2E2E2E2E2E2E2E2E2E2E2E2E2E2E2F5E2E2E2E2E2E2E2E2E2E2E2E2E2E2E2E2F5E2E2E2F5F5EFF5E2E2E2F5E2E2E2E2E2E2E2E2E2E2E2E2E2E2E2E2F5E2E2E2E2E2E2E2E2E2E2E2E2E2E2E2E2E2E2E2E2E2E2E2E2E2E2E2E2E2DCE2E2E2E2E2E2E2E2
310
E2E2E2E2E2E2E2E2E2E2E2E2E2E2E2E2E2E2E2E2E2E2E2E2E2E2E2E2E2E2E2E2E2E2E2E2E2E2E2E2E2E2E2E2E2E2E2E2E2E2E2E2E2E2E2E2E2E2E2E2E2E2E2E2E2E2DCE2E2E2E2E2E2E2E2E2E2E2E2E2E2E2E2E2E2E2E2E2E2E2E2E2E2E2E2E2F5E2E2E2E2E2E2E2E2E2E2E2E2E2E2E2E2F5E2E2E2F5F5EFF5E2E2E2F5E2E2
310
E2E2E2E2E2E2E2E2E2E2E2E2E2E2F5E2E2E2E2E2E2E2E2E2E2E2E2E2E2E2E2E2E2E2E2E2E2E2E2E2E2E2E2E2DCE2E2E2E2E2E2E2E2E2E2E2E2E2E2E2E2E2E2E2E2E2E2E2E2E2E2E2E2E2E2E2E2E2E2E2E2E2E2E2E2E2E2E2E2E2E2E2E2E2E2E2E2E2E2E2E2E2E2E2E2E2E2E2E2E2E2E2E2E2E2E2E2E2E2DCE2E2E2E2E2E2E2
310
E2E2E2E2E2E2E2E2E2E2E2E2E2E2E2E2E2E2E2E2E2E2F5E2E2E2E2E2E2E2E2E2E2E2E2E2E2E2E2F5E2E2E2F5F5EFF5E2E2E2F5E2E2E2E2E2E2E2E2E2E2E2E2E2E2E2E2F5E2E2E2E2E2E2E2E2E2E2E2E2E2E2E2E2E2E2E2E2E2E2E2E2E2E2E2E2E2DCE2E2E2E2E2E2E2E2E2E2E2E2E2E2E2E2E2E2E2E2E2E2E2E2E2E2E2E2E2
310
E2E2E2E2E2E2E2E2E2E2E2E2E2E2E2E2E2E2E2E2E2E2E2E2E2E2E2E2E2E2E2E2E2E2E2E2E2E2E2E2E2E2E2E2E2DCE2E2E2E2E2E2E2E2E2E2E2E2E2E2E2E2E2E2E2E2E2E2E2E2E2E2E2E2E2F5E2E2E2E2E2E2E2E2E2E2E2E2E2E2E2E2F5E2E2E2F5F5EFF5E2E2E2F5E2E2E2E2E2E2E2E2E2E2E2E2E2E2E2E2F5E2E2E2E2E2E2
310
E2E2E2E2E2E2E2E2E2E2E2E2E2E2E2E2E2E2E2E2E2E2E2DCE2E2E2E2E2E2E2E2E2E2E2E2E2E2E2E2E2E2E2E2E2E2E2E2E2E2E2E2E2E2E2E2E2E2E2E2E2E2E2E2E2E2E2E2E2E2E2E2E2E2E2E2E2E2E2E2E2E2E2E2E2E2E2E2E2E2E2E2E2E2E2E2E2E2DCE2E2E2E2E2E2E2E2E2E2E2E2E2E2E2E2E2E2E2E2E2E2E2E2E2E2E2E2
310
E2F5E2E2E2E2E2E2E2E2E2E2E2E2E2E2E2E2F5E2E2E2F5F5EFF5E2E2E2F5E2E2E2E2E2E2E2E2E2E2E2E2E2E2E2E2F5E2E2E2E2E2E2E2E2E2E2E2E2E2E2E2E2E2E2E2E2E2E2E2E2E2E2E2E2E2DCE2E2E2E2E2E2E2E2E2E2E2E2E2E2E2E2E2E2E2E2E2E2E2E2E2E2E2E2E2E2E2E2E2E2E2E2E2E2E2E2E2E2E2E2E2E2E2E2E2E2
310
E2E2E2E2E2E2E2E2E2E2E2E2E2E2E2E2E2E2E2E2E2E2E2E2DCE2E2E2E2E2E2E2E2E2E2E2E2E2E2E2E2E2E2E2E2E2E2E2E2E2E2E2E2E2F5E2E2E2E2E2E2E2E2E2E2E2E2E2E2E2E2F5E2E2E2F5F5EFF5E2E2E2F5E2E2E2E2E2E2E2E2E2E2E2E2E2E2E2E2F5E2E2E2E2E2E2E2E2E2E2E2E2E2E2E2E2E2E2E2E2E2E2E2E2E2E2E2
310
E2E2DCE2E2E2E2E2E2E2E2E2E2E2E2E2E2E2E2E2E2E2E2E2E2E2E2E2E2E2E2E2E2E2E2E2E2E2E2E2E2E2E2E2E2E2E2E2E2E2E2E2E2E2E2E2E2E2E2E2E2E2E2E2E2E2E2E2E2E2E2E2E2E2E2E2E2DCE2E2E2E2E2E2E2E2E2E2E2E2E2E2E2E2E2E2E2E2E2E2E2E2E2E2E2E2E2F5E2E2E2E2E2E2E2E2E2E2E2E2E2E2E2E2F5E2E2
310
E2F5F5EFF5E2E2E2F5E2E2E2E2E2E2E2E2E2E2E2E2E2E2E2E2F5E2E2E2E2E2E2E2E2E2E2E2E2E2E2E2E2E2E2E2E2E2E2E2E2E2E2E2E2E2DCE2E2E2E2E2E2E2E2E2E2E2E2E2E2E2E2E2E2E2E2E2E2E2E2E2E2E2E2E2E2E2E2E2E2E2E2E2E2E2E2E2E2E2E2E2E2E2E2E2E2E2E2E2E2E2E2E2E2E2E2E2E2E2E2E2E2E2E2E2E2E2
310
E2E2E2DCE2E2E2E2E2E2E2E2E2E2E2E2E2E2E2E2E2E2E2E2E2E2E2E2E2E2E2E2E2F5E2E2E2E2E2E2E2E2E2E2E2E2E2E2E2E2F5E2E2E2F5F5EFF5E2E2E2F5E2E2E2E2E2E2E2E2E2E2E2E2E2E2E2E2F5E2E2E2E2E2E2E2E2E2E2E2E2E2E2E2E2E2E2E2E2E2E2E2E2E2E2E2E2E2DCE2E2E2E2E2E2E2E2E2E2E2E2E2E2E2E2E2E2
310
E2E2E2E2E2E2E2E2E2E2E2E2E2E2E2E2E2E2E2E2E2E2E2E2E2E2E2E2E2E2E2E2E2E2E2E2E2E2E2E2E2E2E2E2E2E2E2E2E2E2E2E2E2E2E2E2DCE2E2E2E2E2E2E2E2E2E2E2E2E2E2E2E2E2E2E2E2E2E2E2E2E2E2E2E2E2F5E2E2E2E2E2E2E2E2E2E2E2E2E2E2E2E2F5E2E2E2F5F5EFF5E2E2E2F5E2E2E2E2E2E2E2E2E2E2E2E2
310
E2E2E2E2F5E2E2E2E2E2E2E2E2E2E2E2E2E2E2E2E2E2E2E2E2E2E2E2E2E2E2E2E2E2DCE2E2E2E2E2E2E2E2E2E2E2E2E2E2E2E2E2E2E2E2E2E2E2E2E2E2E2E2E2E2E2E2E2E2E2E2E2E2E2E2E2E2E2E2E2E2E2E2E2E2E2E2E2E2E2E2E2E2E2E2E2E2E2E2E2E2E2E2E2E2E2E2E2E2DCE2E2E2E2E2E2E2E2E2E2E2E2E2E2E2E2E2
310
E2E2E2E2E2E2E2E2E2E2E2E2F5E2E2E2E2E2E2E2E2E2E2E2E2E2E2E2E2F5E2E2E2F5F5EFF5E2E2E2F5E2E2E2E2E2E2E2E2E2E2E2E2E2E2E2E2F5E2E2E2E2E2E2E2E2E2E2E2E2E2E2E2E2E2E2E2E2E2E2E2E2E2E2E2E2E2DCE2E2E2E2E2E2E2E2E2E2E2E2E2E2E2E2E2E2E2E2E2E2E2E2E2E2E2E2E2E2E2E2E2E2E2E2E2E2E2
310
E2E2E2E2E2E2E2E2E2E2E2E2E2E2E2E2E2E2E2E2E2E2E2E2E2E2E2E2E2E2E2E2E2E2E2DCE2E2E2E2E2E2E2E2E2E2E2E2E2E2E2E2E2E2E2E2E2E2E2E2E2E2E2E2E2F5E2E2E2E2E2E2E2E2E2E2E2E2E2E2E2E2F5E2E2E2F5F5EFF5E2E2E2F5E2E2E2E2E2E2E2E2E2E2E2E2E2E2E2E2F5E2E2E2E2E2E2E2E2E2E2E2E2E2E2E2E2
310
E2E2E2E2E2E2E2E2E2E2E2E2E2DCE2E2E2E2E2E2E2E2E2E2E2E2E2E2E2E2E2E2E2E2E2E2E2E2E2E2E2E2E2E2E2E2E2E2E2E2E2E2E2E2E2E2E2E2E2E2E2E2E2E2E2E2E2E2E2E2E2E2E2E2E2E2E2E2E2E2E2E2E2E2E2E2E2E2DCE2E2E2E2E2E2E2E2E2E2E2E2E2E2E2E2E2E2E2E2E2E2E2E2E2E2E2E2E2F5E2E2E2E2E2E2E2E2
310
E2E2E2E2E2E2E2E2F5E2E2E2F5F5EFF5E2E2E2F5E2E2E2E2E2E2E2E2E2E2E2E2E2E2E2E2F5E2E2E2E2E2E2E2E2E2E2E2E2E2E2E2E2E2E2E2E2E2E2E2E2E2E2E2E2E2DCE2E2E2E2E2E2E2E2E2E2E2E2E2E2E2E2E2E2E2E2E2E2E2E2E2E2E2E2E2E2E2E2E2E2E2E2E2E2E2E2E2E2E2E2E2E2E2E2E2E2E2E2E2E2E2E2E2E2E2E2
310
E2E2E2E2E2E2E2E2E2E2E2E2E2E2DCE2E2E2E2E2E2E2E2E2E2E2E2E2E2E2E2E2E2E2E2E2E2E2E2E2E2E2E2E2F5E2E2E2E2E2E2E2E2E2E2E2E2E2E2E2E2F5E2E2E2F5F5EFF5E2E2E2F5E2E2E2E2E2E2E2E2E2E2E2E2E2E2E2E2F5E2E2E2E2E2E2E2E2E2E2E2E2E2E2E2E2E2E2E2E2E2E2E2E2E2E2E2E2E2DCE2E2E2E2E2E2E2
310
E2E2E2E22727272727272727272727272727272727272727272727272727272727272727272727272727272727272727272727E2E2E2E2E2E2E2E2E2E2E2E2E2E2E2E2DCE2E2E2E2E2E2E2E2E2E2E2E2E2E2E2E2E2E2E2E2E2E2E2E2E2E2E2E2E2F5E2E2E2E2E2E2E2E2E2E2E2E2E2E2E2E2F5E2E2E2F5F5EFF5E2E2E2F5E2
310
E2E2E2E2E2E2E2E2E2E2E2E2E2E2E2F5E2E2E2E2E2E2E2E2E2E2E2E2E2E2E2E2E2E2E2E2E2E2E2E2E2E2E2E2E2DCE2E2E2E2E2E2E2E2E2E2E2E2E2E2E2E2E2E2E2E2E2E2E2E2E2E2E2E2E2E2E2E2E2E2E2E2E2E2E2E2E2E2E2E2E2E2E2E2E2E2E2E2E2E2E2E2E2E2E2E2E2E2E2E2E2E2E2E2E2E2E2E2E2E2DCE2E2E2E2E2E2
310
E2E2E2E2E2E2E2E2E2E2E2E2E2E2E2E2E2E2E2E2E2E2E2F5E2E2E2E2E2E2E2E2E2E2E2E2E2E2E2E2F5E2E2E2F5F5EFF5E2E2E2F5E2E2E2E2E2E2E2E2E2E2E2E2E2E2E2E2F5E2E2E2E2E2E2E2E2E2E2E2E2E2E2E2E2E2E2E2E2E2E2E2E2E2E2E2E2E2DCE2E2E2E2E2E2E2E2E2E2272727272727272727272727272727E2E2E2
310
E2E2E2E2E2E2E2E2E2E2E2E2E2E2E2E2E2E2E2E2E2E2E2E2E2E2E2E2E2E2E2E2E2E2E2E2E2E2E2E2E2E2E2E2E2E2DCE2E2E2E2E2E2E2E2E2E2E2E2E2E2E2E2E2E2E2E2E2E2E2E2E2E2E2E2E2F5E2E2E2E2E2E2E2E2E2E2E2E2E2E2E2E2F5E2E2E2F5F5EFF5E2E2E2E2E2E2E2E2E2E2E2E2E2E2E2E2E2E2E2E2F5E2E2E2E2E2
310
E2E2E2E2E2E2E2E2E2E2E2E2E2E2E2E2E2E2E2E2E2E2E2E2DCE2E2E2E2E2E2E2E2E2E2272727272727272727272727272727E2E2E2E2E2E2E2E2E2E2E2E2E2E2E2E2E2E2E2E2E2E2E2E2E2E2E2E2E2E2E2E2E2E2E2E2E2E2E2E2E2E2E2E2E2E2E2E2E2DCE2E2E2E2E2E2E2E2E2E2E2E2E2E2E2E2E2E2E2E2E2E2E2E2E2E2E2
310
E2E2F5E2E2E2E2E2E2E2E2E2E2E2E2E2E2E2E2E2E2E2E2F5F5EFF5E2E2E2E2E2E2E2E2E2E2E2E2E2E2E2E2E2E2E2E2F5E2E2E2E2E2E2E2E2E2E2E2E2E2E2E2E2E2E2E2E2E2E2E2E2E2E2E2E2E2DCE2E2E2E2E2E2E2E2E2E2E2E2E2E2E2E2E2E2E2E2E2E2E2E2E2E2E2E2E2E2E2E2E2E2E2E2E2E2E2E2E2E2E2E2E2E2E2E2E2
310
E2E2E2E2E2E2E2E2E2E2E2E2E2E2E2E2E2E2E2E2E2E2E2E2E2DCE2E2E2E2E2E2E2E2E2E2E2E2E2E2E2E2E2E2E2E2E2E2E2E2E2E2E2E2E2F5E2E2E2E2E2E2E2E2E2E2E2E2E2E2E2E2E2E2E2E2F5F5EFF5E2E2E2E2E2E2E2E2E2E2E2E2E2E2E2E2E2E2E2E2F5E2E2E2E2E2E2E2E2E2E2E2E2E2E2E2E2E2E2E2E2E2E2E2E2E2E2
310
E2E2E2DCE2E2E2E2E2E2E2E2E2E2E2E2E2E2E2E2E2E2E2E2E2E2E2E2E2E2E2E2E2E2E2E2E2E2E2E2E2E2E2E2E2E2E2E2E2E2E2E2E2E2E2E2E2E2E2E2E2E2E2E2E2E2E2E2E2E2E2E2E2E2E2E2E2E2DCE2E2E2E2E2E2E2E2E2E2E2E2E2E2E2E2E2E2E2E2E2E2E2E2E2E2E2E2E2F5E2E2E2E2E2E2E2E2E2E2E2E2E2E2E2E2E2E2
310
E2E2F5F5EFF5E2E2E2E2E2E2E2E2E2E2E2E2E2E2E2E2E2E2E2E2F5E2E2E2E2E2E2E2E2E2E2E2E2E2E2E2E2E2E2E2E2E2E2E2E2E2E2E2E2E2DCE2E2E2E2E2E2E2E2E2E2E2E2E2E2E2E2E2E2E2E2E2E2E2E2E2E2E2E2E2E2E2E2E2E2E2E2E2E2E2E2E2E2E2E2E2E2E2E2E2E2E2E2E2E2E2E2E2E2E2E2E2E2E2E2E2E2E2E2E2E2
310
E2E2E2E2DCE2E2E2E2E2E2E2E2E2E2E2E2E2E2E2E2E2E2E2E2E2E2E2E2E2E2E2E2E2F5E2E2E2E2E2E2E2E2E2E2E2E2E2E2E2E2E2E2E2E2F5F5EFF5E2E2E2E2E2E2E2E2E2E2E2E2E2E2E2E2E2E2E2E2F5F5F5F5F5F5F5F5F5F5F5F5F5F5F5F5F5F5F5F5F5F5F5F5F5F5F5F5F5F5F5F5F5F5F5F5F5F5F5F5F5F5F5F5F5F5F5F5
310
F5F5F5F5F5F5F5F5F5F5F5F5F5F5F5F5F5F5F5F5F5F5F5F5F5F5F5F5F5F5F5F5F5F5F5F5F5F5F5F5F5F5F5F5F5F5F5F5F5F5F5F5F5F5F5F5F5F5F5F5F5F5F5F5F5F5F5F5F5F5F5F5F5F5F5F5F5F5F5F5F5F5F5F5F5F5F5F5E2E2E2E2E2E2E2E2E2E2E2E2E2E2E2E2E2E2E2E2F5F5EFF5E2E2E2E2E2E2E2E2E2E2E2E2E2E2E2
310
E2E2E2E2E2E2E2E2E2E2E2E2E2E2E2E2E2E2E2E2E2E2E2E2E2E2E2E2E2E2E2E2E2E2E2E2E2E2E2E2E2E2E2E2E2E2E2E2E2E2E2E2E2E2E2E2E2E2E2E2E2E2E2E2E2E2E2E2E2E2E2E2E2E2E2E2E2E2E2E2E2E2E2E2E2E2E2E2E2E2E2E2E2E2E2E2E2E2E2E2E2E2E2E2E2E2E2E2E2E2E2E2E2E2E2E2E2E2E2E2E2E2E2E2E2E2E2
310
E2E2E2E2E2E2E2E2E2E2E2E2E2E2E2E2E2E2E2E2E2E2E2E2E2E2E2E2E2E2E2E2E2E2F5F5EFF5E2E2E2E2E2E2E2E2E2E2E2E2E2E2E2E2E2E2E2E2E2E2E2E2E2E2E2E2E2E2E2E2E2E2E2E2E2E2E2E2E2E2E2E2E2E2E2E2E2E2E2E2E2E2E2E2E2E2E2E2E2E2E2E2E2E2E2E2E2E2E2E2E2E2E2E2E2E2E2E2E2E2E2E2E2E2E2E2E2
310
E2E2E2E2E2E2E2E2E2E2E2E2E2E2E2E2E2E2E2E2E2E2E2E2E2E2E2E2E2E2E2E2E2E2E2E2E2E2E2E2E2E2E2E2E2E2E2E2E2E2E2E2E2E2E2E2E2E2E2E2E2E2E2E2E2E2E2E2E2E2E2E2E2E2E2E2E2E2E2E2E2E2E2E2E2E2E2F5F5EFF5E2E2E2E2E2E2E2E2E2E2E2E2E2E2E2E2E2E2E2E2E2E2E2E2E2E2E2E2E2E2E2E2E2E2E2E2
310
E2E2E2E2E2E2E2E2E2E2E2E2E2E2E2E2E2E2E2E2E2E2E2E2E2E2E2E2E2E2E2E2E2E2E2E2E2E2E2E2E2E2E2E2E2E2E2E2E2E2E2E2E2E2E2E2E2E2E2E2E2E2E2E2E2E2E2E2E2E2E2E2E2E2E2E2E2E2E2E2E2E2E2E2E2E2E2E2E2E2E2E2E2E2E2E2E2E2E2E2E2E2E2E2E2E2E2E2E2E2E2E2E2E2E2E2E2E2E2E2E2E2E2E2E2E2E2
310
E2E2E2E2E2E2E2E2E2E2E2E2E2F5F5EFF5E2E2E2E2E2E2E2E2E2E2E2E2E2E2E2E2E2E2E2E2E2E2E2E2E2E2E2E2E2E2E2E2E2E2E2E2E2E2E2E2E2E2E2E2E2E2E2E2E2E2E2E2E2E2E2E2E2E2E2E2E2E2E2E2E2E2E2E2E2E2E2E2E2E2E2E2E2E2E2E2E2E2E2E2E2E2E2E2E2E2E2E2E2E2E2E2E2E2E2E2E2E2E2E2E2E2E2E2E2E2
310
E2E2E2E2E2E2E2E2E2E2E2E2E2E2E2E2E2E2E2E2E2E2E2E2E2E2E2E2E2E2E2E2E2E2E2E2E2E2E2E2E2E2E2E2E2E2E2E2E2E2E2E2E2E2E2E2E2E2E2E2E2E2E2E2E2E2F5F5EFF5E2E2E2F5E2E2E2E2E2E2E2E2E2E2E2E2E2E2E2E2E2E2E2E2E2E2E2E2E2E2E2E2E2E2E2E2E2E2E2E2E2E2E2E2E2E2E2E2E2E2E2E2E2E2E2E2E2
310
E2E2E2E2E2E2E2E2E2E2E2E2E2E2E2E2E2E2E2E2E2E2E2E2E2E2E2E2E2E2E2E2E2E2E2E2E2E2E2E2E2E2E2E2E2E2E2E2E2E2E2E2E2E2E2E2E2E2E2E2E2E2E2E2E2E2E2E2E2E2E2E2E2E2E2E2E2E2E2E2E2E2E2E2E2E2E2E2E2E2E2E2E2E2E2E2E2E2E2E2E2E2E2E2E2E2E2E2E2E2E2E2E2E2E2F5E2E2E2F5F5EFF5E2E2E2F5
310
E2E2E2E2E2E2E2E2E2E2E2E2E2E2E2E2E2E2E2E2E2E2E2E2E2E2E2E2E2E2E2E2E2E2E2E2E2E2E2E2E2E2E2E2E2E2E2E2E2E2E2E2E2E2E2E2E2E2E2E2E2E2E2E2E2E2E2E2E2E2E2E2E2E2E2E2E2E2E2E2E2E2E2E2E2E2E2E2E2E2E2E2E2E2E2E2E2E2E2E2E2E2E2E2E2E2E2E2E2E2E2E2E2E2E2E2E2E2E2E2E2E2E2E2E2E2E2
310
E2E2E2E2E2E2E2E2E2E2E2E2E2E2E2E2E2E2E2E2E2E2E2E2E2E2E2E2E2E2E2E2E2E2E2E2E2E2E2E2E2F5E2E2E2F5F5EFF5E2E2E2F5E2E2E2E2E2E2E2E2E2E2E2E2E2E2E2E2E2E2E2E2E2E2E2E2E2E2E2E2E2E2E2E2E2E2E2E2E2E2E2E2E2E2E2E2E2E2E2E2E2E2E2E2E2E2E2E2E2E2E2E2E2E2E2E2E2E2E2E2E2E2E2E2E2E2
310
E2E2E2E2E2E2E2E2E2E2E2E2E2E2E2E2E2E2E2E2E2E2E2E2E2E2E2E2E2E2E2E2E2E2E2E2E2E2E2E2E2E2E2E2E2E2E2E2E2E2E2E2E2E2E2E2E2E2E2E2E2E2E2E2E2E2E2E2E2E2E2E2E2E2E2E2E2E2E2E2E2E2E2E2E2E2E2E2E2E2E2E2E2E2F5E2E2E2F5F5EFF5E2E2E2F5E2E2E2E2E2E2E2E2E2E2E2E2E2E2E2E2E2E2E2E2E2
310
E2E2E2E2E2E2E2E2E2E2E2E2E2E2E2E2E2E2E2E2E2E2E2E2E2E2E2E2E2E2E2E2E2E2E2E2E2E2E2E2E2E2E2E2E2E2E2E2E2E2E2E2E2E2E2E2E2E2E2E2E2E2E2E2E2E2E2E2E2E2E2E2E2E2E2E2E2E2E2E2E2E2E2E2E2E2E2E2E2E2E2E2E2E2E2E2E2E2E2E2E2E2E2E2E2E2E2E2E2E2E2E2E2E2E2E2E2E2E2E2E2E2E2E2E2E2E2
310
E2E2E2E2E2E2E2E2E2E2E2E2E2E2E2E2E2E2E2E2F5E2E2E2F5F5EFF5E2E2E2F5E2E2E2E2E2E2E2E2E2E2E2E2E2E2E2E2E2E2E2E2E2E2E2E2E2E2E2E2E2E2E2E2E2E2E2E2E2E2E2E2E2E2E2E2E2E2E2E2E2E2E2E2E2E2E2E2E2E2E2E2E2E2E2E2E2E2E2E2E2E2E2E2E2E2E2E2E2E2E2E2E2E2E2E2E2E2E2E2E2E2E2E2E2E2E2
310
E2E2E2E2E2E2E2E2E2E2E2E2E2E2E2E2E2E2E2E2E2E2E2E2E2E2E2E2E2E2E2E2E2E2E2E2E2E2E2E2E2E2E2E2E2E2E2E2E2E2E2E2E2E2E2E2E2E2E2E2E2E2E2E2E2E2E2E2E2E2E2E2E2F5E2E2E2F5F5EFF5E2E2E2F5E2E2E2E2E2E2E2E2E2E2E2E2E2E2E2E2E2E2E2E2E2E2E2E2E2E2E2E2E2E2E2E2E2E2E2E2E2E2E2E2E2E2
310
E2E2E2E2E2E2E2E2E2E2E2E2E2E2E2E2E2E2E2E2E2E2E2E2E2E2E2E2E2E2E2E2E2E2E2E2E2E2E2E2E2E2E2E2E2E2E2E2E2E2E2E2E2E2E2E2E2E2E2E2E2E2E2E2E2E2E2E2E2E2E2E2E2E2E2E2E2E2E2E2E2E2E2E2E2E2E2E2E2E2E2E2E2E2E2E2E2E2E2E2E2E2E2E2E2E2E2E2E2E2E2E2E2E2E2E2E2E2E2E2E2E2E2E2E2E2F5
310
E2E2E2F5F5EFF5E2E2E2F5E2E2E2E2E2E2E2E2E2E2E2E2E2E2E2E2E2E2E2E2E2E2E2E2E2E2E2E2E2E2E2E2E2E2E2E2E2E2E2E2E2E2E2E2E2E2E2E2E2E2E2E2E2E2E2E2E2E2E2E2E2E2E2E2E2E2E2E2E2E2E2E2E2E2E2E2E2E2E2E2E2E2E2E2E2E2E2E2E2E2E2E2E2E2E2E2E2E2E2E2E2E2E2E2E2E2E2E2E2E2E2E2E2E2E2E2
310
E2E2E2E2E2E2E2E2E2E2E2E2E2E2E2E2E2E2E2E2E2E2E2E2E2E2E2E2E2E2E2E2E2E2E2E2E2E2E2E2E2E2E2E2E2E2E2E2E2E2E2E2F5E2E2E2F5F5EFF5E2E2E2F5E2E2E2E2E2E2E2E2E2E2E2E2E2E2E2E2E2E2E2E2E2E2E2E2E2E2E2E2E2E2E2E2E2E2E2E2E2E2E2E2E2E2E2E2E2E2E2E2E2E2E2E2E2E2E2E2E2E2E2E2E2E2E2
310
E2E2E2E2E2E2E2E2E2E2E2E2E2E2E2E2E2E2E2E2E2E2E2E2E2E2E2E2E2E2E2E2E2E2E2E2E2E2E2E2E2E2E2E2E2E2E2E2E2E2E2E2E2E2E2E2E2E2E2E2E2E2E2E2E2E2E2E2E2E2E2E2E2E2E2E2E2E2E2E2E2E2E2E2E2E2E2E2E2E2E2E2E2E2E2E2E2E2E2E2E2E2E2E2E2F5E2E2E2F5F5EFF5E2E2E2F5F5F5F5F5F5F5F5E2E2E2
310
E2E2E2E2E2E2F5F5F5F5F5F5F5F5F5F5F5F5F5F5F5E2E2E2E2E2E2E2E2E2F5F5F5F5F5F5F5F5F5F5F5F5F5F5F5F5E2E2E2E2E2E2E2E2F5F5F5F5F5F5F5F5F5F5F5F5F5F5F5F5E2E2E2E2E2E2E2E2F5F5F5F5F5F5F5F5F5F5F5F5F5F5F5F5E2E2E2E2E2E2E2E2F5F5F5F5F5F5F5F5F5F5F5F5F5F5F5F5E2E2E2E2E2E2E2E2E2
310
F5F5F5F5F5F5F5F5F5F5F5F5F5F5F5E2E2E2E2E2E2E2E2E2F5F5F5F5F5F5F5F5E2E2E2F5F5EFF5E2E2E2E2E2E2E2E2E2E2E2E2E2E2E2E2E2E2E2E2E2E2E2E2E2E2E2E2E2E2E2E2E2E2E2E2E2E2E2E2E2E2E2E2E2E2E2E2E2E2E2E2E2E2E2E2E2E2E2E2E2E2E2E2E2E2E2E2E2E2E2E2E2E2E2E2E2E2E2E2E2E2E2E2E2E2E2E2
310
E2E2E2E2E2E2E2E2E2E2E2E2E2E2E2E2E2E2E2E2E2E2E2E2E2E2E2E2E2E2E2E2E2E2E2E2E2E2E2E2E2E2E2E2E2E2E2E2E2E2E2E2E2E2E2E2E2E2E2E2E2E2E2E2E2E2E2E2E2E2E2E2E2E2E2E2E2E2E2E2E2E2E2E2E2E2E2E2F5F5EFF5E2E2E2E2E2E2E2E2E2E2E2E2E2E2E2E2E2E2E2E2E2E2E2E2E2E2E2E2E2E2E2E2E2E2E2
310
E2E2E2E2E2E2E2E2E2E2E2E2E2E2E2E2E2E2E2E2E2E2E2E2E2E2E2E2E2E2E2E2E2E2E2E2E2E2E2E2E2E2E2E2E2E2E2E2E2E2E2E2E2E2E2E2E2E2E2E2E2E2E2E2E2E2E2E2E2E2E2E2E2E2E2E2E2E2E2E2E2E2E2E2E2E2E2E2E2E2E2E2E2E2E2E2E2E2E2E2E2E2E2E2E2E2E2E2E2E2E2E2E2E2E2E2E2E2E2E2E2E2E2E2E2E2E2
310
E2E2E2E2E2E2E2E2E2E2E2E2E2E2F5EFEFF5E2E2E2E2E2E2E2E2E2E2E2E2E2E2E2E2E2E2E2E2E2E2E2E2E2E2E2E2E2E2E2E2E2E2E2E2E2E2E2E2E2E2E2E2E2E2E2E2E2E2E2E2E2E2E2E2E2E2E2E2E2E2E2E2E2E2E2E2E2E2E2E2E2E2E2E2E2E2E2E2E2E2E2E2E2E2E2E2E2E2E2E2E2E2E2E2E2E2E2E2E2E2E2E2E2E2E2E2E2
310
E2E2E2E2E2E2E2E2E2E2E2E2E2E2E2E2E2E2E2E2E2E2E2E2E2E2E2E2E2E2E2E2E2E2E2E2E2E2E2E2E2E2E2E2E2E2E2E2E2E2E2E2E2E2E2E2E2E2E2E2E2E2E2E2E2E2E2F5EFEFF5F5F5F5F5F5F5F5F5F5F5F5F5F5F5F5F5F5F5F5F5F5F5F5F5F5F5F5F5F5F5F5F5F5F5F5F5F5F5F5F5F5F5F5F5F5F5F5F5F5F5F5F5F5F5F5F5
310
F5F5F5F5F5F5F5F5F5F5F5F5F5F5F5F5F5F5F5F5F5F5F5F5F5F5F5F5F5F5F5F5F5F5F5F5F5F5F5F5F5F5F5F5F5F5F5F5F5F5F5F5F5F5F5F5F5F5F5F5F5F5F5F5F5F5F5F5F5F5F5F5F5F5F5F5F5F5F5F5F5F5F5F5F5F5F5F5F5F5F5F5F5F5F5F5F5F5F5F5F5F5F5F5F5F5F5F5F5F5F5F5F5F5F5F5F5F5F5F5F5EFEF
  0
XRECORD
  5
2CD
102
{ACAD_REACTORS
330
2CC
102
}
330
2CC
100
AcDbXrecord
280
     1
102
SHADEPLOT
 70
     1
102
SHADEPLOTRESLEVEL
 70
     2
102
SHADEPLOTCUSTOMDPI
 70
   300
  0
XRECORD
  5
2D2
102
{ACAD_REACTORS
330
2D1
102
}
330
2D1
100
AcDbXrecord
280
     1
102
MATERIAL
148
0.0
149
0.0
149
0.0
 93
        0
 94
       63
282
     0
 72
     1
 77
     1
171
     1
175
     1
179
     1
273
     0
  0
XRECORD
  5
2D0
102
{ACAD_REACTORS
330
2CF
102
}
330
2CF
100
AcDbXrecord
280
     1
102
MATERIAL
148
0.0
149
0.0
149
0.0
 93
        0
 94
       63
282
     0
 72
     1
 77
     1
171
     1
175
     1
179
     1
273
     0
  0
XRECORD
  5
2CB
102
{ACAD_REACTORS
330
2CA
102
}
330
2CA
100
AcDbXrecord
280
     1
102
MATERIAL
148
0.0
149
0.0
149
0.0
 93
        0
 94
       63
282
     0
 72
     1
 77
     1
171
     1
175
     1
179
     1
273
     0
  0
CELLSTYLEMAP
  5
2C8
102
{ACAD_REACTORS
330
49
102
}
330
49
100
AcDbCellStyleMap
 90
        3
300
CELLSTYLE
  1
TABLEFORMAT_BEGIN
 90
        5
170
     1
 91
        0
 92
    32768
 62
   257
 93
        1
300
CONTENTFORMAT
  1
CONTENTFORMAT_BEGIN
 90
        0
 91
        0
 92
        4
 93
        0
300

 40
0.0
140
1.0
 94
        5
 62
     0
340
25
144
0.25
309
CONTENTFORMAT_END
171
     0
 94
        6
 95
        1
302
GRIDFORMAT
  1
GRIDFORMAT_BEGIN
 90
        0
 91
        1
 62
     0
 92
       -2
340
0
 93
        0
 40
0.045
309
GRIDFORMAT_END
 95
        2
302
GRIDFORMAT
  1
GRIDFORMAT_BEGIN
 90
        0
 91
        1
 62
     0
 92
       -2
340
0
 93
        0
 40
0.045
309
GRIDFORMAT_END
 95
        4
302
GRIDFORMAT
  1
GRIDFORMAT_BEGIN
 90
        0
 91
        1
 62
     0
 92
       -2
340
0
 93
        0
 40
0.045
309
GRIDFORMAT_END
 95
        8
302
GRIDFORMAT
  1
GRIDFORMAT_BEGIN
 90
        0
 91
        1
 62
     0
 92
       -2
340
0
 93
        0
 40
0.045
309
GRIDFORMAT_END
 95
       16
302
GRIDFORMAT
  1
GRIDFORMAT_BEGIN
 90
        0
 91
        1
 62
     0
 92
       -2
340
0
 93
        0
 40
0.045
309
GRIDFORMAT_END
 95
       32
302
GRIDFORMAT
  1
GRIDFORMAT_BEGIN
 90
        0
 91
        1
 62
     0
 92
       -2
340
0
 93
        0
 40
0.045
309
GRIDFORMAT_END
309
TABLEFORMAT_END
  1
CELLSTYLE_BEGIN
 90
        1
 91
        1
300
_TITLE
309
CELLSTYLE_END
300
CELLSTYLE
  1
TABLEFORMAT_BEGIN
 90
        5
170
     1
 91
        0
 92
        0
 62
   257
 93
        1
300
CONTENTFORMAT
  1
CONTENTFORMAT_BEGIN
 90
        0
 91
        0
 92
        4
 93
        0
300

 40
0.0
140
1.0
 94
        5
 62
     0
340
25
144
0.18
309
CONTENTFORMAT_END
171
     0
 94
        6
 95
        1
302
GRIDFORMAT
  1
GRIDFORMAT_BEGIN
 90
        0
 91
        1
 62
     0
 92
       -2
340
0
 93
        0
 40
0.045
309
GRIDFORMAT_END
 95
        2
302
GRIDFORMAT
  1
GRIDFORMAT_BEGIN
 90
        0
 91
        1
 62
     0
 92
       -2
340
0
 93
        0
 40
0.045
309
GRIDFORMAT_END
 95
        4
302
GRIDFORMAT
  1
GRIDFORMAT_BEGIN
 90
        0
 91
        1
 62
     0
 92
       -2
340
0
 93
        0
 40
0.045
309
GRIDFORMAT_END
 95
        8
302
GRIDFORMAT
  1
GRIDFORMAT_BEGIN
 90
        0
 91
        1
 62
     0
 92
       -2
340
0
 93
        0
 40
0.045
309
GRIDFORMAT_END
 95
       16
302
GRIDFORMAT
  1
GRIDFORMAT_BEGIN
 90
        0
 91
        1
 62
     0
 92
       -2
340
0
 93
        0
 40
0.045
309
GRIDFORMAT_END
 95
       32
302
GRIDFORMAT
  1
GRIDFORMAT_BEGIN
 90
        0
 91
        1
 62
     0
 92
       -2
340
0
 93
        0
 40
0.045
309
GRIDFORMAT_END
309
TABLEFORMAT_END
  1
CELLSTYLE_BEGIN
 90
        2
 91
        1
300
_HEADER
309
CELLSTYLE_END
300
CELLSTYLE
  1
TABLEFORMAT_BEGIN
 90
        5
170
     1
 91
        0
 92
        0
 62
   257
 93
        1
300
CONTENTFORMAT
  1
CONTENTFORMAT_BEGIN
 90
        0
 91
        0
 92
        4
 93
        0
300

 40
0.0
140
1.0
 94
        2
 62
     0
340
25
144
0.18
309
CONTENTFORMAT_END
171
     0
 94
        6
 95
        1
302
GRIDFORMAT
  1
GRIDFORMAT_BEGIN
 90
        0
 91
        1
 62
     0
 92
       -2
340
0
 93
        0
 40
0.045
309
GRIDFORMAT_END
 95
        2
302
GRIDFORMAT
  1
GRIDFORMAT_BEGIN
 90
        0
 91
        1
 62
     0
 92
       -2
340
0
 93
        0
 40
0.045
309
GRIDFORMAT_END
 95
        4
302
GRIDFORMAT
  1
GRIDFORMAT_BEGIN
 90
        0
 91
        1
 62
     0
 92
       -2
340
0
 93
        0
 40
0.045
309
GRIDFORMAT_END
 95
        8
302
GRIDFORMAT
  1
GRIDFORMAT_BEGIN
 90
        0
 91
        1
 62
     0
 92
       -2
340
0
 93
        0
 40
0.045
309
GRIDFORMAT_END
 95
       16
302
GRIDFORMAT
  1
GRIDFORMAT_BEGIN
 90
        0
 91
        1
 62
     0
 92
       -2
340
0
 93
        0
 40
0.045
309
GRIDFORMAT_END
 95
       32
302
GRIDFORMAT
  1
GRIDFORMAT_BEGIN
 90
        0
 91
        1
 62
     0
 92
       -2
340
0
 93
        0
 40
0.045
309
GRIDFORMAT_END
309
TABLEFORMAT_END
  1
CELLSTYLE_BEGIN
 90
        3
 91
        2
300
_DATA
309
CELLSTYLE_END
  0
XRECORD
  5
2D3
102
{ACAD_REACTORS
330
49
102
}
330
49
100
AcDbXrecord
280
     1
102
ACAD_ROUNDTRIP_PRE2007_TABLESTYLE
 90
        4
 91
        0
  1

 92
        4
 93
        0
  2

 94
        4
 95
        0
  3

  0
ENDSEC
  0
EOF
