  0
SECTION
  2
HEADER
  9
$ACADVER
  1
AC1015
  9
$ACADMAINTVER
 70
    18
  9
$DWGCODEPAGE
  3
ANSI_1250
  9
$INSBASE
 10
215187.233673673
 20
127657.5168525552
 30
0.0
  9
$EXTMIN
 10
1.000000000000000E+20
 20
1.000000000000000E+20
 30
1.000000000000000E+20
  9
$EXTMAX
 10
0.0
 20
0.0
 30
0.0
  9
$LIMMIN
 10
0.0
 20
0.0
  9
$LIMMAX
 10
420.0
 20
297.0
  9
$ORTHOMODE
 70
     0
  9
$REGENMODE
 70
     1
  9
$FILLMODE
 70
     1
  9
$QTEXTMODE
 70
     0
  9
$MIRRTEXT
 70
     0
  9
$LTSCALE
 40
75.0
  9
$ATTMODE
 70
     1
  9
$TEXTSIZE
 40
20.0
  9
$TRACEWID
 40
1.0
  9
$TEXTSTYLE
  7
ROMANS
  9
$CLAYER
  8
0Wymiary-PL
  9
$CELTYPE
  6
ByLayer
  9
$CECOLOR
 62
   256
  9
$CELTSCALE
 40
1.0
  9
$DISPSILH
 70
     0
  9
$DIMSCALE
 40
1.0
  9
$DIMASZ
 40
30.0
  9
$DIMEXO
 40
43.0
  9
$DIMDLI
 40
0.0
  9
$DIMRND
 40
0.5
  9
$DIMDLE
 40
12.0
  9
$DIMEXE
 40
13.0
  9
$DIMTP
 40
0.0
  9
$DIMTM
 40
0.0
  9
$DIMTXT
 40
80.0
  9
$DIMCEN
 40
0.0
  9
$DIMTSZ
 40
0.0
  9
$DIMTOL
 70
     0
  9
$DIMLIM
 70
     0
  9
$DIMTIH
 70
     0
  9
$DIMTOH
 70
     0
  9
$DIMSE1
 70
     1
  9
$DIMSE2
 70
     1
  9
$DIMTAD
 70
     0
  9
$DIMZIN
 70
    12
  9
$DIMBLK
  1
B-DIM
  9
$DIMASO
 70
     1
  9
$DIMSHO
 70
     1
  9
$DIMPOST
  1

  9
$DIMAPOST
  1

  9
$DIMALT
 70
     0
  9
$DIMALTD
 70
     2
  9
$DIMALTF
 40
25.4
  9
$DIMLFAC
 40
1.0
  9
$DIMTOFL
 70
     1
  9
$DIMTVP
 40
1.0
  9
$DIMTIX
 70
     1
  9
$DIMSOXD
 70
     0
  9
$DIMSAH
 70
     0
  9
$DIMBLK1
  1

  9
$DIMBLK2
  1

  9
$DIMSTYLE
  2
500
  9
$DIMCLRD
 70
     1
  9
$DIMCLRE
 70
     1
  9
$DIMCLRT
 70
    10
  9
$DIMTFAC
 40
1.0
  9
$DIMGAP
 40
0.0
  9
$DIMJUST
 70
     0
  9
$DIMSD1
 70
     0
  9
$DIMSD2
 70
     0
  9
$DIMTOLJ
 70
     1
  9
$DIMTZIN
 70
     0
  9
$DIMALTZ
 70
     0
  9
$DIMALTTZ
 70
     0
  9
$DIMUPT
 70
     0
  9
$DIMDEC
 70
     1
  9
$DIMTDEC
 70
     1
  9
$DIMALTU
 70
     2
  9
$DIMALTTD
 70
     2
  9
$DIMTXSTY
  7
ROMANS
  9
$DIMAUNIT
 70
     0
  9
$DIMADEC
 70
     0
  9
$DIMALTRND
 40
0.0
  9
$DIMAZIN
 70
     0
  9
$DIMDSEP
 70
    46
  9
$DIMATFIT
 70
     3
  9
$DIMFRAC
 70
     0
  9
$DIMLDRBLK
  1
B-DIM
  9
$DIMLUNIT
 70
     2
  9
$DIMLWD
 70
    -2
  9
$DIMLWE
 70
    -2
  9
$DIMTMOVE
 70
     2
  9
$LUNITS
 70
     2
  9
$LUPREC
 70
     1
  9
$SKETCHINC
 40
1.0
  9
$FILLETRAD
 40
0.0
  9
$AUNITS
 70
     0
  9
$AUPREC
 70
     0
  9
$MENU
  1
.
  9
$ELEVATION
 40
0.0
  9
$PELEVATION
 40
0.0
  9
$THICKNESS
 40
0.0
  9
$LIMCHECK
 70
     0
  9
$CHAMFERA
 40
0.0
  9
$CHAMFERB
 40
0.0
  9
$CHAMFERC
 40
20.0
  9
$CHAMFERD
 40
0.0
  9
$SKPOLY
 70
     0
  9
$TDCREATE
 40
2452027.670547454
  9
$TDUCREATE
 40
2452027.587214121
  9
$TDUPDATE
 40
2455062.630415394
  9
$TDUUPDATE
 40
2455062.547082060
  9
$TDINDWG
 40
7.8937069213
  9
$TDUSRTIMER
 40
7.8937069213
  9
$USRTIMER
 70
     1
  9
$ANGBASE
 50
0.0
  9
$ANGDIR
 70
     0
  9
$PDMODE
 70
     0
  9
$PDSIZE
 40
0.0
  9
$PLINEWID
 40
0.0
  9
$SPLFRAME
 70
     0
  9
$SPLINETYPE
 70
     6
  9
$SPLINESEGS
 70
     8
  9
$HANDSEED
  5
1F1
  9
$SURFTAB1
 70
     6
  9
$SURFTAB2
 70
     6
  9
$SURFTYPE
 70
     6
  9
$SURFU
 70
     6
  9
$SURFV
 70
     6
  9
$UCSBASE
  2

  9
$UCSNAME
  2

  9
$UCSORG
 10
0.0
 20
0.0
 30
0.0
  9
$UCSXDIR
 10
1.0
 20
0.0
 30
0.0
  9
$UCSYDIR
 10
0.0
 20
1.0
 30
0.0
  9
$UCSORTHOREF
  2

  9
$UCSORTHOVIEW
 70
     0
  9
$UCSORGTOP
 10
0.0
 20
0.0
 30
0.0
  9
$UCSORGBOTTOM
 10
0.0
 20
0.0
 30
0.0
  9
$UCSORGLEFT
 10
0.0
 20
0.0
 30
0.0
  9
$UCSORGRIGHT
 10
0.0
 20
0.0
 30
0.0
  9
$UCSORGFRONT
 10
0.0
 20
0.0
 30
0.0
  9
$UCSORGBACK
 10
0.0
 20
0.0
 30
0.0
  9
$PUCSBASE
  2

  9
$PUCSNAME
  2

  9
$PUCSORG
 10
0.0
 20
0.0
 30
0.0
  9
$PUCSXDIR
 10
1.0
 20
0.0
 30
0.0
  9
$PUCSYDIR
 10
0.0
 20
1.0
 30
0.0
  9
$PUCSORTHOREF
  2

  9
$PUCSORTHOVIEW
 70
     0
  9
$PUCSORGTOP
 10
0.0
 20
0.0
 30
0.0
  9
$PUCSORGBOTTOM
 10
0.0
 20
0.0
 30
0.0
  9
$PUCSORGLEFT
 10
0.0
 20
0.0
 30
0.0
  9
$PUCSORGRIGHT
 10
0.0
 20
0.0
 30
0.0
  9
$PUCSORGFRONT
 10
0.0
 20
0.0
 30
0.0
  9
$PUCSORGBACK
 10
0.0
 20
0.0
 30
0.0
  9
$USERI1
 70
     0
  9
$USERI2
 70
     0
  9
$USERI3
 70
     0
  9
$USERI4
 70
     0
  9
$USERI5
 70
     0
  9
$USERR1
 40
0.0
  9
$USERR2
 40
0.0
  9
$USERR3
 40
0.0
  9
$USERR4
 40
0.0
  9
$USERR5
 40
0.0
  9
$WORLDVIEW
 70
     1
  9
$SHADEDGE
 70
     3
  9
$SHADEDIF
 70
    70
  9
$TILEMODE
 70
     1
  9
$MAXACTVP
 70
    64
  9
$PINSBASE
 10
0.0
 20
0.0
 30
0.0
  9
$PLIMCHECK
 70
     0
  9
$PEXTMIN
 10
1.000000000000000E+20
 20
1.000000000000000E+20
 30
1.000000000000000E+20
  9
$PEXTMAX
 10
-1.000000000000000E+20
 20
-1.000000000000000E+20
 30
-1.000000000000000E+20
  9
$PLIMMIN
 10
0.0
 20
0.0
  9
$PLIMMAX
 10
420.0
 20
297.0
  9
$UNITMODE
 70
     0
  9
$VISRETAIN
 70
     1
  9
$PLINEGEN
 70
     0
  9
$PSLTSCALE
 70
     1
  9
$TREEDEPTH
 70
  3020
  9
$CMLSTYLE
  2
Standard
  9
$CMLJUST
 70
     0
  9
$CMLSCALE
 40
20.0
  9
$PROXYGRAPHICS
 70
     1
  9
$MEASUREMENT
 70
     0
  9
$CELWEIGHT
370
    -1
  9
$ENDCAPS
280
     0
  9
$JOINSTYLE
280
     0
  9
$LWDISPLAY
290
     0
  9
$INSUNITS
 70
     5
  9
$HYPERLINKBASE
  1

  9
$STYLESHEET
  1

  9
$XEDIT
290
     1
  9
$CEPSNTYPE
380
     0
  9
$PSTYLEMODE
290
     1
  9
$FINGERPRINTGUID
  2
{31A96D2A-9E3F-44E0-A874-9D8256304C5F}
  9
$VERSIONGUID
  2
{56E93F78-6C95-4822-82B7-C3F09749E942}
  9
$EXTNAMES
290
     1
  9
$PSVPSCALE
 40
0.0
  9
$OLESTARTUP
290
     0
  0
ENDSEC
  0
SECTION
  2
CLASSES
  0
CLASS
  1
ACDBDICTIONARYWDFLT
  2
AcDbDictionaryWithDefault
  3
ObjectDBX Classes
 90
        0
280
     0
281
     0
  0
CLASS
  1
ACDBPLACEHOLDER
  2
AcDbPlaceHolder
  3
ObjectDBX Classes
 90
        0
280
     0
281
     0
  0
CLASS
  1
LAYOUT
  2
AcDbLayout
  3
ObjectDBX Classes
 90
        0
280
     0
281
     0
  0
CLASS
  1
DICTIONARYVAR
  2
AcDbDictionaryVar
  3
ObjectDBX Classes
 90
        0
280
     0
281
     0
  0
CLASS
  1
SORTENTSTABLE
  2
AcDbSortentsTable
  3
ObjectDBX Classes
 90
        0
280
     0
281
     0
  0
CLASS
  1
AEC_VARS_DWG_SETUP
  2
AecDbVarsDwgSetup
  3
AecBase50|Product Desc: Autodesk Architectural Desktop 2007 |Company: Autodesk,Inc. |WEB Address: www.autodesk.com
 90
    32897
280
     0
281
     0
  0
CLASS
  1
AEC_DISP_REP_CONFIG
  2
AecDbDispRepConfig
  3
AecBase50|Product Desc: Autodesk Architectural Desktop 2007 |Company: Autodesk,Inc. |WEB Address: www.autodesk.com
 90
    32897
280
     0
281
     0
  0
CLASS
  1
AEC_DISP_REP_SET
  2
AecDbDispRepSet
  3
AecBase50|Product Desc: Autodesk Architectural Desktop 2007 |Company: Autodesk,Inc. |WEB Address: www.autodesk.com
 90
    32897
280
     0
281
     0
  0
CLASS
  1
AEC_DISP_REP_2D_SECTION
  2
AecDbDispRep2dSection
  3
AecBase50|Product Desc: Autodesk Architectural Desktop 2007 |Company: Autodesk,Inc. |WEB Address: www.autodesk.com
 90
    32897
280
     0
281
     0
  0
CLASS
  1
AEC_DISP_REP_ANCHOR_BUB_TO_GRID
  2
AecDbDispRepAnchorBubToGrid
  3
AecStructureBase50|Product Desc: Autodesk Architectural Desktop 2007 |Company: Autodesk,Inc. |WEB Address: www.autodesk.com
 90
    32897
280
     0
281
     0
  0
CLASS
  1
AEC_DISP_REP_ANCHOR_BUB_TO_GRID_MODEL
  2
AecDbDispRepAnchorBubToGridMdl
  3
AecStructureBase50|Product Desc: Autodesk Architectural Desktop 2007 |Company: Autodesk,Inc. |WEB Address: www.autodesk.com
 90
    32897
280
     0
281
     0
  0
CLASS
  1
AEC_DISP_REP_ANCHOR_ENT_TO_NODE
  2
AecDbDispRepAnchorEntToNode
  3
AecBaseEx50|Product Desc: Autodesk Architectural Desktop 2007 |Company: Autodesk,Inc. |WEB Address: www.autodesk.com
 90
    32897
280
     0
281
     0
  0
CLASS
  1
AEC_DISP_REP_ANCHOR_TAG_TO_ENT
  2
AecDbDispRepAnchorTagToEnt
  3
AecScheduleData50|Product Desc: Autodesk Architectural Desktop 2007 |Company: Autodesk,Inc. |WEB Address: www.autodesk.com
 90
    32897
280
     0
281
     0
  0
CLASS
  1
AEC_DISP_REP_AREA
  2
AecDbDispRepArea
  3
AecAreaCalculationBase50|Product Desc: Autodesk Architectural Desktop 2007 |Company: Autodesk,Inc. |WEB Address: www.autodesk.com
 90
    32897
280
     0
281
     0
  0
CLASS
  1
AEC_DISP_REP_AREA_DECOMPOSED
  2
AecDbDispRepAreaDecomposed
  3
AecAreaCalculationBase50|Product Desc: Autodesk Architectural Desktop 2007 |Company: Autodesk,Inc. |WEB Address: www.autodesk.com
 90
    32897
280
     0
281
     0
  0
CLASS
  1
AEC_DISP_REP_AREAGROUP
  2
AecDbDispRepAreaGroup
  3
AecAreaCalculationBase50|Product Desc: Autodesk Architectural Desktop 2007 |Company: Autodesk,Inc. |WEB Address: www.autodesk.com
 90
    32897
280
     0
281
     0
  0
CLASS
  1
AEC_DISP_REP_BDG_ELEVLINE_MODEL
  2
AecDbDispRepBdgElevLineModel
  3
AecArchBase50|Product Desc: Autodesk Architectural Desktop 2007 |Company: Autodesk,Inc. |WEB Address: www.autodesk.com
 90
    32897
280
     0
281
     0
  0
CLASS
  1
AEC_DISP_REP_BDG_SECTIONLINE_PLAN
  2
AecDbDispRepBdgElevLinePlan
  3
AecArchBase50|Product Desc: Autodesk Architectural Desktop 2007 |Company: Autodesk,Inc. |WEB Address: www.autodesk.com
 90
    32897
280
     0
281
     0
  0
CLASS
  1
AEC_DISP_REP_BDG_SECTIONLINE_MODEL
  2
AecDbDispRepBdgSectionLineModel
  3
AecArchBase50|Product Desc: Autodesk Architectural Desktop 2007 |Company: Autodesk,Inc. |WEB Address: www.autodesk.com
 90
    32897
280
     0
281
     0
  0
CLASS
  1
AEC_DISP_REP_BDG_SECTIONLINE_PLAN
  2
AecDbDispRepBdgSectionLinePlan
  3
AecArchBase50|Product Desc: Autodesk Architectural Desktop 2007 |Company: Autodesk,Inc. |WEB Address: www.autodesk.com
 90
    32897
280
     0
281
     0
  0
CLASS
  1
AEC_DISP_REP_BDG_SECTION_SUBDIV
  2
AecDbDispRepBdgSectionSubDiv
  3
AecArchBase50|Product Desc: Autodesk Architectural Desktop 2007 |Company: Autodesk,Inc. |WEB Address: www.autodesk.com
 90
    32897
280
     0
281
     0
  0
CLASS
  1
AEC_DISP_REP_CAMERA
  2
AecDbDispRepCamera
  3
AecBase50|Product Desc: Autodesk Architectural Desktop 2007 |Company: Autodesk,Inc. |WEB Address: www.autodesk.com
 90
    32897
280
     0
281
     0
  0
CLASS
  1
AEC_DISP_REP_CEILING_GRID
  2
AecDbDispRepCeilingGrid
  3
AecArchBase50|Product Desc: Autodesk Architectural Desktop 2007 |Company: Autodesk,Inc. |WEB Address: www.autodesk.com
 90
    33661
280
     0
281
     0
  0
CLASS
  1
AEC_DISP_REP_CEILING_GRID_MODEL
  2
AecDbDispRepCeilingGridModel
  3
AecArchBase50|Product Desc: Autodesk Architectural Desktop 2007 |Company: Autodesk,Inc. |WEB Address: www.autodesk.com
 90
    32897
280
     0
281
     0
  0
CLASS
  1
AEC_DISP_REP_CEILING_GRID_RCP
  2
AecDbDispRepCeilingGridRcp
  3
AecArchBase50|Product Desc: Autodesk Architectural Desktop 2007 |Company: Autodesk,Inc. |WEB Address: www.autodesk.com
 90
    32897
280
     0
281
     0
  0
CLASS
  1
AEC_DISP_REP_CLIP_VOLUME_MODEL
  2
AecDbDispRepClipVolModel
  3
AecBase50|Product Desc: Autodesk Architectural Desktop 2007 |Company: Autodesk,Inc. |WEB Address: www.autodesk.com
 90
    32897
280
     0
281
     0
  0
CLASS
  1
AEC_DISP_REP_CLIP_VOLUME_PLAN
  2
AecDbDispRepClipVolPlan
  3
AecBase50|Product Desc: Autodesk Architectural Desktop 2007 |Company: Autodesk,Inc. |WEB Address: www.autodesk.com
 90
    32897
280
     0
281
     0
  0
CLASS
  1
AEC_DISP_REP_CLIP_VOLUME_RESULT_SUBDIV
  2
AecDbDispRepClipVolResSubDiv
  3
AecBase50|Product Desc: Autodesk Architectural Desktop 2007 |Company: Autodesk,Inc. |WEB Address: www.autodesk.com
 90
    32897
280
     0
281
     0
  0
CLASS
  1
AEC_DISP_REP_CLIP_VOLUME_RESULT
  2
AecDbDispRepClipVolResult
  3
AecBase50|Product Desc: Autodesk Architectural Desktop 2007 |Company: Autodesk,Inc. |WEB Address: www.autodesk.com
 90
    32897
280
     0
281
     0
  0
CLASS
  1
AEC_DISP_REP_COLUMN_GRID
  2
AecDbDispRepColumnGrid
  3
AecStructureBase50|Product Desc: Autodesk Architectural Desktop 2007 |Company: Autodesk,Inc. |WEB Address: www.autodesk.com
 90
    32897
280
     0
281
     0
  0
CLASS
  1
AEC_DISP_REP_COLUMN_GRID_MODEL
  2
AecDbDispRepColumnGridModel
  3
AecStructureBase50|Product Desc: Autodesk Architectural Desktop 2007 |Company: Autodesk,Inc. |WEB Address: www.autodesk.com
 90
    32897
280
     0
281
     0
  0
CLASS
  1
AEC_DISP_REP_CURTAIN_WALL_LAYOUT_MODEL
  2
AecDbDispRepCurtainWallLayoutModel
  3
AecArchBase50|Product Desc: Autodesk Architectural Desktop 2007 |Company: Autodesk,Inc. |WEB Address: www.autodesk.com
 90
    32897
280
     0
281
     0
  0
CLASS
  1
AEC_DISP_REP_CURTAIN_WALL_LAYOUT_PLAN
  2
AecDbDispRepCurtainWallLayoutPlan
  3
AecArchBase50|Product Desc: Autodesk Architectural Desktop 2007 |Company: Autodesk,Inc. |WEB Address: www.autodesk.com
 90
    32897
280
     0
281
     0
  0
CLASS
  1
AEC_DISP_REP_CURTAIN_WALL_UNIT_MODEL
  2
AecDbDispRepCurtainWallUnitModel
  3
AecArchBase50|Product Desc: Autodesk Architectural Desktop 2007 |Company: Autodesk,Inc. |WEB Address: www.autodesk.com
 90
    32897
280
     0
281
     0
  0
CLASS
  1
AEC_DISP_REP_CURTAIN_WALL_UNIT_PLAN
  2
AecDbDispRepCurtainWallUnitPlan
  3
AecArchBase50|Product Desc: Autodesk Architectural Desktop 2007 |Company: Autodesk,Inc. |WEB Address: www.autodesk.com
 90
    32897
280
     0
281
     0
  0
CLASS
  1
AEC_DB_DISP_REP_DIM_GROUP_PLAN
  2
AecDbDispRepDimGroupPlan
  3
AecArchDACHBase50|Product Desc: Autodesk Architectural Desktop 2007 |Company: Autodesk,Inc. |WEB Address: www.autodesk.com
 90
    32897
280
     0
281
     0
  0
CLASS
  1
AEC_DISP_REP_DOOR_MODEL
  2
AecDbDispRepDoorModel
  3
AecArchBase50|Product Desc: Autodesk Architectural Desktop 2007 |Company: Autodesk,Inc. |WEB Address: www.autodesk.com
 90
    32897
280
     0
281
     0
  0
CLASS
  1
AEC_DISP_REP_DOOR_NOMINAL
  2
AecDbDispRepDoorNominal
  3
AecArchBase50|Product Desc: Autodesk Architectural Desktop 2007 |Company: Autodesk,Inc. |WEB Address: www.autodesk.com
 90
    32897
280
     0
281
     0
  0
CLASS
  1
AEC_DISP_REP_DOOR_PLAN
  2
AecDbDispRepDoorPlan
  3
AecArchBase50|Product Desc: Autodesk Architectural Desktop 2007 |Company: Autodesk,Inc. |WEB Address: www.autodesk.com
 90
    32897
280
     0
281
     0
  0
CLASS
  1
AEC_DISP_REP_EDITINPLACEPROFILE
  2
AecDbDispRepEditInPlaceProfile
  3
AecBase50|Product Desc: Autodesk Architectural Desktop 2007 |Company: Autodesk,Inc. |WEB Address: www.autodesk.com
 90
    32897
280
     0
281
     0
  0
CLASS
  1
AEC_DISP_REP_ENT_REF
  2
AecDbDispRepEntRef
  3
AecBase50|Product Desc: Autodesk Architectural Desktop 2007 |Company: Autodesk,Inc. |WEB Address: www.autodesk.com
 90
    32897
280
     0
281
     0
  0
CLASS
  1
AEC_DISP_REP_LAYOUT_CURVE
  2
AecDbDispRepLayoutCurve
  3
AecBase50|Product Desc: Autodesk Architectural Desktop 2007 |Company: Autodesk,Inc. |WEB Address: www.autodesk.com
 90
    32897
280
     0
281
     0
  0
CLASS
  1
AEC_DISP_REP_LAYOUT_GRID2D
  2
AecDbDispRepLayoutGrid2d
  3
AecBase50|Product Desc: Autodesk Architectural Desktop 2007 |Company: Autodesk,Inc. |WEB Address: www.autodesk.com
 90
    32897
280
     0
281
     0
  0
CLASS
  1
AEC_DISP_REP_LAYOUT_GRID3D
  2
AecDbDispRepLayoutGrid3d
  3
AecBase50|Product Desc: Autodesk Architectural Desktop 2007 |Company: Autodesk,Inc. |WEB Address: www.autodesk.com
 90
    32897
280
     0
281
     0
  0
CLASS
  1
AEC_DISP_REP_MASKBLOCK_REF
  2
AecDbDispRepMaskBlockRef
  3
AecBase50|Product Desc: Autodesk Architectural Desktop 2007 |Company: Autodesk,Inc. |WEB Address: www.autodesk.com
 90
    32897
280
     0
281
     0
  0
CLASS
  1
AEC_DISP_REP_MASKBLOCK_REF_RCP
  2
AecDbDispRepMaskBlockRefRcp
  3
AecArchBase50|Product Desc: Autodesk Architectural Desktop 2007 |Company: Autodesk,Inc. |WEB Address: www.autodesk.com
 90
    32897
280
     0
281
     0
  0
CLASS
  1
AEC_DISP_REP_MASS_ELEM_MODEL
  2
AecDbDispRepMassElemModel
  3
AecBaseEx50|Product Desc: Autodesk Architectural Desktop 2007 |Company: Autodesk,Inc. |WEB Address: www.autodesk.com
 90
    32897
280
     0
281
     0
  0
CLASS
  1
AEC_DISP_REP_MASS_ELEM_SCHEM
  2
AecDbDispRepMassElemSchem
  3
AecBaseEx50|Product Desc: Autodesk Architectural Desktop 2007 |Company: Autodesk,Inc. |WEB Address: www.autodesk.com
 90
    32897
280
     0
281
     0
  0
CLASS
  1
AEC_DISP_REP_MASS_GROUP_MODEL
  2
AecDbDispRepMassGroupModel
  3
AecBaseEx50|Product Desc: Autodesk Architectural Desktop 2007 |Company: Autodesk,Inc. |WEB Address: www.autodesk.com
 90
    32897
280
     0
281
     0
  0
CLASS
  1
AEC_DISP_REP_MASS_GROUP_PLAN
  2
AecDbDispRepMassGroupPlan
  3
AecBaseEx50|Product Desc: Autodesk Architectural Desktop 2007 |Company: Autodesk,Inc. |WEB Address: www.autodesk.com
 90
    32897
280
     0
281
     0
  0
CLASS
  1
AEC_DISP_REP_MATERIAL
  2
AecDbDispRepMaterial
  3
AecBase50|Product Desc: Autodesk Architectural Desktop 2007 |Company: Autodesk,Inc. |WEB Address: www.autodesk.com
 90
    32897
280
     0
281
     0
  0
CLASS
  1
AEC_DISP_REP_MVBLOCK_REF
  2
AecDbDispRepMvBlockRef
  3
AecBase50|Product Desc: Autodesk Architectural Desktop 2007 |Company: Autodesk,Inc. |WEB Address: www.autodesk.com
 90
    32897
280
     0
281
     0
  0
CLASS
  1
AEC_DISP_REP_MVBLOCK_REF_MODEL
  2
AecDbDispRepMvBlockRefModel
  3
AecBase50|Product Desc: Autodesk Architectural Desktop 2007 |Company: Autodesk,Inc. |WEB Address: www.autodesk.com
 90
    32897
280
     0
281
     0
  0
CLASS
  1
AEC_DISP_REP_OPENING
  2
AecDbDispRepOpening
  3
AecArchBase50|Product Desc: Autodesk Architectural Desktop 2007 |Company: Autodesk,Inc. |WEB Address: www.autodesk.com
 90
    32897
280
     0
281
     0
  0
CLASS
  1
AEC_DISP_REP_OPENING_MODEL
  2
AecDbDispRepOpeningModel
  3
AecArchBase50|Product Desc: Autodesk Architectural Desktop 2007 |Company: Autodesk,Inc. |WEB Address: www.autodesk.com
 90
    32897
280
     0
281
     0
  0
CLASS
  1
AEC_DISP_REP_POLYGON_MODEL
  2
AecDbDispRepPolygonModel
  3
AecBaseEx50|Product Desc: Autodesk Architectural Desktop 2007 |Company: Autodesk,Inc. |WEB Address: www.autodesk.com
 90
    32897
280
     0
281
     0
  0
CLASS
  1
AEC_DISP_REP_RAILING_MODEL
  2
AecDbDispRepRailingModel
  3
AecArchBase50|Product Desc: Autodesk Architectural Desktop 2007 |Company: Autodesk,Inc. |WEB Address: www.autodesk.com
 90
    32897
280
     0
281
     0
  0
CLASS
  1
AEC_DISP_REP_RAILING_PLAN
  2
AecDbDispRepRailingPlan
  3
AecArchBase50|Product Desc: Autodesk Architectural Desktop 2007 |Company: Autodesk,Inc. |WEB Address: www.autodesk.com
 90
    32897
280
     0
281
     0
  0
CLASS
  1
AEC_DISP_REP_ROOF_MODEL
  2
AecDbDispRepRoofModel
  3
AecArchBase50|Product Desc: Autodesk Architectural Desktop 2007 |Company: Autodesk,Inc. |WEB Address: www.autodesk.com
 90
    32897
280
     0
281
     0
  0
CLASS
  1
AEC_DISP_REP_ROOF_PLAN
  2
AecDbDispRepRoofPlan
  3
AecArchBase50|Product Desc: Autodesk Architectural Desktop 2007 |Company: Autodesk,Inc. |WEB Address: www.autodesk.com
 90
    32897
280
     0
281
     0
  0
CLASS
  1
AEC_DISP_REP_ROOFSLAB_MODEL
  2
AecDbDispRepRoofSlabModel
  3
AecArchBase50|Product Desc: Autodesk Architectural Desktop 2007 |Company: Autodesk,Inc. |WEB Address: www.autodesk.com
 90
    32897
280
     0
281
     0
  0
CLASS
  1
AEC_DISP_REP_ROOFSLAB_PLAN
  2
AecDbDispRepRoofSlabPlan
  3
AecArchBase50|Product Desc: Autodesk Architectural Desktop 2007 |Company: Autodesk,Inc. |WEB Address: www.autodesk.com
 90
    32897
280
     0
281
     0
  0
CLASS
  1
AEC_DISP_REP_SCHEDULE_TABLE
  2
AecDbDispRepScheduleTable
  3
AecSchedule50|Product Desc: Autodesk Architectural Desktop 2007 |Company: Autodesk,Inc. |WEB Address: www.autodesk.com
 90
    32897
280
     0
281
     0
  0
CLASS
  1
AEC_DISP_REP_SLAB_MODEL
  2
AecDbDispRepSlabModel
  3
AecArchBase50|Product Desc: Autodesk Architectural Desktop 2007 |Company: Autodesk,Inc. |WEB Address: www.autodesk.com
 90
    32897
280
     0
281
     0
  0
CLASS
  1
AEC_DISP_REP_SLAB_PLAN
  2
AecDbDispRepSlabPlan
  3
AecArchBase50|Product Desc: Autodesk Architectural Desktop 2007 |Company: Autodesk,Inc. |WEB Address: www.autodesk.com
 90
    32897
280
     0
281
     0
  0
CLASS
  1
AEC_DISP_REP_SLICE
  2
AecDbDispRepSlice
  3
AecBase50|Product Desc: Autodesk Architectural Desktop 2007 |Company: Autodesk,Inc. |WEB Address: www.autodesk.com
 90
    32897
280
     0
281
     0
  0
CLASS
  1
AEC_DISP_REP_SPACE_BOUNDARY_MODEL
  2
AecDbDispRepSpaceBoundaryModel
  3
AecArchBase50|Product Desc: Autodesk Architectural Desktop 2007 |Company: Autodesk,Inc. |WEB Address: www.autodesk.com
 90
    32897
280
     0
281
     0
  0
CLASS
  1
AEC_DISP_REP_SPACE_BOUNDARY_PLAN
  2
AecDbDispRepSpaceBoundaryPlan
  3
AecArchBase50|Product Desc: Autodesk Architectural Desktop 2007 |Company: Autodesk,Inc. |WEB Address: www.autodesk.com
 90
    32897
280
     0
281
     0
  0
CLASS
  1
AEC_DISP_REP_SPACE_BOUNDARY_SCHEM
  2
AecDbDispRepSpaceBoundarySketch
  3
AecArchBase50|Product Desc: Autodesk Architectural Desktop 2007 |Company: Autodesk,Inc. |WEB Address: www.autodesk.com
 90
    32897
280
     0
281
     0
  0
CLASS
  1
AEC_DISP_REP_SPACE_MODEL
  2
AecDbDispRepSpaceModel
  3
AecArchBase50|Product Desc: Autodesk Architectural Desktop 2007 |Company: Autodesk,Inc. |WEB Address: www.autodesk.com
 90
    32897
280
     0
281
     0
  0
CLASS
  1
AEC_DISP_REP_SPACE_PLAN
  2
AecDbDispRepSpacePlan
  3
AecArchBase50|Product Desc: Autodesk Architectural Desktop 2007 |Company: Autodesk,Inc. |WEB Address: www.autodesk.com
 90
    32897
280
     0
281
     0
  0
CLASS
  1
AEC_DISP_REP_STAIR_MODEL
  2
AecDbDispRepStairModel
  3
AecArchBase50|Product Desc: Autodesk Architectural Desktop 2007 |Company: Autodesk,Inc. |WEB Address: www.autodesk.com
 90
    32897
280
     0
281
     0
  0
CLASS
  1
AEC_DISP_REP_STAIR_PLAN
  2
AecDbDispRepStairPlan
  3
AecArchBase50|Product Desc: Autodesk Architectural Desktop 2007 |Company: Autodesk,Inc. |WEB Address: www.autodesk.com
 90
    32897
280
     0
281
     0
  0
CLASS
  1
AEC_DISP_REP_WALL_GRAPH
  2
AecDbDispRepWallGraph
  3
AecArchBase50|Product Desc: Autodesk Architectural Desktop 2007 |Company: Autodesk,Inc. |WEB Address: www.autodesk.com
 90
    32897
280
     0
281
     0
  0
CLASS
  1
AEC_DISP_REP_WALL_MODEL
  2
AecDbDispRepWallModel
  3
AecArchBase50|Product Desc: Autodesk Architectural Desktop 2007 |Company: Autodesk,Inc. |WEB Address: www.autodesk.com
 90
    32897
280
     0
281
     0
  0
CLASS
  1
AEC_DISP_REP_WALL_PLAN
  2
AecDbDispRepWallPlan
  3
AecArchBase50|Product Desc: Autodesk Architectural Desktop 2007 |Company: Autodesk,Inc. |WEB Address: www.autodesk.com
 90
    32897
280
     0
281
     0
  0
CLASS
  1
AEC_DISP_REP_WALL_SCHEM
  2
AecDbDispRepWallSchem
  3
AecArchBase50|Product Desc: Autodesk Architectural Desktop 2007 |Company: Autodesk,Inc. |WEB Address: www.autodesk.com
 90
    32897
280
     0
281
     0
  0
CLASS
  1
AEC_DISP_REP_WINDOW_ASSEMBLY_MODEL
  2
AecDbDispRepWindowAssemblyModel
  3
AecArchBase50|Product Desc: Autodesk Architectural Desktop 2007 |Company: Autodesk,Inc. |WEB Address: www.autodesk.com
 90
    32897
280
     0
281
     0
  0
CLASS
  1
AEC_DISP_REP_WINDOW_ASSEMBLY_PLAN
  2
AecDbDispRepWindowAssemblyPlan
  3
AecArchBase50|Product Desc: Autodesk Architectural Desktop 2007 |Company: Autodesk,Inc. |WEB Address: www.autodesk.com
 90
    32897
280
     0
281
     0
  0
CLASS
  1
AEC_AECDBDISPREPWINDOWASSEMBLYPLAN100
  2
AecDbDispRepWindowAssemblyPlan100
  3
AecArchDACHBase50|Product Desc: Autodesk Architectural Desktop 2007 |Company: Autodesk,Inc. |WEB Address: www.autodesk.com
 90
    32897
280
     0
281
     0
  0
CLASS
  1
AEC_DISP_REP_WINDOW_MODEL
  2
AecDbDispRepWindowModel
  3
AecArchBase50|Product Desc: Autodesk Architectural Desktop 2007 |Company: Autodesk,Inc. |WEB Address: www.autodesk.com
 90
    32897
280
     0
281
     0
  0
CLASS
  1
AEC_DISP_REP_WINDOW_NOMINAL
  2
AecDbDispRepWindowNominal
  3
AecArchBase50|Product Desc: Autodesk Architectural Desktop 2007 |Company: Autodesk,Inc. |WEB Address: www.autodesk.com
 90
    32897
280
     0
281
     0
  0
CLASS
  1
AEC_DISP_REP_WINDOW_PLAN
  2
AecDbDispRepWindowPlan
  3
AecArchBase50|Product Desc: Autodesk Architectural Desktop 2007 |Company: Autodesk,Inc. |WEB Address: www.autodesk.com
 90
    32897
280
     0
281
     0
  0
CLASS
  1
AECS_DISP_REP_MEMBER_LOGICAL
  2
AecsDbDispRepMemberLogical
  3
AecStructureBase50|Product Desc: Autodesk Architectural Desktop 2007 |Company: Autodesk,Inc. |WEB Address: www.autodesk.com
 90
    32897
280
     0
281
     0
  0
CLASS
  1
AECS_DISP_REP_MEMBER_MODEL_DESIGN
  2
AecsDbDispRepMemberModelDesign
  3
AecStructureBase50|Product Desc: Autodesk Architectural Desktop 2007 |Company: Autodesk,Inc. |WEB Address: www.autodesk.com
 90
    32897
280
     0
281
     0
  0
CLASS
  1
AECS_DISP_REP_MEMBER_PLAN_DESIGN
  2
AecsDbDispRepMemberPlanDesign
  3
AecStructureBase50|Product Desc: Autodesk Architectural Desktop 2007 |Company: Autodesk,Inc. |WEB Address: www.autodesk.com
 90
    32897
280
     0
281
     0
  0
CLASS
  1
AEC_DISP_PROPS_ENT
  2
AecDbDispPropsEnt
  3
AecBase50|Product Desc: Autodesk Architectural Desktop 2007 |Company: Autodesk,Inc. |WEB Address: www.autodesk.com
 90
    32897
280
     0
281
     0
  0
CLASS
  1
AEC_DISP_PROPS_CLIP_VOLUME
  2
AecDbDispPropsClipVol
  3
AecBase50|Product Desc: Autodesk Architectural Desktop 2007 |Company: Autodesk,Inc. |WEB Address: www.autodesk.com
 90
    32897
280
     0
281
     0
  0
CLASS
  1
AEC_DISP_PROPS_SLICE
  2
AecDbDispPropsSlice
  3
AecBase50|Product Desc: Autodesk Architectural Desktop 2007 |Company: Autodesk,Inc. |WEB Address: www.autodesk.com
 90
    32897
280
     0
281
     0
  0
CLASS
  1
AEC_DISP_PROPS_ROOFSLAB_PLAN
  2
AecDbDispPropsRoofSlabPlan
  3
AecArchBase50|Product Desc: Autodesk Architectural Desktop 2007 |Company: Autodesk,Inc. |WEB Address: www.autodesk.com
 90
    32897
280
     0
281
     0
  0
CLASS
  1
AEC_DISP_PROPS_GRID_ASSEMBLY_MODEL
  2
AecDbDispPropsGridAssemblyModel
  3
AecArchBase50|Product Desc: Autodesk Architectural Desktop 2007 |Company: Autodesk,Inc. |WEB Address: www.autodesk.com
 90
    32897
280
     0
281
     0
  0
CLASS
  1
AEC_DISP_PROPS_ROOF
  2
AecDbDispPropsRoof
  3
AecArchBase50|Product Desc: Autodesk Architectural Desktop 2007 |Company: Autodesk,Inc. |WEB Address: www.autodesk.com
 90
    32897
280
     0
281
     0
  0
CLASS
  1
AEC_DISP_PROPS_SPACE_MODEL
  2
AecDbDispPropsSpaceModel
  3
AecArchBase50|Product Desc: Autodesk Architectural Desktop 2007 |Company: Autodesk,Inc. |WEB Address: www.autodesk.com
 90
    32897
280
     0
281
     0
  0
CLASS
  1
AEC_DISP_PROPS_EDITINPLACEPROFILE_MODEL
  2
AecDbDispPropsEditInPlaceProfile
  3
AecBase50|Product Desc: Autodesk Architectural Desktop 2007 |Company: Autodesk,Inc. |WEB Address: www.autodesk.com
 90
    32897
280
     0
281
     0
  0
CLASS
  1
AEC_DISP_PROPS_DOOR
  2
AecDbDispPropsDoor
  3
AecArchBase50|Product Desc: Autodesk Architectural Desktop 2007 |Company: Autodesk,Inc. |WEB Address: www.autodesk.com
 90
    32897
280
     0
281
     0
  0
CLASS
  1
AEC_DISP_PROPS_MASKBLOCK
  2
AecDbDispPropsMaskBlock
  3
AecBase50|Product Desc: Autodesk Architectural Desktop 2007 |Company: Autodesk,Inc. |WEB Address: www.autodesk.com
 90
    32897
280
     0
281
     0
  0
CLASS
  1
AEC_DISP_PROPS_SPACE_PLAN
  2
AecDbDispPropsSpacePlan
  3
AecArchBase50|Product Desc: Autodesk Architectural Desktop 2007 |Company: Autodesk,Inc. |WEB Address: www.autodesk.com
 90
    32897
280
     0
281
     0
  0
CLASS
  1
AEC_DISP_PROPS_RAILING_PLAN
  2
AecDbDispPropsRailingPlan
  3
AecArchBase50|Product Desc: Autodesk Architectural Desktop 2007 |Company: Autodesk,Inc. |WEB Address: www.autodesk.com
 90
    32897
280
     0
281
     0
  0
CLASS
  1
AEC_DISP_PROPS_LAYOUT_GRID2D
  2
AecDbDispPropsLayoutGrid2d
  3
AecBase50|Product Desc: Autodesk Architectural Desktop 2007 |Company: Autodesk,Inc. |WEB Address: www.autodesk.com
 90
    32897
280
     0
281
     0
  0
CLASS
  1
AEC_DISP_PROPS_CLIP_VOLUME_RESULT
  2
AecDbDispPropsClipVolResSubDiv
  3
AecBase50|Product Desc: Autodesk Architectural Desktop 2007 |Company: Autodesk,Inc. |WEB Address: www.autodesk.com
 90
    32897
280
     0
281
     0
  0
CLASS
  1
AEC_DISP_PROPS_STAIR_MODEL
  2
AecDbDispPropsStairModel
  3
AecArchBase50|Product Desc: Autodesk Architectural Desktop 2007 |Company: Autodesk,Inc. |WEB Address: www.autodesk.com
 90
    32897
280
     0
281
     0
  0
CLASS
  1
AEC_DISP_PROPS_LAYOUT_CURVE
  2
AecDbDispPropsLayoutCurve
  3
AecBase50|Product Desc: Autodesk Architectural Desktop 2007 |Company: Autodesk,Inc. |WEB Address: www.autodesk.com
 90
    32897
280
     0
281
     0
  0
CLASS
  1
AEC_DISP_PROPS_POLYGON_MODEL
  2
AecDbDispPropsPolygonModel
  3
AecBaseEx50|Product Desc: Autodesk Architectural Desktop 2007 |Company: Autodesk,Inc. |WEB Address: www.autodesk.com
 90
    32897
280
     0
281
     0
  0
CLASS
  1
AEC_DISP_PROPS_MASS_GROUP
  2
AecDbDispPropsMassGroup
  3
AecBaseEx50|Product Desc: Autodesk Architectural Desktop 2007 |Company: Autodesk,Inc. |WEB Address: www.autodesk.com
 90
    32897
280
     0
281
     0
  0
CLASS
  1
AEC_DISP_PROPS_STAIR_PLAN
  2
AecDbDispPropsStairPlan
  3
AecArchBase50|Product Desc: Autodesk Architectural Desktop 2007 |Company: Autodesk,Inc. |WEB Address: www.autodesk.com
 90
    32897
280
     0
281
     0
  0
CLASS
  1
AEC_DISP_PROPS_OPENING
  2
AecDbDispPropsOpening
  3
AecArchBase50|Product Desc: Autodesk Architectural Desktop 2007 |Company: Autodesk,Inc. |WEB Address: www.autodesk.com
 90
    32897
280
     0
281
     0
  0
CLASS
  1
AEC_DISP_PROPS_WALL_GRAPH
  2
AecDbDispPropsWallGraph
  3
AecArchBase50|Product Desc: Autodesk Architectural Desktop 2007 |Company: Autodesk,Inc. |WEB Address: www.autodesk.com
 90
    32897
280
     0
281
     0
  0
CLASS
  1
AEC_DISP_PROPS_DOOR_NOMINAL
  2
AecDbDispPropsDoorNominal
  3
AecArchBase50|Product Desc: Autodesk Architectural Desktop 2007 |Company: Autodesk,Inc. |WEB Address: www.autodesk.com
 90
    32897
280
     0
281
     0
  0
CLASS
  1
AEC_DISP_PROPS_SLAB
  2
AecDbDispPropsSlab
  3
AecArchBase50|Product Desc: Autodesk Architectural Desktop 2007 |Company: Autodesk,Inc. |WEB Address: www.autodesk.com
 90
    32897
280
     0
281
     0
  0
CLASS
  1
AEC_DISP_PROPS_WALL_MODEL
  2
AecDbDispPropsWallModel
  3
AecArchBase50|Product Desc: Autodesk Architectural Desktop 2007 |Company: Autodesk,Inc. |WEB Address: www.autodesk.com
 90
    32897
280
     0
281
     0
  0
CLASS
  1
AEC_DISP_PROPS_MATERIAL
  2
AecDbDispPropsMaterial
  3
AecBase50|Product Desc: Autodesk Architectural Desktop 2007 |Company: Autodesk,Inc. |WEB Address: www.autodesk.com
 90
    32897
280
     0
281
     0
  0
CLASS
  1
AEC_DISP_PROPS_WINDOW
  2
AecDbDispPropsWindow
  3
AecArchBase50|Product Desc: Autodesk Architectural Desktop 2007 |Company: Autodesk,Inc. |WEB Address: www.autodesk.com
 90
    32897
280
     0
281
     0
  0
CLASS
  1
AEC_DISP_PROPS_LAYOUT_GRID3D
  2
AecDbDispPropsLayoutGrid3d
  3
AecBase50|Product Desc: Autodesk Architectural Desktop 2007 |Company: Autodesk,Inc. |WEB Address: www.autodesk.com
 90
    32897
280
     0
281
     0
  0
CLASS
  1
AEC_DISP_PROPS_GRID_ASSEMBLY_PLAN
  2
AecDbDispPropsGridAssemblyPlan
  3
AecArchBase50|Product Desc: Autodesk Architectural Desktop 2007 |Company: Autodesk,Inc. |WEB Address: www.autodesk.com
 90
    32897
280
     0
281
     0
  0
CLASS
  1
AEC_DISP_PROPS_WALL_SCHEM
  2
AecDbDispPropsWallSchem
  3
AecArchBase50|Product Desc: Autodesk Architectural Desktop 2007 |Company: Autodesk,Inc. |WEB Address: www.autodesk.com
 90
    32897
280
     0
281
     0
  0
CLASS
  1
AEC_DISP_PROPS_WALL_PLAN
  2
AecDbDispPropsWallPlan
  3
AecArchBase50|Product Desc: Autodesk Architectural Desktop 2007 |Company: Autodesk,Inc. |WEB Address: www.autodesk.com
 90
    32897
280
     0
281
     0
  0
CLASS
  1
AEC_DISP_PROPS_SPACE_BOUNDARY
  2
AecDbDispPropsSpaceBoundary
  3
AecArchBase50|Product Desc: Autodesk Architectural Desktop 2007 |Company: Autodesk,Inc. |WEB Address: www.autodesk.com
 90
    32897
280
     0
281
     0
  0
CLASS
  1
AEC_DISP_PROPS_SLAB_PLAN
  2
AecDbDispPropsSlabPlan
  3
AecArchBase50|Product Desc: Autodesk Architectural Desktop 2007 |Company: Autodesk,Inc. |WEB Address: www.autodesk.com
 90
    32897
280
     0
281
     0
  0
CLASS
  1
AEC_DISP_PROPS_RAILING_MODEL
  2
AecDbDispPropsRailingModel
  3
AecArchBase50|Product Desc: Autodesk Architectural Desktop 2007 |Company: Autodesk,Inc. |WEB Address: www.autodesk.com
 90
    32897
280
     0
281
     0
  0
CLASS
  1
AEC_DISP_PROPS_MASS_ELEM_MODEL
  2
AecDbDispPropsMassElem
  3
AecBaseEx50|Product Desc: Autodesk Architectural Desktop 2007 |Company: Autodesk,Inc. |WEB Address: www.autodesk.com
 90
    32897
280
     0
281
     0
  0
CLASS
  1
AEC_DISP_PROPS_DIM
  2
AecDbDispPropsDimGroup
  3
AecArchDACHBase50|Product Desc: Autodesk Architectural Desktop 2007 |Company: Autodesk,Inc. |WEB Address: www.autodesk.com
 90
    32897
280
     0
281
     0
  0
CLASS
  1
AEC_DISP_PROPS_ROOFSLAB
  2
AecDbDispPropsRoofSlab
  3
AecArchBase50|Product Desc: Autodesk Architectural Desktop 2007 |Company: Autodesk,Inc. |WEB Address: www.autodesk.com
 90
    32897
280
     0
281
     0
  0
CLASS
  1
AEC_DISP_PROPS_ENT_REF
  2
AecDbDispPropsEntRef
  3
AecBase50|Product Desc: Autodesk Architectural Desktop 2007 |Company: Autodesk,Inc. |WEB Address: www.autodesk.com
 90
    32897
280
     0
281
     0
  0
CLASS
  1
AEC_DISP_PROPS_2D_SECTION
  2
AecDbDispProps2dSection
  3
AecBase50|Product Desc: Autodesk Architectural Desktop 2007 |Company: Autodesk,Inc. |WEB Address: www.autodesk.com
 90
    32897
280
     0
281
     0
  0
CLASS
  1
AECS_DISP_PROPS_MEMBER_LOGICAL
  2
AecsDbDispPropsMemberLogical
  3
AecStructureBase50|Product Desc: Autodesk Architectural Desktop 2007 |Company: Autodesk,Inc. |WEB Address: www.autodesk.com
 90
    32897
280
     0
281
     0
  0
CLASS
  1
AEC_DISP_PROPS_AREA_DECOMPOSED
  2
AecDbDispPropsAreaDecomposed
  3
AecAreaCalculationBase50|Product Desc: Autodesk Architectural Desktop 2007 |Company: Autodesk,Inc. |WEB Address: www.autodesk.com
 90
    32897
280
     0
281
     0
  0
CLASS
  1
AEC_DISP_PROPS_CAMERA
  2
AecDbDispPropsCamera
  3
AecBase50|Product Desc: Autodesk Architectural Desktop 2007 |Company: Autodesk,Inc. |WEB Address: www.autodesk.com
 90
    32897
280
     0
281
     0
  0
CLASS
  1
AECS_DISP_PROPS_MEMBER
  2
AecsDbDispPropsMember
  3
AecStructureBase50|Product Desc: Autodesk Architectural Desktop 2007 |Company: Autodesk,Inc. |WEB Address: www.autodesk.com
 90
    32897
280
     0
281
     0
  0
CLASS
  1
AECS_DISP_PROPS_MEMBER_PLAN
  2
AecsDbDispPropsMemberPlan
  3
AecStructureBase50|Product Desc: Autodesk Architectural Desktop 2007 |Company: Autodesk,Inc. |WEB Address: www.autodesk.com
 90
    32897
280
     0
281
     0
  0
CLASS
  1
AEC_DISP_PROPS_AREAGROUP
  2
AecDbDispPropsAreaGroup
  3
AecAreaCalculationBase50|Product Desc: Autodesk Architectural Desktop 2007 |Company: Autodesk,Inc. |WEB Address: www.autodesk.com
 90
    32897
280
     0
281
     0
  0
CLASS
  1
AEC_DISP_PROPS_WINDOW_NOMINAL
  2
AecDbDispPropsWindowNominal
  3
AecArchBase50|Product Desc: Autodesk Architectural Desktop 2007 |Company: Autodesk,Inc. |WEB Address: www.autodesk.com
 90
    32897
280
     0
281
     0
  0
CLASS
  1
AEC_DISP_PROPS_AREA
  2
AecDbDispPropsArea
  3
AecAreaCalculationBase50|Product Desc: Autodesk Architectural Desktop 2007 |Company: Autodesk,Inc. |WEB Address: www.autodesk.com
 90
    32897
280
     0
281
     0
  0
CLASS
  1
AEC_DISP_PROPS_SCHEDULE_TABLE
  2
AecDbDispPropsScheduleTable
  3
AecSchedule50|Product Desc: Autodesk Architectural Desktop 2007 |Company: Autodesk,Inc. |WEB Address: www.autodesk.com
 90
    32897
280
     0
281
     0
  0
CLASS
  1
AEC_LAYERKEY_STYLE
  2
AecDbLayerKeyStyle
  3
AecBase50|Product Desc: Autodesk Architectural Desktop 2007 |Company: Autodesk,Inc. |WEB Address: www.autodesk.com
 90
    32897
280
     0
281
     0
  0
CLASS
  1
AEC_VARS_ARCHBASE
  2
AecDbVarsArchBase
  3
AecArchBase50|Product Desc: Autodesk Architectural Desktop 2007 |Company: Autodesk,Inc. |WEB Address: www.autodesk.com
 90
    32897
280
     0
281
     0
  0
CLASS
  1
AEC_VARS_MUNICH
  2
AecDbVarsMunich
  3
AecArchDACHBase50|Product Desc: Autodesk Architectural Desktop 2007 |Company: Autodesk,Inc. |WEB Address: www.autodesk.com
 90
    32897
280
     0
281
     0
  0
CLASS
  1
AEC_NOTIFICATION_TRACKER
  2
AecDbNotificationTracker
  3
AecBase50|Product Desc: Autodesk Architectural Desktop 2007 |Company: Autodesk,Inc. |WEB Address: www.autodesk.com
 90
    32897
280
     0
281
     0
  0
CLASS
  1
AEC_DISP_REP_ANCHOR
  2
AecDbDispRepAnchor
  3
AecBase50|Product Desc: Autodesk Architectural Desktop 2007 |Company: Autodesk,Inc. |WEB Address: www.autodesk.com
 90
    32897
280
     0
281
     0
  0
CLASS
  1
AEC_DISP_REP_POLYGON_TRUECOLOUR
  2
AecDbDispRepPolygonTrueColour
  3
AecBaseEx50|Product Desc: Autodesk Architectural Desktop 2007 |Company: Autodesk,Inc. |WEB Address: www.autodesk.com
 90
    32897
280
     0
281
     0
  0
CLASS
  1
AEC_DISP_PROPS_POLYGON_TRUECOLOUR
  2
AecDbDispPropsPolygonTrueColour
  3
AecBaseEx50|Product Desc: Autodesk Architectural Desktop 2007 |Company: Autodesk,Inc. |WEB Address: www.autodesk.com
 90
    32897
280
     0
281
     0
  0
CLASS
  1
AEC_DISP_REP_BDG_ELEVLINE_RCP
  2
AecDbDispRepBdgElevLineRcp
  3
AecArchBase50|Product Desc: Autodesk Architectural Desktop 2007 |Company: Autodesk,Inc. |WEB Address: www.autodesk.com
 90
    32897
280
     0
281
     0
  0
CLASS
  1
AEC_DISP_REP_BDG_SECTIONLINE_RCP
  2
AecDbDispRepBdgSectionLineRcp
  3
AecArchBase50|Product Desc: Autodesk Architectural Desktop 2007 |Company: Autodesk,Inc. |WEB Address: www.autodesk.com
 90
    32897
280
     0
281
     0
  0
CLASS
  1
AEC_DISP_REP_BDG_SECTION_MODEL
  2
AecDbDispRepBdgSectionModel
  3
AecArchBase50|Product Desc: Autodesk Architectural Desktop 2007 |Company: Autodesk,Inc. |WEB Address: www.autodesk.com
 90
    32897
280
     0
281
     0
  0
CLASS
  1
AEC_DISP_REP_DOOR_ELEV
  2
AecDbDispRepDoorElev
  3
AecArchBase50|Product Desc: Autodesk Architectural Desktop 2007 |Company: Autodesk,Inc. |WEB Address: www.autodesk.com
 90
    32897
280
     0
281
     0
  0
CLASS
  1
AEC_DISP_REP_DOOR_RCP
  2
AecDbDispRepDoorRcp
  3
AecArchBase50|Product Desc: Autodesk Architectural Desktop 2007 |Company: Autodesk,Inc. |WEB Address: www.autodesk.com
 90
    32897
280
     0
281
     0
  0
CLASS
  1
AEC_DISP_REP_DOOR_THRESHOLD_PLAN
  2
AecDbDispRepDoorThresholdPlan
  3
AecArchBase50|Product Desc: Autodesk Architectural Desktop 2007 |Company: Autodesk,Inc. |WEB Address: www.autodesk.com
 90
    32897
280
     0
281
     0
  0
CLASS
  1
AEC_DISP_PROPS_DOOR_THRESHOLD_PLAN
  2
AecDbDispPropsDoorThresholdPlan
  3
AecArchBase50|Product Desc: Autodesk Architectural Desktop 2007 |Company: Autodesk,Inc. |WEB Address: www.autodesk.com
 90
    32897
280
     0
281
     0
  0
CLASS
  1
AEC_DISP_REP_MASS_ELEM_RCP
  2
AecDbDispRepMassElemRcp
  3
AecArchBase50|Product Desc: Autodesk Architectural Desktop 2007 |Company: Autodesk,Inc. |WEB Address: www.autodesk.com
 90
    32897
280
     0
281
     0
  0
CLASS
  1
AEC_DISP_REP_MASS_GROUP_RCP
  2
AecDbDispRepMassGroupRcp
  3
AecArchBase50|Product Desc: Autodesk Architectural Desktop 2007 |Company: Autodesk,Inc. |WEB Address: www.autodesk.com
 90
    32897
280
     0
281
     0
  0
CLASS
  1
AEC_DISP_REP_MVBLOCK_REF_RCP
  2
AecDbDispRepMvBlockRefRcp
  3
AecArchBase50|Product Desc: Autodesk Architectural Desktop 2007 |Company: Autodesk,Inc. |WEB Address: www.autodesk.com
 90
    32897
280
     0
281
     0
  0
CLASS
  1
AEC_DISP_REP_ROOF_RCP
  2
AecDbDispRepRoofRcp
  3
AecArchBase50|Product Desc: Autodesk Architectural Desktop 2007 |Company: Autodesk,Inc. |WEB Address: www.autodesk.com
 90
    32897
280
     0
281
     0
  0
CLASS
  1
AEC_DISP_REP_SPACE_BOUNDARY_DIAGRAM
  2
AecDbDispRepSpaceBoundaryDgrm
  3
AecArchBase50|Product Desc: Autodesk Architectural Desktop 2007 |Company: Autodesk,Inc. |WEB Address: www.autodesk.com
 90
    32897
280
     0
281
     0
  0
CLASS
  1
AEC_DISP_REP_SPACE_RCP
  2
AecDbDispRepSpaceRcp
  3
AecArchBase50|Product Desc: Autodesk Architectural Desktop 2007 |Company: Autodesk,Inc. |WEB Address: www.autodesk.com
 90
    32897
280
     0
281
     0
  0
CLASS
  1
AEC_DISP_REP_SPACE_VOLUME
  2
AecDbDispRepSpaceVolume
  3
AecArchBase50|Product Desc: Autodesk Architectural Desktop 2007 |Company: Autodesk,Inc. |WEB Address: www.autodesk.com
 90
    32897
280
     0
281
     0
  0
CLASS
  1
AEC_DISP_REP_STAIR_PLAN_OVERLAPPING
  2
AecDbDispRepStairPlanOverlapping
  3
AecArchBase50|Product Desc: Autodesk Architectural Desktop 2007 |Company: Autodesk,Inc. |WEB Address: www.autodesk.com
 90
    32897
280
     0
281
     0
  0
CLASS
  1
AEC_DISP_PROPS_STAIR_PLAN_OVERLAPPING
  2
AecDbDispPropsStairPlanOverlapping
  3
AecArchBase50|Product Desc: Autodesk Architectural Desktop 2007 |Company: Autodesk,Inc. |WEB Address: www.autodesk.com
 90
    32897
280
     0
281
     0
  0
CLASS
  1
AEC_DISP_REP_STAIR_RCP
  2
AecDbDispRepStairRcp
  3
AecArchBase50|Product Desc: Autodesk Architectural Desktop 2007 |Company: Autodesk,Inc. |WEB Address: www.autodesk.com
 90
    32897
280
     0
281
     0
  0
CLASS
  1
AEC_DISP_REP_WALL_RCP
  2
AecDbDispRepWallRcp
  3
AecArchBase50|Product Desc: Autodesk Architectural Desktop 2007 |Company: Autodesk,Inc. |WEB Address: www.autodesk.com
 90
    32897
280
     0
281
     0
  0
CLASS
  1
AEC_DISP_REP_WINDOWASSEMBLY_SILL_PLAN
  2
AecDbDispRepWindowAssemblySillPlan
  3
AecArchBase50|Product Desc: Autodesk Architectural Desktop 2007 |Company: Autodesk,Inc. |WEB Address: www.autodesk.com
 90
    32897
280
     0
281
     0
  0
CLASS
  1
AEC_DISP_PROPS_WINDOW_ASSEMBLY_SILL_PLAN
  2
AecDbDispPropsWindowAssemblySillPlan
  3
AecArchBase50|Product Desc: Autodesk Architectural Desktop 2007 |Company: Autodesk,Inc. |WEB Address: www.autodesk.com
 90
    32897
280
     0
281
     0
  0
CLASS
  1
AEC_DISP_REP_WINDOW_ELEV
  2
AecDbDispRepWindowElev
  3
AecArchBase50|Product Desc: Autodesk Architectural Desktop 2007 |Company: Autodesk,Inc. |WEB Address: www.autodesk.com
 90
    32897
280
     0
281
     0
  0
CLASS
  1
AEC_DISP_REP_WINDOW_RCP
  2
AecDbDispRepWindowRcp
  3
AecArchBase50|Product Desc: Autodesk Architectural Desktop 2007 |Company: Autodesk,Inc. |WEB Address: www.autodesk.com
 90
    32897
280
     0
281
     0
  0
CLASS
  1
AEC_DISP_REP_WINDOW_SILL_PLAN
  2
AecDbDispRepWindowSillPlan
  3
AecArchBase50|Product Desc: Autodesk Architectural Desktop 2007 |Company: Autodesk,Inc. |WEB Address: www.autodesk.com
 90
    32897
280
     0
281
     0
  0
CLASS
  1
AEC_DISP_PROPS_WINDOW_SILL_PLAN
  2
AecDbDispPropsWindowSillPlan
  3
AecArchBase50|Product Desc: Autodesk Architectural Desktop 2007 |Company: Autodesk,Inc. |WEB Address: www.autodesk.com
 90
    32897
280
     0
281
     0
  0
CLASS
  1
AEC_DISP_REP_ANCHOR_BUB_TO_GRID_RCP
  2
AecDbDispRepAnchorBubToGridRcp
  3
AecStructureBase50|Product Desc: Autodesk Architectural Desktop 2007 |Company: Autodesk,Inc. |WEB Address: www.autodesk.com
 90
    32897
280
     0
281
     0
  0
CLASS
  1
AEC_DISP_REP_COLUMN_GRID_RCP
  2
AecDbDispRepColumnGridRcp
  3
AecStructureBase50|Product Desc: Autodesk Architectural Desktop 2007 |Company: Autodesk,Inc. |WEB Address: www.autodesk.com
 90
    32897
280
     0
281
     0
  0
CLASS
  1
AECS_DISP_REP_MEMBER_ELEVATION_DESIGN
  2
AecsDbDispRepMemberElevationDesign
  3
AecStructureBase50|Product Desc: Autodesk Architectural Desktop 2007 |Company: Autodesk,Inc. |WEB Address: www.autodesk.com
 90
    32897
280
     0
281
     0
  0
CLASS
  1
AECS_DISP_PROPS_MEMBER_PROJECTED
  2
AecsDbDispPropsMemberProjected
  3
AecStructureBase50|Product Desc: Autodesk Architectural Desktop 2007 |Company: Autodesk,Inc. |WEB Address: www.autodesk.com
 90
    32897
280
     0
281
     0
  0
CLASS
  1
AECS_DISP_REP_MEMBER_ELEVATION_DETAIL
  2
AecsDbDispRepMemberElevationDetail
  3
AecStructureBase50|Product Desc: Autodesk Architectural Desktop 2007 |Company: Autodesk,Inc. |WEB Address: www.autodesk.com
 90
    32897
280
     0
281
     0
  0
CLASS
  1
AECS_DISP_REP_MEMBER_MODEL_DETAIL
  2
AecsDbDispRepMemberModelDetail
  3
AecStructureBase50|Product Desc: Autodesk Architectural Desktop 2007 |Company: Autodesk,Inc. |WEB Address: www.autodesk.com
 90
    32897
280
     0
281
     0
  0
CLASS
  1
AECS_DISP_REP_MEMBER_PLAN_DETAIL
  2
AecsDbDispRepMemberPlanDetail
  3
AecStructureBase50|Product Desc: Autodesk Architectural Desktop 2007 |Company: Autodesk,Inc. |WEB Address: www.autodesk.com
 90
    32897
280
     0
281
     0
  0
CLASS
  1
AECS_DISP_REP_MEMBER_PLAN_SKETCH
  2
AecsDbDispRepMemberPlanSketch
  3
AecStructureBase50|Product Desc: Autodesk Architectural Desktop 2007 |Company: Autodesk,Inc. |WEB Address: www.autodesk.com
 90
    32897
280
     0
281
     0
  0
CLASS
  1
AECS_DISP_PROPS_MEMBER_PLAN_SKETCH
  2
AecsDbDispPropsMemberPlanSketch
  3
AecStructureBase50|Product Desc: Autodesk Architectural Desktop 2007 |Company: Autodesk,Inc. |WEB Address: www.autodesk.com
 90
    32897
280
     0
281
     0
  0
CLASS
  1
AEC_AECDBDISPREPAREA100
  2
AecDbDispRepArea100
  3
AecArchDACHBase50|Product Desc: Autodesk Architectural Desktop 2007 |Company: Autodesk,Inc. |WEB Address: www.autodesk.com
 90
    32897
280
     0
281
     0
  0
CLASS
  1
AEC_AECDBDISPREPAREAGROUP100
  2
AecDbDispRepAreaGroup100
  3
AecArchDACHBase50|Product Desc: Autodesk Architectural Desktop 2007 |Company: Autodesk,Inc. |WEB Address: www.autodesk.com
 90
    32897
280
     0
281
     0
  0
CLASS
  1
AEC_AECDBDISPREPBDGELEVLINEPLAN100
  2
AecDbDispRepBdgElevLinePlan100
  3
AecArchDACHBase50|Product Desc: Autodesk Architectural Desktop 2007 |Company: Autodesk,Inc. |WEB Address: www.autodesk.com
 90
    32897
280
     0
281
     0
  0
CLASS
  1
AEC_AECDBDISPREPBDGSECTIONLINEPLAN100
  2
AecDbDispRepBdgSectionLinePlan100
  3
AecArchDACHBase50|Product Desc: Autodesk Architectural Desktop 2007 |Company: Autodesk,Inc. |WEB Address: www.autodesk.com
 90
    32897
280
     0
281
     0
  0
CLASS
  1
AEC_AECDBDISPREPCEILINGGRIDPLAN100
  2
AecDbDispRepCeilingGridPlan100
  3
AecArchDACHBase50|Product Desc: Autodesk Architectural Desktop 2007 |Company: Autodesk,Inc. |WEB Address: www.autodesk.com
 90
    32897
280
     0
281
     0
  0
CLASS
  1
AEC_AECDBDISPREPCOLUMNGRIDPLAN100
  2
AecDbDispRepColumnGridPlan100
  3
AecArchDACHBase50|Product Desc: Autodesk Architectural Desktop 2007 |Company: Autodesk,Inc. |WEB Address: www.autodesk.com
 90
    32897
280
     0
281
     0
  0
CLASS
  1
AEC_AECDBDISPREPCURTAINWALLLAYOUTPLAN100
  2
AecDbDispRepCurtainWallLayoutPlan100
  3
AecArchDACHBase50|Product Desc: Autodesk Architectural Desktop 2007 |Company: Autodesk,Inc. |WEB Address: www.autodesk.com
 90
    32897
280
     0
281
     0
  0
CLASS
  1
AEC_AECDBDISPREPCURTAINWALLUNITPLAN100
  2
AecDbDispRepCurtainWallUnitPlan100
  3
AecArchDACHBase50|Product Desc: Autodesk Architectural Desktop 2007 |Company: Autodesk,Inc. |WEB Address: www.autodesk.com
 90
    32897
280
     0
281
     0
  0
CLASS
  1
AEC_AECDBDISPREPMVBLOCKREFPLAN100
  2
AecDbDispRepMvBlockRefPlan100
  3
AecArchDACHBase50|Product Desc: Autodesk Architectural Desktop 2007 |Company: Autodesk,Inc. |WEB Address: www.autodesk.com
 90
    32897
280
     0
281
     0
  0
CLASS
  1
AEC_AECDBDISPREPROOFPLAN100
  2
AecDbDispRepRoofPlan100
  3
AecArchDACHBase50|Product Desc: Autodesk Architectural Desktop 2007 |Company: Autodesk,Inc. |WEB Address: www.autodesk.com
 90
    32897
280
     0
281
     0
  0
CLASS
  1
AEC_AECDBDISPREPROOFSLABPLAN100
  2
AecDbDispRepRoofSlabPlan100
  3
AecArchDACHBase50|Product Desc: Autodesk Architectural Desktop 2007 |Company: Autodesk,Inc. |WEB Address: www.autodesk.com
 90
    32897
280
     0
281
     0
  0
CLASS
  1
AEC_AECDBDISPREPSLABPLAN100
  2
AecDbDispRepSlabPlan100
  3
AecArchDACHBase50|Product Desc: Autodesk Architectural Desktop 2007 |Company: Autodesk,Inc. |WEB Address: www.autodesk.com
 90
    32897
280
     0
281
     0
  0
CLASS
  1
AEC_AECDBDISPREPSPACEBOUNDARYPLAN100
  2
AecDbDispRepSpaceBoundaryPlan100
  3
AecArchDACHBase50|Product Desc: Autodesk Architectural Desktop 2007 |Company: Autodesk,Inc. |WEB Address: www.autodesk.com
 90
    32897
280
     0
281
     0
  0
CLASS
  1
AEC_AECDBDISPREPSPACEPLAN100
  2
AecDbDispRepSpacePlan100
  3
AecArchDACHBase50|Product Desc: Autodesk Architectural Desktop 2007 |Company: Autodesk,Inc. |WEB Address: www.autodesk.com
 90
    32897
280
     0
281
     0
  0
CLASS
  1
AEC_AECDBDISPREPWALLPLAN100
  2
AecDbDispRepWallPlan100
  3
AecArchDACHBase50|Product Desc: Autodesk Architectural Desktop 2007 |Company: Autodesk,Inc. |WEB Address: www.autodesk.com
 90
    32897
280
     0
281
     0
  0
CLASS
  1
AEC_AECDBDISPREPAREA50
  2
AecDbDispRepArea50
  3
AecArchDACHBase50|Product Desc: Autodesk Architectural Desktop 2007 |Company: Autodesk,Inc. |WEB Address: www.autodesk.com
 90
    32897
280
     0
281
     0
  0
CLASS
  1
AEC_AECDBDISPREPAREAGROUP50
  2
AecDbDispRepAreaGroup50
  3
AecArchDACHBase50|Product Desc: Autodesk Architectural Desktop 2007 |Company: Autodesk,Inc. |WEB Address: www.autodesk.com
 90
    32897
280
     0
281
     0
  0
CLASS
  1
AEC_AECDBDISPREPBDGELEVLINEPLAN50
  2
AecDbDispRepBdgElevLinePlan50
  3
AecArchDACHBase50|Product Desc: Autodesk Architectural Desktop 2007 |Company: Autodesk,Inc. |WEB Address: www.autodesk.com
 90
    32897
280
     0
281
     0
  0
CLASS
  1
AEC_AECDBDISPREPBDGSECTIONLINEPLAN50
  2
AecDbDispRepBdgSectionLinePlan50
  3
AecArchDACHBase50|Product Desc: Autodesk Architectural Desktop 2007 |Company: Autodesk,Inc. |WEB Address: www.autodesk.com
 90
    32897
280
     0
281
     0
  0
CLASS
  1
AEC_AECDBDISPREPCEILINGGRIDPLAN50
  2
AecDbDispRepCeilingGridPlan50
  3
AecArchDACHBase50|Product Desc: Autodesk Architectural Desktop 2007 |Company: Autodesk,Inc. |WEB Address: www.autodesk.com
 90
    32897
280
     0
281
     0
  0
CLASS
  1
AEC_AECDBDISPREPCOLUMNGRIDPLAN50
  2
AecDbDispRepColumnGridPlan50
  3
AecArchDACHBase50|Product Desc: Autodesk Architectural Desktop 2007 |Company: Autodesk,Inc. |WEB Address: www.autodesk.com
 90
    32897
280
     0
281
     0
  0
CLASS
  1
AEC_AECDBDISPREPCURTAINWALLLAYOUTPLAN50
  2
AecDbDispRepCurtainWallLayoutPlan50
  3
AecArchDACHBase50|Product Desc: Autodesk Architectural Desktop 2007 |Company: Autodesk,Inc. |WEB Address: www.autodesk.com
 90
    32897
280
     0
281
     0
  0
CLASS
  1
AEC_AECDBDISPREPCURTAINWALLUNITPLAN50
  2
AecDbDispRepCurtainWallUnitPlan50
  3
AecArchDACHBase50|Product Desc: Autodesk Architectural Desktop 2007 |Company: Autodesk,Inc. |WEB Address: www.autodesk.com
 90
    32897
280
     0
281
     0
  0
CLASS
  1
AEC_AECDBDISPREPMVBLOCKREFPLAN50
  2
AecDbDispRepMvBlockRefPlan50
  3
AecArchDACHBase50|Product Desc: Autodesk Architectural Desktop 2007 |Company: Autodesk,Inc. |WEB Address: www.autodesk.com
 90
    32897
280
     0
281
     0
  0
CLASS
  1
AEC_AECDBDISPREPROOFPLAN50
  2
AecDbDispRepRoofPlan50
  3
AecArchDACHBase50|Product Desc: Autodesk Architectural Desktop 2007 |Company: Autodesk,Inc. |WEB Address: www.autodesk.com
 90
    32897
280
     0
281
     0
  0
CLASS
  1
AEC_AECDBDISPREPROOFSLABPLAN50
  2
AecDbDispRepRoofSlabPlan50
  3
AecArchDACHBase50|Product Desc: Autodesk Architectural Desktop 2007 |Company: Autodesk,Inc. |WEB Address: www.autodesk.com
 90
    32897
280
     0
281
     0
  0
CLASS
  1
AEC_AECDBDISPREPSLABPLAN50
  2
AecDbDispRepSlabPlan50
  3
AecArchDACHBase50|Product Desc: Autodesk Architectural Desktop 2007 |Company: Autodesk,Inc. |WEB Address: www.autodesk.com
 90
    32897
280
     0
281
     0
  0
CLASS
  1
AEC_AECDBDISPREPSPACEBOUNDARYPLAN50
  2
AecDbDispRepSpaceBoundaryPlan50
  3
AecArchDACHBase50|Product Desc: Autodesk Architectural Desktop 2007 |Company: Autodesk,Inc. |WEB Address: www.autodesk.com
 90
    32897
280
     0
281
     0
  0
CLASS
  1
AEC_AECDBDISPREPSPACEPLAN50
  2
AecDbDispRepSpacePlan50
  3
AecArchDACHBase50|Product Desc: Autodesk Architectural Desktop 2007 |Company: Autodesk,Inc. |WEB Address: www.autodesk.com
 90
    32897
280
     0
281
     0
  0
CLASS
  1
AEC_AECDBDISPREPWALLPLAN50
  2
AecDbDispRepWallPlan50
  3
AecArchDACHBase50|Product Desc: Autodesk Architectural Desktop 2007 |Company: Autodesk,Inc. |WEB Address: www.autodesk.com
 90
    32897
280
     0
281
     0
  0
CLASS
  1
AEC_AECDBDISPREPWINDOWASSEMBLYPLAN50
  2
AecDbDispRepWindowAssemblyPlan50
  3
AecArchDACHBase50|Product Desc: Autodesk Architectural Desktop 2007 |Company: Autodesk,Inc. |WEB Address: www.autodesk.com
 90
    32897
280
     0
281
     0
  0
CLASS
  1
AEC_DB_DISP_REP_DIM_GROUP_PLAN100
  2
AecDbDispRepDimGroupPlan100
  3
AecArchDACHBase50|Product Desc: Autodesk Architectural Desktop 2007 |Company: Autodesk,Inc. |WEB Address: www.autodesk.com
 90
    32897
280
     0
281
     0
  0
CLASS
  1
AEC_DB_DISP_REP_DIM_GROUP_PLAN50
  2
AecDbDispRepDimGroupPlan50
  3
AecArchDACHBase50|Product Desc: Autodesk Architectural Desktop 2007 |Company: Autodesk,Inc. |WEB Address: www.autodesk.com
 90
    32897
280
     0
281
     0
  0
CLASS
  1
AEC_DISP_REP_DOOR_PLAN_50
  2
AecDbDispRepDoorPlan50
  3
AecArchDACHBase50|Product Desc: Autodesk Architectural Desktop 2007 |Company: Autodesk,Inc. |WEB Address: www.autodesk.com
 90
    32897
280
     0
281
     0
  0
CLASS
  1
AEC_DISP_PROPS_DOOR_PLAN_50
  2
AecDbDispPropsDoorPlan50
  3
AecArchDACHBase50|Product Desc: Autodesk Architectural Desktop 2007 |Company: Autodesk,Inc. |WEB Address: www.autodesk.com
 90
    32897
280
     0
281
     0
  0
CLASS
  1
AEC_DISP_REP_DOOR_PLAN_HEKTO
  2
AecDbDispRepDoorPlanHekto
  3
AecArchDACHBase50|Product Desc: Autodesk Architectural Desktop 2007 |Company: Autodesk,Inc. |WEB Address: www.autodesk.com
 90
    32897
280
     0
281
     0
  0
CLASS
  1
AEC_DISP_PROPS_DOOR_PLAN_100
  2
AecDbDispPropsDoorPlan100
  3
AecArchDACHBase50|Product Desc: Autodesk Architectural Desktop 2007 |Company: Autodesk,Inc. |WEB Address: www.autodesk.com
 90
    32897
280
     0
281
     0
  0
CLASS
  1
AEC_DISP_REP_DOOR_THRESHOLD_SYMBOL_PLAN
  2
AecDbDispRepDoorThresholdSymbolPlan
  3
AecArchDACHBase50|Product Desc: Autodesk Architectural Desktop 2007 |Company: Autodesk,Inc. |WEB Address: www.autodesk.com
 90
    32897
280
     0
281
     0
  0
CLASS
  1
AEC_DISP_PROPS_DOOR_THRESHOLD_SYMBOL_PLAN
  2
AecDbDispPropsDoorThresholdSymbolPlan
  3
AecArchDACHBase50|Product Desc: Autodesk Architectural Desktop 2007 |Company: Autodesk,Inc. |WEB Address: www.autodesk.com
 90
    32897
280
     0
281
     0
  0
CLASS
  1
AEC_DISPREPAECDBDISPREPMASSELEMPLAN100
  2
AecDbDispRepMassElemPlan100
  3
AecArchDACHBase50|Product Desc: Autodesk Architectural Desktop 2007 |Company: Autodesk,Inc. |WEB Address: www.autodesk.com
 90
    32897
280
     0
281
     0
  0
CLASS
  1
AEC_DISPROPSMASSELEMPLANCOMMON
  2
AecDbDispPropsMassElemPlanCommon
  3
AecArchDACHBase50|Product Desc: Autodesk Architectural Desktop 2007 |Company: Autodesk,Inc. |WEB Address: www.autodesk.com
 90
    32897
280
     0
281
     0
  0
CLASS
  1
AEC_DISPREPAECDBDISPREPMASSELEMPLAN50
  2
AecDbDispRepMassElemPlan50
  3
AecArchDACHBase50|Product Desc: Autodesk Architectural Desktop 2007 |Company: Autodesk,Inc. |WEB Address: www.autodesk.com
 90
    32897
280
     0
281
     0
  0
CLASS
  1
AEC_DISPREPAECDBDISPREPMASSGROUPPLAN100
  2
AecDbDispRepMassGroupPlan100
  3
AecArchDACHBase50|Product Desc: Autodesk Architectural Desktop 2007 |Company: Autodesk,Inc. |WEB Address: www.autodesk.com
 90
    32897
280
     0
281
     0
  0
CLASS
  1
AEC_DISPROPSMASSGROUPPLANCOMMON
  2
AecDbDispPropsMassGroupPlanCommon
  3
AecArchDACHBase50|Product Desc: Autodesk Architectural Desktop 2007 |Company: Autodesk,Inc. |WEB Address: www.autodesk.com
 90
    32897
280
     0
281
     0
  0
CLASS
  1
AEC_DISPREPAECDBDISPREPMASSGROUPPLAN50
  2
AecDbDispRepMassGroupPlan50
  3
AecArchDACHBase50|Product Desc: Autodesk Architectural Desktop 2007 |Company: Autodesk,Inc. |WEB Address: www.autodesk.com
 90
    32897
280
     0
281
     0
  0
CLASS
  1
AEC_DISPREPAECDBDISPREPOPENINGPLAN100
  2
AecDbDispRepOpeningPlan100
  3
AecArchDACHBase50|Product Desc: Autodesk Architectural Desktop 2007 |Company: Autodesk,Inc. |WEB Address: www.autodesk.com
 90
    32897
280
     0
281
     0
  0
CLASS
  1
AEC_DISPROPSOPENINGPLANCOMMONHATCHED
  2
AecDbDispPropsOpeningPlanCommonHatched
  3
AecArchDACHBase50|Product Desc: Autodesk Architectural Desktop 2007 |Company: Autodesk,Inc. |WEB Address: www.autodesk.com
 90
    32897
280
     0
281
     0
  0
CLASS
  1
AEC_DISPREPAECDBDISPREPOPENINGPLAN50
  2
AecDbDispRepOpeningPlan50
  3
AecArchDACHBase50|Product Desc: Autodesk Architectural Desktop 2007 |Company: Autodesk,Inc. |WEB Address: www.autodesk.com
 90
    32897
280
     0
281
     0
  0
CLASS
  1
AEC_DISPREPAECDBDISPREPOPENINGPLANREFLECTED
  2
AecDbDispRepOpeningPlanReflected
  3
AecArchDACHBase50|Product Desc: Autodesk Architectural Desktop 2007 |Company: Autodesk,Inc. |WEB Address: www.autodesk.com
 90
    32897
280
     0
281
     0
  0
CLASS
  1
AEC_DISPROPSOPENINGPLANCOMMON
  2
AecDbDispPropsOpeningPlanCommon
  3
AecArchDACHBase50|Product Desc: Autodesk Architectural Desktop 2007 |Company: Autodesk,Inc. |WEB Address: www.autodesk.com
 90
    32897
280
     0
281
     0
  0
CLASS
  1
AEC_DISPREPAECDBDISPREPOPENINGSILLPLAN
  2
AecDbDispRepOpeningSillPlan
  3
AecArchDACHBase50|Product Desc: Autodesk Architectural Desktop 2007 |Company: Autodesk,Inc. |WEB Address: www.autodesk.com
 90
    32897
280
     0
281
     0
  0
CLASS
  1
AEC_DISPROPSOPENINGSILLPLAN
  2
AecDbDispPropsOpeningSillPlan
  3
AecArchDACHBase50|Product Desc: Autodesk Architectural Desktop 2007 |Company: Autodesk,Inc. |WEB Address: www.autodesk.com
 90
    32897
280
     0
281
     0
  0
CLASS
  1
AEC_DISP_REP_RAILING_PLAN_100
  2
AecDbDispRepRailingPlan100
  3
AecArchDACHBase50|Product Desc: Autodesk Architectural Desktop 2007 |Company: Autodesk,Inc. |WEB Address: www.autodesk.com
 90
    32897
280
     0
281
     0
  0
CLASS
  1
AEC_DISP_ROPS_RAILING_PLAN_100
  2
AecDbDispPropsRailingPlan100
  3
AecArchDACHBase50|Product Desc: Autodesk Architectural Desktop 2007 |Company: Autodesk,Inc. |WEB Address: www.autodesk.com
 90
    32897
280
     0
281
     0
  0
CLASS
  1
AEC_DISP_REP_RAILING_PLAN_50
  2
AecDbDispRepRailingPlan50
  3
AecArchDACHBase50|Product Desc: Autodesk Architectural Desktop 2007 |Company: Autodesk,Inc. |WEB Address: www.autodesk.com
 90
    32897
280
     0
281
     0
  0
CLASS
  1
AEC_DISP_ROPS_RAILING_PLAN_50
  2
AecDbDispPropsRailingPlan50
  3
AecArchDACHBase50|Product Desc: Autodesk Architectural Desktop 2007 |Company: Autodesk,Inc. |WEB Address: www.autodesk.com
 90
    32897
280
     0
281
     0
  0
CLASS
  1
AEC_DISP_REP_STAIR_PLAN_100
  2
AecDbDispRepStairPlan100
  3
AecArchDACHBase50|Product Desc: Autodesk Architectural Desktop 2007 |Company: Autodesk,Inc. |WEB Address: www.autodesk.com
 90
    32897
280
     0
281
     0
  0
CLASS
  1
AEC_DISP_ROPS_STAIR_PLAN_100
  2
AecDbDispPropsStairPlan100
  3
AecArchDACHBase50|Product Desc: Autodesk Architectural Desktop 2007 |Company: Autodesk,Inc. |WEB Address: www.autodesk.com
 90
    32897
280
     0
281
     0
  0
CLASS
  1
AEC_DISP_REP_STAIR_PLAN_50
  2
AecDbDispRepStairPlan50
  3
AecArchDACHBase50|Product Desc: Autodesk Architectural Desktop 2007 |Company: Autodesk,Inc. |WEB Address: www.autodesk.com
 90
    32897
280
     0
281
     0
  0
CLASS
  1
AEC_DISP_ROPS_STAIR_PLAN_50
  2
AecDbDispPropsStairPlan50
  3
AecArchDACHBase50|Product Desc: Autodesk Architectural Desktop 2007 |Company: Autodesk,Inc. |WEB Address: www.autodesk.com
 90
    32897
280
     0
281
     0
  0
CLASS
  1
AEC_DISP_REP_WINDOW_PLAN_100
  2
AecDbDispRepWindowPlan100
  3
AecArchDACHBase50|Product Desc: Autodesk Architectural Desktop 2007 |Company: Autodesk,Inc. |WEB Address: www.autodesk.com
 90
    32897
280
     0
281
     0
  0
CLASS
  1
AEC_DISP_PROPS_WINDOW_PLAN_100
  2
AecDbDispPropsWindowPlan100
  3
AecArchDACHBase50|Product Desc: Autodesk Architectural Desktop 2007 |Company: Autodesk,Inc. |WEB Address: www.autodesk.com
 90
    32897
280
     0
281
     0
  0
CLASS
  1
AEC_DISP_REP_WINDOW_PLAN_50
  2
AecDbDispRepWindowPlan50
  3
AecArchDACHBase50|Product Desc: Autodesk Architectural Desktop 2007 |Company: Autodesk,Inc. |WEB Address: www.autodesk.com
 90
    32897
280
     0
281
     0
  0
CLASS
  1
AEC_DISP_PROPS_WINDOW_PLAN_50
  2
AecDbDispPropsWindowPlan50
  3
AecArchDACHBase50|Product Desc: Autodesk Architectural Desktop 2007 |Company: Autodesk,Inc. |WEB Address: www.autodesk.com
 90
    32897
280
     0
281
     0
  0
CLASS
  1
BINRECORD
  2
AcAecBinRecord
  3
AecBase50|Product Desc: Autodesk Architectural Desktop 2007 |Company: Autodesk,Inc. |WEB Address: www.autodesk.com
 90
    32897
280
     0
281
     0
  0
CLASS
  1
SPATIAL_FILTER
  2
AcDbSpatialFilter
  3
ObjectDBX Classes
 90
    32768
280
     0
281
     0
  0
CLASS
  1
AEC_VARS_STRUCTUREBASE
  2
AecsDbVarsStructureBase
  3
AecStructureBase50|Product Desc: Autodesk Architectural Desktop 2007 |Company: Autodesk,Inc. |WEB Address: www.autodesk.com
 90
    32897
280
     0
281
     0
  0
CLASS
  1
DIMASSOC
  2
AcDbDimAssoc
  3
"AcDbDimAssoc|Product Desc:     AcDim ARX App For Dimension|Company:          Autodesk, Inc.|WEB Address:      www.autodesk.com"
 90
    32768
280
     0
281
     0
  0
CLASS
  1
TABLESTYLE
  2
AcDbTableStyle
  3
ObjectDBX Classes
 90
     4095
280
     0
281
     0
  0
CLASS
  1
MATERIAL
  2
AcDbMaterial
  3
ObjectDBX Classes
 90
     1153
280
     0
281
     0
  0
CLASS
  1
VISUALSTYLE
  2
AcDbVisualStyle
  3
ObjectDBX Classes
 90
     4095
280
     0
281
     0
  0
CLASS
  1
EXACXREFPANELOBJECT
  2
ExAcXREFPanelObject
  3
EXAC_ESW
 90
    33793
280
     0
281
     0
  0
CLASS
  1
NPOCOLLECTION
  2
AcDbImpNonPersistentObjectsCollection
  3
ObjectDBX Classes
 90
    33921
280
     0
281
     0
  0
CLASS
  1
SCALE
  2
AcDbScale
  3
ObjectDBX Classes
 90
     1153
280
     0
281
     0
  0
CLASS
  1
MLEADERSTYLE
  2
AcDbMLeaderStyle
  3
ACDB_MLEADERSTYLE_CLASS
 90
    36863
280
     0
281
     0
  0
CLASS
  1
AEC_REFEDIT_STATUS_TRACKER
  2
AecDbRefEditStatusTracker
  3
AecArchBase50|Product Desc: Autodesk Architectural Desktop 2007 |Company: Autodesk,Inc. |WEB Address: www.autodesk.com
 90
    32897
280
     0
281
     0
  0
CLASS
  1
CELLSTYLEMAP
  2
AcDbCellStyleMap
  3
ObjectDBX Classes
 90
     1152
280
     0
281
     0
  0
ENDSEC
  0
SECTION
  2
TABLES
  0
TABLE
  2
VPORT
  5
1B5
330
0
100
AcDbSymbolTable
 70
     1
  0
VPORT
  5
1B6
330
1B5
100
AcDbSymbolTableRecord
100
AcDbViewportTableRecord
  2
*Active
 70
     0
 10
0.0
 20
0.0
 11
1.0
 21
1.0
 12
220081.1115934305
 22
134368.8544465529
 13
0.0
 23
0.0
 14
10.0
 24
10.0
 15
10.0
 25
10.0
 16
0.0
 26
0.0
 36
1.0
 17
0.0
 27
0.0
 37
0.0
 40
25123.20349804713
 41
1.765927977839335
 42
50.0
 43
0.0
 44
0.0
 50
0.0
 51
0.0
 71
     0
 72
  1000
 73
     1
 74
     1
 75
     0
 76
     0
 77
     0
 78
     0
281
     0
 65
     1
110
0.0
120
0.0
130
0.0
111
1.0
121
0.0
131
0.0
112
0.0
122
1.0
132
0.0
 79
     0
146
0.0
  0
ENDTAB
  0
TABLE
  2
LTYPE
  5
1B0
330
0
100
AcDbSymbolTable
 70
     2
  0
LTYPE
  5
1B1
330
1B0
100
AcDbSymbolTableRecord
100
AcDbLinetypeTableRecord
  2
ByBlock
 70
     0
  3

 72
    65
 73
     0
 40
0.0
  0
LTYPE
  5
1B2
330
1B0
100
AcDbSymbolTableRecord
100
AcDbLinetypeTableRecord
  2
ByLayer
 70
     0
  3

 72
    65
 73
     0
 40
0.0
  0
LTYPE
  5
E
330
1B0
100
AcDbSymbolTableRecord
100
AcDbLinetypeTableRecord
  2
Continuous
 70
     0
  3
Solid line
 72
    65
 73
     0
 40
0.0
  0
LTYPE
  5
17
330
1B0
100
AcDbSymbolTableRecord
100
AcDbLinetypeTableRecord
  2
HIDDEN
 70
     0
  3
Hidden __ __ __ __ __ __ __ __ __ __ __ __ __ _
 72
    65
 73
     2
 40
0.375
 49
0.25
 74
     0
 49
-0.125
 74
     0
  0
ENDTAB
  0
TABLE
  2
LAYER
  5
1A9
102
{ACAD_XDICTIONARY
360
1AA
102
}
330
0
100
AcDbSymbolTable
 70
     9
  0
LAYER
  5
6
102
{ACAD_XDICTIONARY
360
7
102
}
330
1A9
100
AcDbSymbolTableRecord
100
AcDbLayerTableRecord
  2
0
 70
     0
 62
     7
  6
Continuous
370
    -3
390
9
1001
RAK
1000
{ACET-LAYISO
1070
     0
1070
     7
1000
Continuous
1071
       -3
1071
        1
1005
9
1000
ACET-LAYISO}
  0
LAYER
  5
23
102
{ACAD_XDICTIONARY
360
24
102
}
330
1A9
100
AcDbSymbolTableRecord
100
AcDbLayerTableRecord
  2
WIDOK
 70
     0
 62
   114
  6
Continuous
370
    -3
390
9
1001
RAK
1000
{ACET-LAYISO
1070
     0
1070
   114
1000
Continuous
1071
       -3
1071
        1
1005
9
1000
ACET-LAYISO}
  0
LAYER
  5
54
102
{ACAD_XDICTIONARY
360
55
102
}
330
1A9
100
AcDbSymbolTableRecord
100
AcDbLayerTableRecord
  2
SCIANY
 70
     0
 62
   140
  6
Continuous
370
    -3
390
9
1001
RAK
1000
{ACET-LAYISO
1070
     0
1070
   140
1000
Continuous
1071
       -3
1071
        1
1005
9
1000
ACET-LAYISO}
  0
LAYER
  5
9C
330
1A9
100
AcDbSymbolTableRecord
100
AcDbLayerTableRecord
  2
DEFPOINTS
 70
     0
 62
     7
  6
Continuous
290
     0
370
    -3
390
9
1001
RAK
1000
{ACET-LAYISO
1070
     0
1070
     7
1000
Continuous
1071
       -3
1071
        0
1005
9
1000
ACET-LAYISO}
  0
LAYER
  5
199
102
{ACAD_XDICTIONARY
360
19A
102
}
330
1A9
100
AcDbSymbolTableRecord
100
AcDbLayerTableRecord
  2
RAMKI-A4
 70
     0
 62
     2
  6
Continuous
290
     0
370
    -3
390
9
1001
RAK
1000
{ACET-LAYISO
1070
     0
1070
     2
1000
Continuous
1071
       -3
1071
        0
1005
9
1000
ACET-LAYISO}
  0
LAYER
  5
11
102
{ACAD_XDICTIONARY
360
12
102
}
330
1A9
100
AcDbSymbolTableRecord
100
AcDbLayerTableRecord
  2
NAPISY
 70
     0
 62
   140
  6
Continuous
370
    -3
390
9
1001
RAK
1000
{ACET-LAYISO
1070
     0
1070
   140
1000
Continuous
1071
       -3
1071
        1
1005
9
1000
ACET-LAYISO}
  0
LAYER
  5
1D
102
{ACAD_XDICTIONARY
360
1E
102
}
330
1A9
100
AcDbSymbolTableRecord
100
AcDbLayerTableRecord
  2
A-Wall-G
 70
     0
 62
     7
  6
Continuous
370
    13
390
9
1001
AcAecLayerStandard
1000
BS1192 - Descriptive
1001
RAK
1000
{DRUK
1070
     0
1070
    50
1000
Continuous
1071
       35
1071
        1
1005
9
1000
DRUK}
1000
{ACET-LAYISO
1070
     0
1070
     7
1000
Continuous
1070
     1
1071
       13
1071
        1
1005
9
1000
ACET-LAYISO}
  0
LAYER
  5
7F
102
{ACAD_XDICTIONARY
360
80
102
}
330
1A9
100
AcDbSymbolTableRecord
100
AcDbLayerTableRecord
  2
0Hatch
 70
     0
 62
   122
  6
Continuous
370
     5
390
9
  0
LAYER
  5
89
102
{ACAD_XDICTIONARY
360
8A
102
}
330
1A9
100
AcDbSymbolTableRecord
100
AcDbLayerTableRecord
  2
0Wymiary-PL
 70
     0
 62
     1
  6
Continuous
370
     5
390
9
  0
ENDTAB
  0
TABLE
  2
STYLE
  5
1AD
330
0
100
AcDbSymbolTable
 70
     3
  0
STYLE
  5
1AE
330
1AD
100
AcDbSymbolTableRecord
100
AcDbTextStyleTableRecord
  2
Standard
 70
     0
 40
0.0
 41
1.0
 50
0.0
 71
     0
 42
2.5
  3
txt
  4

  0
STYLE
  5
9A
330
1AD
100
AcDbSymbolTableRecord
100
AcDbTextStyleTableRecord
  2
ROMANS
 70
     0
 40
0.0
 41
0.9
 50
0.0
 71
     0
 42
20.0
  3
romans.shx
  4

  0
STYLE
  5
14
330
1AD
100
AcDbSymbolTableRecord
100
AcDbTextStyleTableRecord
  2
AVA
 70
     0
 40
0.0
 41
1.0
 50
0.0
 71
     0
 42
158.5644099714409
  3
ARIAL.TTF
  4

1001
ACAD
1000
Arial CE
1071
    60962
  0
ENDTAB
  0
TABLE
  2
VIEW
  5
1B3
330
0
100
AcDbSymbolTable
 70
     1
  0
VIEW
  5
1A1
330
1B3
100
AcDbSymbolTableRecord
100
AcDbViewTableRecord
  2
RODODENDRON 5
 70
     0
 40
14020.0
 10
220287.1664355166
 20
148687.514558954
 41
10200.00000000003
 11
0.0
 21
0.0
 31
1.0
 12
0.0
 22
0.0
 32
0.0
 42
50.0
 43
0.0
 44
0.0
 50
0.0
 71
     0
281
     0
 72
     1
110
0.0
120
0.0
130
0.0
111
1.0
121
0.0
131
0.0
112
0.0
122
1.0
132
0.0
 79
     0
146
0.0
  0
ENDTAB
  0
TABLE
  2
UCS
  5
1B4
330
0
100
AcDbSymbolTable
 70
     0
  0
ENDTAB
  0
TABLE
  2
APPID
  5
1B7
330
0
100
AcDbSymbolTable
 70
     5
  0
APPID
  5
15
330
1B7
100
AcDbSymbolTableRecord
100
AcDbRegAppTableRecord
  2
ACAD
 70
     0
  0
APPID
  5
F
330
1B7
100
AcDbSymbolTableRecord
100
AcDbRegAppTableRecord
  2
RAK
 70
     0
  0
APPID
  5
20
330
1B7
100
AcDbSymbolTableRecord
100
AcDbRegAppTableRecord
  2
AcAecLayerStandard
 70
     0
  0
APPID
  5
1A4
330
1B7
100
AcDbSymbolTableRecord
100
AcDbRegAppTableRecord
  2
ACAD_PSEXT
 70
     0
  0
APPID
  5
1AC
330
1B7
100
AcDbSymbolTableRecord
100
AcDbRegAppTableRecord
  2
AcLayerTools
 70
     0
  0
ENDTAB
  0
TABLE
  2
DIMSTYLE
  5
1B8
330
0
100
AcDbSymbolTable
 70
     2
100
AcDbDimStyleTable
 71
     2
340
A0
340
1B9
  0
DIMSTYLE
105
A0
102
{ACAD_REACTORS
330
88
330
A1
330
AE
330
B9
330
C4
330
CF
330
DC
330
145
330
150
330
15D
330
168
330
173
330
17E
330
18B
102
}
330
1B8
100
AcDbSymbolTableRecord
100
AcDbDimStyleTableRecord
  2
500
 70
     0
 41
30.0
 42
43.0
 43
0.0
 44
13.0
 45
0.5
 46
12.0
 73
     0
 74
     0
 75
     1
 76
     1
 78
    12
140
80.0
141
0.0
145
1.0
147
0.0
172
     1
174
     1
176
     1
177
     1
178
    10
271
     1
272
     1
279
     2
340
9A
341
90
342
90
  0
DIMSTYLE
105
1B9
330
1B8
100
AcDbSymbolTableRecord
100
AcDbDimStyleTableRecord
  2
Standard
 70
     0
340
1AE
  0
ENDTAB
  0
TABLE
  2
BLOCK_RECORD
  5
1
330
0
100
AcDbSymbolTable
 70
    15
  0
BLOCK_RECORD
  5
2
102
{ACAD_XDICTIONARY
360
3
102
}
330
1
100
AcDbSymbolTableRecord
100
AcDbBlockTableRecord
  2
*Model_Space
340
19F
  0
BLOCK_RECORD
  5
1A5
330
1
100
AcDbSymbolTableRecord
100
AcDbBlockTableRecord
  2
*Paper_Space
340
1A8
  0
BLOCK_RECORD
  5
90
102
{ACAD_XDICTIONARY
360
91
102
}
330
1
100
AcDbSymbolTableRecord
100
AcDbBlockTableRecord
  2
B-DIM
340
0
102
{BLKREFS
331
8F
331
98
331
A7
331
A8
331
B2
331
B3
331
BD
331
BE
331
C8
331
C9
331
D5
331
D6
331
E0
331
E1
331
161
331
162
331
16C
331
16D
331
177
331
178
331
149
331
14A
331
156
331
157
331
184
331
185
331
18F
331
190
102
}
  0
BLOCK_RECORD
  5
8C
330
1
100
AcDbSymbolTableRecord
100
AcDbBlockTableRecord
  2
*D1
340
0
  0
BLOCK_RECORD
  5
A2
330
1
100
AcDbSymbolTableRecord
100
AcDbBlockTableRecord
  2
*D2
340
0
  0
BLOCK_RECORD
  5
AF
330
1
100
AcDbSymbolTableRecord
100
AcDbBlockTableRecord
  2
*D3
340
0
  0
BLOCK_RECORD
  5
BA
330
1
100
AcDbSymbolTableRecord
100
AcDbBlockTableRecord
  2
*D4
340
0
  0
BLOCK_RECORD
  5
C5
330
1
100
AcDbSymbolTableRecord
100
AcDbBlockTableRecord
  2
*D5
340
0
  0
BLOCK_RECORD
  5
D0
330
1
100
AcDbSymbolTableRecord
100
AcDbBlockTableRecord
  2
*D6
340
0
  0
BLOCK_RECORD
  5
DD
330
1
100
AcDbSymbolTableRecord
100
AcDbBlockTableRecord
  2
*D7
340
0
  0
BLOCK_RECORD
  5
146
330
1
100
AcDbSymbolTableRecord
100
AcDbBlockTableRecord
  2
*D8
340
0
  0
BLOCK_RECORD
  5
151
330
1
100
AcDbSymbolTableRecord
100
AcDbBlockTableRecord
  2
*D9
340
0
  0
BLOCK_RECORD
  5
15E
330
1
100
AcDbSymbolTableRecord
100
AcDbBlockTableRecord
  2
*D10
340
0
  0
BLOCK_RECORD
  5
169
330
1
100
AcDbSymbolTableRecord
100
AcDbBlockTableRecord
  2
*D11
340
0
  0
BLOCK_RECORD
  5
174
330
1
100
AcDbSymbolTableRecord
100
AcDbBlockTableRecord
  2
*D12
340
0
  0
BLOCK_RECORD
  5
17F
330
1
100
AcDbSymbolTableRecord
100
AcDbBlockTableRecord
  2
*D13
340
0
  0
BLOCK_RECORD
  5
18C
330
1
100
AcDbSymbolTableRecord
100
AcDbBlockTableRecord
  2
*D14
340
0
  0
ENDTAB
  0
ENDSEC
  0
SECTION
  2
BLOCKS
  0
BLOCK
  5
5
330
2
100
AcDbEntity
  8
0
100
AcDbBlockBegin
  2
*Model_Space
 70
     0
 10
0.0
 20
0.0
 30
0.0
  3
*Model_Space
  1

  0
ENDBLK
  5
19E
330
2
100
AcDbEntity
  8
0
100
AcDbBlockEnd
  0
BLOCK
  5
1A6
330
1A5
100
AcDbEntity
 67
     1
  8
0
100
AcDbBlockBegin
  2
*Paper_Space
 70
     0
 10
0.0
 20
0.0
 30
0.0
  3
*Paper_Space
  1

  0
ENDBLK
  5
1A7
330
1A5
100
AcDbEntity
 67
     1
  8
0
100
AcDbBlockEnd
  0
BLOCK
  5
93
330
90
100
AcDbEntity
  8
0
100
AcDbBlockBegin
  2
B-DIM
 70
     0
 10
0.0
 20
0.0
 30
0.0
  3
B-DIM
  1

  0
LINE
  5
94
330
90
100
AcDbEntity
  8
0
 62
     1
100
AcDbLine
 10
0.000000000000091
 20
-1.1
 30
0.0
 11
0.000000000000091
 21
1.1
 31
0.0
  0
LWPOLYLINE
  5
95
330
90
100
AcDbEntity
  8
0
 62
     1
100
AcDbPolyline
 90
        2
 70
     0
 43
0.3
 10
-0.7071067811864851
 20
-0.7071067811864851
 10
0.707106781186576
 20
0.707106781186576
  0
LINE
  5
96
330
90
100
AcDbEntity
  8
0
 62
     1
100
AcDbLine
 10
1.20000000000009
 20
0.0
 30
0.0
 11
-1.199999999999909
 21
0.0
 31
0.0
  0
ENDBLK
  5
97
330
90
100
AcDbEntity
  8
0
100
AcDbBlockEnd
  0
BLOCK
  5
8D
330
8C
100
AcDbEntity
  8
0
100
AcDbBlockBegin
  2
*D1
 70
     1
 10
0.0
 20
0.0
 30
0.0
  3
*D1
  1

  0
LINE
  5
8E
330
8C
100
AcDbEntity
  8
0Wymiary-PL
 62
     1
370
    -2
100
AcDbLine
 10
217252.9430581822
 20
136217.4816872323
 30
0.0
 11
217252.9430581822
 21
136937.4816872323
 31
0.0
  0
INSERT
  5
8F
330
8C
100
AcDbEntity
  8
0Wymiary-PL
 62
     1
370
    -2
100
AcDbBlockReference
  2
B-DIM
 10
217252.9430581822
 20
136187.4816872323
 30
0.0
 41
30.0
 42
30.0
 43
30.0
 50
270.0
  0
INSERT
  5
98
330
8C
100
AcDbEntity
  8
0Wymiary-PL
 62
     1
370
    -2
100
AcDbBlockReference
  2
B-DIM
 10
217252.9430581822
 20
136967.4816872323
 30
0.0
 41
30.0
 42
30.0
 43
30.0
 50
90.0
  0
MTEXT
  5
99
330
8C
100
AcDbEntity
  8
0Wymiary-PL
 62
    10
100
AcDbMText
 10
217172.9430581822
 20
136577.4816872323
 30
0.0
 40
80.0
 41
0.0
 71
     5
 72
     1
  1
\A1;780
  7
ROMANS
 11
0.0000000000000001
 21
1.0
 31
0.0
 73
     1
 44
1.0
1001
ACAD
1000
MTEXTBEGIN
1070
    73
1070
     1
1070
    44
1040
1.0
1070
    74
1070
     0
1000
MTEXTEND
  0
POINT
  5
9B
330
8C
100
AcDbEntity
  8
DEFPOINTS
 62
     0
100
AcDbPoint
 10
217699.8186354155
 20
136187.4816872323
 30
0.0
  0
POINT
  5
9D
330
8C
100
AcDbEntity
  8
DEFPOINTS
 62
     0
100
AcDbPoint
 10
217699.8186354155
 20
136967.4816872323
 30
0.0
  0
POINT
  5
9E
330
8C
100
AcDbEntity
  8
DEFPOINTS
 62
     0
100
AcDbPoint
 10
217252.9430581822
 20
136967.4816872323
 30
0.0
  0
ENDBLK
  5
9F
330
8C
100
AcDbEntity
  8
0
100
AcDbBlockEnd
  0
BLOCK
  5
A3
330
A2
100
AcDbEntity
  8
0
100
AcDbBlockBegin
  2
*D2
 70
     1
 10
0.0
 20
0.0
 30
0.0
  3
*D2
  1

  0
LINE
  5
A4
330
A2
100
AcDbEntity
  8
0Wymiary-PL
 62
     1
370
    -2
100
AcDbLine
 10
217252.9430581822
 20
136937.4816872323
 30
0.0
 11
217252.9430581822
 21
136907.4816872323
 31
0.0
  0
LINE
  5
A5
330
A2
100
AcDbEntity
  8
0Wymiary-PL
 62
     1
370
    -2
100
AcDbLine
 10
217252.9430581822
 20
137127.4816872323
 30
0.0
 11
217252.9430581822
 21
137157.4816872323
 31
0.0
  0
LINE
  5
A6
330
A2
100
AcDbEntity
  8
0Wymiary-PL
 62
     1
370
    -2
100
AcDbLine
 10
217252.9430581822
 20
136967.4816872323
 30
0.0
 11
217252.9430581822
 21
137097.4816872323
 31
0.0
  0
INSERT
  5
A7
330
A2
100
AcDbEntity
  8
0Wymiary-PL
 62
     1
370
    -2
100
AcDbBlockReference
  2
B-DIM
 10
217252.9430581822
 20
136967.4816872323
 30
0.0
 41
30.0
 42
30.0
 43
30.0
 50
90.0
  0
INSERT
  5
A8
330
A2
100
AcDbEntity
  8
0Wymiary-PL
 62
     1
370
    -2
100
AcDbBlockReference
  2
B-DIM
 10
217252.9430581822
 20
137097.4816872323
 30
0.0
 41
30.0
 42
30.0
 43
30.0
 50
270.0
  0
MTEXT
  5
A9
330
A2
100
AcDbEntity
  8
0Wymiary-PL
 62
    10
100
AcDbMText
 10
217172.9430581822
 20
137032.4816872323
 30
0.0
 40
80.0
 41
0.0
 71
     5
 72
     1
  1
\A1;130
  7
ROMANS
 11
0.0000000000000001
 21
1.0
 31
0.0
 73
     1
 44
1.0
1001
ACAD
1000
MTEXTBEGIN
1070
    73
1070
     1
1070
    44
1040
1.0
1070
    74
1070
     0
1000
MTEXTEND
  0
POINT
  5
AA
330
A2
100
AcDbEntity
  8
DEFPOINTS
 62
     0
100
AcDbPoint
 10
218010.8186354155
 20
136967.4816872323
 30
0.0
  0
POINT
  5
AB
330
A2
100
AcDbEntity
  8
DEFPOINTS
 62
     0
100
AcDbPoint
 10
218103.7475676037
 20
137097.4816872323
 30
0.0
  0
POINT
  5
AC
330
A2
100
AcDbEntity
  8
DEFPOINTS
 62
     0
100
AcDbPoint
 10
217252.9430581822
 20
137097.4816872323
 30
0.0
  0
ENDBLK
  5
AD
330
A2
100
AcDbEntity
  8
0
100
AcDbBlockEnd
  0
BLOCK
  5
B0
330
AF
100
AcDbEntity
  8
0
100
AcDbBlockBegin
  2
*D3
 70
     1
 10
0.0
 20
0.0
 30
0.0
  3
*D3
  1

  0
LINE
  5
B1
330
AF
100
AcDbEntity
  8
0Wymiary-PL
 62
     1
370
    -2
100
AcDbLine
 10
217729.8186354155
 20
137660.0720872069
 30
0.0
 11
218679.8186354155
 21
137660.0720872069
 31
0.0
  0
INSERT
  5
B2
330
AF
100
AcDbEntity
  8
0Wymiary-PL
 62
     1
370
    -2
100
AcDbBlockReference
  2
B-DIM
 10
217699.8186354155
 20
137660.0720872069
 30
0.0
 41
30.0
 42
30.0
 43
30.0
 50
180.0
  0
INSERT
  5
B3
330
AF
100
AcDbEntity
  8
0Wymiary-PL
 62
     1
370
    -2
100
AcDbBlockReference
  2
B-DIM
 10
218709.8186354155
 20
137660.0720872069
 30
0.0
 41
30.0
 42
30.0
 43
30.0
  0
MTEXT
  5
B4
330
AF
100
AcDbEntity
  8
0Wymiary-PL
 62
    10
100
AcDbMText
 10
218204.8186354155
 20
137740.0720872069
 30
0.0
 40
80.0
 41
0.0
 71
     5
 72
     1
  1
\A1;1010
  7
ROMANS
 73
     1
 44
1.0
1001
ACAD
1000
MTEXTBEGIN
1070
    73
1070
     1
1070
    44
1040
1.0
1070
    74
1070
     0
1000
MTEXTEND
  0
POINT
  5
B5
330
AF
100
AcDbEntity
  8
DEFPOINTS
 62
     0
100
AcDbPoint
 10
217699.8186354155
 20
136674.562921178
 30
0.0
  0
POINT
  5
B6
330
AF
100
AcDbEntity
  8
DEFPOINTS
 62
     0
100
AcDbPoint
 10
218709.8186354155
 20
136967.4816872323
 30
0.0
  0
POINT
  5
B7
330
AF
100
AcDbEntity
  8
DEFPOINTS
 62
     0
100
AcDbPoint
 10
218709.8186354155
 20
137660.0720872069
 30
0.0
  0
ENDBLK
  5
B8
330
AF
100
AcDbEntity
  8
0
100
AcDbBlockEnd
  0
BLOCK
  5
BB
330
BA
100
AcDbEntity
  8
0
100
AcDbBlockBegin
  2
*D4
 70
     1
 10
0.0
 20
0.0
 30
0.0
  3
*D4
  1

  0
LINE
  5
BC
330
BA
100
AcDbEntity
  8
0Wymiary-PL
 62
     1
370
    -2
100
AcDbLine
 10
218739.8186354155
 20
137660.0720872069
 30
0.0
 11
219059.8186354157
 21
137660.0720872069
 31
0.0
  0
INSERT
  5
BD
330
BA
100
AcDbEntity
  8
0Wymiary-PL
 62
     1
370
    -2
100
AcDbBlockReference
  2
B-DIM
 10
218709.8186354155
 20
137660.0720872069
 30
0.0
 41
30.0
 42
30.0
 43
30.0
 50
180.0
  0
INSERT
  5
BE
330
BA
100
AcDbEntity
  8
0Wymiary-PL
 62
     1
370
    -2
100
AcDbBlockReference
  2
B-DIM
 10
219089.8186354157
 20
137660.0720872069
 30
0.0
 41
30.0
 42
30.0
 43
30.0
  0
MTEXT
  5
BF
330
BA
100
AcDbEntity
  8
0Wymiary-PL
 62
    10
100
AcDbMText
 10
218899.8186354156
 20
137740.0720872069
 30
0.0
 40
80.0
 41
0.0
 71
     5
 72
     1
  1
\A1;380
  7
ROMANS
 73
     1
 44
1.0
1001
ACAD
1000
MTEXTBEGIN
1070
    73
1070
     1
1070
    44
1040
1.0
1070
    74
1070
     0
1000
MTEXTEND
  0
POINT
  5
C0
330
BA
100
AcDbEntity
  8
DEFPOINTS
 62
     0
100
AcDbPoint
 10
218709.8186354155
 20
136939.4816872323
 30
0.0
  0
POINT
  5
C1
330
BA
100
AcDbEntity
  8
DEFPOINTS
 62
     0
100
AcDbPoint
 10
219089.8186354157
 20
136836.7423505471
 30
0.0
  0
POINT
  5
C2
330
BA
100
AcDbEntity
  8
DEFPOINTS
 62
     0
100
AcDbPoint
 10
219089.8186354157
 20
137660.0720872069
 30
0.0
  0
ENDBLK
  5
C3
330
BA
100
AcDbEntity
  8
0
100
AcDbBlockEnd
  0
BLOCK
  5
C6
330
C5
100
AcDbEntity
  8
0
100
AcDbBlockBegin
  2
*D5
 70
     1
 10
0.0
 20
0.0
 30
0.0
  3
*D5
  1

  0
LINE
  5
C7
330
C5
100
AcDbEntity
  8
0Wymiary-PL
 62
     1
370
    -2
100
AcDbLine
 10
217729.8186354155
 20
135578.7080376363
 30
0.0
 11
219059.8186354157
 21
135578.7080376363
 31
0.0
  0
INSERT
  5
C8
330
C5
100
AcDbEntity
  8
0Wymiary-PL
 62
     1
370
    -2
100
AcDbBlockReference
  2
B-DIM
 10
217699.8186354155
 20
135578.7080376363
 30
0.0
 41
30.0
 42
30.0
 43
30.0
 50
180.0
  0
INSERT
  5
C9
330
C5
100
AcDbEntity
  8
0Wymiary-PL
 62
     1
370
    -2
100
AcDbBlockReference
  2
B-DIM
 10
219089.8186354157
 20
135578.7080376363
 30
0.0
 41
30.0
 42
30.0
 43
30.0
  0
MTEXT
  5
CA
330
C5
100
AcDbEntity
  8
0Wymiary-PL
 62
    10
100
AcDbMText
 10
218394.8186354156
 20
135658.7080376363
 30
0.0
 40
80.0
 41
0.0
 71
     5
 72
     1
  1
\A1;1390
  7
ROMANS
 73
     1
 44
1.0
1001
ACAD
1000
MTEXTBEGIN
1070
    73
1070
     1
1070
    44
1040
1.0
1070
    74
1070
     0
1000
MTEXTEND
  0
POINT
  5
CB
330
C5
100
AcDbEntity
  8
DEFPOINTS
 62
     0
100
AcDbPoint
 10
217699.8186354155
 20
136370.9110248432
 30
0.0
  0
POINT
  5
CC
330
C5
100
AcDbEntity
  8
DEFPOINTS
 62
     0
100
AcDbPoint
 10
219089.8186354157
 20
136437.3802514782
 30
0.0
  0
POINT
  5
CD
330
C5
100
AcDbEntity
  8
DEFPOINTS
 62
     0
100
AcDbPoint
 10
219089.8186354157
 20
135578.7080376363
 30
0.0
  0
ENDBLK
  5
CE
330
C5
100
AcDbEntity
  8
0
100
AcDbBlockEnd
  0
BLOCK
  5
D1
330
D0
100
AcDbEntity
  8
0
100
AcDbBlockBegin
  2
*D6
 70
     1
 10
0.0
 20
0.0
 30
0.0
  3
*D6
  1

  0
LINE
  5
D2
330
D0
100
AcDbEntity
  8
0Wymiary-PL
 62
     1
370
    -2
100
AcDbLine
 10
217252.9430581822
 20
136217.4816872323
 30
0.0
 11
217252.9430581822
 21
136247.4816872323
 31
0.0
  0
LINE
  5
D3
330
D0
100
AcDbEntity
  8
0Wymiary-PL
 62
     1
370
    -2
100
AcDbLine
 10
217252.9430581822
 20
136041.34835758
 30
0.0
 11
217252.9430581822
 21
136011.34835758
 31
0.0
  0
LINE
  5
D4
330
D0
100
AcDbEntity
  8
0Wymiary-PL
 62
     1
370
    -2
100
AcDbLine
 10
217252.9430581822
 20
136187.4816872323
 30
0.0
 11
217252.9430581822
 21
136071.34835758
 31
0.0
  0
INSERT
  5
D5
330
D0
100
AcDbEntity
  8
0Wymiary-PL
 62
     1
370
    -2
100
AcDbBlockReference
  2
B-DIM
 10
217252.9430581822
 20
136187.4816872323
 30
0.0
 41
30.0
 42
30.0
 43
30.0
 50
270.0
  0
INSERT
  5
D6
330
D0
100
AcDbEntity
  8
0Wymiary-PL
 62
     1
370
    -2
100
AcDbBlockReference
  2
B-DIM
 10
217252.9430581822
 20
136071.34835758
 30
0.0
 41
30.0
 42
30.0
 43
30.0
 50
90.0
  0
MTEXT
  5
D7
330
D0
100
AcDbEntity
  8
0Wymiary-PL
 62
    10
100
AcDbMText
 10
217172.9430581822
 20
136129.4150224062
 30
0.0
 40
80.0
 41
0.0
 71
     5
 72
     1
  1
\A1;116
  7
ROMANS
 11
0.0000000000000001
 21
1.0
 31
0.0
 73
     1
 44
1.0
1001
ACAD
1000
MTEXTBEGIN
1070
    73
1070
     1
1070
    44
1040
1.0
1070
    74
1070
     0
1000
MTEXTEND
  0
POINT
  5
D8
330
D0
100
AcDbEntity
  8
DEFPOINTS
 62
     0
100
AcDbPoint
 10
217699.8186354155
 20
136187.4816872323
 30
0.0
  0
POINT
  5
D9
330
D0
100
AcDbEntity
  8
DEFPOINTS
 62
     0
100
AcDbPoint
 10
218019.8186354155
 20
136071.34835758
 30
0.0
  0
POINT
  5
DA
330
D0
100
AcDbEntity
  8
DEFPOINTS
 62
     0
100
AcDbPoint
 10
217252.9430581822
 20
136071.34835758
 30
0.0
  0
ENDBLK
  5
DB
330
D0
100
AcDbEntity
  8
0
100
AcDbBlockEnd
  0
BLOCK
  5
DE
330
DD
100
AcDbEntity
  8
0
100
AcDbBlockBegin
  2
*D7
 70
     1
 10
0.0
 20
0.0
 30
0.0
  3
*D7
  1

  0
LINE
  5
DF
330
DD
100
AcDbEntity
  8
0Wymiary-PL
 62
     1
370
    -2
100
AcDbLine
 10
219565.0543729141
 20
136101.34835758
 30
0.0
 11
219565.0543729141
 21
137067.4816872323
 31
0.0
  0
INSERT
  5
E0
330
DD
100
AcDbEntity
  8
0Wymiary-PL
 62
     1
370
    -2
100
AcDbBlockReference
  2
B-DIM
 10
219565.0543729141
 20
136071.34835758
 30
0.0
 41
30.0
 42
30.0
 43
30.0
 50
270.0
  0
INSERT
  5
E1
330
DD
100
AcDbEntity
  8
0Wymiary-PL
 62
     1
370
    -2
100
AcDbBlockReference
  2
B-DIM
 10
219565.0543729141
 20
137097.4816872323
 30
0.0
 41
30.0
 42
30.0
 43
30.0
 50
90.0
  0
MTEXT
  5
E2
330
DD
100
AcDbEntity
  8
0Wymiary-PL
 62
    10
100
AcDbMText
 10
219485.0543729141
 20
136584.4150224062
 30
0.0
 40
80.0
 41
0.0
 71
     5
 72
     1
  1
\A1;1026
  7
ROMANS
 11
0.0000000000000001
 21
1.0
 31
0.0
 73
     1
 44
1.0
1001
ACAD
1000
MTEXTBEGIN
1070
    73
1070
     1
1070
    44
1040
1.0
1070
    74
1070
     0
1000
MTEXTEND
  0
POINT
  5
E3
330
DD
100
AcDbEntity
  8
DEFPOINTS
 62
     0
100
AcDbPoint
 10
218019.8186354155
 20
136071.34835758
 30
0.0
  0
POINT
  5
E4
330
DD
100
AcDbEntity
  8
DEFPOINTS
 62
     0
100
AcDbPoint
 10
218204.8186354155
 20
137097.4816872323
 30
0.0
  0
POINT
  5
E5
330
DD
100
AcDbEntity
  8
DEFPOINTS
 62
     0
100
AcDbPoint
 10
219565.0543729141
 20
137097.4816872323
 30
0.0
  0
ENDBLK
  5
E6
330
DD
100
AcDbEntity
  8
0
100
AcDbBlockEnd
  0
BLOCK
  5
147
330
146
100
AcDbEntity
  8
0
100
AcDbBlockBegin
  2
*D8
 70
     1
 10
0.0
 20
0.0
 30
0.0
  3
*D8
  1

  0
LINE
  5
148
330
146
100
AcDbEntity
  8
0Wymiary-PL
 62
     1
370
    -2
100
AcDbLine
 10
223629.4844737537
 20
136217.4816872323
 30
0.0
 11
223629.4844737537
 21
136937.4816872323
 31
0.0
  0
INSERT
  5
149
330
146
100
AcDbEntity
  8
0Wymiary-PL
 62
     1
370
    -2
100
AcDbBlockReference
  2
B-DIM
 10
223629.4844737537
 20
136187.4816872323
 30
0.0
 41
30.0
 42
30.0
 43
30.0
 50
270.0
  0
INSERT
  5
14A
330
146
100
AcDbEntity
  8
0Wymiary-PL
 62
     1
370
    -2
100
AcDbBlockReference
  2
B-DIM
 10
223629.4844737537
 20
136967.4816872323
 30
0.0
 41
30.0
 42
30.0
 43
30.0
 50
90.0
  0
MTEXT
  5
14B
330
146
100
AcDbEntity
  8
0Wymiary-PL
 62
    10
100
AcDbMText
 10
223549.4844737536
 20
136577.4816872323
 30
0.0
 40
80.0
 41
0.0
 71
     5
 72
     1
  1
\A1;780
  7
ROMANS
 11
0.0000000000000001
 21
1.0
 31
0.0
 73
     1
 44
1.0
1001
ACAD
1000
MTEXTBEGIN
1070
    73
1070
     1
1070
    44
1040
1.0
1070
    74
1070
     0
1000
MTEXTEND
  0
POINT
  5
14C
330
146
100
AcDbEntity
  8
DEFPOINTS
 62
     0
100
AcDbPoint
 10
223182.6088965203
 20
136187.4816872323
 30
0.0
  0
POINT
  5
14D
330
146
100
AcDbEntity
  8
DEFPOINTS
 62
     0
100
AcDbPoint
 10
223182.6088965204
 20
136967.4816872323
 30
0.0
  0
POINT
  5
14E
330
146
100
AcDbEntity
  8
DEFPOINTS
 62
     0
100
AcDbPoint
 10
223629.4844737537
 20
136967.4816872323
 30
0.0
  0
ENDBLK
  5
14F
330
146
100
AcDbEntity
  8
0
100
AcDbBlockEnd
  0
BLOCK
  5
152
330
151
100
AcDbEntity
  8
0
100
AcDbBlockBegin
  2
*D9
 70
     1
 10
0.0
 20
0.0
 30
0.0
  3
*D9
  1

  0
LINE
  5
153
330
151
100
AcDbEntity
  8
0Wymiary-PL
 62
     1
370
    -2
100
AcDbLine
 10
223629.4844737537
 20
136937.4816872323
 30
0.0
 11
223629.4844737537
 21
136907.4816872323
 31
0.0
  0
LINE
  5
154
330
151
100
AcDbEntity
  8
0Wymiary-PL
 62
     1
370
    -2
100
AcDbLine
 10
223629.4844737537
 20
137127.4816872323
 30
0.0
 11
223629.4844737537
 21
137157.4816872323
 31
0.0
  0
LINE
  5
155
330
151
100
AcDbEntity
  8
0Wymiary-PL
 62
     1
370
    -2
100
AcDbLine
 10
223629.4844737537
 20
136967.4816872323
 30
0.0
 11
223629.4844737537
 21
137097.4816872323
 31
0.0
  0
INSERT
  5
156
330
151
100
AcDbEntity
  8
0Wymiary-PL
 62
     1
370
    -2
100
AcDbBlockReference
  2
B-DIM
 10
223629.4844737537
 20
136967.4816872323
 30
0.0
 41
30.0
 42
30.0
 43
30.0
 50
90.0
  0
INSERT
  5
157
330
151
100
AcDbEntity
  8
0Wymiary-PL
 62
     1
370
    -2
100
AcDbBlockReference
  2
B-DIM
 10
223629.4844737537
 20
137097.4816872323
 30
0.0
 41
30.0
 42
30.0
 43
30.0
 50
270.0
  0
MTEXT
  5
158
330
151
100
AcDbEntity
  8
0Wymiary-PL
 62
    10
100
AcDbMText
 10
223549.4844737536
 20
137032.4816872323
 30
0.0
 40
80.0
 41
0.0
 71
     5
 72
     1
  1
\A1;130
  7
ROMANS
 11
0.0000000000000001
 21
1.0
 31
0.0
 73
     1
 44
1.0
1001
ACAD
1000
MTEXTBEGIN
1070
    73
1070
     1
1070
    44
1040
1.0
1070
    74
1070
     0
1000
MTEXTEND
  0
POINT
  5
159
330
151
100
AcDbEntity
  8
DEFPOINTS
 62
     0
100
AcDbPoint
 10
222871.6088965204
 20
136967.4816872323
 30
0.0
  0
POINT
  5
15A
330
151
100
AcDbEntity
  8
DEFPOINTS
 62
     0
100
AcDbPoint
 10
222778.6799643322
 20
137097.4816872323
 30
0.0
  0
POINT
  5
15B
330
151
100
AcDbEntity
  8
DEFPOINTS
 62
     0
100
AcDbPoint
 10
223629.4844737537
 20
137097.4816872323
 30
0.0
  0
ENDBLK
  5
15C
330
151
100
AcDbEntity
  8
0
100
AcDbBlockEnd
  0
BLOCK
  5
15F
330
15E
100
AcDbEntity
  8
0
100
AcDbBlockBegin
  2
*D10
 70
     1
 10
0.0
 20
0.0
 30
0.0
  3
*D10
  1

  0
LINE
  5
160
330
15E
100
AcDbEntity
  8
0Wymiary-PL
 62
     1
370
    -2
100
AcDbLine
 10
223069.9598543296
 20
137660.0720872069
 30
0.0
 11
222119.9598543296
 21
137660.0720872069
 31
0.0
  0
INSERT
  5
161
330
15E
100
AcDbEntity
  8
0Wymiary-PL
 62
     1
370
    -2
100
AcDbBlockReference
  2
B-DIM
 10
223099.9598543295
 20
137660.0720872069
 30
0.0
 41
30.0
 42
30.0
 43
30.0
  0
INSERT
  5
162
330
15E
100
AcDbEntity
  8
0Wymiary-PL
 62
     1
370
    -2
100
AcDbBlockReference
  2
B-DIM
 10
222089.9598543296
 20
137660.0720872069
 30
0.0
 41
30.0
 42
30.0
 43
30.0
 50
180.0
  0
MTEXT
  5
163
330
15E
100
AcDbEntity
  8
0Wymiary-PL
 62
    10
100
AcDbMText
 10
222594.9598543296
 20
137740.0720872069
 30
0.0
 40
80.0
 41
0.0
 71
     5
 72
     1
  1
\A1;1010
  7
ROMANS
 73
     1
 44
1.0
1001
ACAD
1000
MTEXTBEGIN
1070
    73
1070
     1
1070
    44
1040
1.0
1070
    74
1070
     0
1000
MTEXTEND
  0
POINT
  5
164
330
15E
100
AcDbEntity
  8
DEFPOINTS
 62
     0
100
AcDbPoint
 10
223099.9598543295
 20
136674.562921178
 30
0.0
  0
POINT
  5
165
330
15E
100
AcDbEntity
  8
DEFPOINTS
 62
     0
100
AcDbPoint
 10
222089.9598543296
 20
136967.4816872323
 30
0.0
  0
POINT
  5
166
330
15E
100
AcDbEntity
  8
DEFPOINTS
 62
     0
100
AcDbPoint
 10
222089.9598543296
 20
137660.0720872069
 30
0.0
  0
ENDBLK
  5
167
330
15E
100
AcDbEntity
  8
0
100
AcDbBlockEnd
  0
BLOCK
  5
16A
330
169
100
AcDbEntity
  8
0
100
AcDbBlockBegin
  2
*D11
 70
     1
 10
0.0
 20
0.0
 30
0.0
  3
*D11
  1

  0
LINE
  5
16B
330
169
100
AcDbEntity
  8
0Wymiary-PL
 62
     1
370
    -2
100
AcDbLine
 10
222059.9598543296
 20
137660.0720872069
 30
0.0
 11
221739.9598543293
 21
137660.0720872069
 31
0.0
  0
INSERT
  5
16C
330
169
100
AcDbEntity
  8
0Wymiary-PL
 62
     1
370
    -2
100
AcDbBlockReference
  2
B-DIM
 10
222089.9598543296
 20
137660.0720872069
 30
0.0
 41
30.0
 42
30.0
 43
30.0
  0
INSERT
  5
16D
330
169
100
AcDbEntity
  8
0Wymiary-PL
 62
     1
370
    -2
100
AcDbBlockReference
  2
B-DIM
 10
221709.9598543294
 20
137660.0720872069
 30
0.0
 41
30.0
 42
30.0
 43
30.0
 50
180.0
  0
MTEXT
  5
16E
330
169
100
AcDbEntity
  8
0Wymiary-PL
 62
    10
100
AcDbMText
 10
221899.9598543295
 20
137740.0720872069
 30
0.0
 40
80.0
 41
0.0
 71
     5
 72
     1
  1
\A1;380
  7
ROMANS
 73
     1
 44
1.0
1001
ACAD
1000
MTEXTBEGIN
1070
    73
1070
     1
1070
    44
1040
1.0
1070
    74
1070
     0
1000
MTEXTEND
  0
POINT
  5
16F
330
169
100
AcDbEntity
  8
DEFPOINTS
 62
     0
100
AcDbPoint
 10
222089.9598543296
 20
136939.4816872323
 30
0.0
  0
POINT
  5
170
330
169
100
AcDbEntity
  8
DEFPOINTS
 62
     0
100
AcDbPoint
 10
221709.9598543294
 20
136836.7423505471
 30
0.0
  0
POINT
  5
171
330
169
100
AcDbEntity
  8
DEFPOINTS
 62
     0
100
AcDbPoint
 10
221709.9598543294
 20
137660.0720872069
 30
0.0
  0
ENDBLK
  5
172
330
169
100
AcDbEntity
  8
0
100
AcDbBlockEnd
  0
BLOCK
  5
175
330
174
100
AcDbEntity
  8
0
100
AcDbBlockBegin
  2
*D12
 70
     1
 10
0.0
 20
0.0
 30
0.0
  3
*D12
  1

  0
LINE
  5
176
330
174
100
AcDbEntity
  8
0Wymiary-PL
 62
     1
370
    -2
100
AcDbLine
 10
223069.9598543296
 20
135578.7080376363
 30
0.0
 11
221739.9598543293
 21
135578.7080376363
 31
0.0
  0
INSERT
  5
177
330
174
100
AcDbEntity
  8
0Wymiary-PL
 62
     1
370
    -2
100
AcDbBlockReference
  2
B-DIM
 10
223099.9598543295
 20
135578.7080376363
 30
0.0
 41
30.0
 42
30.0
 43
30.0
  0
INSERT
  5
178
330
174
100
AcDbEntity
  8
0Wymiary-PL
 62
     1
370
    -2
100
AcDbBlockReference
  2
B-DIM
 10
221709.9598543294
 20
135578.7080376363
 30
0.0
 41
30.0
 42
30.0
 43
30.0
 50
180.0
  0
MTEXT
  5
179
330
174
100
AcDbEntity
  8
0Wymiary-PL
 62
    10
100
AcDbMText
 10
222404.9598543295
 20
135658.7080376363
 30
0.0
 40
80.0
 41
0.0
 71
     5
 72
     1
  1
\A1;1390
  7
ROMANS
 73
     1
 44
1.0
1001
ACAD
1000
MTEXTBEGIN
1070
    73
1070
     1
1070
    44
1040
1.0
1070
    74
1070
     0
1000
MTEXTEND
  0
POINT
  5
17A
330
174
100
AcDbEntity
  8
DEFPOINTS
 62
     0
100
AcDbPoint
 10
223099.9598543295
 20
136370.9110248432
 30
0.0
  0
POINT
  5
17B
330
174
100
AcDbEntity
  8
DEFPOINTS
 62
     0
100
AcDbPoint
 10
221709.9598543294
 20
136437.3802514782
 30
0.0
  0
POINT
  5
17C
330
174
100
AcDbEntity
  8
DEFPOINTS
 62
     0
100
AcDbPoint
 10
221709.9598543294
 20
135578.7080376363
 30
0.0
  0
ENDBLK
  5
17D
330
174
100
AcDbEntity
  8
0
100
AcDbBlockEnd
  0
BLOCK
  5
180
330
17F
100
AcDbEntity
  8
0
100
AcDbBlockBegin
  2
*D13
 70
     1
 10
0.0
 20
0.0
 30
0.0
  3
*D13
  1

  0
LINE
  5
181
330
17F
100
AcDbEntity
  8
0Wymiary-PL
 62
     1
370
    -2
100
AcDbLine
 10
223629.4844737537
 20
136217.4816872323
 30
0.0
 11
223629.4844737537
 21
136247.4816872323
 31
0.0
  0
LINE
  5
182
330
17F
100
AcDbEntity
  8
0Wymiary-PL
 62
     1
370
    -2
100
AcDbLine
 10
223629.4844737537
 20
136041.34835758
 30
0.0
 11
223629.4844737537
 21
136011.34835758
 31
0.0
  0
LINE
  5
183
330
17F
100
AcDbEntity
  8
0Wymiary-PL
 62
     1
370
    -2
100
AcDbLine
 10
223629.4844737537
 20
136187.4816872323
 30
0.0
 11
223629.4844737537
 21
136071.34835758
 31
0.0
  0
INSERT
  5
184
330
17F
100
AcDbEntity
  8
0Wymiary-PL
 62
     1
370
    -2
100
AcDbBlockReference
  2
B-DIM
 10
223629.4844737537
 20
136187.4816872323
 30
0.0
 41
30.0
 42
30.0
 43
30.0
 50
270.0
  0
INSERT
  5
185
330
17F
100
AcDbEntity
  8
0Wymiary-PL
 62
     1
370
    -2
100
AcDbBlockReference
  2
B-DIM
 10
223629.4844737537
 20
136071.34835758
 30
0.0
 41
30.0
 42
30.0
 43
30.0
 50
90.0
  0
MTEXT
  5
186
330
17F
100
AcDbEntity
  8
0Wymiary-PL
 62
    10
100
AcDbMText
 10
223549.4844737536
 20
136129.4150224062
 30
0.0
 40
80.0
 41
0.0
 71
     5
 72
     1
  1
\A1;116
  7
ROMANS
 11
0.0000000000000001
 21
1.0
 31
0.0
 73
     1
 44
1.0
1001
ACAD
1000
MTEXTBEGIN
1070
    73
1070
     1
1070
    44
1040
1.0
1070
    74
1070
     0
1000
MTEXTEND
  0
POINT
  5
187
330
17F
100
AcDbEntity
  8
DEFPOINTS
 62
     0
100
AcDbPoint
 10
223182.6088965203
 20
136187.4816872323
 30
0.0
  0
POINT
  5
188
330
17F
100
AcDbEntity
  8
DEFPOINTS
 62
     0
100
AcDbPoint
 10
222862.6088965204
 20
136071.34835758
 30
0.0
  0
POINT
  5
189
330
17F
100
AcDbEntity
  8
DEFPOINTS
 62
     0
100
AcDbPoint
 10
223629.4844737537
 20
136071.34835758
 30
0.0
  0
ENDBLK
  5
18A
330
17F
100
AcDbEntity
  8
0
100
AcDbBlockEnd
  0
BLOCK
  5
18D
330
18C
100
AcDbEntity
  8
0
100
AcDbBlockBegin
  2
*D14
 70
     1
 10
0.0
 20
0.0
 30
0.0
  3
*D14
  1

  0
LINE
  5
18E
330
18C
100
AcDbEntity
  8
0Wymiary-PL
 62
     1
370
    -2
100
AcDbLine
 10
221317.3731590218
 20
136101.34835758
 30
0.0
 11
221317.3731590218
 21
137067.4816872323
 31
0.0
  0
INSERT
  5
18F
330
18C
100
AcDbEntity
  8
0Wymiary-PL
 62
     1
370
    -2
100
AcDbBlockReference
  2
B-DIM
 10
221317.3731590218
 20
136071.34835758
 30
0.0
 41
30.0
 42
30.0
 43
30.0
 50
270.0
  0
INSERT
  5
190
330
18C
100
AcDbEntity
  8
0Wymiary-PL
 62
     1
370
    -2
100
AcDbBlockReference
  2
B-DIM
 10
221317.3731590218
 20
137097.4816872323
 30
0.0
 41
30.0
 42
30.0
 43
30.0
 50
90.0
  0
MTEXT
  5
191
330
18C
100
AcDbEntity
  8
0Wymiary-PL
 62
    10
100
AcDbMText
 10
221237.3731590218
 20
136584.4150224062
 30
0.0
 40
80.0
 41
0.0
 71
     5
 72
     1
  1
\A1;1026
  7
ROMANS
 11
0.0000000000000001
 21
1.0
 31
0.0
 73
     1
 44
1.0
1001
ACAD
1000
MTEXTBEGIN
1070
    73
1070
     1
1070
    44
1040
1.0
1070
    74
1070
     0
1000
MTEXTEND
  0
POINT
  5
192
330
18C
100
AcDbEntity
  8
DEFPOINTS
 62
     0
100
AcDbPoint
 10
222862.6088965204
 20
136071.34835758
 30
0.0
  0
POINT
  5
193
330
18C
100
AcDbEntity
  8
DEFPOINTS
 62
     0
100
AcDbPoint
 10
222677.6088965204
 20
137097.4816872323
 30
0.0
  0
POINT
  5
194
330
18C
100
AcDbEntity
  8
DEFPOINTS
 62
     0
100
AcDbPoint
 10
221317.3731590218
 20
137097.4816872323
 30
0.0
  0
ENDBLK
  5
195
330
18C
100
AcDbEntity
  8
0
100
AcDbBlockEnd
  0
ENDSEC
  0
SECTION
  2
ENTITIES
  0
TEXT
  5
10
330
2
100
AcDbEntity
  8
NAPISY
100
AcDbText
 10
216646.5520012698
 20
128323.0717886572
 30
0.0
 40
100.0
  1
   O B R Y S   B U D Y N K U           S K A L A   1 : 5 0 0 
  7
AVA
100
AcDbText
  0
LINE
  5
16
330
2
100
AcDbEntity
  8
NAPISY
  6
HIDDEN
 62
     1
100
AcDbLine
 10
220399.8892448725
 20
133670.6627583035
 30
0.0
 11
220399.8892448725
 21
138473.1198157809
 31
0.0
  0
TEXT
  5
18
330
2
100
AcDbEntity
  8
NAPISY
100
AcDbText
 10
220340.3680678792
 20
134752.3099211241
 30
0.0
 40
100.0
  1
OŚ ODBICIA LUSTRZANEGO
 50
90.0
  7
AVA
100
AcDbText
  0
TEXT
  5
19
330
2
100
AcDbEntity
  8
NAPISY
100
AcDbText
 10
216747.2165030225
 20
140456.5685721763
 30
0.0
 40
150.0
  1
PRZYKŁADOWE USTAWIENIE WZGLĘDEM STRON ŚWIATA
  7
AVA
100
AcDbText
  0
TEXT
  5
1A
330
2
100
AcDbEntity
  8
NAPISY
100
AcDbText
 10
216742.7650523877
 20
140786.437049539
 30
0.0
 40
150.0
  1
MOŻNA WKLEIĆ DO PROJEKTU ZAGOSPODAROWANIA TERENU
  7
AVA
100
AcDbText
  0
TEXT
  5
1B
330
2
100
AcDbEntity
  8
NAPISY
100
AcDbText
 10
216666.4297817526
 20
141116.3055269018
 30
0.0
 40
150.0
  1
"DOM W ROBINIACH (G)"
  7
AVA
100
AcDbText
  0
LINE
  5
1C
330
2
100
AcDbEntity
  8
A-Wall-G
100
AcDbLine
 10
218073.8186354155
 20
136115.34835758
 30
0.0
 11
218073.8186354155
 21
136076.34835758
 31
0.0
  0
LINE
  5
21
330
2
100
AcDbEntity
  8
A-Wall-G
100
AcDbLine
 10
218073.8186354155
 20
136076.34835758
 30
0.0
 11
218019.8186354155
 21
136076.34835758
 31
0.0
  0
LINE
  5
22
330
2
100
AcDbEntity
  8
WIDOK
100
AcDbLine
 10
218714.8186354155
 20
136243.4816872326
 30
0.0
 11
218714.8186354155
 21
136143.4816872326
 31
0.0
  0
LINE
  5
26
330
2
100
AcDbEntity
  8
WIDOK
100
AcDbLine
 10
218714.8186354155
 20
136143.4816872326
 30
0.0
 11
219057.1354389825
 21
136143.4816872326
 31
0.0
  0
LINE
  5
27
330
2
100
AcDbEntity
  8
WIDOK
100
AcDbLine
 10
219057.1354389825
 20
136143.4816872326
 30
0.0
 11
219057.1354389825
 21
136243.4816872326
 31
0.0
  0
LINE
  5
28
330
2
100
AcDbEntity
  8
WIDOK
100
AcDbLine
 10
219009.8233925693
 20
136911.4816872326
 30
0.0
 11
219009.8233925693
 21
137011.4816872326
 31
0.0
  0
LINE
  5
29
330
2
100
AcDbEntity
  8
WIDOK
100
AcDbLine
 10
219009.8233925693
 20
137011.4816872326
 30
0.0
 11
218859.8233925694
 21
137011.4816872326
 31
0.0
  0
LINE
  5
2A
330
2
100
AcDbEntity
  8
WIDOK
100
AcDbLine
 10
218859.8233925694
 20
137011.4816872326
 30
0.0
 11
218859.8233925694
 21
136911.4816872326
 31
0.0
  0
LINE
  5
2B
330
2
100
AcDbEntity
  8
WIDOK
100
AcDbLine
 10
217704.8186354155
 20
136967.4816872323
 30
0.0
 11
217704.8186354155
 21
137232.4816872323
 31
0.0
  0
LINE
  5
2C
330
2
100
AcDbEntity
  8
WIDOK
100
AcDbLine
 10
217704.8186354155
 20
136967.4816872323
 30
0.0
 11
217764.8186354155
 21
136967.4816872323
 31
0.0
  0
LINE
  5
2D
330
2
100
AcDbEntity
  8
WIDOK
100
AcDbLine
 10
217764.8186354155
 20
136967.4816872323
 30
0.0
 11
217764.8186354155
 21
137172.4816872323
 31
0.0
  0
LINE
  5
2E
330
2
100
AcDbEntity
  8
WIDOK
100
AcDbLine
 10
217734.8186354155
 20
137092.4816872323
 30
0.0
 11
217734.8186354155
 21
136967.4816872323
 31
0.0
  0
LINE
  5
2F
330
2
100
AcDbEntity
  8
WIDOK
100
AcDbLine
 10
218674.8186354155
 20
136967.4816872323
 30
0.0
 11
218674.8186354155
 21
137092.4816872323
 31
0.0
  0
LINE
  5
30
330
2
100
AcDbEntity
  8
WIDOK
100
AcDbLine
 10
218704.8186354155
 20
136967.4816872323
 30
0.0
 11
218704.8186354155
 21
137232.4816872323
 31
0.0
  0
LINE
  5
31
330
2
100
AcDbEntity
  8
WIDOK
100
AcDbLine
 10
218001.8186354155
 20
136187.4816872323
 30
0.0
 11
218001.8186354155
 21
136058.34835758
 31
0.0
  0
LINE
  5
32
330
2
100
AcDbEntity
  8
WIDOK
100
AcDbLine
 10
218001.8186354155
 20
136058.34835758
 30
0.0
 11
218407.8186354155
 21
136058.34835758
 31
0.0
  0
LINE
  5
33
330
2
100
AcDbEntity
  8
WIDOK
100
AcDbLine
 10
218407.8186354155
 20
136058.34835758
 30
0.0
 11
218407.8186354155
 21
136187.4816872323
 31
0.0
  0
LINE
  5
34
330
2
100
AcDbEntity
  8
WIDOK
100
AcDbLine
 10
217971.8186354155
 20
136187.4816872323
 30
0.0
 11
217971.8186354155
 21
136028.34835758
 31
0.0
  0
LINE
  5
35
330
2
100
AcDbEntity
  8
WIDOK
100
AcDbLine
 10
217971.8186354155
 20
136028.34835758
 30
0.0
 11
218437.8186354155
 21
136028.34835758
 31
0.0
  0
LINE
  5
36
330
2
100
AcDbEntity
  8
WIDOK
100
AcDbLine
 10
218437.8186354155
 20
136028.34835758
 30
0.0
 11
218437.8186354155
 21
136187.4816872323
 31
0.0
  0
LINE
  5
37
330
2
100
AcDbEntity
  8
WIDOK
100
AcDbLine
 10
217941.8186354155
 20
136180.4816872323
 30
0.0
 11
217941.8186354155
 21
135998.34835758
 31
0.0
  0
LINE
  5
38
330
2
100
AcDbEntity
  8
WIDOK
100
AcDbLine
 10
217941.8186354155
 20
135998.34835758
 30
0.0
 11
218467.8186354155
 21
135998.34835758
 31
0.0
  0
LINE
  5
39
330
2
100
AcDbEntity
  8
WIDOK
100
AcDbLine
 10
218467.8186354155
 20
135998.34835758
 30
0.0
 11
218467.8186354155
 21
136180.4816872323
 31
0.0
  0
LINE
  5
3A
330
2
100
AcDbEntity
  8
WIDOK
100
AcDbLine
 10
218644.8186354155
 20
136967.4816872322
 30
0.0
 11
218644.8186354155
 21
137172.4816872323
 31
0.0
  0
LINE
  5
3B
330
2
100
AcDbEntity
  8
WIDOK
100
AcDbLine
 10
218393.8186354155
 20
137172.4816872323
 30
0.0
 11
218393.8152297381
 21
137245.994338874
 31
0.0
  0
ARC
  5
3C
330
2
100
AcDbEntity
  8
WIDOK
100
AcDbCircle
 10
218204.8154493245
 20
137185.7973627173
 30
0.0
 40
198.3547149296796
100
AcDbArc
 50
17.666827503846
 51
162.3270138199323
  0
LINE
  5
3D
330
2
100
AcDbEntity
  8
WIDOK
100
AcDbLine
 10
218015.8221405257
 20
137246.014653956
 30
0.0
 11
218015.8186354155
 21
137172.4816872323
 31
0.0
  0
LINE
  5
3E
330
2
100
AcDbEntity
  8
WIDOK
100
AcDbLine
 10
218015.8214954472
 20
137232.4816872323
 30
0.0
 11
218015.8221395573
 21
137245.994338874
 31
0.0
  0
LINE
  5
3F
330
2
100
AcDbEntity
  8
WIDOK
100
AcDbLine
 10
218393.8152297381
 20
137245.994338874
 30
0.0
 11
218393.8158558136
 21
137232.4802973347
 31
0.0
  0
LINE
  5
40
330
2
100
AcDbEntity
  8
WIDOK
100
AcDbLine
 10
218393.8158558136
 20
137232.4802973347
 30
0.0
 11
218423.8172456145
 21
137232.4816872323
 31
0.0
  0
LINE
  5
41
330
2
100
AcDbEntity
  8
WIDOK
100
AcDbLine
 10
218423.8172456145
 20
137232.4816872323
 30
0.0
 11
218423.8150121339
 21
137250.5654473048
 31
0.0
  0
ARC
  5
42
330
2
100
AcDbEntity
  8
WIDOK
100
AcDbCircle
 10
218204.8266813479
 20
137185.782330616
 30
0.0
 40
228.3697467449202
100
AcDbArc
 50
16.47974925849822
 51
163.5344036632254
  0
LINE
  5
43
330
2
100
AcDbEntity
  8
WIDOK
100
AcDbLine
 10
217985.8223548366
 20
137250.51135191
 30
0.0
 11
217985.8214954131
 21
137232.4816872323
 31
0.0
  0
LINE
  5
44
330
2
100
AcDbEntity
  8
WIDOK
100
AcDbLine
 10
217985.8223548366
 20
137232.4816872323
 30
0.0
 11
217985.8223548366
 21
137250.51135191
 31
0.0
  0
LINE
  5
45
330
2
100
AcDbEntity
  8
WIDOK
100
AcDbLine
 10
218423.8150215229
 20
137250.4894272035
 30
0.0
 11
218423.8172460721
 21
137232.4779823463
 31
0.0
  0
LINE
  5
46
330
2
100
AcDbEntity
  8
WIDOK
100
AcDbLine
 10
218423.8172460721
 20
137232.4779823463
 30
0.0
 11
218453.8144922144
 21
137232.4816872323
 31
0.0
  0
LINE
  5
47
330
2
100
AcDbEntity
  8
WIDOK
100
AcDbLine
 10
218453.8144922144
 20
137232.4816872323
 30
0.0
 11
218453.8144922144
 21
137254.7769169172
 31
0.0
  0
ARC
  5
48
330
2
100
AcDbEntity
  8
WIDOK
100
AcDbCircle
 10
218204.8270412846
 20
137185.7821281009
 30
0.0
 40
258.3699510475772
100
AcDbArc
 50
15.48813093589027
 51
164.5260219857725
  0
LINE
  5
49
330
2
100
AcDbEntity
  8
WIDOK
100
AcDbLine
 10
217955.8225551982
 20
137254.7154111591
 30
0.0
 11
217955.821495379
 21
137232.4816872323
 31
0.0
  0
LINE
  5
4A
330
2
100
AcDbEntity
  8
WIDOK
390
4B
100
AcDbLine
 10
217704.8186354155
 20
137092.4816872323
 30
0.0
 11
217764.8186354155
 21
137092.4816872323
 31
0.0
  0
LINE
  5
4C
330
2
100
AcDbEntity
  8
WIDOK
390
4B
100
AcDbLine
 10
217704.8186354155
 20
137232.4816872323
 30
0.0
 11
218015.8214954472
 21
137232.4816872323
 31
0.0
  0
LINE
  5
4D
330
2
100
AcDbEntity
  8
WIDOK
390
4B
100
AcDbLine
 10
217764.8186354155
 20
137172.4816872323
 30
0.0
 11
218015.8186354155
 21
137172.4816872323
 31
0.0
  0
LINE
  5
4E
330
2
100
AcDbEntity
  8
WIDOK
390
4B
100
AcDbLine
 10
218015.8186354155
 20
137172.4816872323
 30
0.0
 11
218015.8186354155
 21
137232.4816872323
 31
0.0
  0
LINE
  5
4F
330
2
100
AcDbEntity
  8
WIDOK
390
4B
100
AcDbLine
 10
218393.8186354155
 20
137172.4816872323
 30
0.0
 11
218644.8186354155
 21
137172.4816872323
 31
0.0
  0
LINE
  5
50
330
2
100
AcDbEntity
  8
WIDOK
390
4B
100
AcDbLine
 10
218704.8186354155
 20
137232.4816872323
 30
0.0
 11
218393.8186354155
 21
137232.4816872323
 31
0.0
  0
LINE
  5
51
330
2
100
AcDbEntity
  8
WIDOK
390
4B
100
AcDbLine
 10
218644.8186354155
 20
137092.4816872323
 30
0.0
 11
218704.8186354155
 21
137092.4816872323
 31
0.0
  0
LINE
  5
52
330
2
100
AcDbEntity
  8
WIDOK
390
4B
100
AcDbLine
 10
218393.8186354155
 20
137232.4816872323
 30
0.0
 11
218393.8186354155
 21
137172.4816872323
 31
0.0
  0
LINE
  5
53
330
2
100
AcDbEntity
  8
SCIANY
 48
4.0
100
AcDbLine
 10
218019.8186354155
 20
136076.34835758
 30
0.0
 11
218073.8186354155
 21
136076.34835758
 31
0.0
  0
LINE
  5
57
330
2
100
AcDbEntity
  8
SCIANY
 48
4.0
100
AcDbLine
 10
218073.8186354155
 20
136076.34835758
 30
0.0
 11
218073.8186354155
 21
136115.34835758
 31
0.0
  0
LINE
  5
58
330
2
100
AcDbEntity
  8
SCIANY
 48
4.0
100
AcDbLine
 10
218073.8186354155
 20
136115.34835758
 30
0.0
 11
218019.8186354155
 21
136115.34835758
 31
0.0
  0
LINE
  5
59
330
2
100
AcDbEntity
  8
SCIANY
 48
4.0
100
AcDbLine
 10
218019.8186354155
 20
136115.34835758
 30
0.0
 11
218019.8186354155
 21
136076.34835758
 31
0.0
  0
LINE
  5
5A
330
2
100
AcDbEntity
  8
SCIANY
 48
4.0
100
AcDbLine
 10
218389.8186354155
 20
136076.34835758
 30
0.0
 11
218335.8186354155
 21
136076.34835758
 31
0.0
  0
LINE
  5
5B
330
2
100
AcDbEntity
  8
SCIANY
 48
4.0
100
AcDbLine
 10
218335.8186354155
 20
136076.34835758
 30
0.0
 11
218335.8186354155
 21
136115.34835758
 31
0.0
  0
LINE
  5
5C
330
2
100
AcDbEntity
  8
SCIANY
 48
4.0
100
AcDbLine
 10
218335.8186354155
 20
136115.34835758
 30
0.0
 11
218389.8186354155
 21
136115.34835758
 31
0.0
  0
LINE
  5
5D
330
2
100
AcDbEntity
  8
SCIANY
 48
4.0
100
AcDbLine
 10
218389.8186354155
 20
136115.34835758
 30
0.0
 11
218389.8186354155
 21
136076.34835758
 31
0.0
  0
LINE
  5
5E
330
2
100
AcDbEntity
  8
WIDOK
100
AcDbLine
 10
218013.8186354155
 20
136121.34835758
 30
0.0
 11
218013.8186354155
 21
136070.34835758
 31
0.0
  0
LINE
  5
5F
330
2
100
AcDbEntity
  8
WIDOK
100
AcDbLine
 10
218013.8186354155
 20
136070.34835758
 30
0.0
 11
218079.8186354155
 21
136070.34835758
 31
0.0
  0
LINE
  5
60
330
2
100
AcDbEntity
  8
WIDOK
100
AcDbLine
 10
218079.8186354155
 20
136070.34835758
 30
0.0
 11
218079.8186354155
 21
136121.34835758
 31
0.0
  0
LINE
  5
61
330
2
100
AcDbEntity
  8
WIDOK
100
AcDbLine
 10
218079.8186354155
 20
136121.34835758
 30
0.0
 11
218013.8186354155
 21
136121.34835758
 31
0.0
  0
LINE
  5
62
330
2
100
AcDbEntity
  8
WIDOK
100
AcDbLine
 10
218395.8186354155
 20
136121.34835758
 30
0.0
 11
218395.8186354155
 21
136070.34835758
 31
0.0
  0
LINE
  5
63
330
2
100
AcDbEntity
  8
WIDOK
100
AcDbLine
 10
218395.8186354155
 20
136070.34835758
 30
0.0
 11
218329.8186354155
 21
136070.34835758
 31
0.0
  0
LINE
  5
64
330
2
100
AcDbEntity
  8
WIDOK
100
AcDbLine
 10
218329.8186354155
 20
136070.34835758
 30
0.0
 11
218329.8186354155
 21
136121.34835758
 31
0.0
  0
LINE
  5
65
330
2
100
AcDbEntity
  8
WIDOK
100
AcDbLine
 10
218329.8186354155
 20
136121.34835758
 30
0.0
 11
218395.8186354155
 21
136121.34835758
 31
0.0
  0
LINE
  5
66
330
2
100
AcDbEntity
  8
SCIANY
 48
4.0
100
AcDbLine
 10
217854.3186354155
 20
136907.4816872323
 30
0.0
 11
217854.3186354155
 21
136967.4816872323
 31
0.0
  0
LINE
  5
67
330
2
100
AcDbEntity
  8
SCIANY
 48
4.0
100
AcDbLine
 10
217964.3186354155
 20
136967.4816872323
 30
0.0
 11
217964.3186354155
 21
136907.4816872323
 31
0.0
  0
LINE
  5
68
330
2
100
AcDbEntity
  8
SCIANY
 48
4.0
100
AcDbLine
 10
218445.3186354155
 20
136907.4816872323
 30
0.0
 11
218445.3186354155
 21
136967.4816872323
 31
0.0
  0
LINE
  5
69
330
2
100
AcDbEntity
  8
SCIANY
 48
4.0
100
AcDbLine
 10
218555.3186354155
 20
136967.4816872323
 30
0.0
 11
218555.3186354155
 21
136907.4816872323
 31
0.0
  0
LINE
  5
6A
330
2
100
AcDbEntity
  8
SCIANY
 48
4.0
100
AcDbLine
 10
218884.823392569
 20
136851.4816872323
 30
0.0
 11
218884.823392569
 21
136911.4816872323
 31
0.0
  0
LINE
  5
6B
330
2
100
AcDbEntity
  8
SCIANY
 48
4.0
100
AcDbLine
 10
218984.823392569
 20
136911.4816872323
 30
0.0
 11
218984.823392569
 21
136851.4816872323
 31
0.0
  0
LINE
  5
6C
330
2
100
AcDbEntity
  8
SCIANY
 48
4.0
100
AcDbLine
 10
219001.3215806676
 20
136303.4816872323
 30
0.0
 11
219001.3215806676
 21
136243.4816872323
 31
0.0
  0
LINE
  5
6D
330
2
100
AcDbEntity
  8
SCIANY
 48
4.0
100
AcDbLine
 10
218761.3215806676
 20
136243.4816872323
 30
0.0
 11
218761.3215806676
 21
136303.4816872323
 31
0.0
  0
LINE
  5
6E
330
2
100
AcDbEntity
  8
SCIANY
 48
4.0
100
AcDbLine
 10
218259.8186354155
 20
136247.4816872323
 30
0.0
 11
218259.8186354155
 21
136187.4816872323
 31
0.0
  0
LINE
  5
6F
330
2
100
AcDbEntity
  8
SCIANY
 48
4.0
100
AcDbLine
 10
218149.8186354155
 20
136187.4816872323
 30
0.0
 11
218149.8186354155
 21
136247.4816872323
 31
0.0
  0
LINE
  5
70
330
2
100
AcDbEntity
  8
SCIANY
 48
4.0
100
AcDbLine
 10
218398.8186354155
 20
136967.4816872323
 30
0.0
 11
218398.8186354155
 21
137004.5527550441
 31
0.0
  0
LINE
  5
71
330
2
100
AcDbEntity
  8
SCIANY
 48
4.0
100
AcDbLine
 10
218398.8186354155
 20
137004.5527550441
 30
0.0
 11
218305.8897032274
 21
137097.4816872323
 31
0.0
  0
LINE
  5
72
330
2
100
AcDbEntity
  8
SCIANY
 48
4.0
100
AcDbLine
 10
218305.8897032274
 20
137097.4816872323
 30
0.0
 11
218103.7475676037
 21
137097.4816872323
 31
0.0
  0
LINE
  5
73
330
2
100
AcDbEntity
  8
SCIANY
 48
4.0
100
AcDbLine
 10
218103.7475676037
 20
137097.4816872323
 30
0.0
 11
218010.8186354155
 21
137004.5527550441
 31
0.0
  0
LINE
  5
74
330
2
100
AcDbEntity
  8
SCIANY
 48
4.0
100
AcDbLine
 10
218010.8186354155
 20
137004.5527550441
 30
0.0
 11
218010.8186354155
 21
136967.4816872323
 31
0.0
  0
LINE
  5
75
330
2
100
AcDbEntity
  8
SCIANY
 48
4.0
100
AcDbLine
 10
218010.8186354155
 20
136967.4816872323
 30
0.0
 11
217699.8186354155
 21
136967.4816872323
 31
0.0
  0
LINE
  5
76
330
2
100
AcDbEntity
  8
SCIANY
 48
4.0
100
AcDbLine
 10
217699.8186354155
 20
136967.4816872323
 30
0.0
 11
217699.8186354155
 21
136187.4816872323
 31
0.0
  0
LINE
  5
77
330
2
100
AcDbEntity
  8
SCIANY
 48
4.0
100
AcDbLine
 10
217699.8186354155
 20
136187.4816872323
 30
0.0
 11
218709.8186354155
 21
136187.4816872323
 31
0.0
  0
LINE
  5
78
330
2
100
AcDbEntity
  8
SCIANY
 48
4.0
100
AcDbLine
 10
218709.8186354155
 20
136187.4816872323
 30
0.0
 11
218709.8186354155
 21
136243.4816872323
 31
0.0
  0
LINE
  5
79
330
2
100
AcDbEntity
  8
SCIANY
 48
4.0
100
AcDbLine
 10
218709.8186354155
 20
136243.4816872323
 30
0.0
 11
219089.8186354157
 21
136243.4816872323
 31
0.0
  0
LINE
  5
7A
330
2
100
AcDbEntity
  8
SCIANY
 48
4.0
100
AcDbLine
 10
219089.8186354157
 20
136243.4816872323
 30
0.0
 11
219089.8186354157
 21
136911.4816872323
 31
0.0
  0
LINE
  5
7B
330
2
100
AcDbEntity
  8
SCIANY
 48
4.0
100
AcDbLine
 10
219089.8186354157
 20
136911.4816872323
 30
0.0
 11
218709.8186354155
 21
136911.4816872323
 31
0.0
  0
LINE
  5
7C
330
2
100
AcDbEntity
  8
SCIANY
 48
4.0
100
AcDbLine
 10
218709.8186354155
 20
136911.4816872323
 30
0.0
 11
218709.8186354155
 21
136967.4816872323
 31
0.0
  0
LINE
  5
7D
330
2
100
AcDbEntity
  8
SCIANY
 48
4.0
100
AcDbLine
 10
218709.8186354155
 20
136967.4816872323
 30
0.0
 11
218398.8186354155
 21
136967.4816872323
 31
0.0
  0
HATCH
  5
7E
330
2
100
AcDbEntity
  8
0Hatch
100
AcDbHatch
 10
0.0
 20
0.0
 30
0.0
210
0.0
220
0.0
230
1.0
  2
SOLID
 70
     1
 71
     0
 91
        1
 92
        7
 72
     0
 73
     1
 93
        8
 10
217854.3186354155
 20
136967.4816872323
 10
217699.8186354154
 20
136967.4816872323
 10
217699.8186354155
 20
136187.4816872323
 10
218149.8186354156
 20
136187.4816872323
 10
218149.8186354156
 20
136247.4816872323
 10
217759.8186354155
 20
136247.4816872323
 10
217759.8186354155
 20
136907.4816872323
 10
217854.3186354155
 20
136907.4816872323
 97
        0
 75
     0
 76
     1
 47
2.59080118406585
 98
        5
 10
217760.1630810647
 20
136949.3758956663
 10
218022.0131712488
 20
136946.7850668892
 10
218633.8607977001
 20
136931.240288957
 10
219061.6356726639
 20
136882.0150614731
 10
218698.6752233821
 20
136278.3583825106
1001
ACAD
1010
0.0
1020
0.0
1030
0.0
  0
HATCH
  5
82
330
2
100
AcDbEntity
  8
0Hatch
100
AcDbHatch
 10
0.0
 20
0.0
 30
0.0
210
0.0
220
0.0
230
1.0
  2
SOLID
 70
     1
 71
     0
 91
        1
 92
        7
 72
     0
 73
     1
 93
        8
 10
218761.3215806676
 20
136303.4816872323
 10
218649.8186354155
 20
136303.4816872323
 10
218649.8186354155
 20
136247.4816872323
 10
218259.8186354155
 20
136247.4816872323
 10
218259.8186354155
 20
136187.4816872323
 10
218709.8186354155
 20
136187.4816872323
 10
218709.8186354155
 20
136243.4816872323
 10
218761.3215806677
 20
136243.4816872323
 97
        0
 75
     0
 76
     1
 47
2.59080118406585
 98
        5
 10
217760.1630810647
 20
136949.3758956663
 10
218022.0131712488
 20
136946.7850668892
 10
218633.8607977001
 20
136931.240288957
 10
219061.6356726639
 20
136882.0150614731
 10
218698.6752233821
 20
136278.3583825106
1001
ACAD
1010
0.0
1020
0.0
1030
0.0
  0
HATCH
  5
83
330
2
100
AcDbEntity
  8
0Hatch
100
AcDbHatch
 10
0.0
 20
0.0
 30
0.0
210
0.0
220
0.0
230
1.0
  2
SOLID
 70
     1
 71
     0
 91
        1
 92
        7
 72
     0
 73
     1
 93
        8
 10
219089.8186354157
 20
136911.4816872323
 10
218984.823392569
 20
136911.4816872323
 10
218984.823392569
 20
136851.4816872323
 10
219029.8186354157
 20
136851.4816872323
 10
219029.8186354157
 20
136303.4816872323
 10
219001.3215806676
 20
136303.4816872323
 10
219001.3215806676
 20
136243.4816872323
 10
219089.8186354157
 20
136243.4816872323
 97
        0
 75
     0
 76
     1
 47
2.59080118406585
 98
        5
 10
217760.1630810647
 20
136949.3758956663
 10
218022.0131712488
 20
136946.7850668892
 10
218633.8607977001
 20
136931.240288957
 10
219061.6356726639
 20
136882.0150614731
 10
218698.6752233821
 20
136278.3583825106
1001
ACAD
1010
0.0
1020
0.0
1030
0.0
  0
HATCH
  5
84
330
2
100
AcDbEntity
  8
0Hatch
100
AcDbHatch
 10
0.0
 20
0.0
 30
0.0
210
0.0
220
0.0
230
1.0
  2
SOLID
 70
     1
 71
     0
 91
        1
 92
        7
 72
     0
 73
     1
 93
        8
 10
218709.8186354154
 20
136967.4816872323
 10
218555.3186354155
 20
136967.4816872323
 10
218555.3186354155
 20
136907.4816872323
 10
218649.8186354155
 20
136907.4816872323
 10
218649.8186354155
 20
136851.4816872323
 10
218884.823392569
 20
136851.4816872323
 10
218884.823392569
 20
136911.4816872323
 10
218709.8186354155
 20
136911.4816872323
 97
        0
 75
     0
 76
     1
 47
2.59080118406585
 98
        5
 10
217760.1630810647
 20
136949.3758956663
 10
218022.0131712488
 20
136946.7850668892
 10
218633.8607977001
 20
136931.240288957
 10
219061.6356726639
 20
136882.0150614731
 10
218698.6752233821
 20
136278.3583825106
1001
ACAD
1010
0.0
1020
0.0
1030
0.0
  0
HATCH
  5
85
330
2
100
AcDbEntity
  8
0Hatch
100
AcDbHatch
 10
0.0
 20
0.0
 30
0.0
210
0.0
220
0.0
230
1.0
  2
SOLID
 70
     1
 71
     0
 91
        1
 92
        7
 72
     0
 73
     1
 93
       16
 10
218070.8186354155
 20
136979.6999413017
 10
218128.600381346
 20
137037.4816872323
 10
218281.036889485
 20
137037.4816872323
 10
218338.8186354155
 20
136979.6999413018
 10
218338.8186354155
 20
136907.4816872323
 10
218445.3186354156
 20
136907.4816872323
 10
218445.3186354155
 20
136967.4816872323
 10
218398.8186354155
 20
136967.4816872323
 10
218398.8186354155
 20
137004.5527550441
 10
218305.8897032274
 20
137097.4816872323
 10
218103.7475676037
 20
137097.4816872323
 10
218010.8186354155
 20
137004.5527550442
 10
218010.8186354155
 20
136967.4816872322
 10
217964.3186354155
 20
136967.4816872322
 10
217964.3186354155
 20
136907.4816872323
 10
218070.8186354154
 20
136907.4816872323
 97
        0
 75
     0
 76
     1
 47
2.59080118406585
 98
        5
 10
217760.1630810647
 20
136949.3758956663
 10
218022.0131712488
 20
136946.7850668892
 10
218633.8607977001
 20
136931.240288957
 10
219061.6356726639
 20
136882.0150614731
 10
218698.6752233821
 20
136278.3583825106
1001
ACAD
1010
0.0
1020
0.0
1030
0.0
  0
HATCH
  5
86
330
2
100
AcDbEntity
  8
0Hatch
100
AcDbHatch
 10
0.0
 20
0.0
 30
0.0
210
0.0
220
0.0
230
1.0
  2
SOLID
 70
     1
 71
     0
 91
        1
 92
        7
 72
     0
 73
     1
 93
        4
 10
218073.8186354155
 20
136115.34835758
 10
218019.8186354155
 20
136115.34835758
 10
218019.8186354155
 20
136076.34835758
 10
218073.8186354155
 20
136076.34835758
 97
        0
 75
     0
 76
     1
 47
0.9389825023405304
 98
        2
 10
218057.1359928874
 20
136099.876153
 10
218378.4879126082
 20
136095.1812576093
1001
ACAD
1010
0.0
1020
0.0
1030
0.0
  0
HATCH
  5
87
330
2
100
AcDbEntity
  8
0Hatch
100
AcDbHatch
 10
0.0
 20
0.0
 30
0.0
210
0.0
220
0.0
230
1.0
  2
SOLID
 70
     1
 71
     0
 91
        1
 92
        7
 72
     0
 73
     1
 93
        4
 10
218389.8186354155
 20
136115.34835758
 10
218335.8186354155
 20
136115.34835758
 10
218335.8186354155
 20
136076.34835758
 10
218389.8186354155
 20
136076.34835758
 97
        0
 75
     0
 76
     1
 47
0.9389825023405304
 98
        2
 10
218057.1359928874
 20
136099.876153
 10
218378.4879126082
 20
136095.1812576093
1001
ACAD
1010
0.0
1020
0.0
1030
0.0
  0
DIMENSION
  5
88
330
2
100
AcDbEntity
  8
0Wymiary-PL
100
AcDbDimension
  2
*D1
 10
217252.9430581822
 20
136967.4816872323
 30
0.0
 11
217172.9430581822
 21
136577.4816872323
 31
0.0
 71
     5
 42
780.0
  3
500
100
AcDbAlignedDimension
 13
217699.8186354155
 23
136187.4816872323
 33
0.0
 14
217699.8186354155
 24
136967.4816872323
 34
0.0
 50
90.0
100
AcDbRotatedDimension
  0
DIMENSION
  5
A1
330
2
100
AcDbEntity
  8
0Wymiary-PL
100
AcDbDimension
  2
*D2
 10
217252.9430581822
 20
137097.4816872323
 30
0.0
 11
217172.9430581822
 21
137032.4816872323
 31
0.0
 71
     5
 42
130.0
  3
500
100
AcDbAlignedDimension
 13
218010.8186354155
 23
136967.4816872323
 33
0.0
 14
218103.7475676037
 24
137097.4816872323
 34
0.0
 50
90.0
100
AcDbRotatedDimension
  0
DIMENSION
  5
AE
330
2
100
AcDbEntity
  8
0Wymiary-PL
100
AcDbDimension
  2
*D3
 10
218709.8186354155
 20
137660.0720872069
 30
0.0
 11
218204.8186354155
 21
137740.0720872069
 31
0.0
 71
     5
 42
1009.999999999942
  3
500
100
AcDbAlignedDimension
 13
217699.8186354155
 23
136674.562921178
 33
0.0
 14
218709.8186354155
 24
136967.4816872323
 34
0.0
100
AcDbRotatedDimension
  0
DIMENSION
  5
B9
330
2
100
AcDbEntity
  8
0Wymiary-PL
100
AcDbDimension
  2
*D4
 10
219089.8186354157
 20
137660.0720872069
 30
0.0
 11
218899.8186354156
 21
137740.0720872069
 31
0.0
 71
     5
 42
380.0000000002619
  3
500
100
AcDbAlignedDimension
 13
218709.8186354155
 23
136939.4816872323
 33
0.0
 14
219089.8186354157
 24
136836.7423505471
 34
0.0
100
AcDbRotatedDimension
  0
DIMENSION
  5
C4
330
2
100
AcDbEntity
  8
0Wymiary-PL
100
AcDbDimension
  2
*D5
 10
219089.8186354157
 20
135578.7080376363
 30
0.0
 11
218394.8186354156
 21
135658.7080376363
 31
0.0
 71
     5
 42
1390.000000000174
  3
500
100
AcDbAlignedDimension
 13
217699.8186354155
 23
136370.9110248432
 33
0.0
 14
219089.8186354157
 24
136437.3802514782
 34
0.0
100
AcDbRotatedDimension
  0
DIMENSION
  5
CF
330
2
100
AcDbEntity
  8
0Wymiary-PL
100
AcDbDimension
  2
*D6
 10
217252.9430581822
 20
136071.34835758
 30
0.0
 11
217172.9430581822
 21
136129.4150224062
 31
0.0
 71
     5
 42
116.1333296522789
  3
500
100
AcDbAlignedDimension
 13
217699.8186354155
 23
136187.4816872323
 33
0.0
 14
218019.8186354155
 24
136071.34835758
 34
0.0
 50
90.0
100
AcDbRotatedDimension
  0
DIMENSION
  5
DC
330
2
100
AcDbEntity
  8
0Wymiary-PL
100
AcDbDimension
  2
*D7
 10
219565.0543729141
 20
137097.4816872323
 30
0.0
 11
219485.0543729141
 21
136584.4150224062
 31
0.0
 71
     5
 42
1026.133329652279
  3
500
100
AcDbAlignedDimension
 13
218019.8186354155
 23
136071.34835758
 33
0.0
 14
218204.8186354155
 24
137097.4816872323
 34
0.0
 50
90.0
100
AcDbRotatedDimension
  0
LINE
  5
E7
330
2
100
AcDbEntity
  8
A-Wall-G
100
AcDbLine
 10
222725.9598543296
 20
136115.34835758
 30
0.0
 11
222725.9598543296
 21
136076.34835758
 31
0.0
  0
LINE
  5
E8
330
2
100
AcDbEntity
  8
A-Wall-G
100
AcDbLine
 10
222725.9598543296
 20
136076.34835758
 30
0.0
 11
222779.9598543295
 21
136076.34835758
 31
0.0
  0
LINE
  5
E9
330
2
100
AcDbEntity
  8
WIDOK
100
AcDbLine
 10
222084.9598543296
 20
136243.4816872326
 30
0.0
 11
222084.9598543296
 21
136143.4816872326
 31
0.0
  0
LINE
  5
EA
330
2
100
AcDbEntity
  8
WIDOK
100
AcDbLine
 10
222084.9598543296
 20
136143.4816872326
 30
0.0
 11
221742.6430507625
 21
136143.4816872326
 31
0.0
  0
LINE
  5
EB
330
2
100
AcDbEntity
  8
WIDOK
100
AcDbLine
 10
221742.6430507625
 20
136143.4816872326
 30
0.0
 11
221742.6430507625
 21
136243.4816872326
 31
0.0
  0
LINE
  5
EC
330
2
100
AcDbEntity
  8
WIDOK
100
AcDbLine
 10
221789.9550971757
 20
136911.4816872326
 30
0.0
 11
221789.9550971757
 21
137011.4816872326
 31
0.0
  0
LINE
  5
ED
330
2
100
AcDbEntity
  8
WIDOK
100
AcDbLine
 10
221789.9550971757
 20
137011.4816872326
 30
0.0
 11
221939.9550971757
 21
137011.4816872326
 31
0.0
  0
LINE
  5
EE
330
2
100
AcDbEntity
  8
WIDOK
100
AcDbLine
 10
221939.9550971757
 20
137011.4816872326
 30
0.0
 11
221939.9550971757
 21
136911.4816872326
 31
0.0
  0
LINE
  5
EF
330
2
100
AcDbEntity
  8
WIDOK
100
AcDbLine
 10
223094.9598543296
 20
136967.4816872323
 30
0.0
 11
223094.9598543296
 21
137232.4816872323
 31
0.0
  0
LINE
  5
F0
330
2
100
AcDbEntity
  8
WIDOK
100
AcDbLine
 10
223094.9598543296
 20
136967.4816872323
 30
0.0
 11
223034.9598543296
 21
136967.4816872323
 31
0.0
  0
LINE
  5
F1
330
2
100
AcDbEntity
  8
WIDOK
100
AcDbLine
 10
223034.9598543296
 20
136967.4816872323
 30
0.0
 11
223034.9598543296
 21
137172.4816872323
 31
0.0
  0
LINE
  5
F2
330
2
100
AcDbEntity
  8
WIDOK
100
AcDbLine
 10
223064.9598543296
 20
137092.4816872323
 30
0.0
 11
223064.9598543296
 21
136967.4816872323
 31
0.0
  0
LINE
  5
F3
330
2
100
AcDbEntity
  8
WIDOK
100
AcDbLine
 10
222124.9598543296
 20
136967.4816872323
 30
0.0
 11
222124.9598543296
 21
137092.4816872323
 31
0.0
  0
LINE
  5
F4
330
2
100
AcDbEntity
  8
WIDOK
100
AcDbLine
 10
222094.9598543295
 20
136967.4816872323
 30
0.0
 11
222094.9598543295
 21
137232.4816872323
 31
0.0
  0
LINE
  5
F5
330
2
100
AcDbEntity
  8
WIDOK
100
AcDbLine
 10
222797.9598543296
 20
136187.4816872323
 30
0.0
 11
222797.9598543296
 21
136058.34835758
 31
0.0
  0
LINE
  5
F6
330
2
100
AcDbEntity
  8
WIDOK
100
AcDbLine
 10
222797.9598543296
 20
136058.34835758
 30
0.0
 11
222391.9598543296
 21
136058.34835758
 31
0.0
  0
LINE
  5
F7
330
2
100
AcDbEntity
  8
WIDOK
100
AcDbLine
 10
222391.9598543296
 20
136058.34835758
 30
0.0
 11
222391.9598543296
 21
136187.4816872323
 31
0.0
  0
LINE
  5
F8
330
2
100
AcDbEntity
  8
WIDOK
100
AcDbLine
 10
222827.9598543296
 20
136187.4816872323
 30
0.0
 11
222827.9598543296
 21
136028.34835758
 31
0.0
  0
LINE
  5
F9
330
2
100
AcDbEntity
  8
WIDOK
100
AcDbLine
 10
222827.9598543296
 20
136028.34835758
 30
0.0
 11
222361.9598543296
 21
136028.34835758
 31
0.0
  0
LINE
  5
FA
330
2
100
AcDbEntity
  8
WIDOK
100
AcDbLine
 10
222361.9598543296
 20
136028.34835758
 30
0.0
 11
222361.9598543296
 21
136187.4816872323
 31
0.0
  0
LINE
  5
FB
330
2
100
AcDbEntity
  8
WIDOK
100
AcDbLine
 10
222857.9598543296
 20
136180.4816872323
 30
0.0
 11
222857.9598543296
 21
135998.34835758
 31
0.0
  0
LINE
  5
FC
330
2
100
AcDbEntity
  8
WIDOK
100
AcDbLine
 10
222857.9598543296
 20
135998.34835758
 30
0.0
 11
222331.9598543296
 21
135998.34835758
 31
0.0
  0
LINE
  5
FD
330
2
100
AcDbEntity
  8
WIDOK
100
AcDbLine
 10
222331.9598543296
 20
135998.34835758
 30
0.0
 11
222331.9598543296
 21
136180.4816872323
 31
0.0
  0
LINE
  5
FE
330
2
100
AcDbEntity
  8
WIDOK
100
AcDbLine
 10
222154.9598543296
 20
136967.4816872322
 30
0.0
 11
222154.9598543296
 21
137172.4816872323
 31
0.0
  0
LINE
  5
FF
330
2
100
AcDbEntity
  8
WIDOK
100
AcDbLine
 10
222405.9598543296
 20
137172.4816872323
 30
0.0
 11
222405.9632600069
 21
137245.994338874
 31
0.0
  0
ARC
  5
100
330
2
100
AcDbEntity
  8
WIDOK
100
AcDbCircle
 10
222594.9630404206
 20
137185.7973627173
 30
0.0
 40
198.3547149296796
100
AcDbArc
 50
17.67298618005181
 51
162.3331724965896
  0
LINE
  5
101
330
2
100
AcDbEntity
  8
WIDOK
100
AcDbLine
 10
222783.9563492194
 20
137246.014653956
 30
0.0
 11
222783.9598543296
 21
137172.4816872323
 31
0.0
  0
LINE
  5
102
330
2
100
AcDbEntity
  8
WIDOK
100
AcDbLine
 10
222783.9569942979
 20
137232.4816872323
 30
0.0
 11
222783.9563501877
 21
137245.994338874
 31
0.0
  0
LINE
  5
103
330
2
100
AcDbEntity
  8
WIDOK
100
AcDbLine
 10
222405.9632600069
 20
137245.994338874
 30
0.0
 11
222405.9626339315
 21
137232.4802973347
 31
0.0
  0
LINE
  5
104
330
2
100
AcDbEntity
  8
WIDOK
100
AcDbLine
 10
222405.9626339315
 20
137232.4802973347
 30
0.0
 11
222375.9612441305
 21
137232.4816872323
 31
0.0
  0
LINE
  5
105
330
2
100
AcDbEntity
  8
WIDOK
100
AcDbLine
 10
222375.9612441305
 20
137232.4816872323
 30
0.0
 11
222375.9634776112
 21
137250.5654473048
 31
0.0
  0
ARC
  5
106
330
2
100
AcDbEntity
  8
WIDOK
100
AcDbCircle
 10
222594.9518083972
 20
137185.782330616
 30
0.0
 40
228.3697467449202
100
AcDbArc
 50
16.46559633682532
 51
163.5202507417887
  0
LINE
  5
107
330
2
100
AcDbEntity
  8
WIDOK
100
AcDbLine
 10
222813.9561349085
 20
137250.51135191
 30
0.0
 11
222813.956994332
 21
137232.4816872323
 31
0.0
  0
LINE
  5
108
330
2
100
AcDbEntity
  8
WIDOK
100
AcDbLine
 10
222783.9569942979
 20
137232.4816872323
 30
0.0
 11
223094.9598543296
 21
137232.4816872323
 31
0.0
  0
LINE
  5
109
330
2
100
AcDbEntity
  8
WIDOK
100
AcDbLine
 10
222813.9561349085
 20
137232.4816872323
 30
0.0
 11
222813.9561349085
 21
137250.51135191
 31
0.0
  0
LINE
  5
10A
330
2
100
AcDbEntity
  8
WIDOK
100
AcDbLine
 10
222375.9634682222
 20
137250.4894272035
 30
0.0
 11
222375.961243673
 21
137232.4779823463
 31
0.0
  0
LINE
  5
10B
330
2
100
AcDbEntity
  8
WIDOK
100
AcDbLine
 10
222375.961243673
 20
137232.4779823463
 30
0.0
 11
222345.9639975307
 21
137232.4816872323
 31
0.0
  0
LINE
  5
10C
330
2
100
AcDbEntity
  8
WIDOK
100
AcDbLine
 10
222345.9639975307
 20
137232.4816872323
 30
0.0
 11
222345.9639975307
 21
137254.7769169172
 31
0.0
  0
ARC
  5
10D
330
2
100
AcDbEntity
  8
WIDOK
100
AcDbCircle
 10
222594.9514484605
 20
137185.7821281009
 30
0.0
 40
258.3699510475772
100
AcDbArc
 50
15.473978014598
 51
164.5118690643726
  0
LINE
  5
10E
330
2
100
AcDbEntity
  8
WIDOK
100
AcDbLine
 10
222843.9559345469
 20
137254.7154111591
 30
0.0
 11
222843.9569943661
 21
137232.4816872323
 31
0.0
  0
LINE
  5
10F
330
2
100
AcDbEntity
  8
WIDOK
390
4B
100
AcDbLine
 10
223094.9598543296
 20
137092.4816872323
 30
0.0
 11
223034.9598543296
 21
137092.4816872323
 31
0.0
  0
LINE
  5
110
330
2
100
AcDbEntity
  8
WIDOK
390
4B
100
AcDbLine
 10
223034.9598543296
 20
137172.4816872323
 30
0.0
 11
222783.9598543296
 21
137172.4816872323
 31
0.0
  0
LINE
  5
111
330
2
100
AcDbEntity
  8
WIDOK
390
4B
100
AcDbLine
 10
222783.9598543296
 20
137172.4816872323
 30
0.0
 11
222783.9598543296
 21
137232.4816872323
 31
0.0
  0
LINE
  5
112
330
2
100
AcDbEntity
  8
WIDOK
390
4B
100
AcDbLine
 10
222405.9598543296
 20
137172.4816872323
 30
0.0
 11
222154.9598543296
 21
137172.4816872323
 31
0.0
  0
LINE
  5
113
330
2
100
AcDbEntity
  8
WIDOK
390
4B
100
AcDbLine
 10
222094.9598543295
 20
137232.4816872323
 30
0.0
 11
222405.9598543296
 21
137232.4816872323
 31
0.0
  0
LINE
  5
114
330
2
100
AcDbEntity
  8
WIDOK
390
4B
100
AcDbLine
 10
222154.9598543296
 20
137092.4816872323
 30
0.0
 11
222094.9598543295
 21
137092.4816872323
 31
0.0
  0
LINE
  5
115
330
2
100
AcDbEntity
  8
WIDOK
390
4B
100
AcDbLine
 10
222405.9598543296
 20
137232.4816872323
 30
0.0
 11
222405.9598543296
 21
137172.4816872323
 31
0.0
  0
LINE
  5
116
330
2
100
AcDbEntity
  8
SCIANY
 48
4.0
100
AcDbLine
 10
222779.9598543295
 20
136076.34835758
 30
0.0
 11
222725.9598543296
 21
136076.34835758
 31
0.0
  0
LINE
  5
117
330
2
100
AcDbEntity
  8
SCIANY
 48
4.0
100
AcDbLine
 10
222725.9598543296
 20
136076.34835758
 30
0.0
 11
222725.9598543296
 21
136115.34835758
 31
0.0
  0
LINE
  5
118
330
2
100
AcDbEntity
  8
SCIANY
 48
4.0
100
AcDbLine
 10
222725.9598543296
 20
136115.34835758
 30
0.0
 11
222779.9598543295
 21
136115.34835758
 31
0.0
  0
LINE
  5
119
330
2
100
AcDbEntity
  8
SCIANY
 48
4.0
100
AcDbLine
 10
222779.9598543295
 20
136115.34835758
 30
0.0
 11
222779.9598543295
 21
136076.34835758
 31
0.0
  0
HATCH
  5
11A
330
2
100
AcDbEntity
  8
0Hatch
100
AcDbHatch
 10
0.0
 20
0.0
 30
0.0
210
0.0
220
0.0
230
1.0
  2
SOLID
 70
     1
 71
     0
 91
        1
 92
        7
 72
     0
 73
     1
 93
        4
 10
222725.9598543296
 20
136115.34835758
 10
222779.9598543295
 20
136115.34835758
 10
222779.9598543295
 20
136076.34835758
 10
222725.9598543296
 20
136076.34835758
 97
        0
 75
     0
 76
     1
 47
0.9389825023405304
 98
        2
 10
222742.6424968577
 20
136099.876153
 10
222421.2905771369
 20
136095.1812576093
1001
ACAD
1010
0.0
1020
0.0
1030
0.0
  0
HATCH
  5
11B
330
2
100
AcDbEntity
  8
0Hatch
100
AcDbHatch
 10
0.0
 20
0.0
 30
0.0
210
0.0
220
0.0
230
1.0
  2
SOLID
 70
     1
 71
     0
 91
        1
 92
        7
 72
     0
 73
     1
 93
        4
 10
222409.9598543296
 20
136115.34835758
 10
222463.9598543296
 20
136115.34835758
 10
222463.9598543296
 20
136076.34835758
 10
222409.9598543296
 20
136076.34835758
 97
        0
 75
     0
 76
     1
 47
0.9389825023405304
 98
        2
 10
222742.6424968577
 20
136099.876153
 10
222421.2905771369
 20
136095.1812576093
1001
ACAD
1010
0.0
1020
0.0
1030
0.0
  0
LINE
  5
11C
330
2
100
AcDbEntity
  8
SCIANY
 48
4.0
100
AcDbLine
 10
222409.9598543296
 20
136076.34835758
 30
0.0
 11
222463.9598543296
 21
136076.34835758
 31
0.0
  0
LINE
  5
11D
330
2
100
AcDbEntity
  8
SCIANY
 48
4.0
100
AcDbLine
 10
222463.9598543296
 20
136076.34835758
 30
0.0
 11
222463.9598543296
 21
136115.34835758
 31
0.0
  0
LINE
  5
11E
330
2
100
AcDbEntity
  8
SCIANY
 48
4.0
100
AcDbLine
 10
222463.9598543296
 20
136115.34835758
 30
0.0
 11
222409.9598543296
 21
136115.34835758
 31
0.0
  0
LINE
  5
11F
330
2
100
AcDbEntity
  8
SCIANY
 48
4.0
100
AcDbLine
 10
222409.9598543296
 20
136115.34835758
 30
0.0
 11
222409.9598543296
 21
136076.34835758
 31
0.0
  0
LINE
  5
120
330
2
100
AcDbEntity
  8
WIDOK
100
AcDbLine
 10
222785.9598543296
 20
136121.34835758
 30
0.0
 11
222785.9598543296
 21
136070.34835758
 31
0.0
  0
LINE
  5
121
330
2
100
AcDbEntity
  8
WIDOK
100
AcDbLine
 10
222785.9598543296
 20
136070.34835758
 30
0.0
 11
222719.9598543295
 21
136070.34835758
 31
0.0
  0
LINE
  5
122
330
2
100
AcDbEntity
  8
WIDOK
100
AcDbLine
 10
222719.9598543295
 20
136070.34835758
 30
0.0
 11
222719.9598543295
 21
136121.34835758
 31
0.0
  0
LINE
  5
123
330
2
100
AcDbEntity
  8
WIDOK
100
AcDbLine
 10
222719.9598543295
 20
136121.34835758
 30
0.0
 11
222785.9598543296
 21
136121.34835758
 31
0.0
  0
LINE
  5
124
330
2
100
AcDbEntity
  8
WIDOK
100
AcDbLine
 10
222403.9598543296
 20
136121.34835758
 30
0.0
 11
222403.9598543296
 21
136070.34835758
 31
0.0
  0
LINE
  5
125
330
2
100
AcDbEntity
  8
WIDOK
100
AcDbLine
 10
222403.9598543296
 20
136070.34835758
 30
0.0
 11
222469.9598543296
 21
136070.34835758
 31
0.0
  0
LINE
  5
126
330
2
100
AcDbEntity
  8
WIDOK
100
AcDbLine
 10
222469.9598543296
 20
136070.34835758
 30
0.0
 11
222469.9598543296
 21
136121.34835758
 31
0.0
  0
LINE
  5
127
330
2
100
AcDbEntity
  8
WIDOK
100
AcDbLine
 10
222469.9598543296
 20
136121.34835758
 30
0.0
 11
222403.9598543296
 21
136121.34835758
 31
0.0
  0
LINE
  5
128
330
2
100
AcDbEntity
  8
SCIANY
 48
4.0
100
AcDbLine
 10
222945.4598543296
 20
136907.4816872323
 30
0.0
 11
222945.4598543296
 21
136967.4816872323
 31
0.0
  0
LINE
  5
129
330
2
100
AcDbEntity
  8
SCIANY
 48
4.0
100
AcDbLine
 10
222400.9598543296
 20
136967.4816872323
 30
0.0
 11
222400.9598543296
 21
137004.5527550441
 31
0.0
  0
LINE
  5
12A
330
2
100
AcDbEntity
  8
SCIANY
 48
4.0
100
AcDbLine
 10
222400.9598543296
 20
137004.5527550441
 30
0.0
 11
222493.8887865177
 21
137097.4816872323
 31
0.0
  0
LINE
  5
12B
330
2
100
AcDbEntity
  8
SCIANY
 48
4.0
100
AcDbLine
 10
222493.8887865177
 20
137097.4816872323
 30
0.0
 11
222696.0309221414
 21
137097.4816872323
 31
0.0
  0
LINE
  5
12C
330
2
100
AcDbEntity
  8
SCIANY
 48
4.0
100
AcDbLine
 10
222696.0309221414
 20
137097.4816872323
 30
0.0
 11
222788.9598543296
 21
137004.5527550441
 31
0.0
  0
LINE
  5
12D
330
2
100
AcDbEntity
  8
SCIANY
 48
4.0
100
AcDbLine
 10
222788.9598543296
 20
137004.5527550441
 30
0.0
 11
222788.9598543296
 21
136967.4816872323
 31
0.0
  0
LINE
  5
12E
330
2
100
AcDbEntity
  8
SCIANY
 48
4.0
100
AcDbLine
 10
222788.9598543296
 20
136967.4816872323
 30
0.0
 11
223099.9598543295
 21
136967.4816872323
 31
0.0
  0
LINE
  5
12F
330
2
100
AcDbEntity
  8
SCIANY
 48
4.0
100
AcDbLine
 10
223099.9598543295
 20
136967.4816872323
 30
0.0
 11
223099.9598543295
 21
136187.4816872323
 31
0.0
  0
HATCH
  5
130
330
2
100
AcDbEntity
  8
0Hatch
100
AcDbHatch
 10
0.0
 20
0.0
 30
0.0
210
0.0
220
0.0
230
1.0
  2
SOLID
 70
     1
 71
     0
 91
        1
 92
        7
 72
     0
 73
     1
 93
        8
 10
222945.4598543296
 20
136967.4816872323
 10
223099.9598543296
 20
136967.4816872323
 10
223099.9598543295
 20
136187.4816872323
 10
222649.9598543295
 20
136187.4816872323
 10
222649.9598543295
 20
136247.4816872323
 10
223039.9598543296
 20
136247.4816872323
 10
223039.9598543296
 20
136907.4816872323
 10
222945.4598543296
 20
136907.4816872323
 97
        0
 75
     0
 76
     1
 47
2.59080118406585
 98
        5
 10
223039.6154086804
 20
136949.3758956663
 10
222777.7653184963
 20
136946.7850668892
 10
222165.917692045
 20
136931.240288957
 10
221738.1428170812
 20
136882.0150614731
 10
222101.1032663629
 20
136278.3583825106
1001
ACAD
1010
0.0
1020
0.0
1030
0.0
  0
HATCH
  5
131
330
2
100
AcDbEntity
  8
0Hatch
100
AcDbHatch
 10
0.0
 20
0.0
 30
0.0
210
0.0
220
0.0
230
1.0
  2
SOLID
 70
     1
 71
     0
 91
        1
 92
        7
 72
     0
 73
     1
 93
        8
 10
222038.4569090775
 20
136303.4816872323
 10
222149.9598543296
 20
136303.4816872323
 10
222149.9598543295
 20
136247.4816872323
 10
222539.9598543296
 20
136247.4816872323
 10
222539.9598543296
 20
136187.4816872323
 10
222089.9598543296
 20
136187.4816872323
 10
222089.9598543295
 20
136243.4816872323
 10
222038.4569090774
 20
136243.4816872323
 97
        0
 75
     0
 76
     1
 47
2.59080118406585
 98
        5
 10
223039.6154086804
 20
136949.3758956663
 10
222777.7653184963
 20
136946.7850668892
 10
222165.917692045
 20
136931.240288957
 10
221738.1428170812
 20
136882.0150614731
 10
222101.1032663629
 20
136278.3583825106
1001
ACAD
1010
0.0
1020
0.0
1030
0.0
  0
HATCH
  5
132
330
2
100
AcDbEntity
  8
0Hatch
100
AcDbHatch
 10
0.0
 20
0.0
 30
0.0
210
0.0
220
0.0
230
1.0
  2
SOLID
 70
     1
 71
     0
 91
        1
 92
        7
 72
     0
 73
     1
 93
        8
 10
221709.9598543294
 20
136911.4816872323
 10
221814.9550971761
 20
136911.4816872323
 10
221814.9550971761
 20
136851.4816872323
 10
221769.9598543294
 20
136851.4816872323
 10
221769.9598543294
 20
136303.4816872323
 10
221798.4569090774
 20
136303.4816872323
 10
221798.4569090774
 20
136243.4816872323
 10
221709.9598543294
 20
136243.4816872323
 97
        0
 75
     0
 76
     1
 47
2.59080118406585
 98
        5
 10
223039.6154086804
 20
136949.3758956663
 10
222777.7653184963
 20
136946.7850668892
 10
222165.917692045
 20
136931.240288957
 10
221738.1428170812
 20
136882.0150614731
 10
222101.1032663629
 20
136278.3583825106
1001
ACAD
1010
0.0
1020
0.0
1030
0.0
  0
HATCH
  5
133
330
2
100
AcDbEntity
  8
0Hatch
100
AcDbHatch
 10
0.0
 20
0.0
 30
0.0
210
0.0
220
0.0
230
1.0
  2
SOLID
 70
     1
 71
     0
 91
        1
 92
        7
 72
     0
 73
     1
 93
        8
 10
222089.9598543296
 20
136967.4816872323
 10
222244.4598543296
 20
136967.4816872323
 10
222244.4598543296
 20
136907.4816872323
 10
222149.9598543296
 20
136907.4816872323
 10
222149.9598543295
 20
136851.4816872323
 10
221914.955097176
 20
136851.4816872323
 10
221914.955097176
 20
136911.4816872323
 10
222089.9598543296
 20
136911.4816872323
 97
        0
 75
     0
 76
     1
 47
2.59080118406585
 98
        5
 10
223039.6154086804
 20
136949.3758956663
 10
222777.7653184963
 20
136946.7850668892
 10
222165.917692045
 20
136931.240288957
 10
221738.1428170812
 20
136882.0150614731
 10
222101.1032663629
 20
136278.3583825106
1001
ACAD
1010
0.0
1020
0.0
1030
0.0
  0
HATCH
  5
134
330
2
100
AcDbEntity
  8
0Hatch
100
AcDbHatch
 10
0.0
 20
0.0
 30
0.0
210
0.0
220
0.0
230
1.0
  2
SOLID
 70
     1
 71
     0
 91
        1
 92
        7
 72
     0
 73
     1
 93
       16
 10
222728.9598543296
 20
136979.6999413017
 10
222671.1781083991
 20
137037.4816872323
 10
222518.7416002601
 20
137037.4816872323
 10
222460.9598543295
 20
136979.6999413018
 10
222460.9598543295
 20
136907.4816872323
 10
222354.4598543295
 20
136907.4816872323
 10
222354.4598543296
 20
136967.4816872323
 10
222400.9598543296
 20
136967.4816872323
 10
222400.9598543296
 20
137004.5527550441
 10
222493.8887865177
 20
137097.4816872323
 10
222696.0309221414
 20
137097.4816872323
 10
222788.9598543296
 20
137004.5527550442
 10
222788.9598543296
 20
136967.4816872322
 10
222835.4598543296
 20
136967.4816872322
 10
222835.4598543296
 20
136907.4816872323
 10
222728.9598543297
 20
136907.4816872323
 97
        0
 75
     0
 76
     1
 47
2.59080118406585
 98
        5
 10
223039.6154086804
 20
136949.3758956663
 10
222777.7653184963
 20
136946.7850668892
 10
222165.917692045
 20
136931.240288957
 10
221738.1428170812
 20
136882.0150614731
 10
222101.1032663629
 20
136278.3583825106
1001
ACAD
1010
0.0
1020
0.0
1030
0.0
  0
LINE
  5
135
330
2
100
AcDbEntity
  8
SCIANY
 48
4.0
100
AcDbLine
 10
223099.9598543295
 20
136187.4816872323
 30
0.0
 11
222089.9598543295
 21
136187.4816872323
 31
0.0
  0
LINE
  5
136
330
2
100
AcDbEntity
  8
SCIANY
 48
4.0
100
AcDbLine
 10
222089.9598543295
 20
136187.4816872323
 30
0.0
 11
222089.9598543295
 21
136243.4816872323
 31
0.0
  0
LINE
  5
137
330
2
100
AcDbEntity
  8
SCIANY
 48
4.0
100
AcDbLine
 10
222089.9598543295
 20
136243.4816872323
 30
0.0
 11
221709.9598543294
 21
136243.4816872323
 31
0.0
  0
LINE
  5
138
330
2
100
AcDbEntity
  8
SCIANY
 48
4.0
100
AcDbLine
 10
221709.9598543294
 20
136243.4816872323
 30
0.0
 11
221709.9598543294
 21
136911.4816872323
 31
0.0
  0
LINE
  5
139
330
2
100
AcDbEntity
  8
SCIANY
 48
4.0
100
AcDbLine
 10
221709.9598543294
 20
136911.4816872323
 30
0.0
 11
222089.9598543295
 21
136911.4816872323
 31
0.0
  0
LINE
  5
13A
330
2
100
AcDbEntity
  8
SCIANY
 48
4.0
100
AcDbLine
 10
222089.9598543295
 20
136911.4816872323
 30
0.0
 11
222089.9598543296
 21
136967.4816872323
 31
0.0
  0
LINE
  5
13B
330
2
100
AcDbEntity
  8
SCIANY
 48
4.0
100
AcDbLine
 10
222089.9598543296
 20
136967.4816872323
 30
0.0
 11
222400.9598543296
 21
136967.4816872323
 31
0.0
  0
LINE
  5
13C
330
2
100
AcDbEntity
  8
SCIANY
 48
4.0
100
AcDbLine
 10
222835.4598543296
 20
136967.4816872323
 30
0.0
 11
222835.4598543296
 21
136907.4816872323
 31
0.0
  0
LINE
  5
13D
330
2
100
AcDbEntity
  8
SCIANY
 48
4.0
100
AcDbLine
 10
222354.4598543296
 20
136907.4816872323
 30
0.0
 11
222354.4598543296
 21
136967.4816872323
 31
0.0
  0
LINE
  5
13E
330
2
100
AcDbEntity
  8
SCIANY
 48
4.0
100
AcDbLine
 10
222244.4598543296
 20
136967.4816872323
 30
0.0
 11
222244.4598543296
 21
136907.4816872323
 31
0.0
  0
LINE
  5
13F
330
2
100
AcDbEntity
  8
SCIANY
 48
4.0
100
AcDbLine
 10
221914.955097176
 20
136851.4816872323
 30
0.0
 11
221914.955097176
 21
136911.4816872323
 31
0.0
  0
LINE
  5
140
330
2
100
AcDbEntity
  8
SCIANY
 48
4.0
100
AcDbLine
 10
221814.9550971761
 20
136911.4816872323
 30
0.0
 11
221814.9550971761
 21
136851.4816872323
 31
0.0
  0
LINE
  5
141
330
2
100
AcDbEntity
  8
SCIANY
 48
4.0
100
AcDbLine
 10
221798.4569090774
 20
136303.4816872323
 30
0.0
 11
221798.4569090774
 21
136243.4816872323
 31
0.0
  0
LINE
  5
142
330
2
100
AcDbEntity
  8
SCIANY
 48
4.0
100
AcDbLine
 10
222038.4569090774
 20
136243.4816872323
 30
0.0
 11
222038.4569090774
 21
136303.4816872323
 31
0.0
  0
LINE
  5
143
330
2
100
AcDbEntity
  8
SCIANY
 48
4.0
100
AcDbLine
 10
222539.9598543296
 20
136247.4816872323
 30
0.0
 11
222539.9598543296
 21
136187.4816872323
 31
0.0
  0
LINE
  5
144
330
2
100
AcDbEntity
  8
SCIANY
 48
4.0
100
AcDbLine
 10
222649.9598543296
 20
136187.4816872323
 30
0.0
 11
222649.9598543296
 21
136247.4816872323
 31
0.0
  0
DIMENSION
  5
145
330
2
100
AcDbEntity
  8
0Wymiary-PL
100
AcDbDimension
  2
*D8
 10
223629.4844737537
 20
136967.4816872323
 30
0.0
 11
223549.4844737536
 21
136577.4816872323
 31
0.0
 71
     5
 42
780.0
  3
500
100
AcDbAlignedDimension
 13
223182.6088965203
 23
136187.4816872323
 33
0.0
 14
223182.6088965204
 24
136967.4816872323
 34
0.0
 50
90.0
100
AcDbRotatedDimension
  0
DIMENSION
  5
150
330
2
100
AcDbEntity
  8
0Wymiary-PL
100
AcDbDimension
  2
*D9
 10
223629.4844737537
 20
137097.4816872323
 30
0.0
 11
223549.4844737536
 21
137032.4816872323
 31
0.0
 71
     5
 42
130.0
  3
500
100
AcDbAlignedDimension
 13
222871.6088965204
 23
136967.4816872323
 33
0.0
 14
222778.6799643322
 24
137097.4816872323
 34
0.0
 50
90.0
100
AcDbRotatedDimension
  0
DIMENSION
  5
15D
330
2
100
AcDbEntity
  8
0Wymiary-PL
100
AcDbDimension
  2
*D10
 10
222089.9598543296
 20
137660.0720872069
 30
0.0
 11
222594.9598543296
 21
137740.0720872069
 31
0.0
 71
     5
 42
1009.999999999942
  3
500
100
AcDbAlignedDimension
 13
223099.9598543295
 23
136674.562921178
 33
0.0
 14
222089.9598543296
 24
136967.4816872323
 34
0.0
 50
180.0
100
AcDbRotatedDimension
  0
DIMENSION
  5
168
330
2
100
AcDbEntity
  8
0Wymiary-PL
100
AcDbDimension
  2
*D11
 10
221709.9598543294
 20
137660.0720872069
 30
0.0
 11
221899.9598543295
 21
137740.0720872069
 31
0.0
 71
     5
 42
380.0000000002619
  3
500
100
AcDbAlignedDimension
 13
222089.9598543296
 23
136939.4816872323
 33
0.0
 14
221709.9598543294
 24
136836.7423505471
 34
0.0
 50
180.0
100
AcDbRotatedDimension
  0
DIMENSION
  5
173
330
2
100
AcDbEntity
  8
0Wymiary-PL
100
AcDbDimension
  2
*D12
 10
221709.9598543294
 20
135578.7080376363
 30
0.0
 11
222404.9598543295
 21
135658.7080376363
 31
0.0
 71
     5
 42
1390.000000000174
  3
500
100
AcDbAlignedDimension
 13
223099.9598543295
 23
136370.9110248432
 33
0.0
 14
221709.9598543294
 24
136437.3802514782
 34
0.0
 50
180.0
100
AcDbRotatedDimension
  0
DIMENSION
  5
17E
330
2
100
AcDbEntity
  8
0Wymiary-PL
100
AcDbDimension
  2
*D13
 10
223629.4844737537
 20
136071.34835758
 30
0.0
 11
223549.4844737536
 21
136129.4150224062
 31
0.0
 71
     5
 42
116.1333296522789
  3
500
100
AcDbAlignedDimension
 13
223182.6088965203
 23
136187.4816872323
 33
0.0
 14
222862.6088965204
 24
136071.34835758
 34
0.0
 50
90.0
100
AcDbRotatedDimension
  0
DIMENSION
  5
18B
330
2
100
AcDbEntity
  8
0Wymiary-PL
100
AcDbDimension
  2
*D14
 10
221317.3731590218
 20
137097.4816872323
 30
0.0
 11
221237.3731590218
 21
136584.4150224062
 31
0.0
 71
     5
 42
1026.133329652279
  3
500
100
AcDbAlignedDimension
 13
222862.6088965204
 23
136071.34835758
 33
0.0
 14
222677.6088965204
 24
137097.4816872323
 34
0.0
 50
90.0
100
AcDbRotatedDimension
  0
LINE
  5
196
330
2
100
AcDbEntity
  8
SCIANY
 48
4.0
100
AcDbLine
 10
222460.9598543295
 20
136979.6999413017
 30
0.0
 11
222460.9598543295
 21
136979.6999413017
 31
0.0
  0
LINE
  5
197
330
2
100
AcDbEntity
  8
SCIANY
 48
4.0
100
AcDbLine
 10
218338.8186354155
 20
136979.6999413017
 30
0.0
 11
218338.8186354155
 21
136979.6999413017
 31
0.0
  0
LWPOLYLINE
  5
198
330
2
100
AcDbEntity
  8
RAMKI-A4
100
AcDbPolyline
 90
        4
 70
     1
 43
0.0
 10
215187.2000545948
 20
127657.5157057546
 10
215187.2000545948
 20
141677.5157057546
 10
225387.2000545948
 20
141677.5157057546
 10
225387.2000545948
 20
127657.5157057546
  0
LWPOLYLINE
  5
19C
330
2
100
AcDbEntity
  8
SCIANY
 48
4.0
100
AcDbPolyline
 90
       14
 70
     1
 43
0.0
 10
218338.8186354155
 20
136979.6999413017
 10
218281.036889485
 20
137037.4816872323
 10
218128.600381346
 20
137037.4816872323
 10
218070.8186354155
 20
136979.6999413017
 10
218070.8186354154
 20
136907.4816872323
 10
217759.8186354155
 20
136907.4816872323
 10
217759.8186354155
 20
136247.4816872323
 10
218649.8186354155
 20
136247.4816872323
 10
218649.8186354155
 20
136303.4816872323
 10
219029.8186354157
 20
136303.4816872323
 10
219029.8186354157
 20
136851.4816872323
 10
218649.8186354155
 20
136851.4816872323
 10
218649.8186354155
 20
136907.4816872323
 10
218338.8186354155
 20
136907.4816872323
  0
LWPOLYLINE
  5
19D
330
2
100
AcDbEntity
  8
SCIANY
 48
4.0
100
AcDbPolyline
 90
       14
 70
     1
 43
0.0
 10
222460.9598543295
 20
136979.6999413017
 10
222518.7416002601
 20
137037.4816872323
 10
222671.1781083991
 20
137037.4816872323
 10
222728.9598543296
 20
136979.6999413017
 10
222728.9598543297
 20
136907.4816872323
 10
223039.9598543296
 20
136907.4816872323
 10
223039.9598543296
 20
136247.4816872323
 10
222149.9598543296
 20
136247.4816872323
 10
222149.9598543296
 20
136303.4816872323
 10
221769.9598543294
 20
136303.4816872323
 10
221769.9598543294
 20
136851.4816872323
 10
222149.9598543295
 20
136851.4816872323
 10
222149.9598543296
 20
136907.4816872323
 10
222460.9598543295
 20
136907.4816872323
  0
ENDSEC
  0
SECTION
  2
OBJECTS
  0
DICTIONARY
  5
B
330
0
100
AcDbDictionary
281
     1
  3
ACAD_COLOR
350
1C0
  3
ACAD_GROUP
350
1BB
  3
ACAD_LAYOUT
350
1A0
  3
ACAD_MATERIAL
350
D
  3
ACAD_MLINESTYLE
350
1BC
  3
ACAD_PLOTSETTINGS
350
1BD
  3
ACAD_PLOTSTYLENAME
350
A
  3
ACAD_SCALELIST
350
1C1
  3
ACAD_TABLESTYLE
350
1C2
  3
ACAD_VISUALSTYLE
350
1A3
  3
ACDB_RECOMPOSE_DATA
350
1E4
  3
AcDbVariableDictionary
350
1D9
  3
DWGPROPS
350
1E5
  0
DICTIONARY
  5
1AA
330
1A9
100
AcDbDictionary
280
     1
281
     1
  3
ACAD_LAYERSTATES
360
1AB
  0
DICTIONARY
  5
7
330
6
100
AcDbDictionary
280
     1
281
     1
  3
ADSK_XREC_LAYER_RECONCILED
360
8
  0
DICTIONARY
  5
24
330
23
100
AcDbDictionary
280
     1
281
     1
  3
ADSK_XREC_LAYER_RECONCILED
360
25
  0
DICTIONARY
  5
55
330
54
100
AcDbDictionary
280
     1
281
     1
  3
ADSK_XREC_LAYER_RECONCILED
360
56
  0
DICTIONARY
  5
19A
330
199
100
AcDbDictionary
280
     1
281
     1
  3
ADSK_XREC_LAYER_RECONCILED
360
19B
  0
DICTIONARY
  5
12
330
11
100
AcDbDictionary
280
     1
281
     1
  3
ADSK_XREC_LAYER_RECONCILED
360
13
  0
DICTIONARY
  5
1E
330
1D
100
AcDbDictionary
280
     1
281
     1
  3
ADSK_XREC_LAYER_RECONCILED
360
1F
  0
DICTIONARY
  5
80
330
7F
100
AcDbDictionary
280
     1
281
     1
  3
ADSK_XREC_LAYER_RECONCILED
360
81
  0
DICTIONARY
  5
8A
330
89
100
AcDbDictionary
280
     1
281
     1
  3
ADSK_XREC_LAYER_RECONCILED
360
8B
  0
DICTIONARY
  5
3
330
2
100
AcDbDictionary
280
     1
281
     1
  3
ACAD_SORTENTS
360
1D8
  0
DICTIONARY
  5
91
330
90
100
AcDbDictionary
280
     1
281
     1
  3
ACAD_SORTENTS
360
1D7
  0
DICTIONARY
  5
1C0
102
{ACAD_REACTORS
330
B
102
}
330
B
100
AcDbDictionary
281
     1
  0
DICTIONARY
  5
1BB
102
{ACAD_REACTORS
330
B
102
}
330
B
100
AcDbDictionary
281
     1
  0
DICTIONARY
  5
1A0
102
{ACAD_REACTORS
330
B
102
}
330
B
100
AcDbDictionary
281
     1
  3
Layout1
350
1A8
  3
Model
350
19F
  0
DICTIONARY
  5
D
102
{ACAD_REACTORS
330
B
102
}
330
B
100
AcDbDictionary
281
     1
  3
ByBlock
350
1BF
  3
ByLayer
350
1BE
  3
Global
350
C
  0
DICTIONARY
  5
1BC
102
{ACAD_REACTORS
330
B
102
}
330
B
100
AcDbDictionary
281
     1
  3
Standard
350
1C3
  0
DICTIONARY
  5
1BD
102
{ACAD_REACTORS
330
B
102
}
330
B
100
AcDbDictionary
281
     1
  0
ACDBDICTIONARYWDFLT
  5
A
102
{ACAD_REACTORS
330
B
102
}
330
B
100
AcDbDictionary
281
     1
  3
Medium
350
4B
  3
Normal
350
9
100
AcDbDictionaryWithDefault
340
9
  0
DICTIONARY
  5
1C1
102
{ACAD_REACTORS
330
B
102
}
330
B
100
AcDbDictionary
281
     1
  3
A0
350
1C8
  3
A1
350
1C9
  3
A2
350
1CA
  3
A3
350
1CB
  3
A4
350
1CC
  3
A5
350
1CD
  3
A6
350
1CE
  3
A7
350
1CF
  3
A8
350
1D0
  3
A9
350
1D1
  3
B0
350
1D2
  3
B1
350
1D3
  3
B2
350
1D4
  3
B3
350
1D5
  3
B4
350
1D6
  0
DICTIONARY
  5
1C2
102
{ACAD_REACTORS
330
B
102
}
330
B
100
AcDbDictionary
281
     1
  3
Standard
350
1C4
  0
DICTIONARY
  5
1A3
102
{ACAD_REACTORS
330
B
102
}
330
B
100
AcDbDictionary
281
     1
  3
2dWireframe
350
1A2
  3
3dWireframe
350
1C7
  3
Realistic
350
1C6
  0
XRECORD
  5
1E4
102
{ACAD_REACTORS
330
B
102
}
330
B
100
AcDbXrecord
280
     1
 90
        1
330
1C4
  0
DICTIONARY
  5
1D9
102
{ACAD_REACTORS
330
B
102
}
330
B
100
AcDbDictionary
281
     1
  3
CANNOSCALE
350
1DD
  3
CMLEADERSTYLE
350
1DB
  3
CTABLESTYLE
350
1DA
  3
DIMASSOC
350
1E1
  3
HIDETEXT
350
1E0
  3
INDEXCTL
350
1DF
  3
MSLTSCALE
350
1DC
  3
SORTENTS
350
1DE
  0
XRECORD
  5
1E5
102
{ACAD_REACTORS
330
B
102
}
330
B
100
AcDbXrecord
280
     1
  1
DWGPROPS COOKIE
  2

  3

  4

  6

  7

  8
marta.szydlowska
  9

300
=
301
=
302
=
303
=
304
=
305
=
306
=
307
=
308
=
309
=
 40
7.893706736111111
 41
2452027.670547454
 42
2455062.630415394
  1

 90
        0
  0
DICTIONARY
  5
1AB
102
{ACAD_REACTORS
330
1AA
102
}
330
1AA
100
AcDbDictionary
281
     1
1001
AcLayerTools
1000
A
1000
0
  0
XRECORD
  5
8
102
{ACAD_REACTORS
330
7
102
}
330
7
100
AcDbXrecord
280
     1
290
     1
  0
XRECORD
  5
25
102
{ACAD_REACTORS
330
24
102
}
330
24
100
AcDbXrecord
280
     1
290
     1
  0
XRECORD
  5
56
102
{ACAD_REACTORS
330
55
102
}
330
55
100
AcDbXrecord
280
     1
290
     1
  0
XRECORD
  5
19B
102
{ACAD_REACTORS
330
19A
102
}
330
19A
100
AcDbXrecord
280
     1
290
     1
  0
XRECORD
  5
13
102
{ACAD_REACTORS
330
12
102
}
330
12
100
AcDbXrecord
280
     1
290
     1
  0
XRECORD
  5
1F
102
{ACAD_REACTORS
330
1E
102
}
330
1E
100
AcDbXrecord
280
     1
290
     1
  0
XRECORD
  5
81
102
{ACAD_REACTORS
330
80
102
}
330
80
100
AcDbXrecord
280
     1
290
     1
  0
XRECORD
  5
8B
102
{ACAD_REACTORS
330
8A
102
}
330
8A
100
AcDbXrecord
280
     1
290
     1
  0
SORTENTSTABLE
  5
1D8
102
{ACAD_REACTORS
330
3
102
}
330
3
100
AcDbSortentsTable
330
2
331
132
  5
135
331
7D
  5
7C
331
F3
  5
F6
331
13A
  5
13D
331
85
  5
75
331
C4
  5
E7
331
FB
  5
FE
331
103
  5
106
331
142
  5
15D
331
10B
  5
10E
331
44
  5
45
331
4C
  5
4D
331
5C
  5
5F
331
DC
  5
E9
331
113
  5
116
331
11B
  5
11E
331
123
  5
126
331
EC
  5
EF
331
12B
  5
12E
331
64
  5
67
331
6C
  5
87
331
2D
  5
2E
331
35
  5
36
331
74
  5
6E
331
3D
  5
3E
331
F4
  5
F7
331
7E
  5
71
331
133
  5
136
331
FC
  5
FF
331
86
  5
5B
331
13B
  5
13E
331
143
  5
168
331
104
  5
107
331
10C
  5
10F
331
45
  5
46
331
4D
  5
4E
331
5D
  5
60
331
114
  5
117
331
11C
  5
11F
331
ED
  5
F0
331
124
  5
127
331
AE
  5
CF
331
12C
  5
12F
331
26
  5
27
331
65
  5
68
331
2E
  5
2F
331
6D
  5
88
331
75
  5
6F
331
36
  5
37
331
3E
  5
3F
331
134
  5
137
331
F5
  5
F8
331
FD
  5
100
331
87
  5
5C
331
13C
  5
141
331
173
  5
198
331
105
  5
108
331
144
  5
173
331
10D
  5
110
331
46
  5
47
331
4E
  5
4F
331
5E
  5
61
331
18B
  5
19D
331
115
  5
118
331
11D
  5
120
331
125
  5
128
331
EE
  5
F1
331
12D
  5
130
331
66
  5
69
331
27
  5
28
331
6E
  5
A1
331
2F
  5
30
331
37
  5
38
331
76
  5
70
331
3F
  5
40
331
78
  5
77
331
F6
  5
F9
331
135
  5
138
331
FE
  5
101
331
88
  5
B9
331
13D
  5
142
331
145
  5
17E
331
CF
  5
E8
331
106
  5
109
331
10E
  5
111
331
47
  5
48
331
4F
  5
50
331
57
  5
58
331
5F
  5
62
331
116
  5
119
331
E7
  5
EA
331
11E
  5
121
331
15D
  5
196
331
19C
  5
7D
331
EF
  5
F2
331
126
  5
129
331
12E
  5
131
331
28
  5
29
331
67
  5
82
331
30
  5
31
331
6F
  5
AE
331
77
  5
76
331
38
  5
39
331
79
  5
78
331
136
  5
139
331
F7
  5
FA
331
FF
  5
102
331
13E
  5
143
331
107
  5
10A
331
10F
  5
112
331
40
  5
41
331
48
  5
49
331
50
  5
51
331
58
  5
59
331
A1
  5
C4
331
117
  5
11A
331
11F
  5
122
331
E8
  5
EB
331
127
  5
12A
331
19D
  5
13F
331
12F
  5
132
331
21
  5
22
331
60
  5
63
331
68
  5
83
331
29
  5
2A
331
31
  5
32
331
70
  5
6A
331
39
  5
3A
331
F0
  5
F3
331
7A
  5
79
331
B9
  5
DC
331
F8
  5
FB
331
82
  5
72
331
137
  5
13A
331
100
  5
103
331
13F
  5
144
331
17E
  5
19C
331
108
  5
10B
331
41
  5
42
331
49
  5
4A
331
51
  5
52
331
59
  5
5A
331
110
  5
113
331
118
  5
11B
331
196
  5
140
331
E9
  5
EC
331
120
  5
123
331
128
  5
12B
331
22
  5
26
331
61
  5
64
331
2A
  5
2B
331
69
  5
84
331
32
  5
33
331
71
  5
6B
331
3A
  5
3B
331
130
  5
133
331
F1
  5
F4
331
7B
  5
7A
331
138
  5
13B
331
83
  5
73
331
F9
  5
FC
331
101
  5
104
331
140
  5
145
331
109
  5
10C
331
42
  5
43
331
4A
  5
4C
331
52
  5
53
331
5A
  5
5D
331
111
  5
114
331
150
  5
18B
331
119
  5
11C
331
121
  5
124
331
EA
  5
ED
331
197
  5
7E
331
129
  5
12C
331
62
  5
65
331
6A
  5
85
331
2B
  5
2C
331
33
  5
34
331
72
  5
6C
331
3B
  5
3C
331
F2
  5
F5
331
7C
  5
7B
331
131
  5
134
331
168
  5
197
331
FA
  5
FD
331
84
  5
74
331
139
  5
13C
331
141
  5
150
331
102
  5
105
331
10A
  5
10D
331
43
  5
44
331
53
  5
57
331
5B
  5
5E
331
1C
  5
21
331
112
  5
115
331
11A
  5
11D
331
198
  5
1C
331
EB
  5
EE
331
122
  5
125
331
12A
  5
12D
331
63
  5
66
331
2C
  5
2D
331
6B
  5
86
331
34
  5
35
331
73
  5
6D
331
3C
  5
3D
  0
SORTENTSTABLE
  5
1D7
102
{ACAD_REACTORS
330
91
102
}
330
91
100
AcDbSortentsTable
330
90
  0
LAYOUT
  5
1A8
102
{ACAD_XDICTIONARY
360
1EA
102
}
102
{ACAD_REACTORS
330
1A0
102
}
330
1A0
100
AcDbPlotSettings
  1

  2
C:\PROGRAM FILES\AUTOCAD LT 2000\plotters\DWF ePlot.pc3
  4

  6

 40
0.0
 41
0.0
 42
0.0
 43
0.0
 44
0.0
 45
0.0
 46
0.0
 47
0.0
 48
0.0
 49
0.0
140
0.0
141
0.0
142
1.0
143
1.0
 70
   688
 72
     0
 73
     0
 74
     5
  7
monia.ctb
 75
    16
147
1.0
148
0.0
149
0.0
100
AcDbLayout
  1
Layout1
 70
     1
 71
     1
 10
0.0
 20
0.0
 11
420.0
 21
297.0
 12
0.0
 22
0.0
 32
0.0
 14
1.000000000000000E+20
 24
1.000000000000000E+20
 34
1.000000000000000E+20
 15
-1.000000000000000E+20
 25
-1.000000000000000E+20
 35
-1.000000000000000E+20
146
0.0
 13
0.0
 23
0.0
 33
0.0
 16
1.0
 26
0.0
 36
0.0
 17
0.0
 27
1.0
 37
0.0
 76
     0
330
1A5
  0
LAYOUT
  5
19F
102
{ACAD_XDICTIONARY
360
1E8
102
}
102
{ACAD_REACTORS
330
1A0
102
}
330
1A0
100
AcDbPlotSettings
  1

  2
\\komp-nr-75\hp LaserJet 1300 PCL 6
  4
A4
  6
RODODENDRON 5
 40
5.027082920074462
 41
5.069413661956787
 42
5.027069091796875
 43
5.027069091796875
 44
209.9733276367187
 45
296.9683227539062
 46
0.0
 47
4.0
 48
215187.2000545948
 49
127657.5157057546
140
225387.2000545948
141
141677.5157057546
142
1.0
143
50.0
 70
 11952
 72
     1
 73
     0
 74
     4
  7
100.ctb
 75
    25
147
0.02
148
-215187.2000545948
149
-127657.5157057546
100
AcDbLayout
  1
Model
 70
     1
 71
     0
 10
0.0
 20
0.0
 11
12.0
 21
9.0
 12
0.0
 22
0.0
 32
0.0
 14
0.0
 24
0.0
 34
0.0
 15
0.0
 25
0.0
 35
0.0
146
0.0
 13
0.0
 23
0.0
 33
0.0
 16
1.0
 26
0.0
 36
0.0
 17
0.0
 27
1.0
 37
0.0
 76
     0
330
2
331
1B6
1001
ACAD_PSEXT
1000
\\komp-nr-75\hp LaserJet 1300 PCL 6
1000
hp LaserJet 1300 PCL 6
1000
\\komp-nr-75
1000

1070
     0
  0
MATERIAL
  5
1BF
102
{ACAD_XDICTIONARY
360
1EE
102
}
102
{ACAD_REACTORS
330
D
102
}
330
D
100
AcDbMaterial
  1
ByBlock
 73
     1
 78
     1
172
     1
176
     1
270
     1
274
     1
  0
MATERIAL
  5
1BE
102
{ACAD_XDICTIONARY
360
1EC
102
}
102
{ACAD_REACTORS
330
D
102
}
330
D
100
AcDbMaterial
  1
ByLayer
 73
     1
 78
     1
172
     1
176
     1
270
     1
274
     1
  0
MATERIAL
  5
C
102
{ACAD_XDICTIONARY
360
1E6
102
}
102
{ACAD_REACTORS
330
D
102
}
330
D
100
AcDbMaterial
  1
Global
 73
     1
 78
     1
172
     1
176
     1
270
     1
274
     1
  0
MLINESTYLE
  5
1C3
102
{ACAD_REACTORS
330
1BC
102
}
330
1BC
100
AcDbMlineStyle
  2
STANDARD
 70
     0
  3

 62
   256
 51
90.0
 52
90.0
 71
     2
 49
0.5
 62
   256
  6
BYLAYER
 49
-0.5
 62
   256
  6
BYLAYER
  0
ACDBPLACEHOLDER
  5
4B
102
{ACAD_REACTORS
330
A
102
}
330
A
  0
ACDBPLACEHOLDER
  5
9
102
{ACAD_REACTORS
330
A
102
}
330
A
  0
SCALE
  5
1C8
102
{ACAD_REACTORS
330
1C1
102
}
330
1C1
100
AcDbScale
 70
     0
300
1/64" = 1'-0"
140
0.015625
141
12.0
290
     0
  0
SCALE
  5
1C9
102
{ACAD_REACTORS
330
1C1
102
}
330
1C1
100
AcDbScale
 70
     0
300
1/32" = 1'-0"
140
0.03125
141
12.0
290
     0
  0
SCALE
  5
1CA
102
{ACAD_REACTORS
330
1C1
102
}
330
1C1
100
AcDbScale
 70
     0
300
1/16" = 1'-0"
140
0.0625
141
12.0
290
     0
  0
SCALE
  5
1CB
102
{ACAD_REACTORS
330
1C1
102
}
330
1C1
100
AcDbScale
 70
     0
300
3/32" = 1'-0"
140
0.09375
141
12.0
290
     0
  0
SCALE
  5
1CC
102
{ACAD_REACTORS
330
1C1
102
}
330
1C1
100
AcDbScale
 70
     0
300
1/8" = 1'-0"
140
0.125
141
12.0
290
     0
  0
SCALE
  5
1CD
102
{ACAD_REACTORS
330
1C1
102
}
330
1C1
100
AcDbScale
 70
     0
300
3/16" = 1'-0"
140
0.1875
141
12.0
290
     0
  0
SCALE
  5
1CE
102
{ACAD_REACTORS
330
1C1
102
}
330
1C1
100
AcDbScale
 70
     0
300
1/4" = 1'-0"
140
0.25
141
12.0
290
     0
  0
SCALE
  5
1CF
102
{ACAD_REACTORS
330
1C1
102
}
330
1C1
100
AcDbScale
 70
     0
300
3/8" = 1'-0"
140
0.375
141
12.0
290
     0
  0
SCALE
  5
1D0
102
{ACAD_REACTORS
330
1C1
102
}
330
1C1
100
AcDbScale
 70
     0
300
1/2" = 1'-0"
140
0.5
141
12.0
290
     0
  0
SCALE
  5
1D1
102
{ACAD_REACTORS
330
1C1
102
}
330
1C1
100
AcDbScale
 70
     0
300
3/4" = 1'-0"
140
0.75
141
12.0
290
     0
  0
SCALE
  5
1D2
102
{ACAD_REACTORS
330
1C1
102
}
330
1C1
100
AcDbScale
 70
     0
300
1" = 1'-0"
140
1.0
141
12.0
290
     0
  0
SCALE
  5
1D3
102
{ACAD_REACTORS
330
1C1
102
}
330
1C1
100
AcDbScale
 70
     0
300
1 1/2" = 1'-0"
140
1.5
141
12.0
290
     0
  0
SCALE
  5
1D4
102
{ACAD_REACTORS
330
1C1
102
}
330
1C1
100
AcDbScale
 70
     0
300
3" = 1'-0"
140
3.0
141
12.0
290
     0
  0
SCALE
  5
1D5
102
{ACAD_REACTORS
330
1C1
102
}
330
1C1
100
AcDbScale
 70
     0
300
6" = 1'-0"
140
6.0
141
12.0
290
     0
  0
SCALE
  5
1D6
102
{ACAD_REACTORS
330
1C1
102
}
330
1C1
100
AcDbScale
 70
     0
300
1'-0" = 1'-0"
140
12.0
141
12.0
290
     1
  0
TABLESTYLE
  5
1C4
102
{ACAD_XDICTIONARY
360
1C5
102
}
102
{ACAD_REACTORS
330
1C2
102
}
330
1C2
100
AcDbTableStyle
  3
Standard
 70
     0
 71
     0
 40
0.06
 41
0.06
280
     0
281
     0
  7
Standard
140
0.18
170
     2
 62
     0
 63
     7
283
     0
274
    -2
284
     1
 64
     0
275
    -2
285
     1
 65
     0
276
    -2
286
     1
 66
     0
277
    -2
287
     1
 67
     0
278
    -2
288
     1
 68
     0
279
    -2
289
     1
 69
     0
  7
Standard
140
0.25
170
     5
 62
     0
 63
     7
283
     0
274
    -2
284
     1
 64
     0
275
    -2
285
     1
 65
     0
276
    -2
286
     1
 66
     0
277
    -2
287
     1
 67
     0
278
    -2
288
     1
 68
     0
279
    -2
289
     1
 69
     0
  7
Standard
140
0.18
170
     5
 62
     0
 63
     7
283
     0
274
    -2
284
     1
 64
     0
275
    -2
285
     1
 65
     0
276
    -2
286
     1
 66
     0
277
    -2
287
     1
 67
     0
278
    -2
288
     1
 68
     0
279
    -2
289
     1
 69
     0
  0
VISUALSTYLE
  5
1A2
102
{ACAD_REACTORS
330
1A3
102
}
330
1A3
100
AcDbVisualStyle
  2
2dWireframe
 70
     4
 71
     0
 72
     2
 73
     0
 90
        0
 40
-0.6
 41
-30.0
 62
     5
 63
     7
 74
     1
 91
        4
 64
     7
 65
   257
 75
     1
175
     1
 42
1.0
 92
        0
 66
   257
 43
1.0
 76
     1
 77
     6
 78
     2
 67
     7
 79
     5
170
     0
171
     0
290
     0
174
     0
 93
        1
 44
0.0
173
     0
291
     0
 45
0.0
1001
ACAD
1000
AcDbSavedByObjectVersion
1070
     0
  0
VISUALSTYLE
  5
1C7
102
{ACAD_REACTORS
330
1A3
102
}
330
1A3
100
AcDbVisualStyle
  2
3dWireframe
 70
     5
 71
     0
 72
     2
 73
     0
 90
        0
 40
-0.6
 41
-30.0
 62
     5
 63
     7
 74
     1
 91
        4
 64
     7
 65
   257
 75
     1
175
     1
 42
1.0
 92
        0
 66
   257
 43
1.0
 76
     1
 77
     6
 78
     2
 67
     7
 79
     5
170
     0
171
     0
290
     0
174
     0
 93
        1
 44
0.0
173
     0
291
     0
 45
0.0
1001
ACAD
1000
AcDbSavedByObjectVersion
1070
     0
  0
VISUALSTYLE
  5
1C6
102
{ACAD_REACTORS
330
1A3
102
}
330
1A3
100
AcDbVisualStyle
  2
Realistic
 70
     8
 71
     2
 72
     2
 73
     0
 90
        0
 40
-0.6
 41
-30.0
 62
     5
 63
     7
 74
     1
 91
        0
 64
     7
 65
   257
 75
     1
175
     1
 42
1.0
 92
        8
 66
     8
 43
1.0
 76
     1
 77
     6
 78
     2
 67
     7
 79
     5
170
     0
171
     0
290
     0
174
     0
 93
       13
 44
0.0
173
     0
291
     0
 45
0.0
1001
ACAD
1000
AcDbSavedByObjectVersion
1070
     0
  0
DICTIONARYVAR
  5
1DD
102
{ACAD_REACTORS
330
1D9
102
}
330
1D9
100
DictionaryVariables
280
     0
  1
1'-0" = 1'-0"
  0
DICTIONARYVAR
  5
1DB
102
{ACAD_REACTORS
330
1D9
102
}
330
1D9
100
DictionaryVariables
280
     0
  1
STANDARD
  0
DICTIONARYVAR
  5
1DA
102
{ACAD_REACTORS
330
1D9
102
}
330
1D9
100
DictionaryVariables
280
     0
  1
STANDARD
  0
DICTIONARYVAR
  5
1E1
102
{ACAD_REACTORS
330
1D9
102
}
330
1D9
100
DictionaryVariables
280
     0
  1
1
  0
DICTIONARYVAR
  5
1E0
102
{ACAD_REACTORS
330
1D9
102
}
330
1D9
100
DictionaryVariables
280
     0
  1
1
  0
DICTIONARYVAR
  5
1DF
102
{ACAD_REACTORS
330
1D9
102
}
330
1D9
100
DictionaryVariables
280
     0
  1
0
  0
DICTIONARYVAR
  5
1DC
102
{ACAD_REACTORS
330
1D9
102
}
330
1D9
100
DictionaryVariables
280
     0
  1
1
  0
DICTIONARYVAR
  5
1DE
102
{ACAD_REACTORS
330
1D9
102
}
330
1D9
100
DictionaryVariables
280
     0
  1
127
  0
DICTIONARY
  5
1EA
330
1A8
100
AcDbDictionary
280
     1
281
     1
  3
ACAD_XREC_ROUNDTRIP
360
1EB
  0
DICTIONARY
  5
1E8
330
19F
100
AcDbDictionary
280
     1
281
     1
  3
ACAD_XREC_ROUNDTRIP
360
1E9
  0
DICTIONARY
  5
1EE
330
1BF
100
AcDbDictionary
280
     1
281
     1
  3
ACAD_XREC_ROUNDTRIP
360
1EF
  0
DICTIONARY
  5
1EC
330
1BE
100
AcDbDictionary
280
     1
281
     1
  3
ACAD_XREC_ROUNDTRIP
360
1ED
  0
DICTIONARY
  5
1E6
330
C
100
AcDbDictionary
280
     1
281
     1
  3
ACAD_XREC_ROUNDTRIP
360
1E7
  0
DICTIONARY
  5
1C5
330
1C4
100
AcDbDictionary
280
     1
281
     1
  3
ACAD_ROUNDTRIP_2008_TABLESTYLE_CELLSTYLEMAP
360
1E3
  3
ACAD_XREC_ROUNDTRIP
360
1F0
  0
XRECORD
  5
1EB
102
{ACAD_REACTORS
330
1EA
102
}
330
1EA
100
AcDbXrecord
280
     1
102
SHADEPLOT
 70
     0
102
SHADEPLOTRESLEVEL
 70
     2
102
SHADEPLOTCUSTOMDPI
 70
   300
  0
XRECORD
  5
1E9
102
{ACAD_REACTORS
330
1E8
102
}
330
1E8
100
AcDbXrecord
280
     1
102
SHADEPLOT
 70
     1
102
SHADEPLOTRESLEVEL
 70
     2
102
SHADEPLOTCUSTOMDPI
 70
   300
  0
XRECORD
  5
1EF
102
{ACAD_REACTORS
330
1EE
102
}
330
1EE
100
AcDbXrecord
280
     1
102
MATERIAL
148
0.0
149
0.0
149
0.0
 93
        0
 94
       63
282
     0
 72
     1
 77
     1
171
     1
175
     1
179
     1
273
     0
  0
XRECORD
  5
1ED
102
{ACAD_REACTORS
330
1EC
102
}
330
1EC
100
AcDbXrecord
280
     1
102
MATERIAL
148
0.0
149
0.0
149
0.0
 93
        0
 94
       63
282
     0
 72
     1
 77
     1
171
     1
175
     1
179
     1
273
     0
  0
XRECORD
  5
1E7
102
{ACAD_REACTORS
330
1E6
102
}
330
1E6
100
AcDbXrecord
280
     1
102
MATERIAL
148
0.0
149
0.0
149
0.0
 93
        0
 94
       63
282
     0
 72
     1
 77
     1
171
     1
175
     1
179
     1
273
     0
  0
CELLSTYLEMAP
  5
1E3
102
{ACAD_REACTORS
330
1C5
102
}
330
1C5
100
AcDbCellStyleMap
 90
        3
300
CELLSTYLE
  1
TABLEFORMAT_BEGIN
 90
        5
170
     1
 91
        0
 92
    32768
 62
   257
 93
        1
300
CONTENTFORMAT
  1
CONTENTFORMAT_BEGIN
 90
        0
 91
        0
 92
        4
 93
        0
300

 40
0.0
140
1.0
 94
        5
 62
     0
340
1AE
144
0.25
309
CONTENTFORMAT_END
171
     0
 94
        6
 95
        1
302
GRIDFORMAT
  1
GRIDFORMAT_BEGIN
 90
        0
 91
        1
 62
     0
 92
       -2
340
0
 93
        0
 40
0.045
309
GRIDFORMAT_END
 95
        2
302
GRIDFORMAT
  1
GRIDFORMAT_BEGIN
 90
        0
 91
        1
 62
     0
 92
       -2
340
0
 93
        0
 40
0.045
309
GRIDFORMAT_END
 95
        4
302
GRIDFORMAT
  1
GRIDFORMAT_BEGIN
 90
        0
 91
        1
 62
     0
 92
       -2
340
0
 93
        0
 40
0.045
309
GRIDFORMAT_END
 95
        8
302
GRIDFORMAT
  1
GRIDFORMAT_BEGIN
 90
        0
 91
        1
 62
     0
 92
       -2
340
0
 93
        0
 40
0.045
309
GRIDFORMAT_END
 95
       16
302
GRIDFORMAT
  1
GRIDFORMAT_BEGIN
 90
        0
 91
        1
 62
     0
 92
       -2
340
0
 93
        0
 40
0.045
309
GRIDFORMAT_END
 95
       32
302
GRIDFORMAT
  1
GRIDFORMAT_BEGIN
 90
        0
 91
        1
 62
     0
 92
       -2
340
0
 93
        0
 40
0.045
309
GRIDFORMAT_END
309
TABLEFORMAT_END
  1
CELLSTYLE_BEGIN
 90
        1
 91
        1
300
_TITLE
309
CELLSTYLE_END
300
CELLSTYLE
  1
TABLEFORMAT_BEGIN
 90
        5
170
     1
 91
        0
 92
        0
 62
   257
 93
        1
300
CONTENTFORMAT
  1
CONTENTFORMAT_BEGIN
 90
        0
 91
        0
 92
        4
 93
        0
300

 40
0.0
140
1.0
 94
        5
 62
     0
340
1AE
144
0.18
309
CONTENTFORMAT_END
171
     0
 94
        6
 95
        1
302
GRIDFORMAT
  1
GRIDFORMAT_BEGIN
 90
        0
 91
        1
 62
     0
 92
       -2
340
0
 93
        0
 40
0.045
309
GRIDFORMAT_END
 95
        2
302
GRIDFORMAT
  1
GRIDFORMAT_BEGIN
 90
        0
 91
        1
 62
     0
 92
       -2
340
0
 93
        0
 40
0.045
309
GRIDFORMAT_END
 95
        4
302
GRIDFORMAT
  1
GRIDFORMAT_BEGIN
 90
        0
 91
        1
 62
     0
 92
       -2
340
0
 93
        0
 40
0.045
309
GRIDFORMAT_END
 95
        8
302
GRIDFORMAT
  1
GRIDFORMAT_BEGIN
 90
        0
 91
        1
 62
     0
 92
       -2
340
0
 93
        0
 40
0.045
309
GRIDFORMAT_END
 95
       16
302
GRIDFORMAT
  1
GRIDFORMAT_BEGIN
 90
        0
 91
        1
 62
     0
 92
       -2
340
0
 93
        0
 40
0.045
309
GRIDFORMAT_END
 95
       32
302
GRIDFORMAT
  1
GRIDFORMAT_BEGIN
 90
        0
 91
        1
 62
     0
 92
       -2
340
0
 93
        0
 40
0.045
309
GRIDFORMAT_END
309
TABLEFORMAT_END
  1
CELLSTYLE_BEGIN
 90
        2
 91
        1
300
_HEADER
309
CELLSTYLE_END
300
CELLSTYLE
  1
TABLEFORMAT_BEGIN
 90
        5
170
     1
 91
        0
 92
        0
 62
   257
 93
        1
300
CONTENTFORMAT
  1
CONTENTFORMAT_BEGIN
 90
        0
 91
        0
 92
        4
 93
        0
300

 40
0.0
140
1.0
 94
        2
 62
     0
340
1AE
144
0.18
309
CONTENTFORMAT_END
171
     0
 94
        6
 95
        1
302
GRIDFORMAT
  1
GRIDFORMAT_BEGIN
 90
        0
 91
        1
 62
     0
 92
       -2
340
0
 93
        0
 40
0.045
309
GRIDFORMAT_END
 95
        2
302
GRIDFORMAT
  1
GRIDFORMAT_BEGIN
 90
        0
 91
        1
 62
     0
 92
       -2
340
0
 93
        0
 40
0.045
309
GRIDFORMAT_END
 95
        4
302
GRIDFORMAT
  1
GRIDFORMAT_BEGIN
 90
        0
 91
        1
 62
     0
 92
       -2
340
0
 93
        0
 40
0.045
309
GRIDFORMAT_END
 95
        8
302
GRIDFORMAT
  1
GRIDFORMAT_BEGIN
 90
        0
 91
        1
 62
     0
 92
       -2
340
0
 93
        0
 40
0.045
309
GRIDFORMAT_END
 95
       16
302
GRIDFORMAT
  1
GRIDFORMAT_BEGIN
 90
        0
 91
        1
 62
     0
 92
       -2
340
0
 93
        0
 40
0.045
309
GRIDFORMAT_END
 95
       32
302
GRIDFORMAT
  1
GRIDFORMAT_BEGIN
 90
        0
 91
        1
 62
     0
 92
       -2
340
0
 93
        0
 40
0.045
309
GRIDFORMAT_END
309
TABLEFORMAT_END
  1
CELLSTYLE_BEGIN
 90
        3
 91
        2
300
_DATA
309
CELLSTYLE_END
  0
XRECORD
  5
1F0
102
{ACAD_REACTORS
330
1C5
102
}
330
1C5
100
AcDbXrecord
280
     1
102
ACAD_ROUNDTRIP_PRE2007_TABLESTYLE
 90
        4
 91
        0
  1

 92
        4
 93
        0
  2

 94
        4
 95
        0
  3

  0
ENDSEC
  0
EOF
