  0
SECTION
  2
HEADER
  9
$ACADVER
  1
AC1015
  9
$ACADMAINTVER
 70
    20
  9
$DWGCODEPAGE
  3
ANSI_1250
  9
$INSBASE
 10
146275.1550857123
 20
-19613.99157909385
 30
0.0
  9
$EXTMIN
 10
3157.000031848591
 20
-2090.999992929974
 30
0.0
  9
$EXTMAX
 10
13357.00003184862
 20
11929.00000707002
 30
0.0
  9
$LIMMIN
 10
0.0
 20
0.0
  9
$LIMMAX
 10
420.0
 20
297.0
  9
$ORTHOMODE
 70
     0
  9
$REGENMODE
 70
     1
  9
$FILLMODE
 70
     1
  9
$QTEXTMODE
 70
     0
  9
$MIRRTEXT
 70
     0
  9
$LTSCALE
 40
100.0
  9
$ATTMODE
 70
     1
  9
$TEXTSIZE
 40
20.0
  9
$TRACEWID
 40
1.0
  9
$TEXTSTYLE
  7
ROMANS
  9
$CLAYER
  8
Defpoints
  9
$CELTYPE
  6
ByLayer
  9
$CECOLOR
 62
   256
  9
$CELTSCALE
 40
1.0
  9
$DISPSILH
 70
     0
  9
$DIMSCALE
 40
1.0
  9
$DIMASZ
 40
8.0
  9
$DIMEXO
 40
43.0
  9
$DIMDLI
 40
40.0
  9
$DIMRND
 40
0.5
  9
$DIMDLE
 40
12.0
  9
$DIMEXE
 40
13.0
  9
$DIMTP
 40
0.0
  9
$DIMTM
 40
0.0
  9
$DIMTXT
 40
16.0
  9
$DIMCEN
 40
15.0
  9
$DIMTSZ
 40
0.0
  9
$DIMTOL
 70
     0
  9
$DIMLIM
 70
     0
  9
$DIMTIH
 70
     0
  9
$DIMTOH
 70
     0
  9
$DIMSE1
 70
     1
  9
$DIMSE2
 70
     1
  9
$DIMTAD
 70
     0
  9
$DIMZIN
 70
     8
  9
$DIMBLK
  1
B-DIM
  9
$DIMASO
 70
     1
  9
$DIMSHO
 70
     1
  9
$DIMPOST
  1

  9
$DIMAPOST
  1

  9
$DIMALT
 70
     0
  9
$DIMALTD
 70
     2
  9
$DIMALTF
 40
25.4
  9
$DIMLFAC
 40
1.0
  9
$DIMTOFL
 70
     1
  9
$DIMTVP
 40
1.0
  9
$DIMTIX
 70
     1
  9
$DIMSOXD
 70
     0
  9
$DIMSAH
 70
     0
  9
$DIMBLK1
  1

  9
$DIMBLK2
  1

  9
$DIMSTYLE
  2
100-archon
  9
$DIMCLRD
 70
     1
  9
$DIMCLRE
 70
     1
  9
$DIMCLRT
 70
   140
  9
$DIMTFAC
 40
1.0
  9
$DIMGAP
 40
4.0
  9
$DIMJUST
 70
     0
  9
$DIMSD1
 70
     0
  9
$DIMSD2
 70
     0
  9
$DIMTOLJ
 70
     1
  9
$DIMTZIN
 70
     0
  9
$DIMALTZ
 70
     0
  9
$DIMALTTZ
 70
     0
  9
$DIMUPT
 70
     0
  9
$DIMDEC
 70
     1
  9
$DIMTDEC
 70
     1
  9
$DIMALTU
 70
     2
  9
$DIMALTTD
 70
     2
  9
$DIMTXSTY
  7
romansDIM
  9
$DIMAUNIT
 70
     0
  9
$DIMADEC
 70
     0
  9
$DIMALTRND
 40
0.0
  9
$DIMAZIN
 70
     0
  9
$DIMDSEP
 70
    46
  9
$DIMATFIT
 70
     3
  9
$DIMFRAC
 70
     0
  9
$DIMLDRBLK
  1
Dot
  9
$DIMLUNIT
 70
     2
  9
$DIMLWD
 70
     5
  9
$DIMLWE
 70
    -2
  9
$DIMTMOVE
 70
     2
  9
$LUNITS
 70
     2
  9
$LUPREC
 70
     2
  9
$SKETCHINC
 40
1.0
  9
$FILLETRAD
 40
0.0
  9
$AUNITS
 70
     0
  9
$AUPREC
 70
     2
  9
$MENU
  1
.
  9
$ELEVATION
 40
0.0
  9
$PELEVATION
 40
0.0
  9
$THICKNESS
 40
0.0
  9
$LIMCHECK
 70
     0
  9
$CHAMFERA
 40
10.0
  9
$CHAMFERB
 40
0.0
  9
$CHAMFERC
 40
20.0
  9
$CHAMFERD
 40
0.0
  9
$SKPOLY
 70
     0
  9
$TDCREATE
 40
2452027.670547454
  9
$TDUCREATE
 40
2452027.587214120
  9
$TDUPDATE
 40
2455330.533659028
  9
$TDUUPDATE
 40
2455330.450325694
  9
$TDINDWG
 40
7.2235577894
  9
$TDUSRTIMER
 40
7.2235577894
  9
$USRTIMER
 70
     1
  9
$ANGBASE
 50
0.0
  9
$ANGDIR
 70
     0
  9
$PDMODE
 70
     0
  9
$PDSIZE
 40
0.0
  9
$PLINEWID
 40
0.0
  9
$SPLFRAME
 70
     0
  9
$SPLINETYPE
 70
     6
  9
$SPLINESEGS
 70
     8
  9
$HANDSEED
  5
5D39
  9
$SURFTAB1
 70
     6
  9
$SURFTAB2
 70
     6
  9
$SURFTYPE
 70
     6
  9
$SURFU
 70
     6
  9
$SURFV
 70
     6
  9
$UCSBASE
  2

  9
$UCSNAME
  2

  9
$UCSORG
 10
0.0
 20
0.0
 30
0.0
  9
$UCSXDIR
 10
1.0
 20
0.0
 30
0.0
  9
$UCSYDIR
 10
0.0
 20
1.0
 30
0.0
  9
$UCSORTHOREF
  2

  9
$UCSORTHOVIEW
 70
     1
  9
$UCSORGTOP
 10
0.0
 20
0.0
 30
0.0
  9
$UCSORGBOTTOM
 10
0.0
 20
0.0
 30
0.0
  9
$UCSORGLEFT
 10
0.0
 20
0.0
 30
0.0
  9
$UCSORGRIGHT
 10
0.0
 20
0.0
 30
0.0
  9
$UCSORGFRONT
 10
0.0
 20
0.0
 30
0.0
  9
$UCSORGBACK
 10
0.0
 20
0.0
 30
0.0
  9
$PUCSBASE
  2

  9
$PUCSNAME
  2

  9
$PUCSORG
 10
0.0
 20
0.0
 30
0.0
  9
$PUCSXDIR
 10
1.0
 20
0.0
 30
0.0
  9
$PUCSYDIR
 10
0.0
 20
1.0
 30
0.0
  9
$PUCSORTHOREF
  2

  9
$PUCSORTHOVIEW
 70
     0
  9
$PUCSORGTOP
 10
0.0
 20
0.0
 30
0.0
  9
$PUCSORGBOTTOM
 10
0.0
 20
0.0
 30
0.0
  9
$PUCSORGLEFT
 10
0.0
 20
0.0
 30
0.0
  9
$PUCSORGRIGHT
 10
0.0
 20
0.0
 30
0.0
  9
$PUCSORGFRONT
 10
0.0
 20
0.0
 30
0.0
  9
$PUCSORGBACK
 10
0.0
 20
0.0
 30
0.0
  9
$USERI1
 70
     0
  9
$USERI2
 70
     0
  9
$USERI3
 70
     0
  9
$USERI4
 70
     0
  9
$USERI5
 70
     0
  9
$USERR1
 40
0.0
  9
$USERR2
 40
0.0
  9
$USERR3
 40
0.0
  9
$USERR4
 40
0.0
  9
$USERR5
 40
0.0
  9
$WORLDVIEW
 70
     1
  9
$SHADEDGE
 70
     3
  9
$SHADEDIF
 70
    70
  9
$TILEMODE
 70
     1
  9
$MAXACTVP
 70
    64
  9
$PINSBASE
 10
0.0
 20
0.0
 30
0.0
  9
$PLIMCHECK
 70
     0
  9
$PEXTMIN
 10
1.000000000000000E+20
 20
1.000000000000000E+20
 30
1.000000000000000E+20
  9
$PEXTMAX
 10
-1.000000000000000E+20
 20
-1.000000000000000E+20
 30
-1.000000000000000E+20
  9
$PLIMMIN
 10
0.0
 20
0.0
  9
$PLIMMAX
 10
420.0
 20
297.0
  9
$UNITMODE
 70
     0
  9
$VISRETAIN
 70
     1
  9
$PLINEGEN
 70
     0
  9
$PSLTSCALE
 70
     1
  9
$TREEDEPTH
 70
  3020
  9
$CMLSTYLE
  2
Standard
  9
$CMLJUST
 70
     0
  9
$CMLSCALE
 40
20.0
  9
$PROXYGRAPHICS
 70
     1
  9
$MEASUREMENT
 70
     0
  9
$CELWEIGHT
370
    -1
  9
$ENDCAPS
280
     0
  9
$JOINSTYLE
280
     0
  9
$LWDISPLAY
290
     0
  9
$INSUNITS
 70
     5
  9
$HYPERLINKBASE
  1

  9
$STYLESHEET
  1

  9
$XEDIT
290
     1
  9
$CEPSNTYPE
380
     0
  9
$PSTYLEMODE
290
     1
  9
$FINGERPRINTGUID
  2
{938A2469-3AF5-11D5-BC95-0050BABCE9EC}
  9
$VERSIONGUID
  2
{9987DCC1-1F16-4F0D-95CE-7A82726C3815}
  9
$EXTNAMES
290
     1
  9
$PSVPSCALE
 40
0.0
  9
$OLESTARTUP
290
     0
  0
ENDSEC
  0
SECTION
  2
CLASSES
  0
CLASS
  1
ACDBDICTIONARYWDFLT
  2
AcDbDictionaryWithDefault
  3
ObjectDBX Classes
 90
        0
280
     0
281
     0
  0
CLASS
  1
ACDBPLACEHOLDER
  2
AcDbPlaceHolder
  3
ObjectDBX Classes
 90
        0
280
     0
281
     0
  0
CLASS
  1
LAYOUT
  2
AcDbLayout
  3
ObjectDBX Classes
 90
        0
280
     0
281
     0
  0
CLASS
  1
DICTIONARYVAR
  2
AcDbDictionaryVar
  3
ObjectDBX Classes
 90
        0
280
     0
281
     0
  0
CLASS
  1
SORTENTSTABLE
  2
AcDbSortentsTable
  3
ObjectDBX Classes
 90
        0
280
     0
281
     0
  0
CLASS
  1
AEC_VARS_DWG_SETUP
  2
AecDbVarsDwgSetup
  3
AecBase50|Product Desc: Autodesk Architectural Desktop 2007 |Company: Autodesk,Inc. |WEB Address: www.autodesk.com
 90
      129
280
     0
281
     0
  0
CLASS
  1
AEC_DISP_REP_CONFIG
  2
AecDbDispRepConfig
  3
AecBase50|Product Desc: Autodesk Architectural Desktop 2007 |Company: Autodesk,Inc. |WEB Address: www.autodesk.com
 90
      129
280
     0
281
     0
  0
CLASS
  1
AEC_DISP_REP_SET
  2
AecDbDispRepSet
  3
AecBase50|Product Desc: Autodesk Architectural Desktop 2007 |Company: Autodesk,Inc. |WEB Address: www.autodesk.com
 90
      129
280
     0
281
     0
  0
CLASS
  1
AEC_DISP_REP_2D_SECTION
  2
AecDbDispRep2dSection
  3
AecBase50|Product Desc: Autodesk Architectural Desktop 2007 |Company: Autodesk,Inc. |WEB Address: www.autodesk.com
 90
      129
280
     0
281
     0
  0
CLASS
  1
AEC_DISP_REP_ANCHOR_BUB_TO_GRID
  2
AecDbDispRepAnchorBubToGrid
  3
AecStructureBase50|Product Desc: Autodesk Architectural Desktop 2007 |Company: Autodesk,Inc. |WEB Address: www.autodesk.com
 90
      129
280
     0
281
     0
  0
CLASS
  1
AEC_DISP_REP_ANCHOR_BUB_TO_GRID_MODEL
  2
AecDbDispRepAnchorBubToGridMdl
  3
AecStructureBase50|Product Desc: Autodesk Architectural Desktop 2007 |Company: Autodesk,Inc. |WEB Address: www.autodesk.com
 90
      129
280
     0
281
     0
  0
CLASS
  1
AEC_DISP_REP_ANCHOR_ENT_TO_NODE
  2
AecDbDispRepAnchorEntToNode
  3
AecBaseEx50|Product Desc: Autodesk Architectural Desktop 2007 |Company: Autodesk,Inc. |WEB Address: www.autodesk.com
 90
      129
280
     0
281
     0
  0
CLASS
  1
AEC_DISP_REP_ANCHOR_TAG_TO_ENT
  2
AecDbDispRepAnchorTagToEnt
  3
AecScheduleData50|Product Desc: Autodesk Architectural Desktop 2007 |Company: Autodesk,Inc. |WEB Address: www.autodesk.com
 90
      129
280
     0
281
     0
  0
CLASS
  1
AEC_DISP_REP_AREA
  2
AecDbDispRepArea
  3
AecAreaCalculationBase50|Product Desc: Autodesk Architectural Desktop 2007 |Company: Autodesk,Inc. |WEB Address: www.autodesk.com
 90
    32897
280
     0
281
     0
  0
CLASS
  1
AEC_DISP_REP_AREA_DECOMPOSED
  2
AecDbDispRepAreaDecomposed
  3
AecAreaCalculationBase50|Product Desc: Autodesk Architectural Desktop 2007 |Company: Autodesk,Inc. |WEB Address: www.autodesk.com
 90
    32897
280
     0
281
     0
  0
CLASS
  1
AEC_DISP_REP_AREAGROUP
  2
AecDbDispRepAreaGroup
  3
AecAreaCalculationBase50|Product Desc: Autodesk Architectural Desktop 2007 |Company: Autodesk,Inc. |WEB Address: www.autodesk.com
 90
    32897
280
     0
281
     0
  0
CLASS
  1
AEC_DISP_REP_BDG_ELEVLINE_MODEL
  2
AecDbDispRepBdgElevLineModel
  3
AecArchBase50|Product Desc: Autodesk Architectural Desktop 2007 |Company: Autodesk,Inc. |WEB Address: www.autodesk.com
 90
      129
280
     0
281
     0
  0
CLASS
  1
AEC_DISP_REP_BDG_SECTIONLINE_PLAN
  2
AecDbDispRepBdgElevLinePlan
  3
AecArchBase50|Product Desc: Autodesk Architectural Desktop 2007 |Company: Autodesk,Inc. |WEB Address: www.autodesk.com
 90
      129
280
     0
281
     0
  0
CLASS
  1
AEC_DISP_REP_BDG_SECTIONLINE_MODEL
  2
AecDbDispRepBdgSectionLineModel
  3
AecArchBase50|Product Desc: Autodesk Architectural Desktop 2007 |Company: Autodesk,Inc. |WEB Address: www.autodesk.com
 90
      129
280
     0
281
     0
  0
CLASS
  1
AEC_DISP_REP_BDG_SECTIONLINE_PLAN
  2
AecDbDispRepBdgSectionLinePlan
  3
AecArchBase50|Product Desc: Autodesk Architectural Desktop 2007 |Company: Autodesk,Inc. |WEB Address: www.autodesk.com
 90
      129
280
     0
281
     0
  0
CLASS
  1
AEC_DISP_REP_BDG_SECTION_SUBDIV
  2
AecDbDispRepBdgSectionSubDiv
  3
AecArchBase50|Product Desc: Autodesk Architectural Desktop 2007 |Company: Autodesk,Inc. |WEB Address: www.autodesk.com
 90
      129
280
     0
281
     0
  0
CLASS
  1
AEC_DISP_REP_CAMERA
  2
AecDbDispRepCamera
  3
AecBase50|Product Desc: Autodesk Architectural Desktop 2007 |Company: Autodesk,Inc. |WEB Address: www.autodesk.com
 90
    32897
280
     0
281
     0
  0
CLASS
  1
AEC_DISP_REP_CEILING_GRID
  2
AecDbDispRepCeilingGrid
  3
AecArchBase50|Product Desc: Autodesk Architectural Desktop 2007 |Company: Autodesk,Inc. |WEB Address: www.autodesk.com
 90
      893
280
     0
281
     0
  0
CLASS
  1
AEC_DISP_REP_CEILING_GRID_MODEL
  2
AecDbDispRepCeilingGridModel
  3
AecArchBase50|Product Desc: Autodesk Architectural Desktop 2007 |Company: Autodesk,Inc. |WEB Address: www.autodesk.com
 90
      129
280
     0
281
     0
  0
CLASS
  1
AEC_DISP_REP_CEILING_GRID_RCP
  2
AecDbDispRepCeilingGridRcp
  3
AecArchBase50|Product Desc: Autodesk Architectural Desktop 2007 |Company: Autodesk,Inc. |WEB Address: www.autodesk.com
 90
      129
280
     0
281
     0
  0
CLASS
  1
AEC_DISP_REP_CLIP_VOLUME_MODEL
  2
AecDbDispRepClipVolModel
  3
AecBase50|Product Desc: Autodesk Architectural Desktop 2007 |Company: Autodesk,Inc. |WEB Address: www.autodesk.com
 90
      129
280
     0
281
     0
  0
CLASS
  1
AEC_DISP_REP_CLIP_VOLUME_PLAN
  2
AecDbDispRepClipVolPlan
  3
AecBase50|Product Desc: Autodesk Architectural Desktop 2007 |Company: Autodesk,Inc. |WEB Address: www.autodesk.com
 90
      129
280
     0
281
     0
  0
CLASS
  1
AEC_DISP_REP_CLIP_VOLUME_RESULT_SUBDIV
  2
AecDbDispRepClipVolResSubDiv
  3
AecBase50|Product Desc: Autodesk Architectural Desktop 2007 |Company: Autodesk,Inc. |WEB Address: www.autodesk.com
 90
      129
280
     0
281
     0
  0
CLASS
  1
AEC_DISP_REP_CLIP_VOLUME_RESULT
  2
AecDbDispRepClipVolResult
  3
AecBase50|Product Desc: Autodesk Architectural Desktop 2007 |Company: Autodesk,Inc. |WEB Address: www.autodesk.com
 90
      129
280
     0
281
     0
  0
CLASS
  1
AEC_DISP_REP_COLUMN_GRID
  2
AecDbDispRepColumnGrid
  3
AecStructureBase50|Product Desc: Autodesk Architectural Desktop 2007 |Company: Autodesk,Inc. |WEB Address: www.autodesk.com
 90
      129
280
     0
281
     0
  0
CLASS
  1
AEC_DISP_REP_COLUMN_GRID_MODEL
  2
AecDbDispRepColumnGridModel
  3
AecStructureBase50|Product Desc: Autodesk Architectural Desktop 2007 |Company: Autodesk,Inc. |WEB Address: www.autodesk.com
 90
      129
280
     0
281
     0
  0
CLASS
  1
AEC_DISP_REP_CURTAIN_WALL_LAYOUT_MODEL
  2
AecDbDispRepCurtainWallLayoutModel
  3
AecArchBase50|Product Desc: Autodesk Architectural Desktop 2007 |Company: Autodesk,Inc. |WEB Address: www.autodesk.com
 90
      129
280
     0
281
     0
  0
CLASS
  1
AEC_DISP_REP_CURTAIN_WALL_LAYOUT_PLAN
  2
AecDbDispRepCurtainWallLayoutPlan
  3
AecArchBase50|Product Desc: Autodesk Architectural Desktop 2007 |Company: Autodesk,Inc. |WEB Address: www.autodesk.com
 90
      129
280
     0
281
     0
  0
CLASS
  1
AEC_DISP_REP_CURTAIN_WALL_UNIT_MODEL
  2
AecDbDispRepCurtainWallUnitModel
  3
AecArchBase50|Product Desc: Autodesk Architectural Desktop 2007 |Company: Autodesk,Inc. |WEB Address: www.autodesk.com
 90
      129
280
     0
281
     0
  0
CLASS
  1
AEC_DISP_REP_CURTAIN_WALL_UNIT_PLAN
  2
AecDbDispRepCurtainWallUnitPlan
  3
AecArchBase50|Product Desc: Autodesk Architectural Desktop 2007 |Company: Autodesk,Inc. |WEB Address: www.autodesk.com
 90
      129
280
     0
281
     0
  0
CLASS
  1
AEC_DB_DISP_REP_DIM_GROUP_PLAN
  2
AecDbDispRepDimGroupPlan
  3
AecArchDACHBase50|Product Desc: Autodesk Architectural Desktop 2007 |Company: Autodesk,Inc. |WEB Address: www.autodesk.com
 90
      129
280
     0
281
     0
  0
CLASS
  1
AEC_DISP_REP_DOOR_MODEL
  2
AecDbDispRepDoorModel
  3
AecArchBase50|Product Desc: Autodesk Architectural Desktop 2007 |Company: Autodesk,Inc. |WEB Address: www.autodesk.com
 90
      129
280
     0
281
     0
  0
CLASS
  1
AEC_DISP_REP_DOOR_NOMINAL
  2
AecDbDispRepDoorNominal
  3
AecArchBase50|Product Desc: Autodesk Architectural Desktop 2007 |Company: Autodesk,Inc. |WEB Address: www.autodesk.com
 90
      129
280
     0
281
     0
  0
CLASS
  1
AEC_DISP_REP_DOOR_PLAN
  2
AecDbDispRepDoorPlan
  3
AecArchBase50|Product Desc: Autodesk Architectural Desktop 2007 |Company: Autodesk,Inc. |WEB Address: www.autodesk.com
 90
      129
280
     0
281
     0
  0
CLASS
  1
AEC_DISP_REP_EDITINPLACEPROFILE
  2
AecDbDispRepEditInPlaceProfile
  3
AecBase50|Product Desc: Autodesk Architectural Desktop 2007 |Company: Autodesk,Inc. |WEB Address: www.autodesk.com
 90
      129
280
     0
281
     0
  0
CLASS
  1
AEC_DISP_REP_ENT_REF
  2
AecDbDispRepEntRef
  3
AecBase50|Product Desc: Autodesk Architectural Desktop 2007 |Company: Autodesk,Inc. |WEB Address: www.autodesk.com
 90
      129
280
     0
281
     0
  0
CLASS
  1
AEC_DISP_REP_LAYOUT_CURVE
  2
AecDbDispRepLayoutCurve
  3
AecBase50|Product Desc: Autodesk Architectural Desktop 2007 |Company: Autodesk,Inc. |WEB Address: www.autodesk.com
 90
      129
280
     0
281
     0
  0
CLASS
  1
AEC_DISP_REP_LAYOUT_GRID2D
  2
AecDbDispRepLayoutGrid2d
  3
AecBase50|Product Desc: Autodesk Architectural Desktop 2007 |Company: Autodesk,Inc. |WEB Address: www.autodesk.com
 90
      129
280
     0
281
     0
  0
CLASS
  1
AEC_DISP_REP_LAYOUT_GRID3D
  2
AecDbDispRepLayoutGrid3d
  3
AecBase50|Product Desc: Autodesk Architectural Desktop 2007 |Company: Autodesk,Inc. |WEB Address: www.autodesk.com
 90
      129
280
     0
281
     0
  0
CLASS
  1
AEC_DISP_REP_MASKBLOCK_REF
  2
AecDbDispRepMaskBlockRef
  3
AecBase50|Product Desc: Autodesk Architectural Desktop 2007 |Company: Autodesk,Inc. |WEB Address: www.autodesk.com
 90
      129
280
     0
281
     0
  0
CLASS
  1
AEC_DISP_REP_MASKBLOCK_REF_RCP
  2
AecDbDispRepMaskBlockRefRcp
  3
AecArchBase50|Product Desc: Autodesk Architectural Desktop 2007 |Company: Autodesk,Inc. |WEB Address: www.autodesk.com
 90
      129
280
     0
281
     0
  0
CLASS
  1
AEC_DISP_REP_MASS_ELEM_MODEL
  2
AecDbDispRepMassElemModel
  3
AecBaseEx50|Product Desc: Autodesk Architectural Desktop 2007 |Company: Autodesk,Inc. |WEB Address: www.autodesk.com
 90
      129
280
     0
281
     0
  0
CLASS
  1
AEC_DISP_REP_MASS_ELEM_SCHEM
  2
AecDbDispRepMassElemSchem
  3
AecBaseEx50|Product Desc: Autodesk Architectural Desktop 2007 |Company: Autodesk,Inc. |WEB Address: www.autodesk.com
 90
      129
280
     0
281
     0
  0
CLASS
  1
AEC_DISP_REP_MASS_GROUP_MODEL
  2
AecDbDispRepMassGroupModel
  3
AecBaseEx50|Product Desc: Autodesk Architectural Desktop 2007 |Company: Autodesk,Inc. |WEB Address: www.autodesk.com
 90
      129
280
     0
281
     0
  0
CLASS
  1
AEC_DISP_REP_MASS_GROUP_PLAN
  2
AecDbDispRepMassGroupPlan
  3
AecBaseEx50|Product Desc: Autodesk Architectural Desktop 2007 |Company: Autodesk,Inc. |WEB Address: www.autodesk.com
 90
      129
280
     0
281
     0
  0
CLASS
  1
AEC_DISP_REP_MATERIAL
  2
AecDbDispRepMaterial
  3
AecBase50|Product Desc: Autodesk Architectural Desktop 2007 |Company: Autodesk,Inc. |WEB Address: www.autodesk.com
 90
      129
280
     0
281
     0
  0
CLASS
  1
AEC_DISP_REP_MVBLOCK_REF
  2
AecDbDispRepMvBlockRef
  3
AecBase50|Product Desc: Autodesk Architectural Desktop 2007 |Company: Autodesk,Inc. |WEB Address: www.autodesk.com
 90
      129
280
     0
281
     0
  0
CLASS
  1
AEC_DISP_REP_MVBLOCK_REF_MODEL
  2
AecDbDispRepMvBlockRefModel
  3
AecBase50|Product Desc: Autodesk Architectural Desktop 2007 |Company: Autodesk,Inc. |WEB Address: www.autodesk.com
 90
      129
280
     0
281
     0
  0
CLASS
  1
AEC_DISP_REP_OPENING
  2
AecDbDispRepOpening
  3
AecArchBase50|Product Desc: Autodesk Architectural Desktop 2007 |Company: Autodesk,Inc. |WEB Address: www.autodesk.com
 90
      129
280
     0
281
     0
  0
CLASS
  1
AEC_DISP_REP_OPENING_MODEL
  2
AecDbDispRepOpeningModel
  3
AecArchBase50|Product Desc: Autodesk Architectural Desktop 2007 |Company: Autodesk,Inc. |WEB Address: www.autodesk.com
 90
      129
280
     0
281
     0
  0
CLASS
  1
AEC_DISP_REP_POLYGON_MODEL
  2
AecDbDispRepPolygonModel
  3
AecBaseEx50|Product Desc: Autodesk Architectural Desktop 2007 |Company: Autodesk,Inc. |WEB Address: www.autodesk.com
 90
      129
280
     0
281
     0
  0
CLASS
  1
AEC_DISP_REP_RAILING_MODEL
  2
AecDbDispRepRailingModel
  3
AecArchBase50|Product Desc: Autodesk Architectural Desktop 2007 |Company: Autodesk,Inc. |WEB Address: www.autodesk.com
 90
      129
280
     0
281
     0
  0
CLASS
  1
AEC_DISP_REP_RAILING_PLAN
  2
AecDbDispRepRailingPlan
  3
AecArchBase50|Product Desc: Autodesk Architectural Desktop 2007 |Company: Autodesk,Inc. |WEB Address: www.autodesk.com
 90
      129
280
     0
281
     0
  0
CLASS
  1
AEC_DISP_REP_ROOF_MODEL
  2
AecDbDispRepRoofModel
  3
AecArchBase50|Product Desc: Autodesk Architectural Desktop 2007 |Company: Autodesk,Inc. |WEB Address: www.autodesk.com
 90
      129
280
     0
281
     0
  0
CLASS
  1
AEC_DISP_REP_ROOF_PLAN
  2
AecDbDispRepRoofPlan
  3
AecArchBase50|Product Desc: Autodesk Architectural Desktop 2007 |Company: Autodesk,Inc. |WEB Address: www.autodesk.com
 90
      129
280
     0
281
     0
  0
CLASS
  1
AEC_DISP_REP_ROOFSLAB_MODEL
  2
AecDbDispRepRoofSlabModel
  3
AecArchBase50|Product Desc: Autodesk Architectural Desktop 2007 |Company: Autodesk,Inc. |WEB Address: www.autodesk.com
 90
      129
280
     0
281
     0
  0
CLASS
  1
AEC_DISP_REP_ROOFSLAB_PLAN
  2
AecDbDispRepRoofSlabPlan
  3
AecArchBase50|Product Desc: Autodesk Architectural Desktop 2007 |Company: Autodesk,Inc. |WEB Address: www.autodesk.com
 90
      129
280
     0
281
     0
  0
CLASS
  1
AEC_DISP_REP_SCHEDULE_TABLE
  2
AecDbDispRepScheduleTable
  3
AecSchedule50|Product Desc: Autodesk Architectural Desktop 2007 |Company: Autodesk,Inc. |WEB Address: www.autodesk.com
 90
      129
280
     0
281
     0
  0
CLASS
  1
AEC_DISP_REP_SLAB_MODEL
  2
AecDbDispRepSlabModel
  3
AecArchBase50|Product Desc: Autodesk Architectural Desktop 2007 |Company: Autodesk,Inc. |WEB Address: www.autodesk.com
 90
      129
280
     0
281
     0
  0
CLASS
  1
AEC_DISP_REP_SLAB_PLAN
  2
AecDbDispRepSlabPlan
  3
AecArchBase50|Product Desc: Autodesk Architectural Desktop 2007 |Company: Autodesk,Inc. |WEB Address: www.autodesk.com
 90
      129
280
     0
281
     0
  0
CLASS
  1
AEC_DISP_REP_SLICE
  2
AecDbDispRepSlice
  3
AecBase50|Product Desc: Autodesk Architectural Desktop 2007 |Company: Autodesk,Inc. |WEB Address: www.autodesk.com
 90
      129
280
     0
281
     0
  0
CLASS
  1
AEC_DISP_REP_SPACE_BOUNDARY_MODEL
  2
AecDbDispRepSpaceBoundaryModel
  3
AecArchBase50|Product Desc: Autodesk Architectural Desktop 2007 |Company: Autodesk,Inc. |WEB Address: www.autodesk.com
 90
    32897
280
     0
281
     0
  0
CLASS
  1
AEC_DISP_REP_SPACE_BOUNDARY_PLAN
  2
AecDbDispRepSpaceBoundaryPlan
  3
AecArchBase50|Product Desc: Autodesk Architectural Desktop 2007 |Company: Autodesk,Inc. |WEB Address: www.autodesk.com
 90
    32897
280
     0
281
     0
  0
CLASS
  1
AEC_DISP_REP_SPACE_BOUNDARY_SCHEM
  2
AecDbDispRepSpaceBoundarySketch
  3
AecArchBase50|Product Desc: Autodesk Architectural Desktop 2007 |Company: Autodesk,Inc. |WEB Address: www.autodesk.com
 90
    32897
280
     0
281
     0
  0
CLASS
  1
AEC_DISP_REP_SPACE_MODEL
  2
AecDbDispRepSpaceModel
  3
AecArchBase50|Product Desc: Autodesk Architectural Desktop 2007 |Company: Autodesk,Inc. |WEB Address: www.autodesk.com
 90
      129
280
     0
281
     0
  0
CLASS
  1
AEC_DISP_REP_SPACE_PLAN
  2
AecDbDispRepSpacePlan
  3
AecArchBase50|Product Desc: Autodesk Architectural Desktop 2007 |Company: Autodesk,Inc. |WEB Address: www.autodesk.com
 90
      129
280
     0
281
     0
  0
CLASS
  1
AEC_DISP_REP_STAIR_MODEL
  2
AecDbDispRepStairModel
  3
AecArchBase50|Product Desc: Autodesk Architectural Desktop 2007 |Company: Autodesk,Inc. |WEB Address: www.autodesk.com
 90
      129
280
     0
281
     0
  0
CLASS
  1
AEC_DISP_REP_STAIR_PLAN
  2
AecDbDispRepStairPlan
  3
AecArchBase50|Product Desc: Autodesk Architectural Desktop 2007 |Company: Autodesk,Inc. |WEB Address: www.autodesk.com
 90
      129
280
     0
281
     0
  0
CLASS
  1
AEC_DISP_REP_WALL_GRAPH
  2
AecDbDispRepWallGraph
  3
AecArchBase50|Product Desc: Autodesk Architectural Desktop 2007 |Company: Autodesk,Inc. |WEB Address: www.autodesk.com
 90
      129
280
     0
281
     0
  0
CLASS
  1
AEC_DISP_REP_WALL_MODEL
  2
AecDbDispRepWallModel
  3
AecArchBase50|Product Desc: Autodesk Architectural Desktop 2007 |Company: Autodesk,Inc. |WEB Address: www.autodesk.com
 90
      129
280
     0
281
     0
  0
CLASS
  1
AEC_DISP_REP_WALL_PLAN
  2
AecDbDispRepWallPlan
  3
AecArchBase50|Product Desc: Autodesk Architectural Desktop 2007 |Company: Autodesk,Inc. |WEB Address: www.autodesk.com
 90
      129
280
     0
281
     0
  0
CLASS
  1
AEC_DISP_REP_WALL_SCHEM
  2
AecDbDispRepWallSchem
  3
AecArchBase50|Product Desc: Autodesk Architectural Desktop 2007 |Company: Autodesk,Inc. |WEB Address: www.autodesk.com
 90
      129
280
     0
281
     0
  0
CLASS
  1
AEC_DISP_REP_WINDOW_ASSEMBLY_MODEL
  2
AecDbDispRepWindowAssemblyModel
  3
AecArchBase50|Product Desc: Autodesk Architectural Desktop 2007 |Company: Autodesk,Inc. |WEB Address: www.autodesk.com
 90
      129
280
     0
281
     0
  0
CLASS
  1
AEC_DISP_REP_WINDOW_ASSEMBLY_PLAN
  2
AecDbDispRepWindowAssemblyPlan
  3
AecArchBase50|Product Desc: Autodesk Architectural Desktop 2007 |Company: Autodesk,Inc. |WEB Address: www.autodesk.com
 90
      129
280
     0
281
     0
  0
CLASS
  1
AEC_AECDBDISPREPWINDOWASSEMBLYPLAN100
  2
AecDbDispRepWindowAssemblyPlan100
  3
AecArchDACHBase50|Product Desc: Autodesk Architectural Desktop 2007 |Company: Autodesk,Inc. |WEB Address: www.autodesk.com
 90
      129
280
     0
281
     0
  0
CLASS
  1
AEC_DISP_REP_WINDOW_MODEL
  2
AecDbDispRepWindowModel
  3
AecArchBase50|Product Desc: Autodesk Architectural Desktop 2007 |Company: Autodesk,Inc. |WEB Address: www.autodesk.com
 90
      129
280
     0
281
     0
  0
CLASS
  1
AEC_DISP_REP_WINDOW_NOMINAL
  2
AecDbDispRepWindowNominal
  3
AecArchBase50|Product Desc: Autodesk Architectural Desktop 2007 |Company: Autodesk,Inc. |WEB Address: www.autodesk.com
 90
      129
280
     0
281
     0
  0
CLASS
  1
AEC_DISP_REP_WINDOW_PLAN
  2
AecDbDispRepWindowPlan
  3
AecArchBase50|Product Desc: Autodesk Architectural Desktop 2007 |Company: Autodesk,Inc. |WEB Address: www.autodesk.com
 90
      129
280
     0
281
     0
  0
CLASS
  1
AECS_DISP_REP_MEMBER_LOGICAL
  2
AecsDbDispRepMemberLogical
  3
AecStructureBase50|Product Desc: Autodesk Architectural Desktop 2007 |Company: Autodesk,Inc. |WEB Address: www.autodesk.com
 90
      129
280
     0
281
     0
  0
CLASS
  1
AECS_DISP_REP_MEMBER_MODEL_DESIGN
  2
AecsDbDispRepMemberModelDesign
  3
AecStructureBase50|Product Desc: Autodesk Architectural Desktop 2007 |Company: Autodesk,Inc. |WEB Address: www.autodesk.com
 90
      129
280
     0
281
     0
  0
CLASS
  1
AECS_DISP_REP_MEMBER_PLAN_DESIGN
  2
AecsDbDispRepMemberPlanDesign
  3
AecStructureBase50|Product Desc: Autodesk Architectural Desktop 2007 |Company: Autodesk,Inc. |WEB Address: www.autodesk.com
 90
      129
280
     0
281
     0
  0
CLASS
  1
AEC_DISP_PROPS_ENT
  2
AecDbDispPropsEnt
  3
AecBase50|Product Desc: Autodesk Architectural Desktop 2007 |Company: Autodesk,Inc. |WEB Address: www.autodesk.com
 90
      129
280
     0
281
     0
  0
CLASS
  1
AEC_DISP_PROPS_CLIP_VOLUME
  2
AecDbDispPropsClipVol
  3
AecBase50|Product Desc: Autodesk Architectural Desktop 2007 |Company: Autodesk,Inc. |WEB Address: www.autodesk.com
 90
      129
280
     0
281
     0
  0
CLASS
  1
AEC_DISP_PROPS_SLICE
  2
AecDbDispPropsSlice
  3
AecBase50|Product Desc: Autodesk Architectural Desktop 2007 |Company: Autodesk,Inc. |WEB Address: www.autodesk.com
 90
      129
280
     0
281
     0
  0
CLASS
  1
AEC_DISP_PROPS_ROOFSLAB_PLAN
  2
AecDbDispPropsRoofSlabPlan
  3
AecArchBase50|Product Desc: Autodesk Architectural Desktop 2007 |Company: Autodesk,Inc. |WEB Address: www.autodesk.com
 90
      129
280
     0
281
     0
  0
CLASS
  1
AEC_DISP_PROPS_GRID_ASSEMBLY_MODEL
  2
AecDbDispPropsGridAssemblyModel
  3
AecArchBase50|Product Desc: Autodesk Architectural Desktop 2007 |Company: Autodesk,Inc. |WEB Address: www.autodesk.com
 90
      129
280
     0
281
     0
  0
CLASS
  1
AEC_DISP_PROPS_ROOF
  2
AecDbDispPropsRoof
  3
AecArchBase50|Product Desc: Autodesk Architectural Desktop 2007 |Company: Autodesk,Inc. |WEB Address: www.autodesk.com
 90
      129
280
     0
281
     0
  0
CLASS
  1
AEC_DISP_PROPS_SPACE_MODEL
  2
AecDbDispPropsSpaceModel
  3
AecArchBase50|Product Desc: Autodesk Architectural Desktop 2007 |Company: Autodesk,Inc. |WEB Address: www.autodesk.com
 90
      129
280
     0
281
     0
  0
CLASS
  1
AEC_DISP_PROPS_EDITINPLACEPROFILE_MODEL
  2
AecDbDispPropsEditInPlaceProfile
  3
AecBase50|Product Desc: Autodesk Architectural Desktop 2007 |Company: Autodesk,Inc. |WEB Address: www.autodesk.com
 90
      129
280
     0
281
     0
  0
CLASS
  1
AEC_DISP_PROPS_DOOR
  2
AecDbDispPropsDoor
  3
AecArchBase50|Product Desc: Autodesk Architectural Desktop 2007 |Company: Autodesk,Inc. |WEB Address: www.autodesk.com
 90
      129
280
     0
281
     0
  0
CLASS
  1
AEC_DISP_PROPS_MASKBLOCK
  2
AecDbDispPropsMaskBlock
  3
AecBase50|Product Desc: Autodesk Architectural Desktop 2007 |Company: Autodesk,Inc. |WEB Address: www.autodesk.com
 90
      129
280
     0
281
     0
  0
CLASS
  1
AEC_DISP_PROPS_SPACE_PLAN
  2
AecDbDispPropsSpacePlan
  3
AecArchBase50|Product Desc: Autodesk Architectural Desktop 2007 |Company: Autodesk,Inc. |WEB Address: www.autodesk.com
 90
      129
280
     0
281
     0
  0
CLASS
  1
AEC_DISP_PROPS_RAILING_PLAN
  2
AecDbDispPropsRailingPlan
  3
AecArchBase50|Product Desc: Autodesk Architectural Desktop 2007 |Company: Autodesk,Inc. |WEB Address: www.autodesk.com
 90
      129
280
     0
281
     0
  0
CLASS
  1
AEC_DISP_PROPS_LAYOUT_GRID2D
  2
AecDbDispPropsLayoutGrid2d
  3
AecBase50|Product Desc: Autodesk Architectural Desktop 2007 |Company: Autodesk,Inc. |WEB Address: www.autodesk.com
 90
      129
280
     0
281
     0
  0
CLASS
  1
AEC_DISP_PROPS_CLIP_VOLUME_RESULT
  2
AecDbDispPropsClipVolResSubDiv
  3
AecBase50|Product Desc: Autodesk Architectural Desktop 2007 |Company: Autodesk,Inc. |WEB Address: www.autodesk.com
 90
      129
280
     0
281
     0
  0
CLASS
  1
AEC_DISP_PROPS_STAIR_MODEL
  2
AecDbDispPropsStairModel
  3
AecArchBase50|Product Desc: Autodesk Architectural Desktop 2007 |Company: Autodesk,Inc. |WEB Address: www.autodesk.com
 90
      129
280
     0
281
     0
  0
CLASS
  1
AEC_DISP_PROPS_LAYOUT_CURVE
  2
AecDbDispPropsLayoutCurve
  3
AecBase50|Product Desc: Autodesk Architectural Desktop 2007 |Company: Autodesk,Inc. |WEB Address: www.autodesk.com
 90
      129
280
     0
281
     0
  0
CLASS
  1
AEC_DISP_PROPS_POLYGON_MODEL
  2
AecDbDispPropsPolygonModel
  3
AecBaseEx50|Product Desc: Autodesk Architectural Desktop 2007 |Company: Autodesk,Inc. |WEB Address: www.autodesk.com
 90
      129
280
     0
281
     0
  0
CLASS
  1
AEC_DISP_PROPS_MASS_GROUP
  2
AecDbDispPropsMassGroup
  3
AecBaseEx50|Product Desc: Autodesk Architectural Desktop 2007 |Company: Autodesk,Inc. |WEB Address: www.autodesk.com
 90
      129
280
     0
281
     0
  0
CLASS
  1
AEC_DISP_PROPS_STAIR_PLAN
  2
AecDbDispPropsStairPlan
  3
AecArchBase50|Product Desc: Autodesk Architectural Desktop 2007 |Company: Autodesk,Inc. |WEB Address: www.autodesk.com
 90
      129
280
     0
281
     0
  0
CLASS
  1
AEC_DISP_PROPS_OPENING
  2
AecDbDispPropsOpening
  3
AecArchBase50|Product Desc: Autodesk Architectural Desktop 2007 |Company: Autodesk,Inc. |WEB Address: www.autodesk.com
 90
      129
280
     0
281
     0
  0
CLASS
  1
AEC_DISP_PROPS_WALL_GRAPH
  2
AecDbDispPropsWallGraph
  3
AecArchBase50|Product Desc: Autodesk Architectural Desktop 2007 |Company: Autodesk,Inc. |WEB Address: www.autodesk.com
 90
      129
280
     0
281
     0
  0
CLASS
  1
AEC_DISP_PROPS_DOOR_NOMINAL
  2
AecDbDispPropsDoorNominal
  3
AecArchBase50|Product Desc: Autodesk Architectural Desktop 2007 |Company: Autodesk,Inc. |WEB Address: www.autodesk.com
 90
      129
280
     0
281
     0
  0
CLASS
  1
AEC_DISP_PROPS_SLAB
  2
AecDbDispPropsSlab
  3
AecArchBase50|Product Desc: Autodesk Architectural Desktop 2007 |Company: Autodesk,Inc. |WEB Address: www.autodesk.com
 90
      129
280
     0
281
     0
  0
CLASS
  1
AEC_DISP_PROPS_WALL_MODEL
  2
AecDbDispPropsWallModel
  3
AecArchBase50|Product Desc: Autodesk Architectural Desktop 2007 |Company: Autodesk,Inc. |WEB Address: www.autodesk.com
 90
      129
280
     0
281
     0
  0
CLASS
  1
AEC_DISP_PROPS_MATERIAL
  2
AecDbDispPropsMaterial
  3
AecBase50|Product Desc: Autodesk Architectural Desktop 2007 |Company: Autodesk,Inc. |WEB Address: www.autodesk.com
 90
      129
280
     0
281
     0
  0
CLASS
  1
AEC_DISP_PROPS_WINDOW
  2
AecDbDispPropsWindow
  3
AecArchBase50|Product Desc: Autodesk Architectural Desktop 2007 |Company: Autodesk,Inc. |WEB Address: www.autodesk.com
 90
      129
280
     0
281
     0
  0
CLASS
  1
AEC_DISP_PROPS_LAYOUT_GRID3D
  2
AecDbDispPropsLayoutGrid3d
  3
AecBase50|Product Desc: Autodesk Architectural Desktop 2007 |Company: Autodesk,Inc. |WEB Address: www.autodesk.com
 90
      129
280
     0
281
     0
  0
CLASS
  1
AEC_DISP_PROPS_GRID_ASSEMBLY_PLAN
  2
AecDbDispPropsGridAssemblyPlan
  3
AecArchBase50|Product Desc: Autodesk Architectural Desktop 2007 |Company: Autodesk,Inc. |WEB Address: www.autodesk.com
 90
      129
280
     0
281
     0
  0
CLASS
  1
AEC_DISP_PROPS_WALL_SCHEM
  2
AecDbDispPropsWallSchem
  3
AecArchBase50|Product Desc: Autodesk Architectural Desktop 2007 |Company: Autodesk,Inc. |WEB Address: www.autodesk.com
 90
      129
280
     0
281
     0
  0
CLASS
  1
AEC_DISP_PROPS_WALL_PLAN
  2
AecDbDispPropsWallPlan
  3
AecArchBase50|Product Desc: Autodesk Architectural Desktop 2007 |Company: Autodesk,Inc. |WEB Address: www.autodesk.com
 90
      129
280
     0
281
     0
  0
CLASS
  1
AEC_DISP_PROPS_SPACE_BOUNDARY
  2
AecDbDispPropsSpaceBoundary
  3
AecArchBase50|Product Desc: Autodesk Architectural Desktop 2007 |Company: Autodesk,Inc. |WEB Address: www.autodesk.com
 90
    32897
280
     0
281
     0
  0
CLASS
  1
AEC_DISP_PROPS_SLAB_PLAN
  2
AecDbDispPropsSlabPlan
  3
AecArchBase50|Product Desc: Autodesk Architectural Desktop 2007 |Company: Autodesk,Inc. |WEB Address: www.autodesk.com
 90
      129
280
     0
281
     0
  0
CLASS
  1
AEC_DISP_PROPS_RAILING_MODEL
  2
AecDbDispPropsRailingModel
  3
AecArchBase50|Product Desc: Autodesk Architectural Desktop 2007 |Company: Autodesk,Inc. |WEB Address: www.autodesk.com
 90
      129
280
     0
281
     0
  0
CLASS
  1
AEC_DISP_PROPS_MASS_ELEM_MODEL
  2
AecDbDispPropsMassElem
  3
AecBaseEx50|Product Desc: Autodesk Architectural Desktop 2007 |Company: Autodesk,Inc. |WEB Address: www.autodesk.com
 90
      129
280
     0
281
     0
  0
CLASS
  1
AEC_DISP_PROPS_DIM
  2
AecDbDispPropsDimGroup
  3
AecArchDACHBase50|Product Desc: Autodesk Architectural Desktop 2007 |Company: Autodesk,Inc. |WEB Address: www.autodesk.com
 90
      129
280
     0
281
     0
  0
CLASS
  1
AEC_DISP_PROPS_ROOFSLAB
  2
AecDbDispPropsRoofSlab
  3
AecArchBase50|Product Desc: Autodesk Architectural Desktop 2007 |Company: Autodesk,Inc. |WEB Address: www.autodesk.com
 90
      129
280
     0
281
     0
  0
CLASS
  1
AEC_DISP_PROPS_ENT_REF
  2
AecDbDispPropsEntRef
  3
AecBase50|Product Desc: Autodesk Architectural Desktop 2007 |Company: Autodesk,Inc. |WEB Address: www.autodesk.com
 90
      129
280
     0
281
     0
  0
CLASS
  1
AEC_DISP_PROPS_2D_SECTION
  2
AecDbDispProps2dSection
  3
AecBase50|Product Desc: Autodesk Architectural Desktop 2007 |Company: Autodesk,Inc. |WEB Address: www.autodesk.com
 90
      129
280
     0
281
     0
  0
CLASS
  1
AECS_DISP_PROPS_MEMBER_LOGICAL
  2
AecsDbDispPropsMemberLogical
  3
AecStructureBase50|Product Desc: Autodesk Architectural Desktop 2007 |Company: Autodesk,Inc. |WEB Address: www.autodesk.com
 90
      129
280
     0
281
     0
  0
CLASS
  1
AEC_DISP_PROPS_AREA_DECOMPOSED
  2
AecDbDispPropsAreaDecomposed
  3
AecAreaCalculationBase50|Product Desc: Autodesk Architectural Desktop 2007 |Company: Autodesk,Inc. |WEB Address: www.autodesk.com
 90
    32897
280
     0
281
     0
  0
CLASS
  1
AEC_DISP_PROPS_CAMERA
  2
AecDbDispPropsCamera
  3
AecBase50|Product Desc: Autodesk Architectural Desktop 2007 |Company: Autodesk,Inc. |WEB Address: www.autodesk.com
 90
    32897
280
     0
281
     0
  0
CLASS
  1
AECS_DISP_PROPS_MEMBER
  2
AecsDbDispPropsMember
  3
AecStructureBase50|Product Desc: Autodesk Architectural Desktop 2007 |Company: Autodesk,Inc. |WEB Address: www.autodesk.com
 90
      129
280
     0
281
     0
  0
CLASS
  1
AECS_DISP_PROPS_MEMBER_PLAN
  2
AecsDbDispPropsMemberPlan
  3
AecStructureBase50|Product Desc: Autodesk Architectural Desktop 2007 |Company: Autodesk,Inc. |WEB Address: www.autodesk.com
 90
      129
280
     0
281
     0
  0
CLASS
  1
AEC_DISP_PROPS_AREAGROUP
  2
AecDbDispPropsAreaGroup
  3
AecAreaCalculationBase50|Product Desc: Autodesk Architectural Desktop 2007 |Company: Autodesk,Inc. |WEB Address: www.autodesk.com
 90
    32897
280
     0
281
     0
  0
CLASS
  1
AEC_DISP_PROPS_WINDOW_NOMINAL
  2
AecDbDispPropsWindowNominal
  3
AecArchBase50|Product Desc: Autodesk Architectural Desktop 2007 |Company: Autodesk,Inc. |WEB Address: www.autodesk.com
 90
      129
280
     0
281
     0
  0
CLASS
  1
AEC_DISP_PROPS_AREA
  2
AecDbDispPropsArea
  3
AecAreaCalculationBase50|Product Desc: Autodesk Architectural Desktop 2007 |Company: Autodesk,Inc. |WEB Address: www.autodesk.com
 90
    32897
280
     0
281
     0
  0
CLASS
  1
AEC_DISP_PROPS_SCHEDULE_TABLE
  2
AecDbDispPropsScheduleTable
  3
AecSchedule50|Product Desc: Autodesk Architectural Desktop 2007 |Company: Autodesk,Inc. |WEB Address: www.autodesk.com
 90
      129
280
     0
281
     0
  0
CLASS
  1
AEC_LAYERKEY_STYLE
  2
AecDbLayerKeyStyle
  3
AecBase50|Product Desc: Autodesk Architectural Desktop 2007 |Company: Autodesk,Inc. |WEB Address: www.autodesk.com
 90
    32897
280
     0
281
     0
  0
CLASS
  1
AEC_VARS_ARCHBASE
  2
AecDbVarsArchBase
  3
AecArchBase50|Product Desc: Autodesk Architectural Desktop 2007 |Company: Autodesk,Inc. |WEB Address: www.autodesk.com
 90
    32897
280
     0
281
     0
  0
CLASS
  1
AEC_VARS_MUNICH
  2
AecDbVarsMunich
  3
AecArchDACHBase50|Product Desc: Autodesk Architectural Desktop 2007 |Company: Autodesk,Inc. |WEB Address: www.autodesk.com
 90
    32897
280
     0
281
     0
  0
CLASS
  1
AEC_NOTIFICATION_TRACKER
  2
AecDbNotificationTracker
  3
AecBase50|Product Desc: Autodesk Architectural Desktop 2007 |Company: Autodesk,Inc. |WEB Address: www.autodesk.com
 90
      129
280
     0
281
     0
  0
CLASS
  1
AEC_DISP_REP_ANCHOR
  2
AecDbDispRepAnchor
  3
AecBase50|Product Desc: Autodesk Architectural Desktop 2007 |Company: Autodesk,Inc. |WEB Address: www.autodesk.com
 90
      129
280
     0
281
     0
  0
CLASS
  1
AEC_DISP_REP_POLYGON_TRUECOLOUR
  2
AecDbDispRepPolygonTrueColour
  3
AecBaseEx50|Product Desc: Autodesk Architectural Desktop 2007 |Company: Autodesk,Inc. |WEB Address: www.autodesk.com
 90
      129
280
     0
281
     0
  0
CLASS
  1
AEC_DISP_PROPS_POLYGON_TRUECOLOUR
  2
AecDbDispPropsPolygonTrueColour
  3
AecBaseEx50|Product Desc: Autodesk Architectural Desktop 2007 |Company: Autodesk,Inc. |WEB Address: www.autodesk.com
 90
      129
280
     0
281
     0
  0
CLASS
  1
AEC_DISP_REP_BDG_ELEVLINE_RCP
  2
AecDbDispRepBdgElevLineRcp
  3
AecArchBase50|Product Desc: Autodesk Architectural Desktop 2007 |Company: Autodesk,Inc. |WEB Address: www.autodesk.com
 90
      129
280
     0
281
     0
  0
CLASS
  1
AEC_DISP_REP_BDG_SECTIONLINE_RCP
  2
AecDbDispRepBdgSectionLineRcp
  3
AecArchBase50|Product Desc: Autodesk Architectural Desktop 2007 |Company: Autodesk,Inc. |WEB Address: www.autodesk.com
 90
      129
280
     0
281
     0
  0
CLASS
  1
AEC_DISP_REP_BDG_SECTION_MODEL
  2
AecDbDispRepBdgSectionModel
  3
AecArchBase50|Product Desc: Autodesk Architectural Desktop 2007 |Company: Autodesk,Inc. |WEB Address: www.autodesk.com
 90
      129
280
     0
281
     0
  0
CLASS
  1
AEC_DISP_REP_DOOR_ELEV
  2
AecDbDispRepDoorElev
  3
AecArchBase50|Product Desc: Autodesk Architectural Desktop 2007 |Company: Autodesk,Inc. |WEB Address: www.autodesk.com
 90
      129
280
     0
281
     0
  0
CLASS
  1
AEC_DISP_REP_DOOR_RCP
  2
AecDbDispRepDoorRcp
  3
AecArchBase50|Product Desc: Autodesk Architectural Desktop 2007 |Company: Autodesk,Inc. |WEB Address: www.autodesk.com
 90
      129
280
     0
281
     0
  0
CLASS
  1
AEC_DISP_REP_DOOR_THRESHOLD_PLAN
  2
AecDbDispRepDoorThresholdPlan
  3
AecArchBase50|Product Desc: Autodesk Architectural Desktop 2007 |Company: Autodesk,Inc. |WEB Address: www.autodesk.com
 90
      129
280
     0
281
     0
  0
CLASS
  1
AEC_DISP_PROPS_DOOR_THRESHOLD_PLAN
  2
AecDbDispPropsDoorThresholdPlan
  3
AecArchBase50|Product Desc: Autodesk Architectural Desktop 2007 |Company: Autodesk,Inc. |WEB Address: www.autodesk.com
 90
      129
280
     0
281
     0
  0
CLASS
  1
AEC_DISP_REP_MASS_ELEM_RCP
  2
AecDbDispRepMassElemRcp
  3
AecArchBase50|Product Desc: Autodesk Architectural Desktop 2007 |Company: Autodesk,Inc. |WEB Address: www.autodesk.com
 90
      129
280
     0
281
     0
  0
CLASS
  1
AEC_DISP_REP_MASS_GROUP_RCP
  2
AecDbDispRepMassGroupRcp
  3
AecArchBase50|Product Desc: Autodesk Architectural Desktop 2007 |Company: Autodesk,Inc. |WEB Address: www.autodesk.com
 90
      129
280
     0
281
     0
  0
CLASS
  1
AEC_DISP_REP_MVBLOCK_REF_RCP
  2
AecDbDispRepMvBlockRefRcp
  3
AecArchBase50|Product Desc: Autodesk Architectural Desktop 2007 |Company: Autodesk,Inc. |WEB Address: www.autodesk.com
 90
      129
280
     0
281
     0
  0
CLASS
  1
AEC_DISP_REP_ROOF_RCP
  2
AecDbDispRepRoofRcp
  3
AecArchBase50|Product Desc: Autodesk Architectural Desktop 2007 |Company: Autodesk,Inc. |WEB Address: www.autodesk.com
 90
      129
280
     0
281
     0
  0
CLASS
  1
AEC_DISP_REP_SPACE_BOUNDARY_DIAGRAM
  2
AecDbDispRepSpaceBoundaryDgrm
  3
AecArchBase50|Product Desc: Autodesk Architectural Desktop 2007 |Company: Autodesk,Inc. |WEB Address: www.autodesk.com
 90
    32897
280
     0
281
     0
  0
CLASS
  1
AEC_DISP_REP_SPACE_RCP
  2
AecDbDispRepSpaceRcp
  3
AecArchBase50|Product Desc: Autodesk Architectural Desktop 2007 |Company: Autodesk,Inc. |WEB Address: www.autodesk.com
 90
      129
280
     0
281
     0
  0
CLASS
  1
AEC_DISP_REP_SPACE_VOLUME
  2
AecDbDispRepSpaceVolume
  3
AecArchBase50|Product Desc: Autodesk Architectural Desktop 2007 |Company: Autodesk,Inc. |WEB Address: www.autodesk.com
 90
      129
280
     0
281
     0
  0
CLASS
  1
AEC_DISP_REP_STAIR_PLAN_OVERLAPPING
  2
AecDbDispRepStairPlanOverlapping
  3
AecArchBase50|Product Desc: Autodesk Architectural Desktop 2007 |Company: Autodesk,Inc. |WEB Address: www.autodesk.com
 90
      129
280
     0
281
     0
  0
CLASS
  1
AEC_DISP_PROPS_STAIR_PLAN_OVERLAPPING
  2
AecDbDispPropsStairPlanOverlapping
  3
AecArchBase50|Product Desc: Autodesk Architectural Desktop 2007 |Company: Autodesk,Inc. |WEB Address: www.autodesk.com
 90
      129
280
     0
281
     0
  0
CLASS
  1
AEC_DISP_REP_STAIR_RCP
  2
AecDbDispRepStairRcp
  3
AecArchBase50|Product Desc: Autodesk Architectural Desktop 2007 |Company: Autodesk,Inc. |WEB Address: www.autodesk.com
 90
      129
280
     0
281
     0
  0
CLASS
  1
AEC_DISP_REP_WALL_RCP
  2
AecDbDispRepWallRcp
  3
AecArchBase50|Product Desc: Autodesk Architectural Desktop 2007 |Company: Autodesk,Inc. |WEB Address: www.autodesk.com
 90
      129
280
     0
281
     0
  0
CLASS
  1
AEC_DISP_REP_WINDOWASSEMBLY_SILL_PLAN
  2
AecDbDispRepWindowAssemblySillPlan
  3
AecArchBase50|Product Desc: Autodesk Architectural Desktop 2007 |Company: Autodesk,Inc. |WEB Address: www.autodesk.com
 90
      129
280
     0
281
     0
  0
CLASS
  1
AEC_DISP_PROPS_WINDOW_ASSEMBLY_SILL_PLAN
  2
AecDbDispPropsWindowAssemblySillPlan
  3
AecArchBase50|Product Desc: Autodesk Architectural Desktop 2007 |Company: Autodesk,Inc. |WEB Address: www.autodesk.com
 90
      129
280
     0
281
     0
  0
CLASS
  1
AEC_DISP_REP_WINDOW_ELEV
  2
AecDbDispRepWindowElev
  3
AecArchBase50|Product Desc: Autodesk Architectural Desktop 2007 |Company: Autodesk,Inc. |WEB Address: www.autodesk.com
 90
      129
280
     0
281
     0
  0
CLASS
  1
AEC_DISP_REP_WINDOW_RCP
  2
AecDbDispRepWindowRcp
  3
AecArchBase50|Product Desc: Autodesk Architectural Desktop 2007 |Company: Autodesk,Inc. |WEB Address: www.autodesk.com
 90
      129
280
     0
281
     0
  0
CLASS
  1
AEC_DISP_REP_WINDOW_SILL_PLAN
  2
AecDbDispRepWindowSillPlan
  3
AecArchBase50|Product Desc: Autodesk Architectural Desktop 2007 |Company: Autodesk,Inc. |WEB Address: www.autodesk.com
 90
      129
280
     0
281
     0
  0
CLASS
  1
AEC_DISP_PROPS_WINDOW_SILL_PLAN
  2
AecDbDispPropsWindowSillPlan
  3
AecArchBase50|Product Desc: Autodesk Architectural Desktop 2007 |Company: Autodesk,Inc. |WEB Address: www.autodesk.com
 90
      129
280
     0
281
     0
  0
CLASS
  1
AEC_DISP_REP_ANCHOR_BUB_TO_GRID_RCP
  2
AecDbDispRepAnchorBubToGridRcp
  3
AecStructureBase50|Product Desc: Autodesk Architectural Desktop 2007 |Company: Autodesk,Inc. |WEB Address: www.autodesk.com
 90
      129
280
     0
281
     0
  0
CLASS
  1
AEC_DISP_REP_COLUMN_GRID_RCP
  2
AecDbDispRepColumnGridRcp
  3
AecStructureBase50|Product Desc: Autodesk Architectural Desktop 2007 |Company: Autodesk,Inc. |WEB Address: www.autodesk.com
 90
      129
280
     0
281
     0
  0
CLASS
  1
AECS_DISP_REP_MEMBER_ELEVATION_DESIGN
  2
AecsDbDispRepMemberElevationDesign
  3
AecStructureBase50|Product Desc: Autodesk Architectural Desktop 2007 |Company: Autodesk,Inc. |WEB Address: www.autodesk.com
 90
      129
280
     0
281
     0
  0
CLASS
  1
AECS_DISP_PROPS_MEMBER_PROJECTED
  2
AecsDbDispPropsMemberProjected
  3
AecStructureBase50|Product Desc: Autodesk Architectural Desktop 2007 |Company: Autodesk,Inc. |WEB Address: www.autodesk.com
 90
      129
280
     0
281
     0
  0
CLASS
  1
AECS_DISP_REP_MEMBER_ELEVATION_DETAIL
  2
AecsDbDispRepMemberElevationDetail
  3
AecStructureBase50|Product Desc: Autodesk Architectural Desktop 2007 |Company: Autodesk,Inc. |WEB Address: www.autodesk.com
 90
      129
280
     0
281
     0
  0
CLASS
  1
AECS_DISP_REP_MEMBER_MODEL_DETAIL
  2
AecsDbDispRepMemberModelDetail
  3
AecStructureBase50|Product Desc: Autodesk Architectural Desktop 2007 |Company: Autodesk,Inc. |WEB Address: www.autodesk.com
 90
      129
280
     0
281
     0
  0
CLASS
  1
AECS_DISP_REP_MEMBER_PLAN_DETAIL
  2
AecsDbDispRepMemberPlanDetail
  3
AecStructureBase50|Product Desc: Autodesk Architectural Desktop 2007 |Company: Autodesk,Inc. |WEB Address: www.autodesk.com
 90
      129
280
     0
281
     0
  0
CLASS
  1
AECS_DISP_REP_MEMBER_PLAN_SKETCH
  2
AecsDbDispRepMemberPlanSketch
  3
AecStructureBase50|Product Desc: Autodesk Architectural Desktop 2007 |Company: Autodesk,Inc. |WEB Address: www.autodesk.com
 90
      129
280
     0
281
     0
  0
CLASS
  1
AECS_DISP_PROPS_MEMBER_PLAN_SKETCH
  2
AecsDbDispPropsMemberPlanSketch
  3
AecStructureBase50|Product Desc: Autodesk Architectural Desktop 2007 |Company: Autodesk,Inc. |WEB Address: www.autodesk.com
 90
      129
280
     0
281
     0
  0
CLASS
  1
AEC_AECDBDISPREPAREA100
  2
AecDbDispRepArea100
  3
AecArchDACHBase50|Product Desc: Autodesk Architectural Desktop 2007 |Company: Autodesk,Inc. |WEB Address: www.autodesk.com
 90
    32897
280
     0
281
     0
  0
CLASS
  1
AEC_AECDBDISPREPAREAGROUP100
  2
AecDbDispRepAreaGroup100
  3
AecArchDACHBase50|Product Desc: Autodesk Architectural Desktop 2007 |Company: Autodesk,Inc. |WEB Address: www.autodesk.com
 90
    32897
280
     0
281
     0
  0
CLASS
  1
AEC_AECDBDISPREPBDGELEVLINEPLAN100
  2
AecDbDispRepBdgElevLinePlan100
  3
AecArchDACHBase50|Product Desc: Autodesk Architectural Desktop 2007 |Company: Autodesk,Inc. |WEB Address: www.autodesk.com
 90
      129
280
     0
281
     0
  0
CLASS
  1
AEC_AECDBDISPREPBDGSECTIONLINEPLAN100
  2
AecDbDispRepBdgSectionLinePlan100
  3
AecArchDACHBase50|Product Desc: Autodesk Architectural Desktop 2007 |Company: Autodesk,Inc. |WEB Address: www.autodesk.com
 90
      129
280
     0
281
     0
  0
CLASS
  1
AEC_AECDBDISPREPCEILINGGRIDPLAN100
  2
AecDbDispRepCeilingGridPlan100
  3
AecArchDACHBase50|Product Desc: Autodesk Architectural Desktop 2007 |Company: Autodesk,Inc. |WEB Address: www.autodesk.com
 90
      129
280
     0
281
     0
  0
CLASS
  1
AEC_AECDBDISPREPCOLUMNGRIDPLAN100
  2
AecDbDispRepColumnGridPlan100
  3
AecArchDACHBase50|Product Desc: Autodesk Architectural Desktop 2007 |Company: Autodesk,Inc. |WEB Address: www.autodesk.com
 90
      129
280
     0
281
     0
  0
CLASS
  1
AEC_AECDBDISPREPCURTAINWALLLAYOUTPLAN100
  2
AecDbDispRepCurtainWallLayoutPlan100
  3
AecArchDACHBase50|Product Desc: Autodesk Architectural Desktop 2007 |Company: Autodesk,Inc. |WEB Address: www.autodesk.com
 90
      129
280
     0
281
     0
  0
CLASS
  1
AEC_AECDBDISPREPCURTAINWALLUNITPLAN100
  2
AecDbDispRepCurtainWallUnitPlan100
  3
AecArchDACHBase50|Product Desc: Autodesk Architectural Desktop 2007 |Company: Autodesk,Inc. |WEB Address: www.autodesk.com
 90
      129
280
     0
281
     0
  0
CLASS
  1
AEC_AECDBDISPREPMVBLOCKREFPLAN100
  2
AecDbDispRepMvBlockRefPlan100
  3
AecArchDACHBase50|Product Desc: Autodesk Architectural Desktop 2007 |Company: Autodesk,Inc. |WEB Address: www.autodesk.com
 90
      129
280
     0
281
     0
  0
CLASS
  1
AEC_AECDBDISPREPROOFPLAN100
  2
AecDbDispRepRoofPlan100
  3
AecArchDACHBase50|Product Desc: Autodesk Architectural Desktop 2007 |Company: Autodesk,Inc. |WEB Address: www.autodesk.com
 90
      129
280
     0
281
     0
  0
CLASS
  1
AEC_AECDBDISPREPROOFSLABPLAN100
  2
AecDbDispRepRoofSlabPlan100
  3
AecArchDACHBase50|Product Desc: Autodesk Architectural Desktop 2007 |Company: Autodesk,Inc. |WEB Address: www.autodesk.com
 90
      129
280
     0
281
     0
  0
CLASS
  1
AEC_AECDBDISPREPSLABPLAN100
  2
AecDbDispRepSlabPlan100
  3
AecArchDACHBase50|Product Desc: Autodesk Architectural Desktop 2007 |Company: Autodesk,Inc. |WEB Address: www.autodesk.com
 90
      129
280
     0
281
     0
  0
CLASS
  1
AEC_AECDBDISPREPSPACEBOUNDARYPLAN100
  2
AecDbDispRepSpaceBoundaryPlan100
  3
AecArchDACHBase50|Product Desc: Autodesk Architectural Desktop 2007 |Company: Autodesk,Inc. |WEB Address: www.autodesk.com
 90
    32897
280
     0
281
     0
  0
CLASS
  1
AEC_AECDBDISPREPSPACEPLAN100
  2
AecDbDispRepSpacePlan100
  3
AecArchDACHBase50|Product Desc: Autodesk Architectural Desktop 2007 |Company: Autodesk,Inc. |WEB Address: www.autodesk.com
 90
      129
280
     0
281
     0
  0
CLASS
  1
AEC_AECDBDISPREPWALLPLAN100
  2
AecDbDispRepWallPlan100
  3
AecArchDACHBase50|Product Desc: Autodesk Architectural Desktop 2007 |Company: Autodesk,Inc. |WEB Address: www.autodesk.com
 90
      129
280
     0
281
     0
  0
CLASS
  1
AEC_AECDBDISPREPAREA50
  2
AecDbDispRepArea50
  3
AecArchDACHBase50|Product Desc: Autodesk Architectural Desktop 2007 |Company: Autodesk,Inc. |WEB Address: www.autodesk.com
 90
    32897
280
     0
281
     0
  0
CLASS
  1
AEC_AECDBDISPREPAREAGROUP50
  2
AecDbDispRepAreaGroup50
  3
AecArchDACHBase50|Product Desc: Autodesk Architectural Desktop 2007 |Company: Autodesk,Inc. |WEB Address: www.autodesk.com
 90
    32897
280
     0
281
     0
  0
CLASS
  1
AEC_AECDBDISPREPBDGELEVLINEPLAN50
  2
AecDbDispRepBdgElevLinePlan50
  3
AecArchDACHBase50|Product Desc: Autodesk Architectural Desktop 2007 |Company: Autodesk,Inc. |WEB Address: www.autodesk.com
 90
      129
280
     0
281
     0
  0
CLASS
  1
AEC_AECDBDISPREPBDGSECTIONLINEPLAN50
  2
AecDbDispRepBdgSectionLinePlan50
  3
AecArchDACHBase50|Product Desc: Autodesk Architectural Desktop 2007 |Company: Autodesk,Inc. |WEB Address: www.autodesk.com
 90
      129
280
     0
281
     0
  0
CLASS
  1
AEC_AECDBDISPREPCEILINGGRIDPLAN50
  2
AecDbDispRepCeilingGridPlan50
  3
AecArchDACHBase50|Product Desc: Autodesk Architectural Desktop 2007 |Company: Autodesk,Inc. |WEB Address: www.autodesk.com
 90
      129
280
     0
281
     0
  0
CLASS
  1
AEC_AECDBDISPREPCOLUMNGRIDPLAN50
  2
AecDbDispRepColumnGridPlan50
  3
AecArchDACHBase50|Product Desc: Autodesk Architectural Desktop 2007 |Company: Autodesk,Inc. |WEB Address: www.autodesk.com
 90
      129
280
     0
281
     0
  0
CLASS
  1
AEC_AECDBDISPREPCURTAINWALLLAYOUTPLAN50
  2
AecDbDispRepCurtainWallLayoutPlan50
  3
AecArchDACHBase50|Product Desc: Autodesk Architectural Desktop 2007 |Company: Autodesk,Inc. |WEB Address: www.autodesk.com
 90
      129
280
     0
281
     0
  0
CLASS
  1
AEC_AECDBDISPREPCURTAINWALLUNITPLAN50
  2
AecDbDispRepCurtainWallUnitPlan50
  3
AecArchDACHBase50|Product Desc: Autodesk Architectural Desktop 2007 |Company: Autodesk,Inc. |WEB Address: www.autodesk.com
 90
      129
280
     0
281
     0
  0
CLASS
  1
AEC_AECDBDISPREPMVBLOCKREFPLAN50
  2
AecDbDispRepMvBlockRefPlan50
  3
AecArchDACHBase50|Product Desc: Autodesk Architectural Desktop 2007 |Company: Autodesk,Inc. |WEB Address: www.autodesk.com
 90
      129
280
     0
281
     0
  0
CLASS
  1
AEC_AECDBDISPREPROOFPLAN50
  2
AecDbDispRepRoofPlan50
  3
AecArchDACHBase50|Product Desc: Autodesk Architectural Desktop 2007 |Company: Autodesk,Inc. |WEB Address: www.autodesk.com
 90
      129
280
     0
281
     0
  0
CLASS
  1
AEC_AECDBDISPREPROOFSLABPLAN50
  2
AecDbDispRepRoofSlabPlan50
  3
AecArchDACHBase50|Product Desc: Autodesk Architectural Desktop 2007 |Company: Autodesk,Inc. |WEB Address: www.autodesk.com
 90
      129
280
     0
281
     0
  0
CLASS
  1
AEC_AECDBDISPREPSLABPLAN50
  2
AecDbDispRepSlabPlan50
  3
AecArchDACHBase50|Product Desc: Autodesk Architectural Desktop 2007 |Company: Autodesk,Inc. |WEB Address: www.autodesk.com
 90
      129
280
     0
281
     0
  0
CLASS
  1
AEC_AECDBDISPREPSPACEBOUNDARYPLAN50
  2
AecDbDispRepSpaceBoundaryPlan50
  3
AecArchDACHBase50|Product Desc: Autodesk Architectural Desktop 2007 |Company: Autodesk,Inc. |WEB Address: www.autodesk.com
 90
    32897
280
     0
281
     0
  0
CLASS
  1
AEC_AECDBDISPREPSPACEPLAN50
  2
AecDbDispRepSpacePlan50
  3
AecArchDACHBase50|Product Desc: Autodesk Architectural Desktop 2007 |Company: Autodesk,Inc. |WEB Address: www.autodesk.com
 90
      129
280
     0
281
     0
  0
CLASS
  1
AEC_AECDBDISPREPWALLPLAN50
  2
AecDbDispRepWallPlan50
  3
AecArchDACHBase50|Product Desc: Autodesk Architectural Desktop 2007 |Company: Autodesk,Inc. |WEB Address: www.autodesk.com
 90
      129
280
     0
281
     0
  0
CLASS
  1
AEC_AECDBDISPREPWINDOWASSEMBLYPLAN50
  2
AecDbDispRepWindowAssemblyPlan50
  3
AecArchDACHBase50|Product Desc: Autodesk Architectural Desktop 2007 |Company: Autodesk,Inc. |WEB Address: www.autodesk.com
 90
      129
280
     0
281
     0
  0
CLASS
  1
AEC_DB_DISP_REP_DIM_GROUP_PLAN100
  2
AecDbDispRepDimGroupPlan100
  3
AecArchDACHBase50|Product Desc: Autodesk Architectural Desktop 2007 |Company: Autodesk,Inc. |WEB Address: www.autodesk.com
 90
      129
280
     0
281
     0
  0
CLASS
  1
AEC_DB_DISP_REP_DIM_GROUP_PLAN50
  2
AecDbDispRepDimGroupPlan50
  3
AecArchDACHBase50|Product Desc: Autodesk Architectural Desktop 2007 |Company: Autodesk,Inc. |WEB Address: www.autodesk.com
 90
      129
280
     0
281
     0
  0
CLASS
  1
AEC_DISP_REP_DOOR_PLAN_50
  2
AecDbDispRepDoorPlan50
  3
AecArchDACHBase50|Product Desc: Autodesk Architectural Desktop 2007 |Company: Autodesk,Inc. |WEB Address: www.autodesk.com
 90
      129
280
     0
281
     0
  0
CLASS
  1
AEC_DISP_PROPS_DOOR_PLAN_50
  2
AecDbDispPropsDoorPlan50
  3
AecArchDACHBase50|Product Desc: Autodesk Architectural Desktop 2007 |Company: Autodesk,Inc. |WEB Address: www.autodesk.com
 90
      129
280
     0
281
     0
  0
CLASS
  1
AEC_DISP_REP_DOOR_PLAN_HEKTO
  2
AecDbDispRepDoorPlanHekto
  3
AecArchDACHBase50|Product Desc: Autodesk Architectural Desktop 2007 |Company: Autodesk,Inc. |WEB Address: www.autodesk.com
 90
      129
280
     0
281
     0
  0
CLASS
  1
AEC_DISP_PROPS_DOOR_PLAN_100
  2
AecDbDispPropsDoorPlan100
  3
AecArchDACHBase50|Product Desc: Autodesk Architectural Desktop 2007 |Company: Autodesk,Inc. |WEB Address: www.autodesk.com
 90
      129
280
     0
281
     0
  0
CLASS
  1
AEC_DISP_REP_DOOR_THRESHOLD_SYMBOL_PLAN
  2
AecDbDispRepDoorThresholdSymbolPlan
  3
AecArchDACHBase50|Product Desc: Autodesk Architectural Desktop 2007 |Company: Autodesk,Inc. |WEB Address: www.autodesk.com
 90
      129
280
     0
281
     0
  0
CLASS
  1
AEC_DISP_PROPS_DOOR_THRESHOLD_SYMBOL_PLAN
  2
AecDbDispPropsDoorThresholdSymbolPlan
  3
AecArchDACHBase50|Product Desc: Autodesk Architectural Desktop 2007 |Company: Autodesk,Inc. |WEB Address: www.autodesk.com
 90
      129
280
     0
281
     0
  0
CLASS
  1
AEC_DISPREPAECDBDISPREPMASSELEMPLAN100
  2
AecDbDispRepMassElemPlan100
  3
AecArchDACHBase50|Product Desc: Autodesk Architectural Desktop 2007 |Company: Autodesk,Inc. |WEB Address: www.autodesk.com
 90
      129
280
     0
281
     0
  0
CLASS
  1
AEC_DISPROPSMASSELEMPLANCOMMON
  2
AecDbDispPropsMassElemPlanCommon
  3
AecArchDACHBase50|Product Desc: Autodesk Architectural Desktop 2007 |Company: Autodesk,Inc. |WEB Address: www.autodesk.com
 90
      129
280
     0
281
     0
  0
CLASS
  1
AEC_DISPREPAECDBDISPREPMASSELEMPLAN50
  2
AecDbDispRepMassElemPlan50
  3
AecArchDACHBase50|Product Desc: Autodesk Architectural Desktop 2007 |Company: Autodesk,Inc. |WEB Address: www.autodesk.com
 90
      129
280
     0
281
     0
  0
CLASS
  1
AEC_DISPREPAECDBDISPREPMASSGROUPPLAN100
  2
AecDbDispRepMassGroupPlan100
  3
AecArchDACHBase50|Product Desc: Autodesk Architectural Desktop 2007 |Company: Autodesk,Inc. |WEB Address: www.autodesk.com
 90
      129
280
     0
281
     0
  0
CLASS
  1
AEC_DISPROPSMASSGROUPPLANCOMMON
  2
AecDbDispPropsMassGroupPlanCommon
  3
AecArchDACHBase50|Product Desc: Autodesk Architectural Desktop 2007 |Company: Autodesk,Inc. |WEB Address: www.autodesk.com
 90
      129
280
     0
281
     0
  0
CLASS
  1
AEC_DISPREPAECDBDISPREPMASSGROUPPLAN50
  2
AecDbDispRepMassGroupPlan50
  3
AecArchDACHBase50|Product Desc: Autodesk Architectural Desktop 2007 |Company: Autodesk,Inc. |WEB Address: www.autodesk.com
 90
      129
280
     0
281
     0
  0
CLASS
  1
AEC_DISPREPAECDBDISPREPOPENINGPLAN100
  2
AecDbDispRepOpeningPlan100
  3
AecArchDACHBase50|Product Desc: Autodesk Architectural Desktop 2007 |Company: Autodesk,Inc. |WEB Address: www.autodesk.com
 90
      129
280
     0
281
     0
  0
CLASS
  1
AEC_DISPROPSOPENINGPLANCOMMONHATCHED
  2
AecDbDispPropsOpeningPlanCommonHatched
  3
AecArchDACHBase50|Product Desc: Autodesk Architectural Desktop 2007 |Company: Autodesk,Inc. |WEB Address: www.autodesk.com
 90
      129
280
     0
281
     0
  0
CLASS
  1
AEC_DISPREPAECDBDISPREPOPENINGPLAN50
  2
AecDbDispRepOpeningPlan50
  3
AecArchDACHBase50|Product Desc: Autodesk Architectural Desktop 2007 |Company: Autodesk,Inc. |WEB Address: www.autodesk.com
 90
      129
280
     0
281
     0
  0
CLASS
  1
AEC_DISPREPAECDBDISPREPOPENINGPLANREFLECTED
  2
AecDbDispRepOpeningPlanReflected
  3
AecArchDACHBase50|Product Desc: Autodesk Architectural Desktop 2007 |Company: Autodesk,Inc. |WEB Address: www.autodesk.com
 90
      129
280
     0
281
     0
  0
CLASS
  1
AEC_DISPROPSOPENINGPLANCOMMON
  2
AecDbDispPropsOpeningPlanCommon
  3
AecArchDACHBase50|Product Desc: Autodesk Architectural Desktop 2007 |Company: Autodesk,Inc. |WEB Address: www.autodesk.com
 90
      129
280
     0
281
     0
  0
CLASS
  1
AEC_DISPREPAECDBDISPREPOPENINGSILLPLAN
  2
AecDbDispRepOpeningSillPlan
  3
AecArchDACHBase50|Product Desc: Autodesk Architectural Desktop 2007 |Company: Autodesk,Inc. |WEB Address: www.autodesk.com
 90
      129
280
     0
281
     0
  0
CLASS
  1
AEC_DISPROPSOPENINGSILLPLAN
  2
AecDbDispPropsOpeningSillPlan
  3
AecArchDACHBase50|Product Desc: Autodesk Architectural Desktop 2007 |Company: Autodesk,Inc. |WEB Address: www.autodesk.com
 90
      129
280
     0
281
     0
  0
CLASS
  1
AEC_DISP_REP_RAILING_PLAN_100
  2
AecDbDispRepRailingPlan100
  3
AecArchDACHBase50|Product Desc: Autodesk Architectural Desktop 2007 |Company: Autodesk,Inc. |WEB Address: www.autodesk.com
 90
      129
280
     0
281
     0
  0
CLASS
  1
AEC_DISP_ROPS_RAILING_PLAN_100
  2
AecDbDispPropsRailingPlan100
  3
AecArchDACHBase50|Product Desc: Autodesk Architectural Desktop 2007 |Company: Autodesk,Inc. |WEB Address: www.autodesk.com
 90
      129
280
     0
281
     0
  0
CLASS
  1
AEC_DISP_REP_RAILING_PLAN_50
  2
AecDbDispRepRailingPlan50
  3
AecArchDACHBase50|Product Desc: Autodesk Architectural Desktop 2007 |Company: Autodesk,Inc. |WEB Address: www.autodesk.com
 90
      129
280
     0
281
     0
  0
CLASS
  1
AEC_DISP_ROPS_RAILING_PLAN_50
  2
AecDbDispPropsRailingPlan50
  3
AecArchDACHBase50|Product Desc: Autodesk Architectural Desktop 2007 |Company: Autodesk,Inc. |WEB Address: www.autodesk.com
 90
      129
280
     0
281
     0
  0
CLASS
  1
AEC_DISP_REP_STAIR_PLAN_100
  2
AecDbDispRepStairPlan100
  3
AecArchDACHBase50|Product Desc: Autodesk Architectural Desktop 2007 |Company: Autodesk,Inc. |WEB Address: www.autodesk.com
 90
      129
280
     0
281
     0
  0
CLASS
  1
AEC_DISP_ROPS_STAIR_PLAN_100
  2
AecDbDispPropsStairPlan100
  3
AecArchDACHBase50|Product Desc: Autodesk Architectural Desktop 2007 |Company: Autodesk,Inc. |WEB Address: www.autodesk.com
 90
      129
280
     0
281
     0
  0
CLASS
  1
AEC_DISP_REP_STAIR_PLAN_50
  2
AecDbDispRepStairPlan50
  3
AecArchDACHBase50|Product Desc: Autodesk Architectural Desktop 2007 |Company: Autodesk,Inc. |WEB Address: www.autodesk.com
 90
      129
280
     0
281
     0
  0
CLASS
  1
AEC_DISP_ROPS_STAIR_PLAN_50
  2
AecDbDispPropsStairPlan50
  3
AecArchDACHBase50|Product Desc: Autodesk Architectural Desktop 2007 |Company: Autodesk,Inc. |WEB Address: www.autodesk.com
 90
      129
280
     0
281
     0
  0
CLASS
  1
AEC_DISP_REP_WINDOW_PLAN_100
  2
AecDbDispRepWindowPlan100
  3
AecArchDACHBase50|Product Desc: Autodesk Architectural Desktop 2007 |Company: Autodesk,Inc. |WEB Address: www.autodesk.com
 90
      129
280
     0
281
     0
  0
CLASS
  1
AEC_DISP_PROPS_WINDOW_PLAN_100
  2
AecDbDispPropsWindowPlan100
  3
AecArchDACHBase50|Product Desc: Autodesk Architectural Desktop 2007 |Company: Autodesk,Inc. |WEB Address: www.autodesk.com
 90
      129
280
     0
281
     0
  0
CLASS
  1
AEC_DISP_REP_WINDOW_PLAN_50
  2
AecDbDispRepWindowPlan50
  3
AecArchDACHBase50|Product Desc: Autodesk Architectural Desktop 2007 |Company: Autodesk,Inc. |WEB Address: www.autodesk.com
 90
      129
280
     0
281
     0
  0
CLASS
  1
AEC_DISP_PROPS_WINDOW_PLAN_50
  2
AecDbDispPropsWindowPlan50
  3
AecArchDACHBase50|Product Desc: Autodesk Architectural Desktop 2007 |Company: Autodesk,Inc. |WEB Address: www.autodesk.com
 90
      129
280
     0
281
     0
  0
CLASS
  1
BINRECORD
  2
AcAecBinRecord
  3
AecBase50|Product Desc: Autodesk Architectural Desktop 2007 |Company: Autodesk,Inc. |WEB Address: www.autodesk.com
 90
    32897
280
     0
281
     0
  0
CLASS
  1
SPATIAL_FILTER
  2
AcDbSpatialFilter
  3
ObjectDBX Classes
 90
    32768
280
     0
281
     0
  0
CLASS
  1
MATERIAL
  2
AcDbMaterial
  3
ObjectDBX Classes
 90
     1153
280
     0
281
     0
  0
CLASS
  1
VISUALSTYLE
  2
AcDbVisualStyle
  3
ObjectDBX Classes
 90
     4095
280
     0
281
     0
  0
CLASS
  1
TABLESTYLE
  2
AcDbTableStyle
  3
ObjectDBX Classes
 90
     4095
280
     0
281
     0
  0
CLASS
  1
AEC_AECDBDISPREPZONE100
  2
AecDbDispRepZonePlan100
  3
AecArchDACHBase50|Product Desc: Autodesk Architectural Desktop 2007 |Company: Autodesk,Inc. |WEB Address: www.autodesk.com
 90
      129
280
     0
281
     0
  0
CLASS
  1
AEC_DISP_PROPS_ZONE
  2
AecDbDispPropsZone
  3
AecArchBase50|Product Desc: Autodesk Architectural Desktop 2007 |Company: Autodesk,Inc. |WEB Address: www.autodesk.com
 90
      129
280
     0
281
     0
  0
CLASS
  1
AEC_AECDBDISPREPZONE50
  2
AecDbDispRepZonePlan50
  3
AecArchDACHBase50|Product Desc: Autodesk Architectural Desktop 2007 |Company: Autodesk,Inc. |WEB Address: www.autodesk.com
 90
      129
280
     0
281
     0
  0
CLASS
  1
AEC_DISP_REP_DISPLAYTHEME
  2
AecDbDispRepDisplayTheme
  3
AecBase50|Product Desc: Autodesk Architectural Desktop 2007 |Company: Autodesk,Inc. |WEB Address: www.autodesk.com
 90
      129
280
     0
281
     0
  0
CLASS
  1
AEC_DISP_PROPS_DISPLAYTHEME
  2
AecDbDispPropsDisplayTheme
  3
AecBase50|Product Desc: Autodesk Architectural Desktop 2007 |Company: Autodesk,Inc. |WEB Address: www.autodesk.com
 90
      129
280
     0
281
     0
  0
CLASS
  1
AEC_DISP_REP_ANCHOR_EXT_TAG_TO_ENT
  2
AecDbDispRepAnchorExtendedTagToEnt
  3
AecScheduleData50|Product Desc: Autodesk Architectural Desktop 2007 |Company: Autodesk,Inc. |WEB Address: www.autodesk.com
 90
      129
280
     0
281
     0
  0
CLASS
  1
AEC_DISP_REP_SPACE_DECOMPOSED
  2
AecDbDispRepSpaceDecomposed
  3
AecArchBase50|Product Desc: Autodesk Architectural Desktop 2007 |Company: Autodesk,Inc. |WEB Address: www.autodesk.com
 90
      129
280
     0
281
     0
  0
CLASS
  1
AEC_DISP_PROPS_SPACE_DECOMPOSED
  2
AecDbDispPropsSpaceDecomposed
  3
AecArchBase50|Product Desc: Autodesk Architectural Desktop 2007 |Company: Autodesk,Inc. |WEB Address: www.autodesk.com
 90
      129
280
     0
281
     0
  0
CLASS
  1
AEC_DISP_REP_ZONE
  2
AecDbDispRepZone
  3
AecArchBase50|Product Desc: Autodesk Architectural Desktop 2007 |Company: Autodesk,Inc. |WEB Address: www.autodesk.com
 90
      129
280
     0
281
     0
  0
CLASS
  1
EXACXREFPANELOBJECT
  2
ExAcXREFPanelObject
  3
EXAC_ESW
 90
    33793
280
     0
281
     0
  0
CLASS
  1
NPOCOLLECTION
  2
AcDbImpNonPersistentObjectsCollection
  3
ObjectDBX Classes
 90
     1153
280
     0
281
     0
  0
CLASS
  1
SCALE
  2
AcDbScale
  3
ObjectDBX Classes
 90
     1153
280
     0
281
     0
  0
CLASS
  1
MLEADERSTYLE
  2
AcDbMLeaderStyle
  3
ACDB_MLEADERSTYLE_CLASS
 90
     4095
280
     0
281
     0
  0
CLASS
  1
CELLSTYLEMAP
  2
AcDbCellStyleMap
  3
ObjectDBX Classes
 90
     1152
280
     0
281
     0
  0
CLASS
  1
AEC_REFEDIT_STATUS_TRACKER
  2
AecDbRefEditStatusTracker
  3
AecArchBase50|Product Desc: Autodesk Architectural Desktop 2007 |Company: Autodesk,Inc. |WEB Address: www.autodesk.com
 90
      129
280
     0
281
     0
  0
ENDSEC
  0
SECTION
  2
TABLES
  0
TABLE
  2
VPORT
  5
1C
330
0
100
AcDbSymbolTable
 70
     1
  0
VPORT
  5
4B99
330
1C
100
AcDbSymbolTableRecord
100
AcDbViewportTableRecord
  2
*Active
 70
     0
 10
0.0
 20
0.0
 11
1.0
 21
1.0
 12
14995.75124502507
 22
-247.8234279849039
 13
0.0
 23
0.0
 14
1.0
 24
1.0
 15
1.0
 25
1.0
 16
0.0
 26
0.0
 36
1.0
 17
0.0
 27
0.0
 37
0.0
 40
21442.95949306616
 41
2.257412398921832
 42
50.0
 43
0.0
 44
0.0
 50
0.0
 51
0.0
 71
     0
 72
   100
 73
     1
 74
     1
 75
     1
 76
     0
 77
     0
 78
     0
281
     0
 65
     1
110
0.0
120
0.0
130
0.0
111
1.0
121
0.0
131
0.0
112
0.0
122
1.0
132
0.0
 79
     0
146
0.0
  0
ENDTAB
  0
TABLE
  2
LTYPE
  5
17
330
0
100
AcDbSymbolTable
 70
     3
  0
LTYPE
  5
18
330
17
100
AcDbSymbolTableRecord
100
AcDbLinetypeTableRecord
  2
ByBlock
 70
     0
  3

 72
    65
 73
     0
 40
0.0
  0
LTYPE
  5
19
330
17
100
AcDbSymbolTableRecord
100
AcDbLinetypeTableRecord
  2
ByLayer
 70
     0
  3

 72
    65
 73
     0
 40
0.0
  0
LTYPE
  5
8
330
17
100
AcDbSymbolTableRecord
100
AcDbLinetypeTableRecord
  2
Continuous
 70
     0
  3
Solid line
 72
    65
 73
     0
 40
0.0
  0
LTYPE
  5
53D6
330
17
100
AcDbSymbolTableRecord
100
AcDbLinetypeTableRecord
  2
DASHED
 70
     0
  3
Dashed __ __ __ __ __ __ __ __ __ __ __ __ __ _
 72
    65
 73
     2
 40
0.75
 49
0.5
 74
     0
 49
-0.25
 74
     0
  0
ENDTAB
  0
TABLE
  2
LAYER
  5
11
102
{ACAD_XDICTIONARY
360
12
102
}
330
0
100
AcDbSymbolTable
 70
    17
  0
LAYER
  5
4
102
{ACAD_XDICTIONARY
360
52C5
102
}
330
11
100
AcDbSymbolTableRecord
100
AcDbLayerTableRecord
  2
0
 70
     0
 62
     7
  6
Continuous
370
    -3
390
5
  0
LAYER
  5
52E0
330
11
100
AcDbSymbolTableRecord
100
AcDbLayerTableRecord
  2
Defpoints
 70
     0
 62
     7
  6
Continuous
290
     0
370
    -3
390
5
  0
LAYER
  5
53D8
330
11
100
AcDbSymbolTableRecord
100
AcDbLayerTableRecord
  2
NAPISY
 70
     0
 62
   140
  6
Continuous
370
    -3
390
5
1001
RAK
1000
{ACET-LAYISO
1070
     0
1070
   140
1000
CONTINUOUS
1071
       -3
1071
        1
1005
5
1000
ACET-LAYISO}
  0
LAYER
  5
53DA
330
11
100
AcDbSymbolTableRecord
100
AcDbLayerTableRecord
  2
RAMKI-A4
 70
     0
 62
     2
  6
Continuous
290
     0
370
    -3
390
5
1001
RAK
1000
{ACET-LAYISO
1070
     0
1070
     2
1000
Continuous
1071
       -3
1071
        0
1005
5
1000
ACET-LAYISO}
  0
LAYER
  5
53DC
330
11
100
AcDbSymbolTableRecord
100
AcDbLayerTableRecord
  2
-wymiary
 70
     0
 62
     1
  6
Continuous
370
     5
390
5
1001
RAK
1000
{ACET-LAYISO
1070
     0
1070
     1
1000
Continuous
1070
     1
1071
        5
1071
        1
1005
5
1000
ACET-LAYISO}
  0
ENDTAB
  0
TABLE
  2
STYLE
  5
14
330
0
100
AcDbSymbolTable
 70
     4
  0
STYLE
  5
15
330
14
100
AcDbSymbolTableRecord
100
AcDbTextStyleTableRecord
  2
Standard
 70
     0
 40
0.0
 41
1.0
 50
0.0
 71
     0
 42
2.5
  3
txt
  4

  0
STYLE
  5
22
330
14
100
AcDbSymbolTableRecord
100
AcDbTextStyleTableRecord
  2
ROMANS
 70
     0
 40
0.0
 41
0.9
 50
0.0
 71
     0
 42
20.0
  3
romans.shx
  4

  0
STYLE
  5
4C50
330
14
100
AcDbSymbolTableRecord
100
AcDbTextStyleTableRecord
  2
romansDIM
 70
     0
 40
0.0
 41
0.8
 50
0.0
 71
     0
 42
18.0
  3
romans.shx
  4

  0
STYLE
  5
53DD
330
14
100
AcDbSymbolTableRecord
100
AcDbTextStyleTableRecord
  2
AVA
 70
     0
 40
0.0
 41
1.0
 50
0.0
 71
     0
 42
158.5644099714409
  3
ARIAL.TTF
  4

1001
ACAD
1000
Arial CE
1071
    60962
  0
ENDTAB
  0
TABLE
  2
VIEW
  5
1A
330
0
100
AcDbSymbolTable
 70
     1
  0
VIEW
  5
C
330
1A
100
AcDbSymbolTableRecord
100
AcDbViewTableRecord
  2
DZIEWANNA+GARAŻ
 70
     0
 40
14020.0
 10
148887.2024529565
 20
92607.5163155559
 41
10200.0
 11
0.0
 21
0.0
 31
1.0
 12
0.0
 22
0.0
 32
0.0
 42
50.0
 43
0.0
 44
0.0
 50
0.0
 71
     0
281
     0
 72
     1
110
0.0
120
0.0
130
0.0
111
1.0
121
0.0
131
0.0
112
0.0
122
1.0
132
0.0
 79
     0
146
0.0
  0
ENDTAB
  0
TABLE
  2
UCS
  5
1B
330
0
100
AcDbSymbolTable
 70
     1
  0
ENDTAB
  0
TABLE
  2
APPID
  5
1E
330
0
100
AcDbSymbolTable
 70
    12
  0
APPID
  5
1F
330
1E
100
AcDbSymbolTableRecord
100
AcDbRegAppTableRecord
  2
ACAD
 70
     0
  0
APPID
  5
2E15
330
1E
100
AcDbSymbolTableRecord
100
AcDbRegAppTableRecord
  2
AECBASE
 70
     0
  0
APPID
  5
4B17
330
1E
100
AcDbSymbolTableRecord
100
AcDbRegAppTableRecord
  2
RAK
 70
     0
  0
APPID
  5
4B4D
330
1E
100
AcDbSymbolTableRecord
100
AcDbRegAppTableRecord
  2
DCO15
 70
     0
  0
APPID
  5
4BB7
330
1E
100
AcDbSymbolTableRecord
100
AcDbRegAppTableRecord
  2
ACAD_EXEMPT_FROM_CAD_STANDARDS
 70
     0
  0
APPID
  5
4BB8
330
1E
100
AcDbSymbolTableRecord
100
AcDbRegAppTableRecord
  2
ACAD_DSTYLE_DIM_LINETYPE
 70
     0
  0
APPID
  5
4BB9
330
1E
100
AcDbSymbolTableRecord
100
AcDbRegAppTableRecord
  2
ACAD_DSTYLE_DIM_EXT1_LINETYPE
 70
     0
  0
APPID
  5
4BBA
330
1E
100
AcDbSymbolTableRecord
100
AcDbRegAppTableRecord
  2
ACAD_DSTYLE_DIM_EXT2_LINETYPE
 70
     0
  0
APPID
  5
4BD3
330
1E
100
AcDbSymbolTableRecord
100
AcDbRegAppTableRecord
  2
AcAecLayerStandard
 70
     0
  0
APPID
  5
4C56
330
1E
100
AcDbSymbolTableRecord
100
AcDbRegAppTableRecord
  2
ACAD_PSEXT
 70
     0
  0
APPID
  5
4C57
330
1E
100
AcDbSymbolTableRecord
100
AcDbRegAppTableRecord
  2
AcLayerTools
 70
     0
  0
APPID
  5
52B9
330
1E
100
AcDbSymbolTableRecord
100
AcDbRegAppTableRecord
  2
ACAD_MLEADERVER
 70
     0
  0
ENDTAB
  0
TABLE
  2
DIMSTYLE
  5
20
330
0
100
AcDbSymbolTable
 70
    10
100
AcDbDimStyleTable
 71
     2
340
4C51
340
21
  0
DIMSTYLE
105
21
102
{ACAD_REACTORS
330
599E
330
5993
330
5988
330
59C0
330
59E8
330
59D2
330
5A11
330
5B7D
330
5B7E
330
5B7F
330
5B80
330
5B81
330
5B82
330
5B83
102
}
330
20
100
AcDbSymbolTableRecord
100
AcDbDimStyleTableRecord
  2
500
 70
     0
 41
30.0
 42
43.0
 43
0.0
 44
13.0
 46
12.0
 73
     0
 74
     0
 75
     1
 76
     1
140
80.0
141
0.0
145
1.0
147
0.0
172
     1
173
     1
174
     1
176
     1
177
     1
178
    10
271
     0
272
     0
279
     2
340
22
341
23
343
23
344
23
  0
DIMSTYLE
105
4C51
330
20
100
AcDbSymbolTableRecord
100
AcDbDimStyleTableRecord
  2
100-archon
 70
     0
 41
8.0
 42
43.0
 43
40.0
 44
13.0
 45
0.5
 46
12.0
 73
     0
 74
     0
 75
     1
 76
     1
 78
     8
140
16.0
141
15.0
145
1.0
147
4.0
172
     1
174
     1
176
     1
177
     1
178
   140
271
     1
272
     1
279
     2
340
4C50
341
4C43
342
23
371
     5
  0
ENDTAB
  0
TABLE
  2
BLOCK_RECORD
  5
1
330
0
100
AcDbSymbolTable
 70
    69
  0
BLOCK_RECORD
  5
2
102
{ACAD_XDICTIONARY
360
4C23
102
}
330
1
100
AcDbSymbolTableRecord
100
AcDbBlockTableRecord
  2
*Model_Space
340
A
  0
BLOCK_RECORD
  5
D
330
1
100
AcDbSymbolTableRecord
100
AcDbBlockTableRecord
  2
*Paper_Space
340
10
  0
BLOCK_RECORD
  5
23
102
{ACAD_XDICTIONARY
360
24
102
}
330
1
100
AcDbSymbolTableRecord
100
AcDbBlockTableRecord
  2
B-DIM
340
0
102
{BLKREFS
331
52FA
331
52FB
331
53C3
331
53C4
331
53CF
331
53D0
331
531D
331
531E
331
5327
331
5328
331
5331
331
5332
331
533B
331
533C
331
5347
331
5348
331
5351
331
5352
331
535B
331
535C
331
5365
331
5366
331
5371
331
5372
331
537B
331
537C
331
5385
331
5386
331
538F
331
5390
331
5399
331
539A
331
53A5
331
53A6
331
53AF
331
53B0
331
53B9
331
53BA
331
5743
331
5744
331
574A
331
574B
331
5751
331
5752
331
5758
331
5759
331
5761
331
5762
331
5768
331
5769
331
576F
331
5770
331
5776
331
5777
331
577F
331
5780
331
5825
331
5826
331
584F
331
5850
331
5879
331
587A
331
58A3
331
58A4
331
58D9
331
58DA
331
5903
331
5904
331
592D
331
592E
331
5957
331
5958
331
5981
331
5982
331
59F6
331
59F7
331
5A32
331
5A33
331
5A42
331
5A43
331
5A49
331
5A4A
331
5A52
331
5A53
331
5A59
331
5A5A
331
5A75
331
5A76
331
5A7E
331
5A7F
331
5BE0
331
5BE1
331
5BE9
331
5BEA
331
5BF0
331
5BF1
331
5BF7
331
5BF8
331
5C07
331
5C08
331
5C0E
331
5C0F
331
5C1E
331
5C1F
331
5C84
331
5C85
331
5C8E
331
5C8F
331
5C98
331
5C99
331
5CF5
331
5CF6
331
5CFC
331
5CFD
331
5D03
331
5D04
102
}
  0
BLOCK_RECORD
  5
4C43
330
1
100
AcDbSymbolTableRecord
100
AcDbBlockTableRecord
  2
_Dot
340
0
  0
BLOCK_RECORD
  5
5989
330
1
100
AcDbSymbolTableRecord
100
AcDbBlockTableRecord
  2
*D42
340
0
  0
BLOCK_RECORD
  5
5994
330
1
100
AcDbSymbolTableRecord
100
AcDbBlockTableRecord
  2
*D43
340
0
  0
BLOCK_RECORD
  5
599F
330
1
100
AcDbSymbolTableRecord
100
AcDbBlockTableRecord
  2
*D44
340
0
  0
BLOCK_RECORD
  5
59C1
330
1
100
AcDbSymbolTableRecord
100
AcDbBlockTableRecord
  2
*D45
340
0
  0
BLOCK_RECORD
  5
59D3
330
1
100
AcDbSymbolTableRecord
100
AcDbBlockTableRecord
  2
*D46
340
0
  0
BLOCK_RECORD
  5
59E9
330
1
100
AcDbSymbolTableRecord
100
AcDbBlockTableRecord
  2
*D48
340
0
  0
BLOCK_RECORD
  5
5A12
330
1
100
AcDbSymbolTableRecord
100
AcDbBlockTableRecord
  2
*D49
340
0
  0
BLOCK_RECORD
  5
5B8E
330
1
100
AcDbSymbolTableRecord
100
AcDbBlockTableRecord
  2
*D53
340
0
  0
BLOCK_RECORD
  5
5B98
330
1
100
AcDbSymbolTableRecord
100
AcDbBlockTableRecord
  2
*D54
340
0
  0
BLOCK_RECORD
  5
5BA2
330
1
100
AcDbSymbolTableRecord
100
AcDbBlockTableRecord
  2
*D55
340
0
  0
BLOCK_RECORD
  5
5BAE
330
1
100
AcDbSymbolTableRecord
100
AcDbBlockTableRecord
  2
*D56
340
0
  0
BLOCK_RECORD
  5
5BB8
330
1
100
AcDbSymbolTableRecord
100
AcDbBlockTableRecord
  2
*D57
340
0
  0
BLOCK_RECORD
  5
5BC2
330
1
100
AcDbSymbolTableRecord
100
AcDbBlockTableRecord
  2
*D58
340
0
  0
BLOCK_RECORD
  5
5BCC
330
1
100
AcDbSymbolTableRecord
100
AcDbBlockTableRecord
  2
*D59
340
0
  0
ENDTAB
  0
ENDSEC
  0
SECTION
  2
BLOCKS
  0
BLOCK
  5
3
330
2
100
AcDbEntity
  8
0
100
AcDbBlockBegin
  2
*Model_Space
 70
     0
 10
0.0
 20
0.0
 30
0.0
  3
*Model_Space
  1

  0
ENDBLK
  5
9
330
2
100
AcDbEntity
  8
0
100
AcDbBlockEnd
  0
BLOCK
  5
E
330
D
100
AcDbEntity
 67
     1
  8
0
100
AcDbBlockBegin
  2
*Paper_Space
 70
     0
 10
0.0
 20
0.0
 30
0.0
  3
*Paper_Space
  1

  0
ENDBLK
  5
F
330
D
100
AcDbEntity
 67
     1
  8
0
100
AcDbBlockEnd
  0
BLOCK
  5
26
330
23
100
AcDbEntity
  8
0
100
AcDbBlockBegin
  2
B-DIM
 70
     0
 10
0.0
 20
0.0
 30
0.0
  3
B-DIM
  1

  0
LINE
  5
27
330
23
100
AcDbEntity
  8
0
 62
     1
100
AcDbLine
 10
0.000000000000091
 20
-1.1
 30
0.0
 11
0.000000000000091
 21
1.1
 31
0.0
  0
LWPOLYLINE
  5
28
330
23
100
AcDbEntity
  8
0
 62
     1
100
AcDbPolyline
 90
        2
 70
     0
 43
0.3
 10
-0.7071067811864851
 20
-0.7071067811864851
 10
0.707106781186576
 20
0.707106781186576
  0
LINE
  5
29
330
23
100
AcDbEntity
  8
0
 62
     1
100
AcDbLine
 10
1.20000000000009
 20
0.0
 30
0.0
 11
-1.199999999999909
 21
0.0
 31
0.0
  0
ENDBLK
  5
2A
330
23
100
AcDbEntity
  8
0
100
AcDbBlockEnd
  0
BLOCK
  5
4C44
330
4C43
100
AcDbEntity
  8
0
100
AcDbBlockBegin
  2
_Dot
 70
     0
 10
0.0
 20
0.0
 30
0.0
  3
_Dot
  1

  0
LWPOLYLINE
  5
4C45
330
4C43
100
AcDbEntity
  8
0
  6
ByBlock
 62
     0
100
AcDbPolyline
 90
        2
 70
     1
 43
0.5
 10
-0.25
 20
0.0
 42
1.0
 10
0.25
 20
0.0
 42
1.0
  0
LINE
  5
4C46
330
4C43
100
AcDbEntity
  8
0
  6
ByBlock
 62
     0
370
    -2
100
AcDbLine
 10
-0.5
 20
0.0
 30
0.0
 11
-1.0
 21
0.0
 31
0.0
  0
ENDBLK
  5
4C47
330
4C43
100
AcDbEntity
  8
0
100
AcDbBlockEnd
  0
BLOCK
  5
598A
330
5989
100
AcDbEntity
  8
0
100
AcDbBlockBegin
  2
*D42
 70
     1
 10
0.0
 20
0.0
 30
0.0
  3
*D42
  1

  0
LINE
  5
5A41
330
5989
100
AcDbEntity
  8
-wymiary
 62
     1
370
    -2
100
AcDbLine
 10
5736.200792552939
 20
6915.0
 30
0.0
 11
6026.200792552941
 21
6915.0
 31
0.0
  0
INSERT
  5
5A42
330
5989
100
AcDbEntity
  8
-wymiary
 62
     1
370
    -2
100
AcDbBlockReference
  2
B-DIM
 10
5706.20079255294
 20
6915.0
 30
0.0
 41
30.0
 42
30.0
 43
30.0
 50
180.0
  0
INSERT
  5
5A43
330
5989
100
AcDbEntity
  8
-wymiary
 62
     1
370
    -2
100
AcDbBlockReference
  2
B-DIM
 10
6056.200792552941
 20
6915.0
 30
0.0
 41
30.0
 42
30.0
 43
30.0
  0
MTEXT
  5
5A44
330
5989
100
AcDbEntity
  8
-wymiary
 62
    10
370
     5
100
AcDbMText
 10
5881.200792552941
 20
6995.0
 30
0.0
 40
80.0
 41
0.0
 71
     5
 72
     1
  1
\A1;350
  7
ROMANS
 73
     1
 44
1.0
1001
ACAD
1000
MTEXTBEGIN
1070
    73
1070
     1
1070
    44
1040
1.0
1070
    74
1070
     0
1000
MTEXTEND
  0
POINT
  5
5A45
330
5989
100
AcDbEntity
  8
Defpoints
 62
     0
100
AcDbPoint
 10
5706.20079255294
 20
6416.200792552938
 30
0.0
  0
POINT
  5
5A46
330
5989
100
AcDbEntity
  8
Defpoints
 62
     0
100
AcDbPoint
 10
6056.200792552941
 20
6511.200792552937
 30
0.0
  0
POINT
  5
5A47
330
5989
100
AcDbEntity
  8
Defpoints
 62
     0
100
AcDbPoint
 10
6056.200792552941
 20
6915.0
 30
0.0
  0
ENDBLK
  5
598B
330
5989
100
AcDbEntity
  8
0
100
AcDbBlockEnd
  0
BLOCK
  5
5995
330
5994
100
AcDbEntity
  8
0
100
AcDbBlockBegin
  2
*D43
 70
     1
 10
0.0
 20
0.0
 30
0.0
  3
*D43
  1

  0
LINE
  5
5A48
330
5994
100
AcDbEntity
  8
-wymiary
 62
     1
370
    -2
100
AcDbLine
 10
6086.200792552942
 20
6915.0
 30
0.0
 11
6856.200792552942
 21
6915.0
 31
0.0
  0
INSERT
  5
5A49
330
5994
100
AcDbEntity
  8
-wymiary
 62
     1
370
    -2
100
AcDbBlockReference
  2
B-DIM
 10
6056.200792552941
 20
6915.0
 30
0.0
 41
30.0
 42
30.0
 43
30.0
 50
180.0
  0
INSERT
  5
5A4A
330
5994
100
AcDbEntity
  8
-wymiary
 62
     1
370
    -2
100
AcDbBlockReference
  2
B-DIM
 10
6886.200792552942
 20
6915.0
 30
0.0
 41
30.0
 42
30.0
 43
30.0
  0
MTEXT
  5
5A4B
330
5994
100
AcDbEntity
  8
-wymiary
 62
    10
370
     5
100
AcDbMText
 10
6471.200792552942
 20
6995.0
 30
0.0
 40
80.0
 41
0.0
 71
     5
 72
     1
  1
\A1;830
  7
ROMANS
 73
     1
 44
1.0
1001
ACAD
1000
MTEXTBEGIN
1070
    73
1070
     1
1070
    44
1040
1.0
1070
    74
1070
     0
1000
MTEXTEND
  0
POINT
  5
5A4C
330
5994
100
AcDbEntity
  8
Defpoints
 62
     0
100
AcDbPoint
 10
6056.200792552941
 20
6511.200792552937
 30
0.0
  0
POINT
  5
5A4D
330
5994
100
AcDbEntity
  8
Defpoints
 62
     0
100
AcDbPoint
 10
6886.200792552942
 20
6511.200792552937
 30
0.0
  0
POINT
  5
5A4E
330
5994
100
AcDbEntity
  8
Defpoints
 62
     0
100
AcDbPoint
 10
6886.200792552942
 20
6915.0
 30
0.0
  0
ENDBLK
  5
5996
330
5994
100
AcDbEntity
  8
0
100
AcDbBlockEnd
  0
BLOCK
  5
59A0
330
599F
100
AcDbEntity
  8
0
100
AcDbBlockBegin
  2
*D44
 70
     1
 10
0.0
 20
0.0
 30
0.0
  3
*D44
  1

  0
LINE
  5
5A4F
330
599F
100
AcDbEntity
  8
-wymiary
 62
     1
370
    -2
100
AcDbLine
 10
6856.200792552942
 20
6915.0
 30
0.0
 11
6826.200792552943
 21
6915.0
 31
0.0
  0
LINE
  5
5A50
330
599F
100
AcDbEntity
  8
-wymiary
 62
     1
370
    -2
100
AcDbLine
 10
7016.200792552942
 20
6915.0
 30
0.0
 11
7046.200792552943
 21
6915.0
 31
0.0
  0
LINE
  5
5A51
330
599F
100
AcDbEntity
  8
-wymiary
 62
     1
370
    -2
100
AcDbLine
 10
6886.200792552942
 20
6915.0
 30
0.0
 11
6986.200792552942
 21
6915.0
 31
0.0
  0
INSERT
  5
5A52
330
599F
100
AcDbEntity
  8
-wymiary
 62
     1
370
    -2
100
AcDbBlockReference
  2
B-DIM
 10
6886.200792552942
 20
6915.0
 30
0.0
 41
30.0
 42
30.0
 43
30.0
  0
INSERT
  5
5A53
330
599F
100
AcDbEntity
  8
-wymiary
 62
     1
370
    -2
100
AcDbBlockReference
  2
B-DIM
 10
6986.200792552942
 20
6915.0
 30
0.0
 41
30.0
 42
30.0
 43
30.0
 50
180.0
  0
MTEXT
  5
5A54
330
599F
100
AcDbEntity
  8
-wymiary
 62
    10
370
     5
100
AcDbMText
 10
6936.200792552942
 20
6995.0
 30
0.0
 40
80.0
 41
0.0
 71
     5
 72
     1
  1
\A1;100
  7
ROMANS
 73
     1
 44
1.0
1001
ACAD
1000
MTEXTBEGIN
1070
    73
1070
     1
1070
    44
1040
1.0
1070
    74
1070
     0
1000
MTEXTEND
  0
POINT
  5
5A55
330
599F
100
AcDbEntity
  8
Defpoints
 62
     0
100
AcDbPoint
 10
6886.200792552942
 20
6511.200792552937
 30
0.0
  0
POINT
  5
5A56
330
599F
100
AcDbEntity
  8
Defpoints
 62
     0
100
AcDbPoint
 10
6986.200792552942
 20
5961.200792552937
 30
0.0
  0
POINT
  5
5A57
330
599F
100
AcDbEntity
  8
Defpoints
 62
     0
100
AcDbPoint
 10
6986.200792552942
 20
6915.0
 30
0.0
  0
ENDBLK
  5
59A1
330
599F
100
AcDbEntity
  8
0
100
AcDbBlockEnd
  0
BLOCK
  5
59C2
330
59C1
100
AcDbEntity
  8
0
100
AcDbBlockBegin
  2
*D45
 70
     1
 10
0.0
 20
0.0
 30
0.0
  3
*D45
  1

  0
LINE
  5
5A58
330
59C1
100
AcDbEntity
  8
-wymiary
 62
     1
370
    -2
100
AcDbLine
 10
6956.200792552943
 20
7136.0
 30
0.0
 11
5736.20079255294
 21
7136.0
 31
0.0
  0
INSERT
  5
5A59
330
59C1
100
AcDbEntity
  8
-wymiary
 62
     1
370
    -2
100
AcDbBlockReference
  2
B-DIM
 10
6986.200792552942
 20
7136.0
 30
0.0
 41
30.0
 42
30.0
 43
30.0
  0
INSERT
  5
5A5A
330
59C1
100
AcDbEntity
  8
-wymiary
 62
     1
370
    -2
100
AcDbBlockReference
  2
B-DIM
 10
5706.200792552941
 20
7136.0
 30
0.0
 41
30.0
 42
30.0
 43
30.0
 50
180.0
  0
MTEXT
  5
5A5B
330
59C1
100
AcDbEntity
  8
-wymiary
 62
    10
370
     5
100
AcDbMText
 10
6346.200792552942
 20
7216.0
 30
0.0
 40
80.0
 41
0.0
 71
     5
 72
     1
  1
\A1;1280
  7
ROMANS
 73
     1
 44
1.0
1001
ACAD
1000
MTEXTBEGIN
1070
    73
1070
     1
1070
    44
1040
1.0
1070
    74
1070
     0
1000
MTEXTEND
  0
POINT
  5
5A5C
330
59C1
100
AcDbEntity
  8
Defpoints
 62
     0
100
AcDbPoint
 10
6986.200792552942
 20
5961.200792552937
 30
0.0
  0
POINT
  5
5A5D
330
59C1
100
AcDbEntity
  8
Defpoints
 62
     0
100
AcDbPoint
 10
5706.200792552941
 20
5936.200792552938
 30
0.0
  0
POINT
  5
5A5E
330
59C1
100
AcDbEntity
  8
Defpoints
 62
     0
100
AcDbPoint
 10
5706.200792552941
 20
7136.0
 30
0.0
  0
ENDBLK
  5
59C3
330
59C1
100
AcDbEntity
  8
0
100
AcDbBlockEnd
  0
BLOCK
  5
59D4
330
59D3
100
AcDbEntity
  8
0
100
AcDbBlockBegin
  2
*D46
 70
     1
 10
0.0
 20
0.0
 30
0.0
  3
*D46
  1

  0
LINE
  5
5A31
330
59D3
100
AcDbEntity
  8
-wymiary
 62
     1
370
    -2
100
AcDbLine
 10
7363.0
 20
6405.200792552936
 30
0.0
 11
7363.0
 21
5505.200792552936
 31
0.0
  0
INSERT
  5
5A32
330
59D3
100
AcDbEntity
  8
-wymiary
 62
     1
370
    -2
100
AcDbBlockReference
  2
B-DIM
 10
7363.0
 20
6435.200792552936
 30
0.0
 41
30.0
 42
30.0
 43
30.0
 50
90.0
  0
INSERT
  5
5A33
330
59D3
100
AcDbEntity
  8
-wymiary
 62
     1
370
    -2
100
AcDbBlockReference
  2
B-DIM
 10
7363.0
 20
5475.200792552936
 30
0.0
 41
30.0
 42
30.0
 43
30.0
 50
270.0
  0
MTEXT
  5
5A34
330
59D3
100
AcDbEntity
  8
-wymiary
 62
    10
370
     5
100
AcDbMText
 10
7282.999999999999
 20
5955.200792552938
 30
0.0
 40
80.0
 41
0.0
 71
     5
 72
     1
  1
\A1;960
  7
ROMANS
 11
0.0000000000000001
 21
1.0
 31
0.0
 73
     1
 44
1.0
1001
ACAD
1000
MTEXTBEGIN
1070
    73
1070
     1
1070
    44
1040
1.0
1070
    74
1070
     0
1000
MTEXTEND
  0
POINT
  5
5A35
330
59D3
100
AcDbEntity
  8
Defpoints
 62
     0
100
AcDbPoint
 10
6167.20079255294
 20
6435.200792552936
 30
0.0
  0
POINT
  5
5A36
330
59D3
100
AcDbEntity
  8
Defpoints
 62
     0
100
AcDbPoint
 10
6357.0
 20
5475.200792552936
 30
0.0
  0
POINT
  5
5A37
330
59D3
100
AcDbEntity
  8
Defpoints
 62
     0
100
AcDbPoint
 10
7363.0
 20
5475.200792552936
 30
0.0
  0
ENDBLK
  5
59D5
330
59D3
100
AcDbEntity
  8
0
100
AcDbBlockEnd
  0
BLOCK
  5
59EA
330
59E9
100
AcDbEntity
  8
0
100
AcDbBlockBegin
  2
*D48
 70
     1
 10
0.0
 20
0.0
 30
0.0
  3
*D48
  1

  0
LINE
  5
5A74
330
59E9
100
AcDbEntity
  8
-wymiary
 62
     1
370
    -2
100
AcDbLine
 10
5498.999999999998
 20
6405.200792552937
 30
0.0
 11
5498.999999999998
 21
5425.200792552937
 31
0.0
  0
INSERT
  5
5A75
330
59E9
100
AcDbEntity
  8
-wymiary
 62
     1
370
    -2
100
AcDbBlockReference
  2
B-DIM
 10
5498.999999999998
 20
6435.200792552937
 30
0.0
 41
30.0
 42
30.0
 43
30.0
 50
90.0
  0
INSERT
  5
5A76
330
59E9
100
AcDbEntity
  8
-wymiary
 62
     1
370
    -2
100
AcDbBlockReference
  2
B-DIM
 10
5498.999999999998
 20
5395.200792552937
 30
0.0
 41
30.0
 42
30.0
 43
30.0
 50
270.0
  0
MTEXT
  5
5A77
330
59E9
100
AcDbEntity
  8
-wymiary
 62
    10
370
     5
100
AcDbMText
 10
5418.999999999997
 20
5915.200792552938
 30
0.0
 40
80.0
 41
0.0
 71
     5
 72
     1
  1
\A1;1040
  7
ROMANS
 11
0.0000000000000001
 21
1.0
 31
0.0
 73
     1
 44
1.0
1001
ACAD
1000
MTEXTBEGIN
1070
    73
1070
     1
1070
    44
1040
1.0
1070
    74
1070
     0
1000
MTEXTEND
  0
POINT
  5
5A78
330
59E9
100
AcDbEntity
  8
Defpoints
 62
     0
100
AcDbPoint
 10
6468.70079255294
 20
6435.200792552936
 30
0.0
  0
POINT
  5
5A79
330
59E9
100
AcDbEntity
  8
Defpoints
 62
     0
100
AcDbPoint
 10
6026.200792552941
 20
5395.200792552937
 30
0.0
  0
POINT
  5
5A7A
330
59E9
100
AcDbEntity
  8
Defpoints
 62
     0
100
AcDbPoint
 10
5498.999999999998
 20
5395.200792552937
 30
0.0
  0
ENDBLK
  5
59EB
330
59E9
100
AcDbEntity
  8
0
100
AcDbBlockEnd
  0
BLOCK
  5
5A13
330
5A12
100
AcDbEntity
  8
0
100
AcDbBlockBegin
  2
*D49
 70
     1
 10
0.0
 20
0.0
 30
0.0
  3
*D49
  1

  0
LINE
  5
5A7B
330
5A12
100
AcDbEntity
  8
-wymiary
 62
     1
370
    -2
100
AcDbLine
 10
7363.000000000003
 20
5505.200792552936
 30
0.0
 11
7363.000000000003
 21
5535.200792552936
 31
0.0
  0
LINE
  5
5A7C
330
5A12
100
AcDbEntity
  8
-wymiary
 62
     1
370
    -2
100
AcDbLine
 10
7363.000000000003
 20
5365.200792552936
 30
0.0
 11
7363.000000000003
 21
5335.200792552936
 31
0.0
  0
LINE
  5
5A7D
330
5A12
100
AcDbEntity
  8
-wymiary
 62
     1
370
    -2
100
AcDbLine
 10
7363.000000000003
 20
5475.200792552936
 30
0.0
 11
7363.000000000003
 21
5395.200792552936
 31
0.0
  0
INSERT
  5
5A7E
330
5A12
100
AcDbEntity
  8
-wymiary
 62
     1
370
    -2
100
AcDbBlockReference
  2
B-DIM
 10
7363.000000000003
 20
5475.200792552936
 30
0.0
 41
30.0
 42
30.0
 43
30.0
 50
270.0
  0
INSERT
  5
5A7F
330
5A12
100
AcDbEntity
  8
-wymiary
 62
     1
370
    -2
100
AcDbBlockReference
  2
B-DIM
 10
7363.000000000003
 20
5395.200792552936
 30
0.0
 41
30.0
 42
30.0
 43
30.0
 50
90.0
  0
MTEXT
  5
5A80
330
5A12
100
AcDbEntity
  8
-wymiary
 62
    10
370
     5
100
AcDbMText
 10
7283.000000000002
 20
5435.200792552937
 30
0.0
 40
80.0
 41
0.0
 71
     5
 72
     1
  1
\A1;80
  7
ROMANS
 11
0.0000000000000001
 21
1.0
 31
0.0
 73
     1
 44
1.0
1001
ACAD
1000
MTEXTBEGIN
1070
    73
1070
     1
1070
    44
1040
1.0
1070
    74
1070
     0
1000
MTEXTEND
  0
POINT
  5
5A81
330
5A12
100
AcDbEntity
  8
Defpoints
 62
     0
100
AcDbPoint
 10
6220.200792552941
 20
5475.200792552936
 30
0.0
  0
POINT
  5
5A82
330
5A12
100
AcDbEntity
  8
Defpoints
 62
     0
100
AcDbPoint
 10
6109.200792552941
 20
5395.200792552937
 30
0.0
  0
POINT
  5
5A83
330
5A12
100
AcDbEntity
  8
Defpoints
 62
     0
100
AcDbPoint
 10
7363.000000000003
 20
5395.200792552936
 30
0.0
  0
ENDBLK
  5
5A14
330
5A12
100
AcDbEntity
  8
0
100
AcDbBlockEnd
  0
BLOCK
  5
5B8F
330
5B8E
100
AcDbEntity
  8
0
100
AcDbBlockBegin
  2
*D53
 70
     1
 10
0.0
 20
0.0
 30
0.0
  3
*D53
  1

  0
LINE
  5
5C1D
330
5B8E
100
AcDbEntity
  8
-wymiary
 62
     1
370
    -2
100
AcDbLine
 10
11003.17765169967
 20
6915.0
 30
0.0
 11
10713.17765169967
 21
6915.0
 31
0.0
  0
INSERT
  5
5C1E
330
5B8E
100
AcDbEntity
  8
-wymiary
 62
     1
370
    -2
100
AcDbBlockReference
  2
B-DIM
 10
11033.17765169967
 20
6915.0
 30
0.0
 41
30.0
 42
30.0
 43
30.0
  0
INSERT
  5
5C1F
330
5B8E
100
AcDbEntity
  8
-wymiary
 62
     1
370
    -2
100
AcDbBlockReference
  2
B-DIM
 10
10683.17765169966
 20
6915.0
 30
0.0
 41
30.0
 42
30.0
 43
30.0
 50
180.0
  0
MTEXT
  5
5C20
330
5B8E
100
AcDbEntity
  8
-wymiary
 62
    10
370
     5
100
AcDbMText
 10
10858.17765169967
 20
6995.0
 30
0.0
 40
80.0
 41
0.0
 71
     5
 72
     1
  1
\A1;350
  7
ROMANS
 73
     1
 44
1.0
1001
ACAD
1000
MTEXTBEGIN
1070
    73
1070
     1
1070
    44
1040
1.0
1070
    74
1070
     0
1000
MTEXTEND
  0
POINT
  5
5C21
330
5B8E
100
AcDbEntity
  8
Defpoints
 62
     0
100
AcDbPoint
 10
11033.17765169967
 20
5936.200792552938
 30
0.0
  0
POINT
  5
5C22
330
5B8E
100
AcDbEntity
  8
Defpoints
 62
     0
100
AcDbPoint
 10
10683.17765169966
 20
6511.200792552937
 30
0.0
  0
POINT
  5
5C23
330
5B8E
100
AcDbEntity
  8
Defpoints
 62
     0
100
AcDbPoint
 10
10683.17765169966
 20
6915.0
 30
0.0
  0
ENDBLK
  5
5B90
330
5B8E
100
AcDbEntity
  8
0
100
AcDbBlockEnd
  0
BLOCK
  5
5B99
330
5B98
100
AcDbEntity
  8
0
100
AcDbBlockBegin
  2
*D54
 70
     1
 10
0.0
 20
0.0
 30
0.0
  3
*D54
  1

  0
LINE
  5
5BDF
330
5B98
100
AcDbEntity
  8
-wymiary
 62
     1
370
    -2
100
AcDbLine
 10
10653.17765169967
 20
6915.0
 30
0.0
 11
9883.177651699666
 21
6915.0
 31
0.0
  0
INSERT
  5
5BE0
330
5B98
100
AcDbEntity
  8
-wymiary
 62
     1
370
    -2
100
AcDbBlockReference
  2
B-DIM
 10
10683.17765169966
 20
6915.0
 30
0.0
 41
30.0
 42
30.0
 43
30.0
  0
INSERT
  5
5BE1
330
5B98
100
AcDbEntity
  8
-wymiary
 62
     1
370
    -2
100
AcDbBlockReference
  2
B-DIM
 10
9853.177651699665
 20
6915.0
 30
0.0
 41
30.0
 42
30.0
 43
30.0
 50
180.0
  0
MTEXT
  5
5BE2
330
5B98
100
AcDbEntity
  8
-wymiary
 62
    10
370
     5
100
AcDbMText
 10
10268.17765169966
 20
6995.0
 30
0.0
 40
80.0
 41
0.0
 71
     5
 72
     1
  1
\A1;830
  7
ROMANS
 73
     1
 44
1.0
1001
ACAD
1000
MTEXTBEGIN
1070
    73
1070
     1
1070
    44
1040
1.0
1070
    74
1070
     0
1000
MTEXTEND
  0
POINT
  5
5BE3
330
5B98
100
AcDbEntity
  8
Defpoints
 62
     0
100
AcDbPoint
 10
10683.17765169966
 20
6511.200792552937
 30
0.0
  0
POINT
  5
5BE4
330
5B98
100
AcDbEntity
  8
Defpoints
 62
     0
100
AcDbPoint
 10
9853.177651699665
 20
6511.200792552937
 30
0.0
  0
POINT
  5
5BE5
330
5B98
100
AcDbEntity
  8
Defpoints
 62
     0
100
AcDbPoint
 10
9853.177651699665
 20
6915.0
 30
0.0
  0
ENDBLK
  5
5B9A
330
5B98
100
AcDbEntity
  8
0
100
AcDbBlockEnd
  0
BLOCK
  5
5BA3
330
5BA2
100
AcDbEntity
  8
0
100
AcDbBlockBegin
  2
*D55
 70
     1
 10
0.0
 20
0.0
 30
0.0
  3
*D55
  1

  0
LINE
  5
5BE6
330
5BA2
100
AcDbEntity
  8
-wymiary
 62
     1
370
    -2
100
AcDbLine
 10
9883.177651699666
 20
6915.0
 30
0.0
 11
9913.177651699665
 21
6915.0
 31
0.0
  0
LINE
  5
5BE7
330
5BA2
100
AcDbEntity
  8
-wymiary
 62
     1
370
    -2
100
AcDbLine
 10
9723.177651699666
 20
6915.0
 30
0.0
 11
9693.177651699665
 21
6915.0
 31
0.0
  0
LINE
  5
5BE8
330
5BA2
100
AcDbEntity
  8
-wymiary
 62
     1
370
    -2
100
AcDbLine
 10
9853.177651699665
 20
6915.0
 30
0.0
 11
9753.177651699665
 21
6915.0
 31
0.0
  0
INSERT
  5
5BE9
330
5BA2
100
AcDbEntity
  8
-wymiary
 62
     1
370
    -2
100
AcDbBlockReference
  2
B-DIM
 10
9853.177651699665
 20
6915.0
 30
0.0
 41
30.0
 42
30.0
 43
30.0
 50
180.0
  0
INSERT
  5
5BEA
330
5BA2
100
AcDbEntity
  8
-wymiary
 62
     1
370
    -2
100
AcDbBlockReference
  2
B-DIM
 10
9753.177651699665
 20
6915.0
 30
0.0
 41
30.0
 42
30.0
 43
30.0
  0
MTEXT
  5
5BEB
330
5BA2
100
AcDbEntity
  8
-wymiary
 62
    10
370
     5
100
AcDbMText
 10
9803.177651699666
 20
6995.0
 30
0.0
 40
80.0
 41
0.0
 71
     5
 72
     1
  1
\A1;100
  7
ROMANS
 73
     1
 44
1.0
1001
ACAD
1000
MTEXTBEGIN
1070
    73
1070
     1
1070
    44
1040
1.0
1070
    74
1070
     0
1000
MTEXTEND
  0
POINT
  5
5BEC
330
5BA2
100
AcDbEntity
  8
Defpoints
 62
     0
100
AcDbPoint
 10
9853.177651699665
 20
6511.200792552937
 30
0.0
  0
POINT
  5
5BED
330
5BA2
100
AcDbEntity
  8
Defpoints
 62
     0
100
AcDbPoint
 10
9753.177651699665
 20
5961.200792552937
 30
0.0
  0
POINT
  5
5BEE
330
5BA2
100
AcDbEntity
  8
Defpoints
 62
     0
100
AcDbPoint
 10
9753.177651699665
 20
6915.0
 30
0.0
  0
ENDBLK
  5
5BA4
330
5BA2
100
AcDbEntity
  8
0
100
AcDbBlockEnd
  0
BLOCK
  5
5BAF
330
5BAE
100
AcDbEntity
  8
0
100
AcDbBlockBegin
  2
*D56
 70
     1
 10
0.0
 20
0.0
 30
0.0
  3
*D56
  1

  0
LINE
  5
5BEF
330
5BAE
100
AcDbEntity
  8
-wymiary
 62
     1
370
    -2
100
AcDbLine
 10
9783.177651699665
 20
7136.0
 30
0.0
 11
11003.17765169967
 21
7136.0
 31
0.0
  0
INSERT
  5
5BF0
330
5BAE
100
AcDbEntity
  8
-wymiary
 62
     1
370
    -2
100
AcDbBlockReference
  2
B-DIM
 10
9753.177651699665
 20
7136.0
 30
0.0
 41
30.0
 42
30.0
 43
30.0
 50
180.0
  0
INSERT
  5
5BF1
330
5BAE
100
AcDbEntity
  8
-wymiary
 62
     1
370
    -2
100
AcDbBlockReference
  2
B-DIM
 10
11033.17765169967
 20
7136.0
 30
0.0
 41
30.0
 42
30.0
 43
30.0
  0
MTEXT
  5
5BF2
330
5BAE
100
AcDbEntity
  8
-wymiary
 62
    10
370
     5
100
AcDbMText
 10
10393.17765169966
 20
7216.0
 30
0.0
 40
80.0
 41
0.0
 71
     5
 72
     1
  1
\A1;1280
  7
ROMANS
 73
     1
 44
1.0
1001
ACAD
1000
MTEXTBEGIN
1070
    73
1070
     1
1070
    44
1040
1.0
1070
    74
1070
     0
1000
MTEXTEND
  0
POINT
  5
5BF3
330
5BAE
100
AcDbEntity
  8
Defpoints
 62
     0
100
AcDbPoint
 10
9753.177651699665
 20
5961.200792552937
 30
0.0
  0
POINT
  5
5BF4
330
5BAE
100
AcDbEntity
  8
Defpoints
 62
     0
100
AcDbPoint
 10
11033.17765169967
 20
5936.200792552938
 30
0.0
  0
POINT
  5
5BF5
330
5BAE
100
AcDbEntity
  8
Defpoints
 62
     0
100
AcDbPoint
 10
11033.17765169967
 20
7136.0
 30
0.0
  0
ENDBLK
  5
5BB0
330
5BAE
100
AcDbEntity
  8
0
100
AcDbBlockEnd
  0
BLOCK
  5
5BB9
330
5BB8
100
AcDbEntity
  8
0
100
AcDbBlockBegin
  2
*D57
 70
     1
 10
0.0
 20
0.0
 30
0.0
  3
*D57
  1

  0
LINE
  5
5BF6
330
5BB8
100
AcDbEntity
  8
-wymiary
 62
     1
370
    -2
100
AcDbLine
 10
9376.378444252608
 20
6405.200792552937
 30
0.0
 11
9376.378444252608
 21
5505.200792552937
 31
0.0
  0
INSERT
  5
5BF7
330
5BB8
100
AcDbEntity
  8
-wymiary
 62
     1
370
    -2
100
AcDbBlockReference
  2
B-DIM
 10
9376.378444252608
 20
6435.200792552937
 30
0.0
 41
30.0
 42
30.0
 43
30.0
 50
90.0
  0
INSERT
  5
5BF8
330
5BB8
100
AcDbEntity
  8
-wymiary
 62
     1
370
    -2
100
AcDbBlockReference
  2
B-DIM
 10
9376.378444252608
 20
5475.200792552937
 30
0.0
 41
30.0
 42
30.0
 43
30.0
 50
270.0
  0
MTEXT
  5
5BF9
330
5BB8
100
AcDbEntity
  8
-wymiary
 62
    10
370
     5
100
AcDbMText
 10
9296.378444252606
 20
5955.200792552938
 30
0.0
 40
80.0
 41
0.0
 71
     5
 72
     1
  1
\A1;960
  7
ROMANS
 11
0.0000000000000001
 21
1.0
 31
0.0
 73
     1
 44
1.0
1001
ACAD
1000
MTEXTBEGIN
1070
    73
1070
     1
1070
    44
1040
1.0
1070
    74
1070
     0
1000
MTEXTEND
  0
POINT
  5
5BFA
330
5BB8
100
AcDbEntity
  8
Defpoints
 62
     0
100
AcDbPoint
 10
10572.17765169967
 20
6435.200792552936
 30
0.0
  0
POINT
  5
5BFB
330
5BB8
100
AcDbEntity
  8
Defpoints
 62
     0
100
AcDbPoint
 10
10382.37844425261
 20
5475.200792552936
 30
0.0
  0
POINT
  5
5BFC
330
5BB8
100
AcDbEntity
  8
Defpoints
 62
     0
100
AcDbPoint
 10
9376.378444252608
 20
5475.200792552937
 30
0.0
  0
ENDBLK
  5
5BBA
330
5BB8
100
AcDbEntity
  8
0
100
AcDbBlockEnd
  0
BLOCK
  5
5BC3
330
5BC2
100
AcDbEntity
  8
0
100
AcDbBlockBegin
  2
*D58
 70
     1
 10
0.0
 20
0.0
 30
0.0
  3
*D58
  1

  0
LINE
  5
5C0D
330
5BC2
100
AcDbEntity
  8
-wymiary
 62
     1
370
    -2
100
AcDbLine
 10
11299.37844425261
 20
6405.200792552936
 30
0.0
 11
11299.37844425261
 21
5425.200792552936
 31
0.0
  0
INSERT
  5
5C0E
330
5BC2
100
AcDbEntity
  8
-wymiary
 62
     1
370
    -2
100
AcDbBlockReference
  2
B-DIM
 10
11299.37844425261
 20
6435.200792552936
 30
0.0
 41
30.0
 42
30.0
 43
30.0
 50
90.0
  0
INSERT
  5
5C0F
330
5BC2
100
AcDbEntity
  8
-wymiary
 62
     1
370
    -2
100
AcDbBlockReference
  2
B-DIM
 10
11299.37844425261
 20
5395.200792552936
 30
0.0
 41
30.0
 42
30.0
 43
30.0
 50
270.0
  0
MTEXT
  5
5C10
330
5BC2
100
AcDbEntity
  8
-wymiary
 62
    10
370
     5
100
AcDbMText
 10
11219.37844425261
 20
5915.200792552938
 30
0.0
 40
80.0
 41
0.0
 71
     5
 72
     1
  1
\A1;1040
  7
ROMANS
 11
0.0000000000000001
 21
1.0
 31
0.0
 73
     1
 44
1.0
1001
ACAD
1000
MTEXTBEGIN
1070
    73
1070
     1
1070
    44
1040
1.0
1070
    74
1070
     0
1000
MTEXTEND
  0
POINT
  5
5C11
330
5BC2
100
AcDbEntity
  8
Defpoints
 62
     0
100
AcDbPoint
 10
10329.67765169966
 20
6435.200792552936
 30
0.0
  0
POINT
  5
5C12
330
5BC2
100
AcDbEntity
  8
Defpoints
 62
     0
100
AcDbPoint
 10
10772.17765169967
 20
5395.200792552936
 30
0.0
  0
POINT
  5
5C13
330
5BC2
100
AcDbEntity
  8
Defpoints
 62
     0
100
AcDbPoint
 10
11299.37844425261
 20
5395.200792552936
 30
0.0
  0
ENDBLK
  5
5BC4
330
5BC2
100
AcDbEntity
  8
0
100
AcDbBlockEnd
  0
BLOCK
  5
5BCD
330
5BCC
100
AcDbEntity
  8
0
100
AcDbBlockBegin
  2
*D59
 70
     1
 10
0.0
 20
0.0
 30
0.0
  3
*D59
  1

  0
LINE
  5
5C04
330
5BCC
100
AcDbEntity
  8
-wymiary
 62
     1
370
    -2
100
AcDbLine
 10
9376.378444252605
 20
5505.200792552937
 30
0.0
 11
9376.378444252605
 21
5535.200792552937
 31
0.0
  0
LINE
  5
5C05
330
5BCC
100
AcDbEntity
  8
-wymiary
 62
     1
370
    -2
100
AcDbLine
 10
9376.378444252605
 20
5365.200792552937
 30
0.0
 11
9376.378444252605
 21
5335.200792552937
 31
0.0
  0
LINE
  5
5C06
330
5BCC
100
AcDbEntity
  8
-wymiary
 62
     1
370
    -2
100
AcDbLine
 10
9376.378444252605
 20
5475.200792552937
 30
0.0
 11
9376.378444252605
 21
5395.200792552937
 31
0.0
  0
INSERT
  5
5C07
330
5BCC
100
AcDbEntity
  8
-wymiary
 62
     1
370
    -2
100
AcDbBlockReference
  2
B-DIM
 10
9376.378444252605
 20
5475.200792552937
 30
0.0
 41
30.0
 42
30.0
 43
30.0
 50
270.0
  0
INSERT
  5
5C08
330
5BCC
100
AcDbEntity
  8
-wymiary
 62
     1
370
    -2
100
AcDbBlockReference
  2
B-DIM
 10
9376.378444252605
 20
5395.200792552937
 30
0.0
 41
30.0
 42
30.0
 43
30.0
 50
90.0
  0
MTEXT
  5
5C09
330
5BCC
100
AcDbEntity
  8
-wymiary
 62
    10
370
     5
100
AcDbMText
 10
9296.378444252603
 20
5435.200792552937
 30
0.0
 40
80.0
 41
0.0
 71
     5
 72
     1
  1
\A1;80
  7
ROMANS
 11
0.0000000000000001
 21
1.0
 31
0.0
 73
     1
 44
1.0
1001
ACAD
1000
MTEXTBEGIN
1070
    73
1070
     1
1070
    44
1040
1.0
1070
    74
1070
     0
1000
MTEXTEND
  0
POINT
  5
5C0A
330
5BCC
100
AcDbEntity
  8
Defpoints
 62
     0
100
AcDbPoint
 10
10519.17765169966
 20
5475.200792552936
 30
0.0
  0
POINT
  5
5C0B
330
5BCC
100
AcDbEntity
  8
Defpoints
 62
     0
100
AcDbPoint
 10
10630.17765169967
 20
5395.200792552936
 30
0.0
  0
POINT
  5
5C0C
330
5BCC
100
AcDbEntity
  8
Defpoints
 62
     0
100
AcDbPoint
 10
9376.378444252605
 20
5395.200792552937
 30
0.0
  0
ENDBLK
  5
5BCE
330
5BCC
100
AcDbEntity
  8
0
100
AcDbBlockEnd
  0
ENDSEC
  0
SECTION
  2
ENTITIES
  0
LINE
  5
5206
330
2
100
AcDbEntity
  8
0
  6
Continuous
370
     5
100
AcDbLine
 10
5744.200792552941
 20
5255.200792552937
 30
0.0
 11
5744.200792552941
 21
5395.200792552937
 31
0.0
  0
LINE
  5
5207
330
2
100
AcDbEntity
  8
0
  6
Continuous
370
     5
100
AcDbLine
 10
5744.200792552941
 20
5255.200792552937
 30
0.0
 11
6089.200792552942
 21
5255.200792552937
 31
0.0
  0
LINE
  5
5208
330
2
100
AcDbEntity
  8
0
  6
Continuous
370
     5
100
AcDbLine
 10
6089.200792552942
 20
5255.200792552937
 30
0.0
 11
6089.200792552941
 21
5395.200792552937
 31
0.0
  0
LINE
  5
520B
330
2
100
AcDbEntity
  8
0
  6
Continuous
370
     5
100
AcDbLine
 10
6056.200792552941
 20
6245.200792552941
 30
0.0
 11
6056.200792552941
 21
6435.200792552937
 31
0.0
  0
LINE
  5
520C
330
2
100
AcDbEntity
  8
0
  6
Continuous
370
     5
100
AcDbLine
 10
6051.200792552942
 20
6710.200792552937
 30
0.0
 11
6831.200792552943
 21
6710.200792552937
 31
0.0
  0
LINE
  5
520D
330
2
100
AcDbEntity
  8
0
  6
Continuous
370
     5
100
AcDbLine
 10
6051.200792552942
 20
6710.200792552937
 30
0.0
 11
6051.200792552942
 21
6435.200792552937
 31
0.0
  0
ARC
  5
520E
330
2
100
AcDbEntity
  8
0
  6
Continuous
370
     5
100
AcDbCircle
 10
6831.200792552943
 20
6435.200792552937
 30
0.0
 40
275.0000000000002
100
AcDbArc
 50
0.0
 51
90.0
  0
LINE
  5
520F
330
2
100
AcDbEntity
  8
0
  6
Continuous
370
     5
100
AcDbLine
 10
6986.200792552942
 20
5967.271860364801
 30
0.0
 11
7106.200792552942
 21
5967.271860364801
 31
0.0
  0
ARC
  5
5218
330
2
100
AcDbEntity
  8
0
  6
Continuous
370
     5
100
AcDbCircle
 10
6369.200792552945
 20
5520.617459219596
 30
0.0
 40
295.4166666666592
100
AcDbArc
 50
224.0547600445853
 51
315.9452399554147
  0
LINE
  5
521C
330
2
100
AcDbEntity
  8
0
  6
Continuous
370
     5
390
4E52
100
AcDbLine
 10
7106.200792552942
 20
5967.271860364801
 30
0.0
 11
7106.200792552942
 21
6435.200792552937
 31
0.0
  0
LINE
  5
521D
330
2
100
AcDbEntity
  8
0
  6
Continuous
370
     5
390
4E52
100
AcDbLine
 10
6649.200792552949
 20
5315.200792552936
 30
0.0
 11
6649.200792552949
 21
5475.200792552937
 31
0.0
  0
LINE
  5
521E
330
2
100
AcDbEntity
  8
0
  6
Continuous
370
     5
390
4E52
100
AcDbLine
 10
6484.200792552941
 20
5315.200792552957
 30
0.0
 11
6649.200792552949
 21
5315.200792552936
 31
0.0
  0
LINE
  5
5229
330
2
100
AcDbEntity
  8
0
  6
Continuous
370
     5
100
AcDbLine
 10
6886.200792552942
 20
5475.200792552937
 30
0.0
 11
6886.200792552942
 21
5785.200792552937
 31
0.0
210
-1.0
220
0.0
230
0.0
  0
HATCH
  5
5231
330
2
100
AcDbEntity
  8
0
 48
4.0
370
     5
100
AcDbHatch
 10
0.0
 20
0.0
 30
0.0
210
0.0
220
0.0
230
1.0
  2
SOLID
 70
     1
 71
     0
 91
        2
 92
        7
 72
     0
 73
     1
 93
       43
 10
5706.20079255294
 20
5950.200792552939
 10
5706.20079255294
 20
5945.200792552939
 10
5706.200792552942
 20
5395.200792552937
 10
5786.200792552941
 20
5395.200792552937
 10
5786.200792552941
 20
5455.200792552937
 10
5766.200792552939
 20
5455.200792552937
 10
5766.200792552941
 20
6185.20079255294
 10
6116.200792552945
 20
6185.20079255294
 10
6116.200792552941
 20
6375.200792552931
 10
6826.200792552943
 20
6375.200792552937
 10
6826.200792552945
 20
6100.347978810551
 10
6926.200792552942
 20
6000.347978810552
 10
6926.200792552942
 20
5910.044113896783
 10
6826.200792552943
 20
5809.889784964235
 10
6826.200792552943
 20
5535.200792552937
 10
6419.200792552947
 20
5535.200792552937
 10
6419.200792552947
 20
5475.200792552937
 10
6494.200792552943
 20
5475.200792552937
 10
6499.200792552944
 20
5475.200792552937
 10
6886.200792552942
 20
5475.200792552937
 10
6886.200792552942
 20
5630.200792552937
 10
6886.200792552942
 20
5635.200792552937
 10
6886.200792552942
 20
5785.200792552937
 10
6966.67135530142
 20
5865.671355301413
 10
6968.439122254387
 20
5867.439122254379
 10
6986.200792552942
 20
5885.200792552938
 10
6986.200792552942
 20
5910.200792552937
 10
6986.200792552942
 20
5915.200792552937
 10
6986.200792552941
 20
6025.200792552937
 10
6908.335045853529
 20
6103.066539252349
 10
6904.799511947597
 20
6106.602073158282
 10
6886.200792552942
 20
6125.200792552938
 10
6886.200792552942
 20
6190.200792552936
 10
6886.200792552942
 20
6435.200792552937
 10
6503.200792552947
 20
6435.200792552937
 10
6152.200792552942
 20
6435.200792552937
 10
6056.200792552942
 20
6435.200792552937
 10
6056.200792552941
 20
6245.200792552941
 10
5908.280509014845
 20
6245.200792552941
 10
5905.780509014845
 20
6245.200792552941
 10
5755.20079255294
 20
6245.200792552941
 10
5755.20079255294
 20
6325.200792552939
 10
5706.20079255294
 20
6325.200792552939
 97
        0
 92
       23
 72
     0
 73
     1
 93
       10
 10
6049.20079255294
 20
5535.200792552937
 10
6049.200792552942
 20
5455.200792552937
 10
6026.200792552941
 20
5455.200792552937
 10
6026.200792552942
 20
5395.200792552937
 10
6109.200792552941
 20
5395.200792552937
 10
6109.20079255294
 20
5475.200792552937
 10
6194.200792552947
 20
5475.200792552937
 10
6199.200792552947
 20
5475.200792552937
 10
6319.200792552948
 20
5475.200792552937
 10
6319.200792552947
 20
5535.200792552937
 97
        0
 75
     0
 76
     1
 47
3.535361825226424
 98
        2
 10
5722.09345971744
 20
6184.172129294352
 10
6204.804010067562
 20
5513.543601813487
1001
ACAD
1010
0.0
1020
0.0
1030
0.0
  0
LINE
  5
5233
330
2
100
AcDbEntity
  8
0
  6
Continuous
370
     5
100
AcDbLine
 10
6319.200792552947
 20
5475.200792552937
 30
0.0
 11
6319.200792552947
 21
5535.200792552937
 31
0.0
  0
LINE
  5
5234
330
2
100
AcDbEntity
  8
0
  6
Continuous
370
     5
100
AcDbLine
 10
6049.20079255294
 20
5535.200792552937
 30
0.0
 11
6826.200792552943
 21
5535.200792552937
 31
0.0
  0
LINE
  5
5235
330
2
100
AcDbEntity
  8
0
  6
Continuous
370
     5
100
AcDbLine
 10
6109.200792552941
 20
5475.200792552937
 30
0.0
 11
6886.200792552942
 21
5475.200792552937
 31
0.0
  0
LINE
  5
5237
330
2
100
AcDbEntity
  8
0
  6
Continuous
370
     5
100
AcDbLine
 10
6419.200792552947
 20
5535.200792552937
 30
0.0
 11
6419.200792552947
 21
5475.200792552937
 31
0.0
  0
LINE
  5
523B
330
2
100
AcDbEntity
  8
0
  6
Continuous
370
     5
100
AcDbLine
 10
6116.200792552941
 20
6375.200792552931
 30
0.0
 11
6826.200792552944
 21
6375.200792552937
 31
0.0
  0
LINE
  5
523D
330
2
100
AcDbEntity
  8
0
  6
Continuous
370
     5
100
AcDbLine
 10
6116.200792552943
 20
6185.20079255294
 30
0.0
 11
6116.200792552941
 21
6375.200792552932
 31
0.0
  0
LINE
  5
523E
330
2
100
AcDbEntity
  8
0
  6
Continuous
370
     5
100
AcDbLine
 10
5706.200792552942
 20
5395.200792552937
 30
0.0
 11
5706.20079255294
 21
6325.200792552939
 31
0.0
  0
LINE
  5
523F
330
2
100
AcDbEntity
  8
0
  6
Continuous
370
     5
100
AcDbLine
 10
5766.20079255294
 20
5455.200792552937
 30
0.0
 11
5766.20079255294
 21
6185.20079255294
 31
0.0
  0
LINE
  5
5240
330
2
100
AcDbEntity
  8
0
  6
Continuous
370
     5
100
AcDbLine
 10
5755.200792552941
 20
6245.200792552941
 30
0.0
 11
6056.200792552941
 21
6245.200792552941
 31
0.0
  0
LINE
  5
5241
330
2
100
AcDbEntity
  8
0
  6
Continuous
370
     5
100
AcDbLine
 10
5755.200792552941
 20
6245.200792552941
 30
0.0
 11
5755.200792552941
 21
6325.200792552939
 31
0.0
  0
LINE
  5
5242
330
2
100
AcDbEntity
  8
0
  6
Continuous
370
     5
100
AcDbLine
 10
5706.20079255294
 20
6325.200792552939
 30
0.0
 11
6056.200792552941
 21
6325.200792552942
 31
0.0
  0
LINE
  5
5244
330
2
100
AcDbEntity
  8
0
  6
Continuous
370
     5
100
AcDbLine
 10
5766.20079255294
 20
6185.20079255294
 30
0.0
 11
6116.200792552943
 21
6185.20079255294
 31
0.0
  0
LINE
  5
5247
330
2
100
AcDbEntity
  8
0
  6
Continuous
370
     5
100
AcDbLine
 10
6826.200792552943
 20
5809.889784964235
 30
0.0
 11
6826.200792552943
 21
5535.200792552937
 31
0.0
  0
LINE
  5
524B
330
2
100
AcDbEntity
  8
0
  6
Continuous
370
     5
100
AcDbLine
 10
6826.200792552944
 20
6375.200792552937
 30
0.0
 11
6826.200792552944
 21
6100.347978810551
 31
0.0
  0
LINE
  5
524C
330
2
100
AcDbEntity
  8
0
  6
Continuous
370
     5
100
AcDbLine
 10
6886.200792552942
 20
6125.200792552937
 30
0.0
 11
6886.200792552942
 21
6435.200792552937
 31
0.0
  0
LINE
  5
524E
330
2
100
AcDbEntity
  8
0
  6
Continuous
370
     5
100
AcDbLine
 10
6026.200792552941
 20
5455.200792552937
 30
0.0
 11
6026.200792552941
 21
5395.200792552937
 31
0.0
  0
LINE
  5
5250
330
2
100
AcDbEntity
  8
0
  6
Continuous
370
     5
100
AcDbLine
 10
5765.700792552942
 20
5455.200792552937
 30
0.0
 11
6048.200792552941
 21
5455.200792552937
 31
0.0
  0
LINE
  5
5251
330
2
100
AcDbEntity
  8
0
  6
Continuous
370
     5
100
AcDbLine
 10
5706.200792552942
 20
5395.200792552937
 30
0.0
 11
6109.200792552941
 21
5395.200792552937
 31
0.0
  0
LINE
  5
5252
330
2
100
AcDbEntity
  8
0
  6
Continuous
370
     5
100
AcDbLine
 10
5786.200792552941
 20
5395.200792552937
 30
0.0
 11
5786.200792552941
 21
5455.200792552937
 31
0.0
  0
LINE
  5
5253
330
2
100
AcDbEntity
  8
0
  6
Continuous
370
     5
100
AcDbLine
 10
6049.20079255294
 20
5535.200792552937
 30
0.0
 11
6049.200792552942
 21
5455.200792552937
 31
0.0
  0
LINE
  5
5256
330
2
100
AcDbEntity
  8
0
  6
Continuous
370
     5
100
AcDbLine
 10
6926.200792552942
 20
6000.347978810552
 30
0.0
 11
6926.200792552942
 21
5910.044113896782
 31
0.0
  0
LINE
  5
5257
330
2
100
AcDbEntity
  8
0
  6
Continuous
370
     5
100
AcDbLine
 10
6986.200792552942
 20
5885.200792552937
 30
0.0
 11
6986.200792552942
 21
6025.200792552937
 31
0.0
  0
LINE
  5
5258
330
2
100
AcDbEntity
  8
0
  6
Continuous
370
     5
100
AcDbLine
 10
6826.200792552944
 20
6100.347978810551
 30
0.0
 11
6926.200792552942
 21
6000.347978810552
 31
0.0
  0
LINE
  5
5259
330
2
100
AcDbEntity
  8
0
  6
Continuous
370
     5
100
AcDbLine
 10
6886.200792552942
 20
6125.200792552937
 30
0.0
 11
6986.200792552942
 21
6025.200792552937
 31
0.0
  0
LINE
  5
525B
330
2
100
AcDbEntity
  8
0
  6
Continuous
370
     5
100
AcDbLine
 10
6926.200792552942
 20
5910.044113896782
 30
0.0
 11
6826.200792552943
 21
5809.889784964235
 31
0.0
  0
LINE
  5
525D
330
2
100
AcDbEntity
  8
0
  6
Continuous
370
     5
100
AcDbLine
 10
6886.200792552942
 20
5785.200792552937
 30
0.0
 11
6986.200792552942
 21
5885.200792552937
 31
0.0
  0
LINE
  5
526A
330
2
100
AcDbEntity
  8
0
  6
Continuous
370
     5
100
AcDbLine
 10
6051.200792552942
 20
6435.200792552937
 30
0.0
 11
6886.200792552942
 21
6435.200792552937
 31
0.0
  0
LINE
  5
526B
330
2
100
AcDbEntity
  8
0
  6
Continuous
370
     5
100
AcDbLine
 10
6984.129724741078
 20
6027.271860364802
 30
0.0
 11
7086.200792552943
 21
6027.271860364802
 31
0.0
  0
LINE
  5
526D
330
2
100
AcDbEntity
  8
0
  6
Continuous
370
     5
100
AcDbLine
 10
7046.200792552943
 20
6415.200792552937
 30
0.0
 11
7046.200792552943
 21
6435.200792553299
 31
0.0
  0
ARC
  5
526E
330
2
100
AcDbEntity
  8
0
  6
Continuous
370
     5
100
AcDbCircle
 10
6831.242075824518
 20
6435.242075824513
 30
0.0
 40
214.9587206926939
100
AcDbArc
 50
359.9889962257857
 51
90.01100377426643
  0
LINE
  5
526F
330
2
100
AcDbEntity
  8
0
  6
Continuous
370
     5
100
AcDbLine
 10
6403.200792552909
 20
6650.200792552937
 30
0.0
 11
6831.200792552943
 21
6650.200792552937
 31
0.0
  0
ARC
  5
5270
330
2
100
AcDbEntity
  8
0
  6
Continuous
370
     5
100
AcDbCircle
 10
-6831.200792552943
 20
6435.200792552937
 30
0.0
 40
215.0000000000004
210
0.0
220
0.0
230
-1.0
100
AcDbArc
 50
90.0
 51
180.0
  0
ARC
  5
5272
330
2
100
AcDbEntity
  8
0
  6
Continuous
370
     5
100
AcDbCircle
 10
6831.200792552943
 20
6435.200792552937
 30
0.0
 40
245.0000000000004
100
AcDbArc
 50
0.0
 51
90.0
  0
LINE
  5
5273
330
2
100
AcDbEntity
  8
0
  6
Continuous
370
     5
100
AcDbLine
 10
6831.200792552943
 20
6680.200792552937
 30
0.0
 11
6423.200792552909
 21
6680.200792552937
 31
0.0
  0
ARC
  5
5274
330
2
100
AcDbEntity
  8
0
  6
Continuous
370
     5
100
AcDbCircle
 10
-6831.200792552943
 20
6435.200792552937
 30
0.0
 40
245.0000000000005
210
0.0
220
0.0
230
-1.0
100
AcDbArc
 50
90.0
 51
180.0
  0
LINE
  5
5278
330
2
100
AcDbEntity
  8
0
  6
Continuous
370
     5
100
AcDbLine
 10
6986.200792552942
 20
5997.271860364802
 30
0.0
 11
7086.200792552943
 21
5997.271860364802
 31
0.0
  0
LINE
  5
5279
330
2
100
AcDbEntity
  8
0
  6
Continuous
370
     5
390
4E52
100
AcDbLine
 10
7045.943289071288
 20
6435.200792552937
 30
0.0
 11
7045.943289071288
 21
6415.200792552937
 31
0.0
  0
LINE
  5
527A
330
2
100
AcDbEntity
  8
0
  6
Continuous
370
     5
390
4E52
100
AcDbLine
 10
7045.943289071288
 20
6415.200792552937
 30
0.0
 11
7086.200792552943
 21
6415.200792552937
 31
0.0
  0
LINE
  5
527B
330
2
100
AcDbEntity
  8
0
  6
Continuous
370
     5
390
4E52
100
AcDbLine
 10
7106.200792552942
 20
6435.200792552937
 30
0.0
 11
7045.943289071288
 21
6435.200792552937
 31
0.0
  0
LINE
  5
527C
330
2
100
AcDbEntity
  8
0
  6
Continuous
370
     5
390
4E52
100
AcDbLine
 10
7086.200792552943
 20
6415.200792552937
 30
0.0
 11
7086.200792552943
 21
5967.271860364801
 31
0.0
  0
LINE
  5
527E
330
2
100
AcDbEntity
  8
0
  6
Continuous
370
     5
100
AcDbLine
 10
6403.200792552909
 20
6650.200792552937
 30
0.0
 11
6403.200792552909
 21
6710.200792552937
 31
0.0
  0
LINE
  5
527F
330
2
100
AcDbEntity
  8
0
  6
Continuous
370
     5
100
AcDbLine
 10
6423.200792552909
 20
6710.200792552937
 30
0.0
 11
6423.200792552909
 21
6650.200792552937
 31
0.0
  0
LINE
  5
5280
330
2
100
AcDbEntity
  8
0
  6
Continuous
370
     5
100
AcDbLine
 10
5744.200792552939
 20
5315.200792552956
 30
0.0
 11
6254.200792552945
 21
5315.200792552957
 31
0.0
  0
ARC
  5
5284
330
2
100
AcDbEntity
  8
0
  6
Continuous
370
     5
100
AcDbCircle
 10
6369.200792552943
 20
5520.617459219616
 30
0.0
 40
235.4166666666598
100
AcDbArc
 50
240.7582520228013
 51
299.2417479771987
  0
LINE
  5
5286
330
2
100
AcDbEntity
  8
0
  6
Continuous
370
     5
100
AcDbLine
 10
6629.200792552947
 20
5335.200792552956
 30
0.0
 11
6629.200792552947
 21
5475.200792552937
 31
0.0
  0
ARC
  5
5287
330
2
100
AcDbEntity
  8
0
  6
Continuous
370
     5
100
AcDbCircle
 10
-6369.200792552943
 20
5520.617459219613
 30
0.0
 40
265.4166666666563
210
0.0
220
0.0
230
-1.0
100
AcDbArc
 50
230.709059168278
 51
309.290940831722
  0
ARC
  5
5289
330
2
100
AcDbEntity
  8
0
  6
Continuous
370
     5
100
AcDbCircle
 10
6369.200792552943
 20
5520.617459219616
 30
0.0
 40
265.4166666666597
100
AcDbArc
 50
230.709059168278
 51
309.290940831722
  0
ARC
  5
528A
330
2
100
AcDbEntity
  8
0
  6
Continuous
370
     5
100
AcDbCircle
 10
-6369.200792552941
 20
5520.61745921962
 30
0.0
 40
235.416666666663
210
0.0
220
0.0
230
-1.0
100
AcDbArc
 50
240.7582520228013
 51
299.2417479771987
  0
LINE
  5
528C
330
2
100
AcDbEntity
  8
0
  6
Continuous
370
     5
390
4E52
100
AcDbLine
 10
6629.200792552947
 20
5335.200792552956
 30
0.0
 11
6484.200792552941
 21
5335.200792552956
 31
0.0
  0
LINE
  5
528D
330
2
100
AcDbEntity
  8
0
  6
Continuous
370
     5
390
4E52
100
AcDbLine
 10
6484.200792552941
 20
5335.200792552956
 30
0.0
 11
6484.200792552941
 21
5315.200792552957
 31
0.0
  0
LINE
  5
528E
330
2
100
AcDbEntity
  8
0
  6
Continuous
370
     5
390
4E52
100
AcDbLine
 10
6109.20079255294
 20
5335.200792552956
 30
0.0
 11
6109.20079255294
 21
5475.200792552957
 31
0.0
  0
LINE
  5
5290
330
2
100
AcDbEntity
  8
0
  6
Continuous
370
     5
390
4E52
100
AcDbLine
 10
6254.200792552945
 20
5315.200792552957
 30
0.0
 11
6254.200792552945
 21
5335.200792552956
 31
0.0
  0
LINE
  5
5291
330
2
100
AcDbEntity
  8
0
  6
Continuous
370
     5
390
4E52
100
AcDbLine
 10
6254.200792552945
 20
5335.200792552956
 30
0.0
 11
6109.20079255294
 21
5335.200792552956
 31
0.0
  0
TEXT
  5
55CE
330
2
100
AcDbEntity
  8
NAPISY
100
AcDbText
 10
4616.351978523576
 20
-1425.443910027439
 30
0.0
 40
100.0
  1
   O B R Y S   B U D Y N K U           S K A L A   1 : 5 0 0 
  7
AVA
100
AcDbText
  0
LINE
  5
55D8
330
2
100
AcDbEntity
  8
NAPISY
  6
DASHED
 62
     1
370
     5
100
AcDbLine
 10
8369.689222126304
 20
2549.0
 30
0.0
 11
8369.689222126304
 21
8724.604117096323
 31
0.0
  0
TEXT
  5
55D9
330
2
100
AcDbEntity
  8
NAPISY
100
AcDbText
 10
8310.168045132982
 20
5003.794222439472
 30
0.0
 40
100.0
  1
OŚ ODBICIA LUSTRZANEGO
 50
90.0
  7
AVA
100
AcDbText
  0
TEXT
  5
55DB
330
2
100
AcDbEntity
  8
NAPISY
100
AcDbText
 10
4712.565029641475
 20
11037.92135085442
 30
0.0
 40
150.0
  1
MOŻNA WKLEIĆ DO PROJEKTU ZAGOSPODAROWANIA TERENU
  7
AVA
100
AcDbText
  0
TEXT
  5
55DC
330
2
100
AcDbEntity
  8
NAPISY
100
AcDbText
 10
4636.229759006331
 20
11367.78982821719
 30
0.0
 40
150.0
  1
"DOM W TAMARYSZKACH 4"
  7
AVA
100
AcDbText
  0
LINE
  5
57EB
330
2
100
AcDbEntity
  8
0
370
     5
100
AcDbLine
 10
6089.200792552942
 20
5315.200792552957
 30
0.0
 11
5744.200792552939
 21
5315.200792552956
 31
0.0
  0
LINE
  5
57EC
330
2
100
AcDbEntity
  8
0
370
     5
100
AcDbLine
 10
5916.700792552941
 20
5315.200792552956
 30
0.0
 11
5744.200792552941
 21
5255.200792552937
 31
0.0
  0
LINE
  5
57ED
330
2
100
AcDbEntity
  8
0
370
     5
100
AcDbLine
 10
6089.200792552942
 20
5255.200792552937
 30
0.0
 11
5916.700792552942
 21
5315.200792552956
 31
0.0
  0
LINE
  5
57F1
330
2
100
AcDbEntity
  8
RAMKI-A4
100
AcDbLine
 10
3157.000031848591
 20
-2090.999992929974
 30
0.0
 11
3157.000031848591
 21
11929.00000707002
 31
0.0
  0
LINE
  5
57F2
330
2
100
AcDbEntity
  8
RAMKI-A4
100
AcDbLine
 10
3157.000031848591
 20
11929.00000707002
 30
0.0
 11
13357.00003184862
 21
11929.00000707002
 31
0.0
  0
LINE
  5
57F3
330
2
100
AcDbEntity
  8
RAMKI-A4
100
AcDbLine
 10
13357.00003184862
 20
11929.00000707002
 30
0.0
 11
13357.00003184862
 21
-2090.999992929974
 31
0.0
  0
LINE
  5
57F4
330
2
100
AcDbEntity
  8
RAMKI-A4
100
AcDbLine
 10
13357.00003184862
 20
-2090.999992929974
 30
0.0
 11
3157.000031848591
 21
-2090.999992929974
 31
0.0
  0
DIMENSION
  5
5988
330
2
100
AcDbEntity
  8
-wymiary
 62
     1
370
     5
100
AcDbDimension
  2
*D42
 10
6056.200792552941
 20
6915.0
 30
0.0
 11
5881.200792552941
 21
6995.0
 31
0.0
 70
    32
 71
     5
 42
350.0000000000018
  3
500
100
AcDbAlignedDimension
 13
5706.20079255294
 23
6416.200792552938
 33
0.0
 14
6056.200792552941
 24
6511.200792552937
 34
0.0
100
AcDbRotatedDimension
  0
DIMENSION
  5
5993
330
2
100
AcDbEntity
  8
-wymiary
 62
     1
370
     5
100
AcDbDimension
  2
*D43
 10
6886.200792552942
 20
6915.0
 30
0.0
 11
6471.200792552942
 21
6995.0
 31
0.0
 70
    32
 71
     5
 42
830.0000000000009
  3
500
100
AcDbAlignedDimension
 13
6056.200792552941
 23
6511.200792552937
 33
0.0
 14
6886.200792552942
 24
6511.200792552937
 34
0.0
100
AcDbRotatedDimension
  0
DIMENSION
  5
599E
330
2
100
AcDbEntity
  8
-wymiary
 62
     1
370
     5
100
AcDbDimension
  2
*D44
 10
6986.200792552942
 20
6915.0
 30
0.0
 11
6936.200792552942
 21
6995.0
 31
0.0
 70
    32
 71
     5
 42
100.0
  3
500
100
AcDbAlignedDimension
 13
6886.200792552942
 23
6511.200792552937
 33
0.0
 14
6986.200792552942
 24
5961.200792552937
 34
0.0
100
AcDbRotatedDimension
  0
DIMENSION
  5
59C0
330
2
100
AcDbEntity
  8
-wymiary
 62
     1
370
     5
100
AcDbDimension
  2
*D45
 10
5706.200792552941
 20
7136.0
 30
0.0
 11
6346.200792552942
 21
7216.0
 31
0.0
 70
    32
 71
     5
 42
1280.000000000002
  3
500
100
AcDbAlignedDimension
 13
6986.200792552942
 23
5961.200792552937
 33
0.0
 14
5706.200792552941
 24
5936.200792552938
 34
0.0
100
AcDbRotatedDimension
  0
DIMENSION
  5
59D2
330
2
100
AcDbEntity
  8
-wymiary
 62
     1
370
     5
100
AcDbDimension
  2
*D46
 10
7363.0
 20
5475.200792552936
 30
0.0
 11
7282.999999999999
 21
5955.200792552938
 31
0.0
 70
    32
 71
     5
 42
960.0
  3
500
100
AcDbAlignedDimension
 13
6167.200792552941
 23
6435.200792552937
 33
0.0
 14
6357.0
 24
5475.200792552937
 34
0.0
 50
90.0
100
AcDbRotatedDimension
  0
DIMENSION
  5
59E8
330
2
100
AcDbEntity
  8
-wymiary
 62
     1
370
     5
100
AcDbDimension
  2
*D48
 10
5498.999999999998
 20
5395.200792552937
 30
0.0
 11
5418.999999999997
 21
5915.200792552938
 31
0.0
 70
    32
 71
     5
 42
1040.0
  3
500
100
AcDbAlignedDimension
 13
6468.700792552941
 23
6435.200792552937
 33
0.0
 14
6026.200792552941
 24
5395.200792552937
 34
0.0
 50
90.0
100
AcDbRotatedDimension
  0
DIMENSION
  5
5A11
330
2
100
AcDbEntity
  8
-wymiary
 62
     1
370
     5
100
AcDbDimension
  2
*D49
 10
7363.000000000003
 20
5395.200792552936
 30
0.0
 11
7283.000000000002
 21
5435.200792552937
 31
0.0
 70
    32
 71
     5
 42
80.0
  3
500
100
AcDbAlignedDimension
 13
6220.200792552941
 23
5475.200792552937
 33
0.0
 14
6109.200792552941
 24
5395.200792552937
 34
0.0
 50
90.0
100
AcDbRotatedDimension
  0
LINE
  5
5B03
102
{ACAD_REACTORS
330
5B1F
102
}
330
2
100
AcDbEntity
  8
0
  6
Continuous
370
     5
100
AcDbLine
 10
6056.200792552941
 20
6689.200792552937
 30
0.0
 11
6072.200792552941
 21
6689.200792552937
 31
0.0
  0
LINE
  5
5B04
102
{ACAD_REACTORS
330
5B1F
102
}
330
2
100
AcDbEntity
  8
0
  6
Continuous
370
     5
100
AcDbLine
 10
6072.200792552941
 20
6689.200792552937
 30
0.0
 11
6072.200792552941
 21
6705.200792552937
 31
0.0
  0
LINE
  5
5B05
102
{ACAD_REACTORS
330
5B1F
102
}
330
2
100
AcDbEntity
  8
0
  6
Continuous
370
     5
100
AcDbLine
 10
6072.200792552941
 20
6705.200792552937
 30
0.0
 11
6056.200792552941
 21
6705.200792552937
 31
0.0
  0
LINE
  5
5B0F
102
{ACAD_REACTORS
330
5B29
102
}
330
2
100
AcDbEntity
  8
0
  6
Continuous
370
     5
100
AcDbLine
 10
6398.200792552905
 20
6689.200792552937
 30
0.0
 11
6382.200792552905
 21
6689.200792552937
 31
0.0
  0
LINE
  5
5B10
102
{ACAD_REACTORS
330
5B29
102
}
330
2
100
AcDbEntity
  8
0
  6
Continuous
370
     5
100
AcDbLine
 10
6382.200792552905
 20
6689.200792552937
 30
0.0
 11
6382.200792552905
 21
6705.200792552937
 31
0.0
  0
LINE
  5
5B11
102
{ACAD_REACTORS
330
5B29
102
}
330
2
100
AcDbEntity
  8
0
  6
Continuous
370
     5
100
AcDbLine
 10
6382.200792552905
 20
6705.200792552937
 30
0.0
 11
6398.200792552905
 21
6705.200792552937
 31
0.0
  0
LINE
  5
5B13
102
{ACAD_REACTORS
330
5B1F
102
}
330
2
100
AcDbEntity
  8
0
  6
Continuous
370
     5
100
AcDbLine
 10
6056.200792552941
 20
6705.200792552937
 30
0.0
 11
6056.200792552941
 21
6689.200792552937
 31
0.0
  0
LINE
  5
5B14
102
{ACAD_REACTORS
330
5B29
102
}
330
2
100
AcDbEntity
  8
0
  6
Continuous
370
     5
100
AcDbLine
 10
6398.200792552905
 20
6689.200792552937
 30
0.0
 11
6398.200792552905
 21
6705.200792552937
 31
0.0
  0
HATCH
  5
5B1F
330
2
100
AcDbEntity
  8
0
  6
Continuous
370
     5
100
AcDbHatch
 10
0.0
 20
0.0
 30
0.0
210
0.0
220
0.0
230
1.0
  2
SOLID
 70
     1
 71
     1
 91
        1
 92
        7
 72
     0
 73
     1
 93
        4
 10
6072.200792552942
 20
6705.200792552937
 10
6056.200792552941
 20
6705.200792552937
 10
6056.200792552941
 20
6689.200792552937
 10
6072.200792552941
 20
6689.200792552937
 97
        4
330
5B05
330
5B13
330
5B03
330
5B04
 75
     0
 76
     1
 47
1.116456549769506
 98
        1
 10
6067.0
 20
6694.0
1001
ACAD
1010
0.0
1020
0.0
1030
0.0
  0
HATCH
  5
5B29
330
2
100
AcDbEntity
  8
0
  6
Continuous
370
     5
100
AcDbHatch
 10
0.0
 20
0.0
 30
0.0
210
0.0
220
0.0
230
1.0
  2
SOLID
 70
     1
 71
     1
 91
        1
 92
        7
 72
     0
 73
     1
 93
        4
 10
6398.200792552905
 20
6705.200792552937
 10
6382.200792552905
 20
6705.200792552937
 10
6382.200792552905
 20
6689.200792552937
 10
6398.200792552905
 20
6689.200792552937
 97
        4
330
5B11
330
5B10
330
5B0F
330
5B14
 75
     0
 76
     1
 47
1.116456549769506
 98
        1
 10
6388.0
 20
6696.0
1001
ACAD
1010
0.0
1020
0.0
1030
0.0
  0
LINE
  5
5B2E
330
2
100
AcDbEntity
  8
0
  6
Continuous
370
     5
100
AcDbLine
 10
10995.17765169967
 20
5255.200792552937
 30
0.0
 11
10995.17765169967
 21
5395.200792552937
 31
0.0
  0
LINE
  5
5B2F
330
2
100
AcDbEntity
  8
0
  6
Continuous
370
     5
100
AcDbLine
 10
10995.17765169967
 20
5255.200792552937
 30
0.0
 11
10650.17765169967
 21
5255.200792552937
 31
0.0
  0
LINE
  5
5B30
330
2
100
AcDbEntity
  8
0
  6
Continuous
370
     5
100
AcDbLine
 10
10650.17765169967
 20
5255.200792552937
 30
0.0
 11
10650.17765169967
 21
5395.200792552937
 31
0.0
  0
LINE
  5
5B31
330
2
100
AcDbEntity
  8
0
  6
Continuous
370
     5
100
AcDbLine
 10
10683.17765169966
 20
6245.200792552941
 30
0.0
 11
10683.17765169966
 21
6435.200792552937
 31
0.0
  0
LINE
  5
5B32
330
2
100
AcDbEntity
  8
0
  6
Continuous
370
     5
100
AcDbLine
 10
10688.17765169967
 20
6710.200792552937
 30
0.0
 11
9908.177651699665
 21
6710.200792552937
 31
0.0
  0
LINE
  5
5B33
330
2
100
AcDbEntity
  8
0
  6
Continuous
370
     5
100
AcDbLine
 10
10688.17765169967
 20
6710.200792552937
 30
0.0
 11
10688.17765169967
 21
6435.200792552937
 31
0.0
  0
ARC
  5
5B34
330
2
100
AcDbEntity
  8
0
  6
Continuous
370
     5
100
AcDbCircle
 10
9908.177651699665
 20
6435.200792552937
 30
0.0
 40
275.0000000000002
100
AcDbArc
 50
90.0
 51
180.0
  0
LINE
  5
5B35
330
2
100
AcDbEntity
  8
0
  6
Continuous
370
     5
100
AcDbLine
 10
9753.177651699665
 20
5967.271860364801
 30
0.0
 11
9633.177651699666
 21
5967.271860364801
 31
0.0
  0
ARC
  5
5B36
330
2
100
AcDbEntity
  8
0
  6
Continuous
370
     5
100
AcDbCircle
 10
10370.17765169966
 20
5520.617459219596
 30
0.0
 40
295.4166666666592
100
AcDbArc
 50
224.0547600445205
 51
315.9452399554794
  0
LINE
  5
5B37
330
2
100
AcDbEntity
  8
0
  6
Continuous
370
     5
390
4E52
100
AcDbLine
 10
9633.177651699666
 20
5967.271860364801
 30
0.0
 11
9633.177651699666
 21
6435.200792552937
 31
0.0
  0
LINE
  5
5B38
330
2
100
AcDbEntity
  8
0
  6
Continuous
370
     5
390
4E52
100
AcDbLine
 10
10090.17765169966
 20
5315.200792552936
 30
0.0
 11
10090.17765169966
 21
5475.200792552937
 31
0.0
  0
LINE
  5
5B39
330
2
100
AcDbEntity
  8
0
  6
Continuous
370
     5
390
4E52
100
AcDbLine
 10
10255.17765169966
 20
5315.200792552957
 30
0.0
 11
10090.17765169966
 21
5315.200792552936
 31
0.0
  0
HATCH
  5
5B3A
330
2
100
AcDbEntity
  8
0
370
     5
100
AcDbHatch
 10
0.0
 20
0.0
 30
0.0
210
0.0
220
0.0
230
1.0
  2
SOLID
 70
     1
 71
     0
 91
        2
 92
        7
 72
     0
 73
     1
 93
        4
 10
10245.17765169966
 20
5350.200792552937
 10
10195.17765169966
 20
5350.200792552937
 10
10195.17765169966
 20
5380.200792552937
 10
10245.17765169966
 20
5380.200792552937
 97
        0
 92
        7
 72
     0
 73
     1
 93
        4
 10
10495.17765169966
 20
5350.200792552937
 10
10495.17765169966
 20
5380.200792552937
 10
10545.17765169966
 20
5380.200792552937
 10
10545.17765169966
 20
5350.200792552937
 97
        0
 75
     0
 76
     1
 47
0.3674302828865223
 98
        2
 10
10235.67135847363
 20
5369.132209935354
 10
10509.54934769024
 20
5363.62073794843
1001
ACAD
1010
0.0
1020
0.0
1030
0.0
  0
LINE
  5
5B3C
330
2
100
AcDbEntity
  8
0
  6
Continuous
370
     5
100
AcDbLine
 10
10495.17765169966
 20
5350.200792552937
 30
0.0
 11
10495.17765169966
 21
5380.200792552944
 31
0.0
  0
LINE
  5
5B3E
330
2
100
AcDbEntity
  8
0
  6
Continuous
370
     5
100
AcDbLine
 10
10545.17765169966
 20
5350.200792552937
 30
0.0
 11
10545.17765169966
 21
5380.200792552944
 31
0.0
  0
LINE
  5
5B40
330
2
100
AcDbEntity
  8
0
  6
Continuous
370
     5
100
AcDbLine
 10
10195.17765169966
 20
5350.200792552937
 30
0.0
 11
10195.17765169966
 21
5380.200792552944
 31
0.0
  0
LINE
  5
5B42
330
2
100
AcDbEntity
  8
0
  6
Continuous
370
     5
100
AcDbLine
 10
10245.17765169966
 20
5350.200792552937
 30
0.0
 11
10245.17765169967
 21
5380.200792552944
 31
0.0
  0
LINE
  5
5B43
330
2
100
AcDbEntity
  8
0
  6
Continuous
370
     5
100
AcDbLine
 10
9853.177651699665
 20
5475.200792552937
 30
0.0
 11
9853.177651699665
 21
5785.200792552937
 31
0.0
210
1.0
220
0.0
230
0.0
  0
HATCH
  5
5B44
330
2
100
AcDbEntity
  8
0
 48
4.0
370
     5
100
AcDbHatch
 10
0.0
 20
0.0
 30
0.0
210
0.0
220
0.0
230
1.0
  2
SOLID
 70
     1
 71
     0
 91
        2
 92
        7
 72
     0
 73
     1
 93
       43
 10
11033.17765169967
 20
5950.200792552939
 10
11033.17765169967
 20
5945.200792552939
 10
11033.17765169967
 20
5395.200792552937
 10
10953.17765169967
 20
5395.200792552937
 10
10953.17765169967
 20
5455.200792552937
 10
10973.17765169967
 20
5455.200792552937
 10
10973.17765169967
 20
6185.20079255294
 10
10623.17765169966
 20
6185.20079255294
 10
10623.17765169966
 20
6375.200792552931
 10
9913.177651699665
 20
6375.200792552937
 10
9913.177651699665
 20
6100.347978810551
 10
9813.177651699666
 20
6000.347978810552
 10
9813.177651699666
 20
5910.044113896783
 10
9913.177651699665
 20
5809.889784964235
 10
9913.177651699665
 20
5535.200792552937
 10
10320.17765169966
 20
5535.200792552937
 10
10320.17765169966
 20
5475.200792552937
 10
10245.17765169966
 20
5475.200792552937
 10
10240.17765169966
 20
5475.200792552937
 10
9853.177651699665
 20
5475.200792552937
 10
9853.177651699665
 20
5630.200792552937
 10
9853.177651699665
 20
5635.200792552937
 10
9853.177651699665
 20
5785.200792552937
 10
9772.70708895119
 20
5865.671355301413
 10
9770.939321998223
 20
5867.439122254379
 10
9753.177651699665
 20
5885.200792552938
 10
9753.177651699665
 20
5910.200792552937
 10
9753.177651699665
 20
5915.200792552937
 10
9753.177651699667
 20
6025.200792552937
 10
9831.043398399081
 20
6103.066539252349
 10
9834.578932305012
 20
6106.602073158282
 10
9853.177651699665
 20
6125.200792552938
 10
9853.177651699665
 20
6190.200792552936
 10
9853.177651699667
 20
6435.200792552937
 10
10236.17765169966
 20
6435.200792552937
 10
10587.17765169967
 20
6435.200792552937
 10
10683.17765169966
 20
6435.200792552937
 10
10683.17765169966
 20
6245.200792552941
 10
10831.09793523776
 20
6245.200792552941
 10
10833.59793523776
 20
6245.200792552941
 10
10984.17765169967
 20
6245.200792552941
 10
10984.17765169967
 20
6325.200792552939
 10
11033.17765169967
 20
6325.200792552939
 97
        0
 92
       23
 72
     0
 73
     1
 93
       10
 10
10690.17765169967
 20
5535.200792552937
 10
10690.17765169967
 20
5455.200792552937
 10
10713.17765169967
 20
5455.200792552937
 10
10713.17765169966
 20
5395.200792552937
 10
10630.17765169967
 20
5395.200792552937
 10
10630.17765169967
 20
5475.200792552937
 10
10545.17765169966
 20
5475.200792552937
 10
10540.17765169966
 20
5475.200792552937
 10
10420.17765169966
 20
5475.200792552937
 10
10420.17765169966
 20
5535.200792552937
 97
        0
 75
     0
 76
     1
 47
3.535361825226424
 98
        2
 10
11017.28498453517
 20
6184.172129294352
 10
10534.57443418504
 20
5513.543601813487
1001
ACAD
1010
0.0
1020
0.0
1030
0.0
  0
LINE
  5
5B45
330
2
100
AcDbEntity
  8
0
  6
Continuous
370
     5
100
AcDbLine
 10
10420.17765169966
 20
5475.200792552937
 30
0.0
 11
10420.17765169966
 21
5535.200792552937
 31
0.0
  0
LINE
  5
5B46
330
2
100
AcDbEntity
  8
0
  6
Continuous
370
     5
100
AcDbLine
 10
10690.17765169967
 20
5535.200792552937
 30
0.0
 11
9913.177651699665
 21
5535.200792552937
 31
0.0
  0
LINE
  5
5B47
330
2
100
AcDbEntity
  8
0
  6
Continuous
370
     5
100
AcDbLine
 10
10630.17765169967
 20
5475.200792552937
 30
0.0
 11
9853.177651699665
 21
5475.200792552937
 31
0.0
  0
LINE
  5
5B48
330
2
100
AcDbEntity
  8
0
  6
Continuous
370
     5
100
AcDbLine
 10
10320.17765169966
 20
5535.200792552937
 30
0.0
 11
10320.17765169966
 21
5475.200792552937
 31
0.0
  0
LINE
  5
5B49
330
2
100
AcDbEntity
  8
0
  6
Continuous
370
     5
100
AcDbLine
 10
10623.17765169966
 20
6375.200792552931
 30
0.0
 11
9913.177651699665
 21
6375.200792552937
 31
0.0
  0
LINE
  5
5B4A
330
2
100
AcDbEntity
  8
0
  6
Continuous
370
     5
100
AcDbLine
 10
10623.17765169966
 20
6185.20079255294
 30
0.0
 11
10623.17765169966
 21
6375.200792552932
 31
0.0
  0
LINE
  5
5B4B
330
2
100
AcDbEntity
  8
0
  6
Continuous
370
     5
100
AcDbLine
 10
11033.17765169967
 20
5395.200792552937
 30
0.0
 11
11033.17765169967
 21
6325.200792552939
 31
0.0
  0
LINE
  5
5B4C
330
2
100
AcDbEntity
  8
0
  6
Continuous
370
     5
100
AcDbLine
 10
10973.17765169967
 20
5455.200792552937
 30
0.0
 11
10973.17765169967
 21
6185.20079255294
 31
0.0
  0
LINE
  5
5B4D
330
2
100
AcDbEntity
  8
0
  6
Continuous
370
     5
100
AcDbLine
 10
10984.17765169966
 20
6245.200792552941
 30
0.0
 11
10683.17765169966
 21
6245.200792552941
 31
0.0
  0
LINE
  5
5B4E
330
2
100
AcDbEntity
  8
0
  6
Continuous
370
     5
100
AcDbLine
 10
10984.17765169966
 20
6245.200792552941
 30
0.0
 11
10984.17765169966
 21
6325.200792552939
 31
0.0
  0
LINE
  5
5B4F
330
2
100
AcDbEntity
  8
0
  6
Continuous
370
     5
100
AcDbLine
 10
11033.17765169967
 20
6325.200792552939
 30
0.0
 11
10683.17765169966
 21
6325.200792552942
 31
0.0
  0
LINE
  5
5B50
330
2
100
AcDbEntity
  8
0
  6
Continuous
370
     5
100
AcDbLine
 10
10973.17765169967
 20
6185.20079255294
 30
0.0
 11
10623.17765169966
 21
6185.20079255294
 31
0.0
  0
LINE
  5
5B51
330
2
100
AcDbEntity
  8
0
  6
Continuous
370
     5
100
AcDbLine
 10
9913.177651699665
 20
5809.889784964235
 30
0.0
 11
9913.177651699665
 21
5535.200792552937
 31
0.0
  0
LINE
  5
5B52
330
2
100
AcDbEntity
  8
0
  6
Continuous
370
     5
100
AcDbLine
 10
9913.177651699665
 20
6375.200792552937
 30
0.0
 11
9913.177651699665
 21
6100.347978810551
 31
0.0
  0
LINE
  5
5B53
330
2
100
AcDbEntity
  8
0
  6
Continuous
370
     5
100
AcDbLine
 10
9853.177651699665
 20
6125.200792552937
 30
0.0
 11
9853.177651699665
 21
6435.200792552937
 31
0.0
  0
LINE
  5
5B54
330
2
100
AcDbEntity
  8
0
  6
Continuous
370
     5
100
AcDbLine
 10
10713.17765169967
 20
5455.200792552937
 30
0.0
 11
10713.17765169967
 21
5395.200792552937
 31
0.0
  0
LINE
  5
5B55
330
2
100
AcDbEntity
  8
0
  6
Continuous
370
     5
100
AcDbLine
 10
10973.67765169966
 20
5455.200792552937
 30
0.0
 11
10691.17765169967
 21
5455.200792552937
 31
0.0
  0
LINE
  5
5B56
330
2
100
AcDbEntity
  8
0
  6
Continuous
370
     5
100
AcDbLine
 10
11033.17765169967
 20
5395.200792552937
 30
0.0
 11
10630.17765169967
 21
5395.200792552937
 31
0.0
  0
LINE
  5
5B57
330
2
100
AcDbEntity
  8
0
  6
Continuous
370
     5
100
AcDbLine
 10
10953.17765169967
 20
5395.200792552937
 30
0.0
 11
10953.17765169967
 21
5455.200792552937
 31
0.0
  0
LINE
  5
5B58
330
2
100
AcDbEntity
  8
0
  6
Continuous
370
     5
100
AcDbLine
 10
10690.17765169967
 20
5535.200792552937
 30
0.0
 11
10690.17765169967
 21
5455.200792552937
 31
0.0
  0
LINE
  5
5B59
330
2
100
AcDbEntity
  8
0
  6
Continuous
370
     5
100
AcDbLine
 10
9813.177651699666
 20
6000.347978810552
 30
0.0
 11
9813.177651699666
 21
5910.044113896782
 31
0.0
  0
LINE
  5
5B5A
330
2
100
AcDbEntity
  8
0
  6
Continuous
370
     5
100
AcDbLine
 10
9753.177651699665
 20
5885.200792552937
 30
0.0
 11
9753.177651699665
 21
6025.200792552937
 31
0.0
  0
LINE
  5
5B5B
330
2
100
AcDbEntity
  8
0
  6
Continuous
370
     5
100
AcDbLine
 10
9913.177651699665
 20
6100.347978810551
 30
0.0
 11
9813.177651699666
 21
6000.347978810552
 31
0.0
  0
LINE
  5
5B5C
330
2
100
AcDbEntity
  8
0
  6
Continuous
370
     5
100
AcDbLine
 10
9853.177651699665
 20
6125.200792552937
 30
0.0
 11
9753.177651699665
 21
6025.200792552937
 31
0.0
  0
LINE
  5
5B5D
330
2
100
AcDbEntity
  8
0
  6
Continuous
370
     5
100
AcDbLine
 10
9813.177651699666
 20
5910.044113896782
 30
0.0
 11
9913.177651699665
 21
5809.889784964235
 31
0.0
  0
LINE
  5
5B5E
330
2
100
AcDbEntity
  8
0
  6
Continuous
370
     5
100
AcDbLine
 10
9853.177651699665
 20
5785.200792552937
 30
0.0
 11
9753.177651699665
 21
5885.200792552937
 31
0.0
  0
LINE
  5
5B5F
330
2
100
AcDbEntity
  8
0
  6
Continuous
370
     5
100
AcDbLine
 10
10688.17765169967
 20
6435.200792552937
 30
0.0
 11
9853.177651699665
 21
6435.200792552937
 31
0.0
  0
LINE
  5
5B60
330
2
100
AcDbEntity
  8
0
  6
Continuous
370
     5
100
AcDbLine
 10
9755.248719511532
 20
6027.271860364802
 30
0.0
 11
9653.177651699666
 21
6027.271860364802
 31
0.0
  0
LINE
  5
5B61
330
2
100
AcDbEntity
  8
0
  6
Continuous
370
     5
100
AcDbLine
 10
9693.177651699665
 20
6415.200792552937
 30
0.0
 11
9693.177651699665
 21
6435.200792553299
 31
0.0
  0
ARC
  5
5B62
330
2
100
AcDbEntity
  8
0
  6
Continuous
370
     5
100
AcDbCircle
 10
9908.136368428092
 20
6435.242075824513
 30
0.0
 40
214.9587206926939
100
AcDbArc
 50
89.98899622583779
 51
180.0110037742143
  0
LINE
  5
5B63
330
2
100
AcDbEntity
  8
0
  6
Continuous
370
     5
100
AcDbLine
 10
10336.1776516997
 20
6650.200792552937
 30
0.0
 11
9908.177651699665
 21
6650.200792552937
 31
0.0
  0
ARC
  5
5B64
330
2
100
AcDbEntity
  8
0
  6
Continuous
370
     5
100
AcDbCircle
 10
-9908.177651699665
 20
6435.200792552937
 30
0.0
 40
215.0000000000004
210
0.0
220
0.0
230
-1.0
100
AcDbArc
 50
0.000000000000007
 51
90.0
  0
ARC
  5
5B65
330
2
100
AcDbEntity
  8
0
  6
Continuous
370
     5
100
AcDbCircle
 10
9908.177651699665
 20
6435.200792552937
 30
0.0
 40
245.0000000000004
100
AcDbArc
 50
90.0
 51
180.0
  0
LINE
  5
5B66
330
2
100
AcDbEntity
  8
0
  6
Continuous
370
     5
100
AcDbLine
 10
9908.177651699665
 20
6680.200792552937
 30
0.0
 11
10316.1776516997
 21
6680.200792552937
 31
0.0
  0
ARC
  5
5B67
330
2
100
AcDbEntity
  8
0
  6
Continuous
370
     5
100
AcDbCircle
 10
-9908.177651699665
 20
6435.200792552937
 30
0.0
 40
245.0000000000005
210
0.0
220
0.0
230
-1.0
100
AcDbArc
 50
0.000000000000007
 51
90.0
  0
LINE
  5
5B68
330
2
100
AcDbEntity
  8
0
  6
Continuous
370
     5
100
AcDbLine
 10
9753.177651699665
 20
5997.271860364802
 30
0.0
 11
9653.177651699666
 21
5997.271860364802
 31
0.0
  0
LINE
  5
5B69
330
2
100
AcDbEntity
  8
0
  6
Continuous
370
     5
390
4E52
100
AcDbLine
 10
9693.435155181321
 20
6435.200792552937
 30
0.0
 11
9693.435155181321
 21
6415.200792552937
 31
0.0
  0
LINE
  5
5B6A
330
2
100
AcDbEntity
  8
0
  6
Continuous
370
     5
390
4E52
100
AcDbLine
 10
9693.435155181321
 20
6415.200792552937
 30
0.0
 11
9653.177651699666
 21
6415.200792552937
 31
0.0
  0
LINE
  5
5B6B
330
2
100
AcDbEntity
  8
0
  6
Continuous
370
     5
390
4E52
100
AcDbLine
 10
9633.177651699666
 20
6435.200792552937
 30
0.0
 11
9693.435155181321
 21
6435.200792552937
 31
0.0
  0
LINE
  5
5B6C
330
2
100
AcDbEntity
  8
0
  6
Continuous
370
     5
390
4E52
100
AcDbLine
 10
9653.177651699666
 20
6415.200792552937
 30
0.0
 11
9653.177651699666
 21
5967.271860364801
 31
0.0
  0
LINE
  5
5B6D
330
2
100
AcDbEntity
  8
0
  6
Continuous
370
     5
100
AcDbLine
 10
10336.1776516997
 20
6650.200792552937
 30
0.0
 11
10336.1776516997
 21
6710.200792552937
 31
0.0
  0
LINE
  5
5B6E
330
2
100
AcDbEntity
  8
0
  6
Continuous
370
     5
100
AcDbLine
 10
10316.1776516997
 20
6710.200792552937
 30
0.0
 11
10316.1776516997
 21
6650.200792552937
 31
0.0
  0
LINE
  5
5B6F
330
2
100
AcDbEntity
  8
0
  6
Continuous
370
     5
100
AcDbLine
 10
10995.17765169967
 20
5315.200792552956
 30
0.0
 11
10485.17765169966
 21
5315.200792552957
 31
0.0
  0
ARC
  5
5B70
330
2
100
AcDbEntity
  8
0
  6
Continuous
370
     5
100
AcDbCircle
 10
10370.17765169966
 20
5520.617459219616
 30
0.0
 40
235.4166666666598
100
AcDbArc
 50
240.758252022792
 51
299.241747977208
  0
LINE
  5
5B71
330
2
100
AcDbEntity
  8
0
  6
Continuous
370
     5
100
AcDbLine
 10
10110.17765169966
 20
5335.200792552956
 30
0.0
 11
10110.17765169966
 21
5475.200792552937
 31
0.0
  0
ARC
  5
5B72
330
2
100
AcDbEntity
  8
0
  6
Continuous
370
     5
100
AcDbCircle
 10
-10370.17765169966
 20
5520.617459219613
 30
0.0
 40
265.4166666666563
210
0.0
220
0.0
230
-1.0
100
AcDbArc
 50
230.7090591683524
 51
309.2909408316476
  0
ARC
  5
5B73
330
2
100
AcDbEntity
  8
0
  6
Continuous
370
     5
100
AcDbCircle
 10
10370.17765169966
 20
5520.617459219616
 30
0.0
 40
265.4166666666597
100
AcDbArc
 50
230.7090591683524
 51
309.2909408316476
  0
ARC
  5
5B74
330
2
100
AcDbEntity
  8
0
  6
Continuous
370
     5
100
AcDbCircle
 10
-10370.17765169967
 20
5520.61745921962
 30
0.0
 40
235.416666666663
210
0.0
220
0.0
230
-1.0
100
AcDbArc
 50
240.758252022792
 51
299.241747977208
  0
LINE
  5
5B75
330
2
100
AcDbEntity
  8
0
  6
Continuous
370
     5
390
4E52
100
AcDbLine
 10
10110.17765169966
 20
5335.200792552956
 30
0.0
 11
10255.17765169966
 21
5335.200792552956
 31
0.0
  0
LINE
  5
5B76
330
2
100
AcDbEntity
  8
0
  6
Continuous
370
     5
390
4E52
100
AcDbLine
 10
10255.17765169966
 20
5335.200792552956
 30
0.0
 11
10255.17765169966
 21
5315.200792552957
 31
0.0
  0
LINE
  5
5B77
330
2
100
AcDbEntity
  8
0
  6
Continuous
370
     5
390
4E52
100
AcDbLine
 10
10630.17765169967
 20
5335.200792552956
 30
0.0
 11
10630.17765169967
 21
5475.200792552957
 31
0.0
  0
LINE
  5
5B78
330
2
100
AcDbEntity
  8
0
  6
Continuous
370
     5
390
4E52
100
AcDbLine
 10
10485.17765169966
 20
5315.200792552957
 30
0.0
 11
10485.17765169966
 21
5335.200792552956
 31
0.0
  0
LINE
  5
5B79
330
2
100
AcDbEntity
  8
0
  6
Continuous
370
     5
390
4E52
100
AcDbLine
 10
10485.17765169966
 20
5335.200792552956
 30
0.0
 11
10630.17765169967
 21
5335.200792552956
 31
0.0
  0
LINE
  5
5B7A
330
2
100
AcDbEntity
  8
0
370
     5
100
AcDbLine
 10
10650.17765169967
 20
5315.200792552957
 30
0.0
 11
10995.17765169967
 21
5315.200792552956
 31
0.0
  0
LINE
  5
5B7B
330
2
100
AcDbEntity
  8
0
370
     5
100
AcDbLine
 10
10822.67765169967
 20
5315.200792552956
 30
0.0
 11
10995.17765169967
 21
5255.200792552937
 31
0.0
  0
LINE
  5
5B7C
330
2
100
AcDbEntity
  8
0
370
     5
100
AcDbLine
 10
10650.17765169967
 20
5255.200792552937
 30
0.0
 11
10822.67765169967
 21
5315.200792552956
 31
0.0
  0
DIMENSION
  5
5B7D
330
2
100
AcDbEntity
  8
-wymiary
 62
     1
370
     5
100
AcDbDimension
  2
*D53
 10
10683.17765169966
 20
6915.0
 30
0.0
 11
10858.17765169967
 21
6995.0
 31
0.0
 70
    32
 71
     5
 42
350.0000000000018
  3
500
100
AcDbAlignedDimension
 13
11033.17765169967
 23
5936.200792552938
 33
0.0
 14
10683.17765169966
 24
6511.200792552937
 34
0.0
 50
180.0
100
AcDbRotatedDimension
  0
DIMENSION
  5
5B7E
330
2
100
AcDbEntity
  8
-wymiary
 62
     1
370
     5
100
AcDbDimension
  2
*D54
 10
9853.177651699665
 20
6915.0
 30
0.0
 11
10268.17765169966
 21
6995.0
 31
0.0
 70
    32
 71
     5
 42
830.0000000000018
  3
500
100
AcDbAlignedDimension
 13
10683.17765169966
 23
6511.200792552937
 33
0.0
 14
9853.177651699665
 24
6511.200792552937
 34
0.0
 50
180.0
100
AcDbRotatedDimension
  0
DIMENSION
  5
5B7F
330
2
100
AcDbEntity
  8
-wymiary
 62
     1
370
     5
100
AcDbDimension
  2
*D55
 10
9753.177651699665
 20
6915.0
 30
0.0
 11
9803.177651699666
 21
6995.0
 31
0.0
 70
    32
 71
     5
 42
100.0
  3
500
100
AcDbAlignedDimension
 13
9853.177651699665
 23
6511.200792552937
 33
0.0
 14
9753.177651699665
 24
5961.200792552937
 34
0.0
 50
180.0
100
AcDbRotatedDimension
  0
DIMENSION
  5
5B80
330
2
100
AcDbEntity
  8
-wymiary
 62
     1
370
     5
100
AcDbDimension
  2
*D56
 10
11033.17765169967
 20
7136.0
 30
0.0
 11
10393.17765169966
 21
7216.0
 31
0.0
 70
    32
 71
     5
 42
1280.000000000004
  3
500
100
AcDbAlignedDimension
 13
9753.177651699665
 23
5961.200792552937
 33
0.0
 14
11033.17765169967
 24
5936.200792552938
 34
0.0
 50
180.0
100
AcDbRotatedDimension
  0
DIMENSION
  5
5B81
330
2
100
AcDbEntity
  8
-wymiary
 62
     1
370
     5
100
AcDbDimension
  2
*D57
 10
9376.378444252608
 20
5475.200792552937
 30
0.0
 11
9296.378444252606
 21
5955.200792552938
 31
0.0
 70
    32
 71
     5
 42
960.0
  3
500
100
AcDbAlignedDimension
 13
10572.17765169967
 23
6435.200792552937
 33
0.0
 14
10382.37844425261
 24
5475.200792552937
 34
0.0
 50
90.0
100
AcDbRotatedDimension
  0
DIMENSION
  5
5B82
330
2
100
AcDbEntity
  8
-wymiary
 62
     1
370
     5
100
AcDbDimension
  2
*D58
 10
11299.37844425261
 20
5395.200792552936
 30
0.0
 11
11219.37844425261
 21
5915.200792552938
 31
0.0
 70
    32
 71
     5
 42
1040.0
  3
500
100
AcDbAlignedDimension
 13
10329.67765169966
 23
6435.200792552937
 33
0.0
 14
10772.17765169967
 24
5395.200792552937
 34
0.0
 50
90.0
100
AcDbRotatedDimension
  0
DIMENSION
  5
5B83
330
2
100
AcDbEntity
  8
-wymiary
 62
     1
370
     5
100
AcDbDimension
  2
*D59
 10
9376.378444252605
 20
5395.200792552937
 30
0.0
 11
9296.378444252603
 21
5435.200792552937
 31
0.0
 70
    32
 71
     5
 42
80.0
  3
500
100
AcDbAlignedDimension
 13
10519.17765169966
 23
5475.200792552937
 33
0.0
 14
10630.17765169967
 24
5395.200792552937
 34
0.0
 50
90.0
100
AcDbRotatedDimension
  0
HATCH
  5
5B84
330
2
100
AcDbEntity
  8
0
  6
Continuous
370
     5
100
AcDbHatch
 10
0.0
 20
0.0
 30
0.0
210
0.0
220
0.0
230
1.0
  2
SOLID
 70
     1
 71
     0
 91
        1
 92
        7
 72
     0
 73
     1
 93
        4
 10
10667.17765169966
 20
6705.200792552937
 10
10683.17765169966
 20
6705.200792552937
 10
10683.17765169966
 20
6689.200792552937
 10
10667.17765169967
 20
6689.200792552937
 97
        0
 75
     0
 76
     1
 47
1.116456549769506
 98
        1
 10
10672.37844425261
 20
6694.0
1001
ACAD
1010
0.0
1020
0.0
1030
0.0
  0
LINE
  5
5B85
330
2
100
AcDbEntity
  8
0
  6
Continuous
370
     5
100
AcDbLine
 10
10683.17765169966
 20
6689.200792552937
 30
0.0
 11
10667.17765169967
 21
6689.200792552937
 31
0.0
  0
LINE
  5
5B86
330
2
100
AcDbEntity
  8
0
  6
Continuous
370
     5
100
AcDbLine
 10
10667.17765169967
 20
6689.200792552937
 30
0.0
 11
10667.17765169967
 21
6705.200792552937
 31
0.0
  0
LINE
  5
5B87
330
2
100
AcDbEntity
  8
0
  6
Continuous
370
     5
100
AcDbLine
 10
10667.17765169967
 20
6705.200792552937
 30
0.0
 11
10683.17765169966
 21
6705.200792552937
 31
0.0
  0
HATCH
  5
5B88
330
2
100
AcDbEntity
  8
0
  6
Continuous
370
     5
100
AcDbHatch
 10
0.0
 20
0.0
 30
0.0
210
0.0
220
0.0
230
1.0
  2
SOLID
 70
     1
 71
     0
 91
        1
 92
        7
 72
     0
 73
     1
 93
        4
 10
10341.1776516997
 20
6705.200792552937
 10
10357.1776516997
 20
6705.200792552937
 10
10357.1776516997
 20
6689.200792552937
 10
10341.1776516997
 20
6689.200792552937
 97
        0
 75
     0
 76
     1
 47
1.116456549769506
 98
        1
 10
10351.37844425261
 20
6696.0
1001
ACAD
1010
0.0
1020
0.0
1030
0.0
  0
LINE
  5
5B89
330
2
100
AcDbEntity
  8
0
  6
Continuous
370
     5
100
AcDbLine
 10
10341.1776516997
 20
6689.200792552937
 30
0.0
 11
10357.1776516997
 21
6689.200792552937
 31
0.0
  0
LINE
  5
5B8A
330
2
100
AcDbEntity
  8
0
  6
Continuous
370
     5
100
AcDbLine
 10
10357.1776516997
 20
6689.200792552937
 30
0.0
 11
10357.1776516997
 21
6705.200792552937
 31
0.0
  0
LINE
  5
5B8B
330
2
100
AcDbEntity
  8
0
  6
Continuous
370
     5
100
AcDbLine
 10
10357.1776516997
 20
6705.200792552937
 30
0.0
 11
10341.1776516997
 21
6705.200792552937
 31
0.0
  0
LINE
  5
5B8C
330
2
100
AcDbEntity
  8
0
  6
Continuous
370
     5
100
AcDbLine
 10
10683.17765169966
 20
6705.200792552937
 30
0.0
 11
10683.17765169966
 21
6689.200792552937
 31
0.0
  0
LINE
  5
5B8D
330
2
100
AcDbEntity
  8
0
  6
Continuous
370
     5
100
AcDbLine
 10
10341.1776516997
 20
6689.200792552937
 30
0.0
 11
10341.1776516997
 21
6705.200792552937
 31
0.0
  0
LINE
  5
5C64
330
2
100
AcDbEntity
  8
0
  6
Continuous
 62
     7
370
    50
100
AcDbLine
 10
6382.200792552903
 20
6694.200792552946
 30
0.0
 11
6382.200792552903
 21
6700.200792552946
 31
0.0
  0
LINE
  5
5C65
330
2
100
AcDbEntity
  8
0
  6
Continuous
 62
     7
370
    50
100
AcDbLine
 10
6072.20079255294
 20
6700.200792552946
 30
0.0
 11
6072.20079255294
 21
6694.200792552946
 31
0.0
  0
LINE
  5
5C66
330
2
100
AcDbEntity
  8
0
  6
Continuous
 62
     7
370
    50
100
AcDbLine
 10
6067.20079255294
 20
6689.200792552946
 30
0.0
 11
6061.20079255294
 21
6689.200792552946
 31
0.0
  0
LINE
  5
5C67
330
2
100
AcDbEntity
  8
0
  6
Continuous
 62
     7
370
    50
100
AcDbLine
 10
6056.20079255294
 20
6705.200792552946
 30
0.0
 11
6056.20079255294
 21
6689.200792552946
 31
0.0
  0
LINE
  5
5C68
330
2
100
AcDbEntity
  8
0
  6
Continuous
 62
     7
370
    50
100
AcDbLine
 10
6072.20079255294
 20
6705.200792552946
 30
0.0
 11
6056.20079255294
 21
6705.200792552946
 31
0.0
  0
LINE
  5
5C69
330
2
100
AcDbEntity
  8
0
  6
Continuous
 62
     7
370
    50
100
AcDbLine
 10
6056.20079255294
 20
6689.200792552946
 30
0.0
 11
6072.20079255294
 21
6689.200792552946
 31
0.0
  0
LINE
  5
5C6A
330
2
100
AcDbEntity
  8
0
  6
Continuous
 62
     7
370
    50
100
AcDbLine
 10
6072.20079255294
 20
6689.200792552946
 30
0.0
 11
6072.20079255294
 21
6705.200792552946
 31
0.0
  0
LINE
  5
5C6B
330
2
100
AcDbEntity
  8
0
  6
Continuous
 62
     7
370
    50
100
AcDbLine
 10
6072.20079255294
 20
6705.200792552946
 30
0.0
 11
6056.20079255294
 21
6705.200792552946
 31
0.0
  0
LINE
  5
5C6C
330
2
100
AcDbEntity
  8
0
  6
Continuous
 62
     7
370
    50
100
AcDbLine
 10
6056.20079255294
 20
6689.200792552946
 30
0.0
 11
6072.20079255294
 21
6689.200792552946
 31
0.0
  0
LINE
  5
5C6D
330
2
100
AcDbEntity
  8
0
  6
Continuous
 62
     7
370
    50
100
AcDbLine
 10
6056.20079255294
 20
6705.200792552946
 30
0.0
 11
6056.20079255294
 21
6689.200792552946
 31
0.0
  0
LINE
  5
5C6E
330
2
100
AcDbEntity
  8
0
  6
Continuous
 62
     7
370
    50
100
AcDbLine
 10
6072.20079255294
 20
6689.200792552946
 30
0.0
 11
6072.20079255294
 21
6705.200792552946
 31
0.0
  0
LINE
  5
5C6F
330
2
100
AcDbEntity
  8
0
  6
Continuous
 62
     7
370
    50
100
AcDbLine
 10
6056.20079255294
 20
6689.200792552946
 30
0.0
 11
6072.20079255294
 21
6689.200792552946
 31
0.0
  0
LINE
  5
5C70
330
2
100
AcDbEntity
  8
0
  6
Continuous
 62
     7
370
    50
100
AcDbLine
 10
6072.20079255294
 20
6689.200792552946
 30
0.0
 11
6072.20079255294
 21
6705.200792552946
 31
0.0
  0
LINE
  5
5C71
330
2
100
AcDbEntity
  8
0
  6
Continuous
 62
     7
370
    50
100
AcDbLine
 10
6072.20079255294
 20
6705.200792552946
 30
0.0
 11
6056.20079255294
 21
6705.200792552946
 31
0.0
  0
LINE
  5
5C72
330
2
100
AcDbEntity
  8
0
  6
Continuous
 62
     7
370
    50
100
AcDbLine
 10
6056.20079255294
 20
6705.200792552946
 30
0.0
 11
6056.20079255294
 21
6689.200792552946
 31
0.0
  0
LINE
  5
5C73
330
2
100
AcDbEntity
  8
0
  6
Continuous
 62
     7
370
    50
100
AcDbLine
 10
6382.200792552903
 20
6705.200792552946
 30
0.0
 11
6382.200792552903
 21
6689.200792552946
 31
0.0
  0
LINE
  5
5C74
330
2
100
AcDbEntity
  8
0
  6
Continuous
 62
     7
370
    50
100
AcDbLine
 10
6398.200792552903
 20
6705.200792552946
 30
0.0
 11
6382.200792552903
 21
6705.200792552946
 31
0.0
  0
LINE
  5
5C75
330
2
100
AcDbEntity
  8
0
  6
Continuous
 62
     7
370
    50
100
AcDbLine
 10
6382.200792552903
 20
6689.200792552946
 30
0.0
 11
6398.200792552903
 21
6689.200792552946
 31
0.0
  0
LINE
  5
5C76
330
2
100
AcDbEntity
  8
0
  6
Continuous
 62
     7
370
    50
100
AcDbLine
 10
6398.200792552903
 20
6689.200792552946
 30
0.0
 11
6398.200792552903
 21
6705.200792552946
 31
0.0
  0
LINE
  5
5C77
330
2
100
AcDbEntity
  8
0
  6
Continuous
 62
     7
370
    50
100
AcDbLine
 10
6382.200792552903
 20
6689.200792552946
 30
0.0
 11
6398.200792552903
 21
6689.200792552946
 31
0.0
  0
LINE
  5
5C78
330
2
100
AcDbEntity
  8
0
  6
Continuous
 62
     7
370
    50
100
AcDbLine
 10
6382.200792552903
 20
6705.200792552946
 30
0.0
 11
6382.200792552903
 21
6689.200792552946
 31
0.0
  0
LINE
  5
5C79
330
2
100
AcDbEntity
  8
0
  6
Continuous
 62
     7
370
    50
100
AcDbLine
 10
6398.200792552903
 20
6705.200792552946
 30
0.0
 11
6382.200792552903
 21
6705.200792552946
 31
0.0
  0
LINE
  5
5C7A
330
2
100
AcDbEntity
  8
0
  6
Continuous
 62
     7
370
    50
100
AcDbLine
 10
6398.200792552903
 20
6689.200792552946
 30
0.0
 11
6398.200792552903
 21
6705.200792552946
 31
0.0
  0
LINE
  5
5C7B
330
2
100
AcDbEntity
  8
0
  6
Continuous
 62
     7
370
    50
100
AcDbLine
 10
6398.200792552903
 20
6689.200792552946
 30
0.0
 11
6382.200792552903
 21
6689.200792552946
 31
0.0
  0
LINE
  5
5C7C
330
2
100
AcDbEntity
  8
0
  6
Continuous
 62
     7
370
    50
100
AcDbLine
 10
6382.200792552903
 20
6689.200792552946
 30
0.0
 11
6382.200792552903
 21
6705.200792552946
 31
0.0
  0
LINE
  5
5C7D
330
2
100
AcDbEntity
  8
0
  6
Continuous
 62
     7
370
    50
100
AcDbLine
 10
6382.200792552903
 20
6705.200792552946
 30
0.0
 11
6398.200792552903
 21
6705.200792552946
 31
0.0
  0
LINE
  5
5C7E
330
2
100
AcDbEntity
  8
0
  6
Continuous
 62
     7
370
    50
100
AcDbLine
 10
6398.200792552903
 20
6705.200792552946
 30
0.0
 11
6398.200792552903
 21
6689.200792552946
 31
0.0
  0
LINE
  5
5C7F
330
2
100
AcDbEntity
  8
0
  6
Continuous
 62
     7
370
    50
100
AcDbLine
 10
6056.20079255294
 20
6705.200792552946
 30
0.0
 11
6056.20079255294
 21
6689.200792552946
 31
0.0
  0
LINE
  5
5C80
330
2
100
AcDbEntity
  8
0
  6
Continuous
 62
     7
370
    50
100
AcDbLine
 10
6398.200792552903
 20
6689.200792552946
 30
0.0
 11
6398.200792552903
 21
6705.200792552946
 31
0.0
  0
LINE
  5
5CC1
330
2
100
AcDbEntity
  8
0
  6
Continuous
370
     5
100
AcDbLine
 10
6189.200792552945
 20
5385.200792552944
 30
0.0
 11
6189.200792552945
 21
5350.200792552944
 31
0.0
  0
LINE
  5
5CC2
330
2
100
AcDbEntity
  8
0
  6
Continuous
370
     5
100
AcDbLine
 10
6189.200792552945
 20
5350.200792552944
 30
0.0
 11
6249.200792552946
 21
5350.200792552944
 31
0.0
  0
LINE
  5
5CC3
330
2
100
AcDbEntity
  8
0
  6
Continuous
370
     5
100
AcDbLine
 10
6249.200792552946
 20
5350.200792552944
 30
0.0
 11
6249.200792552946
 21
5385.200792552944
 31
0.0
  0
LINE
  5
5CC4
330
2
100
AcDbEntity
  8
0
  6
Continuous
370
     5
100
AcDbLine
 10
6249.200792552946
 20
5385.200792552944
 30
0.0
 11
6189.200792552945
 21
5385.200792552944
 31
0.0
  0
LINE
  5
5CC5
330
2
100
AcDbEntity
  8
0
  6
Continuous
370
     5
100
AcDbLine
 10
6489.200792552941
 20
5385.200792552944
 30
0.0
 11
6489.200792552943
 21
5350.200792552944
 31
0.0
  0
LINE
  5
5CC6
330
2
100
AcDbEntity
  8
0
  6
Continuous
370
     5
100
AcDbLine
 10
6489.200792552941
 20
5350.200792552944
 30
0.0
 11
6549.200792552942
 21
5350.200792552944
 31
0.0
  0
LINE
  5
5CC7
330
2
100
AcDbEntity
  8
0
  6
Continuous
370
     5
100
AcDbLine
 10
6549.200792552944
 20
5350.200792552944
 30
0.0
 11
6549.200792552942
 21
5385.200792552944
 31
0.0
  0
LINE
  5
5CC8
330
2
100
AcDbEntity
  8
0
  6
Continuous
370
     5
100
AcDbLine
 10
6549.200792552942
 20
5385.200792552944
 30
0.0
 11
6489.200792552941
 21
5385.200792552944
 31
0.0
  0
HATCH
  5
5CC9
330
2
100
AcDbEntity
  8
0
  6
Continuous
370
     5
100
AcDbHatch
 10
0.0
 20
0.0
 30
0.0
210
0.0
220
0.0
230
1.0
  2
SOLID
 70
     1
 71
     1
 91
        1
 92
        7
 72
     0
 73
     1
 93
        4
 10
6244.200792552943
 20
5355.200792552945
 10
6244.200792552945
 20
5380.200792552944
 10
6194.200792552943
 20
5380.200792552944
 10
6194.200792552945
 20
5355.200792552945
 97
        4
330
5CCA
330
5CCD
330
5CCC
330
5CCB
 75
     0
 76
     1
 47
0.4954554904435467
 98
        1
 10
6232.336637084468
 20
5358.326357524557
1001
ACAD
1010
0.0
1020
0.0
1030
0.0
  0
LINE
  5
5CCA
102
{ACAD_REACTORS
330
5CC9
102
}
330
2
100
AcDbEntity
  8
0
  6
Continuous
370
     5
100
AcDbLine
 10
6194.200792552945
 20
5380.200792552944
 30
0.0
 11
6244.200792552945
 21
5380.200792552944
 31
0.0
  0
LINE
  5
5CCB
102
{ACAD_REACTORS
330
5CC9
102
}
330
2
100
AcDbEntity
  8
0
  6
Continuous
370
     5
100
AcDbLine
 10
6244.200792552945
 20
5380.200792552944
 30
0.0
 11
6244.200792552945
 21
5355.200792552945
 31
0.0
  0
LINE
  5
5CCC
102
{ACAD_REACTORS
330
5CC9
102
}
330
2
100
AcDbEntity
  8
0
  6
Continuous
370
     5
100
AcDbLine
 10
6244.200792552945
 20
5355.200792552945
 30
0.0
 11
6194.200792552945
 21
5355.200792552945
 31
0.0
  0
LINE
  5
5CCD
102
{ACAD_REACTORS
330
5CC9
102
}
330
2
100
AcDbEntity
  8
0
  6
Continuous
370
     5
100
AcDbLine
 10
6194.200792552945
 20
5355.200792552945
 30
0.0
 11
6194.200792552945
 21
5380.200792552944
 31
0.0
  0
HATCH
  5
5CCE
330
2
100
AcDbEntity
  8
0
  6
Continuous
370
     5
100
AcDbHatch
 10
0.0
 20
0.0
 30
0.0
210
0.0
220
0.0
230
1.0
  2
SOLID
 70
     1
 71
     1
 91
        1
 92
        7
 72
     0
 73
     1
 93
        4
 10
6544.200792552942
 20
5380.200792552944
 10
6494.200792552941
 20
5380.200792552944
 10
6494.200792552941
 20
5355.200792552945
 10
6544.200792552945
 20
5355.200792552945
 97
        4
330
5CCF
330
5CD2
330
5CD1
330
5CD0
 75
     0
 76
     1
 47
0.309775295501156
 98
        1
 10
6536.910706475866
 20
5372.337364196726
1001
ACAD
1010
0.0
1020
0.0
1030
0.0
  0
LINE
  5
5CCF
102
{ACAD_REACTORS
330
5CCE
102
}
330
2
100
AcDbEntity
  8
0
  6
Continuous
370
     5
100
AcDbLine
 10
6494.200792552941
 20
5380.200792552944
 30
0.0
 11
6544.200792552942
 21
5380.200792552944
 31
0.0
  0
LINE
  5
5CD0
102
{ACAD_REACTORS
330
5CCE
102
}
330
2
100
AcDbEntity
  8
0
  6
Continuous
370
     5
100
AcDbLine
 10
6544.200792552942
 20
5380.200792552944
 30
0.0
 11
6544.200792552944
 21
5355.200792552945
 31
0.0
  0
LINE
  5
5CD1
102
{ACAD_REACTORS
330
5CCE
102
}
330
2
100
AcDbEntity
  8
0
  6
Continuous
370
     5
100
AcDbLine
 10
6544.200792552942
 20
5355.200792552945
 30
0.0
 11
6494.200792552941
 21
5355.200792552945
 31
0.0
  0
LINE
  5
5CD2
102
{ACAD_REACTORS
330
5CCE
102
}
330
2
100
AcDbEntity
  8
0
  6
Continuous
370
     5
100
AcDbLine
 10
6494.200792552941
 20
5355.200792552945
 30
0.0
 11
6494.200792552941
 21
5380.200792552944
 31
0.0
  0
LINE
  5
5D09
330
2
100
AcDbEntity
  8
0
  6
Continuous
370
     5
100
AcDbLine
 10
10550.17765169966
 20
5385.200792552944
 30
0.0
 11
10550.17765169966
 21
5350.200792552944
 31
0.0
  0
LINE
  5
5D0A
330
2
100
AcDbEntity
  8
0
  6
Continuous
370
     5
100
AcDbLine
 10
10550.17765169966
 20
5350.200792552944
 30
0.0
 11
10490.17765169966
 21
5350.200792552944
 31
0.0
  0
LINE
  5
5D0B
330
2
100
AcDbEntity
  8
0
  6
Continuous
370
     5
100
AcDbLine
 10
10490.17765169966
 20
5350.200792552944
 30
0.0
 11
10490.17765169966
 21
5385.200792552944
 31
0.0
  0
LINE
  5
5D0C
330
2
100
AcDbEntity
  8
0
  6
Continuous
370
     5
100
AcDbLine
 10
10490.17765169966
 20
5385.200792552944
 30
0.0
 11
10550.17765169966
 21
5385.200792552944
 31
0.0
  0
LINE
  5
5D0D
330
2
100
AcDbEntity
  8
0
  6
Continuous
370
     5
100
AcDbLine
 10
10250.17765169967
 20
5385.200792552944
 30
0.0
 11
10250.17765169966
 21
5350.200792552944
 31
0.0
  0
LINE
  5
5D0E
330
2
100
AcDbEntity
  8
0
  6
Continuous
370
     5
100
AcDbLine
 10
10250.17765169967
 20
5350.200792552944
 30
0.0
 11
10190.17765169967
 21
5350.200792552944
 31
0.0
  0
LINE
  5
5D0F
330
2
100
AcDbEntity
  8
0
  6
Continuous
370
     5
100
AcDbLine
 10
10190.17765169966
 20
5350.200792552944
 30
0.0
 11
10190.17765169967
 21
5385.200792552944
 31
0.0
  0
LINE
  5
5D10
330
2
100
AcDbEntity
  8
0
  6
Continuous
370
     5
100
AcDbLine
 10
10190.17765169967
 20
5385.200792552944
 30
0.0
 11
10250.17765169967
 21
5385.200792552944
 31
0.0
  0
HATCH
  5
5D11
330
2
100
AcDbEntity
  8
0
  6
Continuous
370
     5
100
AcDbHatch
 10
0.0
 20
0.0
 30
0.0
210
0.0
220
0.0
230
1.0
  2
SOLID
 70
     1
 71
     0
 91
        1
 92
        7
 72
     0
 73
     1
 93
        4
 10
10545.17765169966
 20
5355.200792552945
 10
10545.17765169966
 20
5380.200792552944
 10
10495.17765169966
 20
5380.200792552944
 10
10495.17765169966
 20
5355.200792552945
 97
        0
 75
     0
 76
     1
 47
0.4954554904435467
 98
        1
 10
10507.04180716814
 20
5358.326357524557
1001
ACAD
1010
0.0
1020
0.0
1030
0.0
  0
LINE
  5
5D12
330
2
100
AcDbEntity
  8
0
  6
Continuous
370
     5
100
AcDbLine
 10
10545.17765169966
 20
5380.200792552944
 30
0.0
 11
10495.17765169966
 21
5380.200792552944
 31
0.0
  0
LINE
  5
5D14
330
2
100
AcDbEntity
  8
0
  6
Continuous
370
     5
100
AcDbLine
 10
10495.17765169966
 20
5355.200792552945
 30
0.0
 11
10545.17765169966
 21
5355.200792552945
 31
0.0
  0
HATCH
  5
5D16
330
2
100
AcDbEntity
  8
0
  6
Continuous
370
     5
100
AcDbHatch
 10
0.0
 20
0.0
 30
0.0
210
0.0
220
0.0
230
1.0
  2
SOLID
 70
     1
 71
     0
 91
        1
 92
        7
 72
     0
 73
     1
 93
        4
 10
10195.17765169966
 20
5355.200792552945
 10
10245.17765169967
 20
5355.200792552945
 10
10245.17765169967
 20
5380.200792552944
 10
10195.17765169966
 20
5380.200792552944
 97
        0
 75
     0
 76
     1
 47
0.309775295501156
 98
        1
 10
10202.46773777674
 20
5372.337364196726
1001
ACAD
1010
0.0
1020
0.0
1030
0.0
  0
LINE
  5
5D17
330
2
100
AcDbEntity
  8
0
  6
Continuous
370
     5
100
AcDbLine
 10
10245.17765169967
 20
5380.200792552944
 30
0.0
 11
10195.17765169966
 21
5380.200792552944
 31
0.0
  0
LINE
  5
5D19
330
2
100
AcDbEntity
  8
0
  6
Continuous
370
     5
100
AcDbLine
 10
10195.17765169966
 20
5355.200792552945
 30
0.0
 11
10245.17765169967
 21
5355.200792552945
 31
0.0
  0
ENDSEC
  0
SECTION
  2
OBJECTS
  0
DICTIONARY
  5
7
330
0
100
AcDbDictionary
281
     1
  3
ACAD_COLOR
350
32
  3
ACAD_GROUP
350
2E
  3
ACAD_LAYOUT
350
B
  3
ACAD_MATERIAL
350
31
  3
ACAD_MLEADERSTYLE
350
52B7
  3
ACAD_MLINESTYLE
350
2F
  3
ACAD_PLOTSETTINGS
350
30
  3
ACAD_PLOTSTYLENAME
350
6
  3
ACAD_SCALELIST
350
52A1
  3
ACAD_TABLESTYLE
350
4BAF
  3
ACAD_VISUALSTYLE
350
4B9E
  3
ACDB_RECOMPOSE_DATA
350
5302
  3
AcDbVariableDictionary
350
4C41
  3
AEC_DISP_REP_CONFIGURATIONS
350
52C1
  3
AEC_DISP_REP_SETS
350
4DDE
  3
AEC_DISP_REPS
350
4CB8
  3
AEC_DISPLAY_PROPS_DEFAULTS
350
4CBA
  3
AEC_PROPERTY_SET_DEFS
350
4CB7
  3
AEC_VARS
350
4CBF
  3
ASE_INDEX_DICTIONARY
350
4C3F
  3
BNS_VARIABLES
350
4C3A
  3
DWGPROPS
350
5D2D
  0
DICTIONARY
  5
12
330
11
100
AcDbDictionary
280
     1
281
     1
  3
ACAD_LAYERSTATES
360
13
  0
DICTIONARY
  5
52C5
330
4
100
AcDbDictionary
280
     1
281
     1
  3
ADSK_XREC_LAYER_RECONCILED
360
52C6
  0
DICTIONARY
  5
4C23
330
2
100
AcDbDictionary
280
     1
281
     1
  3
ACAD_SORTENTS
360
4C24
  0
DICTIONARY
  5
24
330
23
100
AcDbDictionary
280
     1
281
     1
  3
ACAD_SORTENTS
360
25
  0
DICTIONARY
  5
32
102
{ACAD_REACTORS
330
7
102
}
330
7
100
AcDbDictionary
281
     1
  0
DICTIONARY
  5
2E
102
{ACAD_REACTORS
330
7
102
}
330
7
100
AcDbDictionary
281
     1
  0
DICTIONARY
  5
B
102
{ACAD_REACTORS
330
7
102
}
330
7
100
AcDbDictionary
281
     1
  3
Layout1
350
10
  3
Model
350
A
  0
DICTIONARY
  5
31
102
{ACAD_REACTORS
330
7
102
}
330
7
100
AcDbDictionary
281
     1
  3
ByBlock
350
4B9C
  3
ByLayer
350
4B9B
  3
Global
350
4B9D
  0
DICTIONARY
  5
52B7
102
{ACAD_REACTORS
330
7
102
}
330
7
100
AcDbDictionary
281
     1
  3
Standard
350
52B8
  0
DICTIONARY
  5
2F
102
{ACAD_REACTORS
330
7
102
}
330
7
100
AcDbDictionary
281
     1
  3
Standard
350
34
  0
DICTIONARY
  5
30
102
{ACAD_REACTORS
330
7
102
}
330
7
100
AcDbDictionary
281
     1
  0
ACDBDICTIONARYWDFLT
  5
6
102
{ACAD_REACTORS
330
7
102
}
330
7
100
AcDbDictionary
281
     1
  3
Medium
350
4E52
  3
Normal
350
5
100
AcDbDictionaryWithDefault
340
5
  0
DICTIONARY
  5
52A1
102
{ACAD_REACTORS
330
7
102
}
330
7
100
AcDbDictionary
281
     1
  3
A0
350
52A2
  3
A1
350
52A3
  3
A2
350
52A4
  3
A3
350
52A5
  3
A4
350
52A6
  3
A5
350
52A7
  3
A6
350
52A8
  3
A7
350
52A9
  3
A8
350
52AA
  3
A9
350
52AB
  3
B0
350
52AC
  3
B1
350
52AD
  3
B2
350
52AE
  3
B3
350
52AF
  3
B4
350
52B0
  3
B5
350
52B1
  3
B6
350
52B2
  3
B7
350
52B3
  3
B8
350
52B4
  3
B9
350
52B5
  3
C0
350
52B6
  0
DICTIONARY
  5
4BAF
102
{ACAD_REACTORS
330
7
102
}
330
7
100
AcDbDictionary
281
     1
  3
Standard
350
4BB0
  0
DICTIONARY
  5
4B9E
102
{ACAD_REACTORS
330
7
102
}
330
7
100
AcDbDictionary
281
     1
  3
2dWireframe
350
4BA4
  3
3D Hidden
350
5169
  3
3dWireframe
350
516A
  3
Basic
350
4BA3
  3
Brighten
350
4BAA
  3
ColorChange
350
4BAE
  3
Conceptual
350
516B
  3
Dim
350
4BA9
  3
Facepattern
350
4BAD
  3
Flat
350
4B9F
  3
FlatWithEdges
350
4BA0
  3
Gouraud
350
4BA1
  3
GouraudWithEdges
350
4BA2
  3
Linepattern
350
4BAC
  3
Realistic
350
516C
  3
Thicken
350
4BAB
  0
XRECORD
  5
5302
102
{ACAD_REACTORS
330
7
102
}
330
7
100
AcDbXrecord
280
     1
 90
        1
330
4BB0
  0
DICTIONARY
  5
4C41
102
{ACAD_REACTORS
330
7
102
}
330
7
100
AcDbDictionary
281
     1
  3
CANNOSCALE
350
5305
  3
CMLEADERSTYLE
350
5303
  3
CTABLESTYLE
350
4C42
  3
DIMASSOC
350
5D2B
  3
HIDETEXT
350
5D2A
  3
INDEXCTL
350
5D29
  3
LAYEREVAL
350
5307
  3
LAYERNOTIFY
350
5308
  3
LIGHTINGUNITS
350
5306
  3
MSLTSCALE
350
5304
  3
SORTENTS
350
5D28
  0
DICTIONARY
  5
52C1
102
{ACAD_REACTORS
330
7
102
}
330
7
100
AcDbDictionary
281
     1
  3
Standard
350
52C2
  0
DICTIONARY
  5
4DDE
102
{ACAD_REACTORS
330
7
102
}
330
7
100
AcDbDictionary
281
     1
  3
Elevation
350
4DE2
  3
Model
350
4DDF
  3
Model High Detail
350
4DE6
  3
Model Low Detail
350
4DE5
  3
Plan
350
4DE0
  3
Plan Diagnostic
350
4DE7
  3
Plan High Detail
350
4DE4
  3
Plan Low Detail
350
4DE3
  3
Reflected
350
4DE1
  0
DICTIONARY
  5
4CB8
102
{ACAD_REACTORS
330
7
102
}
330
7
100
AcDbDictionary
281
     1
  3
AecDbDispRep2dSection
350
4D1A
  3
AecDbDispRepAnchor
350
4D1C
  3
AecDbDispRepAnchorBubToGrid
350
4DC2
  3
AecDbDispRepAnchorBubToGridMdl
350
4DC4
  3
AecDbDispRepAnchorBubToGridRcp
350
4DC6
  3
AecDbDispRepAnchorEntToNode
350
4D1D
  3
AecDbDispRepAnchorExtendedTagToEnt
350
4D48
  3
AecDbDispRepAnchorTagToEnt
350
4D46
  3
AecDbDispRepBdgElevLineModel
350
4D4C
  3
AecDbDispRepBdgElevLinePlan
350
4D4E
  3
AecDbDispRepBdgElevLinePlan100
350
4CB9
  3
AecDbDispRepBdgElevLinePlan50
350
4CD7
  3
AecDbDispRepBdgElevLineRcp
350
4D50
  3
AecDbDispRepBdgSectionLineModel
350
4D52
  3
AecDbDispRepBdgSectionLinePlan
350
4D54
  3
AecDbDispRepBdgSectionLinePlan100
350
4CBC
  3
AecDbDispRepBdgSectionLinePlan50
350
4CD9
  3
AecDbDispRepBdgSectionLineRcp
350
4D56
  3
AecDbDispRepBdgSectionModel
350
4D58
  3
AecDbDispRepBdgSectionSubDiv
350
4D59
  3
AecDbDispRepCeilingGrid
350
4D5B
  3
AecDbDispRepCeilingGridModel
350
4D5D
  3
AecDbDispRepCeilingGridPlan100
350
4CBE
  3
AecDbDispRepCeilingGridPlan50
350
4CDB
  3
AecDbDispRepCeilingGridRcp
350
4D5F
  3
AecDbDispRepClipVolModel
350
4D1F
  3
AecDbDispRepClipVolPlan
350
4D21
  3
AecDbDispRepClipVolResSubDiv
350
4D24
  3
AecDbDispRepClipVolResult
350
4D23
  3
AecDbDispRepColumnGrid
350
4DC8
  3
AecDbDispRepColumnGridModel
350
4DCA
  3
AecDbDispRepColumnGridPlan100
350
4CC2
  3
AecDbDispRepColumnGridPlan50
350
4CDD
  3
AecDbDispRepColumnGridRcp
350
4DCC
  3
AecDbDispRepCurtainWallLayoutModel
350
4D61
  3
AecDbDispRepCurtainWallLayoutPlan
350
4D63
  3
AecDbDispRepCurtainWallLayoutPlan100
350
4CC4
  3
AecDbDispRepCurtainWallLayoutPlan50
350
4CDF
  3
AecDbDispRepCurtainWallUnitModel
350
4D65
  3
AecDbDispRepCurtainWallUnitPlan
350
4D67
  3
AecDbDispRepCurtainWallUnitPlan100
350
4CC6
  3
AecDbDispRepCurtainWallUnitPlan50
350
4CE1
  3
AecDbDispRepDimGroupPlan
350
4CF6
  3
AecDbDispRepDimGroupPlan100
350
4CF2
  3
AecDbDispRepDimGroupPlan50
350
4CF4
  3
AecDbDispRepDisplayTheme
350
4D26
  3
AecDbDispRepDoorElev
350
4D6B
  3
AecDbDispRepDoorModel
350
4D69
  3
AecDbDispRepDoorNominal
350
4D6F
  3
AecDbDispRepDoorPlan
350
4D6D
  3
AecDbDispRepDoorPlan50
350
4CF8
  3
AecDbDispRepDoorPlanHekto
350
4CFA
  3
AecDbDispRepDoorRcp
350
4D71
  3
AecDbDispRepDoorThresholdPlan
350
4D73
  3
AecDbDispRepDoorThresholdSymbolPlan
350
4CFC
  3
AecDbDispRepEditInPlaceProfile
350
4D28
  3
AecDbDispRepEntRef
350
4D2A
  3
AecDbDispRepLayoutCurve
350
4D2C
  3
AecDbDispRepLayoutGrid2d
350
4D2E
  3
AecDbDispRepLayoutGrid3d
350
4D30
  3
AecDbDispRepMaskBlockRef
350
4D32
  3
AecDbDispRepMaskBlockRefRcp
350
4D75
  3
AecDbDispRepMassElemModel
350
4D3E
  3
AecDbDispRepMassElemPlan100
350
4CFE
  3
AecDbDispRepMassElemPlan50
350
4D00
  3
AecDbDispRepMassElemRcp
350
4D77
  3
AecDbDispRepMassElemSchem
350
4D40
  3
AecDbDispRepMassGroupModel
350
4D42
  3
AecDbDispRepMassGroupPlan
350
4D44
  3
AecDbDispRepMassGroupPlan100
350
4D02
  3
AecDbDispRepMassGroupPlan50
350
4D04
  3
AecDbDispRepMassGroupRcp
350
4D79
  3
AecDbDispRepMaterial
350
4D34
  3
AecDbDispRepMvBlockRef
350
4D36
  3
AecDbDispRepMvBlockRefModel
350
4D37
  3
AecDbDispRepMvBlockRefPlan100
350
4CC8
  3
AecDbDispRepMvBlockRefPlan50
350
4CE3
  3
AecDbDispRepMvBlockRefRcp
350
4D7B
  3
AecDbDispRepOpening
350
4D7C
  3
AecDbDispRepOpeningModel
350
4D7E
  3
AecDbDispRepOpeningPlan100
350
4D06
  3
AecDbDispRepOpeningPlan50
350
4D08
  3
AecDbDispRepOpeningPlanReflected
350
4D0A
  3
AecDbDispRepOpeningSillPlan
350
4D0C
  3
AecDbDispRepPolygonModel
350
4D38
  3
AecDbDispRepPolygonTrueColour
350
4D3A
  3
AecDbDispRepRailingModel
350
4D80
  3
AecDbDispRepRailingPlan
350
4D82
  3
AecDbDispRepRailingPlan100
350
4D0E
  3
AecDbDispRepRailingPlan50
350
4D10
  3
AecDbDispRepRoofModel
350
4D84
  3
AecDbDispRepRoofPlan
350
4D86
  3
AecDbDispRepRoofPlan100
350
4CC9
  3
AecDbDispRepRoofPlan50
350
4CE4
  3
AecDbDispRepRoofRcp
350
4D88
  3
AecDbDispRepRoofSlabModel
350
4D8C
  3
AecDbDispRepRoofSlabPlan
350
4D90
  3
AecDbDispRepRoofSlabPlan100
350
4CCB
  3
AecDbDispRepRoofSlabPlan50
350
4CE6
  3
AecDbDispRepScheduleTable
350
4D4A
  3
AecDbDispRepSlabModel
350
4D8A
  3
AecDbDispRepSlabPlan
350
4D8E
  3
AecDbDispRepSlabPlan100
350
4CCD
  3
AecDbDispRepSlabPlan50
350
4CE8
  3
AecDbDispRepSlice
350
4D3C
  3
AecDbDispRepSpaceDecomposed
350
4D92
  3
AecDbDispRepSpaceModel
350
4D94
  3
AecDbDispRepSpacePlan
350
4D96
  3
AecDbDispRepSpacePlan100
350
4CCF
  3
AecDbDispRepSpacePlan50
350
4CEA
  3
AecDbDispRepSpaceRcp
350
4D98
  3
AecDbDispRepSpaceVolume
350
4D9A
  3
AecDbDispRepStairModel
350
4D9C
  3
AecDbDispRepStairPlan
350
4D9E
  3
AecDbDispRepStairPlan100
350
4D12
  3
AecDbDispRepStairPlan50
350
4D14
  3
AecDbDispRepStairPlanOverlapping
350
4DA0
  3
AecDbDispRepStairRcp
350
4DA2
  3
AecDbDispRepWallGraph
350
4DA4
  3
AecDbDispRepWallModel
350
4DA6
  3
AecDbDispRepWallPlan
350
4DA8
  3
AecDbDispRepWallPlan100
350
4CD1
  3
AecDbDispRepWallPlan50
350
4CEC
  3
AecDbDispRepWallRcp
350
4DAA
  3
AecDbDispRepWallSchem
350
4DAC
  3
AecDbDispRepWindowAssemblyModel
350
4DAE
  3
AecDbDispRepWindowAssemblyPlan
350
4DB0
  3
AecDbDispRepWindowAssemblyPlan100
350
4CD3
  3
AecDbDispRepWindowAssemblyPlan50
350
4CEE
  3
AecDbDispRepWindowAssemblySillPlan
350
4DB2
  3
AecDbDispRepWindowElev
350
4DB6
  3
AecDbDispRepWindowModel
350
4DB4
  3
AecDbDispRepWindowNominal
350
4DBA
  3
AecDbDispRepWindowPlan
350
4DB8
  3
AecDbDispRepWindowPlan100
350
4D16
  3
AecDbDispRepWindowPlan50
350
4D18
  3
AecDbDispRepWindowRcp
350
4DBC
  3
AecDbDispRepWindowSillPlan
350
4DBE
  3
AecDbDispRepZone
350
4DC0
  3
AecDbDispRepZonePlan100
350
4CD5
  3
AecDbDispRepZonePlan50
350
4CF0
  3
AecsDbDispRepMemberElevationDesign
350
4DCE
  3
AecsDbDispRepMemberElevationDetail
350
4DD0
  3
AecsDbDispRepMemberLogical
350
4DD2
  3
AecsDbDispRepMemberModelDesign
350
4DD4
  3
AecsDbDispRepMemberModelDetail
350
4DD6
  3
AecsDbDispRepMemberPlanDesign
350
4DD8
  3
AecsDbDispRepMemberPlanDetail
350
4DDA
  3
AecsDbDispRepMemberPlanSketch
350
4DDC
  0
DICTIONARY
  5
4CBA
102
{ACAD_REACTORS
330
7
102
}
330
7
100
AcDbDictionary
281
     1
  3
*A1
350
4CBB
  3
*A10
350
4D49
  3
*A100
350
4CF1
  3
*A101
350
4CF3
  3
*A102
350
4CF5
  3
*A103
350
4CF7
  3
*A104
350
4CC1
  3
*A105
350
4CF9
  3
*A106
350
4CFB
  3
*A107
350
4CFD
  3
*A108
350
4CFF
  3
*A109
350
4D93
  3
*A11
350
4D4B
  3
*A110
350
4D01
  3
*A111
350
4D03
  3
*A112
350
4D05
  3
*A113
350
4D07
  3
*A114
350
4D09
  3
*A115
350
4D0B
  3
*A116
350
4CC3
  3
*A117
350
4D0D
  3
*A118
350
4D0F
  3
*A119
350
4D11
  3
*A12
350
4CCA
  3
*A120
350
4D95
  3
*A121
350
4D13
  3
*A122
350
4D15
  3
*A123
350
4D17
  3
*A124
350
4D19
  3
*A125
350
4D1B
  3
*A126
350
4D1E
  3
*A127
350
4D20
  3
*A128
350
4CC5
  3
*A129
350
4D22
  3
*A13
350
4D9B
  3
*A130
350
4D25
  3
*A131
350
4D97
  3
*A132
350
4D27
  3
*A133
350
4D29
  3
*A134
350
4D2B
  3
*A135
350
4D2D
  3
*A136
350
4D2F
  3
*A137
350
4D31
  3
*A138
350
4D33
  3
*A139
350
4D35
  3
*A14
350
4D4D
  3
*A140
350
4CC7
  3
*A141
350
4D39
  3
*A15
350
4D4F
  3
*A16
350
4D51
  3
*A17
350
4D53
  3
*A18
350
4D55
  3
*A19
350
4D57
  3
*A2
350
4D99
  3
*A20
350
4D5A
  3
*A21
350
4D5C
  3
*A22
350
4D5E
  3
*A23
350
4D60
  3
*A24
350
4D9D
  3
*A25
350
4CCC
  3
*A26
350
4D62
  3
*A27
350
4D64
  3
*A28
350
4D66
  3
*A29
350
4D68
  3
*A3
350
4D3B
  3
*A30
350
4D6A
  3
*A31
350
4D6C
  3
*A32
350
4D6E
  3
*A33
350
4D70
  3
*A34
350
4D72
  3
*A35
350
4CD2
  3
*A36
350
4D74
  3
*A37
350
4CCE
  3
*A38
350
4D76
  3
*A39
350
4D78
  3
*A4
350
4D3D
  3
*A40
350
4D7A
  3
*A41
350
4D7D
  3
*A42
350
4D7F
  3
*A43
350
4D81
  3
*A44
350
4D83
  3
*A45
350
4D85
  3
*A46
350
4D9F
  3
*A47
350
4D87
  3
*A48
350
4D89
  3
*A49
350
4DA1
  3
*A5
350
4D3F
  3
*A50
350
4DA3
  3
*A51
350
4DA5
  3
*A52
350
4DA7
  3
*A53
350
4DA9
  3
*A54
350
4CD0
  3
*A55
350
4DAB
  3
*A56
350
4DAD
  3
*A57
350
4DAF
  3
*A58
350
4DB1
  3
*A59
350
4CD4
  3
*A6
350
4D41
  3
*A60
350
4DB3
  3
*A61
350
4DB5
  3
*A62
350
4DB7
  3
*A63
350
4DB9
  3
*A64
350
4DBB
  3
*A65
350
4D8B
  3
*A66
350
4DBD
  3
*A67
350
4DBF
  3
*A68
350
4DC1
  3
*A69
350
4DC3
  3
*A7
350
4D43
  3
*A70
350
4DC5
  3
*A71
350
4CD6
  3
*A72
350
4DC7
  3
*A73
350
4DC9
  3
*A74
350
4DCB
  3
*A75
350
4DCD
  3
*A76
350
4D8D
  3
*A77
350
4DCF
  3
*A78
350
4DD1
  3
*A79
350
4DD3
  3
*A8
350
4D45
  3
*A80
350
4DD5
  3
*A81
350
4DD7
  3
*A82
350
4DD9
  3
*A83
350
4CD8
  3
*A84
350
4DDB
  3
*A85
350
4DDD
  3
*A86
350
4CDA
  3
*A87
350
4D8F
  3
*A88
350
4CDC
  3
*A89
350
4CDE
  3
*A9
350
4D47
  3
*A90
350
4CE0
  3
*A91
350
4CE2
  3
*A92
350
4CBD
  3
*A93
350
4CE5
  3
*A94
350
4CE7
  3
*A95
350
4CE9
  3
*A96
350
4CEB
  3
*A97
350
4CED
  3
*A98
350
4D91
  3
*A99
350
4CEF
  0
DICTIONARY
  5
4CB7
102
{ACAD_REACTORS
330
7
102
}
330
7
100
AcDbDictionary
281
     1
  0
DICTIONARY
  5
4CBF
102
{ACAD_REACTORS
330
7
102
}
330
7
100
AcDbDictionary
281
     1
  3
AEC_VARS_DWG_SETUP
350
4CC0
  0
DICTIONARY
  5
4C3F
102
{ACAD_REACTORS
330
7
102
}
330
7
100
AcDbDictionary
281
     1
  3
ASEBlockHierarchyIndexRecord
350
4C40
1001
DCO15
1040
1687160604.14
  0
DICTIONARY
  5
4C3A
102
{ACAD_REACTORS
330
7
102
}
330
7
100
AcDbDictionary
281
     1
  3
ACET-OVERKILL-FUZZ
350
5D20
  3
ACET-OVERKILL-NO-ENDTOEND
350
5D23
  3
ACET-OVERKILL-NO-PARTIAL
350
5D22
  3
ACET-OVERKILL-NO-PLINES
350
5D21
  0
XRECORD
  5
5D2D
102
{ACAD_REACTORS
330
7
102
}
330
7
100
AcDbXrecord
280
     1
  1
DWGPROPS COOKIE
  2

  3

  4

  6

  7

  8
anna.bogusz
  9

300
=
301
=
302
=
303
=
304
=
305
=
306
=
307
=
308
=
309
=
 40
7.22355380787037
 41
2452027.670547454
 42
2455330.533659028
  1

 90
        0
  0
DICTIONARY
  5
13
102
{ACAD_REACTORS
330
12
102
}
330
12
100
AcDbDictionary
281
     1
  0
XRECORD
  5
52C6
102
{ACAD_REACTORS
330
52C5
102
}
330
52C5
100
AcDbXrecord
280
     1
290
     1
  0
SORTENTSTABLE
  5
4C24
102
{ACAD_REACTORS
330
4C23
102
}
330
4C23
100
AcDbSortentsTable
330
2
331
526E
  5
526E
331
523E
  5
523E
331
5284
  5
5284
331
5988
  5
5988
331
55D9
  5
55D9
331
528D
  5
528D
331
5253
  5
5253
331
5B14
  5
5B20
331
57F2
  5
55E5
331
5237
  5
5237
331
5270
  5
5270
331
5B29
  5
5B10
331
5286
  5
5286
331
524C
  5
524C
331
57EB
  5
57F2
331
5279
  5
5279
331
55DB
  5
55DB
331
520C
  5
520C
331
59E8
  5
59E8
331
57F4
  5
55E8
331
5229
  5
5229
331
5993
  5
5993
331
521D
  5
521D
331
5272
  5
5272
331
5B1F
  5
5B03
331
524E
  5
524E
331
5B0F
  5
5B11
331
57ED
  5
57F4
331
527B
  5
527B
331
526B
  5
526B
331
520E
  5
520E
331
5291
  5
5291
331
5257
  5
5257
331
523B
  5
523B
331
5247
  5
5247
331
5B04
  5
5B05
331
5274
  5
5274
331
5207
  5
5207
331
528A
  5
528A
331
5250
  5
5250
331
5B11
  5
5B13
331
599E
  5
599E
331
5234
  5
5234
331
5240
  5
5240
331
526D
  5
526D
331
5259
  5
5259
331
5218
  5
5218
331
523D
  5
523D
331
5A11
  5
5A11
331
59C0
  5
59C0
331
55D8
  5
55D8
331
528C
  5
528C
331
5252
  5
5252
331
5B13
  5
5B16
331
57F1
  5
55E4
331
527F
  5
527F
331
5242
  5
5242
331
526F
  5
526F
331
525B
  5
525B
331
523F
  5
523F
331
524B
  5
524B
331
59D2
  5
59D2
331
5278
  5
5278
331
528E
  5
528E
331
520B
  5
520B
331
57F3
  5
55E6
331
5244
  5
5244
331
525D
  5
525D
331
521C
  5
521C
331
5287
  5
5287
331
57EC
  5
57F3
331
5231
  5
5231
331
527A
  5
527A
331
526A
  5
526A
331
55DC
  5
55DC
331
5256
  5
5256
331
520D
  5
520D
331
5290
  5
5290
331
5280
  5
5280
331
5B03
  5
5B04
331
5273
  5
5273
331
521E
  5
521E
331
5206
  5
5206
331
5289
  5
5289
331
5B10
  5
5B12
331
5233
  5
5233
331
527C
  5
527C
331
5258
  5
5258
331
520F
  5
520F
331
55CE
  5
55CE
331
5B05
  5
5B06
331
5251
  5
5251
331
5208
  5
5208
331
5235
  5
5235
331
527E
  5
527E
331
5241
  5
5241
  0
SORTENTSTABLE
  5
25
102
{ACAD_REACTORS
330
24
102
}
330
24
100
AcDbSortentsTable
330
23
  0
LAYOUT
  5
10
102
{ACAD_XDICTIONARY
360
5D30
102
}
102
{ACAD_REACTORS
330
B
102
}
330
B
100
AcDbPlotSettings
  1

  2
C:\PROGRAM FILES\AUTOCAD LT 2000\plotters\DWF ePlot.pc3
  4

  6

 40
0.0
 41
0.0
 42
0.0
 43
0.0
 44
0.0
 45
0.0
 46
0.0
 47
0.0
 48
0.0
 49
0.0
140
0.0
141
0.0
142
1.0
143
1.0
 70
   688
 72
     0
 73
     0
 74
     5
  7
100.ctb
 75
    16
147
1.0
148
0.0
149
0.0
100
AcDbLayout
  1
Layout1
 70
     1
 71
     1
 10
0.0
 20
0.0
 11
420.0
 21
297.0
 12
0.0
 22
0.0
 32
0.0
 14
1.000000000000000E+20
 24
1.000000000000000E+20
 34
1.000000000000000E+20
 15
-1.000000000000000E+20
 25
-1.000000000000000E+20
 35
-1.000000000000000E+20
146
0.0
 13
0.0
 23
0.0
 33
0.0
 16
1.0
 26
0.0
 36
0.0
 17
0.0
 27
1.0
 37
0.0
 76
     0
330
D
  0
LAYOUT
  5
A
102
{ACAD_XDICTIONARY
360
5D2E
102
}
102
{ACAD_REACTORS
330
B
102
}
330
B
100
AcDbPlotSettings
  1

  2
HP LaserJet 1200 Series PCL 6
  4
A4
  6
DZIEWANNA+GARAŻ
 40
4.233333
 41
4.233342
 42
7.789322
 43
4.233336999999999
 44
209.973328
 45
296.925995
 46
-411.0199999999999
 47
-556.77
 48
3925.5
 49
-7206.5
140
5905.0
141
-4321.9
142
1.0
143
10.0
 70
 11956
 72
     1
 73
     0
 74
     3
  7
100.ctb
 75
    20
147
0.1
148
-143787.2024529565
149
-85597.5163155559
100
AcDbLayout
  1
Model
 70
     1
 71
     0
 10
0.0
 20
0.0
 11
12.0
 21
9.0
 12
0.0
 22
0.0
 32
0.0
 14
0.0
 24
0.0
 34
0.0
 15
0.0
 25
0.0
 35
0.0
146
0.0
 13
0.0
 23
0.0
 33
0.0
 16
1.0
 26
0.0
 36
0.0
 17
0.0
 27
1.0
 37
0.0
 76
     0
330
2
331
4B99
  0
MATERIAL
  5
4B9C
102
{ACAD_XDICTIONARY
360
5D34
102
}
102
{ACAD_REACTORS
330
31
102
}
330
31
100
AcDbMaterial
  1
ByBlock
 73
     1
 78
     1
172
     1
176
     1
270
     1
274
     1
  0
MATERIAL
  5
4B9B
102
{ACAD_XDICTIONARY
360
5D32
102
}
102
{ACAD_REACTORS
330
31
102
}
330
31
100
AcDbMaterial
  1
ByLayer
 73
     1
 78
     1
172
     1
176
     1
270
     1
274
     1
  0
MATERIAL
  5
4B9D
102
{ACAD_XDICTIONARY
360
5D36
102
}
102
{ACAD_REACTORS
330
31
102
}
330
31
100
AcDbMaterial
  1
Global
 73
     1
 78
     1
172
     1
176
     1
270
     1
274
     1
  0
MLEADERSTYLE
  5
52B8
102
{ACAD_REACTORS
330
52B7
102
}
330
52B7
100
AcDbMLeaderStyle
170
     2
171
     1
172
     0
 90
        2
 40
0.0
 41
0.0
173
     1
 91
-1056964608
340
18
 92
       -2
290
     1
 42
0.09
291
     1
 43
0.36
  3
Standard
 44
0.18
300

342
15
174
     1
178
     6
175
     1
176
     0
 93
-1056964608
 45
0.18
292
     0
297
     0
 46
0.18
 94
-1056964608
 47
1.0
 49
1.0
140
1.0
293
     1
141
0.0
294
     1
177
     0
142
1.0
295
     0
296
     0
143
0.125
1001
ACAD_MLEADERVER
1070
     2
  0
MLINESTYLE
  5
34
102
{ACAD_REACTORS
330
2F
102
}
330
2F
100
AcDbMlineStyle
  2
STANDARD
 70
     0
  3

 62
   256
 51
90.0
 52
90.0
 71
     2
 49
0.5
 62
   256
  6
BYLAYER
 49
-0.5
 62
   256
  6
BYLAYER
  0
ACDBPLACEHOLDER
  5
4E52
102
{ACAD_REACTORS
330
6
102
}
330
6
  0
ACDBPLACEHOLDER
  5
5
102
{ACAD_REACTORS
330
6
102
}
330
6
  0
SCALE
  5
52A2
102
{ACAD_REACTORS
330
52A1
102
}
330
52A1
100
AcDbScale
 70
     0
300
1:1
140
1.0
141
0.1
290
     0
  0
SCALE
  5
52A3
102
{ACAD_REACTORS
330
52A1
102
}
330
52A1
100
AcDbScale
 70
     0
300
1:2
140
1.0
141
0.2
290
     0
  0
SCALE
  5
52A4
102
{ACAD_REACTORS
330
52A1
102
}
330
52A1
100
AcDbScale
 70
     0
300
1:2.5
140
1.0
141
0.25
290
     0
  0
SCALE
  5
52A5
102
{ACAD_REACTORS
330
52A1
102
}
330
52A1
100
AcDbScale
 70
     0
300
1:5
140
1.0
141
0.5
290
     0
  0
SCALE
  5
52A6
102
{ACAD_REACTORS
330
52A1
102
}
330
52A1
100
AcDbScale
 70
     0
300
1:7.5
140
1.0
141
0.75
290
     0
  0
SCALE
  5
52A7
102
{ACAD_REACTORS
330
52A1
102
}
330
52A1
100
AcDbScale
 70
     0
300
1:10
140
1.0
141
1.0
290
     1
  0
SCALE
  5
52A8
102
{ACAD_REACTORS
330
52A1
102
}
330
52A1
100
AcDbScale
 70
     0
300
1:20
140
1.0
141
2.0
290
     0
  0
SCALE
  5
52A9
102
{ACAD_REACTORS
330
52A1
102
}
330
52A1
100
AcDbScale
 70
     0
300
1:25
140
1.0
141
2.5
290
     0
  0
SCALE
  5
52AA
102
{ACAD_REACTORS
330
52A1
102
}
330
52A1
100
AcDbScale
 70
     0
300
1:50
140
1.0
141
5.0
290
     0
  0
SCALE
  5
52AB
102
{ACAD_REACTORS
330
52A1
102
}
330
52A1
100
AcDbScale
 70
     0
300
1:75
140
1.0
141
7.5
290
     0
  0
SCALE
  5
52AC
102
{ACAD_REACTORS
330
52A1
102
}
330
52A1
100
AcDbScale
 70
     0
300
1:100
140
1.0
141
10.0
290
     0
  0
SCALE
  5
52AD
102
{ACAD_REACTORS
330
52A1
102
}
330
52A1
100
AcDbScale
 70
     0
300
1:150
140
1.0
141
15.0
290
     0
  0
SCALE
  5
52AE
102
{ACAD_REACTORS
330
52A1
102
}
330
52A1
100
AcDbScale
 70
     0
300
1:200
140
1.0
141
20.0
290
     0
  0
SCALE
  5
52AF
102
{ACAD_REACTORS
330
52A1
102
}
330
52A1
100
AcDbScale
 70
     0
300
1:250
140
1.0
141
25.0
290
     0
  0
SCALE
  5
52B0
102
{ACAD_REACTORS
330
52A1
102
}
330
52A1
100
AcDbScale
 70
     0
300
1:500
140
1.0
141
50.0
290
     0
  0
SCALE
  5
52B1
102
{ACAD_REACTORS
330
52A1
102
}
330
52A1
100
AcDbScale
 70
     0
300
1:750
140
1.0
141
75.0
290
     0
  0
SCALE
  5
52B2
102
{ACAD_REACTORS
330
52A1
102
}
330
52A1
100
AcDbScale
 70
     0
300
1:1000
140
1.0
141
100.0
290
     0
  0
SCALE
  5
52B3
102
{ACAD_REACTORS
330
52A1
102
}
330
52A1
100
AcDbScale
 70
     0
300
1:1250
140
1.0
141
125.0
290
     0
  0
SCALE
  5
52B4
102
{ACAD_REACTORS
330
52A1
102
}
330
52A1
100
AcDbScale
 70
     0
300
1:2000
140
1.0
141
200.0
290
     0
  0
SCALE
  5
52B5
102
{ACAD_REACTORS
330
52A1
102
}
330
52A1
100
AcDbScale
 70
     0
300
1:2500
140
1.0
141
250.0
290
     0
  0
SCALE
  5
52B6
102
{ACAD_REACTORS
330
52A1
102
}
330
52A1
100
AcDbScale
 70
     0
300
1:5000
140
1.0
141
500.0
290
     0
  0
TABLESTYLE
  5
4BB0
102
{ACAD_XDICTIONARY
360
5300
102
}
102
{ACAD_REACTORS
330
4BAF
102
}
330
4BAF
100
AcDbTableStyle
  3
Standard
 70
     0
 71
     0
 40
0.06
 41
0.06
280
     0
281
     0
  7
Standard
140
0.18
170
     2
 62
     0
 63
     7
283
     0
274
    -2
284
     1
 64
     0
275
    -2
285
     1
 65
     0
276
    -2
286
     1
 66
     0
277
    -2
287
     1
 67
     0
278
    -2
288
     1
 68
     0
279
    -2
289
     1
 69
     0
  7
Standard
140
0.25
170
     5
 62
     0
 63
     7
283
     0
274
    -2
284
     1
 64
     0
275
    -2
285
     1
 65
     0
276
    -2
286
     1
 66
     0
277
    -2
287
     1
 67
     0
278
    -2
288
     1
 68
     0
279
    -2
289
     1
 69
     0
  7
Standard
140
0.18
170
     5
 62
     0
 63
     7
283
     0
274
    -2
284
     1
 64
     0
275
    -2
285
     1
 65
     0
276
    -2
286
     1
 66
     0
277
    -2
287
     1
 67
     0
278
    -2
288
     1
 68
     0
279
    -2
289
     1
 69
     0
  0
VISUALSTYLE
  5
4BA4
102
{ACAD_REACTORS
330
4B9E
102
}
330
4B9E
100
AcDbVisualStyle
  2
2dWireframe
 70
     4
 71
     0
 72
     2
 73
     0
 90
        0
 40
-0.6
 41
-30.0
 62
     5
 63
     7
 74
     1
 91
        4
 64
     7
 65
   257
 75
     1
175
     1
 42
1.0
 92
        0
 66
   257
 43
1.0
 76
     1
 77
     6
 78
     2
 67
     7
 79
     5
170
     0
171
     0
290
     0
174
     0
 93
        1
 44
0.0
173
     0
291
     0
 45
0.0
1001
ACAD
1000
AcDbSavedByObjectVersion
1070
     0
  0
VISUALSTYLE
  5
5169
102
{ACAD_REACTORS
330
4B9E
102
}
330
4B9E
100
AcDbVisualStyle
  2
3D Hidden
 70
     6
 71
     1
 72
     2
 73
     2
 90
        0
 40
-0.6
 41
-30.0
 62
     5
 63
     7
 74
     2
 91
        2
 64
     7
 65
   257
 75
     2
175
     1
 42
40.0
 92
        0
 66
   257
 43
1.0
 76
     1
 77
     6
 78
     2
 67
     7
 79
     3
170
     0
171
     0
290
     0
174
     0
 93
        1
 44
0.0
173
     0
291
     0
 45
0.0
1001
ACAD
1000
AcDbSavedByObjectVersion
1070
     0
  0
VISUALSTYLE
  5
516A
102
{ACAD_REACTORS
330
4B9E
102
}
330
4B9E
100
AcDbVisualStyle
  2
3dWireframe
 70
     5
 71
     0
 72
     2
 73
     0
 90
        0
 40
-0.6
 41
-30.0
 62
     5
 63
     7
 74
     1
 91
        4
 64
     7
 65
   257
 75
     1
175
     1
 42
1.0
 92
        0
 66
   257
 43
1.0
 76
     1
 77
     6
 78
     2
 67
     7
 79
     5
170
     0
171
     0
290
     0
174
     0
 93
        1
 44
0.0
173
     0
291
     0
 45
0.0
1001
ACAD
1000
AcDbSavedByObjectVersion
1070
     0
  0
VISUALSTYLE
  5
4BA3
102
{ACAD_REACTORS
330
4B9E
102
}
330
4B9E
100
AcDbVisualStyle
  2
Basic
 70
     7
 71
     1
 72
     0
 73
     1
 90
        0
 40
-0.6
 41
-30.0
 62
     5
 63
     7
 74
     0
 91
        4
 64
     7
 65
   257
 75
     1
175
     1
 42
1.0
 92
        8
 66
     7
 43
1.0
 76
     1
 77
     6
 78
     2
 67
     7
 79
     5
170
     0
171
     0
290
     0
174
     0
 93
        1
 44
0.0
173
     0
291
     1
 45
0.0
1001
ACAD
1000
AcDbSavedByObjectVersion
1070
     0
  0
VISUALSTYLE
  5
4BAA
102
{ACAD_REACTORS
330
4B9E
102
}
330
4B9E
100
AcDbVisualStyle
  2
Brighten
 70
    12
 71
     2
 72
     2
 73
     0
 90
        0
 40
-0.6
 41
-30.0
 62
     5
 63
     7
 74
     1
 91
        4
 64
     7
 65
   257
 75
     1
175
     1
 42
1.0
 92
        8
 66
     7
 43
1.0
 76
     1
 77
     6
 78
     2
 67
     7
 79
     5
170
     0
171
     0
290
     0
174
     0
 93
        1
 44
50.0
173
     0
291
     1
 45
0.0
1001
ACAD
1000
AcDbSavedByObjectVersion
1070
     0
  0
VISUALSTYLE
  5
4BAE
102
{ACAD_REACTORS
330
4B9E
102
}
330
4B9E
100
AcDbVisualStyle
  2
ColorChange
 70
    16
 71
     2
 72
     2
 73
     3
 90
        0
 40
-0.6
 41
-30.0
 62
     5
 63
     8
 74
     1
 91
        4
 64
     7
 65
   257
 75
     1
175
     1
 42
1.0
 92
        8
 66
     8
 43
1.0
 76
     1
 77
     6
 78
     2
 67
     7
 79
     5
170
     0
171
     0
290
     0
174
     0
 93
        1
 44
0.0
173
     0
291
     1
 45
0.0
1001
ACAD
1000
AcDbSavedByObjectVersion
1070
     0
  0
VISUALSTYLE
  5
516B
102
{ACAD_REACTORS
330
4B9E
102
}
330
4B9E
100
AcDbVisualStyle
  2
Conceptual
 70
     9
 71
     3
 72
     2
 73
     0
 90
        0
 40
-0.6
 41
-30.0
 62
     5
 63
     7
 74
     2
 91
        2
 64
     7
 65
   257
 75
     1
175
     1
 42
40.0
 92
        8
 66
     7
 43
1.0
 76
     1
 77
     6
 78
     2
 67
     7
 79
     3
170
     0
171
     0
290
     0
174
     0
 93
        1
 44
0.0
173
     0
291
     0
 45
0.0
1001
ACAD
1000
AcDbSavedByObjectVersion
1070
     0
  0
VISUALSTYLE
  5
4BA9
102
{ACAD_REACTORS
330
4B9E
102
}
330
4B9E
100
AcDbVisualStyle
  2
Dim
 70
    11
 71
     2
 72
     2
 73
     0
 90
        0
 40
-0.6
 41
-30.0
 62
     5
 63
     7
 74
     1
 91
        4
 64
     7
 65
   257
 75
     1
175
     1
 42
1.0
 92
        8
 66
     7
 43
1.0
 76
     1
 77
     6
 78
     2
 67
     7
 79
     5
170
     0
171
     0
290
     0
174
     0
 93
        1
 44
-50.0
173
     0
291
     1
 45
0.0
1001
ACAD
1000
AcDbSavedByObjectVersion
1070
     0
  0
VISUALSTYLE
  5
4BAD
102
{ACAD_REACTORS
330
4B9E
102
}
330
4B9E
100
AcDbVisualStyle
  2
Facepattern
 70
    15
 71
     2
 72
     2
 73
     0
 90
        0
 40
-0.6
 41
-30.0
 62
     5
 63
     7
 74
     1
 91
        4
 64
     7
 65
   257
 75
     1
175
     1
 42
1.0
 92
        8
 66
     7
 43
1.0
 76
     1
 77
     6
 78
     2
 67
     7
 79
     5
170
     0
171
     0
290
     0
174
     0
 93
        1
 44
0.0
173
     0
291
     1
 45
0.0
1001
ACAD
1000
AcDbSavedByObjectVersion
1070
     0
  0
VISUALSTYLE
  5
4B9F
102
{ACAD_REACTORS
330
4B9E
102
}
330
4B9E
100
AcDbVisualStyle
  2
Flat
 70
     0
 71
     2
 72
     1
 73
     1
 90
        2
 40
-0.6
 41
30.0
 62
     5
 63
     7
 74
     0
 91
        4
 64
     7
 65
   257
 75
     1
175
     1
 42
1.0
 92
        8
 66
     7
 43
1.0
 76
     1
 77
     6
 78
     2
 67
     7
 79
     5
170
     0
171
     0
290
     0
174
     0
 93
       13
 44
0.0
173
     0
291
     1
 45
0.0
1001
ACAD
1000
AcDbSavedByObjectVersion
1070
     0
  0
VISUALSTYLE
  5
4BA0
102
{ACAD_REACTORS
330
4B9E
102
}
330
4B9E
100
AcDbVisualStyle
  2
FlatWithEdges
 70
     1
 71
     2
 72
     1
 73
     1
 90
        2
 40
-0.6
 41
30.0
 62
     5
 63
     7
 74
     1
 91
        4
 64
     7
 65
   257
 75
     1
175
     1
 42
1.0
 92
        0
 66
   257
 43
1.0
 76
     1
 77
     6
 78
     2
 67
     7
 79
     5
170
     0
171
     0
290
     0
174
     0
 93
       13
 44
0.0
173
     0
291
     1
 45
0.0
1001
ACAD
1000
AcDbSavedByObjectVersion
1070
     0
  0
VISUALSTYLE
  5
4BA1
102
{ACAD_REACTORS
330
4B9E
102
}
330
4B9E
100
AcDbVisualStyle
  2
Gouraud
 70
     2
 71
     2
 72
     2
 73
     1
 90
        2
 40
-0.6
 41
30.0
 62
     5
 63
     7
 74
     0
 91
        4
 64
     7
 65
   257
 75
     1
175
     1
 42
1.0
 92
        0
 66
     7
 43
1.0
 76
     1
 77
     6
 78
     2
 67
     7
 79
     5
170
     0
171
     0
290
     0
174
     0
 93
       13
 44
0.0
173
     0
291
     1
 45
0.0
1001
ACAD
1000
AcDbSavedByObjectVersion
1070
     0
  0
VISUALSTYLE
  5
4BA2
102
{ACAD_REACTORS
330
4B9E
102
}
330
4B9E
100
AcDbVisualStyle
  2
GouraudWithEdges
 70
     3
 71
     2
 72
     2
 73
     1
 90
        2
 40
-0.6
 41
30.0
 62
     5
 63
     7
 74
     1
 91
        4
 64
     7
 65
   257
 75
     1
175
     1
 42
1.0
 92
        0
 66
   257
 43
1.0
 76
     1
 77
     6
 78
     2
 67
     7
 79
     5
170
     0
171
     0
290
     0
174
     0
 93
       13
 44
0.0
173
     0
291
     1
 45
0.0
1001
ACAD
1000
AcDbSavedByObjectVersion
1070
     0
  0
VISUALSTYLE
  5
4BAC
102
{ACAD_REACTORS
330
4B9E
102
}
330
4B9E
100
AcDbVisualStyle
  2
Linepattern
 70
    14
 71
     2
 72
     2
 73
     0
 90
        0
 40
-0.6
 41
-30.0
 62
     5
 63
     7
 74
     1
 91
        4
 64
     7
 65
   257
 75
     7
175
     7
 42
1.0
 92
        8
 66
     7
 43
1.0
 76
     1
 77
     6
 78
     2
 67
     7
 79
     5
170
     0
171
     0
290
     0
174
     0
 93
        1
 44
0.0
173
     0
291
     1
 45
0.0
1001
ACAD
1000
AcDbSavedByObjectVersion
1070
     0
  0
VISUALSTYLE
  5
516C
102
{ACAD_REACTORS
330
4B9E
102
}
330
4B9E
100
AcDbVisualStyle
  2
Realistic
 70
     8
 71
     2
 72
     2
 73
     0
 90
        0
 40
-0.6
 41
-30.0
 62
     5
 63
     7
 74
     1
 91
        0
 64
     7
 65
   257
 75
     1
175
     1
 42
1.0
 92
        8
 66
     8
 43
1.0
 76
     1
 77
     6
 78
     2
 67
     7
 79
     5
170
     0
171
     0
290
     0
174
     0
 93
       13
 44
0.0
173
     0
291
     0
 45
0.0
1001
ACAD
1000
AcDbSavedByObjectVersion
1070
     0
  0
VISUALSTYLE
  5
4BAB
102
{ACAD_REACTORS
330
4B9E
102
}
330
4B9E
100
AcDbVisualStyle
  2
Thicken
 70
    13
 71
     2
 72
     2
 73
     0
 90
        0
 40
-0.6
 41
-30.0
 62
     5
 63
     7
 74
     1
 91
        4
 64
     7
 65
   257
 75
     1
175
     1
 42
1.0
 92
       12
 66
     7
 43
1.0
 76
     1
 77
     6
 78
     2
 67
     7
 79
     5
170
     0
171
     0
290
     0
174
     0
 93
        1
 44
0.0
173
     0
291
     1
 45
0.0
1001
ACAD
1000
AcDbSavedByObjectVersion
1070
     0
  0
DICTIONARYVAR
  5
5305
102
{ACAD_REACTORS
330
4C41
102
}
330
4C41
100
DictionaryVariables
280
     0
  1
1:100
  0
DICTIONARYVAR
  5
5303
102
{ACAD_REACTORS
330
4C41
102
}
330
4C41
100
DictionaryVariables
280
     0
  1
STANDARD
  0
DICTIONARYVAR
  5
4C42
102
{ACAD_REACTORS
330
4C41
102
}
330
4C41
100
DictionaryVariables
280
     0
  1
STANDARD
  0
DICTIONARYVAR
  5
5D2B
102
{ACAD_REACTORS
330
4C41
102
}
330
4C41
100
DictionaryVariables
280
     0
  1
1
  0
DICTIONARYVAR
  5
5D2A
102
{ACAD_REACTORS
330
4C41
102
}
330
4C41
100
DictionaryVariables
280
     0
  1
1
  0
DICTIONARYVAR
  5
5D29
102
{ACAD_REACTORS
330
4C41
102
}
330
4C41
100
DictionaryVariables
280
     0
  1
0
  0
DICTIONARYVAR
  5
5307
102
{ACAD_REACTORS
330
4C41
102
}
330
4C41
100
DictionaryVariables
280
     0
  1
1
  0
DICTIONARYVAR
  5
5308
102
{ACAD_REACTORS
330
4C41
102
}
330
4C41
100
DictionaryVariables
280
     0
  1
15
  0
DICTIONARYVAR
  5
5306
102
{ACAD_REACTORS
330
4C41
102
}
330
4C41
100
DictionaryVariables
280
     0
  1
0
  0
DICTIONARYVAR
  5
5304
102
{ACAD_REACTORS
330
4C41
102
}
330
4C41
100
DictionaryVariables
280
     0
  1
0
  0
DICTIONARYVAR
  5
5D28
102
{ACAD_REACTORS
330
4C41
102
}
330
4C41
100
DictionaryVariables
280
     0
  1
127
  0
XRECORD
  5
4C40
102
{ACAD_REACTORS
330
4C3F
102
}
330
4C3F
100
AcDbXrecord
280
     1
330
52FA
330
52FB
330
5743
330
5744
330
574A
330
574B
330
5751
330
5752
330
5758
330
5759
330
5761
330
5762
330
5768
330
5769
330
576F
330
5770
330
5776
330
5777
330
577F
330
5780
330
5981
330
5982
330
5957
330
5958
330
592D
330
592E
330
5903
330
5904
330
58D9
330
58DA
330
58A3
330
58A4
330
5879
330
587A
330
584F
330
5850
330
5825
330
5826
330
5A42
330
5A43
330
5A49
330
5A4A
330
5A52
330
5A53
330
5A59
330
5A5A
330
5A32
330
5A33
330
59F6
330
59F7
330
5A75
330
5A76
330
5A7E
330
5A7F
330
5C1E
330
5C1F
330
5BE0
330
5BE1
330
5BE9
330
5BEA
330
5BF0
330
5BF1
330
5BF7
330
5BF8
330
5C0E
330
5C0F
330
5C07
330
5C08
330
5CF5
330
5CF6
330
5CFC
330
5CFD
330
5D03
330
5D04
  0
XRECORD
  5
5D20
102
{ACAD_REACTORS
330
4C3A
102
}
330
4C3A
100
AcDbXrecord
280
     1
 40
0.000001
  0
XRECORD
  5
5D23
102
{ACAD_REACTORS
330
4C3A
102
}
330
4C3A
100
AcDbXrecord
280
     1
 70
     0
  0
XRECORD
  5
5D22
102
{ACAD_REACTORS
330
4C3A
102
}
330
4C3A
100
AcDbXrecord
280
     1
 70
     0
  0
XRECORD
  5
5D21
102
{ACAD_REACTORS
330
4C3A
102
}
330
4C3A
100
AcDbXrecord
280
     1
 70
     0
  0
DICTIONARY
  5
5D30
330
10
100
AcDbDictionary
280
     1
281
     1
  3
ACAD_XREC_ROUNDTRIP
360
5D31
  0
DICTIONARY
  5
5D2E
330
A
100
AcDbDictionary
280
     1
281
     1
  3
ACAD_XREC_ROUNDTRIP
360
5D2F
  0
DICTIONARY
  5
5D34
330
4B9C
100
AcDbDictionary
280
     1
281
     1
  3
ACAD_XREC_ROUNDTRIP
360
5D35
  0
DICTIONARY
  5
5D32
330
4B9B
100
AcDbDictionary
280
     1
281
     1
  3
ACAD_XREC_ROUNDTRIP
360
5D33
  0
DICTIONARY
  5
5D36
330
4B9D
100
AcDbDictionary
280
     1
281
     1
  3
ACAD_XREC_ROUNDTRIP
360
5D37
  0
DICTIONARY
  5
5300
330
4BB0
100
AcDbDictionary
280
     1
281
     1
  3
ACAD_ROUNDTRIP_2008_TABLESTYLE_CELLSTYLEMAP
360
5D2C
  3
ACAD_XREC_ROUNDTRIP
360
5D38
  0
XRECORD
  5
5D31
102
{ACAD_REACTORS
330
5D30
102
}
330
5D30
100
AcDbXrecord
280
     1
102
SHADEPLOT
 70
     0
102
SHADEPLOTRESLEVEL
 70
     2
102
SHADEPLOTCUSTOMDPI
 70
   300
  0
XRECORD
  5
5D2F
102
{ACAD_REACTORS
330
5D2E
102
}
330
5D2E
100
AcDbXrecord
280
     1
102
SHADEPLOT
 70
     1
102
SHADEPLOTRESLEVEL
 70
     2
102
SHADEPLOTCUSTOMDPI
 70
   300
  0
XRECORD
  5
5D35
102
{ACAD_REACTORS
330
5D34
102
}
330
5D34
100
AcDbXrecord
280
     1
102
MATERIAL
148
0.0
149
0.0
149
0.0
 93
        0
 94
       63
282
     0
 72
     1
 77
     1
171
     1
175
     1
179
     1
273
     0
  0
XRECORD
  5
5D33
102
{ACAD_REACTORS
330
5D32
102
}
330
5D32
100
AcDbXrecord
280
     1
102
MATERIAL
148
0.0
149
0.0
149
0.0
 93
        0
 94
       63
282
     0
 72
     1
 77
     1
171
     1
175
     1
179
     1
273
     0
  0
XRECORD
  5
5D37
102
{ACAD_REACTORS
330
5D36
102
}
330
5D36
100
AcDbXrecord
280
     1
102
MATERIAL
148
0.0
149
0.0
149
0.0
 93
        0
 94
       63
282
     0
 72
     1
 77
     1
171
     1
175
     1
179
     1
273
     0
  0
CELLSTYLEMAP
  5
5D2C
102
{ACAD_REACTORS
330
5300
102
}
330
5300
100
AcDbCellStyleMap
 90
        3
300
CELLSTYLE
  1
TABLEFORMAT_BEGIN
 90
        5
170
     1
 91
        0
 92
    32768
 62
   257
 93
        1
300
CONTENTFORMAT
  1
CONTENTFORMAT_BEGIN
 90
        0
 91
        0
 92
      512
 93
        0
300

 40
0.0
140
1.0
 94
        5
 62
     0
340
15
144
0.25
309
CONTENTFORMAT_END
171
     0
 94
        6
 95
        1
302
GRIDFORMAT
  1
GRIDFORMAT_BEGIN
 90
        0
 91
        1
 62
     0
 92
       -2
340
0
 93
        0
 40
0.045
309
GRIDFORMAT_END
 95
        2
302
GRIDFORMAT
  1
GRIDFORMAT_BEGIN
 90
        0
 91
        1
 62
     0
 92
       -2
340
0
 93
        0
 40
0.045
309
GRIDFORMAT_END
 95
        4
302
GRIDFORMAT
  1
GRIDFORMAT_BEGIN
 90
        0
 91
        1
 62
     0
 92
       -2
340
0
 93
        0
 40
0.045
309
GRIDFORMAT_END
 95
        8
302
GRIDFORMAT
  1
GRIDFORMAT_BEGIN
 90
        0
 91
        1
 62
     0
 92
       -2
340
0
 93
        0
 40
0.045
309
GRIDFORMAT_END
 95
       16
302
GRIDFORMAT
  1
GRIDFORMAT_BEGIN
 90
        0
 91
        1
 62
     0
 92
       -2
340
0
 93
        0
 40
0.045
309
GRIDFORMAT_END
 95
       32
302
GRIDFORMAT
  1
GRIDFORMAT_BEGIN
 90
        0
 91
        1
 62
     0
 92
       -2
340
0
 93
        0
 40
0.045
309
GRIDFORMAT_END
309
TABLEFORMAT_END
  1
CELLSTYLE_BEGIN
 90
        1
 91
        1
300
_TITLE
309
CELLSTYLE_END
300
CELLSTYLE
  1
TABLEFORMAT_BEGIN
 90
        5
170
     1
 91
        0
 92
        0
 62
   257
 93
        1
300
CONTENTFORMAT
  1
CONTENTFORMAT_BEGIN
 90
        0
 91
        0
 92
      512
 93
        0
300

 40
0.0
140
1.0
 94
        5
 62
     0
340
15
144
0.18
309
CONTENTFORMAT_END
171
     0
 94
        6
 95
        1
302
GRIDFORMAT
  1
GRIDFORMAT_BEGIN
 90
        0
 91
        1
 62
     0
 92
       -2
340
0
 93
        0
 40
0.045
309
GRIDFORMAT_END
 95
        2
302
GRIDFORMAT
  1
GRIDFORMAT_BEGIN
 90
        0
 91
        1
 62
     0
 92
       -2
340
0
 93
        0
 40
0.045
309
GRIDFORMAT_END
 95
        4
302
GRIDFORMAT
  1
GRIDFORMAT_BEGIN
 90
        0
 91
        1
 62
     0
 92
       -2
340
0
 93
        0
 40
0.045
309
GRIDFORMAT_END
 95
        8
302
GRIDFORMAT
  1
GRIDFORMAT_BEGIN
 90
        0
 91
        1
 62
     0
 92
       -2
340
0
 93
        0
 40
0.045
309
GRIDFORMAT_END
 95
       16
302
GRIDFORMAT
  1
GRIDFORMAT_BEGIN
 90
        0
 91
        1
 62
     0
 92
       -2
340
0
 93
        0
 40
0.045
309
GRIDFORMAT_END
 95
       32
302
GRIDFORMAT
  1
GRIDFORMAT_BEGIN
 90
        0
 91
        1
 62
     0
 92
       -2
340
0
 93
        0
 40
0.045
309
GRIDFORMAT_END
309
TABLEFORMAT_END
  1
CELLSTYLE_BEGIN
 90
        2
 91
        1
300
_HEADER
309
CELLSTYLE_END
300
CELLSTYLE
  1
TABLEFORMAT_BEGIN
 90
        5
170
     1
 91
        0
 92
        0
 62
   257
 93
        1
300
CONTENTFORMAT
  1
CONTENTFORMAT_BEGIN
 90
        0
 91
        0
 92
      512
 93
        0
300

 40
0.0
140
1.0
 94
        2
 62
     0
340
15
144
0.18
309
CONTENTFORMAT_END
171
     0
 94
        6
 95
        1
302
GRIDFORMAT
  1
GRIDFORMAT_BEGIN
 90
        0
 91
        1
 62
     0
 92
       -2
340
0
 93
        0
 40
0.045
309
GRIDFORMAT_END
 95
        2
302
GRIDFORMAT
  1
GRIDFORMAT_BEGIN
 90
        0
 91
        1
 62
     0
 92
       -2
340
0
 93
        0
 40
0.045
309
GRIDFORMAT_END
 95
        4
302
GRIDFORMAT
  1
GRIDFORMAT_BEGIN
 90
        0
 91
        1
 62
     0
 92
       -2
340
0
 93
        0
 40
0.045
309
GRIDFORMAT_END
 95
        8
302
GRIDFORMAT
  1
GRIDFORMAT_BEGIN
 90
        0
 91
        1
 62
     0
 92
       -2
340
0
 93
        0
 40
0.045
309
GRIDFORMAT_END
 95
       16
302
GRIDFORMAT
  1
GRIDFORMAT_BEGIN
 90
        0
 91
        1
 62
     0
 92
       -2
340
0
 93
        0
 40
0.045
309
GRIDFORMAT_END
 95
       32
302
GRIDFORMAT
  1
GRIDFORMAT_BEGIN
 90
        0
 91
        1
 62
     0
 92
       -2
340
0
 93
        0
 40
0.045
309
GRIDFORMAT_END
309
TABLEFORMAT_END
  1
CELLSTYLE_BEGIN
 90
        3
 91
        2
300
_DATA
309
CELLSTYLE_END
  0
XRECORD
  5
5D38
102
{ACAD_REACTORS
330
5300
102
}
330
5300
100
AcDbXrecord
280
     1
102
ACAD_ROUNDTRIP_PRE2007_TABLESTYLE
 90
      512
 91
        0
  1

 92
      512
 93
        0
  2

 94
      512
 95
        0
  3

  0
ENDSEC
  0
EOF
